  0
SECTION
  2
HEADER
  9
$ACADVER
  1
AC1015
  9
$ACADMAINTVER
 70
               6
  9
$DWGCODEPAGE
  3
ANSI_932
  9
$INSBASE
 10
0.0
 20
0.0
 30
0.0
  9
$EXTMIN
 10
-975.00000000024102
 20
-1418.7614075562064
 30
-14.428611111111113
  9
$EXTMAX
 10
975.00000000024124
 20
1418.761407556206
 30
14.428611111111113
  9
$LIMMIN
 10
0.0
 20
0.0
  9
$LIMMAX
 10
0.0
 20
0.0
  9
$ORTHOMODE
 70
               0
  9
$REGENMODE
 70
               1
  9
$FILLMODE
 70
               1
  9
$QTEXTMODE
 70
               0
  9
$MIRRTEXT
 70
               1
  9
$LTSCALE
 40
50.799999999999997
  9
$ATTMODE
 70
               1
  9
$TEXTSIZE
 40
0.2
  9
$TRACEWID
 40
1.0
  9
$TEXTSTYLE
  7
Standard
  9
$CLAYER
  8
AAA70-0701
  9
$CELTYPE
  6
Continuous
  9
$CECOLOR
 62
             256
  9
$CELTSCALE
 40
1.0
  9
$DISPSILH
 70
               0
  9
$DIMSCALE
 40
1.0
  9
$DIMASZ
 40
31.75
  9
$DIMEXO
 40
0.0
  9
$DIMDLI
 40
6.9999999999999396
  9
$DIMRND
 40
0.0
  9
$DIMDLE
 40
0.0
  9
$DIMEXE
 40
19.999999999996199
  9
$DIMTP
 40
0.0
  9
$DIMTM
 40
0.0
  9
$DIMTXT
 40
24.432617187500004
  9
$DIMCEN
 40
0.0
  9
$DIMTSZ
 40
0.0
  9
$DIMTOL
 70
               0
  9
$DIMLIM
 70
               0
  9
$DIMTIH
 70
               0
  9
$DIMTOH
 70
               0
  9
$DIMSE1
 70
               0
  9
$DIMSE2
 70
               0
  9
$DIMTAD
 70
               1
  9
$DIMZIN
 70
              11
  9
$DIMBLK
  1
VW_FILLEDARROW
  9
$DIMASO
 70
               1
  9
$DIMSHO
 70
               1
  9
$DIMPOST
  1
<>
  9
$DIMAPOST
  1
[]
  9
$DIMALT
 70
               0
  9
$DIMALTD
 70
               1
  9
$DIMALTF
 40
1.0
  9
$DIMLFAC
 40
1.0
  9
$DIMTOFL
 70
               0
  9
$DIMTVP
 40
0.0
  9
$DIMTIX
 70
               1
  9
$DIMSOXD
 70
               0
  9
$DIMSAH
 70
               0
  9
$DIMBLK1
  1

  9
$DIMBLK2
  1

  9
$DIMSTYLE
  2
JIS
  9
$DIMCLRD
 70
               0
  9
$DIMCLRE
 70
               0
  9
$DIMCLRT
 70
               0
  9
$DIMTFAC
 40
1.0
  9
$DIMGAP
 40
1.00000000000108
  9
$DIMJUST
 70
               0
  9
$DIMSD1
 70
               0
  9
$DIMSD2
 70
               0
  9
$DIMTOLJ
 70
               1
  9
$DIMTZIN
 70
              11
  9
$DIMALTZ
 70
              11
  9
$DIMALTTZ
 70
              11
  9
$DIMUPT
 70
               0
  9
$DIMDEC
 70
               1
  9
$DIMTDEC
 70
               1
  9
$DIMALTU
 70
               2
  9
$DIMALTTD
 70
               2
  9
$DIMTXSTY
  7
ＭＳ ゴシック
  9
$DIMAUNIT
 70
               0
  9
$DIMADEC
 70
               2
  9
$DIMALTRND
 40
0.0
  9
$DIMAZIN
 70
               0
  9
$DIMDSEP
 70
              46
  9
$DIMATFIT
 70
               0
  9
$DIMFRAC
 70
               2
  9
$DIMLDRBLK
  1

  9
$DIMLUNIT
 70
               2
  9
$DIMLWD
 70
              -2
  9
$DIMLWE
 70
              -2
  9
$DIMTMOVE
 70
               0
  9
$LUNITS
 70
               2
  9
$LUPREC
 70
               4
  9
$SKETCHINC
 40
0.1
  9
$FILLETRAD
 40
0.0
  9
$AUNITS
 70
               0
  9
$AUPREC
 70
               0
  9
$MENU
  1
acad
  9
$ELEVATION
 40
0.0
  9
$PELEVATION
 40
0.0
  9
$THICKNESS
 40
0.0
  9
$LIMCHECK
 70
               0
  9
$CHAMFERA
 40
0.0
  9
$CHAMFERB
 40
0.0
  9
$CHAMFERC
 40
0.0
  9
$CHAMFERD
 40
0.0
  9
$SKPOLY
 70
               0
  9
$TDCREATE
 40
2456009.803194445
  9
$TDUCREATE
 40
0.000000000
  9
$TDUPDATE
 40
2456009.803194445
  9
$TDUUPDATE
 40
0.000000000
  9
$TDINDWG
 40
0.0000000000
  9
$TDUSRTIMER
 40
0.0000000000
  9
$USRTIMER
 70
               1
  9
$ANGBASE
 50
0.0
  9
$ANGDIR
 70
               0
  9
$PDMODE
 70
               1
  9
$PDSIZE
 40
-2.0
  9
$PLINEWID
 40
0.0
  9
$SPLFRAME
 70
               0
  9
$SPLINETYPE
 70
               6
  9
$SPLINESEGS
 70
               8
  9
$HANDSEED
  5
1F6
  9
$SURFTAB1
 70
               6
  9
$SURFTAB2
 70
               6
  9
$SURFTYPE
 70
               6
  9
$SURFU
 70
               6
  9
$SURFV
 70
               6
  9
$UCSBASE
  2

  9
$UCSNAME
  2

  9
$UCSORG
 10
0.0
 20
0.0
 30
0.0
  9
$UCSXDIR
 10
1.0
 20
0.0
 30
0.0
  9
$UCSYDIR
 10
0.0
 20
1.0
 30
0.0
  9
$UCSORTHOREF
  2

  9
$UCSORTHOVIEW
 70
               0
  9
$UCSORGTOP
 10
0.0
 20
0.0
 30
0.0
  9
$UCSORGBOTTOM
 10
0.0
 20
0.0
 30
0.0
  9
$UCSORGLEFT
 10
0.0
 20
0.0
 30
0.0
  9
$UCSORGRIGHT
 10
0.0
 20
0.0
 30
0.0
  9
$UCSORGFRONT
 10
0.0
 20
0.0
 30
0.0
  9
$UCSORGBACK
 10
0.0
 20
0.0
 30
0.0
  9
$PUCSBASE
  2

  9
$PUCSNAME
  2

  9
$PUCSORG
 10
0.0
 20
0.0
 30
0.0
  9
$PUCSXDIR
 10
1.0
 20
0.0
 30
0.0
  9
$PUCSYDIR
 10
0.0
 20
1.0
 30
0.0
  9
$PUCSORTHOREF
  2

  9
$PUCSORTHOVIEW
 70
               0
  9
$PUCSORGTOP
 10
0.0
 20
0.0
 30
0.0
  9
$PUCSORGBOTTOM
 10
0.0
 20
0.0
 30
0.0
  9
$PUCSORGLEFT
 10
0.0
 20
0.0
 30
0.0
  9
$PUCSORGRIGHT
 10
0.0
 20
0.0
 30
0.0
  9
$PUCSORGFRONT
 10
0.0
 20
0.0
 30
0.0
  9
$PUCSORGBACK
 10
0.0
 20
0.0
 30
0.0
  9
$USERI1
 70
               0
  9
$USERI2
 70
               0
  9
$USERI3
 70
               0
  9
$USERI4
 70
               0
  9
$USERI5
 70
               0
  9
$USERR1
 40
0.0
  9
$USERR2
 40
0.0
  9
$USERR3
 40
0.0
  9
$USERR4
 40
0.0
  9
$USERR5
 40
0.0
  9
$WORLDVIEW
 70
               1
  9
$SHADEDGE
 70
               3
  9
$SHADEDIF
 70
              70
  9
$TILEMODE
 70
               1
  9
$MAXACTVP
 70
              64
  9
$PINSBASE
 10
0.0
 20
0.0
 30
0.0
  9
$PLIMCHECK
 70
               0
  9
$PEXTMIN
 10
1.0000000000000000E+20
 20
1.0000000000000000E+20
 30
1.0000000000000000E+20
  9
$PEXTMAX
 10
-1.0000000000000000E+20
 20
-1.0000000000000000E+20
 30
-1.0000000000000000E+20
  9
$PLIMMIN
 10
0.0
 20
0.0
  9
$PLIMMAX
 10
12.0
 20
9.0
  9
$UNITMODE
 70
               0
  9
$VISRETAIN
 70
               0
  9
$PLINEGEN
 70
               1
  9
$PSLTSCALE
 70
               0
  9
$TREEDEPTH
 70
            3020
  9
$CMLSTYLE
  2
Standard
  9
$CMLJUST
 70
               0
  9
$CMLSCALE
 40
1.0
  9
$PROXYGRAPHICS
 70
               0
  9
$MEASUREMENT
 70
               1
  9
$CELWEIGHT
370
               0
  9
$ENDCAPS
280
               0
  9
$JOINSTYLE
280
               0
  9
$LWDISPLAY
290
               1
  9
$INSUNITS
 70
               4
  9
$HYPERLINKBASE
  1

  9
$STYLESHEET
  1

  9
$XEDIT
290
               1
  9
$CEPSNTYPE
380
               0
  9
$PSTYLEMODE
290
               1
  9
$FINGERPRINTGUID
  2

  9
$VERSIONGUID
  2

  9
$EXTNAMES
290
               1
  9
$PSVPSCALE
 40
0.0
  0
ENDSEC
  0
SECTION
  2
CLASSES
  0
CLASS
  1
LWPOLYLINE
  2
AcDbPolyline
  3
AutoCAD 2000
 90
        0
280
               0
281
               1
  0
CLASS
  1
IMAGE
  2
AcDbRasterImage
  3
ISM
 90
      127
280
               0
281
               1
  0
CLASS
  1
OLE2FRAME
  2
AcDbOle2Frame
  3
AutoCAD 2000
 90
        0
280
               0
281
               1
  0
CLASS
  1
HATCH
  2
AcDbHatch
  3
AutoCAD 2000
 90
        0
280
               0
281
               1
  0
CLASS
  1
DICTIONARYVAR
  2
AcDbDictionaryVar
  3
AutoCAD 2000
 90
        0
280
               0
281
               0
  0
CLASS
  1
RASTERVARIABLES
  2
AcDbRasterVariables
  3
ISM
 90
        0
280
               0
281
               0
  0
CLASS
  1
IMAGEDEF
  2
AcDbRasterImageDef
  3
ISM
 90
        0
280
               0
281
               0
  0
CLASS
  1
IMAGEDEF_REACTOR
  2
AcDbRasterImageDefReactor
  3
ISM
 90
        1
280
               0
281
               0
  0
CLASS
  1
IDBUFFER
  2
AcDbIdBuffer
  3
AutoCAD 2000
 90
        0
280
               0
281
               0
  0
CLASS
  1
SPATIAL_FILTER
  2
AcDbSpatialFilter
  3
AutoCAD 2000
 90
        0
280
               0
281
               0
  0
CLASS
  1
XRECORD
  2
AcDbXrecord
  3
AutoCAD 2000
 90
        0
280
               0
281
               0
  0
CLASS
  1
SORTENTSTABLE
  2
AcDbSortentsTable
  3
AutoCAD 2000
 90
        0
280
               0
281
               0
  0
CLASS
  1
LAYER_INDEX
  2
AcDbLayerIndex
  3
AutoCAD 2000
 90
        0
280
               0
281
               0
  0
CLASS
  1
SPATIAL_INDEX
  2
AcDbSpatialIndex
  3
AutoCAD 2000
 90
        0
280
               0
281
               0
  0
CLASS
  1
OBJECT_PTR
  2
CAseDLPNTableRecord
  3
"ASE-LPNTableRecord"
 90
        1
280
               0
281
               0
  0
CLASS
  1
LAYOUT
  2
AcDbLayout
  3
AutoCAD 2000
 90
        0
280
               0
281
               0
  0
CLASS
  1
PLOTSETTINGS
  2
AcDbPlotSettings
  3
AutoCAD 2000
 90
        0
280
               0
281
               0
  0
CLASS
  1
ACDBDICTIONARYWDFLT
  2
AcDbDictionaryWithDefault
  3
AutoCAD 2000
 90
        0
280
               0
281
               0
  0
CLASS
  1
ACDBPLACEHOLDER
  2
AcDbPlaceHolder
  3
AutoCAD 2000
 90
        0
280
               0
281
               0
  0
ENDSEC
  0
SECTION
  2
TABLES
  0
TABLE
  2
VPORT
  5
7
100
AcDbSymbolTable
 70
               1
  0
VPORT
  5
15
100
AcDbSymbolTableRecord
100
AcDbViewportTableRecord
  2
*ACTIVE
 70
               0
 10
0.0
 20
0.0
 11
1.0
 21
1.0
 12
0.0000000000001137
 22
-0.0000000000002274
 13
0.0
 23
0.0
 14
1.0
 24
1.0
 15
0.0
 25
0.0
 16
0.0
 26
0.0
 36
1.0
 17
0.0
 27
0.0
 37
0.0
 40
2837.5228151124124
 41
0.688564
 42
50.0
 43
0.0
 44
0.0
 50
0.0
 51
0.0
 71
               0
 72
            2000
 73
               1
 74
               1
 75
               0
 76
               0
 77
               0
 78
               0
281
               0
 65
               0
110
0.0
120
0.0
130
0.0
111
1.0
121
0.0
131
0.0
112
0.0
122
1.0
132
0.0
345
0
346
0
 79
               0
146
0.0
  0
ENDTAB
  0
TABLE
  2
LTYPE
  5
4
100
AcDbSymbolTable
 70
              18
  0
LTYPE
  5
11
100
AcDbSymbolTableRecord
100
AcDbLinetypeTableRecord
  2
ByBlock
 70
              64
  3

 72
              65
 73
               0
 40
0.0
  0
LTYPE
  5
12
100
AcDbSymbolTableRecord
100
AcDbLinetypeTableRecord
  2
ByLayer
 70
              64
  3

 72
              65
 73
               0
 40
0.0
  0
LTYPE
  5
13
100
AcDbSymbolTableRecord
100
AcDbLinetypeTableRecord
  2
Continuous
 70
              64
  3
Solid line
 72
              65
 73
               0
 40
0.0
  0
LTYPE
  5
37
100
AcDbSymbolTableRecord
100
AcDbLinetypeTableRecord
  2
STYLE_01
 70
               0
  3

 72
              65
 73
               2
 40
0.0375
 49
0.025
 74
               0
 49
-0.0125
 74
               0
  0
LTYPE
  5
38
100
AcDbSymbolTableRecord
100
AcDbLinetypeTableRecord
  2
STYLE_02
 70
               0
  3

 72
              65
 73
               2
 40
0.6944250000000001
 49
0.48607
 74
               0
 49
-0.2083550000000001
 74
               0
  0
LTYPE
  5
39
100
AcDbSymbolTableRecord
100
AcDbLinetypeTableRecord
  2
STYLE_03
 70
               0
  3

 72
              65
 73
               2
 40
1.25
 49
1.0416400000000001
 74
               0
 49
-0.2083599999999999
 74
               0
  0
LTYPE
  5
3A
100
AcDbSymbolTableRecord
100
AcDbLinetypeTableRecord
  2
STYLE_04
 70
               0
  3

 72
              65
 73
               2
 40
1.5277099999999999
 49
1.3194249999999998
 74
               0
 49
-0.208285
 74
               0
  0
LTYPE
  5
3B
100
AcDbSymbolTableRecord
100
AcDbLinetypeTableRecord
  2
STYLE_05
 70
               0
  3

 72
              65
 73
               2
 40
0.20828
 49
0.069425
 74
               0
 49
-0.138855
 74
               0
  0
LTYPE
  5
3C
100
AcDbSymbolTableRecord
100
AcDbLinetypeTableRecord
  2
STYLE_06
 70
               0
  3

 72
              65
 73
               4
 40
1.0416400000000001
 49
0.625
 74
               0
 49
-0.20828
 74
               0
 49
0.06943
 74
               0
 49
-0.13893
 74
               0
  0
LTYPE
  5
3D
100
AcDbSymbolTableRecord
100
AcDbLinetypeTableRecord
  2
STYLE_07
 70
               0
  3

 72
              65
 73
               6
 40
1.875
 49
0.625
 74
               0
 49
-0.20828
 74
               0
 49
0.6250000000000001
 74
               0
 49
-0.2083599999999999
 74
               0
 49
0.06943
 74
               0
 49
-0.1389299999999999
 74
               0
  0
LTYPE
  5
3E
100
AcDbSymbolTableRecord
100
AcDbLinetypeTableRecord
  2
STYLE_08
 70
               0
  3

 72
              65
 73
               6
 40
1.25
 49
0.625
 74
               0
 49
-0.20828
 74
               0
 49
0.06943
 74
               0
 49
-0.13893
 74
               0
 49
0.0694299999999999
 74
               0
 49
-0.13893
 74
               0
  0
LTYPE
  5
3F
100
AcDbSymbolTableRecord
100
AcDbLinetypeTableRecord
  2
STYLE_09
 70
               0
  3

 72
              65
 73
               4
 40
5.0
 49
3.75
 74
               0
 49
-0.2777849999999998
 74
               0
 49
0.6944300000000003
 74
               0
 49
-0.2777849999999998
 74
               0
  0
LTYPE
  5
40
100
AcDbSymbolTableRecord
100
AcDbLinetypeTableRecord
  2
STYLE_10
 70
               0
  3

 72
              65
 73
               6
 40
5.9375
 49
3.75
 74
               0
 49
-0.2777849999999998
 74
               0
 49
0.6944300000000003
 74
               0
 49
-0.2777849999999998
 74
               0
 49
0.625
 74
               0
 49
-0.3125
 74
               0
  0
LTYPE
  5
41
100
AcDbSymbolTableRecord
100
AcDbLinetypeTableRecord
  2
STYLE_11
 70
               0
  3

 72
              65
 73
               2
 40
0.0694444881889764
 49
0.0347222440944882
 74
               0
 49
-0.0347222440944882
 74
               0
  0
LTYPE
  5
42
100
AcDbSymbolTableRecord
100
AcDbLinetypeTableRecord
  2
STYLE_12
 70
               0
  3

 72
              65
 73
               2
 40
0.3937007874015748
 49
0.1968503937007874
 74
               0
 49
-0.1968503937007874
 74
               0
  0
LTYPE
  5
43
100
AcDbSymbolTableRecord
100
AcDbLinetypeTableRecord
  2
STYLE_13
 70
               0
  3

 72
              65
 73
               2
 40
0.5905511811023622
 49
0.2952755905511811
 74
               0
 49
-0.2952755905511811
 74
               0
  0
LTYPE
  5
44
100
AcDbSymbolTableRecord
100
AcDbLinetypeTableRecord
  2
STYLE_14
 70
               0
  3

 72
              65
 73
               2
 40
1.9685039370078738
 49
0.9842519685039369
 74
               0
 49
-0.9842519685039369
 74
               0
  0
LTYPE
  5
45
100
AcDbSymbolTableRecord
100
AcDbLinetypeTableRecord
  2
STYLE_15
 70
               0
  3

 72
              65
 73
               2
 40
3.9370078740157477
 49
1.9685039370078738
 74
               0
 49
-1.9685039370078738
 74
               0
  0
ENDTAB
  0
TABLE
  2
LAYER
  5
2
100
AcDbSymbolTable
 70
               5
  0
LAYER
  5
14
100
AcDbSymbolTableRecord
100
AcDbLayerTableRecord
  2
0
 70
               0
 62
               7
  6
Continuous
290
               1
370
              -3
390
1D
  0
LAYER
  5
46
100
AcDbSymbolTableRecord
100
AcDbLayerTableRecord
  2
Defpoints
 70
               0
 62
               7
  6
Continuous
290
               0
370
              -3
390
1D
  0
LAYER
  5
47
100
AcDbSymbolTableRecord
100
AcDbLayerTableRecord
  2
template
 70
               0
 62
               7
  6
Continuous
290
               1
370
              -3
390
1D
  0
LAYER
  5
48
100
AcDbSymbolTableRecord
100
AcDbLayerTableRecord
  2
notes
 70
               0
 62
               7
  6
Continuous
290
               1
370
              -3
390
1D
  0
LAYER
  5
49
100
AcDbSymbolTableRecord
100
AcDbLayerTableRecord
  2
AAA70-0701
 70
               0
 62
               7
  6
Continuous
290
               1
370
              -3
390
1D
  0
ENDTAB
  0
TABLE
  2
STYLE
  5
3
100
AcDbSymbolTable
 70
               2
  0
STYLE
  5
17
100
AcDbSymbolTableRecord
100
AcDbTextStyleTableRecord
  2
Standard
 70
               0
 40
0.0
 41
1.0
 50
0.0
 71
               0
 42
0.0
  3
txt
  4
BIGFONT.SHX
  0
STYLE
  5
36
100
AcDbSymbolTableRecord
100
AcDbTextStyleTableRecord
  2
ＭＳ ゴシック
 70
               0
 40
0.0
 41
1.0
 50
0.0
 71
               0
 42
0.0
  3

  4
ＭＳ ゴシック
1001
ACAD
1000
ＭＳ ゴシック
1071
        0
  0
ENDTAB
  0
TABLE
  2
VIEW
  5
5
100
AcDbSymbolTable
 70
               0
  0
ENDTAB
  0
TABLE
  2
UCS
  5
6
100
AcDbSymbolTable
 70
               0
  0
ENDTAB
  0
TABLE
  2
APPID
  5
8
100
AcDbSymbolTable
 70
               1
  0
APPID
  5
16
100
AcDbSymbolTableRecord
100
AcDbRegAppTableRecord
  2
ACAD
 70
               0
  0
ENDTAB
  0
TABLE
  2
DIMSTYLE
  5
9
100
AcDbSymbolTable
 70
               3
100
AcDbDimStyleTable
 71
               0
  0
DIMSTYLE
105
18
100
AcDbSymbolTableRecord
100
AcDbDimStyleTableRecord
  2
Standard
 70
               0
  3

  4

 40
1.0
 41
0.18
 42
0.0625
 43
0.38
 44
0.18
 45
0.0
 46
0.0
 47
0.0
 48
0.0
 71
               0
 72
               0
 73
               1
 74
               1
 75
               0
 76
               0
 77
               0
 78
               0
 79
               0
140
0.18
141
0.09
142
0.0
143
25.399999999999999
144
1.0
145
0.0
146
1.0
147
0.09
148
0.0
170
               0
171
               2
172
               0
173
               0
174
               0
175
               0
176
               0
177
               0
178
               0
179
               0
271
               4
272
               4
273
               2
274
               2
275
               0
276
               0
277
               2
278
              46
279
               0
280
               0
281
               0
282
               0
283
               1
284
               0
285
               0
286
               0
288
               0
289
               3
340
17
341
0
342
0
343
0
344
0
371
              -2
372
              -2
  0
DIMSTYLE
105
52
100
AcDbSymbolTableRecord
100
AcDbDimStyleTableRecord
  2
tfrom線あり
 70
               0
  3
<>
  4
[]
 40
1.0
 41
3.999755859375
 42
24.999999999999996
 43
0.9999999999999999
 44
0.0
 45
0.0
 46
0.0
 47
0.0
 48
0.0
 71
               0
 72
               0
 73
               0
 74
               0
 75
               0
 76
               0
 77
               1
 78
              11
 79
               0
140
24.432617187500004
141
0.0
142
0.0
143
1.0
144
1.0
145
0.0
146
1.0
147
0.4999999999999999
148
0.0
170
               0
171
               1
172
               0
173
               0
174
               1
175
               0
176
               0
177
               0
178
               0
179
               2
271
               1
272
               1
273
               2
274
               2
275
               0
276
               2
277
               2
278
              46
279
               0
280
               0
281
               0
282
               0
283
               1
284
              11
285
              11
286
              11
288
               0
289
               0
340
36
341
4A
342
4A
343
0
344
0
371
              -2
372
              -2
  0
DIMSTYLE
105
57
100
AcDbSymbolTableRecord
100
AcDbDimStyleTableRecord
  2
JIS
 70
               0
  3
<>
  4
[]
 40
1.0
 41
31.75
 42
0.0
 43
6.9999999999999396
 44
19.999999999996199
 45
0.0
 46
0.0
 47
0.0
 48
0.0
 71
               0
 72
               0
 73
               0
 74
               0
 75
               0
 76
               0
 77
               1
 78
              11
 79
               0
140
24.432617187500004
141
0.0
142
0.0
143
1.0
144
1.0
145
0.0
146
1.0
147
1.00000000000108
148
0.0
170
               0
171
               1
172
               0
173
               0
174
               1
175
               0
176
               0
177
               0
178
               0
179
               2
271
               1
272
               1
273
               2
274
               2
275
               0
276
               2
277
               2
278
              46
279
               0
280
               0
281
               0
282
               0
283
               1
284
              11
285
              11
286
              11
288
               0
289
               0
340
36
341
53
342
53
343
0
344
0
371
              -2
372
              -2
  0
ENDTAB
  0
TABLE
  2
BLOCK_RECORD
  5
1
100
AcDbSymbolTable
 70
              21
  0
BLOCK_RECORD
  5
A
100
AcDbSymbolTableRecord
100
AcDbBlockTableRecord
  2
*MODEL_SPACE
340
20
  0
BLOCK_RECORD
  5
B
100
AcDbSymbolTableRecord
100
AcDbBlockTableRecord
  2
*PAPER_SPACE
340
21
  0
BLOCK_RECORD
  5
4A
100
AcDbSymbolTableRecord
100
AcDbBlockTableRecord
  2
_DOT
340
0
  0
BLOCK_RECORD
  5
53
100
AcDbSymbolTableRecord
100
AcDbBlockTableRecord
  2
VW_FILLEDARROW
340
0
  0
BLOCK_RECORD
  5
23
100
AcDbSymbolTableRecord
100
AcDbBlockTableRecord
  2
グループ
340
0
102
{BLKREFS
331
152
102
}
  0
BLOCK_RECORD
  5
24
100
AcDbSymbolTableRecord
100
AcDbBlockTableRecord
  2
*D3
340
0
  0
BLOCK_RECORD
  5
25
100
AcDbSymbolTableRecord
100
AcDbBlockTableRecord
  2
*D4
340
0
  0
BLOCK_RECORD
  5
26
100
AcDbSymbolTableRecord
100
AcDbBlockTableRecord
  2
*D5
340
0
  0
BLOCK_RECORD
  5
27
100
AcDbSymbolTableRecord
100
AcDbBlockTableRecord
  2
*D6
340
0
  0
BLOCK_RECORD
  5
28
100
AcDbSymbolTableRecord
100
AcDbBlockTableRecord
  2
*D7
340
0
  0
BLOCK_RECORD
  5
29
100
AcDbSymbolTableRecord
100
AcDbBlockTableRecord
  2
*D8
340
0
  0
BLOCK_RECORD
  5
2A
100
AcDbSymbolTableRecord
100
AcDbBlockTableRecord
  2
*D9
340
0
  0
BLOCK_RECORD
  5
2B
100
AcDbSymbolTableRecord
100
AcDbBlockTableRecord
  2
*D10
340
0
  0
BLOCK_RECORD
  5
2C
100
AcDbSymbolTableRecord
100
AcDbBlockTableRecord
  2
*D11
340
0
  0
BLOCK_RECORD
  5
2D
100
AcDbSymbolTableRecord
100
AcDbBlockTableRecord
  2
*D12
340
0
  0
BLOCK_RECORD
  5
2E
100
AcDbSymbolTableRecord
100
AcDbBlockTableRecord
  2
*D13
340
0
  0
BLOCK_RECORD
  5
2F
100
AcDbSymbolTableRecord
100
AcDbBlockTableRecord
  2
*D14
340
0
  0
BLOCK_RECORD
  5
30
100
AcDbSymbolTableRecord
100
AcDbBlockTableRecord
  2
*D15
340
0
  0
BLOCK_RECORD
  5
31
100
AcDbSymbolTableRecord
100
AcDbBlockTableRecord
  2
*D16
340
0
  0
BLOCK_RECORD
  5
32
100
AcDbSymbolTableRecord
100
AcDbBlockTableRecord
  2
*D17
340
0
  0
BLOCK_RECORD
  5
33
100
AcDbSymbolTableRecord
100
AcDbBlockTableRecord
  2
*D18
340
0
  0
BLOCK_RECORD
  5
34
100
AcDbSymbolTableRecord
100
AcDbBlockTableRecord
  2
*D19
340
0
  0
BLOCK_RECORD
  5
35
100
AcDbSymbolTableRecord
100
AcDbBlockTableRecord
  2
*D20
340
0
  0
ENDTAB
  0
ENDSEC
  0
SECTION
  2
BLOCKS
  0
BLOCK
  5
D
100
AcDbEntity
  8
0
390
0
100
AcDbBlockBegin
  2
*MODEL_SPACE
 70
               0
 10
0.0
 20
0.0
 30
0.0
  3
*MODEL_SPACE
  1

  0
ENDBLK
  5
E
100
AcDbEntity
  8
0
390
0
100
AcDbBlockEnd
  0
BLOCK
  5
F
100
AcDbEntity
 67
               1
  8
0
390
0
100
AcDbBlockBegin
  2
*PAPER_SPACE
 70
               0
 10
0.0
 20
0.0
 30
0.0
  3
*PAPER_SPACE
  1

  0
ENDBLK
  5
10
100
AcDbEntity
 67
               1
  8
0
390
0
100
AcDbBlockEnd
  0
BLOCK
  5
4B
100
AcDbEntity
  8
0
390
0
100
AcDbBlockBegin
  2
_DOT
 70
               0
 10
0.0
 20
0.0
 30
0.0
  3
_DOT
  1

  0
POLYLINE
  5
4C
100
AcDbEntity
  8
0
370
              -2
390
0
  6
ByBlock
 62
               0
100
AcDb2dPolyline
 66
               1
 10
0.0
 20
0.0
 30
0.0
 70
               1
 40
0.5
 41
0.5
  0
VERTEX
  5
4D
100
AcDbEntity
  8
0
370
              -2
390
0
  6
ByBlock
 62
               0
100
AcDbVertex
100
AcDb2dVertex
 10
-0.25
 20
0.0
 30
0.0
 42
1.0
  0
VERTEX
  5
4E
100
AcDbEntity
  8
0
370
              -2
390
0
  6
ByBlock
 62
               0
100
AcDbVertex
100
AcDb2dVertex
 10
0.25
 20
0.0
 30
0.0
 42
1.0
  0
SEQEND
  5
4F
100
AcDbEntity
  8
0
390
0
  0
LINE
  5
50
100
AcDbEntity
  8
0
370
              -2
390
0
  6
ByBlock
 62
               0
100
AcDbLine
 10
-0.5
 20
0.0
 30
0.0
 11
-1.0
 21
0.0
 31
0.0
  0
ENDBLK
  5
51
100
AcDbEntity
  8
0
390
0
100
AcDbBlockEnd
  0
BLOCK
  5
54
100
AcDbEntity
  8
0
370
              -2
390
0
  6
ByBlock
 62
               0
100
AcDbBlockBegin
  2
VW_FILLEDARROW
 70
               0
 10
0.0
 20
0.0
 30
0.0
  3
VW_FILLEDARROW
  1

  0
SOLID
  5
55
100
AcDbEntity
  8
0
370
              -2
390
0
 62
               0
100
AcDbTrace
 10
0.0
 20
0.0
 30
0.0
 11
-0.9921874999999999
 21
-0.2658558393652545
 31
0.0
 12
-0.9921874999999999
 22
0.2658558393652548
 32
0.0
 13
-0.9921874999999999
 23
0.2658558393652548
 33
0.0
  0
ENDBLK
  5
56
100
AcDbEntity
  8
0
390
0
100
AcDbBlockEnd
  0
BLOCK
  5
58
100
AcDbEntity
  8
template
390
0
100
AcDbBlockBegin
  2
グループ
 70
               0
 10
0.0
 20
0.0
 30
0.0
  3
グループ
  1

  0
LWPOLYLINE
  5
59
100
AcDbEntity
  8
0
370
              15
390
0
  6
Continuous
 62
               7
100
AcDbPolyline
 90
        8
 70
             129
 10
-1212.5714921969252
 20
-2806.7256061087792
 10
-1212.5714921969252
 20
-2812.7229948023551
 10
-1222.0726891149284
 20
-2812.7229948023551
 10
-1222.0726891149284
 20
-2837.1739580658641
 10
-1230.4280663767113
 20
-2837.1739580658641
 10
-1230.4280663767113
 20
-2812.7229948023551
 10
-1239.7610233230207
 20
-2812.7229948023551
 10
-1239.7610233230207
 20
-2806.7256061087792
  0
LWPOLYLINE
  5
5A
100
AcDbEntity
  8
0
370
              15
390
0
  6
Continuous
 62
               7
100
AcDbPolyline
 90
      101
 70
             128
 10
-1199.8432003663684
 20
-2807.4538546017156
 10
-1199.82785033758
 20
-2807.4494938450298
 42
-0.0222221607813454
 10
-1199.5378457609122
 20
-2807.380869379786
 10
-1199.5220519969189
 20
-2807.3778659566888
 42
-0.0146883565586447
 10
-1199.2593492916944
 20
-2807.3358627697398
 42
-0.0127458844184949
 10
-1198.9947103245397
 20
-2807.3083258016668
 10
-1198.9322552462286
 20
-2807.3034323790789
 42
-0.019809901856755
 10
-1198.5414061367585
 20
-2807.2883472216822
 10
-1198.489594667308
 20
-2807.2884009973473
 42
-0.0147617382760574
 10
-1197.9949712063246
 20
-2807.3035210225926
 10
-1197.922279751464
 20
-2807.3078936294796
 42
-0.0162624549000184
 10
-1197.5321261219942
 20
-2807.3441265047522
 10
-1197.4105937307186
 20
-2807.3594130637507
 42
-0.008002087466507
 10
-1197.2650146996434
 20
-2807.3800959110172
 10
-1197.2266952290865
 20
-2807.3861671888221
 42
-0.0053821929676822
 10
-1197.1582111237335
 20
-2807.3977747126501
 10
-1197.8846168229322
 20
-2809.578703168364
 42
0.010866775738844
 10
-1197.9519338930645
 20
-2809.5655160531437
 10
-1197.9894019162525
 20
-2809.5590183105496
 42
0.017066320331549
 10
-1198.1326187031757
 20
-2809.5391887132569
 10
-1198.2004940358511
 20
-2809.5321415426702
 42
0.0220162375278858
 10
-1198.4808734437026
 20
-2809.5154591819
 10
-1198.5587290107612
 20
-2809.5142598146331
 42
0.0282606915783573
 10
-1198.8943653343363
 20
-2809.5280630916022
 10
-1198.9382786081044
 20
-2809.5323630816056
 42
0.0169677213685863
 10
-1199.1842031030676
 20
-2809.5649001311585
 42
0.0190576269872962
 10
-1199.4271110656491
 20
-2809.6150470032653
 10
-1199.4333702537585
 20
-2809.6165899773741
 42
0.0213685642844145
 10
-1199.683754738232
 20
-2809.6897902624773
 10
-1199.6892446331526
 20
-2809.6916532585378
 42
0.0237595297601993
 10
-1199.9427395180519
 20
-2809.7913377804339
 10
-1199.947841592081
 20
-2809.7936295559116
 42
0.0261857468816625
 10
-1200.2000123683113
 20
-2809.9231658932863
 10
-1200.2104385573966
 20
-2809.9292313677538
 42
0.0272553062023782
 10
-1200.4468683326363
 20
-2810.0846035736986
 10
-1200.4816313461438
 20
-2810.110264721789
 42
0.0325996893170546
 10
-1200.6317866897971
 20
-2810.2370125947623
 10
-1200.6554961189227
 20
-2810.2598306232776
 42
0.0138050960614773
 10
-1200.7473792751305
 20
-2810.3532802848267
 42
0.0125280103804117
 10
-1200.8342218079597
 20
-2810.4514436114218
 10
-1200.8579022528725
 20
-2810.4796021096145
 42
0.0205218024739937
 10
-1200.9830023283866
 20
-2810.6413954238442
 10
-1201.0054686688732
 20
-2810.6730551536702
 42
0.0163110129586555
 10
-1201.1611790481227
 20
-2810.9083855887375
 10
-1201.1639029441753
 20
-2810.9128093507256
 42
0.0131897341894687
 10
-1201.310703465082
 20
-2811.1659414430915
 10
-1201.3124035604478
 20
-2811.1690596822259
 42
0.0107895576053624
 10
-1201.450180262656
 20
-2811.4352748918559
 10
-1201.4509131521836
 20
-2811.4367691245075
 42
0.0091371507221883
 10
-1201.5793931008354
 20
-2811.7112943222719
 10
-1201.6091387322424
 20
-2811.7780008294258
 42
0.0135418326354703
 10
-1201.7808526713145
 20
-2812.1929386146958
 10
-1201.8144574797473
 20
-2812.2808047569729
 42
0.0092834542418064
 10
-1201.9856865396691
 20
-2812.7547032552811
 10
-1202.0113036673843
 20
-2812.8299443250676
 42
0.0054261043583794
 10
-1202.1189418156796
 20
-2813.1577082981398
 10
-1202.1364678018626
 20
-2813.2130964603871
 42
0.0008225090809422
 10
-1202.2051378536871
 20
-2813.4313652185192
 10
-1203.1898269856206
 20
-2816.4562565117758
 10
-1199.9572031455468
 20
-2816.4562565117758
 10
-1200.4613955754003
 20
-2818.3607348101277
 10
-1203.7174518573836
 20
-2818.3607348101277
 10
-1209.5466008897374
 20
-2837.1739578761326
 10
-1211.3716985000478
 20
-2837.1739578761326
 10
-1205.5370204645469
 20
-2818.3607348101277
 10
-1207.942136833587
 20
-2818.3607348101277
 10
-1207.4379444037336
 20
-2816.4562565117758
 10
-1205.0093955927837
 20
-2816.4562565117758
 10
-1204.1492406745951
 20
-2813.8198435110767
 42
-0.0005863560624464
 10
-1204.1125059963895
 20
-2813.7030170907783
 10
-1204.036418162731
 20
-2813.4620247913995
 42
-0.008752237892494
 10
-1203.8369500192759
 20
-2812.866748704258
 10
-1203.7446857438583
 20
-2812.6066085357329
 42
-0.007740095382555
 10
-1203.4867520847297
 20
-2811.9136038581919
 10
-1203.4709871131536
 20
-2811.8731729748129
 42
-0.0082369946332203
 10
-1203.2239026425389
 20
-2811.2690939086101
 42
-0.0085725238365565
 10
-1202.9566565465329
 20
-2810.6736678693164
 10
-1202.8550269455261
 20
-2810.4572467673324
 42
-0.0168109410588858
 10
-1202.5680825167988
 20
-2809.8960392412337
 10
-1202.4422391263629
 20
-2809.6690752082777
 42
-0.0007817726868767
 10
-1202.3879547762831
 20
-2809.5715309632051
 10
-1202.387826470276
 20
-2809.571301254487
 42
-0.003662614215754
 10
-1202.3329386062444
 20
-2809.4747033745002
 42
-0.0080221150674661
 10
-1202.2758143508379
 20
-2809.3794241397477
 10
-1202.2451143994765
 20
-2809.3300331906248
 42
-0.0202139325569367
 10
-1202.1174586596692
 20
-2809.1420515899426
 10
-1202.0633911944822
 20
-2809.0689727257027
 42
-0.0249323791794401
 10
-1201.8042284007633
 20
-2808.7529274835483
 10
-1201.7800885866359
 20
-2808.7263132106355
 42
-0.0242132121539229
 10
-1201.4404078450953
 20
-2808.3864297244327
 10
-1201.392496272342
 20
-2808.3429205882444
 42
-0.0251017527852394
 10
-1201.1085145717027
 20
-2808.1099278424808
 10
-1201.1070690948914
 20
-2808.1088585849038
 42
-0.0130868069033673
 10
-1200.8088084449316
 20
-2807.9000781163595
 10
-1200.8072466257906
 20
-2807.8990446760854
 42
-0.0290329526389276
 10
-1200.4961354843956
 20
-2807.718219174455
 10
-1200.4662899224063
 20
-2807.7031167916139
 42
-0.016025019004794
 10
-1200.200385508645
 20
-2807.5791006814025
 42
-0.0267600374774396
 10
-1199.9251094311714
 20
-2807.4783523608526
 10
-1199.8983735116553
 20
-2807.4701598020283
 42
-0.0049981587650601
 10
-1199.8432003663684
 20
-2807.4538546017156
 42
-0.0049981587650601
  0
LWPOLYLINE
  5
5B
100
AcDbEntity
  8
0
370
              15
390
0
  6
Continuous
 62
               7
100
AcDbPolyline
 90
      118
 70
             128
 10
-1180.0288328019215
 20
-2816.5302398396029
 10
-1178.1537108774219
 20
-2816.5302398396029
 10
-1178.9917497830218
 20
-2819.2118063660027
 42
-0.0010587229201984
 10
-1178.9602939674812
 20
-2819.1749018326846
 10
-1178.9020998768178
 20
-2819.1069195764721
 42
-0.0071874740405649
 10
-1178.7517246587167
 20
-2818.9362788844392
 10
-1178.6100018854577
 20
-2818.7800427431293
 42
-0.0148118053511988
 10
-1178.159872592747
 20
-2818.3124288971189
 10
-1178.0726502578402
 20
-2818.2270315762607
 42
-0.0086273358693892
 10
-1177.7371014568346
 20
-2817.9096559422469
 10
-1177.693267740608
 20
-2817.8696062979134
 42
-0.0103138323117853
 10
-1177.4352440383752
 20
-2817.6434431605753
 10
-1177.3894696320494
 20
-2817.6049611133162
 42
-0.0060206748561242
 10
-1177.216621567936
 20
-2817.4631664625608
 10
-1177.2145904370568
 20
-2817.4615407569349
 42
-0.0067069027291482
 10
-1177.0422976223877
 20
-2817.3273901231346
 10
-1177.0397488564599
 20
-2817.3254599532579
 42
-0.0076184352054399
 10
-1176.8688435905901
 20
-2817.2000850780155
 42
-0.0089652861671587
 10
-1176.6938826278572
 20
-2817.0804518176842
 10
-1176.6575309077073
 20
-2817.0565406041978
 42
-0.015691624593824
 10
-1176.4615714105505
 20
-2816.9362781177251
 42
-0.0023299011058793
 10
-1176.2613093665295
 20
-2816.8231001781614
 10
-1176.2459252341907
 20
-2816.8145001831199
 42
-0.0107669341474962
 10
-1176.0116884090871
 20
-2816.6901000497692
 10
-1175.9894236080145
 20
-2816.6788832998204
 42
-0.0078058045908418
 10
-1175.7058334900769
 20
-2816.541521844189
 10
-1175.6959264023526
 20
-2816.5369127163135
 42
-0.0181829330467222
 10
-1175.3856169977312
 20
-2816.406048975216
 10
-1175.3315615551671
 20
-2816.3855338552735
 42
-0.0208411536028567
 10
-1174.9824765877202
 20
-2816.2694433927813
 10
-1174.9681204875994
 20
-2816.2653249478299
 42
-0.0222799817149185
 10
-1174.6394006936755
 20
-2816.1866833816875
 10
-1174.6305117304369
 20
-2816.1849713711022
 42
-0.0215509523875446
 10
-1174.3140407621586
 20
-2816.1380556825679
 10
-1174.2715588011051
 20
-2816.1336181557767
 42
-0.0182545924863843
 10
-1174.0374500218045
 20
-2816.1177743303861
 10
-1173.9980490054593
 20
-2816.1165497853071
 42
-0.0072962856526971
 10
-1173.8421261257677
 20
-2816.1139804567847
 10
-1173.8130264552178
 20
-2816.113925621381
 42
-0.00592275163198
 10
-1173.7152769560505
 20
-2816.1148993331717
 10
-1173.6860347384663
 20
-2816.1155370997772
 42
-0.0011833111938445
 10
-1173.6467834548462
 20
-2816.1164861040852
 10
-1174.4421700504533
 20
-2818.6552200491842
 42
0.0143932051674296
 10
-1174.468571432802
 20
-2818.6450210791395
 10
-1174.4758434052212
 20
-2818.6424498602814
 42
0.0234388603420021
 10
-1174.5176742711524
 20
-2818.6298306245662
 10
-1174.526355934066
 20
-2818.627649662561
 42
0.0199162742989605
 10
-1174.586644768146
 20
-2818.6150329272255
 10
-1174.6074587059522
 20
-2818.6115357277972
 42
0.0293643550685575
 10
-1174.7105335647157
 20
-2818.600385682144
 10
-1174.7352187454317
 20
-2818.5991740651257
 42
0.0214606686878533
 10
-1174.8883596613923
 20
-2818.598235504709
 10
-1174.8977315722022
 20
-2818.5985804162528
 42
0.0167564054188234
 10
-1175.0692517633065
 20
-2818.6106574586202
 10
-1175.0777115560695
 20
-2818.6115387990476
 42
0.0137677553234093
 10
-1175.2650648693427
 20
-2818.6362881075925
 10
-1175.2724166088419
 20
-2818.6374660275592
 42
0.0118497261496403
 10
-1175.4729143729435
 20
-2818.6744833777484
 10
-1175.4790643801907
 20
-2818.6757702404684
 42
0.0106421143876606
 10
-1175.6899452674743
 20
-2818.7246026160428
 10
-1175.6948540758647
 20
-2818.7258499587283
 42
0.0099746379703663
 10
-1175.9133125450253
 20
-2818.7860244870421
 10
-1175.9748605851973
 20
-2818.8043063656737
 42
0.0191613675850078
 10
-1176.3108450477087
 20
-2818.9182837459589
 10
-1176.3989048204535
 20
-2818.9519706562824
 42
0.0205274080138626
 10
-1176.7842115923593
 20
-2819.1177990641113
 10
-1176.8418608743441
 20
-2819.1454670286853
 42
0.0181256912203726
 10
-1177.1001378150081
 20
-2819.2811508476616
 10
-1177.1530931983264
 20
-2819.3114684608786
 42
0.0140709242415724
 10
-1177.2980481329505
 20
-2819.3999631343104
 10
-1177.3242970015524
 20
-2819.4170199530149
 42
0.0086667884377647
 10
-1177.4132231631115
 20
-2819.4770226209089
 42
0.0036408192023418
 10
-1177.5006564011514
 20
-2819.539203478706
 10
-1177.5358832756137
 20
-2819.564644424614
 42
0.0052260781284618
 10
-1177.6921119729984
 20
-2819.6799768112437
 10
-1177.7083188292643
 20
-2819.6922049218665
 42
0.0050024435896513
 10
-1177.8943221723171
 20
-2819.8354874901238
 10
-1177.9096403288381
 20
-2819.847533512574
 42
0.0136138710279836
 10
-1178.1200815971631
 20
-2820.0225000174873
 10
-1178.1537494729573
 20
-2820.0520789902021
 42
0.0172815186913331
 10
-1178.41815301462
 20
-2820.301075662825
 10
-1178.4207153604623
 20
-2820.3036614799721
 42
0.0189403857984862
 10
-1178.6712971590412
 20
-2820.5764667447761
 10
-1178.7039286525796
 20
-2820.6148106762762
 42
0.0185044199512365
 10
-1178.8958850915574
 20
-2820.8580592573967
 42
0.0088565243903403
 10
-1179.0743451981855
 20
-2821.1115756775466
 10
-1179.0835231778342
 20
-2821.1251170573069
 42
0.0157195347233246
 10
-1179.2667437841699
 20
-2821.4146392666248
 10
-1179.3128267261013
 20
-2821.4927914636469
 42
0.009545187979076
 10
-1179.477912276237
 20
-2821.7853861059998
 10
-1179.4890601951668
 20
-2821.8060567781317
 42
0.010035170624677
 10
-1179.6211039443258
 20
-2822.0631123386229
 42
0.0086935915430618
 10
-1179.7434350961214
 20
-2822.3249454840306
 10
-1179.7467558375342
 20
-2822.3323878069987
 42
0.0072580174864718
 10
-1179.8671022894805
 20
-2822.612979798585
 10
-1179.8703639227856
 20
-2822.6208998245997
 42
0.0060005122616704
 10
-1179.989564591127
 20
-2822.9205094952017
 10
-1179.9927755694698
 20
-2822.9288710231094
 42
0.0049017786982607
 10
-1180.1116757283269
 20
-2823.2478000037127
 10
-1180.1148415347179
 20
-2823.2565529409449
 42
0.0039415167605751
 10
-1180.2342778127761
 20
-2823.5950950033625
 10
-1180.2374089154266
 20
-2823.6041982042339
 42
0.0031035838771985
 10
-1180.3582137011135
 20
-2823.9626380659888
 10
-1180.36132374565
 20
-2823.9720586873818
 42
0.0025070747147588
 10
-1180.4842250969637
 20
-2824.3507059043204
 10
-1180.5215189933908
 20
-2824.4675975695791
 42
0.0029081910280922
 10
-1180.7135372912019
 20
-2825.0817612278711
 10
-1180.7543404597186
 20
-2825.2149844701466
 42
0.0009266453736234
 10
-1181.0227578340373
 20
-2826.0972089300826
 10
-1181.0436453066977
 20
-2826.1663208093837
 42
-0.0005809993662486
 10
-1181.3209819872652
 20
-2827.0801289159449
 10
-1181.3872637855286
 20
-2827.2976138480735
 42
-0.0012018708166935
 10
-1181.5342480949673
 20
-2827.7757765126253
 10
-1181.5865679465448
 20
-2827.9445356535293
 42
-0.0002691059594016
 10
-1181.6301374277014
 20
-2828.0848032738331
 10
-1184.4630933259907
 20
-2837.1739578761326
 10
-1186.2810822179692
 20
-2837.1739578761326
 10
-1180.0288328019215
 20
-2816.5302398396029
  0
SPLINE
  5
5C
100
AcDbEntity
  8
0
370
              15
390
0
  6
Continuous
 62
               7
100
AcDbSpline
210
0.0
220
0.0
230
1.0
 70
              13
 71
               2
 72
             782
 73
             779
 74
               0
 42
0.000001
 43
0.000001
 40
0.0
 40
0.0
 40
0.0
 40
1.0
 40
1.0
 40
2.0
 40
2.0
 40
3.0
 40
3.0
 40
4.0
 40
4.0
 40
5.0
 40
5.0
 40
6.0
 40
6.0
 40
7.0
 40
7.0
 40
8.0
 40
8.0
 40
9.0
 40
9.0
 40
10.0
 40
10.0
 40
11.0
 40
11.0
 40
12.0
 40
12.0
 40
13.0
 40
13.0
 40
14.0
 40
14.0
 40
15.0
 40
15.0
 40
16.0
 40
16.0
 40
17.0
 40
17.0
 40
18.0
 40
18.0
 40
19.0
 40
19.0
 40
20.0
 40
20.0
 40
21.0
 40
21.0
 40
22.0
 40
22.0
 40
23.0
 40
23.0
 40
24.0
 40
24.0
 40
25.0
 40
25.0
 40
26.0
 40
26.0
 40
27.0
 40
27.0
 40
28.0
 40
28.0
 40
29.0
 40
29.0
 40
30.0
 40
30.0
 40
31.0
 40
31.0
 40
32.0
 40
32.0
 40
33.0
 40
33.0
 40
34.0
 40
34.0
 40
35.0
 40
35.0
 40
36.0
 40
36.0
 40
37.0
 40
37.0
 40
38.0
 40
38.0
 40
39.0
 40
39.0
 40
40.0
 40
40.0
 40
41.0
 40
41.0
 40
42.0
 40
42.0
 40
43.0
 40
43.0
 40
44.0
 40
44.0
 40
45.0
 40
45.0
 40
46.0
 40
46.0
 40
47.0
 40
47.0
 40
48.0
 40
48.0
 40
49.0
 40
49.0
 40
50.0
 40
50.0
 40
51.0
 40
51.0
 40
52.0
 40
52.0
 40
53.0
 40
53.0
 40
54.0
 40
54.0
 40
55.0
 40
55.0
 40
56.0
 40
56.0
 40
57.0
 40
57.0
 40
58.0
 40
58.0
 40
59.0
 40
59.0
 40
60.0
 40
60.0
 40
61.0
 40
61.0
 40
62.0
 40
62.0
 40
63.0
 40
63.0
 40
64.0
 40
64.0
 40
65.0
 40
65.0
 40
66.0
 40
66.0
 40
67.0
 40
67.0
 40
68.0
 40
68.0
 40
69.0
 40
69.0
 40
70.0
 40
70.0
 40
71.0
 40
71.0
 40
72.0
 40
72.0
 40
73.0
 40
73.0
 40
74.0
 40
74.0
 40
75.0
 40
75.0
 40
76.0
 40
76.0
 40
77.0
 40
77.0
 40
78.0
 40
78.0
 40
79.0
 40
79.0
 40
80.0
 40
80.0
 40
81.0
 40
81.0
 40
82.0
 40
82.0
 40
83.0
 40
83.0
 40
84.0
 40
84.0
 40
85.0
 40
85.0
 40
86.0
 40
86.0
 40
87.0
 40
87.0
 40
88.0
 40
88.0
 40
89.0
 40
89.0
 40
90.0
 40
90.0
 40
91.0
 40
91.0
 40
92.0
 40
92.0
 40
93.0
 40
93.0
 40
94.0
 40
94.0
 40
95.0
 40
95.0
 40
96.0
 40
96.0
 40
97.0
 40
97.0
 40
98.0
 40
98.0
 40
99.0
 40
99.0
 40
100.0
 40
100.0
 40
101.0
 40
101.0
 40
102.0
 40
102.0
 40
103.0
 40
103.0
 40
104.0
 40
104.0
 40
105.0
 40
105.0
 40
106.0
 40
106.0
 40
107.0
 40
107.0
 40
108.0
 40
108.0
 40
109.0
 40
109.0
 40
110.0
 40
110.0
 40
111.0
 40
111.0
 40
112.0
 40
112.0
 40
113.0
 40
113.0
 40
114.0
 40
114.0
 40
115.0
 40
115.0
 40
116.0
 40
116.0
 40
117.0
 40
117.0
 40
118.0
 40
118.0
 40
119.0
 40
119.0
 40
120.0
 40
120.0
 40
121.0
 40
121.0
 40
122.0
 40
122.0
 40
123.0
 40
123.0
 40
124.0
 40
124.0
 40
125.0
 40
125.0
 40
126.0
 40
126.0
 40
127.0
 40
127.0
 40
128.0
 40
128.0
 40
129.0
 40
129.0
 40
130.0
 40
130.0
 40
131.0
 40
131.0
 40
132.0
 40
132.0
 40
133.0
 40
133.0
 40
134.0
 40
134.0
 40
135.0
 40
135.0
 40
136.0
 40
136.0
 40
137.0
 40
137.0
 40
138.0
 40
138.0
 40
139.0
 40
139.0
 40
140.0
 40
140.0
 40
141.0
 40
141.0
 40
142.0
 40
142.0
 40
143.0
 40
143.0
 40
144.0
 40
144.0
 40
145.0
 40
145.0
 40
146.0
 40
146.0
 40
147.0
 40
147.0
 40
148.0
 40
148.0
 40
149.0
 40
149.0
 40
150.0
 40
150.0
 40
151.0
 40
151.0
 40
152.0
 40
152.0
 40
153.0
 40
153.0
 40
154.0
 40
154.0
 40
155.0
 40
155.0
 40
156.0
 40
156.0
 40
157.0
 40
157.0
 40
158.0
 40
158.0
 40
159.0
 40
159.0
 40
160.0
 40
160.0
 40
161.0
 40
161.0
 40
162.0
 40
162.0
 40
163.0
 40
163.0
 40
164.0
 40
164.0
 40
165.0
 40
165.0
 40
166.0
 40
166.0
 40
167.0
 40
167.0
 40
168.0
 40
168.0
 40
169.0
 40
169.0
 40
170.0
 40
170.0
 40
171.0
 40
171.0
 40
172.0
 40
172.0
 40
173.0
 40
173.0
 40
174.0
 40
174.0
 40
175.0
 40
175.0
 40
176.0
 40
176.0
 40
177.0
 40
177.0
 40
178.0
 40
178.0
 40
179.0
 40
179.0
 40
180.0
 40
180.0
 40
181.0
 40
181.0
 40
182.0
 40
182.0
 40
183.0
 40
183.0
 40
184.0
 40
184.0
 40
185.0
 40
185.0
 40
186.0
 40
186.0
 40
187.0
 40
187.0
 40
188.0
 40
188.0
 40
189.0
 40
189.0
 40
190.0
 40
190.0
 40
191.0
 40
191.0
 40
192.0
 40
192.0
 40
193.0
 40
193.0
 40
194.0
 40
194.0
 40
195.0
 40
195.0
 40
196.0
 40
196.0
 40
197.0
 40
197.0
 40
198.0
 40
198.0
 40
199.0
 40
199.0
 40
200.0
 40
200.0
 40
201.0
 40
201.0
 40
202.0
 40
202.0
 40
203.0
 40
203.0
 40
204.0
 40
204.0
 40
205.0
 40
205.0
 40
206.0
 40
206.0
 40
207.0
 40
207.0
 40
208.0
 40
208.0
 40
209.0
 40
209.0
 40
210.0
 40
210.0
 40
211.0
 40
211.0
 40
212.0
 40
212.0
 40
213.0
 40
213.0
 40
214.0
 40
214.0
 40
215.0
 40
215.0
 40
216.0
 40
216.0
 40
217.0
 40
217.0
 40
218.0
 40
218.0
 40
219.0
 40
219.0
 40
220.0
 40
220.0
 40
221.0
 40
221.0
 40
222.0
 40
222.0
 40
223.0
 40
223.0
 40
224.0
 40
224.0
 40
225.0
 40
225.0
 40
226.0
 40
226.0
 40
227.0
 40
227.0
 40
228.0
 40
228.0
 40
229.0
 40
229.0
 40
230.0
 40
230.0
 40
231.0
 40
231.0
 40
232.0
 40
232.0
 40
233.0
 40
233.0
 40
234.0
 40
234.0
 40
235.0
 40
235.0
 40
236.0
 40
236.0
 40
237.0
 40
237.0
 40
238.0
 40
238.0
 40
239.0
 40
239.0
 40
240.0
 40
240.0
 40
241.0
 40
241.0
 40
242.0
 40
242.0
 40
243.0
 40
243.0
 40
244.0
 40
244.0
 40
245.0
 40
245.0
 40
246.0
 40
246.0
 40
247.0
 40
247.0
 40
248.0
 40
248.0
 40
249.0
 40
249.0
 40
250.0
 40
250.0
 40
251.0
 40
251.0
 40
252.0
 40
252.0
 40
253.0
 40
253.0
 40
254.0
 40
254.0
 40
255.0
 40
255.0
 40
256.0
 40
256.0
 40
257.0
 40
257.0
 40
258.0
 40
258.0
 40
259.0
 40
259.0
 40
260.0
 40
260.0
 40
261.0
 40
261.0
 40
262.0
 40
262.0
 40
263.0
 40
263.0
 40
264.0
 40
264.0
 40
265.0
 40
265.0
 40
266.0
 40
266.0
 40
267.0
 40
267.0
 40
268.0
 40
268.0
 40
269.0
 40
269.0
 40
270.0
 40
270.0
 40
271.0
 40
271.0
 40
272.0
 40
272.0
 40
273.0
 40
273.0
 40
274.0
 40
274.0
 40
275.0
 40
275.0
 40
276.0
 40
276.0
 40
277.0
 40
277.0
 40
278.0
 40
278.0
 40
279.0
 40
279.0
 40
280.0
 40
280.0
 40
281.0
 40
281.0
 40
282.0
 40
282.0
 40
283.0
 40
283.0
 40
284.0
 40
284.0
 40
285.0
 40
285.0
 40
286.0
 40
286.0
 40
287.0
 40
287.0
 40
288.0
 40
288.0
 40
289.0
 40
289.0
 40
290.0
 40
290.0
 40
291.0
 40
291.0
 40
292.0
 40
292.0
 40
293.0
 40
293.0
 40
294.0
 40
294.0
 40
295.0
 40
295.0
 40
296.0
 40
296.0
 40
297.0
 40
297.0
 40
298.0
 40
298.0
 40
299.0
 40
299.0
 40
300.0
 40
300.0
 40
301.0
 40
301.0
 40
302.0
 40
302.0
 40
303.0
 40
303.0
 40
304.0
 40
304.0
 40
305.0
 40
305.0
 40
306.0
 40
306.0
 40
307.0
 40
307.0
 40
308.0
 40
308.0
 40
309.0
 40
309.0
 40
310.0
 40
310.0
 40
311.0
 40
311.0
 40
312.0
 40
312.0
 40
313.0
 40
313.0
 40
314.0
 40
314.0
 40
315.0
 40
315.0
 40
316.0
 40
316.0
 40
317.0
 40
317.0
 40
318.0
 40
318.0
 40
319.0
 40
319.0
 40
320.0
 40
320.0
 40
321.0
 40
321.0
 40
322.0
 40
322.0
 40
323.0
 40
323.0
 40
324.0
 40
324.0
 40
325.0
 40
325.0
 40
326.0
 40
326.0
 40
327.0
 40
327.0
 40
328.0
 40
328.0
 40
329.0
 40
329.0
 40
330.0
 40
330.0
 40
331.0
 40
331.0
 40
332.0
 40
332.0
 40
333.0
 40
333.0
 40
334.0
 40
334.0
 40
335.0
 40
335.0
 40
336.0
 40
336.0
 40
337.0
 40
337.0
 40
338.0
 40
338.0
 40
339.0
 40
339.0
 40
340.0
 40
340.0
 40
341.0
 40
341.0
 40
342.0
 40
342.0
 40
343.0
 40
343.0
 40
344.0
 40
344.0
 40
345.0
 40
345.0
 40
346.0
 40
346.0
 40
347.0
 40
347.0
 40
348.0
 40
348.0
 40
349.0
 40
349.0
 40
350.0
 40
350.0
 40
351.0
 40
351.0
 40
352.0
 40
352.0
 40
353.0
 40
353.0
 40
354.0
 40
354.0
 40
355.0
 40
355.0
 40
356.0
 40
356.0
 40
357.0
 40
357.0
 40
358.0
 40
358.0
 40
359.0
 40
359.0
 40
360.0
 40
360.0
 40
361.0
 40
361.0
 40
362.0
 40
362.0
 40
363.0
 40
363.0
 40
364.0
 40
364.0
 40
365.0
 40
365.0
 40
366.0
 40
366.0
 40
367.0
 40
367.0
 40
368.0
 40
368.0
 40
369.0
 40
369.0
 40
370.0
 40
370.0
 40
371.0
 40
371.0
 40
372.0
 40
372.0
 40
373.0
 40
373.0
 40
374.0
 40
374.0
 40
375.0
 40
375.0
 40
376.0
 40
376.0
 40
377.0
 40
377.0
 40
378.0
 40
378.0
 40
379.0
 40
379.0
 40
380.0
 40
380.0
 40
381.0
 40
381.0
 40
382.0
 40
382.0
 40
383.0
 40
383.0
 40
384.0
 40
384.0
 40
385.0
 40
385.0
 40
386.0
 40
386.0
 40
387.0
 40
387.0
 40
388.0
 40
388.0
 40
389.0
 40
389.0
 40
389.0
 10
-1169.7001283511886
 20
-2816.5193134762403
 30
0.0
 41
1.0
 10
-1168.8817042424682
 20
-2816.5193134762403
 30
0.0
 41
1.0
 10
-1168.0632801337479
 20
-2816.5193134762403
 30
0.0
 41
1.0
 10
-1168.4770338692647
 20
-2817.86193974049
 30
0.0
 41
1.0
 10
-1168.8907876047813
 20
-2819.2045660047397
 30
0.0
 41
1.0
 10
-1168.8724481096119
 20
-2819.1758652318258
 30
0.0
 41
0.9999957264329795
 10
-1168.8539411127788
 20
-2819.1472721816722
 30
0.0
 41
1.0
 10
-1168.8235117886434
 20
-2819.100259303299
 30
0.0
 41
1.0
 10
-1168.793082464508
 20
-2819.0532464249263
 30
0.0
 41
1.0
 10
-1168.7137168194004
 20
-2818.9306276180205
 30
0.0
 41
0.9995394069081274
 10
-1168.62705842785
 20
-2818.8130495562814
 30
0.0
 41
1.0
 10
-1168.5913015655899
 20
-2818.7645346636873
 30
0.0
 41
1.0
 10
-1168.5555447033298
 20
-2818.7160197710932
 30
0.0
 41
1.0
 10
-1168.421818035514
 20
-2818.5345794959694
 30
0.0
 41
0.9994460617143036
 10
-1168.2763175542243
 20
-2818.362437098318
 30
0.0
 41
1.0
 10
-1168.2719293732493
 20
-2818.3572454179357
 30
0.0
 41
1.0
 10
-1168.2675411922746
 20
-2818.352053737553
 30
0.0
 41
1.0
 10
-1168.1308170729365
 20
-2818.1902947006679
 30
0.0
 41
0.9994359394933957
 10
-1167.9835428425849
 20
-2818.0380784995036
 30
0.0
 41
1.0
 10
-1167.9811594886312
 20
-2818.0356151691303
 30
0.0
 41
1.0
 10
-1167.9787761346774
 20
-2818.0331518387566
 30
0.0
 41
1.0
 10
-1167.8362686122323
 20
-2817.8858622983375
 30
0.0
 41
0.9995293688567417
 10
-1167.6849969312514
 20
-2817.7475890861747
 30
0.0
 41
1.0
 10
-1167.6657031719883
 20
-2817.7299532005236
 30
0.0
 41
1.0
 10
-1167.6464094127252
 20
-2817.7123173148725
 30
0.0
 41
1.0
 10
-1167.5337252502686
 20
-2817.6093158740105
 30
0.0
 41
0.9997087614804198
 10
-1167.4162023613142
 20
-2817.5118715932126
 30
0.0
 41
1.0
 10
-1167.3970362881364
 20
-2817.4959800147026
 30
0.0
 41
1.0
 10
-1167.3778702149586
 20
-2817.480088436193
 30
0.0
 41
1.0
 10
-1167.2986794723631
 20
-2817.414427312418
 30
0.0
 41
0.9999595338698918
 10
-1167.218320201504
 20
-2817.3502015817598
 30
0.0
 41
1.0
 10
-1167.1379609306557
 20
-2817.2859758511104
 30
0.0
 41
0.9999749417498303
 10
-1167.0567003963013
 20
-2817.2228942971556
 30
0.0
 41
1.0
 10
-1167.0357142501339
 20
-2817.2066030098499
 30
0.0
 41
1.0
 10
-1167.0147281039663
 20
-2817.1903117225443
 30
0.0
 41
1.0
 10
-1166.9301602186711
 20
-2817.1246627127084
 30
0.0
 41
0.9999792037107786
 10
-1166.8447526189029
 20
-2817.0601099310661
 30
0.0
 41
1.0
 10
-1166.8239277930188
 20
-2817.0443701088288
 30
0.0
 41
1.0
 10
-1166.8031029671347
 20
-2817.028630286592
 30
0.0
 41
1.0
 10
-1166.7593450191139
 20
-2816.9955571494074
 30
0.0
 41
0.9999993373928729
 10
-1166.7156633329903
 20
-2816.9623833539981
 30
0.0
 41
1.0
 10
-1166.6719816468515
 20
-2816.929209558577
 30
0.0
 41
0.9999160953815524
 10
-1166.6274552359353
 20
-2816.8971784933815
 30
0.0
 41
1.0
 10
-1166.5946333485117
 20
-2816.8735673377942
 30
0.0
 41
1.0
 10
-1166.5618114610884
 20
-2816.8499561822064
 30
0.0
 41
1.0
 10
-1166.4516412753301
 20
-2816.7707028058385
 30
0.0
 41
0.9980964527231645
 10
-1166.33255228183
 20
-2816.7056153329827
 30
0.0
 41
1.0
 10
-1166.2955196749017
 20
-2816.6853753533896
 30
0.0
 41
1.0
 10
-1166.2584870679734
 20
-2816.6651353737961
 30
0.0
 41
1.0
 10
-1166.0791600547002
 20
-2816.5671251230947
 30
0.0
 41
0.998457281057231
 10
-1165.8900714883412
 20
-2816.4896028617486
 30
0.0
 41
1.0
 10
-1165.8864252189435
 20
-2816.4881079694096
 30
0.0
 41
1.0
 10
-1165.8827789495458
 20
-2816.4866130770711
 30
0.0
 41
1.0
 10
-1165.7009829219808
 20
-2816.4120806004016
 30
0.0
 41
0.9987838528034209
 10
-1165.5127302634232
 20
-2816.3558149602363
 30
0.0
 41
1.0
 10
-1165.5084923142217
 20
-2816.3545483065454
 30
0.0
 41
1.0
 10
-1165.50425436502
 20
-2816.3532816528541
 30
0.0
 41
1.0
 10
-1165.32447760486
 20
-2816.2995493200697
 30
0.0
 41
0.9990652816208129
 10
-1165.1407316731479
 20
-2816.2615456405283
 30
0.0
 41
1.0
 10
-1165.1355432721161
 20
-2816.2604725374217
 30
0.0
 41
1.0
 10
-1165.1303548710846
 20
-2816.2593994343151
 30
0.0
 41
1.0
 10
-1164.956985741431
 20
-2816.223541960986
 30
0.0
 41
0.9992909934269996
 10
-1164.7814099749739
 20
-2816.2008315285198
 30
0.0
 41
1.0
 10
-1164.6058342085121
 20
-2816.1781210960535
 30
0.0
 41
0.9994553539449069
 10
-1164.4291427754149
 20
-2816.1670417918467
 30
0.0
 41
1.0
 10
-1164.3937083676221
 20
-2816.1648199037991
 30
0.0
 41
1.0
 10
-1164.3582739598294
 20
-2816.1625980157514
 30
0.0
 41
1.0
 10
-1164.1920481932609
 20
-2816.1521749533395
 30
0.0
 41
0.9990928098292167
 10
-1164.025538401359
 20
-2816.1559345945743
 30
0.0
 41
1.0
 10
-1163.9869765660821
 20
-2816.1568052861076
 30
0.0
 41
1.0
 10
-1163.9484147308053
 20
-2816.1576759776403
 30
0.0
 41
1.0
 10
-1163.8590286094516
 20
-2816.1596942358092
 30
0.0
 41
0.9998382089204656
 10
-1163.7697729266702
 20
-2816.1649263623367
 30
0.0
 41
1.0
 10
-1163.7693430204508
 20
-2816.1649515632389
 30
0.0
 41
1.0
 10
-1163.7689131142317
 20
-2816.1649767641411
 30
0.0
 41
1.0
 10
-1163.6805172438851
 20
-2816.1701584888651
 30
0.0
 41
0.9997558016758306
 10
-1163.5924366666832
 20
-2816.1792410042317
 30
0.0
 41
1.0
 10
-1163.5919605282534
 20
-2816.1792901017143
 30
0.0
 41
1.0
 10
-1163.5914843898238
 20
-2816.1793391991969
 30
0.0
 41
1.0
 10
-1163.5043560894819
 20
-2816.1883235195978
 30
0.0
 41
0.9996565144180857
 10
-1163.4178182361402
 20
-2816.201860826287
 30
0.0
 41
1.0
 10
-1163.4173523107684
 20
-2816.2019337120173
 30
0.0
 41
1.0
 10
-1163.4168863853965
 20
-2816.2020065977476
 30
0.0
 41
1.0
 10
-1163.3312803828037
 20
-2816.2153981329743
 30
0.0
 41
0.9995321806865548
 10
-1163.2466533024703
 20
-2816.2339986214051
 30
0.0
 41
1.0
 10
-1163.2462641078996
 20
-2816.2340841638706
 30
0.0
 41
1.0
 10
-1163.2458749133291
 20
-2816.2341697063362
 30
0.0
 41
1.0
 10
-1163.1620262221436
 20
-2816.2525991098341
 30
0.0
 41
0.9993819199219864
 10
-1163.0796796879461
 20
-2816.2768744930954
 30
0.0
 41
1.0
 10
-1163.0794412544442
 20
-2816.2769447822056
 30
0.0
 41
1.0
 10
-1163.0792028209423
 20
-2816.2770150713163
 30
0.0
 41
1.0
 10
-1162.9973331537469
 20
-2816.3011498763567
 30
0.0
 41
0.9992088568505456
 10
-1162.9176406347615
 20
-2816.3317151121501
 30
0.0
 41
1.0
 10
-1162.8379596438824
 20
-2816.3622747128834
 30
0.0
 41
0.9990226101774526
 10
-1162.7612889739753
 20
-2816.3997521444981
 30
0.0
 41
1.0
 10
-1162.6846298321818
 20
-2816.4372239410486
 30
0.0
 41
0.9988424273971533
 10
-1162.6119262049722
 20
-2816.4818887162996
 30
0.0
 41
1.0
 10
-1162.6116584965894
 20
-2816.4820531803744
 30
0.0
 41
1.0
 10
-1162.6113907882063
 20
-2816.4822176444486
 30
0.0
 41
1.0
 10
-1162.5381517442349
 20
-2816.5272113478463
 30
0.0
 41
0.9986928844491148
 10
-1162.4698888775247
 20
-2816.5794470821265
 30
0.0
 41
1.0
 10
-1162.4693075853024
 20
-2816.5798918953542
 30
0.0
 41
1.0
 10
-1162.4687262930802
 20
-2816.5803367085814
 30
0.0
 41
1.0
 10
-1162.3993008419243
 20
-2816.6334620693174
 30
0.0
 41
0.9986007262278605
 10
-1162.3358746721569
 20
-2816.6936228390114
 30
0.0
 41
1.0
 10
-1162.3349802567004
 20
-2816.6944712068462
 30
0.0
 41
1.0
 10
-1162.3340858412437
 20
-2816.6953195746805
 30
0.0
 41
1.0
 10
-1162.2688708405633
 20
-2816.7571770800432
 30
0.0
 41
0.9985581491379646
 10
-1162.2106632288626
 20
-2816.8256695703139
 30
0.0
 41
1.0
 10
-1162.2014047752659
 20
-2816.8365639280164
 30
0.0
 41
1.0
 10
-1162.1921463216693
 20
-2816.8474582857193
 30
0.0
 41
1.0
 10
-1162.1154218027773
 20
-2816.9377394913922
 30
0.0
 41
0.9970460233519133
 10
-1162.0534299016176
 20
-2817.0387065755745
 30
0.0
 41
1.0
 10
-1162.0389605365367
 20
-2817.0622730346577
 30
0.0
 41
1.0
 10
-1162.024491171456
 20
-2817.0858394937413
 30
0.0
 41
1.0
 10
-1161.9847544714455
 20
-2817.1505592177705
 30
0.0
 41
0.998846881663747
 10
-1161.9514081006937
 20
-2817.2187916701982
 30
0.0
 41
1.0
 10
-1161.9443720782008
 20
-2817.2331885913386
 30
0.0
 41
1.0
 10
-1161.9373360557079
 20
-2817.247585512479
 30
0.0
 41
1.0
 10
-1161.9180617299407
 20
-2817.2870241226283
 30
0.0
 41
0.9998431189997528
 10
-1161.9001964024474
 20
-2817.3271206770664
 30
0.0
 41
1.0
 10
-1161.8823310748958
 20
-2817.3672172316342
 30
0.0
 41
0.9999989990048591
 10
-1161.8643523514124
 20
-2817.4072630693536
 30
0.0
 41
1.0
 10
-1161.858180039877
 20
-2817.4210112860346
 30
0.0
 41
1.0
 10
-1161.8520077283417
 20
-2817.4347595027161
 30
0.0
 41
1.0
 10
-1161.8216843817333
 20
-2817.5023017739204
 30
0.0
 41
0.9998790356322448
 10
-1161.7934765015921
 20
-2817.5707545258651
 30
0.0
 41
1.0
 10
-1161.7866413203083
 20
-2817.5873416272916
 30
0.0
 41
1.0
 10
-1161.7798061390247
 20
-2817.6039287287176
 30
0.0
 41
1.0
 10
-1161.7562484766447
 20
-2817.6610966836024
 30
0.0
 41
0.9998227574562022
 10
-1161.7348597282551
 20
-2817.7191109918804
 30
0.0
 41
1.0
 10
-1161.7134709798647
 20
-2817.7771253001611
 30
0.0
 41
0.9996797971042197
 10
-1161.6950446949043
 20
-2817.8361474192825
 30
0.0
 41
1.0
 10
-1161.6911408921796
 20
-2817.848651877448
 30
0.0
 41
1.0
 10
-1161.6872370894553
 20
-2817.8611563356135
 30
0.0
 41
1.0
 10
-1161.6610031990447
 20
-2817.9451873710718
 30
0.0
 41
0.9979274938736349
 10
-1161.6457786755657
 20
-2818.0318917297309
 30
0.0
 41
1.0
 10
-1161.6435549883049
 20
-2818.0445557305497
 30
0.0
 41
1.0
 10
-1161.6413313010441
 20
-2818.0572197313686
 30
0.0
 41
1.0
 10
-1161.6304013613453
 20
-2818.1194662386611
 30
0.0
 41
0.9994985982136566
 10
-1161.6234331961684
 20
-2818.1822797398045
 30
0.0
 41
1.0
 10
-1161.6164650309922
 20
-2818.2450932409365
 30
0.0
 41
0.9996372611201158
 10
-1161.6128891652243
 20
-2818.3081908196186
 30
0.0
 41
1.0
 10
-1161.6127205877347
 20
-2818.3111654367058
 30
0.0
 41
1.0
 10
-1161.6125520102451
 20
-2818.3141400537929
 30
0.0
 41
1.0
 10
-1161.6086389894986
 20
-2818.3831868666298
 30
0.0
 41
0.9997730630734937
 10
-1161.6076706760107
 20
-2818.4523376906645
 30
0.0
 41
1.0
 10
-1161.6076135695926
 20
-2818.4564158698108
 30
0.0
 41
1.0
 10
-1161.6075564631742
 20
-2818.4604940489571
 30
0.0
 41
1.0
 10
-1161.6064739368499
 20
-2818.5378012312722
 30
0.0
 41
0.9998772614071051
 10
-1161.6078140235818
 20
-2818.6151043778336
 30
0.0
 41
1.0
 10
-1161.6079032867806
 20
-2818.6202535416714
 30
0.0
 41
1.0
 10
-1161.6079925499794
 20
-2818.6254027055093
 30
0.0
 41
1.0
 10
-1161.6095111631087
 20
-2818.7130041797536
 30
0.0
 41
0.9999415567328623
 10
-1161.6129234733542
 20
-2818.8005523414167
 30
0.0
 41
1.0
 10
-1161.6131647940297
 20
-2818.8067438011549
 30
0.0
 41
1.0
 10
-1161.613406114705
 20
-2818.812935260893
 30
0.0
 41
1.0
 10
-1161.6173010663031
 20
-2818.9128663420679
 30
0.0
 41
0.9999716810423214
 10
-1161.6226996494213
 20
-2819.0127274802894
 30
0.0
 41
1.0
 10
-1161.6259124482099
 20
-2819.0721567299415
 30
0.0
 41
1.0
 10
-1161.6291252469985
 20
-2819.1315859795941
 30
0.0
 41
1.0
 10
-1161.6371991561505
 20
-2819.2809343808722
 30
0.0
 41
0.999981912991298
 10
-1161.6470689477671
 20
-2819.430174858579
 30
0.0
 41
1.0
 10
-1161.6569387393838
 20
-2819.5794153362904
 30
0.0
 41
1.0
 10
-1161.6593780599476
 20
-2819.6166083821395
 30
0.0
 41
1.0
 10
-1161.6366798261183
 20
-2819.5778673848126
 30
0.0
 41
0.9999982128186215
 10
-1161.6138352673559
 20
-2819.5392124908431
 30
0.0
 41
1.0
 10
-1161.5869257074737
 20
-2819.4936792767921
 30
0.0
 41
1.0
 10
-1161.5600161475913
 20
-2819.4481460627417
 30
0.0
 41
1.0
 10
-1161.4833524690653
 20
-2819.3184247406716
 30
0.0
 41
0.9998609190057464
 10
-1161.4024051562023
 20
-2819.1913323587401
 30
0.0
 41
1.0
 10
-1161.3727568347206
 20
-2819.1447826257827
 30
0.0
 41
1.0
 10
-1161.3431085132388
 20
-2819.0982328928258
 30
0.0
 41
1.0
 10
-1161.2608362930021
 20
-2818.969060322831
 30
0.0
 41
0.9999067609729945
 10
-1161.1750672835392
 20
-2818.8421826333915
 30
0.0
 41
1.0
 10
-1161.1726625803383
 20
-2818.838625367337
 30
0.0
 41
1.0
 10
-1161.1702578771374
 20
-2818.8350681012821
 30
0.0
 41
1.0
 10
-1161.0892982740759
 20
-2818.7153049439512
 30
0.0
 41
0.9998784952148405
 10
-1161.0046446643937
 20
-2818.5981237272417
 30
0.0
 41
1.0
 10
-1160.9199910547159
 20
-2818.4809425105373
 30
0.0
 41
0.9998532968283106
 10
-1160.8313734338901
 20
-2818.3667296020631
 30
0.0
 41
1.0
 10
-1160.8114116448983
 20
-2818.3410022810422
 30
0.0
 41
1.0
 10
-1160.7914498559064
 20
-2818.3152749600208
 30
0.0
 41
1.0
 10
-1160.6729658061497
 20
-2818.1625693490546
 30
0.0
 41
0.999155197579462
 10
-1160.5423413565254
 20
-2818.0201097869704
 30
0.0
 41
1.0
 10
-1160.5388317405454
 20
-2818.0162821853455
 30
0.0
 41
1.0
 10
-1160.5353221245653
 20
-2818.0124545837211
 30
0.0
 41
1.0
 10
-1160.4117169069043
 20
-2817.8776502248888
 30
0.0
 41
0.9997418144181004
 10
-1160.2821147672012
 20
-2817.7486008142741
 30
0.0
 41
1.0
 10
-1160.1525126274992
 20
-2817.6195514036608
 30
0.0
 41
0.998923820463353
 10
-1160.0115100792468
 20
-2817.5030664416204
 30
0.0
 41
1.0
 10
-1159.9662624011085
 20
-2817.465686450013
 30
0.0
 41
1.0
 10
-1159.9210147229703
 20
-2817.4283064584051
 30
0.0
 41
1.0
 10
-1159.780774665749
 20
-2817.3124514051142
 30
0.0
 41
0.9990825084096695
 10
-1159.631134733145
 20
-2817.2090224072813
 30
0.0
 41
1.0
 10
-1159.6210893690882
 20
-2817.2020791942018
 30
0.0
 41
1.0
 10
-1159.6110440050315
 20
-2817.1951359811223
 30
0.0
 41
1.0
 10
-1159.4814948005412
 20
-2817.1055934094484
 30
0.0
 41
0.999816489982666
 10
-1159.3486105971647
 20
-2817.0210791679319
 30
0.0
 41
1.0
 10
-1159.3367650366354
 20
-2817.0135454014044
 30
0.0
 41
1.0
 10
-1159.3249194761063
 20
-2817.0060116348764
 30
0.0
 41
1.0
 10
-1159.2157263937875
 20
-2816.936564926415
 30
0.0
 41
0.9997473449131461
 10
-1159.1035224365392
 20
-2816.8720959685998
 30
0.0
 41
1.0
 10
-1158.991318479284
 20
-2816.8076270107813
 30
0.0
 41
0.9999327861142408
 10
-1158.8776498685058
 20
-2816.7457770190917
 30
0.0
 41
1.0
 10
-1158.8770978659554
 20
-2816.7454766604178
 30
0.0
 41
1.0
 10
-1158.8765458634048
 20
-2816.7451763017443
 30
0.0
 41
1.0
 10
-1158.7617732475214
 20
-2816.6827255927055
 30
0.0
 41
0.9996956420484298
 10
-1158.644059921683
 20
-2816.6260121257314
 30
0.0
 41
1.0
 10
-1158.6136195167908
 20
-2816.6113461490017
 30
0.0
 41
1.0
 10
-1158.5831791118985
 20
-2816.596680172272
 30
0.0
 41
1.0
 10
-1158.4802020051548
 20
-2816.5470665138287
 30
0.0
 41
0.9998070570176737
 10
-1158.3753556162094
 20
-2816.5015359269255
 30
0.0
 41
1.0
 10
-1158.2705092272695
 20
-2816.4560053400251
 30
0.0
 41
0.9997827436148159
 10
-1158.1638562906603
 20
-2816.4148841687133
 30
0.0
 41
1.0
 10
-1158.144633441028
 20
-2816.4074725950804
 30
0.0
 41
1.0
 10
-1158.1254105913958
 20
-2816.400061021448
 30
0.0
 41
1.0
 10
-1157.9803119555211
 20
-2816.3441167028709
 30
0.0
 41
0.9988031841977277
 10
-1157.8304415929153
 20
-2816.3026166387031
 30
0.0
 41
1.0
 10
-1157.805524344556
 20
-2816.295716892897
 30
0.0
 41
1.0
 10
-1157.7806070961969
 20
-2816.2888171470913
 30
0.0
 41
1.0
 10
-1157.6133370705475
 20
-2816.2424990046834
 30
0.0
 41
0.9984748040549756
 10
-1157.441980161896
 20
-2816.2149047724179
 30
0.0
 41
1.0
 10
-1157.4372410256478
 20
-2816.2141416119048
 30
0.0
 41
1.0
 10
-1157.4325018893994
 20
-2816.2133784513912
 30
0.0
 41
1.0
 10
-1157.2706232532471
 20
-2816.1873105401532
 30
0.0
 41
0.9984436495479889
 10
-1157.106848509522
 20
-2816.1794325863348
 30
0.0
 41
1.0
 10
-1157.0851513013874
 20
-2816.1783888991349
 30
0.0
 41
1.0
 10
-1157.0634540932529
 20
-2816.1773452119351
 30
0.0
 41
1.0
 10
-1156.9430737657942
 20
-2816.1715546325158
 30
0.0
 41
0.9987954789335528
 10
-1156.8227055208877
 20
-2816.1775911602581
 30
0.0
 41
1.0
 10
-1156.802740728401
 20
-2816.1785924045962
 30
0.0
 41
1.0
 10
-1156.7827759359143
 20
-2816.1795936489343
 30
0.0
 41
1.0
 10
-1156.7023372759852
 20
-2816.1836276879999
 30
0.0
 41
0.9997941595876583
 10
-1156.6221284978835
 20
-2816.1909217539214
 30
0.0
 41
1.0
 10
-1156.5419197197918
 20
-2816.1982158198421
 30
0.0
 41
0.9998589466237281
 10
-1156.4620011729385
 20
-2816.2081996742922
 30
0.0
 41
1.0
 10
-1156.4295949711282
 20
-2816.2122480312119
 30
0.0
 41
1.0
 10
-1156.3971887693176
 20
-2816.216296388131
 30
0.0
 41
1.0
 10
-1156.2524578188443
 20
-2816.23437695642
 30
0.0
 41
0.9993495063249435
 10
-1156.1094065750754
 20
-2816.2628426661622
 30
0.0
 41
1.0
 10
-1156.0764728779241
 20
-2816.2693961293771
 30
0.0
 41
1.0
 10
-1156.043539180773
 20
-2816.2759495925916
 30
0.0
 41
1.0
 10
-1155.9342453575694
 20
-2816.2976979267264
 30
0.0
 41
0.9996788715560259
 10
-1155.8261937856155
 20
-2816.3249557260892
 30
0.0
 41
1.0
 10
-1155.8241307830767
 20
-2816.3254761526623
 30
0.0
 41
1.0
 10
-1155.8220677805382
 20
-2816.3259965792349
 30
0.0
 41
1.0
 10
-1155.7181422136605
 20
-2816.352213525452
 30
0.0
 41
0.9995480654493174
 10
-1155.6159799784296
 20
-2816.3846284820766
 30
0.0
 41
1.0
 10
-1155.6142903362993
 20
-2816.3851645869909
 30
0.0
 41
1.0
 10
-1155.6126006941688
 20
-2816.3857006919052
 30
0.0
 41
1.0
 10
-1155.5138177431988
 20
-2816.4170434387015
 30
0.0
 41
0.9993867959456384
 10
-1155.4174705847574
 20
-2816.455222807991
 30
0.0
 41
1.0
 10
-1155.4162276356724
 20
-2816.4557153498872
 30
0.0
 41
1.0
 10
-1155.4149846865871
 20
-2816.4562078917838
 30
0.0
 41
1.0
 10
-1155.321123426316
 20
-2816.4934021772801
 30
0.0
 41
0.9992050256521196
 10
-1155.2305237512817
 20
-2816.5379560765195
 30
0.0
 41
1.0
 10
-1155.2297890685672
 20
-2816.5383173689816
 30
0.0
 41
1.0
 10
-1155.2290543858528
 20
-2816.5386786614431
 30
0.0
 41
1.0
 10
-1155.1399240762478
 20
-2816.5825099757585
 30
0.0
 41
0.9990222350741849
 10
-1155.0550140148548
 20
-2816.6340432434563
 30
0.0
 41
1.0
 10
-1155.054830129571
 20
-2816.6341548463615
 30
0.0
 41
1.0
 10
-1155.0546462442871
 20
-2816.6342664492672
 30
0.0
 41
1.0
 10
-1154.9701039534598
 20
-2816.6855765111559
 30
0.0
 41
0.9988642743807399
 10
-1154.8908294188418
 20
-2816.7447006986799
 30
0.0
 41
1.0
 10
-1154.8115548842252
 20
-2816.8038248862031
 30
0.0
 41
0.9987681233310051
 10
-1154.7385310999487
 20
-2816.8705155776042
 30
0.0
 41
1.0
 10
-1154.7382021719818
 20
-2816.8708159788193
 30
0.0
 41
1.0
 10
-1154.7378732440152
 20
-2816.8711163800344
 30
0.0
 41
1.0
 10
-1154.6641916038107
 20
-2816.9384078738599
 30
0.0
 41
0.9987496570896647
 10
-1154.5975977984847
 20
-2817.0127206879451
 30
0.0
 41
1.0
 10
-1154.5968256287219
 20
-2817.0135823613055
 30
0.0
 41
1.0
 10
-1154.5960534589594
 20
-2817.0144440346658
 30
0.0
 41
1.0
 10
-1154.5279153141121
 20
-2817.0904801954675
 30
0.0
 41
0.9988147669827405
 10
-1154.4674930598876
 20
-2817.1727812023091
 30
0.0
 41
1.0
 10
-1154.4663737338092
 20
-2817.1743058336624
 30
0.0
 41
1.0
 10
-1154.465254407731
 20
-2817.1758304650157
 30
0.0
 41
1.0
 10
-1154.4025935013512
 20
-2817.261180734562
 30
0.0
 41
0.9989452636216801
 10
-1154.3480265883927
 20
-2817.3519194237147
 30
0.0
 41
1.0
 10
-1154.3466778623051
 20
-2817.3541622047442
 30
0.0
 41
1.0
 10
-1154.3453291362177
 20
-2817.3564049857732
 30
0.0
 41
1.0
 10
-1154.2880647710847
 20
-2817.4516292369835
 30
0.0
 41
0.9991046436069441
 10
-1154.2390555577633
 20
-2817.5513536700091
 30
0.0
 41
1.0
 10
-1154.2375916961732
 20
-2817.5543323500815
 30
0.0
 41
1.0
 10
-1154.2361278345834
 20
-2817.5573110301539
 30
0.0
 41
1.0
 10
-1154.1841908980828
 20
-2817.6629928233224
 30
0.0
 41
0.9992763831101552
 10
-1154.140437769528
 20
-2817.7723168852772
 30
0.0
 41
1.0
 10
-1154.138958499864
 20
-2817.7760130728125
 30
0.0
 41
1.0
 10
-1154.1374792301999
 20
-2817.7797092603478
 30
0.0
 41
1.0
 10
-1154.0907675623182
 20
-2817.8964256973709
 30
0.0
 41
0.999416347288328
 10
-1154.0521345311306
 20
-2818.0160592858283
 30
0.0
 41
1.0
 10
-1154.0508963788834
 20
-2818.0198934296122
 30
0.0
 41
1.0
 10
-1154.0496582266364
 20
-2818.0237275733957
 30
0.0
 41
1.0
 10
-1154.0097746656172
 20
-2818.1472336348806
 30
0.0
 41
0.9997268055891376
 10
-1153.9757066097056
 20
-2818.2724686668298
 30
0.0
 41
1.0
 10
-1153.9747764294352
 20
-2818.275888032942
 30
0.0
 41
1.0
 10
-1153.9738462491646
 20
-2818.2793073990547
 30
0.0
 41
1.0
 10
-1153.9416385537932
 20
-2818.397703698784
 30
0.0
 41
0.9996701319000813
 10
-1153.9155529370232
 20
-2818.5175976520441
 30
0.0
 41
1.0
 10
-1153.8894673202526
 20
-2818.6374916053055
 30
0.0
 41
0.999578545110837
 10
-1153.8703837429123
 20
-2818.7586973663429
 30
0.0
 41
1.0
 10
-1153.8661639607385
 20
-2818.7854985211079
 30
0.0
 41
1.0
 10
-1153.861944178565
 20
-2818.812299675873
 30
0.0
 41
1.0
 10
-1153.8353692026271
 20
-2818.9810856495737
 30
0.0
 41
0.9979925101217435
 10
-1153.8303436167007
 20
-2819.1518769776635
 30
0.0
 41
1.0
 10
-1153.8295188042759
 20
-2819.1799077011483
 30
0.0
 41
1.0
 10
-1153.8286939918512
 20
-2819.2079384246326
 30
0.0
 41
1.0
 10
-1153.8253180307743
 20
-2819.3226683057583
 30
0.0
 41
0.9995314902263459
 10
-1153.8289682229129
 20
-2819.4373897895075
 30
0.0
 41
1.0
 10
-1153.8326184150508
 20
-2819.5521112732549
 30
0.0
 41
0.9996245486943869
 10
-1153.8425475101819
 20
-2819.6664605443825
 30
0.0
 41
1.0
 10
-1153.8427105581763
 20
-2819.6683383005184
 30
0.0
 41
1.0
 10
-1153.8428736061705
 20
-2819.6702160566538
 30
0.0
 41
1.0
 10
-1153.8531287972901
 20
-2819.7883208400481
 30
0.0
 41
0.9997286095001251
 10
-1153.8688741208612
 20
-2819.9058197489417
 30
0.0
 41
1.0
 10
-1153.8692676135115
 20
-2819.9087561736442
 30
0.0
 41
1.0
 10
-1153.8696611061621
 20
-2819.9116925983462
 30
0.0
 41
1.0
 10
-1153.8861934150357
 20
-2820.0350643566535
 30
0.0
 41
0.9998265533969737
 10
-1153.9073088737678
 20
-2820.1577348314386
 30
0.0
 41
1.0
 10
-1153.9079854159045
 20
-2820.1616652099433
 30
0.0
 41
1.0
 10
-1153.9086619580412
 20
-2820.165595588448
 30
0.0
 41
1.0
 10
-1153.9311305010492
 20
-2820.2961268202571
 30
0.0
 41
0.9999022530853677
 10
-1153.957239965657
 20
-2820.4259787888845
 30
0.0
 41
1.0
 10
-1153.9582186068228
 20
-2820.4308459312747
 30
0.0
 41
1.0
 10
-1153.9591972479889
 20
-2820.4357130736648
 30
0.0
 41
1.0
 10
-1153.9872639949319
 20
-2820.5752993270908
 30
0.0
 41
0.9999524761933164
 10
-1154.0180469637646
 20
-2820.7143118202448
 30
0.0
 41
1.0
 10
-1154.0193230709399
 20
-2820.7200745795462
 30
0.0
 41
1.0
 10
-1154.0205991781152
 20
-2820.7258373388477
 30
0.0
 41
1.0
 10
-1154.0539343612998
 20
-2820.8763753506114
 30
0.0
 41
0.9999813588725325
 10
-1154.0891053620946
 20
-2821.0264950632636
 30
0.0
 41
1.0
 10
-1154.0906592875522
 20
-2821.0331276536904
 30
0.0
 41
1.0
 10
-1154.0922132130097
 20
-2821.0397602441171
 30
0.0
 41
1.0
 10
-1154.1304920647267
 20
-2821.2031451376511
 30
0.0
 41
0.9999955237690188
 10
-1154.1697479426989
 20
-2821.3662980412232
 30
0.0
 41
1.0
 10
-1154.1820295783334
 20
-2821.4173422317472
 30
0.0
 41
1.0
 10
-1154.1943112139679
 20
-2821.4683864222707
 30
0.0
 41
1.0
 10
-1154.2581303632214
 20
-2821.7336277069403
 30
0.0
 41
0.9999993604530995
 10
-1154.3225493104046
 20
-2821.9987239576876
 30
0.0
 41
1.0
 10
-1154.3272681459418
 20
-2822.0181428656879
 30
0.0
 41
1.0
 10
-1154.3319869814791
 20
-2822.0375617736877
 30
0.0
 41
1.0
 10
-1154.4058435997456
 20
-2822.3414958404692
 30
0.0
 41
0.9999659914725514
 10
-1154.4847031956299
 20
-2822.6441703870246
 30
0.0
 41
1.0
 10
-1154.489655884558
 20
-2822.6631795241974
 30
0.0
 41
1.0
 10
-1154.4946085734864
 20
-2822.6821886613707
 30
0.0
 41
1.0
 10
-1154.5833735472311
 20
-2823.0228814822876
 30
0.0
 41
0.9999441976026104
 10
-1154.6793165801946
 20
-2823.3616229075874
 30
0.0
 41
1.0
 10
-1154.6960170986204
 20
-2823.4205866201155
 30
0.0
 41
1.0
 10
-1154.7127176170461
 20
-2823.4795503326441
 30
0.0
 41
1.0
 10
-1154.8420616868596
 20
-2823.9362191829955
 30
0.0
 41
0.9999625120729559
 10
-1154.9792944541823
 20
-2824.3905797169882
 30
0.0
 41
1.0
 10
-1155.0150843972647
 20
-2824.5090757436137
 30
0.0
 41
1.0
 10
-1155.050874340347
 20
-2824.6275717702388
 30
0.0
 41
1.0
 10
-1155.1253945443896
 20
-2824.8742988483446
 30
0.0
 41
0.999979338630493
 10
-1155.2030805675286
 20
-2825.1200474875868
 30
0.0
 41
1.0
 10
-1155.2807665906662
 20
-2825.3657961268232
 30
0.0
 41
1.0
 10
-1155.291546149537
 20
-2825.3998140311978
 30
0.0
 41
1.0
 10
-1157.1419192028061
 20
-2831.2868859536652
 30
0.0
 41
1.0
 10
-1158.9922922560754
 20
-2837.1739578761326
 30
0.0
 41
1.0
 10
-1159.9535489460989
 20
-2837.1739578761326
 30
0.0
 41
1.0
 10
-1160.9148056361223
 20
-2837.1739578761326
 30
0.0
 41
1.0
 10
-1159.295860857444
 20
-2832.0259293743434
 30
0.0
 41
1.0
 10
-1157.6769160787655
 20
-2826.8779008725542
 30
0.0
 41
1.0
 10
-1157.6317502555917
 20
-2826.7338696502852
 30
0.0
 41
1.0
 10
-1157.5865844324176
 20
-2826.5898384280163
 30
0.0
 41
1.0
 10
-1157.4162800150534
 20
-2826.0467473988492
 30
0.0
 41
0.9999911657915672
 10
-1157.250547203374
 20
-2825.5022438674878
 30
0.0
 41
1.0
 10
-1157.2208512598727
 20
-2825.4046799274347
 30
0.0
 41
1.0
 10
-1157.1911553163716
 20
-2825.3071159873821
 30
0.0
 41
1.0
 10
-1157.084814391694
 20
-2824.9577403361241
 30
0.0
 41
0.9999952428180088
 10
-1156.9806308023688
 20
-2824.6077153117749
 30
0.0
 41
1.0
 10
-1156.9755713320358
 20
-2824.5907170374981
 30
0.0
 41
1.0
 10
-1156.9705118617028
 20
-2824.5737187632212
 30
0.0
 41
1.0
 10
-1156.8764472130501
 20
-2824.2576902874466
 30
0.0
 41
0.9999931687484158
 10
-1156.7847213751702
 20
-2823.9409750741547
 30
0.0
 41
1.0
 10
-1156.7797861107156
 20
-2823.9239343649006
 30
0.0
 41
1.0
 10
-1156.7748508462607
 20
-2823.9068936556459
 30
0.0
 41
1.0
 10
-1156.6929955373016
 20
-2823.6242598609006
 30
0.0
 41
0.9999893840777517
 10
-1156.6137483108398
 20
-2823.3408837316374
 30
0.0
 41
1.0
 10
-1156.5345010843866
 20
-2823.0575076024033
 30
0.0
 41
0.999983398007059
 10
-1156.4585248436406
 20
-2822.7732370193607
 30
0.0
 41
1.0
 10
-1156.4495209069187
 20
-2822.739548140883
 30
0.0
 41
1.0
 10
-1156.4405169701965
 20
-2822.7058592624053
 30
0.0
 41
1.0
 10
-1156.3715524213321
 20
-2822.4478234301168
 30
0.0
 41
0.999923365806521
 10
-1156.3089974501095
 20
-2822.1881592713844
 30
0.0
 41
1.0
 10
-1156.2464424788891
 20
-2821.9284951126619
 30
0.0
 41
1.0
 10
-1156.2069590600315
 20
-2821.764688448236
 30
0.0
 41
1.0
 10
-1156.2019804560528
 20
-2821.7440334863591
 30
0.0
 41
1.0
 10
-1156.1970018520738
 20
-2821.7233785244821
 30
0.0
 41
1.0
 10
-1156.1674756411717
 20
-2821.6008817838001
 30
0.0
 41
0.9999868670871932
 10
-1156.1392065571777
 20
-2821.4780888381647
 30
0.0
 41
1.0
 10
-1156.1353090700209
 20
-2821.4611592507522
 30
0.0
 41
1.0
 10
-1156.1314115828643
 20
-2821.4442296633397
 30
0.0
 41
1.0
 10
-1156.1109374731795
 20
-2821.3552958925106
 30
0.0
 41
0.9999778173352587
 10
-1156.0916498750662
 20
-2821.2660972752888
 30
0.0
 41
1.0
 10
-1156.0723622769547
 20
-2821.1768986580773
 30
0.0
 41
0.9999602692855384
 10
-1156.0546679183215
 20
-2821.0873703696402
 30
0.0
 41
1.0
 10
-1156.051464086243
 20
-2821.0711599147503
 30
0.0
 41
1.0
 10
-1156.0482602541647
 20
-2821.0549494598604
 30
0.0
 41
1.0
 10
-1156.0241582313788
 20
-2820.933000261663
 30
0.0
 41
0.999561798532099
 10
-1156.0073148841602
 20
-2820.8098385139579
 30
0.0
 41
1.0
 10
-1156.0048503942539
 20
-2820.7918176965923
 30
0.0
 41
1.0
 10
-1156.0023859043479
 20
-2820.7737968792271
 30
0.0
 41
1.0
 10
-1155.9821026432999
 20
-2820.6254818295279
 30
0.0
 41
0.9991121410640543
 10
-1155.9743772897109
 20
-2820.4759857307181
 30
0.0
 41
1.0
 10
-1155.9734584996863
 20
-2820.4582058941423
 30
0.0
 41
1.0
 10
-1155.9725397096618
 20
-2820.440426057567
 30
0.0
 41
1.0
 10
-1155.9666519361228
 20
-2820.3264896319147
 30
0.0
 41
0.9989792494906257
 10
-1155.97107102824
 20
-2820.2124867960133
 30
0.0
 41
1.0
 10
-1155.9717190001086
 20
-2820.1957705500881
 30
0.0
 41
1.0
 10
-1155.9723669719772
 20
-2820.1790543041629
 30
0.0
 41
1.0
 10
-1155.9754901203573
 20
-2820.0984839601219
 30
0.0
 41
0.9997820295395156
 10
-1155.981974117733
 20
-2820.0181142383708
 30
0.0
 41
1.0
 10
-1155.9884581151091
 20
-2819.9377445166219
 30
0.0
 41
0.9998335105972341
 10
-1155.9978703106201
 20
-2819.8576649001793
 30
0.0
 41
1.0
 10
-1155.9994652352966
 20
-2819.8440951696948
 30
0.0
 41
1.0
 10
-1156.0010601599731
 20
-2819.8305254392108
 30
0.0
 41
1.0
 10
-1156.0136622048365
 20
-2819.7233063618032
 30
0.0
 41
0.9996876457879896
 10
-1156.0316061176345
 20
-2819.6168509340864
 30
0.0
 41
1.0
 10
-1156.0338377807807
 20
-2819.6036111988387
 30
0.0
 41
1.0
 10
-1156.0360694439271
 20
-2819.5903714635915
 30
0.0
 41
1.0
 10
-1156.0498652653475
 20
-2819.5085253196344
 30
0.0
 41
0.9995547496493283
 10
-1156.0685185872401
 20
-2819.4276478224456
 30
0.0
 41
1.0
 10
-1156.068892544112
 20
-2819.4260264117374
 30
0.0
 41
1.0
 10
-1156.069266500984
 20
-2819.4244050010293
 30
0.0
 41
1.0
 10
-1156.0871719091338
 20
-2819.3467703252518
 30
0.0
 41
0.9994899427175904
 10
-1156.1099968178121
 20
-2819.2704370424199
 30
0.0
 41
1.0
 10
-1156.110455344553
 20
-2819.268903592631
 30
0.0
 41
1.0
 10
-1156.1109138712936
 20
-2819.2673701428421
 30
0.0
 41
1.0
 10
-1156.1328217264913
 20
-2819.1941037595852
 30
0.0
 41
0.9993784877590722
 10
-1156.159837361598
 20
-2819.1225630544268
 30
0.0
 41
1.0
 10
-1156.1603690525762
 20
-2819.1211550717026
 30
0.0
 41
1.0
 10
-1156.1609007435543
 20
-2819.1197470889788
 30
0.0
 41
1.0
 10
-1156.1868529967046
 20
-2819.0510223492665
 30
0.0
 41
0.9992430832253008
 10
-1156.2180695318639
 20
-2818.9845231971995
 30
0.0
 41
1.0
 10
-1156.218651647921
 20
-2818.9832831420808
 30
0.0
 41
1.0
 10
-1156.2192337639781
 20
-2818.9820430869627
 30
0.0
 41
1.0
 10
-1156.2492860670236
 20
-2818.9180240451301
 30
0.0
 41
0.9990789632797703
 10
-1156.2847166938
 20
-2818.8568174333814
 30
0.0
 41
1.0
 10
-1156.2853123999821
 20
-2818.8557883475214
 30
0.0
 41
1.0
 10
-1156.2859081061645
 20
-2818.8547592616619
 30
0.0
 41
1.0
 10
-1156.3201473205786
 20
-2818.795610821629
 30
0.0
 41
0.9988874801122187
 10
-1156.3598065966089
 20
-2818.7399511092135
 30
0.0
 41
1.0
 10
-1156.360362122673
 20
-2818.7391714575388
 30
0.0
 41
1.0
 10
-1156.3609176487373
 20
-2818.738391805864
 30
0.0
 41
1.0
 10
-1156.3994658726397
 20
-2818.6842913967971
 30
0.0
 41
0.9986762060693453
 10
-1156.443368343917
 20
-2818.6344376823567
 30
0.0
 41
1.0
 10
-1156.4438123042482
 20
-2818.633933540541
 30
0.0
 41
1.0
 10
-1156.4442562645797
 20
-2818.6334293987252
 30
0.0
 41
1.0
 10
-1156.4872708151913
 20
-2818.5845839679196
 30
0.0
 41
0.9984621642488366
 10
-1156.5354283719707
 20
-2818.5408006674465
 30
0.0
 41
1.0
 10
-1156.5356750064866
 20
-2818.5405764352836
 30
0.0
 41
1.0
 10
-1156.5359216410022
 20
-2818.5403522031211
 30
0.0
 41
1.0
 10
-1156.5835859287488
 20
-2818.4970173669753
 30
0.0
 41
0.998272469385122
 10
-1156.6360045605902
 20
-2818.4595730164579
 30
0.0
 41
1.0
 10
-1156.6884231924296
 20
-2818.4221286659417
 30
0.0
 41
0.9981399180160949
 10
-1156.7450092558222
 20
-2818.3913421464981
 30
0.0
 41
1.0
 10
-1156.7450549179021
 20
-2818.3913173033402
 30
0.0
 41
1.0
 10
-1156.7451005799817
 20
-2818.3912924601823
 30
0.0
 41
1.0
 10
-1156.8017779675342
 20
-2818.3604562544228
 30
0.0
 41
0.9980927086833205
 10
-1156.861823318603
 20
-2818.3368394455701
 30
0.0
 41
1.0
 10
-1156.8622634883125
 20
-2818.3366663196957
 30
0.0
 41
1.0
 10
-1156.8627036580219
 20
-2818.3364931938218
 30
0.0
 41
1.0
 10
-1156.9236293485103
 20
-2818.3125301332198
 30
0.0
 41
0.9981411356561801
 10
-1156.9870178699084
 20
-2818.2961574917144
 30
0.0
 41
1.0
 10
-1156.9878999866112
 20
-2818.2959296495087
 30
0.0
 41
1.0
 10
-1156.988782103314
 20
-2818.295701807303
 30
0.0
 41
1.0
 10
-1157.053934858114
 20
-2818.2788734813871
 30
0.0
 41
0.9983031812938207
 10
-1157.1206022871058
 20
-2818.2697341202111
 30
0.0
 41
1.0
 10
-1157.1294733125101
 20
-2818.2685180015396
 30
0.0
 41
1.0
 10
-1157.1383443379145
 20
-2818.2673018828682
 30
0.0
 41
1.0
 10
-1157.1926939804209
 20
-2818.2598511528772
 30
0.0
 41
0.9983887708267326
 10
-1157.2475378297158
 20
-2818.2586064792431
 30
0.0
 41
1.0
 10
-1157.2556012349455
 20
-2818.258423481368
 30
0.0
 41
1.0
 10
-1157.2636646401754
 20
-2818.258240483493
 30
0.0
 41
1.0
 10
-1157.3023816790208
 20
-2818.2573618056094
 30
0.0
 41
0.9998869563079036
 10
-1157.3411076322113
 20
-2818.2576476749696
 30
0.0
 41
1.0
 10
-1157.3798335853812
 20
-2818.2579335443288
 30
0.0
 41
0.9999972320157163
 10
-1157.4185577645615
 20
-2818.2584016438577
 30
0.0
 41
1.0
 10
-1157.4379107811731
 20
-2818.2586355839476
 30
0.0
 41
1.0
 10
-1157.4572637977847
 20
-2818.2588695240374
 30
0.0
 41
1.0
 10
-1157.5346940101558
 20
-2818.2598055037452
 30
0.0
 41
0.999730494508678
 10
-1157.6119973163939
 20
-2818.2643345975312
 30
0.0
 41
1.0
 10
-1157.6210469580978
 20
-2818.264864803521
 30
0.0
 41
1.0
 10
-1157.6300965998016
 20
-2818.2653950095109
 30
0.0
 41
1.0
 10
-1157.7254991894461
 20
-2818.2709845152767
 30
0.0
 41
0.9997888306414444
 10
-1157.8205915252859
 20
-2818.2804894797655
 30
0.0
 41
1.0
 10
-1157.8293125868609
 20
-2818.2813611943975
 30
0.0
 41
1.0
 10
-1157.8380336484356
 20
-2818.28223290903
 30
0.0
 41
1.0
 10
-1157.9505681074238
 20
-2818.2934813027832
 30
0.0
 41
0.9984170238190578
 10
-1158.0611272547756
 20
-2818.317297384719
 30
0.0
 41
1.0
 10
-1158.0975083857606
 20
-2818.3251344205246
 30
0.0
 41
1.0
 10
-1158.1338895167457
 20
-2818.3329714563306
 30
0.0
 41
1.0
 10
-1158.2490805851685
 20
-2818.3577853228403
 30
0.0
 41
0.9976592854198895
 10
-1158.3598087515745
 20
-2818.3980839999881
 30
0.0
 41
1.0
 10
-1158.4705369179853
 20
-2818.4383826771377
 30
0.0
 41
0.9993255074351882
 10
-1158.5780087167796
 20
-2818.486699575632
 30
0.0
 41
1.0
 10
-1158.5826338956981
 20
-2818.4887789518298
 30
0.0
 41
1.0
 10
-1158.5872590746169
 20
-2818.4908583280271
 30
0.0
 41
1.0
 10
-1158.7039812312532
 20
-2818.5433339789183
 30
0.0
 41
0.9976475078274731
 10
-1158.8124285755628
 20
-2818.6112819685763
 30
0.0
 41
1.0
 10
-1158.8307709696969
 20
-2818.6227744473908
 30
0.0
 41
1.0
 10
-1158.8491133638313
 20
-2818.6342669262049
 30
0.0
 41
1.0
 10
-1158.9333155553845
 20
-2818.6870240469734
 30
0.0
 41
0.9995131336406254
 10
-1159.0140632703437
 20
-2818.7449302589284
 30
0.0
 41
1.0
 10
-1159.0948109853052
 20
-2818.8028364708844
 30
0.0
 41
0.9995810107605075
 10
-1159.1720726330348
 20
-2818.8653181533514
 30
0.0
 41
1.0
 10
-1159.1750426642425
 20
-2818.8677200248139
 30
0.0
 41
1.0
 10
-1159.1780126954502
 20
-2818.8701218962765
 30
0.0
 41
1.0
 10
-1159.2612144056004
 20
-2818.9374073216723
 30
0.0
 41
0.9996617837954342
 10
-1159.3408050927328
 20
-2819.0089277772299
 30
0.0
 41
1.0
 10
-1159.3529358436097
 20
-2819.0198285102206
 30
0.0
 41
1.0
 10
-1159.3650665944865
 20
-2819.0307292432108
 30
0.0
 41
1.0
 10
-1159.4333421218851
 20
-2819.0920818586851
 30
0.0
 41
0.9997267750052941
 10
-1159.4986756301696
 20
-2819.1565583952111
 30
0.0
 41
1.0
 10
-1159.5640091384553
 20
-2819.2210349317384
 30
0.0
 41
0.9999667288957301
 10
-1159.6282820816041
 20
-2819.2865687386352
 30
0.0
 41
1.0
 10
-1159.697109529377
 20
-2819.3567463973914
 30
0.0
 41
1.0
 10
-1159.7659369771502
 20
-2819.4269240561475
 30
0.0
 41
1.0
 10
-1159.9678648158467
 20
-2819.6328131805585
 30
0.0
 41
0.9988205335175603
 10
-1160.1488704328265
 20
-2819.8573174126191
 30
0.0
 41
1.0
 10
-1160.1795103977311
 20
-2819.895320663049
 30
0.0
 41
1.0
 10
-1160.2101503626359
 20
-2819.9333239134789
 30
0.0
 41
1.0
 10
-1160.4524359094241
 20
-2820.2338346463985
 30
0.0
 41
0.9997077826755378
 10
-1160.6799138605284
 20
-2820.5457044406135
 30
0.0
 41
1.0
 10
-1160.6816372756598
 20
-2820.5480672239942
 30
0.0
 41
1.0
 10
-1160.683360690791
 20
-2820.5504300073749
 30
0.0
 41
1.0
 10
-1160.9142854721581
 20
-2820.8670253683522
 30
0.0
 41
0.9989147567078928
 10
-1161.114748975041
 20
-2821.2037348295353
 30
0.0
 41
1.0
 10
-1161.1394901203482
 20
-2821.2452914100882
 30
0.0
 41
1.0
 10
-1161.1642312656554
 20
-2821.286847990641
 30
0.0
 41
1.0
 10
-1161.3194425642951
 20
-2821.5475493750973
 30
0.0
 41
0.9997476598181952
 10
-1161.4627875518015
 20
-2821.8149591236747
 30
0.0
 41
1.0
 10
-1161.6061325393125
 20
-2822.0823688722594
 30
0.0
 41
0.9996258967109688
 10
-1161.7346407912419
 20
-2822.3572168088795
 30
0.0
 41
1.0
 10
-1161.747840700692
 20
-2822.3854482089755
 30
0.0
 41
1.0
 10
-1161.7610406101419
 20
-2822.4136796090716
 30
0.0
 41
1.0
 10
-1161.9012493311445
 20
-2822.7135520070306
 30
0.0
 41
0.9998735413945504
 10
-1162.0318506778626
 20
-2823.0177316064937
 30
0.0
 41
1.0
 10
-1162.035293505922
 20
-2823.0257501919559
 30
0.0
 41
1.0
 10
-1162.0387363339814
 20
-2823.0337687774177
 30
0.0
 41
1.0
 10
-1162.1624520245814
 20
-2823.3219112059578
 30
0.0
 41
0.9999377418857892
 10
-1162.2797068267578
 20
-2823.6127426736366
 30
0.0
 41
1.0
 10
-1162.3969616289307
 20
-2823.9035741413063
 30
0.0
 41
0.9999508299503218
 10
-1162.5084255723045
 20
-2824.1966738181191
 30
0.0
 41
1.0
 10
-1162.5115063409698
 20
-2824.20477484409
 30
0.0
 41
1.0
 10
-1162.5145871096352
 20
-2824.2128758700615
 30
0.0
 41
1.0
 10
-1162.6322125903391
 20
-2824.5221775988139
 30
0.0
 41
0.9999609228429121
 10
-1162.7443511932152
 20
-2824.8335106148361
 30
0.0
 41
1.0
 10
-1162.747307203563
 20
-2824.8417174552405
 30
0.0
 41
1.0
 10
-1162.7502632139108
 20
-2824.849924295645
 30
0.0
 41
1.0
 10
-1162.8683138374827
 20
-2825.1776709924752
 30
0.0
 41
0.9999674607399511
 10
-1162.9810613635509
 20
-2825.50727961247
 30
0.0
 41
1.0
 10
-1163.0324597541139
 20
-2825.6575388081642
 30
0.0
 41
1.0
 10
-1163.0838581446772
 20
-2825.8077980038584
 30
0.0
 41
1.0
 10
-1163.1998687514383
 20
-2826.1469459863702
 30
0.0
 41
0.99992875323111
 10
-1163.3077501554058
 20
-2826.488766725337
 30
0.0
 41
1.0
 10
-1163.3542274115471
 20
-2826.6360292697145
 30
0.0
 41
1.0
 10
-1163.4007046676882
 20
-2826.7832918140925
 30
0.0
 41
1.0
 10
-1163.4156315593827
 20
-2826.8305874643324
 30
0.0
 41
0.999999822294293
 10
-1163.430502068107
 20
-2826.8779008725542
 30
0.0
 41
1.0
 10
-1165.0511582049025
 20
-2832.0259293743434
 30
0.0
 41
1.0
 10
-1166.6718143416979
 20
-2837.1739578761326
 30
0.0
 41
1.0
 10
-1167.5771227855889
 20
-2837.1739578761326
 30
0.0
 41
1.0
 10
-1168.4824312294797
 20
-2837.1739578761326
 30
0.0
 41
1.0
 10
-1166.6303468180936
 20
-2831.2868859536652
 30
0.0
 41
1.0
 10
-1164.7782624067077
 20
-2825.3998140311978
 30
0.0
 41
1.0
 10
-1164.7681406484048
 20
-2825.3677708177484
 30
0.0
 41
1.0
 10
-1164.6955329795551
 20
-2825.1374712759225
 30
0.0
 41
1.0
 10
-1164.622925310709
 20
-2824.9071717341085
 30
0.0
 41
0.9999825681964373
 10
-1164.5530422714903
 20
-2824.6760308390194
 30
0.0
 41
1.0
 10
-1164.5047512093329
 20
-2824.5163062555348
 30
0.0
 41
1.0
 10
-1164.4564601471754
 20
-2824.3565816720502
 30
0.0
 41
1.0
 10
-1164.3593077938617
 20
-2824.0352464502848
 30
0.0
 41
0.9999672528965934
 10
-1164.2673689882331
 20
-2823.7123809046816
 30
0.0
 41
1.0
 10
-1164.2645801045637
 20
-2823.7025870592925
 30
0.0
 41
1.0
 10
-1164.2617912208941
 20
-2823.6927932139033
 30
0.0
 41
1.0
 10
-1164.1754301826165
 20
-2823.3895153591175
 30
0.0
 41
0.999989974915237
 10
-1164.0917885730751
 20
-2823.0854762706431
 30
0.0
 41
1.0
 10
-1164.0816826540558
 20
-2823.0487410329579
 30
0.0
 41
1.0
 10
-1164.0715767350364
 20
-2823.0120057952727
 30
0.0
 41
1.0
 10
-1164.0081469635393
 20
-2822.781437182186
 30
0.0
 41
0.9999214200504217
 10
-1163.9505175351626
 20
-2822.5493508399813
 30
0.0
 41
1.0
 10
-1163.9377516829823
 20
-2822.4979399545864
 30
0.0
 41
1.0
 10
-1163.9249858308021
 20
-2822.4465290691915
 30
0.0
 41
1.0
 10
-1163.8928881067857
 20
-2822.3172644977749
 30
0.0
 41
0.9999828681674715
 10
-1163.8623058547896
 20
-2822.1876330233044
 30
0.0
 41
1.0
 10
-1163.8317236027929
 20
-2822.0580015488326
 30
0.0
 41
0.9999389844478905
 10
-1163.804012614007
 20
-2821.9277260929471
 30
0.0
 41
1.0
 10
-1163.7968748702856
 20
-2821.8941699891047
 30
0.0
 41
1.0
 10
-1163.7897371265644
 20
-2821.860613885262
 30
0.0
 41
1.0
 10
-1163.7477506503324
 20
-2821.6632262216767
 30
0.0
 41
0.9998933699440772
 10
-1163.7115463859316
 20
-2821.464696613923
 30
0.0
 41
1.0
 10
-1163.7101735607157
 20
-2821.4571685932287
 30
0.0
 41
1.0
 10
-1163.7088007354998
 20
-2821.4496405725349
 30
0.0
 41
1.0
 10
-1163.6698508206646
 20
-2821.2360549233822
 30
0.0
 41
0.9996850305193324
 10
-1163.641667144406
 20
-2821.0207839179452
 30
0.0
 41
1.0
 10
-1163.6396721110368
 20
-2821.0055455638239
 30
0.0
 41
1.0
 10
-1163.6376770776676
 20
-2820.9903072097022
 30
0.0
 41
1.0
 10
-1163.6102692152081
 20
-2820.7809619825439
 30
0.0
 41
0.9994697936706728
 10
-1163.596544655989
 20
-2820.5702767872176
 30
0.0
 41
1.0
 10
-1163.5960675867395
 20
-2820.5629533150081
 30
0.0
 41
1.0
 10
-1163.5955905174899
 20
-2820.5556298427987
 30
0.0
 41
1.0
 10
-1163.5828200967696
 20
-2820.3595915918886
 30
0.0
 41
0.9991804893137608
 10
-1163.5859484130422
 20
-2820.1631627419133
 30
0.0
 41
1.0
 10
-1163.5860322918643
 20
-2820.1578959405015
 30
0.0
 41
1.0
 10
-1163.5861161706864
 20
-2820.1526291390896
 30
0.0
 41
1.0
 10
-1163.5890767293147
 20
-2819.9667338919407
 30
0.0
 41
0.9988448329321277
 10
-1163.6098682749387
 20
-2819.7819813021065
 30
0.0
 41
1.0
 10
-1163.6114623486417
 20
-2819.7678164463355
 30
0.0
 41
1.0
 10
-1163.6130564223447
 20
-2819.7536515905645
 30
0.0
 41
1.0
 10
-1163.6306598205622
 20
-2819.5972287122731
 30
0.0
 41
0.998550320945813
 10
-1163.6649760928619
 20
-2819.4436045281836
 30
0.0
 41
1.0
 10
-1163.6725620849334
 20
-2819.4096442007826
 30
0.0
 41
1.0
 10
-1163.6801480770048
 20
-2819.3756838733816
 30
0.0
 41
1.0
 10
-1163.6992923651624
 20
-2819.2899803440914
 30
0.0
 41
0.9991036781370761
 10
-1163.7256172268126
 20
-2819.2062032567696
 30
0.0
 41
1.0
 10
-1163.7295994522692
 20
-2819.1935300942569
 30
0.0
 41
1.0
 10
-1163.7335816777259
 20
-2819.1808569317445
 30
0.0
 41
1.0
 10
-1163.7519420884644
 20
-2819.1224261694424
 30
0.0
 41
0.9998874504367795
 10
-1163.7720472961423
 20
-2819.0645725672211
 30
0.0
 41
1.0
 10
-1163.79215250382
 20
-2819.0067189650003
 30
0.0
 41
0.9994041637544689
 10
-1163.8162011167537
 20
-2818.9503902611118
 30
0.0
 41
1.0
 10
-1163.8203979009784
 20
-2818.9405601966282
 30
0.0
 41
1.0
 10
-1163.824594685203
 20
-2818.9307301321451
 30
0.0
 41
1.0
 10
-1163.852473516198
 20
-2818.8654299661771
 30
0.0
 41
0.9991846840702569
 10
-1163.8855298728909
 20
-2818.802591934897
 30
0.0
 41
1.0
 10
-1163.8866664792849
 20
-2818.8004313184438
 30
0.0
 41
1.0
 10
-1163.8878030856793
 20
-2818.7982707019905
 30
0.0
 41
1.0
 10
-1163.9185862295819
 20
-2818.7397539036197
 30
0.0
 41
0.9989253167922579
 10
-1163.9546556536388
 20
-2818.6843389752266
 30
0.0
 41
1.0
 10
-1163.9557097783131
 20
-2818.6827194804646
 30
0.0
 41
1.0
 10
-1163.9567639029872
 20
-2818.6810999857025
 30
0.0
 41
1.0
 10
-1163.9907250776946
 20
-2818.6289240468354
 30
0.0
 41
0.9986467172837186
 10
-1164.0299222303311
 20
-2818.5805580132064
 30
0.0
 41
1.0
 10
-1164.0307963590317
 20
-2818.5794794109283
 30
0.0
 41
1.0
 10
-1164.0316704877323
 20
-2818.5784008086503
 30
0.0
 41
1.0
 10
-1164.0691193829675
 20
-2818.5321919795783
 30
0.0
 41
0.9984001104268023
 10
-1164.1115461134857
 20
-2818.4905068722082
 30
0.0
 41
1.0
 10
-1164.1121332515957
 20
-2818.4899299973267
 30
0.0
 41
1.0
 10
-1164.1127203897056
 20
-2818.4893531224448
 30
0.0
 41
1.0
 10
-1164.1539728440027
 20
-2818.44882176484
 30
0.0
 41
0.9982442159084118
 10
-1164.1997289453384
 20
-2818.4134532035796
 30
0.0
 41
1.0
 10
-1164.1999437407994
 20
-2818.4132871709371
 30
0.0
 41
1.0
 10
-1164.2001585362605
 20
-2818.4131211382942
 30
0.0
 41
1.0
 10
-1164.2454850466725
 20
-2818.3780846423206
 30
0.0
 41
0.9982450060838406
 10
-1164.2946360257458
 20
-2818.3486528592857
 30
0.0
 41
1.0
 10
-1164.3437870048167
 20
-2818.3192210762522
 30
0.0
 41
0.9983922639631674
 10
-1164.3959533109833
 20
-2818.2955414415978
 30
0.0
 41
1.0
 10
-1164.3961801883074
 20
-2818.2954384561162
 30
0.0
 41
1.0
 10
-1164.3964070656314
 20
-2818.2953354706351
 30
0.0
 41
1.0
 10
-1164.4490271264453
 20
-2818.2714498650184
 30
0.0
 41
0.9986517147152279
 10
-1164.5038400993117
 20
-2818.2531487458969
 30
0.0
 41
1.0
 10
-1164.5045180207403
 20
-2818.2529223994652
 30
0.0
 41
1.0
 10
-1164.5051959421689
 20
-2818.2526960530336
 30
0.0
 41
1.0
 10
-1164.5613647578934
 20
-2818.2339422410482
 30
0.0
 41
0.99894355989546
 10
-1164.6190181450461
 20
-2818.2204245388139
 30
0.0
 41
1.0
 10
-1164.6200982646267
 20
-2818.2201712885608
 30
0.0
 41
1.0
 10
-1164.6211783842073
 20
-2818.2199180383082
 30
0.0
 41
1.0
 10
-1164.6809920105225
 20
-2818.2058938355676
 30
0.0
 41
0.9992249241241062
 10
-1164.7417235194202
 20
-2818.1966184928519
 30
0.0
 41
1.0
 10
-1164.7431372077108
 20
-2818.1964025844445
 30
0.0
 41
1.0
 10
-1164.7445508960013
 20
-2818.1961866760366
 30
0.0
 41
1.0
 10
-1164.8081097814816
 20
-2818.1864795165061
 30
0.0
 41
0.9994396597834078
 10
-1164.8721757180199
 20
-2818.1810465941603
 30
0.0
 41
1.0
 10
-1164.8913163854968
 20
-2818.1794234264416
 30
0.0
 41
1.0
 10
-1164.9104570529735
 20
-2818.1778002587234
 30
0.0
 41
1.0
 10
-1165.0128043244679
 20
-2818.1691210009403
 30
0.0
 41
0.9987693403120491
 10
-1165.1155079480568
 20
-2818.170624064393
 30
0.0
 41
1.0
 10
-1165.1257622822845
 20
-2818.170774136167
 30
0.0
 41
1.0
 10
-1165.1360166165121
 20
-2818.1709242079414
 30
0.0
 41
1.0
 10
-1165.2455723826884
 20
-2818.1725275522285
 30
0.0
 41
0.9989753644965519
 10
-1165.3545343827029
 20
-2818.1840305591536
 30
0.0
 41
1.0
 10
-1165.4634963827177
 20
-2818.1955335660787
 30
0.0
 41
0.9983190067305464
 10
-1165.570395193681
 20
-2818.2195685578649
 30
0.0
 41
1.0
 10
-1165.5792961452894
 20
-2818.221569836428
 30
0.0
 41
1.0
 10
-1165.5881970968978
 20
-2818.223571114991
 30
0.0
 41
1.0
 10
-1165.7128978110784
 20
-2818.2516086639039
 30
0.0
 41
0.9985539388303633
 10
-1165.8338675647581
 20
-2818.29287233995
 30
0.0
 41
1.0
 10
-1165.8362129957163
 20
-2818.2936723837652
 30
0.0
 41
1.0
 10
-1165.8385584266748
 20
-2818.2944724275803
 30
0.0
 41
1.0
 10
-1165.9642190422735
 20
-2818.3373361912577
 30
0.0
 41
0.9988468746493699
 10
-1166.0851893845759
 20
-2818.3920542763212
 30
0.0
 41
1.0
 10
-1166.0883722065635
 20
-2818.3934939508808
 30
0.0
 41
1.0
 10
-1166.0915550285511
 20
-2818.39493362544
 30
0.0
 41
1.0
 10
-1166.2188910148282
 20
-2818.4525310596218
 30
0.0
 41
0.9991322885919001
 10
-1166.3409915988848
 20
-2818.5205263918037
 30
0.0
 41
1.0
 10
-1166.3585936099266
 20
-2818.5303285937925
 30
0.0
 41
1.0
 10
-1166.3761956209682
 20
-2818.5401307957809
 30
0.0
 41
1.0
 10
-1166.4783723020278
 20
-2818.5970309115633
 30
0.0
 41
0.9993860037850394
 10
-1166.5763133061041
 20
-2818.660946927153
 30
0.0
 41
1.0
 10
-1166.5819316189504
 20
-2818.664613421844
 30
0.0
 41
1.0
 10
-1166.587549931797
 20
-2818.6682799165351
 30
0.0
 41
1.0
 10
-1166.6742543101745
 20
-2818.7248629427395
 30
0.0
 41
0.9998821494952672
 10
-1166.75918068599
 20
-2818.7840811728183
 30
0.0
 41
1.0
 10
-1166.8441070618071
 20
-2818.8432994028981
 30
0.0
 41
0.9997976482743751
 10
-1166.9265826922099
 20
-2818.9058858109393
 30
0.0
 41
1.0
 10
-1166.941218957013
 20
-2818.9169925007177
 30
0.0
 41
1.0
 10
-1166.9558552218164
 20
-2818.9280991904961
 30
0.0
 41
1.0
 10
-1167.0676033818258
 20
-2819.0128989780947
 30
0.0
 41
0.9998091630801111
 10
-1167.1759536598549
 20
-2819.1019993287969
 30
0.0
 41
1.0
 10
-1167.1889594123336
 20
-2819.1126944292441
 30
0.0
 41
1.0
 10
-1167.2019651648122
 20
-2819.1233895296914
 30
0.0
 41
1.0
 10
-1167.3363269477932
 20
-2819.233880081284
 30
0.0
 41
0.9995035112317608
 10
-1167.463462825556
 20
-2819.3526138982979
 30
0.0
 41
1.0
 10
-1167.4731101359453
 20
-2819.3616236444577
 30
0.0
 41
1.0
 10
-1167.4827574463343
 20
-2819.3706333906171
 30
0.0
 41
1.0
 10
-1167.6061805090985
 20
-2819.4858997623719
 30
0.0
 41
0.9994630424299207
 10
-1167.7217889148819
 20
-2819.6090025056064
 30
0.0
 41
1.0
 10
-1167.7254717536532
 20
-2819.6129240851196
 30
0.0
 41
1.0
 10
-1167.7291545924245
 20
-2819.6168456646324
 30
0.0
 41
1.0
 10
-1167.8373973206658
 20
-2819.7321052488414
 30
0.0
 41
0.9995160693749833
 10
-1167.9382633501978
 20
-2819.8538726667143
 30
0.0
 41
1.0
 10
-1167.9401970702779
 20
-2819.856207090922
 30
0.0
 41
1.0
 10
-1167.9421307903583
 20
-2819.8585415151297
 30
0.0
 41
1.0
 10
-1168.0391293797272
 20
-2819.9756400845845
 30
0.0
 41
0.999656147051491
 10
-1168.1298555983954
 20
-2820.0976628470362
 30
0.0
 41
1.0
 10
-1168.1360132642967
 20
-2820.1059446360778
 30
0.0
 41
1.0
 10
-1168.1421709301983
 20
-2820.1142264251193
 30
0.0
 41
1.0
 10
-1168.2205818170639
 20
-2820.2196856094888
 30
0.0
 41
0.9998349055173746
 10
-1168.2951090989936
 20
-2820.3279241931486
 30
0.0
 41
1.0
 10
-1168.3696363809265
 20
-2820.436162776813
 30
0.0
 41
0.9999728109562845
 10
-1168.4425592768357
 20
-2820.545488702367
 30
0.0
 41
1.0
 10
-1168.4438744922477
 20
-2820.5474604718697
 30
0.0
 41
1.0
 10
-1168.4451897076594
 20
-2820.5494322413724
 30
0.0
 41
1.0
 10
-1168.5207430344185
 20
-2820.66270170597
 30
0.0
 41
0.9999972147403565
 10
-1168.5957608447725
 20
-2820.7763265487761
 30
0.0
 41
1.0
 10
-1168.6007323873923
 20
-2820.7838566372448
 30
0.0
 41
1.0
 10
-1168.6057039300119
 20
-2820.791386725713
 30
0.0
 41
1.0
 10
-1168.6906648256358
 20
-2820.920071745501
 30
0.0
 41
0.9999371979006716
 10
-1168.7727201750349
 20
-2821.0506286592704
 30
0.0
 41
1.0
 10
-1168.7762290593969
 20
-2821.0562115873358
 30
0.0
 41
1.0
 10
-1168.7797379437588
 20
-2821.0617945154013
 30
0.0
 41
1.0
 10
-1168.8688110618871
 20
-2821.2035172853089
 30
0.0
 41
0.9998272025611716
 10
-1168.9525544527687
 20
-2821.3484531620506
 30
0.0
 41
1.0
 10
-1168.9677696247932
 20
-2821.3747862765081
 30
0.0
 41
1.0
 10
-1168.9829847968176
 20
-2821.4011193909655
 30
0.0
 41
1.0
 10
-1169.0971585317466
 20
-2821.5987214966199
 30
0.0
 41
0.9995217214838741
 10
-1169.198898221304
 20
-2821.8030038244847
 30
0.0
 41
1.0
 10
-1169.2065417839399
 20
-2821.8183512741894
 30
0.0
 41
1.0
 10
-1169.2141853465757
 20
-2821.833698723894
 30
0.0
 41
1.0
 10
-1169.3010906391644
 20
-2822.008195181973
 30
0.0
 41
0.9998269762607852
 10
-1169.3814451054352
 20
-2822.1858034686948
 30
0.0
 41
1.0
 10
-1169.4617995717058
 20
-2822.3634117554143
 30
0.0
 41
0.9998944747387373
 10
-1169.5369603662691
 20
-2822.5432794810408
 30
0.0
 41
1.0
 10
-1169.5419140358604
 20
-2822.5551341359578
 30
0.0
 41
1.0
 10
-1169.5468677054516
 20
-2822.5669887908753
 30
0.0
 41
1.0
 10
-1169.6275147660058
 20
-2822.7599857308974
 30
0.0
 41
0.9999506734417812
 10
-1169.704312294911
 20
-2822.9545465357578
 30
0.0
 41
1.0
 10
-1169.7189122601808
 20
-2822.9915344575606
 30
0.0
 41
1.0
 10
-1169.7335122254503
 20
-2823.0285223793635
 30
0.0
 41
1.0
 10
-1169.7811098238158
 20
-2823.1491073406169
 30
0.0
 41
0.9999912393903493
 10
-1169.8276962678369
 20
-2823.2700865433094
 30
0.0
 41
1.0
 10
-1169.8742827118538
 20
-2823.3910657459901
 30
0.0
 41
0.9999927113980063
 10
-1169.9199440062605
 20
-2823.5123971535249
 30
0.0
 41
1.0
 10
-1169.9339124376547
 20
-2823.549514135515
 30
0.0
 41
1.0
 10
-1169.9478808690492
 20
-2823.586631117505
 30
0.0
 41
1.0
 10
-1170.0214790262362
 20
-2823.7821964889977
 30
0.0
 41
0.9999487550949339
 10
-1170.0911026512119
 20
-2823.9792118541918
 30
0.0
 41
1.0
 10
-1170.1146962611472
 20
-2824.0459751644794
 30
0.0
 41
1.0
 10
-1170.1382898710824
 20
-2824.1127384747674
 30
0.0
 41
1.0
 10
-1170.2329755054593
 20
-2824.3806723096104
 30
0.0
 41
0.9999808436944633
 10
-1170.3243370940963
 20
-2824.6497577408622
 30
0.0
 41
1.0
 10
-1170.4156986827434
 20
-2824.9188431721432
 30
0.0
 41
0.999987393291897
 10
-1170.5043533914525
 20
-2825.1888325271302
 30
0.0
 41
1.0
 10
-1170.5244457483236
 20
-2825.250021859888
 30
0.0
 41
1.0
 10
-1170.5445381051945
 20
-2825.3112111926462
 30
0.0
 41
1.0
 10
-1170.6733775276548
 20
-2825.7035792131746
 30
0.0
 41
0.9999794883032358
 10
-1170.7971803126072
 20
-2826.0975654194363
 30
0.0
 41
1.0
 10
-1170.8083325720377
 20
-2826.1330560296501
 30
0.0
 41
1.0
 10
-1170.8194848314679
 20
-2826.1685466398644
 30
0.0
 41
1.0
 10
-1170.9620429953525
 20
-2826.6222193919102
 30
0.0
 41
0.9999982761830143
 10
-1171.1029154353971
 20
-2827.0764184141262
 30
0.0
 41
1.0
 10
-1172.6910557679698
 20
-2832.1251881451294
 30
0.0
 41
1.0
 10
-1174.2791961005423
 20
-2837.1739578761326
 30
0.0
 41
1.0
 10
-1175.2279467120188
 20
-2837.1739578761326
 30
0.0
 41
1.0
 10
-1176.1766973234951
 20
-2837.1739578761326
 30
0.0
 41
1.0
 10
-1172.9384128373417
 20
-2826.8466356761865
 30
0.0
 41
1.0
 10
-1169.7001283511886
 20
-2816.5193134762403
 30
0.0
 41
1.0
  0
LWPOLYLINE
  5
5D
100
AcDbEntity
  8
0
370
              15
390
0
  6
Continuous
 62
               7
100
AcDbPolyline
 90
      232
 70
             128
 10
-1195.4036741250156
 20
-2817.603656307756
 42
0.0004370800724504
 10
-1195.4565512990641
 20
-2817.6723229469812
 10
-1195.4958355302151
 20
-2817.7234300599084
 42
0.0030481992177333
 10
-1195.6261742473416
 20
-2817.8951517522628
 10
-1195.6646859190848
 20
-2817.9465385360409
 42
0.0042058245757664
 10
-1195.8686709697542
 20
-2818.2235442811143
 10
-1195.9210760922554
 20
-2818.2959771278952
 42
0.0120948898745615
 10
-1196.2171200090172
 20
-2818.7267267324451
 10
-1196.3133125081392
 20
-2818.8742074676697
 42
0.0141601263949215
 10
-1196.6169565550608
 20
-2819.3698768044046
 10
-1196.6564938224917
 20
-2819.4387207718451
 42
0.007113108130615
 10
-1196.8617661457251
 20
-2819.8082235706743
 42
0.006845879100287
 10
-1197.0566456725714
 20
-2820.1833151341571
 10
-1197.0634575350259
 20
-2820.1968768478741
 42
0.0064120880288682
 10
-1197.2615997850635
 20
-2820.6043013227786
 10
-1197.2691344705872
 20
-2820.6203131795141
 42
0.0058857236452622
 10
-1197.4718898624571
 20
-2821.0646892905456
 10
-1197.4800647887528
 20
-2821.0831794441833
 42
0.005318974188996
 10
-1197.6887691014153
 20
-2821.5691429180893
 10
-1197.6975169071018
 20
-2821.5901247962975
 42
0.0047503650419193
 10
-1197.9134906332536
 20
-2822.1223242295096
 10
-1197.9227588816007
 20
-2822.145800605615
 42
0.0042071762168289
 10
-1198.1473062653315
 20
-2822.7288941996931
 10
-1198.157055667677
 20
-2822.7548603745545
 42
0.0036680086484069
 10
-1198.3915103109919
 20
-2823.3934957590932
 10
-1198.401718090837
 20
-2823.42194429343
 42
0.0032573142629873
 10
-1198.6473503768043
 20
-2824.1207969531852
 10
-1198.7160008976496
 20
-2824.3202600372524
 42
0.0026133366648979
 10
-1199.0644460964022
 20
-2825.3501233209081
 10
-1199.1277028838965
 20
-2825.5403541562814
 42
0.0020592950745697
 10
-1199.34156595287
 20
-2826.1924578089147
 10
-1199.3446177440258
 20
-2826.2018942973018
 42
0.0025609928538425
 10
-1199.5464382455189
 20
-2826.8370395196898
 10
-1199.5490296126504
 20
-2826.8453418606464
 42
0.0031362356241823
 10
-1199.7385203983226
 20
-2827.4661047168102
 10
-1199.7406514412555
 20
-2827.4732460230398
 42
0.0037229918028706
 10
-1199.9174518281764
 20
-2828.0822313249955
 10
-1199.9191304173844
 20
-2828.0881782151755
 42
0.0043077623709618
 10
-1200.082871219448
 20
-2828.6879969469387
 42
0.0047654161822292
 10
-1200.2356999419599
 20
-2829.2906830358247
 10
-1200.270164550803
 20
-2829.432244812991
 42
0.0112969368443488
 10
-1200.4660289089454
 20
-2830.3239369736098
 10
-1200.4940352980432
 20
-2830.466765019713
 42
0.0130056762568595
 10
-1200.6948725416896
 20
-2831.6537060913579
 10
-1200.7154122918371
 20
-2831.7977842048376
 42
0.0138721532145987
 10
-1200.8191152963748
 20
-2832.7046136906606
 10
-1200.8384107842833
 20
-2832.9281114125943
 42
0.0071254697012041
 10
-1200.8717574302054
 20
-2833.391298421433
 10
-1200.8767184043688
 20
-2833.4773024159949
 42
0.0028881799209853
 10
-1200.8918566976586
 20
-2833.7690441258355
 42
0.006029729713861
 10
-1200.9017888974338
 20
-2834.0609930619539
 10
-1200.9028511791009
 20
-2834.1093854338806
 42
0.022952316414636
 10
-1200.8951201513153
 20
-2834.432140280167
 10
-1200.8908943777947
 20
-2834.4925438141863
 42
0.0123673300675691
 10
-1200.8718157312765
 20
-2834.693664539358
 42
0.0128577674457188
 10
-1200.8426203408706
 20
-2834.8935623892839
 10
-1200.8354944674834
 20
-2834.9348912038822
 42
0.0285717853769781
 10
-1200.7710004657861
 20
-2835.2130073552007
 10
-1200.757331942121
 20
-2835.259662124673
 42
0.0316283099164858
 10
-1200.641521362207
 20
-2835.5786766264982
 10
-1200.638472670453
 20
-2835.5856629988202
 42
0.0338984824227631
 10
-1200.4890409594843
 20
-2835.8732289630129
 10
-1200.4867322301159
 20
-2835.8770199922865
 42
0.0350228718346974
 10
-1200.3043719394409
 20
-2836.134071976966
 10
-1200.3034866876694
 20
-2836.1351510547256
 42
0.0347476747518804
 10
-1200.0890620004257
 20
-2836.3623361019499
 42
0.0331337701903157
 10
-1199.8458186746814
 20
-2836.5584647640258
 10
-1199.8447185761631
 20
-2836.5592374671996
 42
0.0305233319089124
 10
-1199.5761738805897
 20
-2836.7243656372912
 10
-1199.5729438360886
 20
-2836.7260896491539
 42
0.0273744481153579
 10
-1199.2803901245177
 20
-2836.8622277930431
 10
-1199.2752855893768
 20
-2836.8642713775139
 42
0.0240964406194504
 10
-1198.9598085137336
 20
-2836.9732551037941
 10
-1198.9532251845212
 20
-2836.97517984347
 42
0.0209636179819354
 10
-1198.6158250318663
 20
-2837.0586479914027
 10
-1198.6081925714197
 20
-2837.0601999044038
 42
0.0181388704692265
 10
-1198.249870179425
 20
-2837.1196159976171
 10
-1198.2415893310431
 20
-2837.1206821814349
 42
0.0156086547580839
 10
-1197.8634019668561
 20
-2837.1574183680118
 10
-1197.8202067145367
 20
-2837.1602568704902
 42
0.0137148329010808
 10
-1197.4925335692283
 20
-2837.172777125742
 10
-1197.4465973792849
 20
-2837.1732715588573
 42
0.0051057823883118
 10
-1197.21045179271
 20
-2837.1734018132665
 42
0.0052256693308312
 10
-1196.97435450894
 20
-2837.168652988802
 10
-1196.9041277251822
 20
-2837.1665060227879
 42
0.0161507179039666
 10
-1196.5283906470886
 20
-2837.1428556524625
 10
-1196.5083776867077
 20
-2837.140945457174
 42
0.0101216737832781
 10
-1196.0943504652244
 20
-2837.0929525268089
 10
-1196.0602971757903
 20
-2837.0883048299984
 42
0.0245291776397307
 10
-1195.5835075202385
 20
-2836.9992297519225
 10
-1195.4986842047044
 20
-2836.9790338315738
 42
0.0143509212556336
 10
-1195.1420531007757
 20
-2836.8832291977978
 42
0.015655785704734
 10
-1194.791837036041
 20
-2836.7662179819758
 10
-1194.7843358215537
 20
-2836.7634478202244
 42
0.0170137333628447
 10
-1194.4277398258698
 20
-2836.6177902053523
 10
-1194.4206359034647
 20
-2836.6146023697897
 42
0.0183105364402945
 10
-1194.061286235308
 20
-2836.4372673279709
 10
-1194.0543394706597
 20
-2836.4335168930934
 42
0.0194899958156734
 10
-1193.6958587296754
 20
-2836.2215379112022
 10
-1193.6888448503391
 20
-2836.2170125689076
 42
0.0204869852950971
 10
-1193.3348305482448
 20
-2835.9674925538216
 10
-1193.327564939658
 20
-2835.9619124884734
 42
0.0212516938552498
 10
-1192.981575008549
 20
-2835.6720084915783
 10
-1192.9350583144746
 20
-2835.6295411814858
 42
0.0215248918254788
 10
-1192.6750321455868
 20
-2835.3707769024904
 10
-1192.6300024112047
 20
-2835.3219327811389
 42
0.0114578554959975
 10
-1192.4752102575289
 20
-2835.1461098476825
 10
-1192.4640157215449
 20
-2835.1327910841401
 42
0.0061531305136964
 10
-1192.337541075548
 20
-2834.9785015508314
 42
0.0006325587123371
 10
-1192.2131625913612
 20
-2834.8224981751114
 10
-1192.1901224563446
 20
-2834.7935246544962
 42
0.0041897761547764
 10
-1192.0216670523639
 20
-2834.5780052784244
 10
-1191.9632049324796
 20
-2834.5019039314493
 42
0.0092993880038984
 10
-1191.6865930052543
 20
-2834.1276251675631
 10
-1191.6041985120589
 20
-2834.0116881639992
 42
0.0159321727083488
 10
-1191.2575920294146
 20
-2833.489513943241
 10
-1191.2132358940255
 20
-2833.4178343789908
 42
0.0085547317023744
 10
-1190.9787241286999
 20
-2833.0239594297664
 42
0.0084601156885489
 10
-1190.7577479512572
 20
-2832.6223325807332
 10
-1190.7496324774274
 20
-2832.6069728984612
 42
0.0081429654277756
 10
-1190.5263832069909
 20
-2832.1672513859226
 10
-1190.5175230428058
 20
-2832.1490725439007
 42
0.0076574581331913
 10
-1190.2911155322395
 20
-2831.6658896686481
 10
-1190.2816358915156
 20
-2831.6448251903448
 42
0.0070682724199304
 10
-1190.0511909837087
 20
-2831.1127878855632
 10
-1190.0412006997271
 20
-2831.0887986965517
 42
0.0064559514446587
 10
-1189.8058674915478
 20
-2830.502486430039
 10
-1189.7954581333804
 20
-2830.4755515045908
 42
0.0058311413906886
 10
-1189.5544113966189
 20
-2829.8295194102102
 10
-1189.5436563192302
 20
-2829.7996350690464
 42
0.0052312425818407
 10
-1189.2960750411912
 20
-2829.0884326552182
 10
-1189.2850312048095
 20
-2829.0556059431424
 42
0.0046680544794686
 10
-1189.0301027770759
 20
-2828.2737796273905
 10
-1188.9881106270313
 20
-2828.1407963900951
 42
0.004166685644514
 10
-1188.7848246146364
 20
-2827.4778276150901
 10
-1188.7471621739733
 20
-2827.3512465074391
 42
0.0015170975159973
 10
-1188.6259755955596
 20
-2826.9393781559424
 42
-0.0004887993120151
 10
-1188.5056358224538
 20
-2826.5272597439593
 10
-1188.4291585649414
 20
-2826.2663023579594
 42
0.0002583378927045
 10
-1188.155943994868
 20
-2825.3322456547489
 10
-1188.0741711453136
 20
-2825.0521463952423
 42
0.0006636169669538
 10
-1187.8803033852892
 20
-2824.3847934716105
 10
-1187.8752067309347
 20
-2824.3671618887047
 42
0.0010589131319658
 10
-1187.6937580300255
 20
-2823.7344305456813
 10
-1187.6887759595561
 20
-2823.7169176387006
 42
0.001565552446268
 10
-1187.5205057523622
 20
-2823.1183009594606
 10
-1187.5156755519472
 20
-2823.1009088005248
 42
0.0021640440473631
 10
-1187.3613855799613
 20
-2822.5358817825063
 10
-1187.3567513605244
 20
-2822.5186170524862
 42
0.0028763871858057
 10
-1187.2172356424783
 20
-2821.9866491016655
 10
-1187.2128497783144
 20
-2821.9695251235239
 42
0.0037310511950978
 10
-1187.0888930864742
 20
-2821.4700775294868
 10
-1187.084817866184
 20
-2821.4531172582365
 42
0.0047652197770925
 10
-1186.9771939656766
 20
-2820.9856394899366
 10
-1186.9735033663549
 20
-2820.9688799347932
 42
0.0060276699298741
 10
-1186.8829732671998
 20
-2820.5328041396424
 10
-1186.8797545769098
 20
-2820.5163029253295
 42
0.0075824337761036
 10
-1186.8070652674951
 20
-2820.1110357609068
 10
-1186.804419890115
 20
-2820.0948808134572
 42
0.0095130624612142
 10
-1186.7503046544837
 20
-2819.7197914603848
 10
-1186.7433184306012
 20
-2819.6638579022692
 42
0.01210546532309
 10
-1186.716727100023
 20
-2819.3989620737943
 10
-1186.7158606102635
 20
-2819.3875586308645
 42
0.0069050827377825
 10
-1186.7007717922261
 20
-2819.1446174040211
 10
-1186.6996364925576
 20
-2819.1210911469752
 42
0.0169063976702341
 10
-1186.6968092135771
 20
-2818.9248984196756
 10
-1186.6979798651084
 20
-2818.8645626583202
 42
0.0052007732872658
 10
-1186.7002333137013
 20
-2818.7889692681742
 42
0.0054038123290933
 10
-1186.7201968255406
 20
-2818.6689509721609
 10
-1186.7252826814106
 20
-2818.6402924855829
 42
0.0112050460454082
 10
-1186.7606670434693
 20
-2818.463966047243
 10
-1186.7784920055099
 20
-2818.3844244605234
 42
0.024076446801649
 10
-1186.8693893716556
 20
-2818.054187425023
 10
-1186.8879481344682
 20
-2817.9975672600317
 42
0.0256812331832661
 10
-1187.031311054659
 20
-2817.625843053771
 10
-1187.0367204804797
 20
-2817.6137117187827
 42
0.0268360501218202
 10
-1187.2061477213301
 20
-2817.28271858476
 10
-1187.2116841289651
 20
-2817.2731989144477
 42
0.02746702317243
 10
-1187.4038851053785
 20
-2816.9809115395306
 10
-1187.4092664053417
 20
-2816.9736323919883
 42
0.0275035967109014
 10
-1187.620839284903
 20
-2816.7181165016855
 10
-1187.6259087858703
 20
-2816.7126374140544
 42
0.0269557673532871
 10
-1187.8533123293091
 20
-2816.4919951280926
 10
-1187.8580553870909
 20
-2816.4878651736326
 42
0.0259124802207812
 10
-1188.0976102185225
 20
-2816.3001746464793
 10
-1188.1021410637077
 20
-2816.2969891441467
 42
0.02451621530082
 10
-1188.3500574167992
 20
-2816.1402561350387
 10
-1188.3545839631211
 20
-2816.137695937839
 42
0.0229282588828042
 10
-1188.6070035199509
 20
-2816.009827745339
 10
-1188.6117840137904
 20
-2816.0076754455758
 42
0.0212984135704939
 10
-1188.8648219662493
 20
-2815.9064765283347
 10
-1188.870126251215
 20
-2815.9046129655762
 42
0.0197555462338933
 10
-1189.1199045889418
 20
-2815.8277975476099
 42
0.0183511896791724
 10
-1189.374833314411
 20
-2815.7702146406432
 10
-1189.4611985111264
 20
-2815.7540118502593
 42
0.0338057877142242
 10
-1189.7467058603884
 20
-2815.7202034451188
 10
-1189.8377112654207
 20
-2815.7156237898575
 42
0.0091990524486959
 10
-1189.9435583740642
 20
-2815.7122479339355
 42
0.0028333980765066
 10
-1190.0494722900523
 20
-2815.7114198264189
 10
-1190.0503877431065
 20
-2815.7114178565948
 42
-0.0023619827809623
 10
-1190.1581337582122
 20
-2815.710677015516
 10
-1190.1945389283883
 20
-2815.7102547090531
 42
0.0008824598491746
 10
-1190.3750949183748
 20
-2815.7084789308137
 10
-1190.4189563506441
 20
-2815.7081249692892
 42
0.0038132665767892
 10
-1190.6872392464861
 20
-2815.7080060332228
 10
-1190.7037729013164
 20
-2815.7081247993665
 42
0.0060665569336975
 10
-1191.00505339291
 20
-2815.713945098787
 10
-1191.019303724933
 20
-2815.7143934067544
 42
0.0080356953334709
 10
-1191.3487624412794
 20
-2815.7300611288219
 10
-1191.3608324563595
 20
-2815.730829711762
 42
0.0098996399113168
 10
-1191.7135955410151
 20
-2815.7603149409611
 10
-1191.7236412503851
 20
-2815.7613552371586
 42
0.0117740981369019
 10
-1192.0947981087343
 20
-2815.8086474846882
 10
-1192.1030208052164
 20
-2815.809892601259
 42
0.0137435215139021
 10
-1192.4876096247137
 20
-2815.8789895748232
 10
-1192.4942666638249
 20
-2815.8803754710543
 42
0.0158359869388024
 10
-1192.8872637576274
 20
-2815.9752675595346
 10
-1192.8926769444945
 20
-2815.9767575004053
 42
0.0180554124030174
 10
-1193.2889919891095
 20
-2816.101395516645
 10
-1193.2935487771902
 20
-2816.1030115529102
 42
0.0203657431279232
 10
-1193.6880262949996
 20
-2816.2612718944256
 10
-1193.6921698340088
 20
-2816.2631335158685
 42
0.0226819684652429
 10
-1194.0796058902145
 20
-2816.4587760945401
 10
-1194.0838056812308
 20
-2816.4611416864591
 42
0.0248634984604598
 10
-1194.458987622409
 20
-2816.6977683324039
 10
-1194.5071825511973
 20
-2816.7316253742329
 42
0.0267044190890649
 10
-1194.7814752481124
 20
-2816.9470657500997
 42
0.0139303002196703
 10
-1195.0376424140538
 20
-2817.184304591015
 10
-1195.042495799772
 20
-2817.1890572538723
 42
0.0283460963444378
 10
-1195.2865683939981
 20
-2817.456787914316
 10
-1195.3262368991559
 20
-2817.5055894917905
 42
0.0070695364826295
 10
-1195.4036741250156
 20
-2817.603656307756
 42
0.0070695364826295
  0
LWPOLYLINE
  5
5E
100
AcDbEntity
  8
0
370
              15
390
0
  6
Continuous
 62
               7
100
AcDbPolyline
 90
      226
 70
             128
 10
-1198.932494562262
 20
-2833.3252451139397
 42
-0.0026277636669932
 10
-1198.9325724460621
 20
-2833.2584731881893
 10
-1198.93235508783
 20
-2833.2053179707536
 42
-0.0088680296707407
 10
-1198.9285784715362
 20
-2833.0323021883273
 10
-1198.9262321124247
 20
-2832.973022162897
 42
-0.0077381705618841
 10
-1198.9101860016615
 20
-2832.6817616670978
 10
-1198.9093180904883
 20
-2832.6694734334133
 42
-0.0068872530529708
 10
-1198.8826860107417
 20
-2832.3542516813613
 10
-1198.8814817865541
 20
-2832.3420107023258
 42
-0.0062130021484885
 10
-1198.8438880697247
 20
-2832.0031410110751
 10
-1198.8423841661911
 20
-2831.9909671391711
 42
-0.0056726929666194
 10
-1198.7934623066906
 20
-2831.6287719170682
 10
-1198.7916888610446
 20
-2831.6166781168122
 42
-0.0052341884494238
 10
-1198.7310782747836
 20
-2831.2314848612887
 10
-1198.729060286008
 20
-2831.219479931302
 42
-0.0049768450166625
 10
-1198.6563216045806
 20
-2830.8116353638634
 10
-1198.6320725898599
 20
-2830.6830873808631
 42
-0.0089029805620611
 10
-1198.4949917380659
 20
-2830.0213119334444
 10
-1198.4622463627466
 20
-2829.8762805029173
 42
-0.0080318257099636
 10
-1198.2326977484038
 20
-2828.9305708710567
 10
-1198.2207128219575
 20
-2828.8844402358736
 42
-0.0074265721322553
 10
-1197.9367012831074
 20
-2827.8543756574923
 10
-1197.9168217399915
 20
-2827.7862415969057
 42
-0.0069711922702972
 10
-1197.5895171614843
 20
-2826.719973856576
 10
-1197.5295652143811
 20
-2826.5339524982119
 42
-0.0052070422892918
 10
-1197.3001399891195
 20
-2825.8466804211739
 10
-1197.2828587969568
 20
-2825.7966531405841
 42
-0.0009167004449226
 10
-1197.0797669096578
 20
-2825.2121972924024
 42
-0.002516272694975
 10
-1196.872669279396
 20
-2824.6291560282425
 10
-1196.8354446675892
 20
-2824.5260064823333
 42
-0.0028212681458418
 10
-1196.5872687486267
 20
-2823.8502758501636
 10
-1196.5774379858763
 20
-2823.8239684054874
 42
-0.0031964916823303
 10
-1196.3411457282136
 20
-2823.2037636433597
 10
-1196.3315112742227
 20
-2823.1789536532374
 42
-0.0036281836458525
 10
-1196.1064053131136
 20
-2822.611512972323
 10
-1196.0969669029598
 20
-2822.5882155408294
 42
-0.0041269166837844
 10
-1195.882349206297
 20
-2822.070774644842
 10
-1195.8497162498782
 20
-2821.9938961984853
 42
-0.0047472213059517
 10
-1195.6926714443225
 20
-2821.6334747305978
 10
-1195.6857773631064
 20
-2821.6180541332478
 42
-0.0025651659991203
 10
-1195.5374193292641
 20
-2821.2907260775173
 42
-0.0057144634994841
 10
-1195.3836696354902
 20
-2820.9659164041491
 10
-1195.3556389300927
 20
-2820.9084080217631
 42
-0.0065388068370283
 10
-1195.1721719023519
 20
-2820.5441755250959
 10
-1195.1637134465736
 20
-2820.5279159457268
 42
-0.0074510843034894
 10
-1194.9875312006955
 20
-2820.2012276646037
 10
-1194.9793515301628
 20
-2820.1865868873319
 42
-0.008464897986165
 10
-1194.8097176770643
 20
-2819.8946778763734
 10
-1194.8018615505787
 20
-2819.8816708847266
 42
-0.0095638542809862
 10
-1194.6380261029822
 20
-2819.621782012744
 10
-1194.6305511593102
 20
-2819.6104126512882
 42
-0.010719162678972
 10
-1194.4717495789228
 20
-2819.3798014167442
 10
-1194.4647328451924
 20
-2819.3700653243804
 42
-0.0118458573910668
 10
-1194.3101847466792
 20
-2819.1659931290692
 42
-0.01291845181953
 10
-1194.1457321230773
 20
-2818.9698326128987
 10
-1194.1155873507141
 20
-2818.9357065339991
 42
-0.0217742579642427
 10
-1193.9389750283792
 20
-2818.7524997637493
 10
-1193.9282294839186
 20
-2818.742282930546
 42
-0.0097266568654095
 10
-1193.762171865063
 20
-2818.5904353561086
 42
-0.0187720905712614
 10
-1193.5878242891752
 20
-2818.4483665027205
 10
-1193.5571182984982
 20
-2818.4252074203223
 42
-0.0179428207517692
 10
-1193.3246975785032
 20
-2818.2626552432116
 10
-1193.3210452515875
 20
-2818.2602913083238
 42
-0.0170047877693488
 10
-1193.0852816140571
 20
-2818.1188307941725
 10
-1193.0814986253149
 20
-2818.1167324891385
 42
-0.0160190788362817
 10
-1192.8445900776751
 20
-2817.9950811871481
 42
-0.0151102861495817
 10
-1192.6005582952273
 20
-2817.888398411093
 10
-1192.5481717930168
 20
-2817.8673582781989
 42
-0.0271945441884743
 10
-1192.1895092339623
 20
-2817.7454934674938
 10
-1192.1204444334699
 20
-2817.7261439262265
 42
-0.0237596594027427
 10
-1191.7046475864479
 20
-2817.6306932142452
 10
-1191.6365847327131
 20
-2817.6184385261176
 42
-0.021371544054947
 10
-1191.3507098012722
 20
-2817.5794914946082
 10
-1191.2905626350487
 20
-2817.5739017799069
 42
-0.0101465655817049
 10
-1191.1230701030599
 20
-2817.5617582366435
 10
-1191.1137297168596
 20
-2817.561271321646
 42
-0.0100375910870325
 10
-1190.9645756162993
 20
-2817.5564955037212
 10
-1190.9543163466174
 20
-2817.5563730647068
 42
-0.0103625633381743
 10
-1190.8256083519641
 20
-2817.5575044982334
 10
-1190.8033427006872
 20
-2817.5581618566985
 42
-0.0115689250206461
 10
-1190.7192919631691
 20
-2817.5625913629433
 42
-0.0072438037456201
 10
-1190.63545368373
 20
-2817.5701805626927
 10
-1190.6186531742571
 20
-2817.5719471054167
 42
-0.0217917313120053
 10
-1190.5020834109419
 20
-2817.5893669981378
 10
-1190.4364833203765
 20
-2817.6021136065519
 42
-0.0332943556765426
 10
-1190.2320911553486
 20
-2817.6561538978594
 10
-1190.2019185867937
 20
-2817.6663219749794
 42
-0.0184824084792047
 10
-1190.063413530333
 20
-2817.7187729903644
 42
-0.0198002050714646
 10
-1189.9293391898414
 20
-2817.7816570505597
 10
-1189.927452552457
 20
-2817.7826348374433
 42
-0.0212242342992382
 10
-1189.7953136100605
 20
-2817.8583975762331
 10
-1189.7934983145115
 20
-2817.8595433784449
 42
-0.0226090605788697
 10
-1189.6649944132869
 20
-2817.9490230220117
 10
-1189.6631499715522
 20
-2817.9504352749968
 42
-0.0238457052245959
 10
-1189.5399678902595
 20
-2818.0544311708591
 10
-1189.5380151617003
 20
-2818.0562460486253
 42
-0.02481605641517
 10
-1189.4218136543961
 20
-2818.1755206498383
 10
-1189.4197100209976
 20
-2818.1779059835385
 42
-0.0254109591478838
 10
-1189.3121048031369
 20
-2818.3131943694957
 10
-1189.3098567812176
 20
-2818.3163359179034
 42
-0.0255528488282097
 10
-1189.2124101024206
 20
-2818.4683629721376
 10
-1189.2100790025042
 20
-2818.4724445837455
 42
-0.0252146793205908
 10
-1189.1242979764952
 20
-2818.6419468297422
 10
-1189.1219957373376
 20
-2818.6471289116553
 42
-0.0244265635940716
 10
-1189.0493410435779
 20
-2818.8348754836957
 10
-1189.0400946421069
 20
-2818.8627409020419
 42
-0.0231319612912209
 10
-1188.9941718631158
 20
-2819.0260419488413
 42
-0.0112130424357435
 10
-1188.9595358405768
 20
-2819.1922455490326
 10
-1188.9583333154649
 20
-2819.1987421359172
 42
-0.0210527881220296
 10
-1188.9326468400934
 20
-2819.3797977813661
 10
-1188.9291362452723
 20
-2819.415203329906
 42
-0.0190029892428594
 10
-1188.9136947717275
 20
-2819.6687391761811
 10
-1188.9128847952836
 20
-2819.7042147905472
 42
-0.0137974553659807
 10
-1188.9144336481193
 20
-2820.0292461972836
 10
-1188.9152791030747
 20
-2820.0553649418748
 42
-0.0081336634210131
 10
-1188.9301384382973
 20
-2820.3607124094729
 42
-0.0073526923567127
 10
-1188.9544469716716
 20
-2820.6654606537559
 10
-1188.9557083954546
 20
-2820.678797328424
 42
-0.0066886138691071
 10
-1188.9914439815018
 20
-2821.0093833719252
 10
-1188.9931010709711
 20
-2821.0230049909123
 42
-0.0061359187355313
 10
-1189.0409516730219
 20
-2821.3797689710141
 10
-1189.0429891740946
 20
-2821.3936637738416
 42
-0.0056698610059924
 10
-1189.1036395048625
 20
-2821.7769423426839
 10
-1189.1060449381848
 20
-2821.7911014619103
 42
-0.0052721077281512
 10
-1189.1801771389839
 20
-2822.2012288015844
 10
-1189.1829402878263
 20
-2822.2156454369742
 42
-0.0049289272176812
 10
-1189.271234405925
 20
-2822.6529539480907
 10
-1189.2743469006089
 20
-2822.6676228009128
 42
-0.0047415956714557
 10
-1189.3775848921423
 20
-2823.1324195583279
 10
-1189.4123531025009
 20
-2823.2822266537064
 42
-0.0084404470901036
 10
-1189.6023695460717
 20
-2824.0424506782338
 10
-1189.6084962340583
 20
-2824.0653148023907
 42
-0.0039635940254473
 10
-1189.8299499183418
 20
-2824.8663036666362
 10
-1189.8433267135219
 20
-2824.9132352832303
 42
-0.0072475040837864
 10
-1190.1107736013878
 20
-2825.8024549996294
 10
-1190.1809859282098
 20
-2826.0241953495843
 42
-0.0051345458829262
 10
-1190.4677453002714
 20
-2826.8985205374038
 10
-1190.4892715670387
 20
-2826.961946804533
 42
-0.0019150016601489
 10
-1190.7448049739055
 20
-2827.7054959247598
 10
-1190.7512725782899
 20
-2827.7240833896471
 42
-0.0021524362751462
 10
-1190.9997506293657
 20
-2828.4284092113894
 10
-1191.0089610500518
 20
-2828.4541627896615
 42
-0.0024331286820727
 10
-1191.2452163090979
 20
-2829.1047620978088
 10
-1191.254264261655
 20
-2829.1293054041807
 42
-0.0027449721789638
 10
-1191.478878832484
 20
-2829.7284352830875
 10
-1191.4877688398715
 20
-2829.7517578729271
 42
-0.0031083229770878
 10
-1191.7013113264861
 20
-2830.3016819105196
 10
-1191.7100474581614
 20
-2830.3237716263766
 42
-0.0035311343287278
 10
-1191.9130886437536
 20
-2830.8267547521073
 10
-1191.9216739828948
 20
-2830.847597475602
 42
-0.004024564094886
 10
-1192.1147857866956
 20
-2831.3059067982099
 10
-1192.1232219003002
 20
-2831.3254861662858
 42
-0.0046015135854056
 10
-1192.3069781934623
 20
-2831.7413911959243
 10
-1192.3152643712883
 20
-2831.7596883353713
 42
-0.0052768638271538
 10
-1192.4902418902461
 20
-2832.1354612196465
 10
-1192.4983741008728
 20
-2832.1524545581888
 42
-0.0060672675635683
 10
-1192.665153713639
 20
-2832.4903701813041
 10
-1192.6731231941201
 20
-2832.5060354403004
 42
-0.0069904648872695
 10
-1192.8322915881222
 20
-2832.8083712469652
 10
-1192.8400829877307
 20
-2832.8226817961886
 42
-0.0080637022768283
 10
-1192.9922348480789
 20
-2833.0917170993453
 10
-1192.9998238807095
 20
-2833.1046449649452
 42
-0.0093006455658356
 10
-1193.1455645572416
 20
-2833.3426593634495
 10
-1193.1529152239837
 20
-2833.3541773326201
 42
-0.0107060778034534
 10
-1193.2928637674238
 20
-2833.5634476500018
 10
-1193.299925535702
 20
-2833.5735331925653
 42
-0.0122723111406108
 10
-1193.4347192539014
 20
-2833.7563265220565
 10
-1193.4350454774544
 20
-2833.7567469098649
 42
-0.0141836319632118
 10
-1193.5786270804297
 20
-2833.9313166676957
 10
-1193.585574836078
 20
-2833.9392916679562
 42
-0.017595747719384
 10
-1193.7254810041163
 20
-2834.0889125563654
 42
-0.0080466359661344
 10
-1193.8729447691508
 20
-2834.2312350845209
 10
-1193.9189793136638
 20
-2834.2742555226077
 42
-0.0269600260389898
 10
-1194.1722595596455
 20
-2834.4865787811159
 10
-1194.2388266959447
 20
-2834.5365301957413
 42
-0.0178362839750845
 10
-1194.4787711855997
 20
-2834.7035481219928
 10
-1194.4860161566023
 20
-2834.7082166341988
 42
-0.0174650732665205
 10
-1194.7223523540415
 20
-2834.8490775991568
 42
-0.0169240130169448
 10
-1194.9678185999021
 20
-2834.9733698589357
 10
-1195.0138047554569
 20
-2834.9947318145014
 42
-0.0318883036846589
 10
-1195.3641556110736
 20
-2835.1310701240104
 10
-1195.4325211462399
 20
-2835.1527707444866
 42
-0.028443590990064
 10
-1195.8085712725328
 20
-2835.248988179962
 10
-1195.8437294330295
 20
-2835.2558817757899
 42
-0.024390934102142
 10
-1196.1571728939502
 20
-2835.3016028068205
 10
-1196.2074536207219
 20
-2835.3064483537223
 42
-0.0196639292921296
 10
-1196.4230491982485
 20
-2835.3186966392354
 10
-1196.47487326942
 20
-2835.3195998999722
 42
-0.0100501510670394
 10
-1196.5872965510762
 20
-2835.3192995016193
 10
-1196.6189564124281
 20
-2835.3185784297339
 42
-0.0019752031171852
 10
-1196.6680487491017
 20
-2835.3172662695242
 10
-1196.6708090523252
 20
-2835.3171815776977
 42
0.0065378751940143
 10
-1196.7143856270786
 20
-2835.3164146864829
 42
-0.0167974694713048
 10
-1196.7579164500021
 20
-2835.3147547879576
 10
-1196.7619957892725
 20
-2835.3144617770622
 42
-0.008128327625734
 10
-1196.8135555870203
 20
-2835.3099147834237
 10
-1196.8252951608897
 20
-2835.3086868658461
 42
-0.0126703440161958
 10
-1196.9000134566795
 20
-2835.2989520747756
 10
-1196.9228013243601
 20
-2835.2953938188593
 42
-0.0117852088449248
 10
-1197.0423403101811
 20
-2835.2738308237044
 10
-1197.0977207619553
 20
-2835.2624872834676
 42
-0.0251774592291454
 10
-1197.3245648009663
 20
-2835.2039892740336
 10
-1197.3692839908153
 20
-2835.1900224546989
 42
-0.0146525199888581
 10
-1197.5556769783527
 20
-2835.1257559275009
 42
-0.0166929435863236
 10
-1197.7376546344753
 20
-2835.0499487944485
 10
-1197.7423112657525
 20
-2835.0478238938326
 42
-0.0191684358440161
 10
-1197.9274948970035
 20
-2834.9545878100416
 10
-1197.9308274827588
 20
-2834.9527465624892
 42
-0.0221181781818338
 10
-1198.1141377866613
 20
-2834.8406130641179
 10
-1198.1164875906693
 20
-2834.8390287661273
 42
-0.0254984685387671
 10
-1198.2927777410525
 20
-2834.7066176161597
 10
-1198.3152598887546
 20
-2834.6878653072235
 42
-0.0292492648816422
 10
-1198.4400288275997
 20
-2834.5707725075786
 42
-0.0159048957490769
 10
-1198.5538688250508
 20
-2834.4427525159781
 10
-1198.5551876156292
 20
-2834.4411709029591
 42
-0.0343813379552005
 10
-1198.6578248772571
 20
-2834.299299577187
 10
-1198.6893164086148
 20
-2834.2487961850979
 42
-0.0369117275714099
 10
-1198.7752089105134
 20
-2834.0853189441473
 42
-0.0191751379903156
 10
-1198.8424022960712
 20
-2833.9129143381388
 10
-1198.8441656198299
 20
-2833.9078209934664
 42
-0.0378178042223715
 10
-1198.8939603386141
 20
-2833.7188802173855
 10
-1198.8999556343449
 20
-2833.6863195991864
 42
-0.0184846046481799
 10
-1198.9206728336389
 20
-2833.544566778643
 42
-0.0179866351307954
 10
-1198.9310058387127
 20
-2833.401675965556
 10
-1198.9310622811583
 20
-2833.4001182789498
 42
-0.0085497186109058
 10
-1198.932494562262
 20
-2833.3252451139397
 42
-0.0085497186109058
  0
ENDBLK
  5
5F
100
AcDbEntity
  8
template
390
0
100
AcDbBlockEnd
  0
BLOCK
  5
60
100
AcDbEntity
  8
notes
390
0
100
AcDbBlockBegin
  2
*D3
 70
               1
 10
0.0
 20
0.0
 30
0.0
  3
*D3
  1

  0
LINE
  5
61
100
AcDbEntity
  8
0
370
              -2
390
0
  6
Continuous
 62
               0
100
AcDbLine
 10
-344.37592912788432
 20
844.58363140573135
 30
0.0
 11
-266.47687322320189
 21
898.21787782321621
 31
0.0
  0
CIRCLE
  5
62
102
{ACAD_REACTORS
330
63
102
}
100
AcDbEntity
  8
0
370
              -2
390
0
  6
Continuous
 62
               0
100
AcDbCircle
 10
-344.37592912788432
 20
844.58363140573135
 30
0.0
 40
1.9998779296875
  0
HATCH
  5
63
100
AcDbEntity
  8
0
370
              -2
390
0
  6
Continuous
 62
               0
100
AcDbHatch
 10
0.0
 20
0.0
 30
0.0
210
0.0
220
0.0
230
1.0
  2
SOLID
 70
               1
 71
               1
 91
        1
 92
        1
 93
        1
 72
               2
 10
-344.37592912788432
 20
844.58363140573135
 40
1.9998779296875
 50
0.0
 51
360.0
 73
               0
 97
        1
330
62
 75
               0
 76
               1
 98
        1
 10
0.0
 20
0.0
  0
LINE
  5
64
100
AcDbEntity
  8
0
370
              -2
390
0
  6
Continuous
 62
               0
100
AcDbLine
 10
-266.47687322320189
 20
898.21787782321621
 30
0.0
 11
-127.10187322320189
 21
898.21787782321621
 31
0.0
  0
MTEXT
  5
65
100
AcDbEntity
  8
0
390
0
 62
               0
100
AcDbMText
 10
-206.47687322320189
 20
932.09549501071626
 30
0.0
 40
24.432617187500004
 41
0.0
 71
               1
 72
               1
  1
φ110
  7
ＭＳ ゴシック
 73
               1
 44
0.7828267384257843
  0
POINT
  5
66
100
AcDbEntity
  8
Defpoints
370
               0
390
0
 62
               0
100
AcDbPoint
 10
-434.97781731852047
 20
782.20336324109644
 30
0.0
  0
POINT
  5
67
100
AcDbEntity
  8
Defpoints
370
               0
390
0
 62
               0
100
AcDbPoint
 10
-344.37592912788432
 20
844.58363140573135
 30
0.0
  0
ENDBLK
  5
68
100
AcDbEntity
  8
notes
390
0
100
AcDbBlockEnd
  0
BLOCK
  5
69
100
AcDbEntity
  8
notes
390
0
100
AcDbBlockBegin
  2
*D4
 70
               1
 10
0.0
 20
0.0
 30
0.0
  3
*D4
  1

  0
LINE
  5
6A
100
AcDbEntity
  8
0
370
              -2
390
0
  6
Continuous
 62
               0
100
AcDbLine
 10
-669.67687322320216
 20
788.39349732341464
 30
0.0
 11
-669.67687322320262
 21
473.25
 31
0.0
  0
LINE
  5
6B
100
AcDbEntity
  8
0
370
              -2
390
0
  6
Continuous
 62
               0
100
AcDbLine
 10
-389.67687322320216
 20
788.39349732341418
 30
0.0
 11
-389.67687322320262
 21
473.24999999999977
 31
0.0
  0
LINE
  5
6C
100
AcDbEntity
  8
0
370
              -2
390
0
  6
Continuous
 62
               0
100
AcDbLine
 10
-669.67687322320262
 20
473.25
 30
0.0
 11
-389.67687322320262
 21
473.24999999999977
 31
0.0
  0
CIRCLE
  5
6D
102
{ACAD_REACTORS
330
6E
102
}
100
AcDbEntity
  8
0
370
              -2
390
0
  6
Continuous
 62
               0
100
AcDbCircle
 10
-669.67687322320262
 20
473.25
 30
0.0
 40
1.9998779296875
  0
HATCH
  5
6E
100
AcDbEntity
  8
0
370
              -2
390
0
  6
Continuous
 62
               0
100
AcDbHatch
 10
0.0
 20
0.0
 30
0.0
210
0.0
220
0.0
230
1.0
  2
SOLID
 70
               1
 71
               1
 91
        1
 92
        1
 93
        1
 72
               2
 10
-669.67687322320262
 20
473.25
 40
1.9998779296875
 50
0.0
 51
360.0
 73
               0
 97
        1
330
6D
 75
               0
 76
               1
 98
        1
 10
0.0
 20
0.0
  0
CIRCLE
  5
6F
102
{ACAD_REACTORS
330
70
102
}
100
AcDbEntity
  8
0
370
              -2
390
0
  6
Continuous
 62
               0
100
AcDbCircle
 10
-389.67687322320262
 20
473.24999999999977
 30
0.0
 40
1.9998779296875
  0
HATCH
  5
70
100
AcDbEntity
  8
0
370
              -2
390
0
  6
Continuous
 62
               0
100
AcDbHatch
 10
0.0
 20
0.0
 30
0.0
210
0.0
220
0.0
230
1.0
  2
SOLID
 70
               1
 71
               1
 91
        1
 92
        1
 93
        1
 72
               2
 10
-389.67687322320262
 20
473.24999999999977
 40
1.9998779296875
 50
0.0
 51
360.0
 73
               0
 97
        1
330
6F
 75
               0
 76
               1
 98
        1
 10
0.0
 20
0.0
  0
MTEXT
  5
71
100
AcDbEntity
  8
0
390
0
 62
               0
100
AcDbMText
 10
-568.81250168217548
 20
507.12761718749994
 30
0.0
 40
24.432617187500004
 41
0.0
 71
               1
 72
               1
  1
280
  7
ＭＳ ゴシック
 73
               1
 44
0.7828267384257843
  0
POINT
  5
72
100
AcDbEntity
  8
Defpoints
370
               0
390
0
 62
               0
100
AcDbPoint
 10
-389.67687322320216
 20
813.39349732341418
 30
0.0
  0
POINT
  5
73
100
AcDbEntity
  8
Defpoints
370
               0
390
0
 62
               0
100
AcDbPoint
 10
-669.67687322320216
 20
813.39349732341464
 30
0.0
  0
POINT
  5
74
100
AcDbEntity
  8
Defpoints
370
               0
390
0
 62
               0
100
AcDbPoint
 10
-669.67687322320262
 20
473.25
 30
0.0
  0
ENDBLK
  5
75
100
AcDbEntity
  8
notes
390
0
100
AcDbBlockEnd
  0
BLOCK
  5
76
100
AcDbEntity
  8
notes
390
0
100
AcDbBlockBegin
  2
*D5
 70
               1
 10
0.0
 20
0.0
 30
0.0
  3
*D5
  1

  0
LINE
  5
77
100
AcDbEntity
  8
0
370
              -2
390
0
  6
Continuous
 62
               0
100
AcDbLine
 10
-694.67687322320216
 20
-652.88574420139275
 30
0.0
 11
-769.67687322320216
 21
-652.88574420139275
 31
0.0
  0
LINE
  5
78
100
AcDbEntity
  8
0
370
              -2
390
0
  6
Continuous
 62
               0
100
AcDbLine
 10
-694.67687322320216
 20
-102.88574420139412
 30
0.0
 11
-769.67687322320216
 21
-102.88574420139412
 31
0.0
  0
LINE
  5
79
100
AcDbEntity
  8
0
370
              -2
390
0
  6
Continuous
 62
               0
100
AcDbLine
 10
-769.67687322320216
 20
-652.88574420139275
 30
0.0
 11
-769.67687322320216
 21
-102.88574420139412
 31
0.0
  0
CIRCLE
  5
7A
102
{ACAD_REACTORS
330
7B
102
}
100
AcDbEntity
  8
0
370
              -2
390
0
  6
Continuous
 62
               0
100
AcDbCircle
 10
-769.67687322320216
 20
-652.88574420139275
 30
0.0
 40
1.9998779296875
  0
HATCH
  5
7B
100
AcDbEntity
  8
0
370
              -2
390
0
  6
Continuous
 62
               0
100
AcDbHatch
 10
0.0
 20
0.0
 30
0.0
210
0.0
220
0.0
230
1.0
  2
SOLID
 70
               1
 71
               1
 91
        1
 92
        1
 93
        1
 72
               2
 10
-769.67687322320216
 20
-652.88574420139275
 40
1.9998779296875
 50
0.0
 51
360.0
 73
               0
 97
        1
330
7A
 75
               0
 76
               1
 98
        1
 10
0.0
 20
0.0
  0
CIRCLE
  5
7C
102
{ACAD_REACTORS
330
7D
102
}
100
AcDbEntity
  8
0
370
              -2
390
0
  6
Continuous
 62
               0
100
AcDbCircle
 10
-769.67687322320216
 20
-102.88574420139412
 30
0.0
 40
1.9998779296875
  0
HATCH
  5
7D
100
AcDbEntity
  8
0
370
              -2
390
0
  6
Continuous
 62
               0
100
AcDbHatch
 10
0.0
 20
0.0
 30
0.0
210
0.0
220
0.0
230
1.0
  2
SOLID
 70
               1
 71
               1
 91
        1
 92
        1
 93
        1
 72
               2
 10
-769.67687322320216
 20
-102.88574420139412
 40
1.9998779296875
 50
0.0
 51
360.0
 73
               0
 97
        1
330
7C
 75
               0
 76
               1
 98
        1
 10
0.0
 20
0.0
  0
MTEXT
  5
7E
100
AcDbEntity
  8
0
390
0
 62
               0
100
AcDbMText
 10
-803.55449041070233
 20
-401.69824588356892
 30
0.0
 40
24.432617187500004
 41
0.0
 71
               1
 72
               1
  1
550
  7
ＭＳ ゴシック
 11
0.0
 21
1.0
 31
0.0
 73
               1
 44
0.7828267384257843
  0
POINT
  5
7F
100
AcDbEntity
  8
Defpoints
370
               0
390
0
 62
               0
100
AcDbPoint
 10
-669.67687322320216
 20
-102.88574420139412
 30
0.0
  0
POINT
  5
80
100
AcDbEntity
  8
Defpoints
370
               0
390
0
 62
               0
100
AcDbPoint
 10
-669.67687322320216
 20
-652.88574420139275
 30
0.0
  0
POINT
  5
81
100
AcDbEntity
  8
Defpoints
370
               0
390
0
 62
               0
100
AcDbPoint
 10
-769.67687322320216
 20
-652.88574420139275
 30
0.0
  0
ENDBLK
  5
82
100
AcDbEntity
  8
notes
390
0
100
AcDbBlockEnd
  0
BLOCK
  5
83
100
AcDbEntity
  8
notes
390
0
100
AcDbBlockBegin
  2
*D6
 70
               1
 10
0.0
 20
0.0
 30
0.0
  3
*D6
  1

  0
LINE
  5
84
100
AcDbEntity
  8
0
370
              -2
390
0
  6
Continuous
 62
               0
100
AcDbLine
 10
-669.67687322320216
 20
-77.885744201394118
 30
0.0
 11
-669.67687322320216
 21
152.11425579860588
 31
0.0
  0
LINE
  5
85
100
AcDbEntity
  8
0
370
              -2
390
0
  6
Continuous
 62
               0
100
AcDbLine
 10
-89.673475227040399
 20
-302.88574420140139
 30
0.0
 11
-89.673475227040399
 21
152.11425579860588
 31
0.0
  0
LINE
  5
86
100
AcDbEntity
  8
0
370
              -2
390
0
  6
Continuous
 62
               0
100
AcDbLine
 10
-669.67687322320216
 20
152.11425579860588
 30
0.0
 11
-89.673475227040399
 21
152.11425579860588
 31
0.0
  0
CIRCLE
  5
87
102
{ACAD_REACTORS
330
88
102
}
100
AcDbEntity
  8
0
370
              -2
390
0
  6
Continuous
 62
               0
100
AcDbCircle
 10
-669.67687322320216
 20
152.11425579860588
 30
0.0
 40
1.9998779296875
  0
HATCH
  5
88
100
AcDbEntity
  8
0
370
              -2
390
0
  6
Continuous
 62
               0
100
AcDbHatch
 10
0.0
 20
0.0
 30
0.0
210
0.0
220
0.0
230
1.0
  2
SOLID
 70
               1
 71
               1
 91
        1
 92
        1
 93
        1
 72
               2
 10
-669.67687322320216
 20
152.11425579860588
 40
1.9998779296875
 50
0.0
 51
360.0
 73
               0
 97
        1
330
87
 75
               0
 76
               1
 98
        1
 10
0.0
 20
0.0
  0
CIRCLE
  5
89
102
{ACAD_REACTORS
330
8A
102
}
100
AcDbEntity
  8
0
370
              -2
390
0
  6
Continuous
 62
               0
100
AcDbCircle
 10
-89.673475227040399
 20
152.11425579860588
 30
0.0
 40
1.9998779296875
  0
HATCH
  5
8A
100
AcDbEntity
  8
0
370
              -2
390
0
  6
Continuous
 62
               0
100
AcDbHatch
 10
0.0
 20
0.0
 30
0.0
210
0.0
220
0.0
230
1.0
  2
SOLID
 70
               1
 71
               1
 91
        1
 92
        1
 93
        1
 72
               2
 10
-89.673475227040399
 20
152.11425579860588
 40
1.9998779296875
 50
0.0
 51
360.0
 73
               0
 97
        1
330
89
 75
               0
 76
               1
 98
        1
 10
0.0
 20
0.0
  0
MTEXT
  5
8B
100
AcDbEntity
  8
0
390
0
 62
               0
100
AcDbMText
 10
-403.48767590729676
 20
185.99187298610582
 30
0.0
 40
24.432617187500004
 41
0.0
 71
               1
 72
               1
  1
580
  7
ＭＳ ゴシック
 73
               1
 44
0.7828267384257843
  0
POINT
  5
8C
100
AcDbEntity
  8
Defpoints
370
               0
390
0
 62
               0
100
AcDbPoint
 10
-89.673475227040399
 20
-327.88574420140139
 30
0.0
  0
POINT
  5
8D
100
AcDbEntity
  8
Defpoints
370
               0
390
0
 62
               0
100
AcDbPoint
 10
-669.67687322320216
 20
-102.88574420139412
 30
0.0
  0
POINT
  5
8E
100
AcDbEntity
  8
Defpoints
370
               0
390
0
 62
               0
100
AcDbPoint
 10
-669.67687322320216
 20
152.11425579860588
 30
0.0
  0
ENDBLK
  5
8F
100
AcDbEntity
  8
notes
390
0
100
AcDbBlockEnd
  0
BLOCK
  5
90
100
AcDbEntity
  8
notes
390
0
100
AcDbBlockBegin
  2
*D7
 70
               1
 10
0.0
 20
0.0
 30
0.0
  3
*D7
  1

  0
LINE
  5
91
100
AcDbEntity
  8
0
370
              -2
390
0
  6
Continuous
 62
               0
100
AcDbLine
 10
-424.67687322320262
 20
-807.88574420139275
 30
0.0
 11
-819.67687322320216
 21
-807.88574420139275
 31
0.0
  0
LINE
  5
92
100
AcDbEntity
  8
0
370
              -2
390
0
  6
Continuous
 62
               0
100
AcDbLine
 10
-424.67687322320171
 20
52.114255798605882
 30
0.0
 11
-819.67687322320216
 21
52.114255798605882
 31
0.0
  0
LINE
  5
93
100
AcDbEntity
  8
0
370
              -2
390
0
  6
Continuous
 62
               0
100
AcDbLine
 10
-819.67687322320216
 20
-807.88574420139275
 30
0.0
 11
-819.67687322320216
 21
52.114255798605882
 31
0.0
  0
CIRCLE
  5
94
102
{ACAD_REACTORS
330
95
102
}
100
AcDbEntity
  8
0
370
              -2
390
0
  6
Continuous
 62
               0
100
AcDbCircle
 10
-819.67687322320216
 20
-807.88574420139275
 30
0.0
 40
1.9998779296875
  0
HATCH
  5
95
100
AcDbEntity
  8
0
370
              -2
390
0
  6
Continuous
 62
               0
100
AcDbHatch
 10
0.0
 20
0.0
 30
0.0
210
0.0
220
0.0
230
1.0
  2
SOLID
 70
               1
 71
               1
 91
        1
 92
        1
 93
        1
 72
               2
 10
-819.67687322320216
 20
-807.88574420139275
 40
1.9998779296875
 50
0.0
 51
360.0
 73
               0
 97
        1
330
94
 75
               0
 76
               1
 98
        1
 10
0.0
 20
0.0
  0
CIRCLE
  5
96
102
{ACAD_REACTORS
330
97
102
}
100
AcDbEntity
  8
0
370
              -2
390
0
  6
Continuous
 62
               0
100
AcDbCircle
 10
-819.67687322320216
 20
52.114255798605882
 30
0.0
 40
1.9998779296875
  0
HATCH
  5
97
100
AcDbEntity
  8
0
370
              -2
390
0
  6
Continuous
 62
               0
100
AcDbHatch
 10
0.0
 20
0.0
 30
0.0
210
0.0
220
0.0
230
1.0
  2
SOLID
 70
               1
 71
               1
 91
        1
 92
        1
 93
        1
 72
               2
 10
-819.67687322320216
 20
52.114255798605882
 40
1.9998779296875
 50
0.0
 51
360.0
 73
               0
 97
        1
330
96
 75
               0
 76
               1
 98
        1
 10
0.0
 20
0.0
  0
MTEXT
  5
98
100
AcDbEntity
  8
0
390
0
 62
               0
100
AcDbMText
 10
-853.55449041070233
 20
-401.69824588356892
 30
0.0
 40
24.432617187500004
 41
0.0
 71
               1
 72
               1
  1
860
  7
ＭＳ ゴシック
 11
0.0
 21
1.0
 31
0.0
 73
               1
 44
0.7828267384257843
  0
POINT
  5
99
100
AcDbEntity
  8
Defpoints
370
               0
390
0
 62
               0
100
AcDbPoint
 10
-399.67687322320171
 20
52.114255798605882
 30
0.0
  0
POINT
  5
9A
100
AcDbEntity
  8
Defpoints
370
               0
390
0
 62
               0
100
AcDbPoint
 10
-399.67687322320262
 20
-807.88574420139275
 30
0.0
  0
POINT
  5
9B
100
AcDbEntity
  8
Defpoints
370
               0
390
0
 62
               0
100
AcDbPoint
 10
-819.67687322320216
 20
-807.88574420139275
 30
0.0
  0
ENDBLK
  5
9C
100
AcDbEntity
  8
notes
390
0
100
AcDbBlockEnd
  0
BLOCK
  5
9D
100
AcDbEntity
  8
notes
390
0
100
AcDbBlockBegin
  2
*D8
 70
               1
 10
0.0
 20
0.0
 30
0.0
  3
*D8
  1

  0
LINE
  5
9E
100
AcDbEntity
  8
0
370
              -2
390
0
  6
Continuous
 62
               0
100
AcDbLine
 10
633.97626708137432
 20
-653.49999999999318
 30
0.0
 11
714.97626708137432
 21
-653.49999999999318
 31
0.0
  0
LINE
  5
9F
100
AcDbEntity
  8
0
370
              -2
390
0
  6
Continuous
 62
               0
100
AcDbLine
 10
633.97626708137432
 20
-103.49999999999591
 30
0.0
 11
714.97626708137432
 21
-103.49999999999591
 31
0.0
  0
LINE
  5
A0
100
AcDbEntity
  8
0
370
              -2
390
0
  6
Continuous
 62
               0
100
AcDbLine
 10
714.97626708137432
 20
-653.49999999999318
 30
0.0
 11
714.97626708137432
 21
-103.49999999999591
 31
0.0
  0
CIRCLE
  5
A1
102
{ACAD_REACTORS
330
A2
102
}
100
AcDbEntity
  8
0
370
              -2
390
0
  6
Continuous
 62
               0
100
AcDbCircle
 10
714.97626708137432
 20
-653.49999999999318
 30
0.0
 40
1.9998779296875
  0
HATCH
  5
A2
100
AcDbEntity
  8
0
370
              -2
390
0
  6
Continuous
 62
               0
100
AcDbHatch
 10
0.0
 20
0.0
 30
0.0
210
0.0
220
0.0
230
1.0
  2
SOLID
 70
               1
 71
               1
 91
        1
 92
        1
 93
        1
 72
               2
 10
714.97626708137432
 20
-653.49999999999318
 40
1.9998779296875
 50
0.0
 51
360.0
 73
               0
 97
        1
330
A1
 75
               0
 76
               1
 98
        1
 10
0.0
 20
0.0
  0
CIRCLE
  5
A3
102
{ACAD_REACTORS
330
A4
102
}
100
AcDbEntity
  8
0
370
              -2
390
0
  6
Continuous
 62
               0
100
AcDbCircle
 10
714.97626708137432
 20
-103.49999999999591
 30
0.0
 40
1.9998779296875
  0
HATCH
  5
A4
100
AcDbEntity
  8
0
370
              -2
390
0
  6
Continuous
 62
               0
100
AcDbHatch
 10
0.0
 20
0.0
 30
0.0
210
0.0
220
0.0
230
1.0
  2
SOLID
 70
               1
 71
               1
 91
        1
 92
        1
 93
        1
 72
               2
 10
714.97626708137432
 20
-103.49999999999591
 40
1.9998779296875
 50
0.0
 51
360.0
 73
               0
 97
        1
330
A3
 75
               0
 76
               1
 98
        1
 10
0.0
 20
0.0
  0
MTEXT
  5
A5
100
AcDbEntity
  8
0
390
0
 62
               0
100
AcDbMText
 10
681.09864989387438
 20
-402.31250168217002
 30
0.0
 40
24.432617187500004
 41
0.0
 71
               1
 72
               1
  1
550
  7
ＭＳ ゴシック
 11
0.0
 21
1.0
 31
0.0
 73
               1
 44
0.7828267384257843
  0
POINT
  5
A6
100
AcDbEntity
  8
Defpoints
370
               0
390
0
 62
               0
100
AcDbPoint
 10
608.97626708137432
 20
-103.49999999999591
 30
0.0
  0
POINT
  5
A7
100
AcDbEntity
  8
Defpoints
370
               0
390
0
 62
               0
100
AcDbPoint
 10
608.97626708137432
 20
-653.49999999999318
 30
0.0
  0
POINT
  5
A8
100
AcDbEntity
  8
Defpoints
370
               0
390
0
 62
               0
100
AcDbPoint
 10
714.97626708137432
 20
-653.49999999999318
 30
0.0
  0
ENDBLK
  5
A9
100
AcDbEntity
  8
notes
390
0
100
AcDbBlockEnd
  0
BLOCK
  5
AA
100
AcDbEntity
  8
notes
390
0
100
AcDbBlockBegin
  2
*D9
 70
               1
 10
0.0
 20
0.0
 30
0.0
  3
*D9
  1

  0
LINE
  5
AB
100
AcDbEntity
  8
0
370
              -2
390
0
  6
Continuous
 62
               0
100
AcDbLine
 10
429.97626708137341
 20
75.500000000004093
 30
0.0
 11
429.97626708137341
 21
152.11425579860588
 31
0.0
  0
LINE
  5
AC
100
AcDbEntity
  8
0
370
              -2
390
0
  6
Continuous
 62
               0
100
AcDbLine
 10
609.97626708137341
 20
-320.0
 30
0.0
 11
609.97626708137341
 21
152.11425579860588
 31
0.0
  0
LINE
  5
AD
100
AcDbEntity
  8
0
370
              -2
390
0
  6
Continuous
 62
               0
100
AcDbLine
 10
429.97626708137341
 20
152.11425579860588
 30
0.0
 11
609.97626708137341
 21
152.11425579860588
 31
0.0
  0
CIRCLE
  5
AE
102
{ACAD_REACTORS
330
AF
102
}
100
AcDbEntity
  8
0
370
              -2
390
0
  6
Continuous
 62
               0
100
AcDbCircle
 10
429.97626708137341
 20
152.11425579860588
 30
0.0
 40
1.9998779296875
  0
HATCH
  5
AF
100
AcDbEntity
  8
0
370
              -2
390
0
  6
Continuous
 62
               0
100
AcDbHatch
 10
0.0
 20
0.0
 30
0.0
210
0.0
220
0.0
230
1.0
  2
SOLID
 70
               1
 71
               1
 91
        1
 92
        1
 93
        1
 72
               2
 10
429.97626708137341
 20
152.11425579860588
 40
1.9998779296875
 50
0.0
 51
360.0
 73
               0
 97
        1
330
AE
 75
               0
 76
               1
 98
        1
 10
0.0
 20
0.0
  0
CIRCLE
  5
B0
102
{ACAD_REACTORS
330
B1
102
}
100
AcDbEntity
  8
0
370
              -2
390
0
  6
Continuous
 62
               0
100
AcDbCircle
 10
609.97626708137341
 20
152.11425579860588
 30
0.0
 40
1.9998779296875
  0
HATCH
  5
B1
100
AcDbEntity
  8
0
370
              -2
390
0
  6
Continuous
 62
               0
100
AcDbHatch
 10
0.0
 20
0.0
 30
0.0
210
0.0
220
0.0
230
1.0
  2
SOLID
 70
               1
 71
               1
 91
        1
 92
        1
 93
        1
 72
               2
 10
609.97626708137341
 20
152.11425579860588
 40
1.9998779296875
 50
0.0
 51
360.0
 73
               0
 97
        1
330
B0
 75
               0
 76
               1
 98
        1
 10
0.0
 20
0.0
  0
MTEXT
  5
B2
100
AcDbEntity
  8
0
390
0
 62
               0
100
AcDbMText
 10
496.16376539919793
 20
185.99187298610582
 30
0.0
 40
24.432617187500004
 41
0.0
 71
               1
 72
               1
  1
180
  7
ＭＳ ゴシック
 73
               1
 44
0.7828267384257843
  0
POINT
  5
B3
100
AcDbEntity
  8
Defpoints
370
               0
390
0
 62
               0
100
AcDbPoint
 10
609.97626708137341
 20
-345.0
 30
0.0
  0
POINT
  5
B4
100
AcDbEntity
  8
Defpoints
370
               0
390
0
 62
               0
100
AcDbPoint
 10
429.97626708137341
 20
50.500000000004093
 30
0.0
  0
POINT
  5
B5
100
AcDbEntity
  8
Defpoints
370
               0
390
0
 62
               0
100
AcDbPoint
 10
429.97626708137341
 20
152.11425579860588
 30
0.0
  0
ENDBLK
  5
B6
100
AcDbEntity
  8
notes
390
0
100
AcDbBlockEnd
  0
BLOCK
  5
B7
100
AcDbEntity
  8
notes
390
0
100
AcDbBlockBegin
  2
*D10
 70
               1
 10
0.0
 20
0.0
 30
0.0
  3
*D10
  1

  0
LINE
  5
B8
100
AcDbEntity
  8
0
370
              -2
390
0
  6
Continuous
 62
               0
100
AcDbLine
 10
474.97626708137432
 20
-212.88574420139207
 30
0.0
 11
329.97626708137341
 21
-212.88574420139207
 31
0.0
  0
LINE
  5
B9
100
AcDbEntity
  8
0
370
              -2
390
0
  6
Continuous
 62
               0
100
AcDbLine
 10
474.97626708137432
 20
-542.88574420139184
 30
0.0
 11
329.97626708137341
 21
-542.88574420139184
 31
0.0
  0
LINE
  5
BA
100
AcDbEntity
  8
0
370
              -2
390
0
  6
Continuous
 62
               0
100
AcDbLine
 10
329.97626708137341
 20
-212.88574420139207
 30
0.0
 11
329.97626708137341
 21
-542.88574420139184
 31
0.0
  0
CIRCLE
  5
BB
102
{ACAD_REACTORS
330
BC
102
}
100
AcDbEntity
  8
0
370
              -2
390
0
  6
Continuous
 62
               0
100
AcDbCircle
 10
329.97626708137341
 20
-212.88574420139207
 30
0.0
 40
1.9998779296875
  0
HATCH
  5
BC
100
AcDbEntity
  8
0
370
              -2
390
0
  6
Continuous
 62
               0
100
AcDbHatch
 10
0.0
 20
0.0
 30
0.0
210
0.0
220
0.0
230
1.0
  2
SOLID
 70
               1
 71
               1
 91
        1
 92
        1
 93
        1
 72
               2
 10
329.97626708137341
 20
-212.88574420139207
 40
1.9998779296875
 50
0.0
 51
360.0
 73
               0
 97
        1
330
BB
 75
               0
 76
               1
 98
        1
 10
0.0
 20
0.0
  0
CIRCLE
  5
BD
102
{ACAD_REACTORS
330
BE
102
}
100
AcDbEntity
  8
0
370
              -2
390
0
  6
Continuous
 62
               0
100
AcDbCircle
 10
329.97626708137341
 20
-542.88574420139184
 30
0.0
 40
1.9998779296875
  0
HATCH
  5
BE
100
AcDbEntity
  8
0
370
              -2
390
0
  6
Continuous
 62
               0
100
AcDbHatch
 10
0.0
 20
0.0
 30
0.0
210
0.0
220
0.0
230
1.0
  2
SOLID
 70
               1
 71
               1
 91
        1
 92
        1
 93
        1
 72
               2
 10
329.97626708137341
 20
-542.88574420139184
 40
1.9998779296875
 50
0.0
 51
360.0
 73
               0
 97
        1
330
BD
 75
               0
 76
               1
 98
        1
 10
0.0
 20
0.0
  0
MTEXT
  5
BF
100
AcDbEntity
  8
0
390
0
 62
               0
100
AcDbMText
 10
296.09864989387347
 20
-401.69824588356732
 30
0.0
 40
24.432617187500004
 41
0.0
 71
               1
 72
               1
  1
330
  7
ＭＳ ゴシック
 11
0.0
 21
1.0
 31
0.0
 73
               1
 44
0.7828267384257843
  0
POINT
  5
C0
100
AcDbEntity
  8
Defpoints
370
               0
390
0
 62
               0
100
AcDbPoint
 10
499.97626708137432
 20
-542.88574420139184
 30
0.0
  0
POINT
  5
C1
100
AcDbEntity
  8
Defpoints
370
               0
390
0
 62
               0
100
AcDbPoint
 10
499.97626708137432
 20
-212.88574420139207
 30
0.0
  0
POINT
  5
C2
100
AcDbEntity
  8
Defpoints
370
               0
390
0
 62
               0
100
AcDbPoint
 10
329.97626708137341
 20
-212.88574420139207
 30
0.0
  0
ENDBLK
  5
C3
100
AcDbEntity
  8
notes
390
0
100
AcDbBlockEnd
  0
BLOCK
  5
C4
100
AcDbEntity
  8
notes
390
0
100
AcDbBlockBegin
  2
*D11
 70
               1
 10
0.0
 20
0.0
 30
0.0
  3
*D11
  1

  0
LINE
  5
C5
100
AcDbEntity
  8
0
370
              -2
390
0
  6
Continuous
 62
               0
100
AcDbLine
 10
519.97626708137432
 20
-587.88574420139184
 30
0.0
 11
519.97626708137432
 21
-907.88574420139275
 31
0.0
  0
LINE
  5
C6
100
AcDbEntity
  8
0
370
              -2
390
0
  6
Continuous
 62
               0
100
AcDbLine
 10
429.97626708137432
 20
-832.50000000000728
 30
0.0
 11
429.97626708137432
 21
-907.88574420139275
 31
0.0
  0
LINE
  5
C7
100
AcDbEntity
  8
0
370
              -2
390
0
  6
Continuous
 62
               0
100
AcDbLine
 10
519.97626708137432
 20
-907.88574420139275
 30
0.0
 11
429.97626708137432
 21
-907.88574420139275
 31
0.0
  0
CIRCLE
  5
C8
102
{ACAD_REACTORS
330
C9
102
}
100
AcDbEntity
  8
0
370
              -2
390
0
  6
Continuous
 62
               0
100
AcDbCircle
 10
519.97626708137432
 20
-907.88574420139275
 30
0.0
 40
1.9998779296875
  0
HATCH
  5
C9
100
AcDbEntity
  8
0
370
              -2
390
0
  6
Continuous
 62
               0
100
AcDbHatch
 10
0.0
 20
0.0
 30
0.0
210
0.0
220
0.0
230
1.0
  2
SOLID
 70
               1
 71
               1
 91
        1
 92
        1
 93
        1
 72
               2
 10
519.97626708137432
 20
-907.88574420139275
 40
1.9998779296875
 50
0.0
 51
360.0
 73
               0
 97
        1
330
C8
 75
               0
 76
               1
 98
        1
 10
0.0
 20
0.0
  0
CIRCLE
  5
CA
102
{ACAD_REACTORS
330
CB
102
}
100
AcDbEntity
  8
0
370
              -2
390
0
  6
Continuous
 62
               0
100
AcDbCircle
 10
429.97626708137432
 20
-907.88574420139275
 30
0.0
 40
1.9998779296875
  0
HATCH
  5
CB
100
AcDbEntity
  8
0
370
              -2
390
0
  6
Continuous
 62
               0
100
AcDbHatch
 10
0.0
 20
0.0
 30
0.0
210
0.0
220
0.0
230
1.0
  2
SOLID
 70
               1
 71
               1
 91
        1
 92
        1
 93
        1
 72
               2
 10
429.97626708137432
 20
-907.88574420139275
 40
1.9998779296875
 50
0.0
 51
360.0
 73
               0
 97
        1
330
CA
 75
               0
 76
               1
 98
        1
 10
0.0
 20
0.0
  0
MTEXT
  5
CC
100
AcDbEntity
  8
0
390
0
 62
               0
100
AcDbMText
 10
459.10126708137432
 20
-874.00812701389259
 30
0.0
 40
24.432617187500004
 41
0.0
 71
               1
 72
               1
  1
90
  7
ＭＳ ゴシック
 73
               1
 44
0.7828267384257843
  0
POINT
  5
CD
100
AcDbEntity
  8
Defpoints
370
               0
390
0
 62
               0
100
AcDbPoint
 10
429.97626708137432
 20
-807.50000000000728
 30
0.0
  0
POINT
  5
CE
100
AcDbEntity
  8
Defpoints
370
               0
390
0
 62
               0
100
AcDbPoint
 10
519.97626708137432
 20
-562.88574420139184
 30
0.0
  0
POINT
  5
CF
100
AcDbEntity
  8
Defpoints
370
               0
390
0
 62
               0
100
AcDbPoint
 10
519.97626708137432
 20
-907.88574420139275
 30
0.0
  0
ENDBLK
  5
D0
100
AcDbEntity
  8
notes
390
0
100
AcDbBlockEnd
  0
BLOCK
  5
D1
100
AcDbEntity
  8
notes
390
0
100
AcDbBlockBegin
  2
*D12
 70
               1
 10
0.0
 20
0.0
 30
0.0
  3
*D12
  1

  0
LINE
  5
D2
100
AcDbEntity
  8
0
370
              -2
390
0
  6
Continuous
 62
               0
100
AcDbLine
 10
-643.67577270240872
 20
-677.88574420139366
 30
0.0
 11
-643.67577270240872
 21
-907.88574420139275
 31
0.0
  0
LINE
  5
D3
100
AcDbEntity
  8
0
370
              -2
390
0
  6
Continuous
 62
               0
100
AcDbLine
 10
-105.67689416410485
 20
-595.72075847518636
 30
0.0
 11
-105.67689416410485
 21
-907.88574420139275
 31
0.0
  0
LINE
  5
D4
100
AcDbEntity
  8
0
370
              -2
390
0
  6
Continuous
 62
               0
100
AcDbLine
 10
-643.67577270240872
 20
-907.88574420139275
 30
0.0
 11
-105.67689416410485
 21
-907.88574420139275
 31
0.0
  0
CIRCLE
  5
D5
102
{ACAD_REACTORS
330
D6
102
}
100
AcDbEntity
  8
0
370
              -2
390
0
  6
Continuous
 62
               0
100
AcDbCircle
 10
-643.67577270240872
 20
-907.88574420139275
 30
0.0
 40
1.9998779296875
  0
HATCH
  5
D6
100
AcDbEntity
  8
0
370
              -2
390
0
  6
Continuous
 62
               0
100
AcDbHatch
 10
0.0
 20
0.0
 30
0.0
210
0.0
220
0.0
230
1.0
  2
SOLID
 70
               1
 71
               1
 91
        1
 92
        1
 93
        1
 72
               2
 10
-643.67577270240872
 20
-907.88574420139275
 40
1.9998779296875
 50
0.0
 51
360.0
 73
               0
 97
        1
330
D5
 75
               0
 76
               1
 98
        1
 10
0.0
 20
0.0
  0
CIRCLE
  5
D7
102
{ACAD_REACTORS
330
D8
102
}
100
AcDbEntity
  8
0
370
              -2
390
0
  6
Continuous
 62
               0
100
AcDbCircle
 10
-105.67689416410485
 20
-907.88574420139275
 30
0.0
 40
1.9998779296875
  0
HATCH
  5
D8
100
AcDbEntity
  8
0
370
              -2
390
0
  6
Continuous
 62
               0
100
AcDbHatch
 10
0.0
 20
0.0
 30
0.0
210
0.0
220
0.0
230
1.0
  2
SOLID
 70
               1
 71
               1
 91
        1
 92
        1
 93
        1
 72
               2
 10
-105.67689416410485
 20
-907.88574420139275
 40
1.9998779296875
 50
0.0
 51
360.0
 73
               0
 97
        1
330
D7
 75
               0
 76
               1
 98
        1
 10
0.0
 20
0.0
  0
MTEXT
  5
D9
100
AcDbEntity
  8
0
390
0
 62
               0
100
AcDbMText
 10
-398.48883511543227
 20
-874.00812701389259
 30
0.0
 40
24.432617187500004
 41
0.0
 71
               1
 72
               1
  1
538
  7
ＭＳ ゴシック
 73
               1
 44
0.7828267384257843
  0
POINT
  5
DA
100
AcDbEntity
  8
Defpoints
370
               0
390
0
 62
               0
100
AcDbPoint
 10
-105.67689416410485
 20
-570.72075847518636
 30
0.0
  0
POINT
  5
DB
100
AcDbEntity
  8
Defpoints
370
               0
390
0
 62
               0
100
AcDbPoint
 10
-643.67577270240872
 20
-652.88574420139366
 30
0.0
  0
POINT
  5
DC
100
AcDbEntity
  8
Defpoints
370
               0
390
0
 62
               0
100
AcDbPoint
 10
-643.67577270240872
 20
-907.88574420139275
 30
0.0
  0
ENDBLK
  5
DD
100
AcDbEntity
  8
notes
390
0
100
AcDbBlockEnd
  0
BLOCK
  5
DE
100
AcDbEntity
  8
notes
390
0
100
AcDbBlockBegin
  2
*D13
 70
               1
 10
0.0
 20
0.0
 30
0.0
  3
*D13
  1

  0
LINE
  5
DF
100
AcDbEntity
  8
0
370
              -2
390
0
  6
Continuous
 62
               0
100
AcDbLine
 10
-215.47139778252949
 20
36.113997781999842
 30
0.0
 11
10.32312677679829
 21
36.113997781999842
 31
0.0
  0
LINE
  5
E0
100
AcDbEntity
  8
0
370
              -2
390
0
  6
Continuous
 62
               0
100
AcDbLine
 10
-214.2894148608998
 20
-791.88548618477898
 30
0.0
 11
10.32312677679829
 21
-791.88548618477898
 31
0.0
  0
LINE
  5
E1
100
AcDbEntity
  8
0
370
              -2
390
0
  6
Continuous
 62
               0
100
AcDbLine
 10
10.32312677679829
 20
36.113997781999842
 30
0.0
 11
10.32312677679829
 21
-791.88548618477898
 31
0.0
  0
CIRCLE
  5
E2
102
{ACAD_REACTORS
330
E3
102
}
100
AcDbEntity
  8
0
370
              -2
390
0
  6
Continuous
 62
               0
100
AcDbCircle
 10
10.32312677679829
 20
36.113997781999842
 30
0.0
 40
1.9998779296875
  0
HATCH
  5
E3
100
AcDbEntity
  8
0
370
              -2
390
0
  6
Continuous
 62
               0
100
AcDbHatch
 10
0.0
 20
0.0
 30
0.0
210
0.0
220
0.0
230
1.0
  2
SOLID
 70
               1
 71
               1
 91
        1
 92
        1
 93
        1
 72
               2
 10
10.32312677679829
 20
36.113997781999842
 40
1.9998779296875
 50
0.0
 51
360.0
 73
               0
 97
        1
330
E2
 75
               0
 76
               1
 98
        1
 10
0.0
 20
0.0
  0
CIRCLE
  5
E4
102
{ACAD_REACTORS
330
E5
102
}
100
AcDbEntity
  8
0
370
              -2
390
0
  6
Continuous
 62
               0
100
AcDbCircle
 10
10.32312677679829
 20
-791.88548618477898
 30
0.0
 40
1.9998779296875
  0
HATCH
  5
E5
100
AcDbEntity
  8
0
370
              -2
390
0
  6
Continuous
 62
               0
100
AcDbHatch
 10
0.0
 20
0.0
 30
0.0
210
0.0
220
0.0
230
1.0
  2
SOLID
 70
               1
 71
               1
 91
        1
 92
        1
 93
        1
 72
               2
 10
10.32312677679829
 20
-791.88548618477898
 40
1.9998779296875
 50
0.0
 51
360.0
 73
               0
 97
        1
330
E4
 75
               0
 76
               1
 98
        1
 10
0.0
 20
0.0
  0
MTEXT
  5
E6
100
AcDbEntity
  8
0
390
0
 62
               0
100
AcDbMText
 10
-23.554490410701874
 20
-401.69824588356505
 30
0.0
 40
24.432617187500004
 41
0.0
 71
               1
 72
               1
  1
828
  7
ＭＳ ゴシック
 11
0.0
 21
1.0
 31
0.0
 73
               1
 44
0.7828267384257843
  0
POINT
  5
E7
100
AcDbEntity
  8
Defpoints
370
               0
390
0
 62
               0
100
AcDbPoint
 10
-239.2894148608998
 20
-791.88548618477898
 30
0.0
  0
POINT
  5
E8
100
AcDbEntity
  8
Defpoints
370
               0
390
0
 62
               0
100
AcDbPoint
 10
-240.47139778252949
 20
36.113997781999842
 30
0.0
  0
POINT
  5
E9
100
AcDbEntity
  8
Defpoints
370
               0
390
0
 62
               0
100
AcDbPoint
 10
10.32312677679829
 20
36.113997781999842
 30
0.0
  0
ENDBLK
  5
EA
100
AcDbEntity
  8
notes
390
0
100
AcDbBlockEnd
  0
BLOCK
  5
EB
100
AcDbEntity
  8
notes
390
0
100
AcDbBlockBegin
  2
*D14
 70
               1
 10
0.0
 20
0.0
 30
0.0
  3
*D14
  1

  0
LINE
  5
EC
100
AcDbEntity
  8
0
370
              -2
390
0
  6
Continuous
 62
               0
100
AcDbLine
 10
-105.67689416410485
 20
-677.8571766237078
 30
0.0
 11
-105.67689416410485
 21
-908.0
 31
0.0
  0
LINE
  5
ED
100
AcDbEntity
  8
0
370
              -2
390
0
  6
Continuous
 62
               0
100
AcDbLine
 10
-89.676894164104851
 20
-489.0
 30
0.0
 11
-89.676894164104851
 21
-908.0
 31
0.0
  0
LINE
  5
EE
100
AcDbEntity
  8
0
370
              -2
390
0
  6
Continuous
 62
               0
100
AcDbLine
 10
-89.676894164104851
 20
-908.0
 30
0.0
 11
-42.25
 21
-908.0
 31
0.0
  0
LINE
  5
EF
100
AcDbEntity
  8
0
370
              -2
390
0
  6
Continuous
 62
               0
100
AcDbLine
 10
-105.67689416410485
 20
-908.0
 30
0.0
 11
-89.676894164104851
 21
-908.0
 31
0.0
  0
CIRCLE
  5
F0
102
{ACAD_REACTORS
330
F1
102
}
100
AcDbEntity
  8
0
370
              -2
390
0
  6
Continuous
 62
               0
100
AcDbCircle
 10
-105.67689416410485
 20
-908.0
 30
0.0
 40
1.9998779296875
  0
HATCH
  5
F1
100
AcDbEntity
  8
0
370
              -2
390
0
  6
Continuous
 62
               0
100
AcDbHatch
 10
0.0
 20
0.0
 30
0.0
210
0.0
220
0.0
230
1.0
  2
SOLID
 70
               1
 71
               1
 91
        1
 92
        1
 93
        1
 72
               2
 10
-105.67689416410485
 20
-908.0
 40
1.9998779296875
 50
0.0
 51
360.0
 73
               0
 97
        1
330
F0
 75
               0
 76
               1
 98
        1
 10
0.0
 20
0.0
  0
CIRCLE
  5
F2
102
{ACAD_REACTORS
330
F3
102
}
100
AcDbEntity
  8
0
370
              -2
390
0
  6
Continuous
 62
               0
100
AcDbCircle
 10
-89.676894164104851
 20
-908.0
 30
0.0
 40
1.9998779296875
  0
HATCH
  5
F3
100
AcDbEntity
  8
0
370
              -2
390
0
  6
Continuous
 62
               0
100
AcDbHatch
 10
0.0
 20
0.0
 30
0.0
210
0.0
220
0.0
230
1.0
  2
SOLID
 70
               1
 71
               1
 91
        1
 92
        1
 93
        1
 72
               2
 10
-89.676894164104851
 20
-908.0
 40
1.9998779296875
 50
0.0
 51
360.0
 73
               0
 97
        1
330
F2
 75
               0
 76
               1
 98
        1
 10
0.0
 20
0.0
  0
MTEXT
  5
F4
100
AcDbEntity
  8
0
390
0
 62
               0
100
AcDbMText
 10
-74.0
 20
-874.12238281249984
 30
0.0
 40
24.432617187500004
 41
0.0
 71
               1
 72
               1
  1
16
  7
ＭＳ ゴシック
 73
               1
 44
0.7828267384257843
  0
POINT
  5
F5
100
AcDbEntity
  8
Defpoints
370
               0
390
0
 62
               0
100
AcDbPoint
 10
-89.676894164104851
 20
-464.0
 30
0.0
  0
POINT
  5
F6
100
AcDbEntity
  8
Defpoints
370
               0
390
0
 62
               0
100
AcDbPoint
 10
-105.67689416410485
 20
-652.8571766237078
 30
0.0
  0
POINT
  5
F7
100
AcDbEntity
  8
Defpoints
370
               0
390
0
 62
               0
100
AcDbPoint
 10
-105.67689416410485
 20
-908.0
 30
0.0
  0
ENDBLK
  5
F8
100
AcDbEntity
  8
notes
390
0
100
AcDbBlockEnd
  0
BLOCK
  5
F9
100
AcDbEntity
  8
notes
390
0
100
AcDbBlockBegin
  2
*D15
 70
               1
 10
0.0
 20
0.0
 30
0.0
  3
*D15
  1

  0
LINE
  5
FA
100
AcDbEntity
  8
0
370
              -2
390
0
  6
Continuous
 62
               0
100
AcDbLine
 10
639.97626708137432
 20
1092.779241524815
 30
0.0
 11
714.97626708137432
 21
1092.779241524815
 31
0.0
  0
LINE
  5
FB
100
AcDbEntity
  8
0
370
              -2
390
0
  6
Continuous
 62
               0
100
AcDbLine
 10
639.97626708137432
 20
812.77924152481364
 30
0.0
 11
714.97626708137432
 21
812.77924152481364
 31
0.0
  0
LINE
  5
FC
100
AcDbEntity
  8
0
370
              -2
390
0
  6
Continuous
 62
               0
100
AcDbLine
 10
714.97626708137432
 20
1092.779241524815
 30
0.0
 11
714.97626708137432
 21
812.77924152481364
 31
0.0
  0
CIRCLE
  5
FD
102
{ACAD_REACTORS
330
FE
102
}
100
AcDbEntity
  8
0
370
              -2
390
0
  6
Continuous
 62
               0
100
AcDbCircle
 10
714.97626708137432
 20
1092.779241524815
 30
0.0
 40
1.9998779296875
  0
HATCH
  5
FE
100
AcDbEntity
  8
0
370
              -2
390
0
  6
Continuous
 62
               0
100
AcDbHatch
 10
0.0
 20
0.0
 30
0.0
210
0.0
220
0.0
230
1.0
  2
SOLID
 70
               1
 71
               1
 91
        1
 92
        1
 93
        1
 72
               2
 10
714.97626708137432
 20
1092.779241524815
 40
1.9998779296875
 50
0.0
 51
360.0
 73
               0
 97
        1
330
FD
 75
               0
 76
               1
 98
        1
 10
0.0
 20
0.0
  0
CIRCLE
  5
FF
102
{ACAD_REACTORS
330
100
102
}
100
AcDbEntity
  8
0
370
              -2
390
0
  6
Continuous
 62
               0
100
AcDbCircle
 10
714.97626708137432
 20
812.77924152481364
 30
0.0
 40
1.9998779296875
  0
HATCH
  5
100
100
AcDbEntity
  8
0
370
              -2
390
0
  6
Continuous
 62
               0
100
AcDbHatch
 10
0.0
 20
0.0
 30
0.0
210
0.0
220
0.0
230
1.0
  2
SOLID
 70
               1
 71
               1
 91
        1
 92
        1
 93
        1
 72
               2
 10
714.97626708137432
 20
812.77924152481364
 40
1.9998779296875
 50
0.0
 51
360.0
 73
               0
 97
        1
330
FF
 75
               0
 76
               1
 98
        1
 10
0.0
 20
0.0
  0
MTEXT
  5
101
100
AcDbEntity
  8
0
390
0
 62
               0
100
AcDbMText
 10
681.09864989387438
 20
928.96673984263884
 30
0.0
 40
24.432617187500004
 41
0.0
 71
               1
 72
               1
  1
280
  7
ＭＳ ゴシック
 11
0.0
 21
1.0
 31
0.0
 73
               1
 44
0.7828267384257843
  0
POINT
  5
102
100
AcDbEntity
  8
Defpoints
370
               0
390
0
 62
               0
100
AcDbPoint
 10
614.97626708137432
 20
812.77924152481364
 30
0.0
  0
POINT
  5
103
100
AcDbEntity
  8
Defpoints
370
               0
390
0
 62
               0
100
AcDbPoint
 10
614.97626708137432
 20
1092.779241524815
 30
0.0
  0
POINT
  5
104
100
AcDbEntity
  8
Defpoints
370
               0
390
0
 62
               0
100
AcDbPoint
 10
714.97626708137432
 20
1092.779241524815
 30
0.0
  0
ENDBLK
  5
105
100
AcDbEntity
  8
notes
390
0
100
AcDbBlockEnd
  0
BLOCK
  5
106
100
AcDbEntity
  8
notes
390
0
100
AcDbBlockBegin
  2
*D16
 70
               1
 10
0.0
 20
0.0
 30
0.0
  3
*D16
  1

  0
LINE
  5
107
100
AcDbEntity
  8
0
370
              -2
390
0
  6
Continuous
 62
               0
100
AcDbLine
 10
634.97626708137386
 20
1092.779241524815
 30
0.0
 11
764.97626708137432
 21
1092.779241524815
 31
0.0
  0
LINE
  5
108
100
AcDbEntity
  8
0
370
              -2
390
0
  6
Continuous
 62
               0
100
AcDbLine
 10
626.33038841819507
 20
732.77924152481501
 30
0.0
 11
764.97626708137432
 21
732.77924152481501
 31
0.0
  0
LINE
  5
109
100
AcDbEntity
  8
0
370
              -2
390
0
  6
Continuous
 62
               0
100
AcDbLine
 10
764.97626708137432
 20
1092.779241524815
 30
0.0
 11
764.97626708137432
 21
732.77924152481501
 31
0.0
  0
CIRCLE
  5
10A
102
{ACAD_REACTORS
330
10B
102
}
100
AcDbEntity
  8
0
370
              -2
390
0
  6
Continuous
 62
               0
100
AcDbCircle
 10
764.97626708137432
 20
1092.779241524815
 30
0.0
 40
1.9998779296875
  0
HATCH
  5
10B
100
AcDbEntity
  8
0
370
              -2
390
0
  6
Continuous
 62
               0
100
AcDbHatch
 10
0.0
 20
0.0
 30
0.0
210
0.0
220
0.0
230
1.0
  2
SOLID
 70
               1
 71
               1
 91
        1
 92
        1
 93
        1
 72
               2
 10
764.97626708137432
 20
1092.779241524815
 40
1.9998779296875
 50
0.0
 51
360.0
 73
               0
 97
        1
330
10A
 75
               0
 76
               1
 98
        1
 10
0.0
 20
0.0
  0
CIRCLE
  5
10C
102
{ACAD_REACTORS
330
10D
102
}
100
AcDbEntity
  8
0
370
              -2
390
0
  6
Continuous
 62
               0
100
AcDbCircle
 10
764.97626708137432
 20
732.77924152481501
 30
0.0
 40
1.9998779296875
  0
HATCH
  5
10D
100
AcDbEntity
  8
0
370
              -2
390
0
  6
Continuous
 62
               0
100
AcDbHatch
 10
0.0
 20
0.0
 30
0.0
210
0.0
220
0.0
230
1.0
  2
SOLID
 70
               1
 71
               1
 91
        1
 92
        1
 93
        1
 72
               2
 10
764.97626708137432
 20
732.77924152481501
 40
1.9998779296875
 50
0.0
 51
360.0
 73
               0
 97
        1
330
10C
 75
               0
 76
               1
 98
        1
 10
0.0
 20
0.0
  0
MTEXT
  5
10E
100
AcDbEntity
  8
0
390
0
 62
               0
100
AcDbMText
 10
731.09864989387438
 20
888.96673984263953
 30
0.0
 40
24.432617187500004
 41
0.0
 71
               1
 72
               1
  1
360
  7
ＭＳ ゴシック
 11
0.0
 21
1.0
 31
0.0
 73
               1
 44
0.7828267384257843
  0
POINT
  5
10F
100
AcDbEntity
  8
Defpoints
370
               0
390
0
 62
               0
100
AcDbPoint
 10
601.33038841819507
 20
732.77924152481501
 30
0.0
  0
POINT
  5
110
100
AcDbEntity
  8
Defpoints
370
               0
390
0
 62
               0
100
AcDbPoint
 10
609.97626708137386
 20
1092.779241524815
 30
0.0
  0
POINT
  5
111
100
AcDbEntity
  8
Defpoints
370
               0
390
0
 62
               0
100
AcDbPoint
 10
764.97626708137432
 20
1092.779241524815
 30
0.0
  0
ENDBLK
  5
112
100
AcDbEntity
  8
notes
390
0
100
AcDbBlockEnd
  0
BLOCK
  5
113
100
AcDbEntity
  8
notes
390
0
100
AcDbBlockBegin
  2
*D17
 70
               1
 10
0.0
 20
0.0
 30
0.0
  3
*D17
  1

  0
LINE
  5
114
100
AcDbEntity
  8
0
370
              -2
390
0
  6
Continuous
 62
               0
100
AcDbLine
 10
549.97626708137295
 20
787.57614954430892
 30
0.0
 11
549.97626708137295
 21
811.57614954430892
 31
0.0
  0
LINE
  5
115
100
AcDbEntity
  8
0
370
              -2
390
0
  6
Continuous
 62
               0
100
AcDbLine
 10
429.97626708137295
 20
822.8100782338397
 30
0.0
 11
429.97626708137295
 21
811.57614954430892
 31
0.0
  0
LINE
  5
116
100
AcDbEntity
  8
0
370
              -2
390
0
  6
Continuous
 62
               0
100
AcDbLine
 10
429.97626708137295
 20
811.57614954430892
 30
0.0
 11
228.64812677679811
 21
811.57614954430892
 31
0.0
  0
LINE
  5
117
100
AcDbEntity
  8
0
370
              -2
390
0
  6
Continuous
 62
               0
100
AcDbLine
 10
549.97626708137295
 20
811.57614954430892
 30
0.0
 11
429.97626708137295
 21
811.57614954430892
 31
0.0
  0
CIRCLE
  5
118
102
{ACAD_REACTORS
330
119
102
}
100
AcDbEntity
  8
0
370
              -2
390
0
  6
Continuous
 62
               0
100
AcDbCircle
 10
549.97626708137295
 20
811.57614954430892
 30
0.0
 40
1.9998779296875
  0
HATCH
  5
119
100
AcDbEntity
  8
0
370
              -2
390
0
  6
Continuous
 62
               0
100
AcDbHatch
 10
0.0
 20
0.0
 30
0.0
210
0.0
220
0.0
230
1.0
  2
SOLID
 70
               1
 71
               1
 91
        1
 92
        1
 93
        1
 72
               2
 10
549.97626708137295
 20
811.57614954430892
 40
1.9998779296875
 50
0.0
 51
360.0
 73
               0
 97
        1
330
118
 75
               0
 76
               1
 98
        1
 10
0.0
 20
0.0
  0
CIRCLE
  5
11A
102
{ACAD_REACTORS
330
11B
102
}
100
AcDbEntity
  8
0
370
              -2
390
0
  6
Continuous
 62
               0
100
AcDbCircle
 10
429.97626708137295
 20
811.57614954430892
 30
0.0
 40
1.9998779296875
  0
HATCH
  5
11B
100
AcDbEntity
  8
0
370
              -2
390
0
  6
Continuous
 62
               0
100
AcDbHatch
 10
0.0
 20
0.0
 30
0.0
210
0.0
220
0.0
230
1.0
  2
SOLID
 70
               1
 71
               1
 91
        1
 92
        1
 93
        1
 72
               2
 10
429.97626708137295
 20
811.57614954430892
 40
1.9998779296875
 50
0.0
 51
360.0
 73
               0
 97
        1
330
11A
 75
               0
 76
               1
 98
        1
 10
0.0
 20
0.0
  0
MTEXT
  5
11C
100
AcDbEntity
  8
0
390
0
 62
               0
100
AcDbMText
 10
228.64812677679811
 20
845.45376673180897
 30
0.0
 40
24.432617187500004
 41
0.0
 71
               1
 72
               1
  1
120(深さ)
  7
ＭＳ ゴシック
 73
               1
 44
0.7828267384257843
  0
POINT
  5
11D
100
AcDbEntity
  8
Defpoints
370
               0
390
0
 62
               0
100
AcDbPoint
 10
429.97626708137295
 20
797.8100782338397
 30
0.0
  0
POINT
  5
11E
100
AcDbEntity
  8
Defpoints
370
               0
390
0
 62
               0
100
AcDbPoint
 10
549.97626708137295
 20
812.57614954430892
 30
0.0
  0
POINT
  5
11F
100
AcDbEntity
  8
Defpoints
370
               0
390
0
 62
               0
100
AcDbPoint
 10
549.97626708137295
 20
811.57614954430892
 30
0.0
  0
ENDBLK
  5
120
100
AcDbEntity
  8
notes
390
0
100
AcDbBlockEnd
  0
BLOCK
  5
121
100
AcDbEntity
  8
AAA70-0701
390
0
100
AcDbBlockBegin
  2
*D18
 70
               1
 10
0.0
 20
0.0
 30
0.0
  3
*D18
  1

  0
LINE
  5
122
100
AcDbEntity
  8
0
370
              -2
390
0
  6
Continuous
 62
               0
100
AcDbLine
 10
-670.0
 20
1037.5
 30
0.0
 11
-670.0
 21
1064.3847571371864
 31
0.0
  0
LINE
  5
123
100
AcDbEntity
  8
0
370
              -2
390
0
  6
Continuous
 62
               0
100
AcDbLine
 10
-570.0
 20
1037.5
 30
0.0
 11
-570.0
 21
1064.3847571371864
 31
0.0
  0
LINE
  5
124
100
AcDbEntity
  8
0
370
              -2
390
0
  6
Continuous
 62
               0
100
AcDbLine
 10
-670.0
 20
1064.3847571371864
 30
0.0
 11
-570.0
 21
1064.3847571371864
 31
0.0
  0
CIRCLE
  5
125
102
{ACAD_REACTORS
330
126
102
}
100
AcDbEntity
  8
0
370
              -2
390
0
  6
Continuous
 62
               0
100
AcDbCircle
 10
-670.0
 20
1064.3847571371864
 30
0.0
 40
1.9998779296875
  0
HATCH
  5
126
100
AcDbEntity
  8
0
370
              -2
390
0
  6
Continuous
 62
               0
100
AcDbHatch
 10
0.0
 20
0.0
 30
0.0
210
0.0
220
0.0
230
1.0
  2
SOLID
 70
               1
 71
               1
 91
        1
 92
        1
 93
        1
 72
               2
 10
-670.0
 20
1064.3847571371864
 40
1.9998779296875
 50
0.0
 51
360.0
 73
               0
 97
        1
330
125
 75
               0
 76
               1
 98
        1
 10
0.0
 20
0.0
  0
CIRCLE
  5
127
102
{ACAD_REACTORS
330
128
102
}
100
AcDbEntity
  8
0
370
              -2
390
0
  6
Continuous
 62
               0
100
AcDbCircle
 10
-570.0
 20
1064.3847571371864
 30
0.0
 40
1.9998779296875
  0
HATCH
  5
128
100
AcDbEntity
  8
0
370
              -2
390
0
  6
Continuous
 62
               0
100
AcDbHatch
 10
0.0
 20
0.0
 30
0.0
210
0.0
220
0.0
230
1.0
  2
SOLID
 70
               1
 71
               1
 91
        1
 92
        1
 93
        1
 72
               2
 10
-570.0
 20
1064.3847571371864
 40
1.9998779296875
 50
0.0
 51
360.0
 73
               0
 97
        1
330
127
 75
               0
 76
               1
 98
        1
 10
0.0
 20
0.0
  0
MTEXT
  5
129
100
AcDbEntity
  8
0
390
0
 62
               0
100
AcDbMText
 10
-643.81250168217548
 20
1098.2623743246863
 30
0.0
 40
24.432617187500004
 41
0.0
 71
               1
 72
               1
  1
100
  7
ＭＳ ゴシック
 73
               1
 44
0.7828267384257843
  0
POINT
  5
12A
100
AcDbEntity
  8
Defpoints
370
               0
390
0
 62
               0
100
AcDbPoint
 10
-570.0
 20
1012.5
 30
0.0
  0
POINT
  5
12B
100
AcDbEntity
  8
Defpoints
370
               0
390
0
 62
               0
100
AcDbPoint
 10
-670.0
 20
1012.5
 30
0.0
  0
POINT
  5
12C
100
AcDbEntity
  8
Defpoints
370
               0
390
0
 62
               0
100
AcDbPoint
 10
-670.0
 20
1064.3847571371864
 30
0.0
  0
ENDBLK
  5
12D
100
AcDbEntity
  8
AAA70-0701
390
0
100
AcDbBlockEnd
  0
BLOCK
  5
12E
100
AcDbEntity
  8
AAA70-0701
390
0
100
AcDbBlockBegin
  2
*D19
 70
               1
 10
0.0
 20
0.0
 30
0.0
  3
*D19
  1

  0
LINE
  5
12F
100
AcDbEntity
  8
0
370
              -2
390
0
  6
Continuous
 62
               0
100
AcDbLine
 10
-695.0
 20
1012.5
 30
0.0
 11
-770.0
 21
1012.5
 31
0.0
  0
LINE
  5
130
100
AcDbEntity
  8
0
370
              -2
390
0
  6
Continuous
 62
               0
100
AcDbLine
 10
-695.0
 20
612.5
 30
0.0
 11
-770.0
 21
612.5
 31
0.0
  0
LINE
  5
131
100
AcDbEntity
  8
0
370
              -2
390
0
  6
Continuous
 62
               0
100
AcDbLine
 10
-770.0
 20
1012.5
 30
0.0
 11
-770.0
 21
612.5
 31
0.0
  0
CIRCLE
  5
132
102
{ACAD_REACTORS
330
133
102
}
100
AcDbEntity
  8
0
370
              -2
390
0
  6
Continuous
 62
               0
100
AcDbCircle
 10
-770.0
 20
1012.5
 30
0.0
 40
1.9998779296875
  0
HATCH
  5
133
100
AcDbEntity
  8
0
370
              -2
390
0
  6
Continuous
 62
               0
100
AcDbHatch
 10
0.0
 20
0.0
 30
0.0
210
0.0
220
0.0
230
1.0
  2
SOLID
 70
               1
 71
               1
 91
        1
 92
        1
 93
        1
 72
               2
 10
-770.0
 20
1012.5
 40
1.9998779296875
 50
0.0
 51
360.0
 73
               0
 97
        1
330
132
 75
               0
 76
               1
 98
        1
 10
0.0
 20
0.0
  0
CIRCLE
  5
134
102
{ACAD_REACTORS
330
135
102
}
100
AcDbEntity
  8
0
370
              -2
390
0
  6
Continuous
 62
               0
100
AcDbCircle
 10
-770.0
 20
612.5
 30
0.0
 40
1.9998779296875
  0
HATCH
  5
135
100
AcDbEntity
  8
0
370
              -2
390
0
  6
Continuous
 62
               0
100
AcDbHatch
 10
0.0
 20
0.0
 30
0.0
210
0.0
220
0.0
230
1.0
  2
SOLID
 70
               1
 71
               1
 91
        1
 92
        1
 93
        1
 72
               2
 10
-770.0
 20
612.5
 40
1.9998779296875
 50
0.0
 51
360.0
 73
               0
 97
        1
330
134
 75
               0
 76
               1
 98
        1
 10
0.0
 20
0.0
  0
MTEXT
  5
136
100
AcDbEntity
  8
0
390
0
 62
               0
100
AcDbMText
 10
-803.87761718750016
 20
788.68749831782452
 30
0.0
 40
24.432617187500004
 41
0.0
 71
               1
 72
               1
  1
400
  7
ＭＳ ゴシック
 11
0.0
 21
1.0
 31
0.0
 73
               1
 44
0.7828267384257843
  0
POINT
  5
137
100
AcDbEntity
  8
Defpoints
370
               0
390
0
 62
               0
100
AcDbPoint
 10
-670.0
 20
612.5
 30
0.0
  0
POINT
  5
138
100
AcDbEntity
  8
Defpoints
370
               0
390
0
 62
               0
100
AcDbPoint
 10
-670.0
 20
1012.5
 30
0.0
  0
POINT
  5
139
100
AcDbEntity
  8
Defpoints
370
               0
390
0
 62
               0
100
AcDbPoint
 10
-770.0
 20
1012.5
 30
0.0
  0
ENDBLK
  5
13A
100
AcDbEntity
  8
AAA70-0701
390
0
100
AcDbBlockEnd
  0
BLOCK
  5
13B
100
AcDbEntity
  8
AAA70-0701
390
0
100
AcDbBlockBegin
  2
*D20
 70
               1
 10
0.0
 20
0.0
 30
0.0
  3
*D20
  1

  0
LINE
  5
13C
100
AcDbEntity
  8
0
370
              -2
390
0
  6
Continuous
 62
               0
100
AcDbLine
 10
-669.67687322320216
 20
-43.414451241923871
 30
0.0
 11
-669.67687322320216
 21
86.471292959472066
 31
0.0
  0
LINE
  5
13D
100
AcDbEntity
  8
0
370
              -2
390
0
  6
Continuous
 62
               0
100
AcDbLine
 10
-659.67661946654107
 20
-77.885744201394118
 30
0.0
 11
-659.67661946654107
 21
86.471292959472066
 31
0.0
  0
LINE
  5
13E
100
AcDbEntity
  8
0
370
              -2
390
0
  6
Continuous
 62
               0
100
AcDbLine
 10
-669.67687322320216
 20
86.471292959472066
 30
0.0
 11
-659.67661946654107
 21
86.471292959472066
 31
0.0
  0
CIRCLE
  5
13F
102
{ACAD_REACTORS
330
140
102
}
100
AcDbEntity
  8
0
370
              -2
390
0
  6
Continuous
 62
               0
100
AcDbCircle
 10
-669.67687322320216
 20
86.471292959472066
 30
0.0
 40
1.9998779296875
  0
HATCH
  5
140
100
AcDbEntity
  8
0
370
              -2
390
0
  6
Continuous
 62
               0
100
AcDbHatch
 10
0.0
 20
0.0
 30
0.0
210
0.0
220
0.0
230
1.0
  2
SOLID
 70
               1
 71
               1
 91
        1
 92
        1
 93
        1
 72
               2
 10
-669.67687322320216
 20
86.471292959472066
 40
1.9998779296875
 50
0.0
 51
360.0
 73
               0
 97
        1
330
13F
 75
               0
 76
               1
 98
        1
 10
0.0
 20
0.0
  0
CIRCLE
  5
141
102
{ACAD_REACTORS
330
142
102
}
100
AcDbEntity
  8
0
370
              -2
390
0
  6
Continuous
 62
               0
100
AcDbCircle
 10
-659.67661946654107
 20
86.471292959472066
 30
0.0
 40
1.9998779296875
  0
HATCH
  5
142
100
AcDbEntity
  8
0
370
              -2
390
0
  6
Continuous
 62
               0
100
AcDbHatch
 10
0.0
 20
0.0
 30
0.0
210
0.0
220
0.0
230
1.0
  2
SOLID
 70
               1
 71
               1
 91
        1
 92
        1
 93
        1
 72
               2
 10
-659.67661946654107
 20
86.471292959472066
 40
1.9998779296875
 50
0.0
 51
360.0
 73
               0
 97
        1
330
141
 75
               0
 76
               1
 98
        1
 10
0.0
 20
0.0
  0
MTEXT
  5
143
100
AcDbEntity
  8
0
390
0
 62
               0
100
AcDbMText
 10
-677.875
 20
120.348910146972
 30
0.0
 40
24.432617187500004
 41
0.0
 71
               1
 72
               1
  1
10
  7
ＭＳ ゴシック
 73
               1
 44
0.7828267384257843
  0
POINT
  5
144
100
AcDbEntity
  8
Defpoints
370
               0
390
0
 62
               0
100
AcDbPoint
 10
-659.67661946654107
 20
-102.88574420139412
 30
0.0
  0
POINT
  5
145
100
AcDbEntity
  8
Defpoints
370
               0
390
0
 62
               0
100
AcDbPoint
 10
-669.67687322320216
 20
-68.414451241923871
 30
0.0
  0
POINT
  5
146
100
AcDbEntity
  8
Defpoints
370
               0
390
0
 62
               0
100
AcDbPoint
 10
-669.67687322320216
 20
86.471292959472066
 30
0.0
  0
ENDBLK
  5
147
100
AcDbEntity
  8
AAA70-0701
390
0
100
AcDbBlockEnd
  0
ENDSEC
  0
SECTION
  2
ENTITIES
  0
MTEXT
  5
148
100
AcDbEntity
  8
template
390
0
 62
               7
100
AcDbMText
 10
-967.99999999975898
 20
-1134.6535143187939
 30
0.0
 40
16.288411458333332
 41
0.0
 71
               1
 72
               1
  1
品名
  7
ＭＳ ゴシック
 73
               1
 44
0.7828267384257843
  0
MTEXT
  5
149
100
AcDbEntity
  8
template
390
0
 62
               7
100
AcDbMText
 10
-967.99999999975898
 20
-1219.6535143187939
 30
0.0
 40
16.288411458333332
 41
0.0
 71
               1
 72
               1
  1
仕様
  7
ＭＳ ゴシック
 73
               1
 44
0.7828267384257843
  0
MTEXT
  5
14A
100
AcDbEntity
  8
template
390
0
 62
               7
100
AcDbMText
 10
-914.99999999975898
 20
-1163.2359752562938
 30
0.0
 40
24.432617187500004
 41
0.0
 71
               1
 72
               1
  1
洗面器 -FLAMINIA,Nuda-
  7
ＭＳ ゴシック
 73
               1
 44
0.7828267384257843
  0
LINE
  5
14B
100
AcDbEntity
  8
template
370
               5
390
0
  6
Continuous
 62
               7
100
AcDbLine
 10
974.99999999975876
 20
-1211.238592443794
 30
0.0
 11
-975.00000000024102
 21
-1211.238592443794
 31
0.0
  0
LWPOLYLINE
  5
14C
100
AcDbEntity
  8
template
370
               5
390
0
  6
Continuous
 62
               7
100
AcDbPolyline
 90
        5
 70
             128
 10
975.00000000024124
 20
1418.761407556206
 10
-974.99999999975898
 20
1418.761407556206
 10
-974.99999999975898
 20
-1381.238592443794
 10
975.00000000024124
 20
-1381.238592443794
 10
975.00000000024124
 20
1418.761407556206
  0
LINE
  5
14D
100
AcDbEntity
  8
template
370
               5
390
0
  6
Continuous
 62
               7
100
AcDbLine
 10
974.99999999975876
 20
-1126.238592443794
 30
0.0
 11
-975.00000000024102
 21
-1126.238592443794
 31
0.0
  0
LINE
  5
14E
100
AcDbEntity
  8
template
370
               5
390
0
  6
Continuous
 62
               7
100
AcDbLine
 10
975.00000000024124
 20
-1296.238592443794
 30
0.0
 11
222.00000000024124
 21
-1296.238592443794
 31
0.0
  0
MTEXT
  5
14F
100
AcDbEntity
  8
template
390
0
 62
               7
100
AcDbMText
 10
-914.99999999975898
 20
-1248.2359752562938
 30
0.0
 40
24.432617187500004
 41
0.0
 71
               1
 72
               1
  1
壁掛け,カウンタ ートップ/オーバーフローなし/壁取付ボルト付属/陶器/\Pホワイト
  7
ＭＳ ゴシック
 73
               1
 44
1.1307497332816883
  0
MTEXT
  5
150
100
AcDbEntity
  8
template
390
0
 62
               7
100
AcDbMText
 10
-974.99999999955617
 20
-1393.0924145006511
 30
0.0
 40
21.717881944444446
 41
0.0
 71
               1
 72
               1
  1
120322SH
  7
ＭＳ ゴシック
 73
               1
 44
0.7828267384257843
  0
MTEXT
  5
151
100
AcDbEntity
  8
template
390
0
 62
               7
100
AcDbMText
 10
251.87140625250095
 20
-1326.1489869171014
 30
0.0
 40
24.432617187500004
 41
0.0
 71
               1
 72
               1
  1
大洋金物株式会社 ティーフォルム事業部
  7
ＭＳ ゴシック
 73
               1
 44
0.7828267384257843
  0
INSERT
  5
152
100
AcDbEntity
  8
template
390
0
 62
               7
100
AcDbBlockReference
  2
グループ
 10
2100.0
 20
1485.0
 30
0.0
  0
MTEXT
  5
153
100
AcDbEntity
  8
template
390
0
 62
               7
100
AcDbMText
 10
784.00000000049999
 20
-1248.2359752562938
 30
0.0
 40
24.432617187500004
 41
0.0
 71
               1
 72
               1
  1
1:10
  7
ＭＳ ゴシック
 73
               1
 44
0.7828267384257843
  0
MTEXT
  5
154
100
AcDbEntity
  8
template
390
0
 62
               7
100
AcDbMText
 10
731.00000000049999
 20
-1219.6535143187939
 30
0.0
 40
16.288411458333332
 41
0.0
 71
               1
 72
               1
  1
縮尺
  7
ＭＳ ゴシック
 73
               1
 44
0.7828267384257843
  0
LINE
  5
155
100
AcDbEntity
  8
template
370
               5
390
0
  6
Continuous
 62
               7
100
AcDbLine
 10
724.00000000049999
 20
-1296.238592443794
 30
0.0
 11
724.00000000049999
 21
-1211.238592443794
 31
0.0
  0
MTEXT
  5
156
100
AcDbEntity
  8
template
390
0
 62
               7
100
AcDbMText
 10
480.00000000049999
 20
-1219.6535143187939
 30
0.0
 40
16.288411458333332
 41
0.0
 71
               1
 72
               1
  1
容量
  7
ＭＳ ゴシック
 73
               1
 44
0.7828267384257843
  0
MTEXT
  5
157
100
AcDbEntity
  8
template
390
0
 62
               7
100
AcDbMText
 10
533.00000000049999
 20
-1248.2359752562938
 30
0.0
 40
24.432617187500004
 41
0.0
 71
               1
 72
               1
  1
31L
  7
ＭＳ ゴシック
 73
               1
 44
0.7828267384257843
  0
LINE
  5
158
100
AcDbEntity
  8
template
370
               5
390
0
  6
Continuous
 62
               7
100
AcDbLine
 10
473.00000000049999
 20
-1296.238592443794
 30
0.0
 11
473.00000000049999
 21
-1211.238592443794
 31
0.0
  0
MTEXT
  5
159
100
AcDbEntity
  8
template
390
0
 62
               7
100
AcDbMText
 10
229.00000000049999
 20
-1134.6535143187939
 30
0.0
 40
16.288411458333332
 41
0.0
 71
               1
 72
               1
  1
品番
  7
ＭＳ ゴシック
 73
               1
 44
0.7828267384257843
  0
MTEXT
  5
15A
100
AcDbEntity
  8
template
390
0
 62
               7
100
AcDbMText
 10
229.00000000049999
 20
-1219.6535143187939
 30
0.0
 40
16.288411458333332
 41
0.0
 71
               1
 72
               1
  1
重量
  7
ＭＳ ゴシック
 73
               1
 44
0.7828267384257843
  0
MTEXT
  5
15B
100
AcDbEntity
  8
template
390
0
 62
               7
100
AcDbMText
 10
282.00000000049999
 20
-1163.2359752562938
 30
0.0
 40
24.432617187500004
 41
0.0
 71
               1
 72
               1
  1
AAA70-0701
  7
ＭＳ ゴシック
 73
               1
 44
0.7828267384257843
  0
MTEXT
  5
15C
100
AcDbEntity
  8
template
390
0
 62
               7
100
AcDbMText
 10
282.00000000049999
 20
-1248.2359752562938
 30
0.0
 40
24.432617187500004
 41
0.0
 71
               1
 72
               1
  1
26.5kg
  7
ＭＳ ゴシック
 73
               1
 44
0.7828267384257843
  0
LINE
  5
15D
100
AcDbEntity
  8
template
370
               5
390
0
  6
Continuous
 62
               7
100
AcDbLine
 10
222.00000000049999
 20
-1381.238592443794
 30
0.0
 11
222.00000000049999
 21
-1126.238592443794
 31
0.0
  0
CIRCLE
  5
15E
100
AcDbEntity
  8
template
370
               5
390
0
  6
STYLE_12
 62
               7
100
AcDbCircle
 10
519.97626708137432
 20
-541.88574420139184
 30
0.0
 40
11.547005383792529
  0
DIMENSION
  5
15F
100
AcDbEntity
  8
notes
370
               5
390
0
  6
Continuous
 62
               7
100
AcDbDimension
  2
*D3
 10
-434.97781731852047
 20
782.20336324109644
 30
0.0
 11
-206.47687322320189
 21
898.21787782321633
 31
0.0
 70
               3
 71
               5
 72
               1
 41
1.0
 42
0.0
  3
tfrom線あり
100
AcDbDiametricDimension
 15
-344.37592912788432
 25
844.58363140573135
 35
0.0
 40
94.577456614207634
1001
ACAD
1000
DSTYLE
1002
{
1070
             271
1070
               0
1070
             289
1070
               0
1070
             342
1005
4A
1070
             340
1005
36
1070
              73
1070
               1
1070
              74
1070
               1
1070
               3
1000

1070
             174
1070
               0
1070
             147
1040
5.0
1002
}
  0
DIMENSION
  5
160
100
AcDbEntity
  8
notes
370
               5
390
0
  6
Continuous
 62
               7
100
AcDbDimension
  2
*D4
 10
-669.67687322320262
 20
473.25
 30
0.0
 11
-545.0
 21
478.24999999999989
 31
0.0
 70
             128
 71
               5
 72
               1
 41
1.0
 42
0.0
  3
tfrom線あり
100
AcDbAlignedDimension
 13
-389.67687322320216
 23
813.39349732341418
 33
0.0
 14
-669.67687322320216
 24
813.39349732341464
 34
0.0
100
AcDbRotatedDimension
1001
ACAD
1000
DSTYLE
1002
{
1070
             271
1070
               0
1070
             279
1070
               2
1070
             340
1005
36
1070
             147
1040
5.0
1002
}
  0
DIMENSION
  5
161
100
AcDbEntity
  8
notes
370
               5
390
0
  6
Continuous
 62
               7
100
AcDbDimension
  2
*D5
 10
-769.67687322320216
 20
-652.88574420139275
 30
0.0
 11
-769.67687322320216
 21
-377.88574420139344
 31
0.0
 71
               5
 72
               1
 41
1.0
 42
0.0
  3
tfrom線あり
100
AcDbAlignedDimension
 13
-669.67687322320216
 23
-102.88574420139412
 33
0.0
 14
-669.67687322320216
 24
-652.88574420139275
 34
0.0
 50
90.0
100
AcDbRotatedDimension
1001
ACAD
1000
DSTYLE
1002
{
1070
             271
1070
               0
1070
             279
1070
               2
1070
             340
1005
36
1070
             147
1040
5.0
1002
}
  0
DIMENSION
  5
162
100
AcDbEntity
  8
notes
370
               5
390
0
  6
Continuous
 62
               7
100
AcDbDimension
  2
*D6
 10
-669.67687322320216
 20
152.11425579860588
 30
0.0
 11
-379.67517422512128
 21
152.11425579860588
 31
0.0
 71
               5
 72
               1
 41
1.0
 42
0.0
  3
tfrom線あり
100
AcDbAlignedDimension
 13
-89.673475227040399
 23
-327.88574420140139
 33
0.0
 14
-669.67687322320216
 24
-102.88574420139412
 34
0.0
100
AcDbRotatedDimension
1001
ACAD
1000
DSTYLE
1002
{
1070
             271
1070
               0
1070
             279
1070
               2
1070
             340
1005
36
1070
             147
1040
5.0
1002
}
  0
DIMENSION
  5
163
100
AcDbEntity
  8
notes
370
               5
390
0
  6
Continuous
 62
               7
100
AcDbDimension
  2
*D7
 10
-819.67687322320216
 20
-807.88574420139275
 30
0.0
 11
-819.67687322320216
 21
-377.88574420139344
 31
0.0
 71
               5
 72
               1
 41
1.0
 42
0.0
  3
tfrom線あり
100
AcDbAlignedDimension
 13
-399.67687322320171
 23
52.114255798605882
 33
0.0
 14
-399.67687322320262
 24
-807.88574420139275
 34
0.0
 50
90.0
100
AcDbRotatedDimension
1001
ACAD
1000
DSTYLE
1002
{
1070
             271
1070
               0
1070
             279
1070
               2
1070
             340
1005
36
1070
             147
1040
5.0
1002
}
  0
DIMENSION
  5
164
100
AcDbEntity
  8
notes
370
               5
390
0
  6
Continuous
 62
               7
100
AcDbDimension
  2
*D8
 10
714.97626708137432
 20
-653.49999999999318
 30
0.0
 11
714.97626708137432
 21
-378.49999999999454
 31
0.0
 71
               5
 72
               1
 41
1.0
 42
0.0
  3
tfrom線あり
100
AcDbAlignedDimension
 13
608.97626708137432
 23
-103.49999999999591
 33
0.0
 14
608.97626708137432
 24
-653.49999999999318
 34
0.0
 50
90.0
100
AcDbRotatedDimension
1001
ACAD
1000
DSTYLE
1002
{
1070
             271
1070
               0
1070
             279
1070
               2
1070
             340
1005
36
1070
             147
1040
5.0
1002
}
  0
DIMENSION
  5
165
100
AcDbEntity
  8
notes
370
               5
390
0
  6
Continuous
 62
               7
100
AcDbDimension
  2
*D9
 10
429.97626708137341
 20
152.11425579860588
 30
0.0
 11
519.97626708137341
 21
152.11425579860588
 31
0.0
 71
               5
 72
               1
 41
1.0
 42
0.0
  3
tfrom線あり
100
AcDbAlignedDimension
 13
609.97626708137341
 23
-345.0
 33
0.0
 14
429.97626708137341
 24
50.500000000004093
 34
0.0
100
AcDbRotatedDimension
1001
ACAD
1000
DSTYLE
1002
{
1070
             271
1070
               0
1070
             279
1070
               2
1070
             340
1005
36
1070
             147
1040
5.0
1002
}
  0
DIMENSION
  5
166
100
AcDbEntity
  8
notes
370
               5
390
0
  6
Continuous
 62
               7
100
AcDbDimension
  2
*D10
 10
329.97626708137341
 20
-212.88574420139207
 30
0.0
 11
329.97626708137341
 21
-377.88574420139184
 31
0.0
 71
               5
 72
               1
 41
1.0
 42
0.0
  3
tfrom線あり
100
AcDbAlignedDimension
 13
499.97626708137432
 23
-542.88574420139184
 33
0.0
 14
499.97626708137432
 24
-212.88574420139207
 34
0.0
 50
90.0
100
AcDbRotatedDimension
1001
ACAD
1000
DSTYLE
1002
{
1070
             279
1070
               2
1070
             340
1005
36
1070
             147
1040
5.0
1002
}
  0
DIMENSION
  5
167
100
AcDbEntity
  8
notes
370
               5
390
0
  6
Continuous
 62
               7
100
AcDbDimension
  2
*D11
 10
519.97626708137432
 20
-907.88574420139275
 30
0.0
 11
474.97626708137432
 21
-907.88574420139275
 31
0.0
 71
               5
 72
               1
 41
1.0
 42
0.0
  3
tfrom線あり
100
AcDbAlignedDimension
 13
429.97626708137432
 23
-807.50000000000728
 33
0.0
 14
519.97626708137432
 24
-562.88574420139184
 34
0.0
100
AcDbRotatedDimension
1001
ACAD
1000
DSTYLE
1002
{
1070
             279
1070
               2
1070
             340
1005
36
1070
             147
1040
5.0
1002
}
  0
DIMENSION
  5
168
100
AcDbEntity
  8
notes
370
               5
390
0
  6
Continuous
 62
               7
100
AcDbDimension
  2
*D12
 10
-643.67577270240872
 20
-907.88574420139275
 30
0.0
 11
-374.67633343325679
 21
-907.88574420139275
 31
0.0
 71
               5
 72
               1
 41
1.0
 42
0.0
  3
tfrom線あり
100
AcDbAlignedDimension
 13
-105.67689416410485
 23
-570.72075847518636
 33
0.0
 14
-643.67577270240872
 24
-652.88574420139366
 34
0.0
100
AcDbRotatedDimension
1001
ACAD
1000
DSTYLE
1002
{
1070
             279
1070
               2
1070
             340
1005
36
1070
             147
1040
5.0
1002
}
  0
DIMENSION
  5
169
100
AcDbEntity
  8
notes
370
               5
390
0
  6
Continuous
 62
               7
100
AcDbDimension
  2
*D13
 10
10.32312677679829
 20
36.113997781999842
 30
0.0
 11
10.32312677679829
 21
-377.88574420138957
 31
0.0
 71
               5
 72
               1
 41
1.0
 42
0.0
  3
tfrom線あり
100
AcDbAlignedDimension
 13
-239.2894148608998
 23
-791.88548618477898
 33
0.0
 14
-240.47139778252949
 24
36.113997781999842
 34
0.0
 50
90.0
100
AcDbRotatedDimension
1001
ACAD
1000
DSTYLE
1002
{
1070
             279
1070
               2
1070
             340
1005
36
1070
             147
1040
5.0
1002
}
  0
DIMENSION
  5
16A
100
AcDbEntity
  8
notes
370
               5
390
0
  6
Continuous
 62
               7
100
AcDbDimension
  2
*D14
 10
-105.67689416410485
 20
-908.0
 30
0.0
 11
-74.0
 21
-903.0
 31
0.0
 70
             128
 71
               5
 72
               1
 41
1.0
 42
0.0
  3
tfrom線あり
100
AcDbAlignedDimension
 13
-89.676894164104851
 23
-464.0
 33
0.0
 14
-105.67689416410485
 24
-652.8571766237078
 34
0.0
100
AcDbRotatedDimension
1001
ACAD
1000
DSTYLE
1002
{
1070
             279
1070
               2
1070
             340
1005
36
1070
             174
1070
               0
1070
             147
1040
5.0
1002
}
  0
MTEXT
  5
16B
100
AcDbEntity
  8
notes
390
0
 62
               7
100
AcDbMText
 10
337.71466323513141
 20
-142.79916375251446
 30
0.0
 40
27.147352430555557
 41
0.0
 71
               1
 72
               1
  1
壁取付ボルト位置(２ヶ所)
  7
ＭＳ ゴシック
 11
0.0
 21
1.0
 31
0.0
 73
               1
 44
0.7828267384257843
  0
LINE
  5
16C
100
AcDbEntity
  8
notes
370
               5
390
0
  6
Continuous
 62
               7
100
AcDbLine
 10
519.97626708137432
 20
-212.88574420139207
 30
0.0
 11
380.70774469511161
 21
-146.07612787614426
 31
0.0
  0
DIMENSION
  5
16D
100
AcDbEntity
  8
notes
370
               5
390
0
  6
Continuous
 62
               7
100
AcDbDimension
  2
*D15
 10
714.97626708137432
 20
1092.779241524815
 30
0.0
 11
714.97626708137432
 21
952.77924152481432
 31
0.0
 71
               5
 72
               1
 41
1.0
 42
0.0
  3
tfrom線あり
100
AcDbAlignedDimension
 13
614.97626708137432
 23
812.77924152481364
 33
0.0
 14
614.97626708137432
 24
1092.779241524815
 34
0.0
 50
90.0
100
AcDbRotatedDimension
1001
ACAD
1000
DSTYLE
1002
{
1070
             271
1070
               0
1070
             279
1070
               2
1070
             340
1005
36
1070
             147
1040
5.0
1002
}
  0
DIMENSION
  5
16E
100
AcDbEntity
  8
notes
370
               5
390
0
  6
Continuous
 62
               7
100
AcDbDimension
  2
*D16
 10
764.97626708137432
 20
1092.779241524815
 30
0.0
 11
764.97626708137432
 21
912.77924152481501
 31
0.0
 71
               5
 72
               1
 41
1.0
 42
0.0
  3
tfrom線あり
100
AcDbAlignedDimension
 13
601.33038841819507
 23
732.77924152481501
 33
0.0
 14
609.97626708137386
 24
1092.779241524815
 34
0.0
 50
90.0
100
AcDbRotatedDimension
1001
ACAD
1000
DSTYLE
1002
{
1070
             271
1070
               0
1070
             279
1070
               2
1070
             340
1005
36
1070
             147
1040
5.0
1002
}
  0
DIMENSION
  5
16F
100
AcDbEntity
  8
notes
370
               5
390
0
  6
Continuous
 62
               7
100
AcDbDimension
  2
*D17
 10
549.97626708137295
 20
811.57614954430892
 30
0.0
 11
371.52312677679811
 21
816.57614954430892
 31
0.0
 70
             128
 71
               5
 72
               1
 41
1.0
 42
0.0
  3
tfrom線あり
100
AcDbAlignedDimension
 13
429.97626708137295
 23
797.8100782338397
 33
0.0
 14
549.97626708137295
 24
812.57614954430892
 34
0.0
100
AcDbRotatedDimension
1001
ACAD
1000
DSTYLE
1002
{
1070
             271
1070
               0
1070
             279
1070
               2
1070
             340
1005
36
1070
               3
1000
<>(深さ)
1070
             174
1070
               0
1070
             147
1040
5.0
1002
}
  0
MTEXT
  5
170
100
AcDbEntity
  8
notes
390
0
 62
               7
100
AcDbMText
 10
-892.12712917938416
 20
676.83653289743233
 30
0.0
 40
27.147352430555557
 41
0.0
 71
               1
 72
               1
  1
カウンター切込寸法
  7
ＭＳ ゴシック
 11
0.0
 21
1.0
 31
0.0
 73
               1
 44
0.7828267384257843
  0
LINE
  5
171
100
AcDbEntity
  8
AAA70-0701
370
              15
390
0
  6
Continuous
 62
               7
100
AcDbLine
 10
550.83424664902668
 20
851.73385012468771
 30
0.0
 11
563.29862546694631
 21
836.22862181000892
 31
0.0
  0
ARC
  5
172
100
AcDbEntity
  8
AAA70-0701
370
              15
390
0
  6
Continuous
 62
               7
100
AcDbCircle
 10
565.00044749491417
 20
837.27924152480773
 30
0.0
 40
2.0000000000001483
100
AcDbArc
 50
211.68910504311643
 51
270.0
  0
LINE
  5
173
100
AcDbEntity
  8
AAA70-0701
370
              15
390
0
  6
Continuous
 62
               7
100
AcDbLine
 10
565.00044749491417
 20
835.27924152480864
 30
0.0
 11
609.97626708137432
 21
835.27924152480864
 31
0.0
  0
LINE
  5
174
100
AcDbEntity
  8
AAA70-0701
370
              15
390
0
  6
Continuous
 62
               7
100
AcDbLine
 10
609.97626708137432
 20
847.27924152480864
 30
0.0
 11
599.81921805574484
 21
847.27924152480864
 31
0.0
  0
LINE
  5
175
100
AcDbEntity
  8
AAA70-0701
370
              15
390
0
  6
Continuous
 62
               7
100
AcDbLine
 10
573.78121224288043
 20
847.27924152480864
 30
0.0
 11
571.74770147039999
 21
847.27924152480864
 31
0.0
  0
LINE
  5
176
100
AcDbEntity
  8
AAA70-0701
370
              15
390
0
  6
Continuous
 62
               7
100
AcDbLine
 10
550.85870144130968
 20
773.85505378611788
 30
0.0
 11
563.29862546694631
 21
789.32986123961882
 31
0.0
  0
ARC
  5
177
100
AcDbEntity
  8
AAA70-0701
370
              15
390
0
  6
Continuous
 62
               7
100
AcDbCircle
 10
565.00044749491417
 20
788.27924152481864
 30
0.0
 40
2.0
100
AcDbArc
 50
90.0
 51
148.31089495688357
  0
LINE
  5
178
100
AcDbEntity
  8
AAA70-0701
370
              15
390
0
  6
Continuous
 62
               7
100
AcDbLine
 10
565.00044749491417
 20
790.27924152481864
 30
0.0
 11
609.97626708137432
 21
790.27924152481864
 31
0.0
  0
LINE
  5
179
100
AcDbEntity
  8
AAA70-0701
370
              15
390
0
  6
Continuous
 62
               7
100
AcDbLine
 10
609.97626708137386
 20
778.27924152481864
 30
0.0
 11
571.48793869816518
 21
778.27924152481864
 31
0.0
  0
LINE
  5
17A
100
AcDbEntity
  8
AAA70-0701
370
              15
390
0
  6
Continuous
 62
               7
100
AcDbLine
 10
-669.67687322320216
 20
-102.88574420139594
 30
0.0
 11
-669.67687322320216
 21
-652.88574420139275
 31
0.0
  0
LINE
  5
17B
100
AcDbEntity
  8
AAA70-0701
370
              15
390
0
  6
STYLE_12
 62
               7
100
AcDbLine
 10
-309.67687322320171
 20
-212.88574420139798
 30
0.0
 11
-309.67687322320307
 21
-542.88574420139184
 31
0.0
  0
ARC
  5
17C
100
AcDbEntity
  8
AAA70-0701
370
              15
390
0
  6
STYLE_12
 62
               7
100
AcDbCircle
 10
-419.67687322320171
 20
-542.88574420139184
 30
0.0
 40
110.0
100
AcDbArc
 50
270.0
 51
0.0
  0
ARC
  5
17D
100
AcDbEntity
  8
AAA70-0701
370
              15
390
0
  6
STYLE_12
 62
               7
100
AcDbCircle
 10
-419.67687322320171
 20
-212.88574420139798
 30
0.0
 40
110.0
100
AcDbArc
 50
0.0
 51
90.0
  0
LINE
  5
17E
100
AcDbEntity
  8
AAA70-0701
370
              15
390
0
  6
Continuous
 62
               7
100
AcDbLine
 10
-669.67687322320216
 20
-652.88574420139366
 30
0.0
 11
-618.99193421940981
 21
-652.88574420139366
 31
0.0
  0
LINE
  5
17F
100
AcDbEntity
  8
AAA70-0701
370
              15
390
0
  6
Continuous
 62
               7
100
AcDbLine
 10
-669.67687322320216
 20
-102.88574420139412
 30
0.0
 11
-618.9919342188341
 21
-102.88574420139412
 31
0.0
  0
LWPOLYLINE
  5
180
100
AcDbEntity
  8
AAA70-0701
370
              15
390
0
  6
Continuous
 62
               7
100
AcDbPolyline
 90
       14
 70
             129
 10
-374.67687322320171
 20
-807.88574420139275
 42
0.0599937364416775
 10
-242.94186158365301
 20
-792.76954932547915
 42
0.2037614277556383
 10
-152.36381672305106
 20
-710.51401891972046
 42
0.0771060327377875
 10
-92.914716203466924
 20
-477.88574420140753
 42
0.0323784298029966
 10
-92.914716203603348
 20
-277.88574420140208
 42
0.0771060327376218
 10
-152.36381672304469
 20
-45.257469484944977
 42
0.2037614277556641
 10
-242.94186158367893
 20
36.998060922700915
 42
0.059993736427602
 10
-374.67687322320126
 20
52.114255798605882
 42
0.0599937364276
 10
-506.41188486272586
 20
36.998060922700915
 42
0.2037614277556621
 10
-596.98992972336055
 20
-45.257469484944977
 42
0.0771060327376219
 10
-656.43903024280189
 20
-277.88574420140208
 42
0.0323784298036719
 10
-656.4390302429365
 20
-477.88574420140753
 42
0.0771060327377845
 10
-596.98992972335373
 20
-710.51401891972091
 42
0.2037614277556326
 10
-506.41188486275314
 20
-792.76954932547869
 42
0.0599937364416787
  0
LWPOLYLINE
  5
181
100
AcDbEntity
  8
AAA70-0701
370
              15
390
0
  6
Continuous
 62
               7
100
AcDbPolyline
 90
       14
 70
             129
 10
-374.67687322345091
 20
-791.88548618477898
 42
0.0596506069988559
 10
-247.4568926192992
 20
-777.39693856452777
 42
0.2018910577518196
 10
-166.98707262022617
 20
-704.01697609554367
 42
0.0769500718141148
 10
-108.86485010787328
 20
-476.59812173009936
 42
0.0322956144357619
 10
-108.86485010800607
 20
-279.17336667270206
 42
0.076950071813786
 10
-166.98707262003563
 20
-51.754512309550819
 42
0.201891057752782
 10
-247.45689261935513
 20
21.625450161732942
 42
0.0596506069840896
 10
-374.67687322271377
 20
36.113997781999842
 42
0.0596506069845004
 10
-501.89685382695689
 20
21.625450161754543
 42
0.2018910577521681
 10
-582.36667382620453
 20
-51.754512309158144
 42
0.0769500718139274
 10
-640.48889633839553
 20
-279.1733666727057
 42
0.0322956144364471
 10
-640.4888963385356
 20
-476.59812173006549
 42
0.0769500718141505
 10
-582.36667382615224
 20
-704.01697609560915
 42
0.2018910577518893
 10
-501.89685382700009
 20
-777.39693856454915
 42
0.0596506069985706
  0
CIRCLE
  5
182
100
AcDbEntity
  8
AAA70-0701
370
              15
390
0
  6
Continuous
 62
               7
100
AcDbCircle
 10
-389.67687322320216
 20
-377.88574420139389
 30
0.0
 40
22.5
  0
CIRCLE
  5
183
100
AcDbEntity
  8
AAA70-0701
370
              15
390
0
  6
Continuous
 62
               7
100
AcDbCircle
 10
-389.67687322320216
 20
-377.88574420139298
 30
0.0
 40
35.0
  0
LINE
  5
184
100
AcDbEntity
  8
AAA70-0701
370
              15
390
0
  6
STYLE_12
 62
               7
100
AcDbLine
 10
-618.9919342188341
 20
-102.88574420139503
 30
0.0
 11
-419.67687322320171
 21
-102.88574420139798
 31
0.0
  0
LINE
  5
185
100
AcDbEntity
  8
AAA70-0701
370
              15
390
0
  6
STYLE_12
 62
               7
100
AcDbLine
 10
-618.99193421940981
 20
-652.88574420139275
 30
0.0
 11
-419.67687322320171
 21
-652.88574420139184
 31
0.0
  0
LINE
  5
186
100
AcDbEntity
  8
AAA70-0701
370
              15
390
0
  6
Continuous
 62
               7
100
AcDbLine
 10
609.97626708137432
 20
-104.49999999999591
 30
0.0
 11
609.97626708137432
 21
-652.49999999999318
 31
0.0
  0
LINE
  5
187
100
AcDbEntity
  8
AAA70-0701
370
              15
390
0
  6
Continuous
 62
               7
100
AcDbLine
 10
584.97626708137432
 20
-98.237276183582253
 30
0.0
 11
584.97626708137432
 21
-658.7627238163991
 31
0.0
  0
LINE
  5
188
100
AcDbEntity
  8
AAA70-0701
370
              15
390
0
  6
Continuous
 62
               7
100
AcDbLine
 10
429.97626708137341
 20
50.500000000004093
 30
0.0
 11
429.97626708137432
 21
-807.50000000000728
 31
0.0
  0
LINE
  5
189
100
AcDbEntity
  8
AAA70-0701
370
              15
390
0
  6
Continuous
 62
               7
100
AcDbLine
 10
592.49340211373419
 20
-653.49999999999318
 30
0.0
 11
608.97626708137432
 21
-653.49999999999318
 31
0.0
  0
LINE
  5
18A
100
AcDbEntity
  8
AAA70-0701
370
              15
390
0
  6
Continuous
 62
               7
100
AcDbLine
 10
592.49340211373692
 20
-103.49999999999591
 30
0.0
 11
608.97626708137432
 21
-103.49999999999591
 31
0.0
  0
ARC
  5
18B
100
AcDbEntity
  8
AAA70-0701
370
              15
390
0
  6
Continuous
 62
               7
100
AcDbCircle
 10
424.5289957327891
 20
-648.13494349996608
 30
0.0
 40
160.49541782870023
100
AcDbArc
 50
272.31626160771003
 51
355.46556346147793
  0
ARC
  5
18C
100
AcDbEntity
  8
AAA70-0701
370
              15
390
0
  6
Continuous
 62
               7
100
AcDbCircle
 10
424.5289957328032
 20
-108.86505650002528
 30
0.0
 40
160.49541782868675
100
AcDbArc
 50
4.5344365385231722
 51
87.683738392294686
  0
ARC
  5
18D
100
AcDbEntity
  8
AAA70-0701
370
              15
390
0
  6
Continuous
 62
               7
100
AcDbCircle
 10
430.97626708137341
 20
50.500000000002728
 30
0.0
 40
0.9999999999999933
100
AcDbArc
 50
87.752736607900204
 51
179.99999999997399
  0
ARC
  5
18E
100
AcDbEntity
  8
AAA70-0701
370
              15
390
0
  6
Continuous
 62
               7
100
AcDbCircle
 10
430.97626708137432
 20
-807.50000000000728
 30
0.0
 40
1.0
100
AcDbArc
 50
180.0
 51
272.2472633920998
  0
ARC
  5
18F
100
AcDbEntity
  8
AAA70-0701
370
              15
390
0
  6
Continuous
 62
               7
100
AcDbCircle
 10
608.97626708137432
 20
-104.49999999999591
 30
0.0
 40
1.0
100
AcDbArc
 50
0.0
 51
90.0
  0
ARC
  5
190
100
AcDbEntity
  8
AAA70-0701
370
              15
390
0
  6
Continuous
 62
               7
100
AcDbCircle
 10
608.97626708137432
 20
-652.49999999999318
 30
0.0
 40
1.0
100
AcDbArc
 50
270.0
 51
0.0
  0
ARC
  5
191
100
AcDbEntity
  8
AAA70-0701
370
              15
390
0
  6
Continuous
 62
               7
100
AcDbCircle
 10
592.49340211373692
 20
-95.499999999995907
 30
0.0
 40
7.9999999999999609
100
AcDbArc
 50
184.85135667826762
 51
270.0
  0
ARC
  5
192
100
AcDbEntity
  8
AAA70-0701
370
              15
390
0
  6
Continuous
 62
               7
100
AcDbCircle
 10
592.49340211373419
 20
-661.49999999999318
 30
0.0
 40
8.0
100
AcDbArc
 50
90.0
 51
175.14864332173568
  0
LINE
  5
193
100
AcDbEntity
  8
AAA70-0701
370
               5
390
0
  6
STYLE_12
 62
               7
100
AcDbLine
 10
-669.67687322320216
 20
1088.3934973234141
 30
0.0
 11
-669.67687322320216
 21
538.39349732341532
 31
0.0
  0
LINE
  5
194
100
AcDbEntity
  8
AAA70-0701
370
               5
390
0
  6
STYLE_12
 62
               7
100
AcDbLine
 10
-309.67687322320216
 20
978.3934973234102
 30
0.0
 11
-309.67687322320216
 21
648.393497323416
 31
0.0
  0
ARC
  5
195
100
AcDbEntity
  8
AAA70-0701
370
               5
390
0
  6
STYLE_12
 62
               7
100
AcDbCircle
 10
-419.67687322320216
 20
648.39349732341611
 30
0.0
 40
109.99999999999989
100
AcDbArc
 50
270.0
 51
0.0
  0
ARC
  5
196
100
AcDbEntity
  8
AAA70-0701
370
               5
390
0
  6
STYLE_12
 62
               7
100
AcDbCircle
 10
-419.67687322320216
 20
978.3934973234102
 30
0.0
 40
110.0
100
AcDbArc
 50
0.0
 51
90.0
  0
LWPOLYLINE
  5
197
100
AcDbEntity
  8
AAA70-0701
370
               5
390
0
  6
STYLE_12
 62
               7
100
AcDbPolyline
 90
       14
 70
             129
 10
-374.67687322320216
 20
383.39349732341543
 42
0.0599937364416777
 10
-242.94186158365346
 20
398.50969219932881
 42
0.203761427755634
 10
-152.36381672305106
 20
480.76522260508773
 42
0.0771060327377897
 10
-92.914716203467833
 20
713.39349732340054
 42
0.0323784298033362
 10
-92.914716203602438
 20
913.39349732340611
 42
0.0771060327376199
 10
-152.3638167230456
 20
1146.0217720398643
 42
0.2037614277556663
 10
-242.94186158367984
 20
1228.2773024475093
 42
0.059993736427602
 10
-374.67687322320171
 20
1243.3934973234141
 42
0.059993736427602
 10
-506.41188486272586
 20
1228.2773024475091
 42
0.2037614277556637
 10
-596.98992972336009
 20
1146.0217720398632
 42
0.0771060327376184
 10
-656.43903024280189
 20
913.39349732340611
 42
0.0323784298033354
 10
-656.43903024293695
 20
713.39349732340054
 42
0.0771060327377869
 10
-596.98992972335373
 20
480.76522260508739
 42
0.2037614277556371
 10
-506.41188486275132
 20
398.50969219932904
 42
0.0599937364416778
  0
LWPOLYLINE
  5
198
100
AcDbEntity
  8
AAA70-0701
370
               5
390
0
  6
STYLE_12
 62
               7
100
AcDbPolyline
 90
       14
 70
             129
 10
-374.67687322345137
 20
399.3937553400292
 42
0.0596506069988551
 10
-247.45689261929874
 20
413.88230296028064
 42
0.2018910577518199
 10
-166.98707262022663
 20
487.26226542926065
 42
0.0769500718141118
 10
-108.86485010787328
 20
714.68111979470871
 42
0.0322956144360972
 10
-108.86485010800607
 20
912.10587485210624
 42
0.0769500718137863
 10
-166.98707262003427
 20
1139.5247292152544
 42
0.2018910577527837
 10
-247.45689261935513
 20
1212.9046916865411
 42
0.0596506069840938
 10
-374.67687322271377
 20
1227.393239306808
 42
0.0596506069845004
 10
-501.89685382695507
 20
1212.9046916865632
 42
0.2018910577521679
 10
-582.36667382620453
 20
1139.524729215651
 42
0.0769500718139267
 10
-640.48889633839599
 20
912.10587485210249
 42
0.0322956144360911
 10
-640.48889633853605
 20
714.68111979473963
 42
0.0769500718141464
 10
-582.36667382615133
 20
487.26226542919881
 42
0.2018910577518875
 10
-501.89685382699918
 20
413.88230296025904
 42
0.0596506069985752
  0
CIRCLE
  5
199
100
AcDbEntity
  8
AAA70-0701
370
               5
390
0
  6
STYLE_12
 62
               7
100
AcDbCircle
 10
-389.67687322320216
 20
813.39349732341429
 30
0.0
 40
22.5
  0
CIRCLE
  5
19A
100
AcDbEntity
  8
AAA70-0701
370
               5
390
0
  6
STYLE_12
 62
               7
100
AcDbCircle
 10
-389.67687322320216
 20
813.3934973234152
 30
0.0
 40
35.0
  0
LINE
  5
19B
100
AcDbEntity
  8
AAA70-0701
370
               5
390
0
  6
STYLE_12
 62
               7
100
AcDbLine
 10
-669.67687322320216
 20
1088.3934973234141
 30
0.0
 11
-419.67687322320216
 21
1088.3934973234102
 31
0.0
  0
LINE
  5
19C
100
AcDbEntity
  8
AAA70-0701
370
               5
390
0
  6
STYLE_12
 62
               7
100
AcDbLine
 10
-669.67687322320216
 20
538.39349732341532
 30
0.0
 11
-419.67687322320216
 21
538.39349732341623
 31
0.0
  0
CIRCLE
  5
19D
100
AcDbEntity
  8
AAA70-0701
370
              15
390
0
  6
Continuous
 62
               7
100
AcDbCircle
 10
-389.67687322320216
 20
812.5
 30
0.0
 40
55.0
  0
LINE
  5
19E
100
AcDbEntity
  8
AAA70-0701
370
              15
390
0
  6
Continuous
 62
               7
100
AcDbLine
 10
609.97626708137432
 20
733.77924152481501
 30
0.0
 11
609.97626708137432
 21
741.77924152481501
 31
0.0
  0
ARC
  5
19F
100
AcDbEntity
  8
AAA70-0701
370
              15
390
0
  6
Continuous
 62
               7
100
AcDbCircle
 10
608.97626708137432
 20
741.77924152481501
 30
0.0
 40
1.0
100
AcDbArc
 50
0.0
 51
90.0
  0
LINE
  5
1A0
100
AcDbEntity
  8
AAA70-0701
370
              15
390
0
  6
Continuous
 62
               7
100
AcDbLine
 10
609.97626708137432
 20
772.27924152481364
 30
0.0
 11
609.97626708137432
 21
1091.779241524815
 31
0.0
  0
LINE
  5
1A1
100
AcDbEntity
  8
AAA70-0701
370
              15
390
0
  6
Continuous
 62
               7
100
AcDbLine
 10
599.97626708137386
 20
1078.779241524815
 30
0.0
 11
599.97626708137432
 21
1090.7792415248136
 31
0.0
  0
ARC
  5
1A2
100
AcDbEntity
  8
AAA70-0701
370
              15
390
0
  6
Continuous
 62
               7
100
AcDbCircle
 10
597.97626708137386
 20
1078.779241524815
 30
0.0
 40
2.0
100
AcDbArc
 50
270.0
 51
0.0
  0
ARC
  5
1A3
100
AcDbEntity
  8
AAA70-0701
370
              15
390
0
  6
Continuous
 62
               7
100
AcDbCircle
 10
608.97626708137432
 20
733.77924152481501
 30
0.0
 40
1.0
100
AcDbArc
 50
270.0
 51
0.0
  0
ARC
  5
1A4
100
AcDbEntity
  8
AAA70-0701
370
              15
390
0
  6
Continuous
 62
               7
100
AcDbCircle
 10
608.97626708137432
 20
1091.779241524815
 30
0.0
 40
1.0
100
AcDbArc
 50
0.0
 51
90.0
  0
LINE
  5
1A5
100
AcDbEntity
  8
AAA70-0701
370
              15
390
0
  6
Continuous
 62
               7
100
AcDbLine
 10
597.97626708137432
 20
1092.779241524815
 30
0.0
 11
529.97626708137432
 21
1092.779241524815
 31
0.0
  0
ARC
  5
1A6
100
AcDbEntity
  8
AAA70-0701
370
              15
390
0
  6
Continuous
 62
               7
100
AcDbCircle
 10
597.97626708137432
 20
1090.7792415248136
 30
0.0
 40
2.0
100
AcDbArc
 50
0.0
 51
90.0
  0
LINE
  5
1A7
100
AcDbEntity
  8
AAA70-0701
370
              15
390
0
  6
Continuous
 62
               7
100
AcDbLine
 10
597.97626708137386
 20
1076.779241524815
 30
0.0
 11
529.97626708137386
 21
1076.779241524815
 31
0.0
  0
LINE
  5
1A8
100
AcDbEntity
  8
AAA70-0701
370
              15
390
0
  6
Continuous
 62
               7
100
AcDbLine
 10
509.97626708137341
 20
1076.779241524815
 30
0.0
 11
504.31794178031123
 21
1076.779241524815
 31
0.0
  0
ARC
  5
1A9
100
AcDbEntity
  8
AAA70-0701
370
              15
390
0
  6
Continuous
 62
               7
100
AcDbCircle
 10
490.97626708137386
 20
1091.7792415248159
 30
0.0
 40
1.0
100
AcDbArc
 50
90.0
 51
180.0
  0
LINE
  5
1AA
100
AcDbEntity
  8
AAA70-0701
370
              15
390
0
  6
Continuous
 62
               7
100
AcDbLine
 10
481.97626708137386
 20
1082.779241524815
 30
0.0
 11
430.9762670813725
 21
1082.779241524815
 31
0.0
  0
LINE
  5
1AB
100
AcDbEntity
  8
AAA70-0701
370
              15
390
0
  6
Continuous
 62
               7
100
AcDbLine
 10
478.38394855339175
 20
1066.7792415248159
 30
0.0
 11
456.49844847587656
 21
1066.7792415248159
 31
0.0
  0
LINE
  5
1AC
100
AcDbEntity
  8
AAA70-0701
370
              15
390
0
  6
Continuous
 62
               7
100
AcDbLine
 10
429.9762670813725
 20
1081.779241524815
 30
0.0
 11
429.97626708137295
 21
1067.37543732217
 31
0.0
  0
LINE
  5
1AD
100
AcDbEntity
  8
AAA70-0701
370
              15
390
0
  6
Continuous
 62
               7
100
AcDbLine
 10
429.97626708137341
 20
528.24471914550986
 30
0.0
 11
429.97626708137341
 21
513.77924152484502
 31
0.0
  0
LINE
  5
1AE
100
AcDbEntity
  8
AAA70-0701
370
              15
390
0
  6
Continuous
 62
               7
100
AcDbLine
 10
489.97626708137341
 20
1091.7792415248159
 30
0.0
 11
489.97626708137386
 21
1090.779241524815
 31
0.0
  0
ARC
  5
1AF
100
AcDbEntity
  8
AAA70-0701
370
              15
390
0
  6
Continuous
 62
               7
100
AcDbCircle
 10
481.97626708137386
 20
1090.779241524815
 30
0.0
 40
8.0
100
AcDbArc
 50
270.0
 51
0.0
  0
LINE
  5
1B0
100
AcDbEntity
  8
AAA70-0701
370
              15
390
0
  6
Continuous
 62
               7
100
AcDbLine
 10
593.68450975501537
 20
732.77924152481501
 30
0.0
 11
608.97626708137432
 21
732.77924152481501
 31
0.0
  0
LINE
  5
1B1
100
AcDbEntity
  8
AAA70-0701
370
              15
390
0
  6
Continuous
 62
               7
100
AcDbLine
 10
569.87573734143461
 20
742.77924152481501
 30
0.0
 11
608.97626708137432
 21
742.77924152481501
 31
0.0
  0
LINE
  5
1B2
100
AcDbEntity
  8
AAA70-0701
370
              15
390
0
  6
Continuous
 62
               7
100
AcDbLine
 10
556.85532810888435
 20
732.77924152481501
 30
0.0
 11
571.84721871264901
 21
732.77924152481501
 31
0.0
  0
ARC
  5
1B3
100
AcDbEntity
  8
AAA70-0701
370
              15
390
0
  6
Continuous
 62
               7
100
AcDbCircle
 10
344.96205474565522
 20
737.90999243704164
 30
0.0
 40
241.06881829205838
100
AcDbArc
 50
290.99479444273175
 51
356.97800170366554
  0
ARC
  5
1B4
100
AcDbEntity
  8
AAA70-0701
370
              15
390
0
  6
Continuous
 62
               7
100
AcDbCircle
 10
344.96205474565522
 20
737.90999243704164
 30
0.0
 40
231.06881829205852
100
AcDbArc
 50
300.12664378939712
 51
357.69543619578769
  0
ARC
  5
1B5
100
AcDbEntity
  8
AAA70-0701
370
              15
390
0
  6
Continuous
 62
               7
100
AcDbCircle
 10
571.84721871264901
 20
728.77924152481501
 30
0.0
 40
4.0000000000000897
100
AcDbArc
 50
357.69543619578729
 51
90.0
  0
ARC
  5
1B6
100
AcDbEntity
  8
AAA70-0701
370
              15
390
0
  6
Continuous
 62
               7
100
AcDbCircle
 10
593.68450975501491
 20
724.77924152481592
 30
0.0
 40
8.0
100
AcDbArc
 50
89.999999999996746
 51
176.97800170366693
  0
ARC
  5
1B7
100
AcDbEntity
  8
AAA70-0701
370
              15
390
0
  6
Continuous
 62
               7
100
AcDbCircle
 10
430.97626708137432
 20
513.77924152484502
 30
0.0
 40
1.0
100
AcDbArc
 50
180.0
 51
290.89632342780436
  0
LINE
  5
1B8
100
AcDbEntity
  8
AAA70-0701
370
              15
390
0
  6
Continuous
 62
               7
100
AcDbLine
 10
509.97626708137341
 20
1076.779241524815
 30
0.0
 11
509.97626708137386
 21
1092.779241524815
 31
0.0
  0
LINE
  5
1B9
100
AcDbEntity
  8
AAA70-0701
370
              15
390
0
  6
Continuous
 62
               7
100
AcDbLine
 10
529.97626708137386
 20
1076.779241524815
 30
0.0
 11
529.97626708137386
 21
1092.779241524815
 31
0.0
  0
ARC
  5
1BA
100
AcDbEntity
  8
AAA70-0701
370
              15
390
0
  6
Continuous
 62
               7
100
AcDbCircle
 10
430.97626708137295
 20
1081.779241524815
 30
0.0
 40
0.9999999999997311
100
AcDbArc
 50
69.103676572195639
 51
179.99999999997399
  0
LINE
  5
1BB
100
AcDbEntity
  8
AAA70-0701
370
              15
390
0
  6
Continuous
 62
               7
100
AcDbLine
 10
509.97626708137386
 20
1092.779241524815
 30
0.0
 11
490.97626708137341
 21
1092.779241524815
 31
0.0
  0
LINE
  5
1BC
100
AcDbEntity
  8
AAA70-0701
370
              15
390
0
  6
Continuous
 62
               7
100
AcDbLine
 10
565.00044749491417
 20
790.27924152481864
 30
0.0
 11
565.00044749491417
 21
835.27924152480864
 31
0.0
  0
ARC
  5
1BD
100
AcDbEntity
  8
AAA70-0701
370
              15
390
0
  6
Continuous
 62
               7
100
AcDbCircle
 10
430.97626708137341
 20
528.24471914550986
 30
0.0
 40
1.0000000000001181
100
AcDbArc
 50
123.80130437414381
 51
180.0
  0
ARC
  5
1BE
100
AcDbEntity
  8
AAA70-0701
370
              15
390
0
  6
Continuous
 62
               7
100
AcDbCircle
 10
553.97626388391473
 20
771.34890047547287
 30
0.0
 40
4.0000000000000941
100
AcDbArc
 50
141.20481410281647
 51
179.9275547188081
  0
ARC
  5
1BF
100
AcDbEntity
  8
AAA70-0701
370
              15
390
0
  6
Continuous
 62
               7
100
AcDbCircle
 10
284.22548426993762
 20
844.43935769955078
 30
0.0
 40
265.90492794639147
100
AcDbArc
 50
2.0958482517477268
 51
56.626152070820126
  0
ARC
  5
1C0
100
AcDbEntity
  8
AAA70-0701
370
              15
390
0
  6
Continuous
 62
               7
100
AcDbCircle
 10
284.22548426993762
 20
844.43935769955078
 30
0.0
 40
275.90492794639175
100
AcDbArc
 50
2.9545852803248676
 51
51.853356486916446
  0
ARC
  5
1C1
100
AcDbEntity
  8
AAA70-0701
370
              15
390
0
  6
Continuous
 62
               7
100
AcDbCircle
 10
456.49844847587656
 20
1063.7792415248159
 30
0.0
 40
3.0
100
AcDbArc
 50
90.0
 51
231.85335648691068
  0
ARC
  5
1C2
100
AcDbEntity
  8
AAA70-0701
370
              15
390
0
  6
Continuous
 62
               7
100
AcDbCircle
 10
571.74770147039999
 20
859.27924152480773
 30
0.0
 40
12.000000000000396
100
AcDbArc
 50
182.95458528032623
 51
270.0
  0
ARC
  5
1C3
100
AcDbEntity
  8
AAA70-0701
370
              15
390
0
  6
Continuous
 62
               7
100
AcDbCircle
 10
430.97626708137295
 20
1067.37543732217
 30
0.0
 40
1.0
100
AcDbArc
 50
180.00000000002606
 51
241.53761824917598
  0
ARC
  5
1C4
100
AcDbEntity
  8
AAA70-0701
370
              15
390
0
  6
Continuous
 62
               7
100
AcDbCircle
 10
553.95180909163173
 20
854.24000343533271
 30
0.0
 40
3.9999999999995977
100
AcDbArc
 50
181.09094912071504
 51
218.79518589718353
  0
LINE
  5
1C5
100
AcDbEntity
  8
AAA70-0701
370
              15
390
0
  6
Continuous
 62
               7
100
AcDbLine
 10
549.97626708137295
 20
771.35395810886166
 30
0.0
 11
549.97626708137295
 21
853.79834097975572
 31
0.0
  0
ARC
  5
1C6
100
AcDbEntity
  8
AAA70-0701
370
              15
390
0
  6
Continuous
 62
               7
100
AcDbCircle
 10
303.91542235825227
 20
856.51956800575999
 30
0.0
 40
283.91666412372678
100
AcDbArc
 50
0.5343394160858646
 51
46.645845025168498
  0
ARC
  5
1C7
100
AcDbEntity
  8
AAA70-0701
370
              15
390
0
  6
Continuous
 62
               7
100
AcDbCircle
 10
599.81921805574484
 20
859.27924152480773
 30
0.0
 40
12.000000000000167
100
AcDbArc
 50
180.53433941608685
 51
270.00000000000222
  0
ARC
  5
1C8
100
AcDbEntity
  8
AAA70-0701
370
              15
390
0
  6
Continuous
 62
               7
100
AcDbCircle
 10
303.91542235823727
 20
856.51956800575499
 30
0.0
 40
273.91666412374144
100
AcDbArc
 50
358.88755495414665
 51
49.909758873252834
  0
ARC
  5
1C9
100
AcDbEntity
  8
AAA70-0701
370
              15
390
0
  6
Continuous
 62
               7
100
AcDbCircle
 10
478.38394855339175
 20
1063.7792415248159
 30
0.0
 40
3.0000000000001279
100
AcDbArc
 50
49.909758873255065
 51
90.0
  0
ARC
  5
1CA
100
AcDbEntity
  8
AAA70-0701
370
              15
390
0
  6
Continuous
 62
               7
100
AcDbCircle
 10
573.78121224288088
 20
851.27924152480773
 30
0.0
 40
4.0
100
AcDbArc
 50
269.99999999999346
 51
358.88755495414296
  0
ARC
  5
1CB
100
AcDbEntity
  8
AAA70-0701
370
              15
390
0
  6
Continuous
 62
               7
100
AcDbCircle
 10
504.31794178031078
 20
1068.779241524815
 30
0.0
 40
8.0
100
AcDbArc
 50
90.0
 51
226.64584502516766
  0
LINE
  5
1CC
100
AcDbEntity
  8
AAA70-0701
370
              15
390
0
  6
Continuous
 62
               7
100
AcDbLine
 10
608.97626708137432
 20
1092.779241524815
 30
0.0
 11
597.97626708137432
 21
1092.779241524815
 31
0.0
  0
LINE
  5
1CD
100
AcDbEntity
  8
AAA70-0701
370
              15
390
0
  6
Continuous
 62
               7
100
AcDbLine
 10
429.97626708137341
 20
528.24471914550986
 30
0.0
 11
429.9762670813725
 21
1067.37543732217
 31
0.0
  0
LINE
  5
1CE
100
AcDbEntity
  8
AAA70-0701
370
              15
390
0
  6
Continuous
 62
               7
100
AcDbLine
 10
609.97626708137432
 20
741.77924152481501
 30
0.0
 11
609.97626708137386
 21
778.27924152481864
 31
0.0
  0
LINE
  5
1CF
100
AcDbEntity
  8
AAA70-0701
370
              15
390
0
  6
Continuous
 62
               7
100
AcDbLine
 10
509.97626708137341
 20
1076.779241524815
 30
0.0
 11
529.97626708137386
 21
1076.779241524815
 31
0.0
  0
LINE
  5
1D0
100
AcDbEntity
  8
AAA70-0701
370
              15
390
0
  6
Continuous
 62
               7
100
AcDbLine
 10
509.97626708137386
 20
1092.779241524815
 30
0.0
 11
529.97626708137386
 21
1092.779241524815
 31
0.0
  0
ARC
  5
1D1
100
AcDbEntity
  8
AAA70-0701
370
              15
390
0
  6
Continuous
 62
               7
100
AcDbCircle
 10
145.86258821366027
 20
820.08525638587707
 30
0.0
 40
407.01285086846281
100
AcDbArc
 50
314.35773167649648
 51
353.12929727408192
  0
ARC
  5
1D2
100
AcDbEntity
  8
AAA70-0701
370
              15
390
0
  6
Continuous
 62
               7
100
AcDbCircle
 10
145.86258821366027
 20
820.08525638587707
 30
0.0
 40
417.01285086846264
100
AcDbArc
 50
318.29436910507161
 51
347.4746072057772
  0
ARC
  5
1D3
100
AcDbEntity
  8
AAA70-0701
370
              15
390
0
  6
Continuous
 62
               7
100
AcDbCircle
 10
459.43275891036865
 20
540.64914035237098
 30
0.0
 40
3.0000000000002651
100
AcDbArc
 50
138.29436910507781
 51
300.1266437893986
  0
ARC
  5
1D4
100
AcDbEntity
  8
AAA70-0701
370
              15
390
0
  6
Continuous
 62
               7
100
AcDbCircle
 10
556.85532810888435
 20
728.77924152481592
 30
0.0
 40
4.0
100
AcDbArc
 50
90.0
 51
167.47460720577823
  0
ARC
  5
1D5
100
AcDbEntity
  8
AAA70-0701
370
              15
390
0
  6
Continuous
 62
               7
100
AcDbCircle
 10
145.86258821366027
 20
820.08525638587707
 30
0.0
 40
417.01285086846252
100
AcDbArc
 50
351.24417237156246
 51
352.79509369171598
  0
ARC
  5
1D6
100
AcDbEntity
  8
AAA70-0701
370
              15
390
0
  6
Continuous
 62
               7
100
AcDbCircle
 10
569.87573734143552
 20
754.77924152481592
 30
0.0
 40
12.000000000000419
100
AcDbArc
 50
171.24417237156456
 51
269.99999999999562
  0
ARC
  5
1D7
100
AcDbEntity
  8
AAA70-0701
370
              15
390
0
  6
Continuous
 62
               7
100
AcDbCircle
 10
571.48793869816518
 20
766.27924152482001
 30
0.0
 40
12.0
100
AcDbArc
 50
90.0
 51
172.79509369171731
  0
LINE
  5
1D8
100
AcDbEntity
  8
AAA70-0701
370
              15
390
0
  6
STYLE_12
 62
               7
100
AcDbLine
 10
499.97626708137432
 20
-212.88574420139207
 30
0.0
 11
539.97626708137432
 21
-212.88574420139207
 31
0.0
  0
LINE
  5
1D9
100
AcDbEntity
  8
AAA70-0701
370
              15
390
0
  6
STYLE_12
 62
               7
100
AcDbLine
 10
519.97626708137432
 20
-232.88574420139207
 30
0.0
 11
519.97626708137432
 21
-192.88574420139207
 31
0.0
  0
LINE
  5
1DA
100
AcDbEntity
  8
AAA70-0701
370
              15
390
0
  6
STYLE_12
 62
               7
100
AcDbLine
 10
499.97626708137432
 20
-542.88574420139184
 30
0.0
 11
539.97626708137432
 21
-542.88574420139184
 31
0.0
  0
LINE
  5
1DB
100
AcDbEntity
  8
AAA70-0701
370
              15
390
0
  6
STYLE_12
 62
               7
100
AcDbLine
 10
519.97626708137432
 20
-562.88574420139184
 30
0.0
 11
519.97626708137432
 21
-522.88574420139207
 31
0.0
  0
ARC
  5
1DC
100
AcDbEntity
  8
AAA70-0701
370
              15
390
0
  6
STYLE_12
 62
               7
100
AcDbCircle
 10
430.97626708137341
 20
-793.03452237934243
 30
0.0
 40
1.0000000000001181
100
AcDbArc
 50
123.80130437414381
 51
180.0
  0
LINE
  5
1DD
100
AcDbEntity
  8
AAA70-0701
370
              15
390
0
  6
STYLE_12
 62
               7
100
AcDbLine
 10
550.81051373040145
 20
-339.34229941961576
 30
0.0
 11
563.27489254832108
 21
-354.84752773429454
 31
0.0
  0
ARC
  5
1DE
100
AcDbEntity
  8
AAA70-0701
370
              15
390
0
  6
STYLE_12
 62
               7
100
AcDbCircle
 10
564.97671457628894
 20
-353.79690801949573
 30
0.0
 40
2.0000000000001483
100
AcDbArc
 50
211.68910504311643
 51
270.0
  0
LINE
  5
1DF
100
AcDbEntity
  8
AAA70-0701
370
              15
390
0
  6
STYLE_12
 62
               7
100
AcDbLine
 10
564.97671457628894
 20
-355.79690801949482
 30
0.0
 11
609.97626708137432
 21
-355.79690801949482
 31
0.0
  0
LINE
  5
1E0
100
AcDbEntity
  8
AAA70-0701
370
              15
390
0
  6
STYLE_12
 62
               7
100
AcDbLine
 10
550.83496852268445
 20
-417.22109575818558
 30
0.0
 11
563.27489254832108
 21
-401.74628830468464
 31
0.0
  0
ARC
  5
1E1
100
AcDbEntity
  8
AAA70-0701
370
              15
390
0
  6
STYLE_12
 62
               7
100
AcDbCircle
 10
564.97671457628894
 20
-402.79690801948482
 30
0.0
 40
2.0
100
AcDbArc
 50
90.0
 51
148.31089495688357
  0
LINE
  5
1E2
100
AcDbEntity
  8
AAA70-0701
370
              15
390
0
  6
STYLE_12
 62
               7
100
AcDbLine
 10
564.97671457628894
 20
-400.79690801948482
 30
0.0
 11
609.97626708137432
 21
-400.79690801948482
 31
0.0
  0
LINE
  5
1E3
100
AcDbEntity
  8
AAA70-0701
370
              15
390
0
  6
STYLE_12
 62
               7
100
AcDbLine
 10
564.97671457628894
 20
-400.79690801948482
 30
0.0
 11
564.97671457628894
 21
-355.79690801949482
 31
0.0
  0
ARC
  5
1E4
100
AcDbEntity
  8
AAA70-0701
370
              15
390
0
  6
STYLE_12
 62
               7
100
AcDbCircle
 10
553.9525309652895
 20
-419.72724906883059
 30
0.0
 40
4.0000000000000941
100
AcDbArc
 50
141.20481410281647
 51
179.9275547188081
  0
ARC
  5
1E5
100
AcDbEntity
  8
AAA70-0701
370
              15
390
0
  6
STYLE_12
 62
               7
100
AcDbCircle
 10
553.9280761730065
 20
-336.83614610897075
 30
0.0
 40
3.9999999999995977
100
AcDbArc
 50
181.09094912071504
 51
218.79518589718353
  0
LINE
  5
1E6
100
AcDbEntity
  8
AAA70-0701
370
              15
390
0
  6
STYLE_12
 62
               7
100
AcDbLine
 10
549.95253416274772
 20
-419.7221914354418
 30
0.0
 11
549.95253416274772
 21
-337.27780856454774
 31
0.0
  0
LINE
  5
1E7
100
AcDbEntity
  8
AAA70-0701
370
               5
390
0
  6
STYLE_12
 62
               7
100
AcDbLine
 10
549.95253416274772
 20
-549.88460389594957
 30
0.0
 11
549.95253416274772
 21
-177.72075847518636
 31
0.0
  0
ARC
  5
1E8
100
AcDbEntity
  8
AAA70-0701
370
              15
390
0
  6
STYLE_12
 62
               7
100
AcDbCircle
 10
430.97626708137341
 20
36.440706340362794
 30
0.0
 40
1.0
100
AcDbArc
 50
180.0
 51
236.1986956258562
  0
ARC
  5
1E9
100
AcDbEntity
  8
AAA70-0701
370
              15
390
0
  6
STYLE_12
 62
               7
100
AcDbCircle
 10
270.52582153306525
 20
-193.90518380231697
 30
0.0
 40
279.71991504499806
100
AcDbArc
 50
357.37639982553213
 51
55.136571223889348
  0
ARC
  5
1EA
100
AcDbEntity
  8
AAA70-0701
370
              15
390
0
  6
STYLE_12
 62
               7
100
AcDbCircle
 10
270.52582153306525
 20
-562.68863223666222
 30
0.0
 40
279.71991504499834
100
AcDbArc
 50
304.8634287761106
 51
2.6236001744677537
  0
POLYLINE
  5
1EB
100
AcDbEntity
  8
AAA70-0701
370
               5
390
0
  6
Continuous
 62
               7
100
AcDb2dPolyline
 66
               1
 10
0.0
 20
0.0
 30
0.0
 70
               1
 75
               5
  0
VERTEX
  5
1EC
100
AcDbEntity
  8
AAA70-0701
370
               5
390
0
  6
Continuous
 62
               7
100
AcDbVertex
100
AcDb2dVertex
 10
-670.0
 20
1012.5
 30
0.0
  0
VERTEX
  5
1ED
100
AcDbEntity
  8
AAA70-0701
370
               5
390
0
  6
Continuous
 62
               7
100
AcDbVertex
100
AcDb2dVertex
 10
-570.0
 20
1012.5
 30
0.0
  0
VERTEX
  5
1EE
100
AcDbEntity
  8
AAA70-0701
370
               5
390
0
  6
Continuous
 62
               7
100
AcDbVertex
100
AcDb2dVertex
 10
-570.0
 20
612.5
 30
0.0
  0
VERTEX
  5
1EF
100
AcDbEntity
  8
AAA70-0701
370
               5
390
0
  6
Continuous
 62
               7
100
AcDbVertex
100
AcDb2dVertex
 10
-670.0
 20
612.5
 30
0.0
  0
SEQEND
  5
1F0
100
AcDbEntity
  8
AAA70-0701
370
               5
390
0
  6
Continuous
 62
               7
  0
DIMENSION
  5
1F1
100
AcDbEntity
  8
AAA70-0701
370
               5
390
0
  6
Continuous
 62
               7
100
AcDbDimension
  2
*D18
 10
-670.0
 20
1064.3847571371864
 30
0.0
 11
-620.0
 21
1069.3847571371864
 31
0.0
 70
             128
 71
               5
 72
               1
 41
1.0
 42
0.0
  3
tfrom線あり
100
AcDbAlignedDimension
 13
-570.0
 23
1012.5
 33
0.0
 14
-670.0
 24
1012.5
 34
0.0
100
AcDbRotatedDimension
1001
ACAD
1000
DSTYLE
1002
{
1070
             279
1070
               2
1070
             340
1005
36
1070
             147
1040
5.0
1002
}
  0
DIMENSION
  5
1F2
100
AcDbEntity
  8
AAA70-0701
370
               5
390
0
  6
Continuous
 62
               7
100
AcDbDimension
  2
*D19
 10
-770.0
 20
1012.5
 30
0.0
 11
-770.0
 21
812.5
 31
0.0
 71
               5
 72
               1
 41
1.0
 42
0.0
  3
tfrom線あり
100
AcDbAlignedDimension
 13
-670.0
 23
612.5
 33
0.0
 14
-670.0
 24
1012.5
 34
0.0
 50
90.0
100
AcDbRotatedDimension
1001
ACAD
1000
DSTYLE
1002
{
1070
             279
1070
               2
1070
             340
1005
36
1070
             147
1040
5.0
1002
}
  0
MTEXT
  5
1F3
100
AcDbEntity
  8
AAA70-0701
390
0
 62
               7
100
AcDbMText
 10
-12.016547198197713
 20
405.2282845389891
 30
0.0
 40
24.432617187500004
 41
764.7717154610109
 71
               1
 72
               1
  1
※陶器製品には寸法公差があります。\P  洗面器の収め方をご確認の上、必ず現物を合わせて\P  カウンターに切込を行ってください。
  7
ＭＳ ゴシック
 11
0.0
 21
1.0
 31
0.0
 73
               1
 44
1.0437689845677123
  0
MTEXT
  5
1F4
100
AcDbEntity
  8
AAA70-0701
390
0
 62
               7
100
AcDbMText
 10
133.00956149473541
 20
405.2282845389891
 30
0.0
 40
24.432617187500004
 41
0.0
 71
               1
 72
               1
  1
※カウンタートップ置きの場合も壁固定が必要です。\P
  7
ＭＳ ゴシック
 11
0.0
 21
1.0
 31
0.0
 73
               1
 44
0.7828267384257843
  0
DIMENSION
  5
1F5
100
AcDbEntity
  8
AAA70-0701
370
               5
390
0
  6
Continuous
 62
               7
100
AcDbDimension
  2
*D20
 10
-669.67687322320216
 20
86.471292959472066
 30
0.0
 11
-662.0
 21
91.471292959472066
 31
0.0
 70
             128
 71
               5
 72
               1
 41
1.0
 42
0.0
  3
tfrom線あり
100
AcDbAlignedDimension
 13
-659.67661946654107
 23
-102.88574420139412
 33
0.0
 14
-669.67687322320216
 24
-68.414451241923871
 34
0.0
100
AcDbRotatedDimension
1001
ACAD
1000
DSTYLE
1002
{
1070
             279
1070
               2
1070
             340
1005
36
1070
             147
1040
5.0
1002
}
  0
ENDSEC
  0
SECTION
  2
OBJECTS
  0
DICTIONARY
  5
19
100
AcDbDictionary
280
               0
281
               1
  3
ACAD_GROUP
350
1A
  3
ACAD_MLINESTYLE
350
1B
  3
ACAD_LAYOUT
350
1E
  3
ACAD_PLOTSETTINGS
350
22
  3
ACAD_PLOTSTYLENAME
350
1F
  0
DICTIONARY
  5
1A
102
{ACAD_REACTORS
330
19
102
}
100
AcDbDictionary
280
               0
281
               1
  0
DICTIONARY
  5
1B
102
{ACAD_REACTORS
330
19
102
}
100
AcDbDictionary
280
               0
281
               1
  3
Standard
350
1C
  0
MLINESTYLE
  5
1C
102
{ACAD_REACTORS
330
1B
102
}
100
AcDbMlineStyle
  2
Standard
 70
               0
  3

 62
               0
 51
90.0
 52
90.0
 71
               2
 49
0.5
 62
             256
  6
ByLayer
 49
-0.5
 62
             256
  6
ByLayer
  0
ACDBDICTIONARYWDFLT
  5
1F
102
{ACAD_REACTORS
330
19
102
}
100
AcDbDictionary
281
               1
  3
Normal
350
1D
100
AcDbDictionaryWithDefault
340
1D
  0
ACDBPLACEHOLDER
  5
1D
102
{ACAD_REACTORS
330
1F
102
}
  0
LAYOUT
  5
20
102
{ACAD_REACTORS
330
1E
102
}
100
AcDbPlotSettings
  1

  2

  4

  6

 40
0.0
 41
0.0
 42
0.0
 43
0.0
 44
0.0
 45
0.0
 46
0.0
 47
0.0
 48
0.0
 49
0.0
140
0.0
141
0.0
142
1.0
143
1.0
 70
            1024
 72
               0
 73
               0
 74
               0
  7

 75
               0
147
1.0
148
0.0
149
0.0
100
AcDbLayout
  1
Model
 70
               0
 71
               0
 10
0.0
 20
0.0
 11
0.0
 21
0.0
 12
0.0
 22
0.0
 32
0.0
 14
0.0
 24
0.0
 34
0.0
 15
0.0
 25
0.0
 35
0.0
146
0.0
 13
0.0
 23
0.0
 33
0.0
 16
0.0
 26
0.0
 36
0.0
 17
0.0
 27
0.0
 37
0.0
 76
               0
330
A
331
0
345
0
346
0
  0
LAYOUT
  5
21
102
{ACAD_REACTORS
330
1E
102
}
100
AcDbPlotSettings
  1

  2

  4

  6

 40
0.0
 41
0.0
 42
0.0
 43
0.0
 44
0.0
 45
0.0
 46
0.0
 47
0.0
 48
0.0
 49
0.0
140
0.0
141
0.0
142
1.0
143
1.0
 70
               0
 72
               0
 73
               0
 74
               0
  7

 75
               0
147
1.0
148
0.0
149
0.0
100
AcDbLayout
  1
Layout1
 70
               0
 71
               0
 10
0.0
 20
0.0
 11
0.0
 21
0.0
 12
0.0
 22
0.0
 32
0.0
 14
0.0
 24
0.0
 34
0.0
 15
0.0
 25
0.0
 35
0.0
146
0.0
 13
0.0
 23
0.0
 33
0.0
 16
0.0
 26
0.0
 36
0.0
 17
0.0
 27
0.0
 37
0.0
 76
               0
330
B
331
0
345
0
346
0
  0
DICTIONARY
  5
1E
102
{ACAD_REACTORS
330
19
102
}
100
AcDbDictionary
280
               0
281
               1
  3
Layout1
350
21
  3
Model
350
20
  0
DICTIONARY
  5
22
102
{ACAD_REACTORS
330
19
102
}
100
AcDbDictionary
280
               0
281
               1
  0
ENDSEC
  0
EOF
