  0
SECTION
  2
HEADER
  9
$ACADVER
  1
AC1015
  9
$ACADMAINTVER
 70
               6
  9
$DWGCODEPAGE
  3
ANSI_932
  9
$INSBASE
 10
0.0
 20
0.0
 30
0.0
  9
$EXTMIN
 10
-1462.500000000362
 20
-2147.2882837066695
 30
-21.642916666666665
  9
$EXTMAX
 10
1462.500000000362
 20
2108.9959389619494
 30
21.642916666666665
  9
$LIMMIN
 10
0.0
 20
0.0
  9
$LIMMAX
 10
0.0
 20
0.0
  9
$ORTHOMODE
 70
               0
  9
$REGENMODE
 70
               1
  9
$FILLMODE
 70
               1
  9
$QTEXTMODE
 70
               0
  9
$MIRRTEXT
 70
               1
  9
$LTSCALE
 40
76.199999999999989
  9
$ATTMODE
 70
               1
  9
$TEXTSIZE
 40
0.2
  9
$TRACEWID
 40
1.0
  9
$TEXTSTYLE
  7
Standard
  9
$CLAYER
  8
notes
  9
$CELTYPE
  6
Continuous
  9
$CECOLOR
 62
             256
  9
$CELTSCALE
 40
1.0
  9
$DISPSILH
 70
               0
  9
$DIMSCALE
 40
1.0
  9
$DIMASZ
 40
47.625
  9
$DIMEXO
 40
0.0
  9
$DIMDLI
 40
6.9999999999999396
  9
$DIMRND
 40
0.0
  9
$DIMDLE
 40
0.0
  9
$DIMEXE
 40
29.999999999994298
  9
$DIMTP
 40
0.0
  9
$DIMTM
 40
0.0
  9
$DIMTXT
 40
36.64892578125
  9
$DIMCEN
 40
0.0
  9
$DIMTSZ
 40
0.0
  9
$DIMTOL
 70
               0
  9
$DIMLIM
 70
               0
  9
$DIMTIH
 70
               0
  9
$DIMTOH
 70
               0
  9
$DIMSE1
 70
               0
  9
$DIMSE2
 70
               0
  9
$DIMTAD
 70
               1
  9
$DIMZIN
 70
              11
  9
$DIMBLK
  1
VW_FILLEDARROW
  9
$DIMASO
 70
               1
  9
$DIMSHO
 70
               1
  9
$DIMPOST
  1
<>
  9
$DIMAPOST
  1
[]
  9
$DIMALT
 70
               0
  9
$DIMALTD
 70
               1
  9
$DIMALTF
 40
1.0
  9
$DIMLFAC
 40
1.0
  9
$DIMTOFL
 70
               0
  9
$DIMTVP
 40
0.0
  9
$DIMTIX
 70
               1
  9
$DIMSOXD
 70
               0
  9
$DIMSAH
 70
               0
  9
$DIMBLK1
  1

  9
$DIMBLK2
  1

  9
$DIMSTYLE
  2
JIS
  9
$DIMCLRD
 70
               0
  9
$DIMCLRE
 70
               0
  9
$DIMCLRT
 70
               0
  9
$DIMTFAC
 40
1.0
  9
$DIMGAP
 40
1.00000000000108
  9
$DIMJUST
 70
               0
  9
$DIMSD1
 70
               0
  9
$DIMSD2
 70
               0
  9
$DIMTOLJ
 70
               1
  9
$DIMTZIN
 70
              11
  9
$DIMALTZ
 70
              11
  9
$DIMALTTZ
 70
              11
  9
$DIMUPT
 70
               0
  9
$DIMDEC
 70
               1
  9
$DIMTDEC
 70
               1
  9
$DIMALTU
 70
               2
  9
$DIMALTTD
 70
               2
  9
$DIMTXSTY
  7
ＭＳ ゴシック
  9
$DIMAUNIT
 70
               0
  9
$DIMADEC
 70
               2
  9
$DIMALTRND
 40
0.0
  9
$DIMAZIN
 70
               0
  9
$DIMDSEP
 70
              46
  9
$DIMATFIT
 70
               0
  9
$DIMFRAC
 70
               2
  9
$DIMLDRBLK
  1

  9
$DIMLUNIT
 70
               2
  9
$DIMLWD
 70
              -2
  9
$DIMLWE
 70
              -2
  9
$DIMTMOVE
 70
               0
  9
$LUNITS
 70
               2
  9
$LUPREC
 70
               4
  9
$SKETCHINC
 40
0.1
  9
$FILLETRAD
 40
0.0
  9
$AUNITS
 70
               0
  9
$AUPREC
 70
               0
  9
$MENU
  1
acad
  9
$ELEVATION
 40
0.0
  9
$PELEVATION
 40
0.0
  9
$THICKNESS
 40
0.0
  9
$LIMCHECK
 70
               0
  9
$CHAMFERA
 40
0.0
  9
$CHAMFERB
 40
0.0
  9
$CHAMFERC
 40
0.0
  9
$CHAMFERD
 40
0.0
  9
$SKPOLY
 70
               0
  9
$TDCREATE
 40
2455765.694108796
  9
$TDUCREATE
 40
0.000000000
  9
$TDUPDATE
 40
2455765.694108796
  9
$TDUUPDATE
 40
0.000000000
  9
$TDINDWG
 40
0.0000000000
  9
$TDUSRTIMER
 40
0.0000000000
  9
$USRTIMER
 70
               1
  9
$ANGBASE
 50
0.0
  9
$ANGDIR
 70
               0
  9
$PDMODE
 70
               1
  9
$PDSIZE
 40
-2.0
  9
$PLINEWID
 40
0.0
  9
$SPLFRAME
 70
               0
  9
$SPLINETYPE
 70
               6
  9
$SPLINESEGS
 70
               8
  9
$HANDSEED
  5
286
  9
$SURFTAB1
 70
               6
  9
$SURFTAB2
 70
               6
  9
$SURFTYPE
 70
               6
  9
$SURFU
 70
               6
  9
$SURFV
 70
               6
  9
$UCSBASE
  2

  9
$UCSNAME
  2

  9
$UCSORG
 10
0.0
 20
0.0
 30
0.0
  9
$UCSXDIR
 10
1.0
 20
0.0
 30
0.0
  9
$UCSYDIR
 10
0.0
 20
1.0
 30
0.0
  9
$UCSORTHOREF
  2

  9
$UCSORTHOVIEW
 70
               0
  9
$UCSORGTOP
 10
0.0
 20
0.0
 30
0.0
  9
$UCSORGBOTTOM
 10
0.0
 20
0.0
 30
0.0
  9
$UCSORGLEFT
 10
0.0
 20
0.0
 30
0.0
  9
$UCSORGRIGHT
 10
0.0
 20
0.0
 30
0.0
  9
$UCSORGFRONT
 10
0.0
 20
0.0
 30
0.0
  9
$UCSORGBACK
 10
0.0
 20
0.0
 30
0.0
  9
$PUCSBASE
  2

  9
$PUCSNAME
  2

  9
$PUCSORG
 10
0.0
 20
0.0
 30
0.0
  9
$PUCSXDIR
 10
1.0
 20
0.0
 30
0.0
  9
$PUCSYDIR
 10
0.0
 20
1.0
 30
0.0
  9
$PUCSORTHOREF
  2

  9
$PUCSORTHOVIEW
 70
               0
  9
$PUCSORGTOP
 10
0.0
 20
0.0
 30
0.0
  9
$PUCSORGBOTTOM
 10
0.0
 20
0.0
 30
0.0
  9
$PUCSORGLEFT
 10
0.0
 20
0.0
 30
0.0
  9
$PUCSORGRIGHT
 10
0.0
 20
0.0
 30
0.0
  9
$PUCSORGFRONT
 10
0.0
 20
0.0
 30
0.0
  9
$PUCSORGBACK
 10
0.0
 20
0.0
 30
0.0
  9
$USERI1
 70
               0
  9
$USERI2
 70
               0
  9
$USERI3
 70
               0
  9
$USERI4
 70
               0
  9
$USERI5
 70
               0
  9
$USERR1
 40
0.0
  9
$USERR2
 40
0.0
  9
$USERR3
 40
0.0
  9
$USERR4
 40
0.0
  9
$USERR5
 40
0.0
  9
$WORLDVIEW
 70
               1
  9
$SHADEDGE
 70
               3
  9
$SHADEDIF
 70
              70
  9
$TILEMODE
 70
               1
  9
$MAXACTVP
 70
              64
  9
$PINSBASE
 10
0.0
 20
0.0
 30
0.0
  9
$PLIMCHECK
 70
               0
  9
$PEXTMIN
 10
1.0000000000000000E+20
 20
1.0000000000000000E+20
 30
1.0000000000000000E+20
  9
$PEXTMAX
 10
-1.0000000000000000E+20
 20
-1.0000000000000000E+20
 30
-1.0000000000000000E+20
  9
$PLIMMIN
 10
0.0
 20
0.0
  9
$PLIMMAX
 10
12.0
 20
9.0
  9
$UNITMODE
 70
               0
  9
$VISRETAIN
 70
               0
  9
$PLINEGEN
 70
               1
  9
$PSLTSCALE
 70
               0
  9
$TREEDEPTH
 70
            3020
  9
$CMLSTYLE
  2
Standard
  9
$CMLJUST
 70
               0
  9
$CMLSCALE
 40
1.0
  9
$PROXYGRAPHICS
 70
               0
  9
$MEASUREMENT
 70
               1
  9
$CELWEIGHT
370
               0
  9
$ENDCAPS
280
               0
  9
$JOINSTYLE
280
               0
  9
$LWDISPLAY
290
               1
  9
$INSUNITS
 70
               4
  9
$HYPERLINKBASE
  1

  9
$STYLESHEET
  1

  9
$XEDIT
290
               1
  9
$CEPSNTYPE
380
               0
  9
$PSTYLEMODE
290
               1
  9
$FINGERPRINTGUID
  2

  9
$VERSIONGUID
  2

  9
$EXTNAMES
290
               1
  9
$PSVPSCALE
 40
0.0
  0
ENDSEC
  0
SECTION
  2
CLASSES
  0
CLASS
  1
LWPOLYLINE
  2
AcDbPolyline
  3
AutoCAD 2000
 90
        0
280
               0
281
               1
  0
CLASS
  1
IMAGE
  2
AcDbRasterImage
  3
ISM
 90
      127
280
               0
281
               1
  0
CLASS
  1
OLE2FRAME
  2
AcDbOle2Frame
  3
AutoCAD 2000
 90
        0
280
               0
281
               1
  0
CLASS
  1
HATCH
  2
AcDbHatch
  3
AutoCAD 2000
 90
        0
280
               0
281
               1
  0
CLASS
  1
DICTIONARYVAR
  2
AcDbDictionaryVar
  3
AutoCAD 2000
 90
        0
280
               0
281
               0
  0
CLASS
  1
RASTERVARIABLES
  2
AcDbRasterVariables
  3
ISM
 90
        0
280
               0
281
               0
  0
CLASS
  1
IMAGEDEF
  2
AcDbRasterImageDef
  3
ISM
 90
        0
280
               0
281
               0
  0
CLASS
  1
IMAGEDEF_REACTOR
  2
AcDbRasterImageDefReactor
  3
ISM
 90
        1
280
               0
281
               0
  0
CLASS
  1
IDBUFFER
  2
AcDbIdBuffer
  3
AutoCAD 2000
 90
        0
280
               0
281
               0
  0
CLASS
  1
SPATIAL_FILTER
  2
AcDbSpatialFilter
  3
AutoCAD 2000
 90
        0
280
               0
281
               0
  0
CLASS
  1
XRECORD
  2
AcDbXrecord
  3
AutoCAD 2000
 90
        0
280
               0
281
               0
  0
CLASS
  1
SORTENTSTABLE
  2
AcDbSortentsTable
  3
AutoCAD 2000
 90
        0
280
               0
281
               0
  0
CLASS
  1
LAYER_INDEX
  2
AcDbLayerIndex
  3
AutoCAD 2000
 90
        0
280
               0
281
               0
  0
CLASS
  1
SPATIAL_INDEX
  2
AcDbSpatialIndex
  3
AutoCAD 2000
 90
        0
280
               0
281
               0
  0
CLASS
  1
OBJECT_PTR
  2
CAseDLPNTableRecord
  3
"ASE-LPNTableRecord"
 90
        1
280
               0
281
               0
  0
CLASS
  1
LAYOUT
  2
AcDbLayout
  3
AutoCAD 2000
 90
        0
280
               0
281
               0
  0
CLASS
  1
PLOTSETTINGS
  2
AcDbPlotSettings
  3
AutoCAD 2000
 90
        0
280
               0
281
               0
  0
CLASS
  1
ACDBDICTIONARYWDFLT
  2
AcDbDictionaryWithDefault
  3
AutoCAD 2000
 90
        0
280
               0
281
               0
  0
CLASS
  1
ACDBPLACEHOLDER
  2
AcDbPlaceHolder
  3
AutoCAD 2000
 90
        0
280
               0
281
               0
  0
ENDSEC
  0
SECTION
  2
TABLES
  0
TABLE
  2
VPORT
  5
7
100
AcDbSymbolTable
 70
               1
  0
VPORT
  5
15
100
AcDbSymbolTableRecord
100
AcDbViewportTableRecord
  2
*ACTIVE
 70
               0
 10
0.0
 20
0.0
 11
1.0
 21
1.0
 12
0.0
 22
-19.14617237236007
 13
0.0
 23
0.0
 14
1.0
 24
1.0
 15
0.0
 25
0.0
 16
0.0
 26
0.0
 36
1.0
 17
0.0
 27
0.0
 37
0.0
 40
4256.2842226686189
 41
0.688564
 42
50.0
 43
0.0
 44
0.0
 50
0.0
 51
0.0
 71
               0
 72
            2000
 73
               1
 74
               1
 75
               0
 76
               0
 77
               0
 78
               0
281
               0
 65
               0
110
0.0
120
0.0
130
0.0
111
1.0
121
0.0
131
0.0
112
0.0
122
1.0
132
0.0
345
0
346
0
 79
               0
146
0.0
  0
ENDTAB
  0
TABLE
  2
LTYPE
  5
4
100
AcDbSymbolTable
 70
              18
  0
LTYPE
  5
11
100
AcDbSymbolTableRecord
100
AcDbLinetypeTableRecord
  2
ByBlock
 70
              64
  3

 72
              65
 73
               0
 40
0.0
  0
LTYPE
  5
12
100
AcDbSymbolTableRecord
100
AcDbLinetypeTableRecord
  2
ByLayer
 70
              64
  3

 72
              65
 73
               0
 40
0.0
  0
LTYPE
  5
13
100
AcDbSymbolTableRecord
100
AcDbLinetypeTableRecord
  2
Continuous
 70
              64
  3
Solid line
 72
              65
 73
               0
 40
0.0
  0
LTYPE
  5
3B
100
AcDbSymbolTableRecord
100
AcDbLinetypeTableRecord
  2
STYLE_01
 70
               0
  3

 72
              65
 73
               2
 40
0.0375
 49
0.025
 74
               0
 49
-0.0125
 74
               0
  0
LTYPE
  5
3C
100
AcDbSymbolTableRecord
100
AcDbLinetypeTableRecord
  2
STYLE_02
 70
               0
  3

 72
              65
 73
               2
 40
0.6944250000000001
 49
0.48607
 74
               0
 49
-0.2083550000000001
 74
               0
  0
LTYPE
  5
3D
100
AcDbSymbolTableRecord
100
AcDbLinetypeTableRecord
  2
STYLE_03
 70
               0
  3

 72
              65
 73
               2
 40
1.25
 49
1.0416400000000001
 74
               0
 49
-0.2083599999999999
 74
               0
  0
LTYPE
  5
3E
100
AcDbSymbolTableRecord
100
AcDbLinetypeTableRecord
  2
STYLE_04
 70
               0
  3

 72
              65
 73
               2
 40
1.5277099999999999
 49
1.3194249999999998
 74
               0
 49
-0.208285
 74
               0
  0
LTYPE
  5
3F
100
AcDbSymbolTableRecord
100
AcDbLinetypeTableRecord
  2
STYLE_05
 70
               0
  3

 72
              65
 73
               2
 40
0.20828
 49
0.069425
 74
               0
 49
-0.138855
 74
               0
  0
LTYPE
  5
40
100
AcDbSymbolTableRecord
100
AcDbLinetypeTableRecord
  2
STYLE_06
 70
               0
  3

 72
              65
 73
               4
 40
1.0416400000000001
 49
0.625
 74
               0
 49
-0.20828
 74
               0
 49
0.06943
 74
               0
 49
-0.13893
 74
               0
  0
LTYPE
  5
41
100
AcDbSymbolTableRecord
100
AcDbLinetypeTableRecord
  2
STYLE_07
 70
               0
  3

 72
              65
 73
               6
 40
1.875
 49
0.625
 74
               0
 49
-0.20828
 74
               0
 49
0.6250000000000001
 74
               0
 49
-0.2083599999999999
 74
               0
 49
0.06943
 74
               0
 49
-0.1389299999999999
 74
               0
  0
LTYPE
  5
42
100
AcDbSymbolTableRecord
100
AcDbLinetypeTableRecord
  2
STYLE_08
 70
               0
  3

 72
              65
 73
               6
 40
1.25
 49
0.625
 74
               0
 49
-0.20828
 74
               0
 49
0.06943
 74
               0
 49
-0.13893
 74
               0
 49
0.0694299999999999
 74
               0
 49
-0.13893
 74
               0
  0
LTYPE
  5
43
100
AcDbSymbolTableRecord
100
AcDbLinetypeTableRecord
  2
STYLE_09
 70
               0
  3

 72
              65
 73
               4
 40
5.0
 49
3.75
 74
               0
 49
-0.2777849999999998
 74
               0
 49
0.6944300000000003
 74
               0
 49
-0.2777849999999998
 74
               0
  0
LTYPE
  5
44
100
AcDbSymbolTableRecord
100
AcDbLinetypeTableRecord
  2
STYLE_10
 70
               0
  3

 72
              65
 73
               6
 40
5.9375
 49
3.75
 74
               0
 49
-0.2777849999999998
 74
               0
 49
0.6944300000000003
 74
               0
 49
-0.2777849999999998
 74
               0
 49
0.625
 74
               0
 49
-0.3125
 74
               0
  0
LTYPE
  5
45
100
AcDbSymbolTableRecord
100
AcDbLinetypeTableRecord
  2
STYLE_11
 70
               0
  3

 72
              65
 73
               2
 40
0.0694444881889764
 49
0.0347222440944882
 74
               0
 49
-0.0347222440944882
 74
               0
  0
LTYPE
  5
46
100
AcDbSymbolTableRecord
100
AcDbLinetypeTableRecord
  2
STYLE_12
 70
               0
  3

 72
              65
 73
               2
 40
0.3937007874015748
 49
0.1968503937007874
 74
               0
 49
-0.1968503937007874
 74
               0
  0
LTYPE
  5
47
100
AcDbSymbolTableRecord
100
AcDbLinetypeTableRecord
  2
STYLE_13
 70
               0
  3

 72
              65
 73
               2
 40
0.5905511811023622
 49
0.2952755905511811
 74
               0
 49
-0.2952755905511811
 74
               0
  0
LTYPE
  5
48
100
AcDbSymbolTableRecord
100
AcDbLinetypeTableRecord
  2
STYLE_14
 70
               0
  3

 72
              65
 73
               2
 40
1.9685039370078738
 49
0.9842519685039369
 74
               0
 49
-0.9842519685039369
 74
               0
  0
LTYPE
  5
49
100
AcDbSymbolTableRecord
100
AcDbLinetypeTableRecord
  2
STYLE_15
 70
               0
  3

 72
              65
 73
               2
 40
3.9370078740157477
 49
1.9685039370078738
 74
               0
 49
-1.9685039370078738
 74
               0
  0
ENDTAB
  0
TABLE
  2
LAYER
  5
2
100
AcDbSymbolTable
 70
               5
  0
LAYER
  5
14
100
AcDbSymbolTableRecord
100
AcDbLayerTableRecord
  2
0
 70
               0
 62
               7
  6
Continuous
290
               1
370
              -3
390
1D
  0
LAYER
  5
4A
100
AcDbSymbolTableRecord
100
AcDbLayerTableRecord
  2
Defpoints
 70
               0
 62
               7
  6
Continuous
290
               0
370
              -3
390
1D
  0
LAYER
  5
4B
100
AcDbSymbolTableRecord
100
AcDbLayerTableRecord
  2
template
 70
               0
 62
               7
  6
Continuous
290
               1
370
              -3
390
1D
  0
LAYER
  5
4C
100
AcDbSymbolTableRecord
100
AcDbLayerTableRecord
  2
notes
 70
               0
 62
               7
  6
Continuous
290
               1
370
              -3
390
1D
  0
LAYER
  5
4D
100
AcDbSymbolTableRecord
100
AcDbLayerTableRecord
  2
AAA70-1004
 70
               0
 62
               7
  6
Continuous
290
               1
370
              -3
390
1D
  0
ENDTAB
  0
TABLE
  2
STYLE
  5
3
100
AcDbSymbolTable
 70
               2
  0
STYLE
  5
17
100
AcDbSymbolTableRecord
100
AcDbTextStyleTableRecord
  2
Standard
 70
               0
 40
0.0
 41
1.0
 50
0.0
 71
               0
 42
0.0
  3
txt
  4
BIGFONT.SHX
  0
STYLE
  5
3A
100
AcDbSymbolTableRecord
100
AcDbTextStyleTableRecord
  2
ＭＳ ゴシック
 70
               0
 40
0.0
 41
1.0
 50
0.0
 71
               0
 42
0.0
  3

  4
ＭＳ ゴシック
1001
ACAD
1000
ＭＳ ゴシック
1071
        0
  0
ENDTAB
  0
TABLE
  2
VIEW
  5
5
100
AcDbSymbolTable
 70
               0
  0
ENDTAB
  0
TABLE
  2
UCS
  5
6
100
AcDbSymbolTable
 70
               0
  0
ENDTAB
  0
TABLE
  2
APPID
  5
8
100
AcDbSymbolTable
 70
               1
  0
APPID
  5
16
100
AcDbSymbolTableRecord
100
AcDbRegAppTableRecord
  2
ACAD
 70
               0
  0
ENDTAB
  0
TABLE
  2
DIMSTYLE
  5
9
100
AcDbSymbolTable
 70
               3
100
AcDbDimStyleTable
 71
               0
  0
DIMSTYLE
105
18
100
AcDbSymbolTableRecord
100
AcDbDimStyleTableRecord
  2
Standard
 70
               0
  3

  4

 40
1.0
 41
0.18
 42
0.0625
 43
0.38
 44
0.18
 45
0.0
 46
0.0
 47
0.0
 48
0.0
 71
               0
 72
               0
 73
               1
 74
               1
 75
               0
 76
               0
 77
               0
 78
               0
 79
               0
140
0.18
141
0.09
142
0.0
143
25.399999999999999
144
1.0
145
0.0
146
1.0
147
0.09
148
0.0
170
               0
171
               2
172
               0
173
               0
174
               0
175
               0
176
               0
177
               0
178
               0
179
               0
271
               4
272
               4
273
               2
274
               2
275
               0
276
               0
277
               2
278
              46
279
               0
280
               0
281
               0
282
               0
283
               1
284
               0
285
               0
286
               0
288
               0
289
               3
340
17
341
0
342
0
343
0
344
0
371
              -2
372
              -2
  0
DIMSTYLE
105
56
100
AcDbSymbolTableRecord
100
AcDbDimStyleTableRecord
  2
tfrom線あり
 70
               0
  3
<>
  4
[]
 40
1.0
 41
5.9996337890625
 42
37.499999999999993
 43
0.9999999999999999
 44
0.0
 45
0.0
 46
0.0
 47
0.0
 48
0.0
 71
               0
 72
               0
 73
               0
 74
               0
 75
               0
 76
               0
 77
               1
 78
              11
 79
               0
140
36.64892578125
141
0.0
142
0.0
143
1.0
144
1.0
145
0.0
146
1.0
147
0.4999999999999999
148
0.0
170
               0
171
               1
172
               0
173
               0
174
               1
175
               0
176
               0
177
               0
178
               0
179
               2
271
               1
272
               1
273
               2
274
               2
275
               0
276
               2
277
               2
278
              46
279
               0
280
               0
281
               0
282
               0
283
               1
284
              11
285
              11
286
              11
288
               0
289
               0
340
3A
341
4E
342
4E
343
0
344
0
371
              -2
372
              -2
  0
DIMSTYLE
105
5B
100
AcDbSymbolTableRecord
100
AcDbDimStyleTableRecord
  2
JIS
 70
               0
  3
<>
  4
[]
 40
1.0
 41
47.625
 42
0.0
 43
6.9999999999999396
 44
29.999999999994298
 45
0.0
 46
0.0
 47
0.0
 48
0.0
 71
               0
 72
               0
 73
               0
 74
               0
 75
               0
 76
               0
 77
               1
 78
              11
 79
               0
140
36.64892578125
141
0.0
142
0.0
143
1.0
144
1.0
145
0.0
146
1.0
147
1.00000000000108
148
0.0
170
               0
171
               1
172
               0
173
               0
174
               1
175
               0
176
               0
177
               0
178
               0
179
               2
271
               1
272
               1
273
               2
274
               2
275
               0
276
               2
277
               2
278
              46
279
               0
280
               0
281
               0
282
               0
283
               1
284
              11
285
              11
286
              11
288
               0
289
               0
340
3A
341
57
342
57
343
0
344
0
371
              -2
372
              -2
  0
ENDTAB
  0
TABLE
  2
BLOCK_RECORD
  5
1
100
AcDbSymbolTable
 70
              25
  0
BLOCK_RECORD
  5
A
100
AcDbSymbolTableRecord
100
AcDbBlockTableRecord
  2
*MODEL_SPACE
340
20
  0
BLOCK_RECORD
  5
B
100
AcDbSymbolTableRecord
100
AcDbBlockTableRecord
  2
*PAPER_SPACE
340
21
  0
BLOCK_RECORD
  5
4E
100
AcDbSymbolTableRecord
100
AcDbBlockTableRecord
  2
_DOT
340
0
  0
BLOCK_RECORD
  5
57
100
AcDbSymbolTableRecord
100
AcDbBlockTableRecord
  2
VW_FILLEDARROW
340
0
  0
BLOCK_RECORD
  5
23
100
AcDbSymbolTableRecord
100
AcDbBlockTableRecord
  2
グループ
340
0
102
{BLKREFS
331
18E
102
}
  0
BLOCK_RECORD
  5
24
100
AcDbSymbolTableRecord
100
AcDbBlockTableRecord
  2
*D3
340
0
  0
BLOCK_RECORD
  5
25
100
AcDbSymbolTableRecord
100
AcDbBlockTableRecord
  2
*D4
340
0
  0
BLOCK_RECORD
  5
26
100
AcDbSymbolTableRecord
100
AcDbBlockTableRecord
  2
*D5
340
0
  0
BLOCK_RECORD
  5
27
100
AcDbSymbolTableRecord
100
AcDbBlockTableRecord
  2
*D6
340
0
  0
BLOCK_RECORD
  5
28
100
AcDbSymbolTableRecord
100
AcDbBlockTableRecord
  2
*D7
340
0
  0
BLOCK_RECORD
  5
29
100
AcDbSymbolTableRecord
100
AcDbBlockTableRecord
  2
*D8
340
0
  0
BLOCK_RECORD
  5
2A
100
AcDbSymbolTableRecord
100
AcDbBlockTableRecord
  2
*D9
340
0
  0
BLOCK_RECORD
  5
2B
100
AcDbSymbolTableRecord
100
AcDbBlockTableRecord
  2
*D10
340
0
  0
BLOCK_RECORD
  5
2C
100
AcDbSymbolTableRecord
100
AcDbBlockTableRecord
  2
*D11
340
0
  0
BLOCK_RECORD
  5
2D
100
AcDbSymbolTableRecord
100
AcDbBlockTableRecord
  2
*D12
340
0
  0
BLOCK_RECORD
  5
2E
100
AcDbSymbolTableRecord
100
AcDbBlockTableRecord
  2
*D13
340
0
  0
BLOCK_RECORD
  5
2F
100
AcDbSymbolTableRecord
100
AcDbBlockTableRecord
  2
*D14
340
0
  0
BLOCK_RECORD
  5
30
100
AcDbSymbolTableRecord
100
AcDbBlockTableRecord
  2
*D15
340
0
  0
BLOCK_RECORD
  5
31
100
AcDbSymbolTableRecord
100
AcDbBlockTableRecord
  2
*D16
340
0
  0
BLOCK_RECORD
  5
32
100
AcDbSymbolTableRecord
100
AcDbBlockTableRecord
  2
*D17
340
0
  0
BLOCK_RECORD
  5
33
100
AcDbSymbolTableRecord
100
AcDbBlockTableRecord
  2
*D18
340
0
  0
BLOCK_RECORD
  5
34
100
AcDbSymbolTableRecord
100
AcDbBlockTableRecord
  2
*D19
340
0
  0
BLOCK_RECORD
  5
35
100
AcDbSymbolTableRecord
100
AcDbBlockTableRecord
  2
*D20
340
0
  0
BLOCK_RECORD
  5
36
100
AcDbSymbolTableRecord
100
AcDbBlockTableRecord
  2
*D21
340
0
  0
BLOCK_RECORD
  5
37
100
AcDbSymbolTableRecord
100
AcDbBlockTableRecord
  2
*D22
340
0
  0
BLOCK_RECORD
  5
38
100
AcDbSymbolTableRecord
100
AcDbBlockTableRecord
  2
*D23
340
0
  0
BLOCK_RECORD
  5
39
100
AcDbSymbolTableRecord
100
AcDbBlockTableRecord
  2
*D24
340
0
  0
ENDTAB
  0
ENDSEC
  0
SECTION
  2
BLOCKS
  0
BLOCK
  5
D
100
AcDbEntity
  8
0
390
0
100
AcDbBlockBegin
  2
*MODEL_SPACE
 70
               0
 10
0.0
 20
0.0
 30
0.0
  3
*MODEL_SPACE
  1

  0
ENDBLK
  5
E
100
AcDbEntity
  8
0
390
0
100
AcDbBlockEnd
  0
BLOCK
  5
F
100
AcDbEntity
 67
               1
  8
0
390
0
100
AcDbBlockBegin
  2
*PAPER_SPACE
 70
               0
 10
0.0
 20
0.0
 30
0.0
  3
*PAPER_SPACE
  1

  0
ENDBLK
  5
10
100
AcDbEntity
 67
               1
  8
0
390
0
100
AcDbBlockEnd
  0
BLOCK
  5
4F
100
AcDbEntity
  8
0
390
0
100
AcDbBlockBegin
  2
_DOT
 70
               0
 10
0.0
 20
0.0
 30
0.0
  3
_DOT
  1

  0
POLYLINE
  5
50
100
AcDbEntity
  8
0
370
              -2
390
0
  6
ByBlock
 62
               0
100
AcDb2dPolyline
 66
               1
 10
0.0
 20
0.0
 30
0.0
 70
               1
 40
0.5
 41
0.5
  0
VERTEX
  5
51
100
AcDbEntity
  8
0
370
              -2
390
0
  6
ByBlock
 62
               0
100
AcDbVertex
100
AcDb2dVertex
 10
-0.25
 20
0.0
 30
0.0
 42
1.0
  0
VERTEX
  5
52
100
AcDbEntity
  8
0
370
              -2
390
0
  6
ByBlock
 62
               0
100
AcDbVertex
100
AcDb2dVertex
 10
0.25
 20
0.0
 30
0.0
 42
1.0
  0
SEQEND
  5
53
100
AcDbEntity
  8
0
390
0
  0
LINE
  5
54
100
AcDbEntity
  8
0
370
              -2
390
0
  6
ByBlock
 62
               0
100
AcDbLine
 10
-0.5
 20
0.0
 30
0.0
 11
-1.0
 21
0.0
 31
0.0
  0
ENDBLK
  5
55
100
AcDbEntity
  8
0
390
0
100
AcDbBlockEnd
  0
BLOCK
  5
58
100
AcDbEntity
  8
0
370
              -2
390
0
  6
ByBlock
 62
               0
100
AcDbBlockBegin
  2
VW_FILLEDARROW
 70
               0
 10
0.0
 20
0.0
 30
0.0
  3
VW_FILLEDARROW
  1

  0
SOLID
  5
59
100
AcDbEntity
  8
0
370
              -2
390
0
 62
               0
100
AcDbTrace
 10
0.0
 20
0.0
 30
0.0
 11
-0.9999389648437499
 21
-0.2679328381102956
 31
0.0
 12
-0.9999389648437499
 22
0.2679328381102958
 32
0.0
 13
-0.9999389648437499
 23
0.2679328381102958
 33
0.0
  0
ENDBLK
  5
5A
100
AcDbEntity
  8
0
390
0
100
AcDbBlockEnd
  0
BLOCK
  5
5C
100
AcDbEntity
  8
template
390
0
100
AcDbBlockBegin
  2
グループ
 70
               0
 10
0.0
 20
0.0
 30
0.0
  3
グループ
  1

  0
LWPOLYLINE
  5
5D
100
AcDbEntity
  8
0
370
              15
390
0
  6
Continuous
 62
               7
100
AcDbPolyline
 90
        8
 70
             129
 10
-768.85723829538779
 20
-3486.7345815355288
 10
-768.85723829538779
 20
-3495.7306645758927
 10
-783.1090336723928
 20
-3495.7306645758927
 10
-783.1090336723928
 20
-3532.4071094711558
 10
-795.64209956506693
 20
-3532.4071094711558
 10
-795.64209956506693
 20
-3495.7306645758927
 10
-809.64153498453106
 20
-3495.7306645758927
 10
-809.64153498453106
 20
-3486.7345815355288
  0
LWPOLYLINE
  5
5E
100
AcDbEntity
  8
0
370
              15
390
0
  6
Continuous
 62
               7
100
AcDbPolyline
 90
      101
 70
             128
 10
-749.76480054955232
 20
-3487.8269542749335
 10
-749.74177550637501
 20
-3487.8204131399061
 42
-0.0222221607818513
 10
-749.30676864136819
 20
-3487.7174764420388
 10
-749.28307799538595
 20
-3487.712971307395
 42
-0.0146883565593899
 10
-748.88902393754154
 20
-3487.6499665269694
 42
-0.0127458844178859
 10
-748.4920654868032
 20
-3487.6086610748598
 10
-748.39838286934287
 20
-3487.6013209409784
 42
-0.0198099018567936
 10
-747.81210920513297
 20
-3487.5786932048836
 10
-747.73439200096186
 20
-3487.5787738683812
 42
-0.0147617382763279
 10
-746.99245680950798
 20
-3487.601453906248
 10
-746.88341962718243
 20
-3487.60801281658
 42
-0.016262454900012
 10
-746.29818918299134
 20
-3487.6623621294884
 10
-746.11589059610947
 20
-3487.6852919679823
 42
-0.0080020874665365
 10
-745.89752204946512
 20
-3487.7163162388861
 10
-745.84004284357366
 20
-3487.7254231556026
 42
-0.005382192969673
 10
-745.73731668560049
 20
-3487.7428344413347
 10
-746.82692523439846
 20
-3491.0142271249056
 42
0.0108667757404028
 10
-746.92790083959676
 20
-3490.9944464520754
 10
-746.98410287437878
 20
-3490.984699838184
 42
0.0170663203307768
 10
-747.19892805475456
 20
-3490.954955442246
 10
-747.30074105377662
 20
-3490.9443846863651
 42
0.0220162375271289
 10
-747.72131016556182
 20
-3490.9193611452101
 10
-747.83809351613525
 20
-3490.9175620943106
 42
0.0282606915783309
 10
-748.34154800150452
 20
-3490.9382670097639
 10
-748.40741791215999
 20
-3490.9447169947694
 42
0.0169677213683062
 10
-748.77630465460152
 20
-3490.9935225690974
 42
0.0190576269871548
 10
-749.14066659847833
 20
-3491.0687428772585
 10
-749.15005538063781
 20
-3491.0710573384208
 42
0.0213685642843078
 10
-749.52563210735241
 20
-3491.1808577660772
 10
-749.53386694972869
 20
-3491.1836522601666
 42
0.0237595297594026
 10
-749.91410927707602
 20
-3491.3331790430097
 10
-749.92176238812124
 20
-3491.3366167062272
 42
0.026185746882453
 10
-750.30001855246996
 20
-3491.5309212122916
 10
-750.31565783609881
 20
-3491.5400194239928
 42
0.027255306201894
 10
-750.67030249895447
 20
-3491.773077732908
 10
-750.72244701921704
 20
-3491.8115694550452
 42
0.032599689317139
 10
-750.94768003469585
 20
-3492.0016912645033
 10
-750.98324417838489
 20
-3492.0359183072769
 42
0.0138050960635618
 10
-751.12106891269559
 20
-3492.1760927996002
 42
0.0125280103804195
 10
-751.25133271194795
 20
-3492.3233377895031
 10
-751.28685337930847
 20
-3492.3655755367818
 42
0.0205218024740499
 10
-751.47450349257792
 20
-3492.6082655081232
 10
-751.50820300330975
 20
-3492.6557551028654
 42
0.0163110129575193
 10
-751.74176857218401
 20
-3493.0087507554658
 10
-751.74585441626323
 20
-3493.0153863984488
 42
0.0131897341902189
 10
-751.96605519762136
 20
-3493.3950845369941
 10
-751.96860534067173
 20
-3493.3997618956987
 42
0.0107895576063597
 10
-752.17527039398522
 20
-3493.7990847101464
 10
-752.1763697282754
 20
-3493.8013260591215
 42
0.0091371507215107
 10
-752.36908965124826
 20
-3494.2131138557575
 10
-752.41370809836349
 20
-3494.3131736164987
 42
0.0135418326355042
 10
-752.67127900697267
 20
-3494.935580294406
 10
-752.72168621962294
 20
-3495.0673795078251
 42
0.0092834542408643
 10
-752.97852980950381
 20
-3495.7782272552822
 10
-753.01695550107888
 20
-3495.891088859968
 42
0.0054261043583436
 10
-753.17841272351961
 20
-3496.3827348195696
 10
-753.2047017028076
 20
-3496.4658170629837
 42
0.0008225090811953
 10
-753.30770678053091
 20
-3496.7932202001384
 10
-754.7847404784311
 20
-3501.3305571400233
 10
-749.93580471832024
 20
-3501.3305571400233
 10
-750.69209336310041
 20
-3504.1872745875521
 10
-755.57617778607528
 20
-3504.1872745875521
 10
-764.31990133460613
 20
-3532.4071091865594
 10
-767.05754775007154
 20
-3532.4071091865594
 10
-758.30553069682014
 20
-3504.1872745875521
 10
-761.91320525038077
 20
-3504.1872745875521
 10
-761.1569166056006
 20
-3501.3305571400233
 10
-757.51409338917551
 20
-3501.3305571400233
 10
-756.2238610118925
 20
-3497.3759376389753
 42
-0.0005863560647422
 10
-756.16875899461252
 20
-3497.2006980086171
 10
-756.05462724409676
 20
-3496.8392095594591
 42
-0.0087522378929683
 10
-755.75542502891278
 20
-3495.9462954287433
 10
-755.61702861578954
 20
-3495.5560851759656
 42
-0.007740095382763
 10
-755.23012812709453
 20
-3494.5165781596479
 10
-755.20648066972626
 20
-3494.4559318345691
 42
-0.0082369946332026
 10
-754.8358539638084
 20
-3493.549813235275
 42
-0.0085725238365144
 10
-754.43498481980339
 20
-3492.6566741763436
 10
-754.28254041829189
 20
-3492.3320425233651
 42
-0.0168109410592061
 10
-753.85212377519781
 20
-3491.4902312342101
 10
-753.66335868957231
 20
-3491.1497851848271
 42
-0.0007817726871163
 10
-753.5819321644243
 20
-3491.0034688171672
 10
-753.58173970539224
 20
-3491.0031242540517
 42
-0.0036626142159681
 10
-753.49940790936648
 20
-3490.8582274341097
 42
-0.0080221150693747
 10
-753.41372152626366
 20
-3490.7153085819928
 10
-753.36767159921465
 20
-3490.6412221582978
 42
-0.0202139325572506
 10
-753.17618798950468
 20
-3490.3592497572758
 10
-753.09508679172313
 20
-3490.2496314609143
 42
-0.0249323791800777
 10
-752.70634260114377
 20
-3489.7755635976823
 10
-752.67013287995394
 20
-3489.7356421883142
 42
-0.0242132121539958
 10
-752.16061176764038
 20
-3489.2258169590073
 10
-752.08874440851946
 20
-3489.1605532547323
 42
-0.0251017527858227
 10
-751.66277185755393
 20
-3488.8110641360818
 10
-751.66060364233931
 20
-3488.8094602497176
 42
-0.0130868069038788
 10
-751.21321266739733
 20
-3488.4962895468993
 10
-751.21086993868539
 20
-3488.4947393864882
 42
-0.0290329526388552
 10
-750.7442032265933
 20
-3488.2235011340426
 10
-750.699434883609
 20
-3488.2008475597804
 42
-0.0160250190044611
 10
-750.30057826296718
 20
-3488.0148233944637
 42
-0.0267600374789902
 10
-749.88766414677139
 20
-3487.8637009136428
 10
-749.84756026748278
 20
-3487.8514120754021
 42
-0.0049981587669026
 10
-749.76480054955232
 20
-3487.8269542749335
 42
-0.0049981587669026
  0
LWPOLYLINE
  5
5F
100
AcDbEntity
  8
0
370
              15
390
0
  6
Continuous
 62
               7
100
AcDbPolyline
 90
      118
 70
             128
 10
-720.04324920288195
 20
-3501.4415321317647
 10
-717.23056631613281
 20
-3501.4415321317647
 10
-718.48762467453253
 20
-3505.4638819213646
 42
-0.0010587229243537
 10
-718.44044095118352
 20
-3505.4085251213419
 10
-718.35314981522686
 20
-3505.3065517370678
 42
-0.0071874740405302
 10
-718.12758698807829
 20
-3505.0505906990225
 10
-717.91500282818629
 20
-3504.8162364870545
 42
-0.0148118053513976
 10
-717.23980888911922
 20
-3504.1148157180373
 10
-717.10897538677011
 20
-3503.9867197367603
 42
-0.0086273358689154
 10
-716.60565218525198
 20
-3503.51065628573
 10
-716.53990161092065
 20
-3503.4505818192374
 42
-0.0103138323117179
 10
-716.15286605756285
 20
-3503.1113371132233
 10
-716.08420444807405
 20
-3503.0536140423346
 42
-0.0060206748567928
 10
-715.82493235190384
 20
-3502.8409220662011
 10
-715.82188565558499
 20
-3502.8384835077622
 42
-0.0067069027301375
 10
-715.56344643358113
 20
-3502.6372575570617
 10
-715.55962328468672
 20
-3502.6343623022449
 42
-0.0076184352042501
 10
-715.3032653858852
 20
-3502.4462999893831
 42
-0.0089652861672794
 10
-715.04082394176714
 20
-3502.2668500988734
 10
-714.9862963615758
 20
-3502.2309832786664
 42
-0.015691624594148
 10
-714.69235711582587
 20
-3502.0505895489487
 42
-0.002329901106466
 10
-714.39196404985444
 20
-3501.8808226396359
 10
-714.36888785128633
 20
-3501.8679226470399
 42
-0.0107669341491191
 10
-714.01753261363376
 20
-3501.6813224470156
 10
-713.98413541202206
 20
-3501.6644973220909
 42
-0.0078058045900007
 10
-713.55875023507826
 20
-3501.4584551386265
 10
-713.54388960352924
 20
-3501.4515414468306
 42
-0.0181829330474567
 10
-713.0784254966029
 20
-3501.2552458351856
 10
-712.99734233275819
 20
-3501.2244731552723
 42
-0.0208411536031756
 10
-712.47371488158024
 20
-3501.0503374615319
 10
-712.45218073139006
 20
-3501.0441597941021
 42
-0.0222799817137236
 10
-711.95910104051313
 20
-3500.9261974448909
 10
-711.94576759565734
 20
-3500.9236294290131
 42
-0.0215509523879023
 10
-711.47106114323799
 20
-3500.853255896212
 10
-711.40733820166031
 20
-3500.8465996060254
 42
-0.0182545924870991
 10
-711.05617503270673
 20
-3500.8228338679392
 10
-710.99707350818733
 20
-3500.8209970503203
 42
-0.0072962856527038
 10
-710.76318918865127
 20
-3500.8171430575376
 10
-710.71953968283219
 20
-3500.817060804432
 42
-0.0059227516337704
 10
-710.57291543407575
 20
-3500.8185213721172
 10
-710.52905210778192
 20
-3500.8194780220242
 42
-0.001183311185588
 10
-710.47017518226926
 20
-3500.8209015284874
 10
-711.6632550756799
 20
-3504.6290024461359
 42
0.014393205150397
 10
-711.70285714920647
 20
-3504.6137039910677
 10
-711.71376510783182
 20
-3504.609847162782
 42
0.0234388603550311
 10
-711.77651140673299
 20
-3504.5909183092085
 10
-711.78953390109905
 20
-3504.5876468662018
 42
0.0199162742989158
 10
-711.87996715221925
 20
-3504.5687217631989
 10
-711.91118805892836
 20
-3504.5634759640561
 42
0.0293643550660191
 10
-712.06580034706678
 20
-3504.5467508955767
 10
-712.10282811814761
 20
-3504.5449334700488
 42
0.0214606686861906
 10
-712.33253949207244
 20
-3504.5435256294218
 10
-712.34659735830326
 20
-3504.5440429967384
 42
0.0167564054177351
 10
-712.60387764496738
 20
-3504.5621585602908
 10
-712.61656733410439
 20
-3504.5634805709315
 42
0.013767755324815
 10
-712.89759730400635
 20
-3504.6006045337476
 10
-712.90862491326311
 20
-3504.6023714136991
 42
0.0118497261488746
 10
-713.20937155942977
 20
-3504.6578974389854
 10
-713.21859657028597
 20
-3504.6598277330627
 42
0.0106421143886535
 10
-713.5349179012112
 20
-3504.7330762964239
 10
-713.54228111379723
 20
-3504.7349473104523
 42
0.0099746379696223
 10
-713.86996881754499
 20
-3504.8252091029258
 10
-713.96229087779625
 20
-3504.8526319208704
 42
0.0191613675857556
 10
-714.46626757157742
 20
-3505.0235979913036
 10
-714.59835723068375
 20
-3505.0741283567854
 42
0.0205274080138484
 10
-715.17631738853879
 20
-3505.3228709685272
 10
-715.26279131151284
 20
-3505.3643729153864
 42
0.0181256912197988
 10
-715.65020672251228
 20
-3505.5678986438525
 10
-715.72963979748931
 20
-3505.6133750636782
 42
0.0140709242416484
 10
-715.94707219942575
 20
-3505.7461170738261
 10
-715.98644550234212
 20
-3505.7717023018918
 42
0.0086667884388275
 10
-716.11983474466729
 20
-3505.8617063037236
 42
0.0036408192026964
 10
-716.25098460172637
 20
-3505.9549775904184
 10
-716.30382491342027
 20
-3505.9931390092811
 42
0.0052260781269041
 10
-716.53816795948921
 20
-3506.166137589219
 10
-716.56247824389629
 20
-3506.1844797551594
 42
0.0050024435893378
 10
-716.84148325848878
 20
-3506.399403607556
 10
-716.8644604932573
 20
-3506.4174726412216
 42
0.01361387102785
 10
-717.18012239574239
 20
-3506.6799223985895
 10
-717.23062420943563
 20
-3506.7242908576632
 42
0.017281518691512
 10
-717.62722952193099
 20
-3507.0977858666001
 10
-717.63107304069331
 20
-3507.1016645923191
 42
0.018940385799304
 10
-718.00694573856185
 20
-3507.5108724895249
 10
-718.05589297886331
 20
-3507.5683883867678
 42
0.0185044199500957
 10
-718.34382763733606
 20
-3507.9332612584553
 42
0.0088565243907611
 10
-718.61151779728948
 20
-3508.3135358886966
 10
-718.62528476675141
 20
-3508.3338479583203
 42
0.0157195347233856
 10
-718.90011567625243
 20
-3508.7681312722939
 10
-718.96924008915255
 20
-3508.8853595678315
 42
0.0095451879781604
 10
-719.2168684143553
 20
-3509.32425153136
 10
-719.23359029274798
 20
-3509.3552575395547
 42
0.010035170625292
 10
-719.43165591648881
 20
-3509.7408408802939
 42
0.008693591541362
 10
-719.61515264417949
 20
-3510.1335905984001
 10
-719.62013375630158
 20
-3510.1447540828585
 42
0.0072580174867731
 10
-719.80065343422166
 20
-3510.5656420702394
 10
-719.80554588417851
 20
-3510.5775221092599
 42
0.0060005122613061
 10
-719.98434688669215
 20
-3511.026936615167
 10
-719.98916335420483
 20
-3511.0394789070247
 42
0.004901778698156
 10
-720.16751359249304
 20
-3511.5178723779363
 10
-720.17226230207666
 20
-3511.5310017837764
 42
0.0039415167599537
 10
-720.35141671916415
 20
-3512.0388148774032
 10
-720.35611337314003
 20
-3512.0524696787106
 42
0.0031035838763064
 10
-720.53732055167768
 20
-3512.5901294713649
 10
-720.54198561847522
 20
-3512.6042604034333
 42
0.0025070747154784
 10
-720.72633764544867
 20
-3513.1722312288503
 10
-720.78227849008636
 20
-3513.3475687267287
 42
0.0029081910285503
 10
-721.07030593680156
 20
-3514.2688142141628
 10
-721.13151068957802
 20
-3514.4686490775803
 42
0.000926645373264
 10
-721.53413675104991
 20
-3515.7919857674651
 10
-721.56546795999907
 20
-3515.8956535862799
 42
-0.0005809993665472
 10
-721.98147298089782
 20
-3517.2663657462776
 10
-722.08089567831439
 20
-3517.5925931445404
 42
-0.0012018708173228
 10
-722.3013721424511
 20
-3518.309837141298
 10
-722.37985191978544
 20
-3518.562975852552
 42
-0.0002691059607424
 10
-722.44520614155226
 20
-3518.7733772831098
 10
-726.69463998898618
 20
-3532.4071091865594
 10
-729.42162332695398
 20
-3532.4071091865594
 10
-720.04324920288195
 20
-3501.4415321317647
  0
SPLINE
  5
60
100
AcDbEntity
  8
0
370
              15
390
0
  6
Continuous
 62
               7
100
AcDbSpline
210
0.0
220
0.0
230
1.0
 70
              13
 71
               2
 72
             782
 73
             779
 74
               0
 42
0.000001
 43
0.000001
 40
0.0
 40
0.0
 40
0.0
 40
1.0
 40
1.0
 40
2.0
 40
2.0
 40
3.0
 40
3.0
 40
4.0
 40
4.0
 40
5.0
 40
5.0
 40
6.0
 40
6.0
 40
7.0
 40
7.0
 40
8.0
 40
8.0
 40
9.0
 40
9.0
 40
10.0
 40
10.0
 40
11.0
 40
11.0
 40
12.0
 40
12.0
 40
13.0
 40
13.0
 40
14.0
 40
14.0
 40
15.0
 40
15.0
 40
16.0
 40
16.0
 40
17.0
 40
17.0
 40
18.0
 40
18.0
 40
19.0
 40
19.0
 40
20.0
 40
20.0
 40
21.0
 40
21.0
 40
22.0
 40
22.0
 40
23.0
 40
23.0
 40
24.0
 40
24.0
 40
25.0
 40
25.0
 40
26.0
 40
26.0
 40
27.0
 40
27.0
 40
28.0
 40
28.0
 40
29.0
 40
29.0
 40
30.0
 40
30.0
 40
31.0
 40
31.0
 40
32.0
 40
32.0
 40
33.0
 40
33.0
 40
34.0
 40
34.0
 40
35.0
 40
35.0
 40
36.0
 40
36.0
 40
37.0
 40
37.0
 40
38.0
 40
38.0
 40
39.0
 40
39.0
 40
40.0
 40
40.0
 40
41.0
 40
41.0
 40
42.0
 40
42.0
 40
43.0
 40
43.0
 40
44.0
 40
44.0
 40
45.0
 40
45.0
 40
46.0
 40
46.0
 40
47.0
 40
47.0
 40
48.0
 40
48.0
 40
49.0
 40
49.0
 40
50.0
 40
50.0
 40
51.0
 40
51.0
 40
52.0
 40
52.0
 40
53.0
 40
53.0
 40
54.0
 40
54.0
 40
55.0
 40
55.0
 40
56.0
 40
56.0
 40
57.0
 40
57.0
 40
58.0
 40
58.0
 40
59.0
 40
59.0
 40
60.0
 40
60.0
 40
61.0
 40
61.0
 40
62.0
 40
62.0
 40
63.0
 40
63.0
 40
64.0
 40
64.0
 40
65.0
 40
65.0
 40
66.0
 40
66.0
 40
67.0
 40
67.0
 40
68.0
 40
68.0
 40
69.0
 40
69.0
 40
70.0
 40
70.0
 40
71.0
 40
71.0
 40
72.0
 40
72.0
 40
73.0
 40
73.0
 40
74.0
 40
74.0
 40
75.0
 40
75.0
 40
76.0
 40
76.0
 40
77.0
 40
77.0
 40
78.0
 40
78.0
 40
79.0
 40
79.0
 40
80.0
 40
80.0
 40
81.0
 40
81.0
 40
82.0
 40
82.0
 40
83.0
 40
83.0
 40
84.0
 40
84.0
 40
85.0
 40
85.0
 40
86.0
 40
86.0
 40
87.0
 40
87.0
 40
88.0
 40
88.0
 40
89.0
 40
89.0
 40
90.0
 40
90.0
 40
91.0
 40
91.0
 40
92.0
 40
92.0
 40
93.0
 40
93.0
 40
94.0
 40
94.0
 40
95.0
 40
95.0
 40
96.0
 40
96.0
 40
97.0
 40
97.0
 40
98.0
 40
98.0
 40
99.0
 40
99.0
 40
100.0
 40
100.0
 40
101.0
 40
101.0
 40
102.0
 40
102.0
 40
103.0
 40
103.0
 40
104.0
 40
104.0
 40
105.0
 40
105.0
 40
106.0
 40
106.0
 40
107.0
 40
107.0
 40
108.0
 40
108.0
 40
109.0
 40
109.0
 40
110.0
 40
110.0
 40
111.0
 40
111.0
 40
112.0
 40
112.0
 40
113.0
 40
113.0
 40
114.0
 40
114.0
 40
115.0
 40
115.0
 40
116.0
 40
116.0
 40
117.0
 40
117.0
 40
118.0
 40
118.0
 40
119.0
 40
119.0
 40
120.0
 40
120.0
 40
121.0
 40
121.0
 40
122.0
 40
122.0
 40
123.0
 40
123.0
 40
124.0
 40
124.0
 40
125.0
 40
125.0
 40
126.0
 40
126.0
 40
127.0
 40
127.0
 40
128.0
 40
128.0
 40
129.0
 40
129.0
 40
130.0
 40
130.0
 40
131.0
 40
131.0
 40
132.0
 40
132.0
 40
133.0
 40
133.0
 40
134.0
 40
134.0
 40
135.0
 40
135.0
 40
136.0
 40
136.0
 40
137.0
 40
137.0
 40
138.0
 40
138.0
 40
139.0
 40
139.0
 40
140.0
 40
140.0
 40
141.0
 40
141.0
 40
142.0
 40
142.0
 40
143.0
 40
143.0
 40
144.0
 40
144.0
 40
145.0
 40
145.0
 40
146.0
 40
146.0
 40
147.0
 40
147.0
 40
148.0
 40
148.0
 40
149.0
 40
149.0
 40
150.0
 40
150.0
 40
151.0
 40
151.0
 40
152.0
 40
152.0
 40
153.0
 40
153.0
 40
154.0
 40
154.0
 40
155.0
 40
155.0
 40
156.0
 40
156.0
 40
157.0
 40
157.0
 40
158.0
 40
158.0
 40
159.0
 40
159.0
 40
160.0
 40
160.0
 40
161.0
 40
161.0
 40
162.0
 40
162.0
 40
163.0
 40
163.0
 40
164.0
 40
164.0
 40
165.0
 40
165.0
 40
166.0
 40
166.0
 40
167.0
 40
167.0
 40
168.0
 40
168.0
 40
169.0
 40
169.0
 40
170.0
 40
170.0
 40
171.0
 40
171.0
 40
172.0
 40
172.0
 40
173.0
 40
173.0
 40
174.0
 40
174.0
 40
175.0
 40
175.0
 40
176.0
 40
176.0
 40
177.0
 40
177.0
 40
178.0
 40
178.0
 40
179.0
 40
179.0
 40
180.0
 40
180.0
 40
181.0
 40
181.0
 40
182.0
 40
182.0
 40
183.0
 40
183.0
 40
184.0
 40
184.0
 40
185.0
 40
185.0
 40
186.0
 40
186.0
 40
187.0
 40
187.0
 40
188.0
 40
188.0
 40
189.0
 40
189.0
 40
190.0
 40
190.0
 40
191.0
 40
191.0
 40
192.0
 40
192.0
 40
193.0
 40
193.0
 40
194.0
 40
194.0
 40
195.0
 40
195.0
 40
196.0
 40
196.0
 40
197.0
 40
197.0
 40
198.0
 40
198.0
 40
199.0
 40
199.0
 40
200.0
 40
200.0
 40
201.0
 40
201.0
 40
202.0
 40
202.0
 40
203.0
 40
203.0
 40
204.0
 40
204.0
 40
205.0
 40
205.0
 40
206.0
 40
206.0
 40
207.0
 40
207.0
 40
208.0
 40
208.0
 40
209.0
 40
209.0
 40
210.0
 40
210.0
 40
211.0
 40
211.0
 40
212.0
 40
212.0
 40
213.0
 40
213.0
 40
214.0
 40
214.0
 40
215.0
 40
215.0
 40
216.0
 40
216.0
 40
217.0
 40
217.0
 40
218.0
 40
218.0
 40
219.0
 40
219.0
 40
220.0
 40
220.0
 40
221.0
 40
221.0
 40
222.0
 40
222.0
 40
223.0
 40
223.0
 40
224.0
 40
224.0
 40
225.0
 40
225.0
 40
226.0
 40
226.0
 40
227.0
 40
227.0
 40
228.0
 40
228.0
 40
229.0
 40
229.0
 40
230.0
 40
230.0
 40
231.0
 40
231.0
 40
232.0
 40
232.0
 40
233.0
 40
233.0
 40
234.0
 40
234.0
 40
235.0
 40
235.0
 40
236.0
 40
236.0
 40
237.0
 40
237.0
 40
238.0
 40
238.0
 40
239.0
 40
239.0
 40
240.0
 40
240.0
 40
241.0
 40
241.0
 40
242.0
 40
242.0
 40
243.0
 40
243.0
 40
244.0
 40
244.0
 40
245.0
 40
245.0
 40
246.0
 40
246.0
 40
247.0
 40
247.0
 40
248.0
 40
248.0
 40
249.0
 40
249.0
 40
250.0
 40
250.0
 40
251.0
 40
251.0
 40
252.0
 40
252.0
 40
253.0
 40
253.0
 40
254.0
 40
254.0
 40
255.0
 40
255.0
 40
256.0
 40
256.0
 40
257.0
 40
257.0
 40
258.0
 40
258.0
 40
259.0
 40
259.0
 40
260.0
 40
260.0
 40
261.0
 40
261.0
 40
262.0
 40
262.0
 40
263.0
 40
263.0
 40
264.0
 40
264.0
 40
265.0
 40
265.0
 40
266.0
 40
266.0
 40
267.0
 40
267.0
 40
268.0
 40
268.0
 40
269.0
 40
269.0
 40
270.0
 40
270.0
 40
271.0
 40
271.0
 40
272.0
 40
272.0
 40
273.0
 40
273.0
 40
274.0
 40
274.0
 40
275.0
 40
275.0
 40
276.0
 40
276.0
 40
277.0
 40
277.0
 40
278.0
 40
278.0
 40
279.0
 40
279.0
 40
280.0
 40
280.0
 40
281.0
 40
281.0
 40
282.0
 40
282.0
 40
283.0
 40
283.0
 40
284.0
 40
284.0
 40
285.0
 40
285.0
 40
286.0
 40
286.0
 40
287.0
 40
287.0
 40
288.0
 40
288.0
 40
289.0
 40
289.0
 40
290.0
 40
290.0
 40
291.0
 40
291.0
 40
292.0
 40
292.0
 40
293.0
 40
293.0
 40
294.0
 40
294.0
 40
295.0
 40
295.0
 40
296.0
 40
296.0
 40
297.0
 40
297.0
 40
298.0
 40
298.0
 40
299.0
 40
299.0
 40
300.0
 40
300.0
 40
301.0
 40
301.0
 40
302.0
 40
302.0
 40
303.0
 40
303.0
 40
304.0
 40
304.0
 40
305.0
 40
305.0
 40
306.0
 40
306.0
 40
307.0
 40
307.0
 40
308.0
 40
308.0
 40
309.0
 40
309.0
 40
310.0
 40
310.0
 40
311.0
 40
311.0
 40
312.0
 40
312.0
 40
313.0
 40
313.0
 40
314.0
 40
314.0
 40
315.0
 40
315.0
 40
316.0
 40
316.0
 40
317.0
 40
317.0
 40
318.0
 40
318.0
 40
319.0
 40
319.0
 40
320.0
 40
320.0
 40
321.0
 40
321.0
 40
322.0
 40
322.0
 40
323.0
 40
323.0
 40
324.0
 40
324.0
 40
325.0
 40
325.0
 40
326.0
 40
326.0
 40
327.0
 40
327.0
 40
328.0
 40
328.0
 40
329.0
 40
329.0
 40
330.0
 40
330.0
 40
331.0
 40
331.0
 40
332.0
 40
332.0
 40
333.0
 40
333.0
 40
334.0
 40
334.0
 40
335.0
 40
335.0
 40
336.0
 40
336.0
 40
337.0
 40
337.0
 40
338.0
 40
338.0
 40
339.0
 40
339.0
 40
340.0
 40
340.0
 40
341.0
 40
341.0
 40
342.0
 40
342.0
 40
343.0
 40
343.0
 40
344.0
 40
344.0
 40
345.0
 40
345.0
 40
346.0
 40
346.0
 40
347.0
 40
347.0
 40
348.0
 40
348.0
 40
349.0
 40
349.0
 40
350.0
 40
350.0
 40
351.0
 40
351.0
 40
352.0
 40
352.0
 40
353.0
 40
353.0
 40
354.0
 40
354.0
 40
355.0
 40
355.0
 40
356.0
 40
356.0
 40
357.0
 40
357.0
 40
358.0
 40
358.0
 40
359.0
 40
359.0
 40
360.0
 40
360.0
 40
361.0
 40
361.0
 40
362.0
 40
362.0
 40
363.0
 40
363.0
 40
364.0
 40
364.0
 40
365.0
 40
365.0
 40
366.0
 40
366.0
 40
367.0
 40
367.0
 40
368.0
 40
368.0
 40
369.0
 40
369.0
 40
370.0
 40
370.0
 40
371.0
 40
371.0
 40
372.0
 40
372.0
 40
373.0
 40
373.0
 40
374.0
 40
374.0
 40
375.0
 40
375.0
 40
376.0
 40
376.0
 40
377.0
 40
377.0
 40
378.0
 40
378.0
 40
379.0
 40
379.0
 40
380.0
 40
380.0
 40
381.0
 40
381.0
 40
382.0
 40
382.0
 40
383.0
 40
383.0
 40
384.0
 40
384.0
 40
385.0
 40
385.0
 40
386.0
 40
386.0
 40
387.0
 40
387.0
 40
388.0
 40
388.0
 40
389.0
 40
389.0
 40
389.0
 10
-704.55019252678312
 20
-3501.425142586721
 30
0.0
 41
1.0
 10
-703.32255636370235
 20
-3501.425142586721
 30
0.0
 41
1.0
 10
-702.09492020062157
 20
-3501.425142586721
 30
0.0
 41
1.0
 10
-702.71555080389669
 20
-3503.4390819830955
 30
0.0
 41
1.0
 10
-703.33618140717181
 20
-3505.4530213794701
 30
0.0
 41
1.0
 10
-703.30867216444904
 20
-3505.4099702201474
 30
0.0
 41
0.9999957264343549
 10
-703.28091166921229
 20
-3505.3670806449363
 30
0.0
 41
1.0
 10
-703.23526768298711
 20
-3505.2965613273427
 30
0.0
 41
1.0
 10
-703.18962369676206
 20
-3505.2260420097491
 30
0.0
 41
1.0
 10
-703.07057522910645
 20
-3505.0421137993985
 30
0.0
 41
0.9995394069080325
 10
-702.94058764177726
 20
-3504.8657467067851
 30
0.0
 41
1.0
 10
-702.88695234838451
 20
-3504.7929743678906
 30
0.0
 41
1.0
 10
-702.83331705499177
 20
-3504.720202028996
 30
0.0
 41
1.0
 10
-702.63272705326665
 20
-3504.4480416163083
 30
0.0
 41
0.9994460617142933
 10
-702.41447633133657
 20
-3504.1898280198366
 30
0.0
 41
1.0
 10
-702.40789405987289
 20
-3504.1820404992613
 30
0.0
 41
1.0
 10
-702.40131178840932
 20
-3504.1742529786861
 30
0.0
 41
1.0
 10
-702.19622560940354
 20
-3503.9316144233608
 30
0.0
 41
0.9994359394934524
 10
-701.97531426387752
 20
-3503.7032901216153
 30
0.0
 41
1.0
 10
-701.97173923294793
 20
-3503.699595126056
 30
0.0
 41
1.0
 10
-701.96816420201833
 20
-3503.6959001304967
 30
0.0
 41
1.0
 10
-701.75440291835184
 20
-3503.4749658198693
 30
0.0
 41
0.9995293688567785
 10
-701.52749539687704
 20
-3503.2675560016219
 30
0.0
 41
1.0
 10
-701.49855475798176
 20
-3503.241102173145
 30
0.0
 41
1.0
 10
-701.46961411908637
 20
-3503.2146483446677
 30
0.0
 41
1.0
 10
-701.30058787540213
 20
-3503.0601461833744
 30
0.0
 41
0.9997087614802617
 10
-701.12430354197136
 20
-3502.9139797621792
 30
0.0
 41
1.0
 10
-701.09555443220393
 20
-3502.8901423944139
 30
0.0
 41
1.0
 10
-701.06680532243649
 20
-3502.8663050266487
 30
0.0
 41
1.0
 10
-700.94801920853774
 20
-3502.7678133409813
 30
0.0
 41
0.9999595338696533
 10
-700.82748030225605
 20
-3502.6714747449996
 30
0.0
 41
1.0
 10
-700.70694139598038
 20
-3502.5751361490225
 30
0.0
 41
0.9999749417506503
 10
-700.58505059447839
 20
-3502.4805138181132
 30
0.0
 41
1.0
 10
-700.55357137519968
 20
-3502.4560768871333
 30
0.0
 41
1.0
 10
-700.52209215592097
 20
-3502.431639956154
 30
0.0
 41
1.0
 10
-700.39524032799625
 20
-3502.3331664414145
 30
0.0
 41
0.9999792037126637
 10
-700.26712892835451
 20
-3502.2363372689588
 30
0.0
 41
1.0
 10
-700.23589168945477
 20
-3502.2127275355479
 30
0.0
 41
1.0
 10
-700.20465445055493
 20
-3502.1891178021365
 30
0.0
 41
1.0
 10
-700.13901752864717
 20
-3502.1395080964535
 30
0.0
 41
0.9999993373874548
 10
-700.07349499948543
 20
-3502.0897474033573
 30
0.0
 41
1.0
 10
-700.00797247027799
 20
-3502.0399867102265
 30
0.0
 41
0.9999160953815802
 10
-699.94118285390095
 20
-3501.9919401124307
 30
0.0
 41
1.0
 10
-699.89195002276688
 20
-3501.9565233790499
 30
0.0
 41
1.0
 10
-699.8427171916328
 20
-3501.9211066456692
 30
0.0
 41
1.0
 10
-699.67746191299477
 20
-3501.8022265811169
 30
0.0
 41
0.9980964527231864
 10
-699.49882842274224
 20
-3501.7045953718316
 30
0.0
 41
1.0
 10
-699.44327951234959
 20
-3501.6742354024418
 30
0.0
 41
1.0
 10
-699.38773060195683
 20
-3501.643875433052
 30
0.0
 41
1.0
 10
-699.1187400820487
 20
-3501.496860057001
 30
0.0
 41
0.998457281057295
 10
-698.83510723251186
 20
-3501.3805766649821
 30
0.0
 41
1.0
 10
-698.8296378284183
 20
-3501.3783343264749
 30
0.0
 41
1.0
 10
-698.82416842432485
 20
-3501.3760919879683
 30
0.0
 41
1.0
 10
-698.55147438297377
 20
-3501.2642932729627
 30
0.0
 41
0.9987838528034203
 10
-698.26909539513451
 20
-3501.1798948127143
 30
0.0
 41
1.0
 10
-698.26273847134075
 20
-3501.17799483218
 30
0.0
 41
1.0
 10
-698.25638154754699
 20
-3501.1760948516462
 30
0.0
 41
1.0
 10
-697.9867164072997
 20
-3501.0954963524664
 30
0.0
 41
0.9990652816206906
 10
-697.71109750972187
 20
-3501.0384908331525
 30
0.0
 41
1.0
 10
-697.70331490817057
 20
-3501.036881178492
 30
0.0
 41
1.0
 10
-697.69553230661927
 20
-3501.0352715238314
 30
0.0
 41
1.0
 10
-697.43547861214392
 20
-3500.9814853138391
 30
0.0
 41
0.9992909934270566
 10
-697.17211496246068
 20
-3500.9474196651399
 30
0.0
 41
1.0
 10
-696.90875131277267
 20
-3500.9133540164398
 30
0.0
 41
0.9994553539447724
 10
-696.64371416313202
 20
-3500.8967350601306
 30
0.0
 41
1.0
 10
-696.59056255144151
 20
-3500.8934022280591
 30
0.0
 41
1.0
 10
-696.53741093975111
 20
-3500.8900693959872
 30
0.0
 41
1.0
 10
-696.28807228989444
 20
-3500.8744348023697
 30
0.0
 41
0.9990928098293133
 10
-696.03830760203857
 20
-3500.8800742642215
 30
0.0
 41
1.0
 10
-695.98046484913016
 20
-3500.8813803015209
 30
0.0
 41
1.0
 10
-695.92262209622186
 20
-3500.8826863388203
 30
0.0
 41
1.0
 10
-695.78854291418406
 20
-3500.8857137260729
 30
0.0
 41
0.999838208920606
 10
-695.65465939000524
 20
-3500.8935619158651
 30
0.0
 41
1.0
 10
-695.6540145306717
 20
-3500.8935997172184
 30
0.0
 41
1.0
 10
-695.65336967133806
 20
-3500.8936375185722
 30
0.0
 41
1.0
 10
-695.52077586582232
 20
-3500.9014101056578
 30
0.0
 41
0.9997558016758237
 10
-695.38865500002476
 20
-3500.9150338787072
 30
0.0
 41
1.0
 10
-695.3879407923821
 20
-3500.915107524931
 30
0.0
 41
1.0
 10
-695.38722658473955
 20
-3500.9151811711545
 30
0.0
 41
1.0
 10
-695.25653413422549
 20
-3500.9286576517566
 30
0.0
 41
0.9996565144181392
 10
-695.1267273542104
 20
-3500.9489636117905
 30
0.0
 41
1.0
 10
-695.12602846614743
 20
-3500.9490729403869
 30
0.0
 41
1.0
 10
-695.12532957808446
 20
-3500.9491822689833
 30
0.0
 41
1.0
 10
-694.99692057420066
 20
-3500.9692695718231
 30
0.0
 41
0.9995321806867015
 10
-694.86997995370541
 20
-3500.9971703044675
 30
0.0
 41
1.0
 10
-694.86939616184861
 20
-3500.997298618166
 30
0.0
 41
1.0
 10
-694.86881236999182
 20
-3500.9974269318645
 30
0.0
 41
1.0
 10
-694.74303933321426
 20
-3501.0250710371115
 30
0.0
 41
0.9993819199220424
 10
-694.6195195319192
 20
-3501.0614841120023
 30
0.0
 41
1.0
 10
-694.61916188167447
 20
-3501.0615895456658
 30
0.0
 41
1.0
 10
-694.61880423142975
 20
-3501.0616949793289
 30
0.0
 41
1.0
 10
-694.495999730628
 20
-3501.0978971868922
 30
0.0
 41
0.9992088568505613
 10
-694.37646095214245
 20
-3501.1437450405851
 30
0.0
 41
1.0
 10
-694.25693946582487
 20
-3501.1895844416845
 30
0.0
 41
0.9990226101773065
 10
-694.14193346096317
 20
-3501.2458005891067
 30
0.0
 41
1.0
 10
-694.02694474826797
 20
-3501.3020082839357
 30
0.0
 41
0.9988424273971921
 10
-693.91788930745304
 20
-3501.3690054468134
 30
0.0
 41
1.0
 10
-693.91748774488133
 20
-3501.3692521429234
 30
0.0
 41
1.0
 10
-693.9170861823095
 20
-3501.3694988390334
 30
0.0
 41
1.0
 10
-693.80722761635502
 20
-3501.436989394128
 30
0.0
 41
0.9986928844490761
 10
-693.70483331629077
 20
-3501.5153429955467
 30
0.0
 41
1.0
 10
-693.70396137795547
 20
-3501.5160102153895
 30
0.0
 41
1.0
 10
-693.70308943962016
 20
-3501.5166774352324
 30
0.0
 41
1.0
 10
-693.59895126288768
 20
-3501.5963654763354
 30
0.0
 41
0.9986007262278758
 10
-693.50381200823676
 20
-3501.6866066308762
 30
0.0
 41
1.0
 10
-693.50247038505108
 20
-3501.6878791826284
 30
0.0
 41
1.0
 10
-693.50112876186552
 20
-3501.6891517343811
 30
0.0
 41
1.0
 10
-693.4033062608454
 20
-3501.7819379924244
 30
0.0
 41
0.9985581491380597
 10
-693.31599484329251
 20
-3501.8846767278324
 30
0.0
 41
1.0
 10
-693.30210716289821
 20
-3501.901018264386
 30
0.0
 41
1.0
 10
-693.28821948250379
 20
-3501.9173598009393
 30
0.0
 41
1.0
 10
-693.17313270416355
 20
-3502.0527816094527
 30
0.0
 41
0.9970460233520671
 10
-693.08014485242313
 20
-3502.2042322357274
 30
0.0
 41
1.0
 10
-693.05844080480438
 20
-3502.2395819243484
 30
0.0
 41
1.0
 10
-693.03673675718562
 20
-3502.2749316129689
 30
0.0
 41
1.0
 10
-692.97713170716816
 20
-3502.3720111990151
 30
0.0
 41
0.9988468816636957
 10
-692.92711215104055
 20
-3502.4743598776568
 30
0.0
 41
1.0
 10
-692.9165581173047
 20
-3502.49595525936
 30
0.0
 41
1.0
 10
-692.90600408356875
 20
-3502.5175506410637
 30
0.0
 41
1.0
 10
-692.87709259491237
 20
-3502.5767085563002
 30
0.0
 41
0.9998431189998525
 10
-692.8502946036707
 20
-3502.6368533879595
 30
0.0
 41
1.0
 10
-692.82349661242142
 20
-3502.696998219636
 30
0.0
 41
0.9999989989709666
 10
-692.79652852727588
 20
-3502.7570669760403
 30
0.0
 41
1.0
 10
-692.78727005989424
 20
-3502.7776893012374
 30
0.0
 41
1.0
 10
-692.7780115925126
 20
-3502.7983116264345
 30
0.0
 41
1.0
 10
-692.73252657259479
 20
-3502.8996250332534
 30
0.0
 41
0.9998790356321435
 10
-692.69021475238526
 20
-3503.0023041611653
 30
0.0
 41
1.0
 10
-692.67996198046023
 20
-3503.0271848133029
 30
0.0
 41
1.0
 10
-692.66970920853521
 20
-3503.0520654654406
 30
0.0
 41
1.0
 10
-692.63437271496593
 20
-3503.1378173977664
 30
0.0
 41
0.9998227574561465
 10
-692.60228959238259
 20
-3503.2248388601806
 30
0.0
 41
1.0
 10
-692.57020646979902
 20
-3503.3118603225953
 30
0.0
 41
0.9996797971041675
 10
-692.54256704235945
 20
-3503.4003935012752
 30
0.0
 41
1.0
 10
-692.53671133827129
 20
-3503.419150188528
 30
0.0
 41
1.0
 10
-692.53085563418324
 20
-3503.4379068757808
 30
0.0
 41
1.0
 10
-692.49150479856837
 20
-3503.5639534289626
 30
0.0
 41
0.9979274938734605
 10
-692.4686680133492
 20
-3503.6940099669537
 30
0.0
 41
1.0
 10
-692.46533248245782
 20
-3503.7130059681831
 30
0.0
 41
1.0
 10
-692.46199695156656
 20
-3503.7320019694121
 30
0.0
 41
1.0
 10
-692.44560204201832
 20
-3503.8253717303501
 30
0.0
 41
0.9994985982136638
 10
-692.43514979425254
 20
-3503.9195919820668
 30
0.0
 41
1.0
 10
-692.42469754648664
 20
-3504.0138122337848
 30
0.0
 41
0.9996372611201567
 10
-692.41933374783525
 20
-3504.1084586018073
 30
0.0
 41
1.0
 10
-692.41908088160142
 20
-3504.1129205274283
 30
0.0
 41
1.0
 10
-692.41882801536758
 20
-3504.1173824530497
 30
0.0
 41
1.0
 10
-692.41295848424818
 20
-3504.2209526723168
 30
0.0
 41
0.9997730630736877
 10
-692.4115060140158
 20
-3504.3246789083719
 30
0.0
 41
1.0
 10
-692.41142035438861
 20
-3504.3307961770838
 30
0.0
 41
1.0
 10
-692.41133469476154
 20
-3504.3369134457957
 30
0.0
 41
1.0
 10
-692.40971090527478
 20
-3504.452874219267
 30
0.0
 41
0.9998772614068742
 10
-692.41172103537235
 20
-3504.5688289391005
 30
0.0
 41
1.0
 10
-692.41185493017065
 20
-3504.5765526848622
 30
0.0
 41
1.0
 10
-692.41198882496894
 20
-3504.584276430624
 30
0.0
 41
1.0
 10
-692.41426674466265
 20
-3504.715678641971
 30
0.0
 41
0.9999415567326893
 10
-692.41938521003181
 20
-3504.8470008844897
 30
0.0
 41
1.0
 10
-692.41974719104473
 20
-3504.8562880740947
 30
0.0
 41
1.0
 10
-692.42010917205778
 20
-3504.8655752637001
 30
0.0
 41
1.0
 10
-692.42595159945347
 20
-3505.0154718854378
 30
0.0
 41
0.9999716810428961
 10
-692.43404947413012
 20
-3505.1652635927617
 30
0.0
 41
1.0
 10
-692.43886867231356
 20
-3505.2544074672523
 30
0.0
 41
1.0
 10
-692.443687870497
 20
-3505.3435513417435
 30
0.0
 41
1.0
 10
-692.45579873422673
 20
-3505.5675739436729
 30
0.0
 41
0.9999819129888774
 10
-692.47060342165059
 20
-3505.7914346602283
 30
0.0
 41
1.0
 10
-692.48540810907548
 20
-3506.0152953767952
 30
0.0
 41
1.0
 10
-692.48906708992126
 20
-3506.0710849455691
 30
0.0
 41
1.0
 10
-692.45501973920341
 20
-3506.0129734496231
 30
0.0
 41
0.9999982128058805
 10
-692.42075290108733
 20
-3505.9549911087147
 30
0.0
 41
1.0
 10
-692.38038856123728
 20
-3505.8866912875937
 30
0.0
 41
1.0
 10
-692.34002422138724
 20
-3505.8183914664723
 30
0.0
 41
1.0
 10
-692.22502870359699
 20
-3505.6238094833657
 30
0.0
 41
0.9998609190055724
 10
-692.10360773430455
 20
-3505.4331709104717
 30
0.0
 41
1.0
 10
-692.05913525208462
 20
-3505.36334631104
 30
0.0
 41
1.0
 10
-692.01466276986457
 20
-3505.2935217116083
 30
0.0
 41
1.0
 10
-691.89125443950809
 20
-3505.0997628566142
 30
0.0
 41
0.9999067609733443
 10
-691.7626009253089
 20
-3504.9094463224474
 30
0.0
 41
1.0
 10
-691.75899387050526
 20
-3504.904110423362
 30
0.0
 41
1.0
 10
-691.75538681570163
 20
-3504.8987745242762
 30
0.0
 41
1.0
 10
-691.63394741110983
 20
-3504.7191297882814
 30
0.0
 41
0.9998784952150032
 10
-691.50696699659079
 20
-3504.5433579632227
 30
0.0
 41
1.0
 10
-691.37998658207005
 20
-3504.3675861381607
 30
0.0
 41
0.9998532968282925
 10
-691.2470601508378
 20
-3504.1962667754574
 30
0.0
 41
1.0
 10
-691.21711746734741
 20
-3504.1576757939224
 30
0.0
 41
1.0
 10
-691.18717478385713
 20
-3504.1190848123874
 30
0.0
 41
1.0
 10
-691.00944870922001
 20
-3503.8900263959367
 30
0.0
 41
0.9991551975795604
 10
-690.81351203478789
 20
-3503.6763370528151
 30
0.0
 41
1.0
 10
-690.80824761082044
 20
-3503.6705956503811
 30
0.0
 41
1.0
 10
-690.80298318685311
 20
-3503.664854247947
 30
0.0
 41
1.0
 10
-690.61757536035282
 20
-3503.4626477096904
 30
0.0
 41
0.9997418144180915
 10
-690.42317215080163
 20
-3503.2690735937713
 30
0.0
 41
1.0
 10
-690.22876894125125
 20
-3503.0754994778531
 30
0.0
 41
0.9989238204633365
 10
-690.01726511887477
 20
-3502.9007720347945
 30
0.0
 41
1.0
 10
-689.94939360166563
 20
-3502.8447020473818
 30
0.0
 41
1.0
 10
-689.88152208445661
 20
-3502.7886320599691
 30
0.0
 41
1.0
 10
-689.6711619986238
 20
-3502.6148494800323
 30
0.0
 41
0.9990825084096475
 10
-689.44670209971753
 20
-3502.4597059832822
 30
0.0
 41
1.0
 10
-689.4316340536293
 20
-3502.4492911636607
 30
0.0
 41
1.0
 10
-689.41656600754106
 20
-3502.4388763440397
 30
0.0
 41
1.0
 10
-689.22224220080591
 20
-3502.304562486529
 30
0.0
 41
0.999816489982673
 10
-689.02291589574713
 20
-3502.177791124258
 30
0.0
 41
1.0
 10
-689.00514755495828
 20
-3502.1664904744694
 30
0.0
 41
1.0
 10
-688.98737921416955
 20
-3502.1551898246812
 30
0.0
 41
1.0
 10
-688.82358959068347
 20
-3502.0510197619842
 30
0.0
 41
0.999747344913163
 10
-688.65528365480861
 20
-3501.9543163252602
 30
0.0
 41
1.0
 10
-688.48697771894274
 20
-3501.8576128885411
 30
0.0
 41
0.9999327861144864
 10
-688.3164748027956
 20
-3501.7648379010179
 30
0.0
 41
1.0
 10
-688.31564679895132
 20
-3501.7643873629977
 30
0.0
 41
1.0
 10
-688.31481879510716
 20
-3501.763936824977
 30
0.0
 41
1.0
 10
-688.14265987127294
 20
-3501.6702607614143
 30
0.0
 41
0.9996956420484295
 10
-687.96608988250807
 20
-3501.5851905609493
 30
0.0
 41
1.0
 10
-687.92042927517332
 20
-3501.5631915958566
 30
0.0
 41
1.0
 10
-687.87476866783845
 20
-3501.5411926307638
 30
0.0
 41
1.0
 10
-687.72030300772303
 20
-3501.4667721430988
 30
0.0
 41
0.9998070570177832
 10
-687.56303342431431
 20
-3501.3984762627488
 30
0.0
 41
1.0
 10
-687.40576384090434
 20
-3501.3301803823979
 30
0.0
 41
0.9997827436148141
 10
-687.24578443599114
 20
-3501.2684986254303
 30
0.0
 41
1.0
 10
-687.21695016154251
 20
-3501.2573812649812
 30
0.0
 41
1.0
 10
-687.18811588709389
 20
-3501.246263904532
 30
0.0
 41
1.0
 10
-686.97046793328389
 20
-3501.1623474266667
 30
0.0
 41
0.9988031841976763
 10
-686.74566238937484
 20
-3501.1000973304144
 30
0.0
 41
1.0
 10
-686.70828651683087
 20
-3501.0897477117041
 30
0.0
 41
1.0
 10
-686.67091064428701
 20
-3501.0793980929943
 30
0.0
 41
1.0
 10
-686.42000560581664
 20
-3501.0099208793845
 30
0.0
 41
0.9984748040550086
 10
-686.16297024284381
 20
-3500.9685295309873
 30
0.0
 41
1.0
 10
-686.1558615384721
 20
-3500.9673847902177
 30
0.0
 41
1.0
 10
-686.14875283410038
 20
-3500.9662400494476
 30
0.0
 41
1.0
 10
-685.90593487987178
 20
-3500.9271381825902
 30
0.0
 41
0.998443649547981
 10
-685.66027276428326
 20
-3500.9153212518622
 30
0.0
 41
1.0
 10
-685.62772695208639
 20
-3500.9137557210624
 30
0.0
 41
1.0
 10
-685.59518113988952
 20
-3500.9121901902631
 30
0.0
 41
1.0
 10
-685.41461064869645
 20
-3500.9035043211338
 30
0.0
 41
0.9987954789335066
 10
-685.2340582813315
 20
-3500.9125591127472
 30
0.0
 41
1.0
 10
-685.20411109258566
 20
-3500.9140609792553
 30
0.0
 41
1.0
 10
-685.17416390383994
 20
-3500.9155628457634
 30
0.0
 41
1.0
 10
-685.05350591396268
 20
-3500.921613904361
 30
0.0
 41
0.9997941595877717
 10
-684.93319274682506
 20
-3500.9325550032422
 30
0.0
 41
1.0
 10
-684.81287957968357
 20
-3500.9434961021238
 30
0.0
 41
0.9998589466235962
 10
-684.69300175940202
 20
-3500.9584718837987
 30
0.0
 41
1.0
 10
-684.64439245668905
 20
-3500.9645444191774
 30
0.0
 41
1.0
 10
-684.59578315397619
 20
-3500.9706169545566
 30
0.0
 41
1.0
 10
-684.37868672827187
 20
-3500.9977378069889
 30
0.0
 41
0.9993495063249095
 10
-684.16410986262599
 20
-3501.0404363716007
 30
0.0
 41
1.0
 10
-684.11470931689405
 20
-3501.0502665664235
 30
0.0
 41
1.0
 10
-684.06530877116211
 20
-3501.0600967612468
 30
0.0
 41
1.0
 10
-683.90136803635642
 20
-3501.0927192624499
 30
0.0
 41
0.9996788715560838
 10
-683.739290678423
 20
-3501.1336059614941
 30
0.0
 41
1.0
 10
-683.73619617461554
 20
-3501.1343866013531
 30
0.0
 41
1.0
 10
-683.73310167080797
 20
-3501.1351672412125
 30
0.0
 41
1.0
 10
-683.57721332048857
 20
-3501.1744926605384
 30
0.0
 41
0.999548065449153
 10
-683.42396996764433
 20
-3501.2231150954749
 30
0.0
 41
1.0
 10
-683.42143550445439
 20
-3501.2239192528446
 30
0.0
 41
1.0
 10
-683.41890104126446
 20
-3501.2247234102142
 30
0.0
 41
1.0
 10
-683.27072661480338
 20
-3501.2717375304105
 30
0.0
 41
0.9993867959456985
 10
-683.12620587713639
 20
-3501.3290065843466
 30
0.0
 41
1.0
 10
-683.12434145350812
 20
-3501.3297453971913
 30
0.0
 41
1.0
 10
-683.12247702987986
 20
-3501.330484210036
 30
0.0
 41
1.0
 10
-682.98168513947303
 20
-3501.3862756382809
 30
0.0
 41
0.9992050256521908
 10
-682.84578562692252
 20
-3501.4531064871389
 30
0.0
 41
1.0
 10
-682.84468360285166
 20
-3501.4536484258315
 30
0.0
 41
1.0
 10
-682.8435815787808
 20
-3501.4541903645236
 30
0.0
 41
1.0
 10
-682.70988611436974
 20
-3501.5199373359992
 30
0.0
 41
0.9990222350743465
 10
-682.58252102228187
 20
-3501.5972372375445
 30
0.0
 41
1.0
 10
-682.5822451943593
 20
-3501.5974046419005
 30
0.0
 41
1.0
 10
-682.58196936643662
 20
-3501.597572046257
 30
0.0
 41
1.0
 10
-682.45515593019229
 20
-3501.6745371390912
 30
0.0
 41
0.9988642743804939
 10
-682.33624412826293
 20
-3501.7632234203802
 30
0.0
 41
1.0
 10
-682.21733232633505
 20
-3501.8519097016674
 30
0.0
 41
0.9987681233310297
 10
-682.10779664992151
 20
-3501.9519457387682
 30
0.0
 41
1.0
 10
-682.10730325797226
 20
-3501.95239634059
 30
0.0
 41
1.0
 10
-682.1068098660229
 20
-3501.9528469424117
 30
0.0
 41
1.0
 10
-681.9962874057095
 20
-3502.0537841831574
 30
0.0
 41
0.9987496570899399
 10
-681.89639669771782
 20
-3502.1652534042883
 30
0.0
 41
1.0
 10
-681.89523844307837
 20
-3502.1665459143237
 30
0.0
 41
1.0
 10
-681.89408018843903
 20
-3502.1678384243592
 30
0.0
 41
1.0
 10
-681.79187297116516
 20
-3502.2818926655655
 30
0.0
 41
0.9988147669827967
 10
-681.70123958982663
 20
-3502.4053441758301
 30
0.0
 41
1.0
 10
-681.69956060071149
 20
-3502.4076311228573
 30
0.0
 41
1.0
 10
-681.69788161159624
 20
-3502.409918069884
 30
0.0
 41
1.0
 10
-681.60389025202596
 20
-3502.5379434742049
 30
0.0
 41
0.9989452636215828
 10
-681.52203988258339
 20
-3502.6740515079427
 30
0.0
 41
1.0
 10
-681.52001679345494
 20
-3502.6774156794818
 30
0.0
 41
1.0
 10
-681.51799370432661
 20
-3502.6807798510208
 30
0.0
 41
1.0
 10
-681.43209715662761
 20
-3502.8236162278354
 30
0.0
 41
0.9991046436070159
 10
-681.35858333664669
 20
-3502.9732028773706
 30
0.0
 41
1.0
 10
-681.35638754426088
 20
-3502.9776708974809
 30
0.0
 41
1.0
 10
-681.35419175187508
 20
-3502.9821389175913
 30
0.0
 41
1.0
 10
-681.27628634712232
 20
-3503.1406616073477
 30
0.0
 41
0.9992763831101541
 10
-681.21065665428932
 20
-3503.3046477002822
 30
0.0
 41
1.0
 10
-681.2084377497946
 20
-3503.3101919815817
 30
0.0
 41
1.0
 10
-681.20621884529987
 20
-3503.3157362628817
 30
0.0
 41
1.0
 10
-681.13615134347913
 20
-3503.4908109184103
 30
0.0
 41
0.9994163472882998
 10
-681.07820179669488
 20
-3503.6702613011053
 30
0.0
 41
1.0
 10
-681.07634456832159
 20
-3503.6760125167893
 30
0.0
 41
1.0
 10
-681.07448733994829
 20
-3503.6817637324734
 30
0.0
 41
1.0
 10
-681.01466199842378
 20
-3503.8670228246888
 30
0.0
 41
0.9997268055891208
 10
-680.96355991455857
 20
-3504.0548753726043
 30
0.0
 41
1.0
 10
-680.96216464415465
 20
-3504.0600044217663
 30
0.0
 41
1.0
 10
-680.96076937375074
 20
-3504.0651334709278
 30
0.0
 41
1.0
 10
-680.91245783069166
 20
-3504.242727920524
 30
0.0
 41
0.9996701318999808
 10
-680.87332940553483
 20
-3504.4225688504257
 30
0.0
 41
1.0
 10
-680.83420098037902
 20
-3504.6024097803197
 30
0.0
 41
0.9995785451108754
 10
-680.80557561436967
 20
-3504.7842184218666
 30
0.0
 41
1.0
 10
-680.79924594110901
 20
-3504.8244201540147
 30
0.0
 41
1.0
 10
-680.79291626784834
 20
-3504.8646218861622
 30
0.0
 41
1.0
 10
-680.75305380394036
 20
-3505.1178008467182
 30
0.0
 41
0.9979925101216759
 10
-680.74551542505094
 20
-3505.3739878388551
 30
0.0
 41
1.0
 10
-680.74427820641392
 20
-3505.4160339240771
 30
0.0
 41
1.0
 10
-680.74304098777691
 20
-3505.4580800092995
 30
0.0
 41
1.0
 10
-680.73797704616118
 20
-3505.6301748309888
 30
0.0
 41
0.9995314902262992
 10
-680.74345233436918
 20
-3505.8022570566209
 30
0.0
 41
1.0
 10
-680.74892762257718
 20
-3505.9743392822506
 30
0.0
 41
0.9996245486944965
 10
-680.76382126527324
 20
-3506.145863188935
 30
0.0
 41
1.0
 10
-680.76406583726452
 20
-3506.1486798231376
 30
0.0
 41
1.0
 10
-680.76431040925593
 20
-3506.1514964573403
 30
0.0
 41
1.0
 10
-680.7796931959349
 20
-3506.3286536324326
 30
0.0
 41
0.999728609500056
 10
-680.80331118129209
 20
-3506.5049019957746
 30
0.0
 41
1.0
 10
-680.80390142026761
 20
-3506.5093066328272
 30
0.0
 41
1.0
 10
-680.80449165924313
 20
-3506.5137112698799
 30
0.0
 41
1.0
 10
-680.8292901225517
 20
-3506.6987689073294
 30
0.0
 41
0.9998265533970814
 10
-680.86096331064982
 20
-3506.8827746195075
 30
0.0
 41
1.0
 10
-680.86197812385581
 20
-3506.8886701872702
 30
0.0
 41
1.0
 10
-680.86299293706179
 20
-3506.894565755033
 30
0.0
 41
1.0
 10
-680.89669575157234
 20
-3507.0903626027384
 30
0.0
 41
0.9999022530852079
 10
-680.93585994848672
 20
-3507.2851405556935
 30
0.0
 41
1.0
 10
-680.9373279102349
 20
-3507.2924412692755
 30
0.0
 41
1.0
 10
-680.93879587198319
 20
-3507.2997419828571
 30
0.0
 41
1.0
 10
-680.98089599239336
 20
-3507.509121362973
 30
0.0
 41
0.9999524761938424
 10
-681.02707044564681
 20
-3507.7176401027259
 30
0.0
 41
1.0
 10
-681.02898460640972
 20
-3507.7262842416785
 30
0.0
 41
1.0
 10
-681.03089876717274
 20
-3507.7349283806311
 30
0.0
 41
1.0
 10
-681.08090154195384
 20
-3507.9607353982947
 30
0.0
 41
0.9999813588726064
 10
-681.13365804314594
 20
-3508.1859149672728
 30
0.0
 41
1.0
 10
-681.1359889313303
 20
-3508.195863852904
 30
0.0
 41
1.0
 10
-681.13831981951455
 20
-3508.2058127385358
 30
0.0
 41
1.0
 10
-681.19573809707822
 20
-3508.4508900787887
 30
0.0
 41
0.9999955237663515
 10
-681.25462191405143
 20
-3508.6956194342079
 30
0.0
 41
1.0
 10
-681.2730443675016
 20
-3508.7721857199867
 30
0.0
 41
1.0
 10
-681.29146682095188
 20
-3508.8487520057656
 30
0.0
 41
1.0
 10
-681.3871955448318
 20
-3509.2466139327689
 30
0.0
 41
0.9999993604663565
 10
-681.48382396558316
 20
-3509.6442583087933
 30
0.0
 41
1.0
 10
-681.49090221890094
 20
-3509.6733866708428
 30
0.0
 41
1.0
 10
-681.49798047221873
 20
-3509.7025150328918
 30
0.0
 41
1.0
 10
-681.60876539960918
 20
-3510.1584161330293
 30
0.0
 41
0.9999659914723454
 10
-681.72705479343995
 20
-3510.6124279528794
 30
0.0
 41
1.0
 10
-681.73448382683455
 20
-3510.640941658648
 30
0.0
 41
1.0
 10
-681.74191286022926
 20
-3510.6694553644165
 30
0.0
 41
1.0
 10
-681.87506032084752
 20
-3511.1804945957965
 30
0.0
 41
0.9999441976027792
 10
-682.01897487029476
 20
-3511.6886067337514
 30
0.0
 41
1.0
 10
-682.04402564793202
 20
-3511.7770523025392
 30
0.0
 41
1.0
 10
-682.06907642556928
 20
-3511.8654978713266
 30
0.0
 41
1.0
 10
-682.26309253029331
 20
-3512.5505011468645
 30
0.0
 41
0.9999625120743846
 10
-682.46894168127619
 20
-3513.2320419478519
 30
0.0
 41
1.0
 10
-682.52262659590053
 20
-3513.409785987792
 30
0.0
 41
1.0
 10
-682.57631151052487
 20
-3513.5875300277326
 30
0.0
 41
1.0
 10
-682.68809181658537
 20
-3513.9576206448833
 30
0.0
 41
0.9999793386311432
 10
-682.80462085129307
 20
-3514.3262436037407
 30
0.0
 41
1.0
 10
-682.92114988599951
 20
-3514.6948665625951
 30
0.0
 41
1.0
 10
-682.93731922430561
 20
-3514.7458934191568
 30
0.0
 41
1.0
 10
-685.71287880420925
 20
-3523.5765013028581
 30
0.0
 41
1.0
 10
-688.4884383841129
 20
-3532.4071091865594
 30
0.0
 41
1.0
 10
-689.93032341914829
 20
-3532.4071091865594
 30
0.0
 41
1.0
 10
-691.37220845418369
 20
-3532.4071091865594
 30
0.0
 41
1.0
 10
-688.94379128616606
 20
-3524.6850664338754
 30
0.0
 41
1.0
 10
-686.51537411814843
 20
-3516.9630236811909
 30
0.0
 41
1.0
 10
-686.4476253833891
 20
-3516.7469768477931
 30
0.0
 41
1.0
 10
-686.37987664862987
 20
-3516.5309300143954
 30
0.0
 41
1.0
 10
-686.12442002258194
 20
-3515.7162934706403
 30
0.0
 41
0.9999911657888808
 10
-685.87582080506093
 20
-3514.8995381735922
 30
0.0
 41
1.0
 10
-685.83127688980949
 20
-3514.7531922635135
 30
0.0
 41
1.0
 10
-685.78673297455794
 20
-3514.6068463534352
 30
0.0
 41
1.0
 10
-685.62722158754207
 20
-3514.0827828765505
 30
0.0
 41
0.9999952428137392
 10
-685.47094620355324
 20
-3513.5577453400219
 30
0.0
 41
1.0
 10
-685.4633569980557
 20
-3513.5322479286133
 30
0.0
 41
1.0
 10
-685.45576779255816
 20
-3513.5067505172042
 30
0.0
 41
1.0
 10
-685.31467081956464
 20
-3513.0327078034934
 30
0.0
 41
0.99999316875286
 10
-685.17708206275529
 20
-3512.5576349835919
 30
0.0
 41
1.0
 10
-685.16967916606677
 20
-3512.5320739196877
 30
0.0
 41
1.0
 10
-685.16227626937814
 20
-3512.5065128557835
 30
0.0
 41
1.0
 10
-685.03949330593832
 20
-3512.0825621636645
 30
0.0
 41
0.9999893840787859
 10
-684.92062246625949
 20
-3511.6574979698166
 30
0.0
 41
1.0
 10
-684.80175162657372
 20
-3511.2324337759455
 30
0.0
 41
0.9999833980059789
 10
-684.68778726546418
 20
-3510.806027901413
 30
0.0
 41
1.0
 10
-684.6742813603787
 20
-3510.7554945836882
 30
0.0
 41
1.0
 10
-684.66077545529333
 20
-3510.704961265963
 30
0.0
 41
1.0
 10
-684.55732863199523
 20
-3510.3179075175235
 30
0.0
 41
0.9999233658065396
 10
-684.4634961751641
 20
-3509.9284112794371
 30
0.0
 41
1.0
 10
-684.36966371833364
 20
-3509.5389150413534
 30
0.0
 41
1.0
 10
-684.31043859004728
 20
-3509.2932050447143
 30
0.0
 41
1.0
 10
-684.30297068408163
 20
-3509.2622226019093
 30
0.0
 41
1.0
 10
-684.29550277811586
 20
-3509.2312401591048
 30
0.0
 41
1.0
 10
-684.25121346176024
 20
-3509.0474950480716
 30
0.0
 41
0.9999868670835552
 10
-684.20880983576671
 20
-3508.8633056296067
 30
0.0
 41
1.0
 10
-684.20296360502903
 20
-3508.8379112484763
 30
0.0
 41
1.0
 10
-684.19711737429145
 20
-3508.8125168673464
 30
0.0
 41
1.0
 10
-684.16640620977432
 20
-3508.6791162111458
 30
0.0
 41
0.9999778173349426
 10
-684.13747481259929
 20
-3508.5453182852925
 30
0.0
 41
1.0
 10
-684.10854341542574
 20
-3508.4115203594465
 30
0.0
 41
0.99996026928631
 10
-684.08200187747821
 20
-3508.2772279267988
 30
0.0
 41
1.0
 10
-684.07719612936262
 20
-3508.2529122444748
 30
0.0
 41
1.0
 10
-684.07239038124703
 20
-3508.2285965621504
 30
0.0
 41
1.0
 10
-684.03623734706832
 20
-3508.0456727648548
 30
0.0
 41
0.999561798532122
 10
-684.01097232624011
 20
-3507.8609301432971
 30
0.0
 41
1.0
 10
-684.00727559138056
 20
-3507.8338989172471
 30
0.0
 41
1.0
 10
-684.00357885652102
 20
-3507.8068676911967
 30
0.0
 41
1.0
 10
-683.97315396494878
 20
-3507.5843951166462
 30
0.0
 41
0.999112141063957
 10
-683.96156593456635
 20
-3507.3601509684368
 30
0.0
 41
1.0
 10
-683.9601877495295
 20
-3507.3334812135722
 30
0.0
 41
1.0
 10
-683.95880956449264
 20
-3507.3068114587077
 30
0.0
 41
1.0
 10
-683.94997790418381
 20
-3507.1359068202264
 30
0.0
 41
0.998979249490512
 10
-683.95660654235996
 20
-3506.9649025663803
 30
0.0
 41
1.0
 10
-683.95757850016275
 20
-3506.9398281974918
 30
0.0
 41
1.0
 10
-683.95855045796566
 20
-3506.9147538286038
 30
0.0
 41
1.0
 10
-683.96323518053589
 20
-3506.7938983125346
 30
0.0
 41
0.9997820295393823
 10
-683.97296117659948
 20
-3506.6733437299163
 30
0.0
 41
1.0
 10
-683.98268717266274
 20
-3506.552789147303
 30
0.0
 41
0.999833510597381
 10
-683.99680546593061
 20
-3506.4326697226247
 30
0.0
 41
1.0
 10
-683.99919785294514
 20
-3506.4123151269005
 30
0.0
 41
1.0
 10
-684.00159023995957
 20
-3506.3919605311762
 30
0.0
 41
1.0
 10
-684.02049330725617
 20
-3506.2311319150544
 30
0.0
 41
0.9996876457879272
 10
-684.0474091764537
 20
-3506.0714487734781
 30
0.0
 41
1.0
 10
-684.05075667117183
 20
-3506.0515891706145
 30
0.0
 41
1.0
 10
-684.05410416588995
 20
-3506.0317295677505
 30
0.0
 41
1.0
 10
-684.07479789802221
 20
-3505.90896035181
 30
0.0
 41
0.9995547496494958
 10
-684.10277788086012
 20
-3505.7876441060284
 30
0.0
 41
1.0
 10
-684.10333881616759
 20
-3505.785211989968
 30
0.0
 41
1.0
 10
-684.10389975147507
 20
-3505.7827798739072
 30
0.0
 41
1.0
 10
-684.13075786369916
 20
-3505.6663278602414
 30
0.0
 41
0.9994899427175324
 10
-684.16499522671802
 20
-3505.5518279359903
 30
0.0
 41
1.0
 10
-684.16568301682901
 20
-3505.5495277613081
 30
0.0
 41
1.0
 10
-684.16637080693988
 20
-3505.5472275866259
 30
0.0
 41
1.0
 10
-684.19923258973643
 20
-3505.4373280117411
 30
0.0
 41
0.9993784877591451
 10
-684.23975604239695
 20
-3505.3300169539998
 30
0.0
 41
1.0
 10
-684.24055357886186
 20
-3505.3279049799203
 30
0.0
 41
1.0
 10
-684.24135111532678
 20
-3505.3257930058408
 30
0.0
 41
1.0
 10
-684.28027949505645
 20
-3505.2227058962631
 30
0.0
 41
0.999243083225521
 10
-684.32710429779593
 20
-3505.1229571681588
 30
0.0
 41
1.0
 10
-684.3279774718817
 20
-3505.1210970854809
 30
0.0
 41
1.0
 10
-684.32885064596735
 20
-3505.1192370028034
 30
0.0
 41
1.0
 10
-684.37392910053518
 20
-3505.0232084400568
 30
0.0
 41
0.9990789632799841
 10
-684.42707504069995
 20
-3504.9313985224321
 30
0.0
 41
1.0
 10
-684.42796859997065
 20
-3504.9298548936472
 30
0.0
 41
1.0
 10
-684.42886215924136
 20
-3504.9283112648623
 30
0.0
 41
1.0
 10
-684.48022098086381
 20
-3504.8395886048093
 30
0.0
 41
0.9988874801120488
 10
-684.53970989491313
 20
-3504.7560990361808
 30
0.0
 41
1.0
 10
-684.54054318401074
 20
-3504.7549295586668
 30
0.0
 41
1.0
 10
-684.54137647310836
 20
-3504.7537600811534
 30
0.0
 41
1.0
 10
-684.59919880896177
 20
-3504.6726094675537
 30
0.0
 41
0.9986762060693176
 10
-684.66505251587546
 20
-3504.5978288958954
 30
0.0
 41
1.0
 10
-684.66571845637372
 20
-3504.5970726831706
 30
0.0
 41
1.0
 10
-684.66638439687199
 20
-3504.5963164704458
 30
0.0
 41
1.0
 10
-684.73090622278937
 20
-3504.5230483242367
 30
0.0
 41
0.9984621642487165
 10
-684.80314255795633
 20
-3504.4573733735297
 30
0.0
 41
1.0
 10
-684.80351250973138
 20
-3504.4570370252841
 30
0.0
 41
1.0
 10
-684.80388246150642
 20
-3504.456700677039
 30
0.0
 41
1.0
 10
-684.87537889312262
 20
-3504.3916984228235
 30
0.0
 41
0.9982724693851656
 10
-684.9540068408852
 20
-3504.3355318970466
 30
0.0
 41
1.0
 10
-685.03263478864801
 20
-3504.2793653712697
 30
0.0
 41
0.9981399180156869
 10
-685.11751388373784
 20
-3504.2331855921052
 30
0.0
 41
1.0
 10
-685.11758237685535
 20
-3504.2331483273692
 30
0.0
 41
1.0
 10
-685.11765086997286
 20
-3504.2331110626337
 30
0.0
 41
1.0
 10
-685.20266695129749
 20
-3504.1868567539973
 30
0.0
 41
0.9980927086836893
 10
-685.2927349778962
 20
-3504.1514315407189
 30
0.0
 41
1.0
 10
-685.29339523246449
 20
-3504.1511718519059
 30
0.0
 41
1.0
 10
-685.29405548703289
 20
-3504.1509121630934
 30
0.0
 41
1.0
 10
-685.38544402276864
 20
-3504.114967572189
 30
0.0
 41
0.9981411356561474
 10
-685.48052680486842
 20
-3504.0904086099304
 30
0.0
 41
1.0
 10
-685.48184997991962
 20
-3504.0900668466224
 30
0.0
 41
1.0
 10
-685.48317315497093
 20
-3504.0897250833145
 30
0.0
 41
1.0
 10
-685.58090228717481
 20
-3504.0644825944396
 30
0.0
 41
0.9983031812934713
 10
-685.68090343066717
 20
-3504.0507735526753
 30
0.0
 41
1.0
 10
-685.69420996877147
 20
-3504.0489493746682
 30
0.0
 41
1.0
 10
-685.70751650687578
 20
-3504.0471251966615
 30
0.0
 41
1.0
 10
-685.7890409706331
 20
-3504.0359491016748
 30
0.0
 41
0.9983887708262895
 10
-685.87130674457353
 20
-3504.0340820912252
 30
0.0
 41
1.0
 10
-685.88340185239508
 20
-3504.0338075944128
 30
0.0
 41
1.0
 10
-685.89549696021675
 20
-3504.0335330976009
 30
0.0
 41
1.0
 10
-685.95357251850817
 20
-3504.0322150807751
 30
0.0
 41
0.9998869563078678
 10
-686.01166144831677
 20
-3504.0326438848147
 30
0.0
 41
1.0
 10
-686.06975037810003
 20
-3504.0330726888542
 30
0.0
 41
0.9999972320119853
 10
-686.12783664689732
 20
-3504.0337748381471
 30
0.0
 41
1.0
 10
-686.15686617178721
 20
-3504.0341257482814
 30
0.0
 41
1.0
 10
-686.18589569667699
 20
-3504.0344766584158
 30
0.0
 41
1.0
 10
-686.30204101523259
 20
-3504.0358806279773
 30
0.0
 41
0.9997304945087063
 10
-686.41799597458805
 20
-3504.0426742686564
 30
0.0
 41
1.0
 10
-686.43157043714518
 20
-3504.0434695776412
 30
0.0
 41
1.0
 10
-686.44514489970231
 20
-3504.0442648866265
 30
0.0
 41
1.0
 10
-686.58824878416874
 20
-3504.0526491452752
 30
0.0
 41
0.9997888306414838
 10
-686.73088728792857
 20
-3504.0669065920083
 30
0.0
 41
1.0
 10
-686.74396888029105
 20
-3504.0682141639568
 30
0.0
 41
1.0
 10
-686.75705047265365
 20
-3504.0695217359053
 30
0.0
 41
1.0
 10
-686.92585216113741
 20
-3504.0863943265354
 30
0.0
 41
0.9984170238191016
 10
-687.09169088216515
 20
-3504.1221184494393
 30
0.0
 41
1.0
 10
-687.14626257864313
 20
-3504.1338740031483
 30
0.0
 41
1.0
 10
-687.20083427512111
 20
-3504.1456295568573
 30
0.0
 41
1.0
 10
-687.37362087775375
 20
-3504.1828503566217
 30
0.0
 41
0.9976592854198892
 10
-687.53971312736178
 20
-3504.2432983723425
 30
0.0
 41
1.0
 10
-687.70580537696458
 20
-3504.3037463880614
 30
0.0
 41
0.9993255074352376
 10
-687.86701307514704
 20
-3504.376221735798
 30
0.0
 41
1.0
 10
-687.87395084353625
 20
-3504.3793408000993
 30
0.0
 41
1.0
 10
-687.88088861192534
 20
-3504.382459864401
 30
0.0
 41
1.0
 10
-688.05597184688281
 20
-3504.4611733407396
 30
0.0
 41
0.9976475078274855
 10
-688.21864286334903
 20
-3504.5630953252276
 30
0.0
 41
1.0
 10
-688.24615645454855
 20
-3504.5803340434477
 30
0.0
 41
1.0
 10
-688.27367004574808
 20
-3504.5975727616678
 30
0.0
 41
1.0
 10
-688.39997333307701
 20
-3504.6767084428207
 30
0.0
 41
0.9995131336406451
 10
-688.52109490551584
 20
-3504.7635677607523
 30
0.0
 41
1.0
 10
-688.64221647795637
 20
-3504.8504270786852
 30
0.0
 41
0.9995810107606358
 10
-688.75810894955384
 20
-3504.9441496023883
 30
0.0
 41
1.0
 10
-688.76256399636463
 20
-3504.9477524095814
 30
0.0
 41
1.0
 10
-688.76701904317531
 20
-3504.9513552167746
 30
0.0
 41
1.0
 10
-688.89182160839368
 20
-3505.052283354863
 30
0.0
 41
0.9996617837954829
 10
-689.01120763909228
 20
-3505.1595640381984
 30
0.0
 41
1.0
 10
-689.02940376541437
 20
-3505.1759151376905
 30
0.0
 41
1.0
 10
-689.04759989173658
 20
-3505.1922662371826
 30
0.0
 41
1.0
 10
-689.15001318283009
 20
-3505.2842951603898
 30
0.0
 41
0.9997267750052236
 10
-689.24801344525451
 20
-3505.3810099651769
 30
0.0
 41
1.0
 10
-689.34601370767609
 20
-3505.4777247699612
 30
0.0
 41
0.9999667288958145
 10
-689.44242312240647
 20
-3505.5760254803131
 30
0.0
 41
1.0
 10
-689.545664294066
 20
-3505.6812919684471
 30
0.0
 41
1.0
 10
-689.64890546572542
 20
-3505.7865584565811
 30
0.0
 41
1.0
 10
-689.95179722377111
 20
-3506.0953921431978
 30
0.0
 41
0.9988205335174869
 10
-690.2233056492405
 20
-3506.4321484912889
 30
0.0
 41
1.0
 10
-690.26926559659728
 20
-3506.4891533669334
 30
0.0
 41
1.0
 10
-690.31522554395394
 20
-3506.5461582425778
 30
0.0
 41
1.0
 10
-690.67865386413712
 20
-3506.9969243419587
 30
0.0
 41
0.9997077826755659
 10
-691.01987079079424
 20
-3507.4647290332819
 30
0.0
 41
1.0
 10
-691.02245591349038
 20
-3507.468273208352
 30
0.0
 41
1.0
 10
-691.02504103618651
 20
-3507.4718173834217
 30
0.0
 41
1.0
 10
-691.37142820823465
 20
-3507.9467104248838
 30
0.0
 41
0.9989147567079173
 10
-691.6721234625611
 20
-3508.4517746166625
 30
0.0
 41
1.0
 10
-691.70923518052143
 20
-3508.5141094874907
 30
0.0
 41
1.0
 10
-691.74634689848176
 20
-3508.5764443583193
 30
0.0
 41
1.0
 10
-691.9791638464385
 20
-3508.9674964349997
 30
0.0
 41
0.9997476598181149
 10
-692.19418132770238
 20
-3509.3686110578728
 30
0.0
 41
1.0
 10
-692.40919880896649
 20
-3509.7697256807451
 30
0.0
 41
0.9996258967109167
 10
-692.60196118686349
 20
-3510.1819975856806
 30
0.0
 41
1.0
 10
-692.62176105103913
 20
-3510.2243446858265
 30
0.0
 41
1.0
 10
-692.64156091521477
 20
-3510.2666917859724
 30
0.0
 41
1.0
 10
-692.85187399671349
 20
-3510.7165003828995
 30
0.0
 41
0.9998735413945427
 10
-693.04777601679393
 20
-3511.1727697821007
 30
0.0
 41
1.0
 10
-693.05294025888452
 20
-3511.1847976602976
 30
0.0
 41
1.0
 10
-693.05810450097511
 20
-3511.1968255384941
 30
0.0
 41
1.0
 10
-693.24367803687176
 20
-3511.6290391812963
 30
0.0
 41
0.9999377418861503
 10
-693.41956024013655
 20
-3512.065286382815
 30
0.0
 41
1.0
 10
-693.595442443401
 20
-3512.5015335843327
 30
0.0
 41
0.9999508299503321
 10
-693.76263835846271
 20
-3512.9411830995541
 30
0.0
 41
1.0
 10
-693.76725951145772
 20
-3512.9533346385033
 30
0.0
 41
1.0
 10
-693.77188066445274
 20
-3512.9654861774525
 30
0.0
 41
1.0
 10
-693.94831888551107
 20
-3513.4294387705881
 30
0.0
 41
0.9999609228430357
 10
-694.11652678981909
 20
-3513.8964382946046
 30
0.0
 41
1.0
 10
-694.12096080534263
 20
-3513.9087485552163
 30
0.0
 41
1.0
 10
-694.12539482086618
 20
-3513.9210588158276
 30
0.0
 41
1.0
 10
-694.30247075622856
 20
-3514.412678861087
 30
0.0
 41
0.9999674607409678
 10
-694.47159204533125
 20
-3514.9070917910803
 30
0.0
 41
1.0
 10
-694.54868963117246
 20
-3515.1324805846107
 30
0.0
 41
1.0
 10
-694.62578721701357
 20
-3515.357869378141
 30
0.0
 41
1.0
 10
-694.79980312714997
 20
-3515.8665913518953
 30
0.0
 41
0.9999287532304155
 10
-694.96162523310875
 20
-3516.379322460366
 30
0.0
 41
1.0
 10
-695.03134111733482
 20
-3516.6002162769773
 30
0.0
 41
1.0
 10
-695.10105700156089
 20
-3516.8211100935887
 30
0.0
 41
1.0
 10
-695.12344733910868
 20
-3516.8920535689685
 30
0.0
 41
0.9999998225170672
 10
-695.1457531021606
 20
-3516.9630236811909
 30
0.0
 41
1.0
 10
-697.57673730735371
 20
-3524.6850664338754
 30
0.0
 41
1.0
 10
-700.00772151254682
 20
-3532.4071091865594
 30
0.0
 41
1.0
 10
-701.36568417838328
 20
-3532.4071091865594
 30
0.0
 41
1.0
 10
-702.72364684421973
 20
-3532.4071091865594
 30
0.0
 41
1.0
 10
-699.94552022714061
 20
-3523.5765013028581
 30
0.0
 41
1.0
 10
-697.16739361006148
 20
-3514.7458934191568
 30
0.0
 41
1.0
 10
-697.15221097260746
 20
-3514.6978285989821
 30
0.0
 41
1.0
 10
-697.04329946933285
 20
-3514.3523792862434
 30
0.0
 41
1.0
 10
-696.93438796605869
 20
-3514.006929973506
 30
0.0
 41
0.9999825681977191
 10
-696.82956340724104
 20
-3513.6602186309069
 30
0.0
 41
1.0
 10
-696.75712681400046
 20
-3513.4206317556655
 30
0.0
 41
1.0
 10
-696.68469022075999
 20
-3513.1810448804235
 30
0.0
 41
1.0
 10
-696.53896169078348
 20
-3512.6990420477568
 30
0.0
 41
0.9999672528969458
 10
-696.40105348234965
 20
-3512.2147437293825
 30
0.0
 41
1.0
 10
-696.39687015684558
 20
-3512.2000529612997
 30
0.0
 41
1.0
 10
-696.39268683134151
 20
-3512.1853621932169
 30
0.0
 41
1.0
 10
-696.26314527391378
 20
-3511.7304454109999
 30
0.0
 41
0.9999899749156548
 10
-696.1376828596126
 20
-3511.2743867783238
 30
0.0
 41
1.0
 10
-696.12252398108558
 20
-3511.2192839218033
 30
0.0
 41
1.0
 10
-696.10736510255856
 20
-3511.1641810652832
 30
0.0
 41
1.0
 10
-696.01222044531085
 20
-3510.8183281456459
 30
0.0
 41
0.9999214200504881
 10
-695.925776302744
 20
-3510.4701986323316
 30
0.0
 41
1.0
 10
-695.90662752447361
 20
-3510.3930823042392
 30
0.0
 41
1.0
 10
-695.88747874620321
 20
-3510.3159659761468
 30
0.0
 41
1.0
 10
-695.83933216017863
 20
-3510.1220691190224
 30
0.0
 41
0.9999828681656792
 10
-695.79345878218419
 20
-3509.9276219073163
 30
0.0
 41
1.0
 10
-695.74758540419111
 20
-3509.7331746956161
 30
0.0
 41
0.9999389844476517
 10
-695.7060189210074
 20
-3509.5377615117654
 30
0.0
 41
1.0
 10
-695.69531230542702
 20
-3509.487427356009
 30
0.0
 41
1.0
 10
-695.68460568984665
 20
-3509.437093200253
 30
0.0
 41
1.0
 10
-695.6216259755023
 20
-3509.1410117048904
 30
0.0
 41
0.9998933699442734
 10
-695.56731957889906
 20
-3508.843217293253
 30
0.0
 41
1.0
 10
-695.56526034107446
 20
-3508.8319252622077
 30
0.0
 41
1.0
 10
-695.56320110324987
 20
-3508.8206332311629
 30
0.0
 41
1.0
 10
-695.50477623099721
 20
-3508.500254757434
 30
0.0
 41
0.9996850305193449
 10
-695.4625007166095
 20
-3508.1773482492822
 30
0.0
 41
1.0
 10
-695.45950816655557
 20
-3508.1544907180992
 30
0.0
 41
1.0
 10
-695.45651561650163
 20
-3508.1316331869161
 30
0.0
 41
1.0
 10
-695.41540382281335
 20
-3507.8176153461864
 30
0.0
 41
0.9994697936707133
 10
-695.39481698398333
 20
-3507.5015875531863
 30
0.0
 41
1.0
 10
-695.39410138010885
 20
-3507.4906023448693
 30
0.0
 41
1.0
 10
-695.39338577623425
 20
-3507.479617136552
 30
0.0
 41
1.0
 10
-695.37423014515343
 20
-3507.1855597601866
 30
0.0
 41
0.9991804893136334
 10
-695.37892261956313
 20
-3506.8909164852303
 30
0.0
 41
1.0
 10
-695.37904843779631
 20
-3506.88301628311
 30
0.0
 41
1.0
 10
-695.3791742560295
 20
-3506.8751160809898
 30
0.0
 41
1.0
 10
-695.38361509397214
 20
-3506.596273210268
 30
0.0
 41
0.998844832932115
 10
-695.41480241240799
 20
-3506.31914432552
 30
0.0
 41
1.0
 10
-695.41719352296263
 20
-3506.2978970418631
 30
0.0
 41
1.0
 10
-695.41958463351716
 20
-3506.2766497582061
 30
0.0
 41
1.0
 10
-695.44598973084362
 20
-3506.0420154407698
 30
0.0
 41
0.9985503209458443
 10
-695.49746413929302
 20
-3505.811579164636
 30
0.0
 41
1.0
 10
-695.50884312740016
 20
-3505.7606386735342
 30
0.0
 41
1.0
 10
-695.52022211550729
 20
-3505.7096981824325
 30
0.0
 41
1.0
 10
-695.54893854774321
 20
-3505.5811428884995
 30
0.0
 41
0.9991036781370496
 10
-695.5884258402192
 20
-3505.4554772575143
 30
0.0
 41
1.0
 10
-695.59439917840132
 20
-3505.4364675137545
 30
0.0
 41
1.0
 10
-695.60037251658343
 20
-3505.4174577699946
 30
0.0
 41
1.0
 10
-695.62791313269656
 20
-3505.3298116265255
 30
0.0
 41
0.9998874504369454
 10
-695.65807094421359
 20
-3505.2430312231918
 30
0.0
 41
1.0
 10
-695.6882287557313
 20
-3505.1562508198572
 30
0.0
 41
0.9994041637544485
 10
-695.72430167513403
 20
-3505.0717577640189
 30
0.0
 41
1.0
 10
-695.73059685146927
 20
-3505.0570126672974
 30
0.0
 41
1.0
 10
-695.73689202780463
 20
-3505.0422675705763
 30
0.0
 41
1.0
 10
-695.77871027429717
 20
-3504.9443173216246
 30
0.0
 41
0.9991846840702597
 10
-695.82829480933606
 20
-3504.8500602747054
 30
0.0
 41
1.0
 10
-695.829999718929
 20
-3504.846819350023
 30
0.0
 41
1.0
 10
-695.83170462852183
 20
-3504.8435784253402
 30
0.0
 41
1.0
 10
-695.87787934437608
 20
-3504.7558032277843
 30
0.0
 41
0.9989253167923006
 10
-695.93198348045814
 20
-3504.6726808351996
 30
0.0
 41
1.0
 10
-695.93356466747059
 20
-3504.6702515930547
 30
0.0
 41
1.0
 10
-695.93514585448293
 20
-3504.6678223509093
 30
0.0
 41
1.0
 10
-695.98608761654077
 20
-3504.5895584426135
 30
0.0
 41
0.9986467172835001
 10
-696.04488334549671
 20
-3504.5170093921702
 30
0.0
 41
1.0
 10
-696.04619453854684
 20
-3504.5153914887542
 30
0.0
 41
1.0
 10
-696.04750573159708
 20
-3504.5137735853377
 30
0.0
 41
1.0
 10
-696.10367907445186
 20
-3504.4444603417273
 30
0.0
 41
0.9984001104269495
 10
-696.16731917022855
 20
-3504.3819326806724
 30
0.0
 41
1.0
 10
-696.16819987739154
 20
-3504.3810673683515
 30
0.0
 41
1.0
 10
-696.16908058455465
 20
-3504.3802020560306
 30
0.0
 41
1.0
 10
-696.23095926600263
 20
-3504.3194050196207
 30
0.0
 41
0.998244215908126
 10
-696.2995934180077
 20
-3504.2663521777295
 30
0.0
 41
1.0
 10
-696.29991561120028
 20
-3504.2661031287644
 30
0.0
 41
1.0
 10
-696.30023780439296
 20
-3504.2658540797997
 30
0.0
 41
1.0
 10
-696.36822757001119
 20
-3504.2132993358391
 30
0.0
 41
0.9982450060836762
 10
-696.44195403861886
 20
-3504.1691516612887
 30
0.0
 41
1.0
 10
-696.51568050722642
 20
-3504.1250039867382
 30
0.0
 41
0.998392263963481
 10
-696.59392996647478
 20
-3504.0894845347566
 30
0.0
 41
1.0
 10
-696.59427028246091
 20
-3504.0893300565349
 30
0.0
 41
1.0
 10
-696.59461059844716
 20
-3504.0891755783127
 30
0.0
 41
1.0
 10
-696.67354068966597
 20
-3504.0533471698882
 30
0.0
 41
0.9986517147149621
 10
-696.75576014896774
 20
-3504.0258954912056
 30
0.0
 41
1.0
 10
-696.75677703111046
 20
-3504.0255559715579
 30
0.0
 41
1.0
 10
-696.75779391325318
 20
-3504.0252164519106
 30
0.0
 41
1.0
 10
-696.84204713683937
 20
-3503.9970857339335
 30
0.0
 41
0.9989435598956538
 10
-696.92852721756719
 20
-3503.9768091805813
 30
0.0
 41
1.0
 10
-696.93014739693899
 20
-3503.9764293052021
 30
0.0
 41
1.0
 10
-696.93176757631079
 20
-3503.9760494298225
 30
0.0
 41
1.0
 10
-697.02148801578437
 20
-3503.9550131257115
 30
0.0
 41
0.9992249241240588
 10
-697.11258527913242
 20
-3503.9411001116387
 30
0.0
 41
1.0
 10
-697.11470581156732
 20
-3503.9407762490273
 30
0.0
 41
1.0
 10
-697.11682634400211
 20
-3503.9404523864155
 30
0.0
 41
1.0
 10
-697.21216467221927
 20
-3503.9258916471194
 30
0.0
 41
0.9994396597833727
 10
-697.30826357702233
 20
-3503.9177422636008
 30
0.0
 41
1.0
 10
-697.33697457824132
 20
-3503.915307512023
 30
0.0
 41
1.0
 10
-697.36568557946021
 20
-3503.9128727604448
 30
0.0
 41
1.0
 10
-697.51920648670284
 20
-3503.8998538737696
 30
0.0
 41
0.9987693403120515
 10
-697.67326192208736
 20
-3503.9021084689493
 30
0.0
 41
1.0
 10
-697.68864342342749
 20
-3503.9023335766105
 30
0.0
 41
1.0
 10
-697.70402492476774
 20
-3503.9025586842722
 30
0.0
 41
1.0
 10
-697.86835857403287
 20
-3503.9049637007029
 30
0.0
 41
0.9989753644965198
 10
-698.03180157405438
 20
-3503.9222182110907
 30
0.0
 41
1.0
 10
-698.19524457407795
 20
-3503.9394727214785
 30
0.0
 41
0.9983190067305909
 10
-698.3555927905237
 20
-3503.9755252091581
 30
0.0
 41
1.0
 10
-698.36894421793522
 20
-3503.9785271270025
 30
0.0
 41
1.0
 10
-698.38229564534674
 20
-3503.9815290448469
 30
0.0
 41
1.0
 10
-698.56934671661531
 20
-3504.0235853682148
 30
0.0
 41
0.998553938830159
 10
-698.75080134713278
 20
-3504.0854808822842
 30
0.0
 41
1.0
 10
-698.75431949357255
 20
-3504.0866809480076
 30
0.0
 41
1.0
 10
-698.75783764001233
 20
-3504.087881013731
 30
0.0
 41
1.0
 10
-698.94632856340968
 20
-3504.1521766592468
 30
0.0
 41
0.9988468746493691
 10
-699.12778407686017
 20
-3504.2342537868403
 30
0.0
 41
1.0
 10
-699.13255830984338
 20
-3504.2364132986804
 30
0.0
 41
1.0
 10
-699.13733254282658
 20
-3504.2385728105201
 30
0.0
 41
1.0
 10
-699.32833652224122
 20
-3504.3249689617924
 30
0.0
 41
0.9991322885919036
 10
-699.51148739832558
 20
-3504.4269619600645
 30
0.0
 41
1.0
 10
-699.53789041489176
 20
-3504.4416652630498
 30
0.0
 41
1.0
 10
-699.56429343145794
 20
-3504.4563685660346
 30
0.0
 41
1.0
 10
-699.7175584530446
 20
-3504.5417187397061
 30
0.0
 41
0.9993860037849269
 10
-699.86446995915605
 20
-3504.6375927630897
 30
0.0
 41
1.0
 10
-699.87289742843382
 20
-3504.6430925051318
 30
0.0
 41
1.0
 10
-699.88132489771158
 20
-3504.6485922471734
 30
0.0
 41
1.0
 10
-700.01138146526534
 20
-3504.733466786472
 30
0.0
 41
0.9998821494952231
 10
-700.13877102898539
 20
-3504.8222941315876
 30
0.0
 41
1.0
 10
-700.26616059270646
 20
-3504.911121476704
 30
0.0
 41
0.999797648274478
 10
-700.38987403831152
 20
-3505.0050010887662
 30
0.0
 41
1.0
 10
-700.41182843551815
 20
-3505.0216611234355
 30
0.0
 41
1.0
 10
-700.43378283272477
 20
-3505.0383211581047
 30
0.0
 41
1.0
 10
-700.60140507275207
 20
-3505.1655208395123
 30
0.0
 41
0.9998091630800516
 10
-700.76393048979628
 20
-3505.299171365567
 30
0.0
 41
1.0
 10
-700.78343911850732
 20
-3505.3152140162319
 30
0.0
 41
1.0
 10
-700.80294774721835
 20
-3505.3312566668969
 30
0.0
 41
1.0
 10
-701.00449042169282
 20
-3505.496992494288
 30
0.0
 41
0.9995035112317093
 10
-701.19519423833776
 20
-3505.6750932198102
 30
0.0
 41
1.0
 10
-701.20966520391687
 20
-3505.6886078390453
 30
0.0
 41
1.0
 10
-701.22413616949598
 20
-3505.7021224582804
 30
0.0
 41
1.0
 10
-701.4092707636446
 20
-3505.875022015915
 30
0.0
 41
0.9994630424298842
 10
-701.58268337232266
 20
-3506.0596761307697
 30
0.0
 41
1.0
 10
-701.58820763048084
 20
-3506.0655585000404
 30
0.0
 41
1.0
 10
-701.5937318886389
 20
-3506.0714408693107
 30
0.0
 41
1.0
 10
-701.75609598099709
 20
-3506.2443302456209
 30
0.0
 41
0.9995160693750199
 10
-701.90739502529652
 20
-3506.4269813724313
 30
0.0
 41
1.0
 10
-701.9102956054154
 20
-3506.4304830087408
 30
0.0
 41
1.0
 10
-701.91319618553428
 20
-3506.4339846450503
 30
0.0
 41
1.0
 10
-702.05869406959505
 20
-3506.6096324992413
 30
0.0
 41
0.9996561470514512
 10
-702.19478339759314
 20
-3506.7926666429139
 30
0.0
 41
1.0
 10
-702.20401989644529
 20
-3506.8050893264763
 30
0.0
 41
1.0
 10
-702.21325639529732
 20
-3506.8175120100386
 30
0.0
 41
1.0
 10
-702.33087272559032
 20
-3506.9757007865855
 30
0.0
 41
0.9998349055172872
 10
-702.44266364849034
 20
-3507.1380586620826
 30
0.0
 41
1.0
 10
-702.55445457137466
 20
-3507.3004165375573
 30
0.0
 41
0.9999728109568613
 10
-702.66383891523822
 20
-3507.464405425887
 30
0.0
 41
1.0
 10
-702.66581173836369
 20
-3507.4673630801526
 30
0.0
 41
1.0
 10
-702.66778456148916
 20
-3507.4703207344182
 30
0.0
 41
1.0
 10
-702.78111455160638
 20
-3507.6402249312841
 30
0.0
 41
0.9999972147351338
 10
-702.89364126720056
 20
-3507.8106621955881
 30
0.0
 41
1.0
 10
-702.90109858110918
 20
-3507.8219573282586
 30
0.0
 41
1.0
 10
-702.90855589501768
 20
-3507.8332524609295
 30
0.0
 41
1.0
 10
-703.03599723844991
 20
-3508.0262799906059
 30
0.0
 41
0.9999371979004698
 10
-703.15908026255772
 20
-3508.222115361275
 30
0.0
 41
1.0
 10
-703.16434358909805
 20
-3508.2304897533686
 30
0.0
 41
1.0
 10
-703.16960691563838
 20
-3508.2388641454627
 30
0.0
 41
1.0
 10
-703.30321659283265
 20
-3508.4514483003272
 30
0.0
 41
0.999827202560938
 10
-703.42883167915465
 20
-3508.6688521154397
 30
0.0
 41
1.0
 10
-703.45165443719054
 20
-3508.7083517871242
 30
0.0
 41
1.0
 10
-703.47447719522643
 20
-3508.7478514588092
 30
0.0
 41
1.0
 10
-703.64573779762236
 20
-3509.044254617294
 30
0.0
 41
0.9995217214837801
 10
-703.79834733195469
 20
-3509.350678109085
 30
0.0
 41
1.0
 10
-703.80981267590778
 20
-3509.3736992836402
 30
0.0
 41
1.0
 10
-703.82127801986076
 20
-3509.3967204581959
 30
0.0
 41
1.0
 10
-703.95163595874612
 20
-3509.658465145319
 30
0.0
 41
0.999826976260849
 10
-704.07216765815281
 20
-3509.9248775754018
 30
0.0
 41
1.0
 10
-704.19269935756176
 20
-3510.1912900054881
 30
0.0
 41
0.9998944747388591
 10
-704.30544054940935
 20
-3510.4610915939343
 30
0.0
 41
1.0
 10
-704.31287105379511
 20
-3510.4788735763077
 30
0.0
 41
1.0
 10
-704.32030155818086
 20
-3510.4966555586816
 30
0.0
 41
1.0
 10
-704.44127214901232
 20
-3510.7861509687145
 30
0.0
 41
0.99995067344106
 10
-704.55646844236639
 20
-3511.0779921759959
 30
0.0
 41
1.0
 10
-704.57836839027141
 20
-3511.1334740587017
 30
0.0
 41
1.0
 10
-704.60026833817653
 20
-3511.1889559414071
 30
0.0
 41
1.0
 10
-704.67166473572854
 20
-3511.3698333832981
 30
0.0
 41
0.9999912393921779
 10
-704.74154440175562
 20
-3511.5513021873239
 30
0.0
 41
1.0
 10
-704.81142406778906
 20
-3511.732770991367
 30
0.0
 41
0.9999927113965387
 10
-704.87991600937903
 20
-3511.9147681026161
 30
0.0
 41
1.0
 10
-704.9008686564764
 20
-3511.9704435756166
 30
0.0
 41
1.0
 10
-704.92182130357389
 20
-3512.0261190486176
 30
0.0
 41
1.0
 10
-705.03221853935861
 20
-3512.3194671058682
 30
0.0
 41
0.9999487550949553
 10
-705.13665397681564
 20
-3512.614990153641
 30
0.0
 41
1.0
 10
-705.17204439172258
 20
-3512.7151351190846
 30
0.0
 41
1.0
 10
-705.20743480662952
 20
-3512.8152800845282
 30
0.0
 41
1.0
 10
-705.34946325818021
 20
-3513.2171808367507
 30
0.0
 41
0.9999808436938726
 10
-705.4865056411445
 20
-3513.6208089836537
 30
0.0
 41
1.0
 10
-705.62354802411164
 20
-3514.0244371305644
 30
0.0
 41
0.9999873932903454
 10
-705.75653008718575
 20
-3514.4294211630763
 30
0.0
 41
1.0
 10
-705.78666862248883
 20
-3514.5212051622029
 30
0.0
 41
1.0
 10
-705.81680715779191
 20
-3514.6129891613291
 30
0.0
 41
1.0
 10
-706.0100662914823
 20
-3515.2015411921234
 30
0.0
 41
0.9999794883041695
 10
-706.19577046891675
 20
-3515.7925205015326
 30
0.0
 41
1.0
 10
-706.21249885807492
 20
-3515.8457564168939
 30
0.0
 41
1.0
 10
-706.22922724723298
 20
-3515.8989923322556
 30
0.0
 41
1.0
 10
-706.44306449308897
 20
-3516.5795014604169
 30
0.0
 41
0.999998276181548
 10
-706.65437315309555
 20
-3517.2607999935494
 30
0.0
 41
1.0
 10
-709.03658365195452
 20
-3524.8339545900544
 30
0.0
 41
1.0
 10
-711.41879415081348
 20
-3532.4071091865594
 30
0.0
 41
1.0
 10
-712.841920068028
 20
-3532.4071091865594
 30
0.0
 41
1.0
 10
-714.26504598524252
 20
-3532.4071091865594
 30
0.0
 41
1.0
 10
-709.40761925601282
 20
-3516.9161258866402
 30
0.0
 41
1.0
 10
-704.55019252678312
 20
-3501.425142586721
 30
0.0
 41
1.0
  0
LWPOLYLINE
  5
61
100
AcDbEntity
  8
0
370
              15
390
0
  6
Continuous
 62
               7
100
AcDbPolyline
 90
      232
 70
             128
 10
-743.10551118752369
 20
-3503.0516568339935
 42
0.0004370800703865
 10
-743.18482694868248
 20
-3503.154656792944
 10
-743.2437532953229
 20
-3503.2313174622232
 42
0.0030481992182591
 10
-743.43926137100993
 20
-3503.4889000007502
 10
-743.49702887862725
 20
-3503.5659801764214
 42
0.0042058245755404
 10
-743.80300645462933
 20
-3503.9814887940283
 10
-743.88161413838304
 20
-3504.0901380642031
 42
0.0120948898742572
 10
-744.32568001353081
 20
-3504.7362624710354
 10
-744.46996876220737
 20
-3504.9574835738626
 42
0.0141601263948764
 10
-744.92543483259101
 20
-3505.7009875789668
 10
-744.98474073372893
 20
-3505.8042535301129
 42
0.0071131081300852
 10
-745.2926492185876
 20
-3506.3585077283715
 42
0.0068458791005424
 10
-745.58496850884865
 20
-3506.9211450735788
 10
-745.59518630253888
 20
-3506.9414876441715
 42
0.0064120880290024
 10
-745.8923996776042
 20
-3507.5526243565478
 10
-745.90370170588085
 20
-3507.576642141632
 42
0.0058857236447269
 10
-746.20783479368561
 20
-3508.2432063081778
 10
-746.22009718312938
 20
-3508.2709415386353
 42
0.0053189741896705
 10
-746.53315365213086
 20
-3508.9998867495119
 10
-746.54627536065277
 20
-3509.0313595668058
 42
0.0047503650420128
 10
-746.87023594988125
 20
-3509.8296587166265
 10
-746.88413832240099
 20
-3509.8648732807824
 42
0.0042071762170697
 10
-747.22095939799237
 20
-3510.739513671886
 10
-747.23558350151552
 20
-3510.7784629341913
 42
0.0036680086483804
 10
-747.58726546648938
 20
-3511.7364160110051
 10
-747.60257713625526
 20
-3511.7790888125055
 42
0.0032573142626486
 10
-747.97102556520406
 20
-3512.8273678021314
 10
-748.07400134647207
 20
-3513.126562428231
 42
0.0026133366650174
 10
-748.59666914460342
 20
-3514.6713573537227
 10
-748.69155432585171
 20
-3514.9567036068038
 42
0.0020592950738048
 10
-749.01234892930506
 20
-3515.9348590857317
 10
-749.01692661604534
 20
-3515.9490138183328
 42
0.0025609928535147
 10
-749.31965736827851
 20
-3516.9017316518948
 10
-749.32354441897189
 20
-3516.9141851633162
 42
0.0031362356241557
 10
-749.60778059748384
 20
-3517.8453294475753
 10
-749.6109771618718
 20
-3517.8560414068811
 42
0.0037229918029023
 10
-749.87617774226442
 20
-3518.7695193598533
 10
-749.87869562607204
 20
-3518.7784396951074
 42
0.0043077623708169
 10
-750.1243068291717
 20
-3519.6781677927684
 42
0.0047654161826952
 10
-750.35354991294571
 20
-3520.5821969261219
 10
-750.40524682620435
 20
-3520.7945395918464
 42
0.0112969368445405
 10
-750.69904336341995
 20
-3522.1320778327836
 10
-750.74105294706476
 20
-3522.3463199019297
 42
0.0130056762571953
 10
-751.04230881253477
 20
-3524.1267315093969
 10
-751.07311843775551
 20
-3524.3428486796129
 42
0.0138721532145086
 10
-751.22867294456228
 20
-3525.7030929083512
 10
-751.25761617642411
 20
-3526.0383394912396
 42
0.0071254697007901
 10
-751.30763614530792
 20
-3526.7331200045096
 10
-751.3150776065529
 20
-3526.8621259963534
 42
0.0028881799197215
 10
-751.33778504648762
 20
-3527.2997385611134
 42
0.0060297297136792
 10
-751.35268334615103
 20
-3527.7376619652919
 10
-751.35427676865163
 20
-3527.8102505231891
 42
0.0229523164151689
 10
-751.3426802269729
 20
-3528.294382792611
 10
-751.33634156669189
 20
-3528.3849880936414
 42
0.012367330066503
 10
-751.3077235969148
 20
-3528.6866691813975
 42
0.0128577674471353
 10
-751.26393051130628
 20
-3528.9865159562819
 10
-751.25324170122485
 20
-3529.0485091781829
 42
0.02857178537707
 10
-751.15650069868082
 20
-3529.4656834051543
 10
-751.13599791318131
 20
-3529.5356655593696
 42
0.0316283099164779
 10
-750.96228204331032
 20
-3530.0141873121074
 10
-750.95770900567823
 20
-3530.0246668705927
 42
0.0338984824234031
 10
-750.73356143922626
 20
-3530.4560158168797
 10
-750.73009834517086
 20
-3530.4617023607943
 42
0.0350228718356767
 10
-750.45655790916112
 20
-3530.8472803378086
 10
-750.45523003149981
 20
-3530.848898954453
 42
0.0347476747527057
 10
-750.13359300063848
 20
-3531.189676525285
 42
0.0331337701905181
 10
-749.76872801202228
 20
-3531.4838695183989
 10
-749.7670778642447
 20
-3531.48502857316
 42
0.030523331908012
 10
-749.36426082088781
 20
-3531.732720828295
 10
-749.35941575413278
 20
-3531.7353068460907
 42
0.0273744481156549
 10
-748.92058518676788
 20
-3531.9395140619276
 10
-748.91292838406514
 20
-3531.9425794386307
 42
0.0240964406199506
 10
-748.43971277059984
 20
-3532.1060550280517
 10
-748.4298377767816
 20
-3532.1089421375655
 42
0.0209636179811738
 10
-747.92373754780931
 20
-3532.2341443594623
 10
-747.91228885712962
 20
-3532.2364722289658
 42
0.0181388704692008
 10
-747.37480526912191
 20
-3532.325596368788
 10
-747.36238399656474
 20
-3532.3271956445124
 42
0.015608654758852
 10
-746.79510295028672
 20
-3532.3822999243771
 10
-746.73031007178577
 20
-3532.3865576780959
 42
0.0137148329024731
 10
-746.23880035384263
 20
-3532.405338060973
 10
-746.1698960689605
 20
-3532.4060797106454
 42
0.0051057823876404
 10
-745.8156776890653
 20
-3532.4062750922594
 42
0.0052256693319122
 10
-745.46153176335758
 20
-3532.3991518555622
 10
-745.3561915877732
 20
-3532.3959314065419
 42
0.0161507179045171
 10
-744.79258597062835
 20
-3532.3604558510524
 10
-744.76256653006169
 20
-3532.3575905581206
 42
0.0101216737833858
 10
-744.14152569782414
 20
-3532.2856011625722
 10
-744.09044576368547
 20
-3532.2786296173581
 42
0.0245291776398736
 10
-743.37526128035915
 20
-3532.145017000244
 10
-743.24802630706677
 20
-3532.1147231197237
 42
0.0143509212557459
 10
-742.7130796511633
 20
-3531.9710161690568
 42
0.0156557857039399
 10
-742.18775555407717
 20
-3531.7954993453304
 10
-742.1765037323305
 20
-3531.7913441026976
 42
0.0170137333623462
 10
-741.64160973880871
 20
-3531.5728576803908
 10
-741.63095385519728
 20
-3531.5680759270454
 42
0.0183105364406846
 10
-741.09192935295778
 20
-3531.3020733643139
 10
-741.08150920598973
 20
-3531.2964477120004
 42
0.0194899958151393
 10
-740.54378809450986
 20
-3530.9784792391615
 10
-740.53326727550871
 20
-3530.9716912257218
 42
0.0204869852953658
 10
-740.00224582236979
 20
-3530.5974112030945
 10
-739.99134740948728
 20
-3530.5890411050705
 42
0.0212516938557323
 10
-739.47236251282561
 20
-3530.1541851097286
 10
-739.40258747170537
 20
-3530.0904841445818
 42
0.0215248918255489
 10
-739.01254821838029
 20
-3529.7023377260962
 10
-738.94500361681162
 20
-3529.6290715440741
 42
0.0114578554952195
 10
-738.7128153862933
 20
-3529.3653371438841
 10
-738.69602358231236
 20
-3529.3453589985647
 42
0.0061531305131246
 10
-738.50631161332171
 20
-3529.1139246986077
 42
0.0006325587122823
 10
-738.31974388696642
 20
-3528.8799196349332
 10
-738.28518368451682
 20
-3528.8364593541046
 42
0.0041897761560219
 10
-738.03250057854564
 20
-3528.5131802899959
 10
-737.94480739871949
 20
-3528.399028269534
 42
0.0092993880040515
 10
-737.52988950788153
 20
-3527.837610123705
 10
-737.40629776808782
 20
-3527.6637046183587
 42
0.0159321727083732
 10
-736.8863880441221
 20
-3526.8804432872212
 10
-736.81985384103871
 20
-3526.7729239408463
 42
0.0085547317023533
 10
-736.46808619304988
 20
-3526.1821115170092
 42
0.0084601156890625
 10
-736.13662192689003
 20
-3525.5796712434676
 10
-736.12444871614116
 20
-3525.5566317200514
 42
0.0081429654285819
 10
-735.78957481048042
 20
-3524.8970494512309
 10
-735.77628456420882
 20
-3524.8697811882112
 42
0.0076574581329493
 10
-735.43667329835796
 20
-3524.1450068753297
 10
-735.42245383727334
 20
-3524.1134101578773
 42
0.0070682724198882
 10
-735.07678647555952
 20
-3523.3153542006971
 10
-735.0618010495906
 20
-3523.2793704171881
 42
0.0064559514447006
 10
-734.70880123731968
 20
-3522.3999020174142
 10
-734.6931872000705
 20
-3522.3594996292463
 42
0.005831141390403
 10
-734.33161709492572
 20
-3521.390451487669
 10
-734.31548447884506
 20
-3521.3456249759301
 42
0.0052312425816709
 10
-733.94411256178137
 20
-3520.2788213551707
 10
-733.92754680721407
 20
-3520.2295812870734
 42
0.0046680544796589
 10
-733.54515416561878
 20
-3519.0568418134612
 10
-733.48216594054338
 20
-3518.8573669574907
 42
0.0041666856446789
 10
-733.17723692195466
 20
-3517.8629137949947
 10
-733.12074326096854
 20
-3517.6730421335465
 42
0.0015170975156314
 10
-732.93896339333935
 20
-3517.055239606274
 42
-0.0004887993114189
 10
-732.75845373365746
 20
-3516.4370619882206
 10
-732.64373784741201
 20
-3516.0456259092989
 42
0.0002583378926776
 10
-732.23391599230683
 20
-3514.6445408545005
 10
-732.11125671794809
 20
-3514.2243919651469
 42
0.0006636169673721
 10
-731.82045507793373
 20
-3513.2233625797753
 10
-731.81281009640986
 20
-3513.1969152054435
 42
0.0010589131323459
 10
-731.54063704503824
 20
-3512.2478181908818
 10
-731.5331639393122
 20
-3512.2215488303332
 42
0.0015655524461439
 10
-731.28075862854325
 20
-3511.3236238115505
 10
-731.2735133279308
 20
-3511.2975355731828
 42
0.0021640440474112
 10
-731.04207836994181
 20
-3510.4499950461195
 10
-731.03512704079469
 20
-3510.4240979511205
 42
0.0028763871854439
 10
-730.82585346371752
 20
-3509.6261460248584
 10
-730.81927466746515
 20
-3509.6004600576207
 42
0.0037310511947965
 10
-730.63333962971137
 20
-3508.8512886665908
 10
-730.62722679927776
 20
-3508.8258482597221
 42
0.0047652197772017
 10
-730.46579094851506
 20
-3508.1246316072647
 10
-730.46025504953184
 20
-3508.0994922745476
 42
0.006027669930185
 10
-730.32445990079952
 20
-3507.4453785818237
 10
-730.31963186536564
 20
-3507.4206267603586
 42
0.0075824337755699
 10
-730.21059790124264
 20
-3506.8127260137207
 10
-730.2066298351715
 20
-3506.7884935925404
 42
0.0095130624606932
 10
-730.12545698172539
 20
-3506.2258595629373
 10
-730.11497764590149
 20
-3506.1419592257621
 42
0.0121054653221873
 10
-730.07509065003467
 20
-3505.7446154830513
 10
-730.07379091539553
 20
-3505.7275103186594
 42
0.0069050827385163
 10
-730.05115768833878
 20
-3505.3630984783917
 10
-730.04945473883583
 20
-3505.3278090928206
 42
0.0169063976705575
 10
-730.04521382036557
 20
-3505.0335200018735
 10
-730.04696979766254
 20
-3504.9430163598486
 42
0.0052007732885761
 10
-730.05034997055191
 20
-3504.8296262746217
 42
0.0054038123295993
 10
-730.08029523831067
 20
-3504.6495988306037
 10
-730.08792402211589
 20
-3504.6066111007349
 42
0.0112050460475179
 10
-730.14100056520476
 20
-3504.3421214432215
 10
-730.16773800826468
 20
-3504.2228090631452
 42
0.0240764468010123
 10
-730.30408405748403
 20
-3503.7274535098936
 10
-730.33192220170292
 20
-3503.642523262406
 42
0.0256812331835218
 10
-730.5469665819885
 20
-3503.0849369530165
 10
-730.55508072072291
 20
-3503.0667399505269
 42
0.0268360501216586
 10
-730.80922158199542
 20
-3502.5702502495005
 10
-730.81752619344559
 20
-3502.5559707440361
 42
0.0274670231727176
 10
-731.10582765806794
 20
-3502.1175396816561
 10
-731.11389960801182
 20
-3502.1066209603441
 42
0.0275035967102836
 10
-731.43125892735463
 20
-3501.7233471248883
 10
-731.43886317880686
 20
-3501.7151284934398
 42
0.0269557673526699
 10
-731.77996849396379
 20
-3501.384165064499
 10
-731.78708308063631
 20
-3501.377970132809
 42
0.0259124802208249
 10
-732.14641532778387
 20
-3501.0964343420792
 10
-732.15321159555526
 20
-3501.0916560885848
 42
0.024516215299983
 10
-732.52508612519887
 20
-3500.8565565749177
 10
-732.53187594468534
 20
-3500.8527162791165
 42
0.0229282588844107
 10
-732.91050527992616
 20
-3500.6609139903685
 10
-732.91767602068171
 20
-3500.6576855407252
 42
0.0212984135691319
 10
-733.29723294937389
 20
-3500.5058871648616
 10
-733.30518937682359
 20
-3500.5030918207231
 42
0.0197555462338824
 10
-733.67985688341264
 20
-3500.3878686937746
 42
0.0183511896787571
 10
-734.06224997160837
 20
-3500.3014943333264
 10
-734.19179776668727
 20
-3500.2771901477499
 42
0.0338057877146331
 10
-734.62005879058233
 20
-3500.2264775400386
 10
-734.75656689816662
 20
-3500.2196080571453
 42
0.0091990524506872
 10
-734.91533756109629
 20
-3500.2145442732635
 42
0.002833398079656
 10
-735.07420843511898
 20
-3500.213302111988
 10
-735.07558161465965
 20
-3500.2132991572521
 42
-0.0023619827808271
 10
-735.23720063733401
 20
-3500.2121878956341
 10
-735.29180839258231
 20
-3500.2115544359399
 42
0.0008824598479872
 10
-735.56264237719654
 20
-3500.2088907685843
 10
-735.6284345259661
 20
-3500.2083598262943
 42
0.003813266577397
 10
-736.03085886979682
 20
-3500.2081814221942
 10
-736.05565935197455
 20
-3500.2083595714093
 42
0.0060665569341048
 10
-736.50758008939283
 20
-3500.2170900205415
 10
-736.52895558739954
 20
-3500.2177624824917
 42
0.0080356953333241
 10
-737.02314366192127
 20
-3500.241264065593
 10
-737.04124868453926
 20
-3500.2424169400028
 42
0.0098996399102082
 10
-737.57039331149815
 20
-3500.2866447837987
 10
-737.58546187557761
 20
-3500.2882052280975
 42
0.0117740981372203
 10
-738.14219716310129
 20
-3500.3591435993926
 10
-738.15453120782456
 20
-3500.3610112742485
 42
0.0137435215134752
 10
-738.73141443706629
 20
-3500.464656734594
 10
-738.7413999957372
 20
-3500.4667355789416
 42
0.0158359869385559
 10
-739.33089563644239
 20
-3500.6090737116629
 10
-739.33901541674163
 20
-3500.6113086229684
 42
0.018055412402768
 10
-739.93348798365912
 20
-3500.7982656473259
 10
-739.94032316578546
 20
-3500.8006897017258
 42
0.0203657431282826
 10
-740.53203944249788
 20
-3501.0380802139971
 10
-740.53825475101348
 20
-3501.0408726461619
 42
0.0226819684648012
 10
-741.1194088353127
 20
-3501.334336514165
 10
-741.12570852184604
 20
-3501.3378849020482
 42
0.0248634984603759
 10
-741.68848143361765
 20
-3501.6928248709692
 10
-741.76077382679182
 20
-3501.7436104337066
 42
0.0267044190883132
 10
-742.17221287216864
 20
-3502.06677099751
 42
0.0139303002205053
 10
-742.55646362108268
 20
-3502.4226292588837
 10
-742.56374369965829
 20
-3502.4297582531681
 42
0.0283460963445797
 10
-742.92985259099964
 20
-3502.8313542438364
 10
-742.98935534873385
 20
-3502.9045566100453
 42
0.0070695364821828
 10
-743.10551118752369
 20
-3503.0516568339935
 42
0.0070695364821828
  0
LWPOLYLINE
  5
62
100
AcDbEntity
  8
0
370
              15
390
0
  6
Continuous
 62
               7
100
AcDbPolyline
 90
      226
 70
             128
 10
-748.39874184339328
 20
-3526.6340400432696
 42
-0.0026277636612787
 10
-748.39885866909333
 20
-3526.5338821546193
 10
-748.3985326317453
 20
-3526.4541493284905
 42
-0.008868029671885
 10
-748.39286770730575
 20
-3526.1946256548849
 10
-748.38934816863707
 20
-3526.1057056167056
 42
-0.0077381705622079
 10
-748.36527900249303
 20
-3525.6688148730186
 10
-748.36397713573274
 20
-3525.6503825224809
 42
-0.0068872530534283
 10
-748.32402901611113
 20
-3525.1775498943834
 10
-748.32222267983138
 20
-3525.1591884258487
 42
-0.0062130021491062
 10
-748.26583210458932
 20
-3524.6508838889881
 10
-748.26357624928698
 20
-3524.6326230811164
 42
-0.0056726929673816
 10
-748.19019346003279
 20
-3524.0893302479412
 10
-748.18753329156687
 20
-3524.0711895475779
 42
-0.0052341884489704
 10
-748.09661741217531
 20
-3523.4933996642917
 10
-748.0935904290119
 20
-3523.4753922693126
 42
-0.0049768450171296
 10
-747.98448240687128
 20
-3522.8636254181579
 10
-747.9481088847898
 20
-3522.6708034436551
 42
-0.0089029805624065
 10
-747.74248760709838
 20
-3521.6781402725246
 10
-747.69336954411983
 20
-3521.4605931267361
 42
-0.0080318257098944
 10
-747.34904662260897
 20
-3520.0420286789567
 10
-747.33106923293633
 20
-3519.9728327261701
 42
-0.0074265721317254
 10
-746.90505192466162
 20
-3518.4277358586
 10
-746.87523260998603
 20
-3518.3255347677136
 42
-0.0069711922702494
 10
-746.38427574222646
 20
-3516.7261331572236
 10
-746.29434782157307
 20
-3516.4471011196829
 42
-0.0052070422895877
 10
-745.9502099836792
 20
-3515.4161930041205
 10
-745.92428819540339
 20
-3515.3411520831442
 42
-0.0009167004447712
 10
-745.6196503644868
 20
-3514.4644683109636
 42
-0.0025162726943462
 10
-745.30900391909665
 20
-3513.5899064147302
 10
-745.25316700138353
 20
-3513.4351820958582
 42
-0.0028212681459009
 10
-744.88090312294014
 20
-3512.4215861476055
 10
-744.86615697880995
 20
-3512.3821249805792
 42
-0.0031964916823303
 10
-744.51171859232068
 20
-3511.4518178373996
 10
-744.49726691132457
 20
-3511.4146028521909
 42
-0.0036281836455752
 10
-744.15960796967033
 20
-3510.563441830845
 10
-744.1454503544353
 20
-3510.5284956835935
 42
-0.0041269166831891
 10
-743.82352380944531
 20
-3509.7523343396233
 10
-743.7745743748161
 20
-3509.6370166700863
 42
-0.0047472213056433
 10
-743.53900716648377
 20
-3509.0963844682565
 10
-743.52866604466772
 20
-3509.07325357225
 42
-0.0025651659993394
 10
-743.30612899389621
 20
-3508.582261488636
 42
-0.0057144634994064
 10
-743.07550445324114
 20
-3508.0950469785967
 10
-743.03345839513781
 20
-3508.0087844050022
 42
-0.0065388068377681
 10
-742.75825785352765
 20
-3507.4624356600034
 10
-742.74557016986398
 20
-3507.4380462909567
 42
-0.007451084302638
 10
-742.48129680104319
 20
-3506.9480138692652
 10
-742.46902729524379
 20
-3506.9260527033571
 42
-0.0084648979861831
 10
-742.2145765155966
 20
-3506.48818918692
 10
-742.20279232586552
 20
-3506.4686786994453
 42
-0.0095638542801116
 10
-741.95703915447314
 20
-3506.0788453914761
 10
-741.94582673896741
 20
-3506.0617913492956
 42
-0.0107191626804655
 10
-741.70762436838413
 20
-3505.7158744974768
 10
-741.69709926778842
 20
-3505.7012703589312
 42
-0.011845857389159
 10
-741.46527712001875
 20
-3505.3951620659636
 42
-0.01291845181953
 10
-741.21859818461246
 20
-3505.1009212917038
 10
-741.17338102607175
 20
-3505.0497321733587
 42
-0.0217742579634761
 10
-740.90846254256871
 20
-3504.774922017984
 10
-740.89234422587936
 20
-3504.7595967681809
 42
-0.0097266568645967
 10
-740.64325779759463
 20
-3504.5318254065232
 42
-0.0187720905720765
 10
-740.38173643375956
 20
-3504.3187221264393
 10
-740.33567744775053
 20
-3504.2839835028467
 42
-0.0179428207518157
 10
-739.98704636775483
 20
-3504.0401552371777
 10
-739.98156787738174
 20
-3504.0366093348466
 42
-0.0170047877694068
 10
-739.6279224210856
 20
-3503.824418563619
 10
-739.62224793796861
 20
-3503.821271106066
 42
-0.0160190788364278
 10
-739.26688511651275
 20
-3503.6387941530825
 42
-0.0151102861487102
 10
-738.90083744283243
 20
-3503.4787699889966
 10
-738.82225768952503
 20
-3503.4472097896587
 42
-0.0271945441889257
 10
-738.28426385093508
 20
-3503.2644125735987
 10
-738.1806666502107
 20
-3503.2353882617012
 42
-0.0237596594019729
 10
-737.55697137967195
 20
-3503.0922121937274
 10
-737.45487709908195
 20
-3503.0738301615384
 42
-0.0213715440555159
 10
-737.02606470190835
 20
-3503.0154096142724
 10
-736.93584395256596
 20
-3503.00702504222
 42
-0.0101465655812417
 10
-736.68460515459014
 20
-3502.9888097273251
 10
-736.6705945752966
 20
-3502.9880793548296
 42
-0.0100375910890533
 10
-736.44686342444902
 20
-3502.9809156279416
 10
-736.43147451992331
 20
-3502.98073196942
 42
-0.0103625633388
 10
-736.23841252794614
 20
-3502.9824291197096
 10
-736.20501405104471
 20
-3502.9834151574069
 42
-0.0115689250227921
 10
-736.07893794475387
 20
-3502.9900594167748
 42
-0.0072438037433302
 10
-735.95318052560287
 20
-3503.001443216398
 10
-735.92797976138593
 20
-3503.0040930304849
 42
-0.0217917313124638
 10
-735.75312511641471
 20
-3503.0302228695668
 10
-735.65472498056829
 20
-3503.0493427821875
 42
-0.0332943556755485
 10
-735.34813673302278
 20
-3503.1304032191492
 10
-735.30287788019052
 20
-3503.1456553348294
 42
-0.0184824084798393
 10
-735.09512029549956
 20
-3503.2243318579067
 42
-0.0198002050688517
 10
-734.89400878475249
 20
-3503.3186579482044
 10
-734.89117882868516
 20
-3503.3201246285253
 42
-0.0212242342980179
 10
-734.69297041508457
 20
-3503.4337687367138
 10
-734.69024747176707
 20
-3503.4354874400278
 42
-0.0226090605801509
 10
-734.49749161993668
 20
-3503.5697069053726
 10
-734.49472495732846
 20
-3503.5718252848555
 42
-0.0238457052221842
 10
-734.30995183538425
 20
-3503.7278191286537
 10
-734.30702274255043
 20
-3503.7305414452985
 42
-0.0248160564158191
 10
-734.13272048159615
 20
-3503.9094533471152
 10
-734.12956503149633
 20
-3503.913031347668
 42
-0.0254109591446353
 10
-733.96815720469783
 20
-3504.1159639266139
 10
-733.96478517182629
 20
-3504.1206762492156
 42
-0.0255528488297801
 10
-733.81861515363175
 20
-3504.3487168305646
 10
-733.81511850375637
 20
-3504.3548392479779
 42
-0.0252146793225563
 10
-733.68644696474291
 20
-3504.6090926169732
 10
-733.68299360600622
 20
-3504.616865739843
 42
-0.0244265635947615
 10
-733.57401156536184
 20
-3504.8984855979193
 10
-733.56014196316028
 20
-3504.9402837254233
 42
-0.0231319612899142
 10
-733.4912577946734
 20
-3505.1852352956221
 42
-0.0112130424365589
 10
-733.43930376086678
 20
-3505.434540695901
 10
-733.43749997319742
 20
-3505.4442855762359
 42
-0.0210527881224997
 10
-733.39897026014091
 20
-3505.7158690444003
 10
-733.39370436790841
 20
-3505.7689773672187
 42
-0.0190029892419997
 10
-733.37054215759156
 20
-3506.1492811366297
 10
-733.36932719292554
 20
-3506.2024945581807
 42
-0.0137974553663456
 10
-733.37165047217877
 20
-3506.6900416682756
 10
-733.37291865461236
 20
-3506.7292197851739
 42
-0.0081336634216199
 10
-733.39520765744601
 20
-3507.1872409865691
 42
-0.0073526923570337
 10
-733.43167045750761
 20
-3507.6443633529948
 10
-733.43356259318193
 20
-3507.6643683649954
 42
-0.0066886138698718
 10
-733.48716597225155
 20
-3508.1602474302404
 10
-733.4896516064565
 20
-3508.1806798587286
 42
-0.0061359187357745
 10
-733.56142750953234
 20
-3508.7158258288741
 10
-733.56448376114224
 20
-3508.7366680331224
 42
-0.0056698610064502
 10
-733.65545925729145
 20
-3509.3115858863721
 10
-733.65906740727735
 20
-3509.3328245652256
 42
-0.0052721077277681
 10
-733.77026570847477
 20
-3509.9480155747328
 10
-733.77441043173928
 20
-3509.9696405278219
 42
-0.0049289272178502
 10
-733.9068516088887
 20
-3510.6256032945021
 10
-733.91152035091318
 20
-3510.6476065737288
 42
-0.0047415956710459
 10
-734.06637733821083
 20
-3511.3448017098408
 10
-734.11852965375135
 20
-3511.5695123529194
 42
-0.0084404470901101
 10
-734.40355431910939
 20
-3512.709848389718
 10
-734.41274435108755
 20
-3512.7441445759468
 42
-0.0039635940260373
 10
-734.74492487751547
 20
-3513.9456278723242
 10
-734.76499007028292
 20
-3514.0160252972055
 42
-0.0072475040834484
 10
-735.16616040207794
 20
-3515.3498548717916
 10
-735.27147889231901
 20
-3515.6824653967496
 42
-0.005134545882718
 10
-735.70161795040701
 20
-3516.9939531784653
 10
-735.73390735054841
 20
-3517.0890925791309
 42
-0.0019150016600257
 10
-736.11720746085825
 20
-3518.2044162594993
 10
-736.12690886745816
 20
-3518.232297456897
 42
-0.0021524362752784
 10
-736.49962594404826
 20
-3519.2887861894433
 10
-736.51344157509209
 20
-3519.3274165568928
 42
-0.0024331286820385
 10
-736.86782446364703
 20
-3520.3033155190733
 10
-736.88139639247288
 20
-3520.3401304786048
 42
-0.0027449721789638
 10
-737.21831824872595
 20
-3521.2388252969913
 10
-737.23165325981142
 20
-3521.2738091817623
 42
-0.003108322976782
 10
-737.55196698972918
 20
-3522.098695238139
 10
-737.56507118723948
 20
-3522.1318298119181
 42
-0.0035311343280066
 10
-737.86963296563022
 20
-3522.886304500521
 10
-737.88251097435239
 20
-3522.9175685857881
 42
-0.0040245640947343
 10
-738.17217868004343
 20
-3523.6050325696751
 10
-738.18483285044647
 20
-3523.6344016217795
 42
-0.0046015135852035
 10
-738.46046729019372
 20
-3524.2582591662467
 10
-738.47289655693055
 20
-3524.2857048754126
 42
-0.0052768638269802
 10
-738.73536283536941
 20
-3524.8493642018302
 10
-738.7475611513122
 20
-3524.87485420965
 42
-0.006067267564409
 10
-738.99773057045877
 20
-3525.3817276443165
 10
-739.00968479117694
 20
-3525.4052255328043
 42
-0.0069904648874304
 10
-739.2484373821834
 20
-3525.8587292428078
 10
-739.26012448159452
 20
-3525.8801950666398
 42
-0.0080637022772733
 10
-739.48835227211839
 20
-3526.2837480213784
 10
-739.49973582106907
 20
-3526.3031398197859
 42
-0.0093006455665722
 10
-739.71834683586246
 20
-3526.6601614175343
 10
-739.72937283597969
 20
-3526.6774383712968
 42
-0.0107060778053073
 10
-739.93929565113558
 20
-3526.9913438473623
 10
-739.94988830355021
 20
-3527.0064721612043
 42
-0.0122723111410113
 10
-740.15207888085229
 20
-3527.2806621554446
 10
-740.15256821618232
 20
-3527.2812927371579
 42
-0.0141836319613939
 10
-740.3679406206445
 20
-3527.5431473739036
 10
-740.37836225412025
 20
-3527.5551098742981
 42
-0.0175957477202281
 10
-740.58822150617448
 20
-3527.7795412069077
 42
-0.0080466359677974
 10
-740.80941715371387
 20
-3527.9930249991289
 10
-740.87846897049599
 20
-3528.0575556562712
 42
-0.0269600260396829
 10
-741.25838933946841
 20
-3528.3760405440339
 10
-741.35824004391827
 20
-3528.4509676659727
 42
-0.0178362839752855
 10
-741.71815677839959
 20
-3528.7014945553497
 10
-741.72902423490461
 20
-3528.7084973236597
 42
-0.017465073264993
 10
-742.08352853106226
 20
-3528.9197887710957
 42
-0.0169240130168204
 10
-742.45172789984258
 20
-3529.1062271607589
 10
-742.52070713318551
 20
-3529.1382700941126
 42
-0.0318883036843862
 10
-743.04623341661397
 20
-3529.3427775583773
 10
-743.14878171936982
 20
-3529.3753284890931
 42
-0.028443590989669
 10
-743.71285690879915
 20
-3529.5196546423031
 10
-743.76559414954249
 20
-3529.529995036045
 42
-0.0243909341011374
 10
-744.23575934092537
 20
-3529.5985765825908
 10
-744.31118043107881
 20
-3529.6058449029429
 42
-0.0196639292932382
 10
-744.63457379737292
 20
-3529.6242173312139
 10
-744.71230990411971
 20
-3529.6255722223191
 42
-0.0100501510671444
 10
-744.8809448266145
 20
-3529.6251216247892
 10
-744.92843461859923
 20
-3529.6240400169618
 42
-0.0019752031127482
 10
-745.00207312365262
 20
-3529.6220717766464
 10
-745.00621357850696
 20
-3529.6219447389062
 42
0.0065378751970481
 10
-745.07157844061805
 20
-3529.6207944020848
 42
-0.016797469462635
 10
-745.13687467501643
 20
-3529.6183045542957
 10
-745.14299368390891
 20
-3529.6178650379534
 42
-0.0081283276244881
 10
-745.22033338052779
 20
-3529.6110445474951
 10
-745.23794274133445
 20
-3529.6092026711285
 42
-0.0126703440185237
 10
-745.35002018501314
 20
-3529.5946004845237
 10
-745.38420198653989
 20
-3529.5892631006486
 42
-0.0117852088432334
 10
-745.56351046529164
 20
-3529.5569186079124
 10
-745.64658114293297
 20
-3529.5399032975611
 42
-0.0251774592294941
 10
-745.98684720144445
 20
-3529.4521562834116
 10
-746.05392598621688
 20
-3529.4312060544098
 42
-0.0146525199893624
 10
-746.3335154675292
 20
-3529.3348062636114
 42
-0.016692943584865
 10
-746.60648195172257
 20
-3529.2210955640285
 10
-746.61346689862887
 20
-3529.2179082131088
 42
-0.0191684358431776
 10
-746.89124234549945
 20
-3529.0780540874252
 10
-746.89624122413807
 20
-3529.0752922160937
 42
-0.0221181781804721
 10
-747.17120667999654
 20
-3528.9070919685341
 10
-747.17473138600405
 20
-3528.9047155215512
 42
-0.0254984685393062
 10
-747.43916661157687
 20
-3528.7060987966006
 10
-747.47288983314263
 20
-3528.6779703331858
 42
-0.0292492648799697
 10
-747.66004324139953
 20
-3528.5023311337272
 42
-0.0159048957500761
 10
-747.8308032375777
 20
-3528.3103011463259
 10
-747.83278142344375
 20
-3528.3079287267992
 42
-0.034381337955484
 10
-747.98673731588678
 20
-3528.0951217381394
 10
-748.03397461292354
 20
-3528.0193666500049
 42
-0.0369117275698997
 10
-748.16281336577026
 20
-3527.7741507885812
 42
-0.0191751379917199
 10
-748.26360344410614
 20
-3527.5155438795714
 10
-748.26624842974502
 20
-3527.5079038625599
 42
-0.0378178042224457
 10
-748.34094050792112
 20
-3527.224492698439
 10
-748.34993345151622
 20
-3527.1756517711447
 42
-0.0184846046475841
 10
-748.38100925045831
 20
-3526.9630225403253
 42
-0.0179866351314228
 10
-748.3965087580691
 20
-3526.7486863207
 10
-748.39659342173763
 20
-3526.7463497907843
 42
-0.008549718613938
 10
-748.39874184339328
 20
-3526.6340400432696
 42
-0.008549718613938
  0
ENDBLK
  5
63
100
AcDbEntity
  8
template
390
0
100
AcDbBlockEnd
  0
BLOCK
  5
64
100
AcDbEntity
  8
notes
390
0
100
AcDbBlockBegin
  2
*D3
 70
               1
 10
0.0
 20
0.0
 30
0.0
  3
*D3
  1

  0
LINE
  5
65
100
AcDbEntity
  8
0
370
              -2
390
0
  6
Continuous
 62
               0
100
AcDbLine
 10
1138.9046060566093
 20
603.85056756232404
 30
0.0
 11
1138.9046060566093
 21
502.35056756232393
 31
0.0
  0
LINE
  5
66
100
AcDbEntity
  8
0
370
              -2
390
0
  6
Continuous
 62
               0
100
AcDbLine
 10
188.90460605661087
 20
603.85056756232495
 30
0.0
 11
188.90460605661087
 21
502.35056756232393
 31
0.0
  0
LINE
  5
67
100
AcDbEntity
  8
0
370
              -2
390
0
  6
Continuous
 62
               0
100
AcDbLine
 10
1138.9046060566093
 20
502.35056756232393
 30
0.0
 11
188.90460605661087
 21
502.35056756232393
 31
0.0
  0
CIRCLE
  5
68
102
{ACAD_REACTORS
330
69
102
}
100
AcDbEntity
  8
0
370
              -2
390
0
  6
Continuous
 62
               0
100
AcDbCircle
 10
1138.9046060566093
 20
502.35056756232393
 30
0.0
 40
2.99981689453125
  0
HATCH
  5
69
100
AcDbEntity
  8
0
370
              -2
390
0
  6
Continuous
 62
               0
100
AcDbHatch
 10
0.0
 20
0.0
 30
0.0
210
0.0
220
0.0
230
1.0
  2
SOLID
 70
               1
 71
               1
 91
        1
 92
        1
 93
        1
 72
               2
 10
1138.9046060566093
 20
502.35056756232393
 40
2.99981689453125
 50
0.0
 51
360.0
 73
               0
 97
        1
330
68
 75
               0
 76
               1
 98
        1
 10
0.0
 20
0.0
  0
CIRCLE
  5
6A
102
{ACAD_REACTORS
330
6B
102
}
100
AcDbEntity
  8
0
370
              -2
390
0
  6
Continuous
 62
               0
100
AcDbCircle
 10
188.90460605661087
 20
502.35056756232393
 30
0.0
 40
2.99981689453125
  0
HATCH
  5
6B
100
AcDbEntity
  8
0
370
              -2
390
0
  6
Continuous
 62
               0
100
AcDbHatch
 10
0.0
 20
0.0
 30
0.0
210
0.0
220
0.0
230
1.0
  2
SOLID
 70
               1
 71
               1
 91
        1
 92
        1
 93
        1
 72
               2
 10
188.90460605661087
 20
502.35056756232393
 40
2.99981689453125
 50
0.0
 51
360.0
 73
               0
 97
        1
330
6A
 75
               0
 76
               1
 98
        1
 10
0.0
 20
0.0
  0
MTEXT
  5
6C
100
AcDbEntity
  8
0
390
0
 62
               0
100
AcDbMText
 10
628.18585353334697
 20
550.66699334357395
 30
0.0
 40
36.64892578125
 41
0.0
 71
               1
 72
               1
  1
950
  7
ＭＳ ゴシック
 73
               1
 44
0.7828267384257843
  0
POINT
  5
6D
100
AcDbEntity
  8
Defpoints
370
               0
390
0
 62
               0
100
AcDbPoint
 10
188.90460605661087
 20
641.35056756232495
 30
0.0
  0
POINT
  5
6E
100
AcDbEntity
  8
Defpoints
370
               0
390
0
 62
               0
100
AcDbPoint
 10
1138.9046060566093
 20
641.35056756232404
 30
0.0
  0
POINT
  5
6F
100
AcDbEntity
  8
Defpoints
370
               0
390
0
 62
               0
100
AcDbPoint
 10
1138.9046060566093
 20
502.35056756232393
 30
0.0
  0
ENDBLK
  5
70
100
AcDbEntity
  8
notes
390
0
100
AcDbBlockEnd
  0
BLOCK
  5
71
100
AcDbEntity
  8
notes
390
0
100
AcDbBlockBegin
  2
*D4
 70
               1
 10
0.0
 20
0.0
 30
0.0
  3
*D4
  1

  0
LINE
  5
72
100
AcDbEntity
  8
0
370
              -2
390
0
  6
Continuous
 62
               0
100
AcDbLine
 10
-134.99756079792951
 20
622.35056756232336
 30
0.0
 11
-48.497560797930419
 21
622.35056756232336
 31
0.0
  0
LINE
  5
73
100
AcDbEntity
  8
0
370
              -2
390
0
  6
Continuous
 62
               0
100
AcDbLine
 10
-134.99756079792951
 20
1172.3505675623242
 30
0.0
 11
-48.497560797930419
 21
1172.3505675623242
 31
0.0
  0
LINE
  5
74
100
AcDbEntity
  8
0
370
              -2
390
0
  6
Continuous
 62
               0
100
AcDbLine
 10
-48.497560797930419
 20
622.35056756232336
 30
0.0
 11
-48.497560797930419
 21
1172.3505675623242
 31
0.0
  0
CIRCLE
  5
75
102
{ACAD_REACTORS
330
76
102
}
100
AcDbEntity
  8
0
370
              -2
390
0
  6
Continuous
 62
               0
100
AcDbCircle
 10
-48.497560797930419
 20
622.35056756232336
 30
0.0
 40
2.99981689453125
  0
HATCH
  5
76
100
AcDbEntity
  8
0
370
              -2
390
0
  6
Continuous
 62
               0
100
AcDbHatch
 10
0.0
 20
0.0
 30
0.0
210
0.0
220
0.0
230
1.0
  2
SOLID
 70
               1
 71
               1
 91
        1
 92
        1
 93
        1
 72
               2
 10
-48.497560797930419
 20
622.35056756232336
 40
2.99981689453125
 50
0.0
 51
360.0
 73
               0
 97
        1
330
75
 75
               0
 76
               1
 98
        1
 10
0.0
 20
0.0
  0
CIRCLE
  5
77
102
{ACAD_REACTORS
330
78
102
}
100
AcDbEntity
  8
0
370
              -2
390
0
  6
Continuous
 62
               0
100
AcDbCircle
 10
-48.497560797930419
 20
1172.3505675623242
 30
0.0
 40
2.99981689453125
  0
HATCH
  5
78
100
AcDbEntity
  8
0
370
              -2
390
0
  6
Continuous
 62
               0
100
AcDbHatch
 10
0.0
 20
0.0
 30
0.0
210
0.0
220
0.0
230
1.0
  2
SOLID
 70
               1
 71
               1
 91
        1
 92
        1
 93
        1
 72
               2
 10
-48.497560797930419
 20
1172.3505675623242
 40
2.99981689453125
 50
0.0
 51
360.0
 73
               0
 97
        1
330
77
 75
               0
 76
               1
 98
        1
 10
0.0
 20
0.0
  0
MTEXT
  5
79
100
AcDbEntity
  8
0
390
0
 62
               0
100
AcDbMText
 10
-96.813986579180437
 20
861.63181503906037
 30
0.0
 40
36.64892578125
 41
0.0
 71
               1
 72
               1
  1
550
  7
ＭＳ ゴシック
 11
0.0
 21
1.0
 31
0.0
 73
               1
 44
0.7828267384257843
  0
POINT
  5
7A
100
AcDbEntity
  8
Defpoints
370
               0
390
0
 62
               0
100
AcDbPoint
 10
-172.49756079792951
 20
1172.3505675623242
 30
0.0
  0
POINT
  5
7B
100
AcDbEntity
  8
Defpoints
370
               0
390
0
 62
               0
100
AcDbPoint
 10
-172.49756079792951
 20
622.35056756232336
 30
0.0
  0
POINT
  5
7C
100
AcDbEntity
  8
Defpoints
370
               0
390
0
 62
               0
100
AcDbPoint
 10
-48.497560797930419
 20
622.35056756232336
 30
0.0
  0
ENDBLK
  5
7D
100
AcDbEntity
  8
notes
390
0
100
AcDbBlockEnd
  0
BLOCK
  5
7E
100
AcDbEntity
  8
notes
390
0
100
AcDbBlockBegin
  2
*D5
 70
               1
 10
0.0
 20
0.0
 30
0.0
  3
*D5
  1

  0
LINE
  5
7F
100
AcDbEntity
  8
0
370
              -2
390
0
  6
Continuous
 62
               0
100
AcDbLine
 10
-868.49756079792996
 20
1153.4814526186713
 30
0.0
 11
-868.49756079792996
 21
1292.3505675623242
 31
0.0
  0
LINE
  5
80
100
AcDbEntity
  8
0
370
              -2
390
0
  6
Continuous
 62
               0
100
AcDbLine
 10
-968.49756079792996
 20
1152.4814526186713
 30
0.0
 11
-968.49756079792996
 21
1292.3505675623242
 31
0.0
  0
LINE
  5
81
100
AcDbEntity
  8
0
370
              -2
390
0
  6
Continuous
 62
               0
100
AcDbLine
 10
-868.49756079792996
 20
1292.3505675623242
 30
0.0
 11
-968.49756079792996
 21
1292.3505675623242
 31
0.0
  0
CIRCLE
  5
82
102
{ACAD_REACTORS
330
83
102
}
100
AcDbEntity
  8
0
370
              -2
390
0
  6
Continuous
 62
               0
100
AcDbCircle
 10
-868.49756079792996
 20
1292.3505675623242
 30
0.0
 40
2.99981689453125
  0
HATCH
  5
83
100
AcDbEntity
  8
0
370
              -2
390
0
  6
Continuous
 62
               0
100
AcDbHatch
 10
0.0
 20
0.0
 30
0.0
210
0.0
220
0.0
230
1.0
  2
SOLID
 70
               1
 71
               1
 91
        1
 92
        1
 93
        1
 72
               2
 10
-868.49756079792996
 20
1292.3505675623242
 40
2.99981689453125
 50
0.0
 51
360.0
 73
               0
 97
        1
330
82
 75
               0
 76
               1
 98
        1
 10
0.0
 20
0.0
  0
CIRCLE
  5
84
102
{ACAD_REACTORS
330
85
102
}
100
AcDbEntity
  8
0
370
              -2
390
0
  6
Continuous
 62
               0
100
AcDbCircle
 10
-968.49756079792996
 20
1292.3505675623242
 30
0.0
 40
2.99981689453125
  0
HATCH
  5
85
100
AcDbEntity
  8
0
370
              -2
390
0
  6
Continuous
 62
               0
100
AcDbHatch
 10
0.0
 20
0.0
 30
0.0
210
0.0
220
0.0
230
1.0
  2
SOLID
 70
               1
 71
               1
 91
        1
 92
        1
 93
        1
 72
               2
 10
-968.49756079792996
 20
1292.3505675623242
 40
2.99981689453125
 50
0.0
 51
360.0
 73
               0
 97
        1
330
84
 75
               0
 76
               1
 98
        1
 10
0.0
 20
0.0
  0
MTEXT
  5
86
100
AcDbEntity
  8
0
390
0
 62
               0
100
AcDbMText
 10
-954.21631332119341
 20
1340.6669933435742
 30
0.0
 40
36.64892578125
 41
0.0
 71
               1
 72
               1
  1
100
  7
ＭＳ ゴシック
 73
               1
 44
0.7828267384257843
  0
POINT
  5
87
100
AcDbEntity
  8
Defpoints
370
               0
390
0
 62
               0
100
AcDbPoint
 10
-968.49756079792996
 20
1114.9814526186713
 30
0.0
  0
POINT
  5
88
100
AcDbEntity
  8
Defpoints
370
               0
390
0
 62
               0
100
AcDbPoint
 10
-868.49756079792996
 20
1115.9814526186713
 30
0.0
  0
POINT
  5
89
100
AcDbEntity
  8
Defpoints
370
               0
390
0
 62
               0
100
AcDbPoint
 10
-868.49756079792996
 20
1292.3505675623242
 30
0.0
  0
ENDBLK
  5
8A
100
AcDbEntity
  8
notes
390
0
100
AcDbBlockEnd
  0
BLOCK
  5
8B
100
AcDbEntity
  8
notes
390
0
100
AcDbBlockBegin
  2
*D6
 70
               1
 10
0.0
 20
0.0
 30
0.0
  3
*D6
  1

  0
LINE
  5
8C
100
AcDbEntity
  8
0
370
              -2
390
0
  6
Continuous
 62
               0
100
AcDbLine
 10
-868.49756079792996
 20
1153.481452618671
 30
0.0
 11
-868.49756079792996
 21
1292.3505675623242
 31
0.0
  0
LINE
  5
8D
100
AcDbEntity
  8
0
370
              -2
390
0
  6
Continuous
 62
               0
100
AcDbLine
 10
-768.49756079792996
 20
1152.481452618671
 30
0.0
 11
-768.49756079792996
 21
1292.3505675623242
 31
0.0
  0
LINE
  5
8E
100
AcDbEntity
  8
0
370
              -2
390
0
  6
Continuous
 62
               0
100
AcDbLine
 10
-868.49756079792996
 20
1292.3505675623242
 30
0.0
 11
-768.49756079792996
 21
1292.3505675623242
 31
0.0
  0
CIRCLE
  5
8F
102
{ACAD_REACTORS
330
90
102
}
100
AcDbEntity
  8
0
370
              -2
390
0
  6
Continuous
 62
               0
100
AcDbCircle
 10
-868.49756079792996
 20
1292.3505675623242
 30
0.0
 40
2.99981689453125
  0
HATCH
  5
90
100
AcDbEntity
  8
0
370
              -2
390
0
  6
Continuous
 62
               0
100
AcDbHatch
 10
0.0
 20
0.0
 30
0.0
210
0.0
220
0.0
230
1.0
  2
SOLID
 70
               1
 71
               1
 91
        1
 92
        1
 93
        1
 72
               2
 10
-868.49756079792996
 20
1292.3505675623242
 40
2.99981689453125
 50
0.0
 51
360.0
 73
               0
 97
        1
330
8F
 75
               0
 76
               1
 98
        1
 10
0.0
 20
0.0
  0
CIRCLE
  5
91
102
{ACAD_REACTORS
330
92
102
}
100
AcDbEntity
  8
0
370
              -2
390
0
  6
Continuous
 62
               0
100
AcDbCircle
 10
-768.49756079792996
 20
1292.3505675623242
 30
0.0
 40
2.99981689453125
  0
HATCH
  5
92
100
AcDbEntity
  8
0
370
              -2
390
0
  6
Continuous
 62
               0
100
AcDbHatch
 10
0.0
 20
0.0
 30
0.0
210
0.0
220
0.0
230
1.0
  2
SOLID
 70
               1
 71
               1
 91
        1
 92
        1
 93
        1
 72
               2
 10
-768.49756079792996
 20
1292.3505675623242
 40
2.99981689453125
 50
0.0
 51
360.0
 73
               0
 97
        1
330
91
 75
               0
 76
               1
 98
        1
 10
0.0
 20
0.0
  0
MTEXT
  5
93
100
AcDbEntity
  8
0
390
0
 62
               0
100
AcDbMText
 10
-854.21631332119341
 20
1340.6669933435742
 30
0.0
 40
36.64892578125
 41
0.0
 71
               1
 72
               1
  1
100
  7
ＭＳ ゴシック
 73
               1
 44
0.7828267384257843
  0
POINT
  5
94
100
AcDbEntity
  8
Defpoints
370
               0
390
0
 62
               0
100
AcDbPoint
 10
-768.49756079792996
 20
1114.981452618671
 30
0.0
  0
POINT
  5
95
100
AcDbEntity
  8
Defpoints
370
               0
390
0
 62
               0
100
AcDbPoint
 10
-868.49756079792996
 20
1115.981452618671
 30
0.0
  0
POINT
  5
96
100
AcDbEntity
  8
Defpoints
370
               0
390
0
 62
               0
100
AcDbPoint
 10
-868.49756079792996
 20
1292.3505675623242
 30
0.0
  0
ENDBLK
  5
97
100
AcDbEntity
  8
notes
390
0
100
AcDbBlockEnd
  0
BLOCK
  5
98
100
AcDbEntity
  8
notes
390
0
100
AcDbBlockBegin
  2
*D7
 70
               1
 10
0.0
 20
0.0
 30
0.0
  3
*D7
  1

  0
LINE
  5
99
100
AcDbEntity
  8
0
370
              -2
390
0
  6
Continuous
 62
               0
100
AcDbLine
 10
-768.49756079792996
 20
1152.481452618671
 30
0.0
 11
-768.49756079792996
 21
1292.3505675623242
 31
0.0
  0
LINE
  5
9A
100
AcDbEntity
  8
0
370
              -2
390
0
  6
Continuous
 62
               0
100
AcDbLine
 10
-668.49756079792996
 20
1153.481452618671
 30
0.0
 11
-668.49756079792996
 21
1292.3505675623242
 31
0.0
  0
LINE
  5
9B
100
AcDbEntity
  8
0
370
              -2
390
0
  6
Continuous
 62
               0
100
AcDbLine
 10
-768.49756079792996
 20
1292.3505675623242
 30
0.0
 11
-668.49756079792996
 21
1292.3505675623242
 31
0.0
  0
CIRCLE
  5
9C
102
{ACAD_REACTORS
330
9D
102
}
100
AcDbEntity
  8
0
370
              -2
390
0
  6
Continuous
 62
               0
100
AcDbCircle
 10
-768.49756079792996
 20
1292.3505675623242
 30
0.0
 40
2.99981689453125
  0
HATCH
  5
9D
100
AcDbEntity
  8
0
370
              -2
390
0
  6
Continuous
 62
               0
100
AcDbHatch
 10
0.0
 20
0.0
 30
0.0
210
0.0
220
0.0
230
1.0
  2
SOLID
 70
               1
 71
               1
 91
        1
 92
        1
 93
        1
 72
               2
 10
-768.49756079792996
 20
1292.3505675623242
 40
2.99981689453125
 50
0.0
 51
360.0
 73
               0
 97
        1
330
9C
 75
               0
 76
               1
 98
        1
 10
0.0
 20
0.0
  0
CIRCLE
  5
9E
102
{ACAD_REACTORS
330
9F
102
}
100
AcDbEntity
  8
0
370
              -2
390
0
  6
Continuous
 62
               0
100
AcDbCircle
 10
-668.49756079792996
 20
1292.3505675623242
 30
0.0
 40
2.99981689453125
  0
HATCH
  5
9F
100
AcDbEntity
  8
0
370
              -2
390
0
  6
Continuous
 62
               0
100
AcDbHatch
 10
0.0
 20
0.0
 30
0.0
210
0.0
220
0.0
230
1.0
  2
SOLID
 70
               1
 71
               1
 91
        1
 92
        1
 93
        1
 72
               2
 10
-668.49756079792996
 20
1292.3505675623242
 40
2.99981689453125
 50
0.0
 51
360.0
 73
               0
 97
        1
330
9E
 75
               0
 76
               1
 98
        1
 10
0.0
 20
0.0
  0
MTEXT
  5
A0
100
AcDbEntity
  8
0
390
0
 62
               0
100
AcDbMText
 10
-754.21631332119341
 20
1340.6669933435742
 30
0.0
 40
36.64892578125
 41
0.0
 71
               1
 72
               1
  1
100
  7
ＭＳ ゴシック
 73
               1
 44
0.7828267384257843
  0
POINT
  5
A1
100
AcDbEntity
  8
Defpoints
370
               0
390
0
 62
               0
100
AcDbPoint
 10
-668.49756079792996
 20
1115.981452618671
 30
0.0
  0
POINT
  5
A2
100
AcDbEntity
  8
Defpoints
370
               0
390
0
 62
               0
100
AcDbPoint
 10
-768.49756079792996
 20
1114.981452618671
 30
0.0
  0
POINT
  5
A3
100
AcDbEntity
  8
Defpoints
370
               0
390
0
 62
               0
100
AcDbPoint
 10
-768.49756079792996
 20
1292.3505675623242
 30
0.0
  0
ENDBLK
  5
A4
100
AcDbEntity
  8
notes
390
0
100
AcDbBlockEnd
  0
BLOCK
  5
A5
100
AcDbEntity
  8
notes
390
0
100
AcDbBlockBegin
  2
*D8
 70
               1
 10
0.0
 20
0.0
 30
0.0
  3
*D8
  1

  0
LINE
  5
A6
100
AcDbEntity
  8
0
370
              -2
390
0
  6
Continuous
 62
               0
100
AcDbLine
 10
-668.49756079792996
 20
1153.481452618671
 30
0.0
 11
-668.49756079792996
 21
1292.3505675623242
 31
0.0
  0
LINE
  5
A7
100
AcDbEntity
  8
0
370
              -2
390
0
  6
Continuous
 62
               0
100
AcDbLine
 10
-568.49756079793087
 20
1152.481452618671
 30
0.0
 11
-568.49756079793087
 21
1292.3505675623242
 31
0.0
  0
LINE
  5
A8
100
AcDbEntity
  8
0
370
              -2
390
0
  6
Continuous
 62
               0
100
AcDbLine
 10
-668.49756079792996
 20
1292.3505675623242
 30
0.0
 11
-568.49756079793087
 21
1292.3505675623242
 31
0.0
  0
CIRCLE
  5
A9
102
{ACAD_REACTORS
330
AA
102
}
100
AcDbEntity
  8
0
370
              -2
390
0
  6
Continuous
 62
               0
100
AcDbCircle
 10
-668.49756079792996
 20
1292.3505675623242
 30
0.0
 40
2.99981689453125
  0
HATCH
  5
AA
100
AcDbEntity
  8
0
370
              -2
390
0
  6
Continuous
 62
               0
100
AcDbHatch
 10
0.0
 20
0.0
 30
0.0
210
0.0
220
0.0
230
1.0
  2
SOLID
 70
               1
 71
               1
 91
        1
 92
        1
 93
        1
 72
               2
 10
-668.49756079792996
 20
1292.3505675623242
 40
2.99981689453125
 50
0.0
 51
360.0
 73
               0
 97
        1
330
A9
 75
               0
 76
               1
 98
        1
 10
0.0
 20
0.0
  0
CIRCLE
  5
AB
102
{ACAD_REACTORS
330
AC
102
}
100
AcDbEntity
  8
0
370
              -2
390
0
  6
Continuous
 62
               0
100
AcDbCircle
 10
-568.49756079793087
 20
1292.3505675623242
 30
0.0
 40
2.99981689453125
  0
HATCH
  5
AC
100
AcDbEntity
  8
0
370
              -2
390
0
  6
Continuous
 62
               0
100
AcDbHatch
 10
0.0
 20
0.0
 30
0.0
210
0.0
220
0.0
230
1.0
  2
SOLID
 70
               1
 71
               1
 91
        1
 92
        1
 93
        1
 72
               2
 10
-568.49756079793087
 20
1292.3505675623242
 40
2.99981689453125
 50
0.0
 51
360.0
 73
               0
 97
        1
330
AB
 75
               0
 76
               1
 98
        1
 10
0.0
 20
0.0
  0
MTEXT
  5
AD
100
AcDbEntity
  8
0
390
0
 62
               0
100
AcDbMText
 10
-654.21631332119387
 20
1340.6669933435742
 30
0.0
 40
36.64892578125
 41
0.0
 71
               1
 72
               1
  1
100
  7
ＭＳ ゴシック
 73
               1
 44
0.7828267384257843
  0
POINT
  5
AE
100
AcDbEntity
  8
Defpoints
370
               0
390
0
 62
               0
100
AcDbPoint
 10
-568.49756079793087
 20
1114.981452618671
 30
0.0
  0
POINT
  5
AF
100
AcDbEntity
  8
Defpoints
370
               0
390
0
 62
               0
100
AcDbPoint
 10
-668.49756079792996
 20
1115.981452618671
 30
0.0
  0
POINT
  5
B0
100
AcDbEntity
  8
Defpoints
370
               0
390
0
 62
               0
100
AcDbPoint
 10
-668.49756079792996
 20
1292.3505675623242
 30
0.0
  0
ENDBLK
  5
B1
100
AcDbEntity
  8
notes
390
0
100
AcDbBlockEnd
  0
BLOCK
  5
B2
100
AcDbEntity
  8
notes
390
0
100
AcDbBlockBegin
  2
*D9
 70
               1
 10
0.0
 20
0.0
 30
0.0
  3
*D9
  1

  0
LINE
  5
B3
100
AcDbEntity
  8
0
370
              -2
390
0
  6
Continuous
 62
               0
100
AcDbLine
 10
-568.49756079793087
 20
1152.481452618671
 30
0.0
 11
-568.49756079793087
 21
1292.3505675623242
 31
0.0
  0
LINE
  5
B4
100
AcDbEntity
  8
0
370
              -2
390
0
  6
Continuous
 62
               0
100
AcDbLine
 10
-468.49756079793042
 20
1153.481452618671
 30
0.0
 11
-468.49756079793042
 21
1292.3505675623242
 31
0.0
  0
LINE
  5
B5
100
AcDbEntity
  8
0
370
              -2
390
0
  6
Continuous
 62
               0
100
AcDbLine
 10
-568.49756079793087
 20
1292.3505675623242
 30
0.0
 11
-468.49756079793042
 21
1292.3505675623242
 31
0.0
  0
CIRCLE
  5
B6
102
{ACAD_REACTORS
330
B7
102
}
100
AcDbEntity
  8
0
370
              -2
390
0
  6
Continuous
 62
               0
100
AcDbCircle
 10
-568.49756079793087
 20
1292.3505675623242
 30
0.0
 40
2.99981689453125
  0
HATCH
  5
B7
100
AcDbEntity
  8
0
370
              -2
390
0
  6
Continuous
 62
               0
100
AcDbHatch
 10
0.0
 20
0.0
 30
0.0
210
0.0
220
0.0
230
1.0
  2
SOLID
 70
               1
 71
               1
 91
        1
 92
        1
 93
        1
 72
               2
 10
-568.49756079793087
 20
1292.3505675623242
 40
2.99981689453125
 50
0.0
 51
360.0
 73
               0
 97
        1
330
B6
 75
               0
 76
               1
 98
        1
 10
0.0
 20
0.0
  0
CIRCLE
  5
B8
102
{ACAD_REACTORS
330
B9
102
}
100
AcDbEntity
  8
0
370
              -2
390
0
  6
Continuous
 62
               0
100
AcDbCircle
 10
-468.49756079793042
 20
1292.3505675623242
 30
0.0
 40
2.99981689453125
  0
HATCH
  5
B9
100
AcDbEntity
  8
0
370
              -2
390
0
  6
Continuous
 62
               0
100
AcDbHatch
 10
0.0
 20
0.0
 30
0.0
210
0.0
220
0.0
230
1.0
  2
SOLID
 70
               1
 71
               1
 91
        1
 92
        1
 93
        1
 72
               2
 10
-468.49756079793042
 20
1292.3505675623242
 40
2.99981689453125
 50
0.0
 51
360.0
 73
               0
 97
        1
330
B8
 75
               0
 76
               1
 98
        1
 10
0.0
 20
0.0
  0
MTEXT
  5
BA
100
AcDbEntity
  8
0
390
0
 62
               0
100
AcDbMText
 10
-554.21631332119387
 20
1340.6669933435742
 30
0.0
 40
36.64892578125
 41
0.0
 71
               1
 72
               1
  1
100
  7
ＭＳ ゴシック
 73
               1
 44
0.7828267384257843
  0
POINT
  5
BB
100
AcDbEntity
  8
Defpoints
370
               0
390
0
 62
               0
100
AcDbPoint
 10
-468.49756079793042
 20
1115.981452618671
 30
0.0
  0
POINT
  5
BC
100
AcDbEntity
  8
Defpoints
370
               0
390
0
 62
               0
100
AcDbPoint
 10
-568.49756079793087
 20
1114.981452618671
 30
0.0
  0
POINT
  5
BD
100
AcDbEntity
  8
Defpoints
370
               0
390
0
 62
               0
100
AcDbPoint
 10
-568.49756079793087
 20
1292.3505675623242
 30
0.0
  0
ENDBLK
  5
BE
100
AcDbEntity
  8
notes
390
0
100
AcDbBlockEnd
  0
BLOCK
  5
BF
100
AcDbEntity
  8
notes
390
0
100
AcDbBlockBegin
  2
*D10
 70
               1
 10
0.0
 20
0.0
 30
0.0
  3
*D10
  1

  0
LINE
  5
C0
100
AcDbEntity
  8
0
370
              -2
390
0
  6
Continuous
 62
               0
100
AcDbLine
 10
-468.49756079793042
 20
1153.481452618671
 30
0.0
 11
-468.49756079793042
 21
1292.3505675623242
 31
0.0
  0
LINE
  5
C1
100
AcDbEntity
  8
0
370
              -2
390
0
  6
Continuous
 62
               0
100
AcDbLine
 10
-368.49756079793042
 20
1152.481452618671
 30
0.0
 11
-368.49756079793042
 21
1292.3505675623242
 31
0.0
  0
LINE
  5
C2
100
AcDbEntity
  8
0
370
              -2
390
0
  6
Continuous
 62
               0
100
AcDbLine
 10
-468.49756079793042
 20
1292.3505675623242
 30
0.0
 11
-368.49756079793042
 21
1292.3505675623242
 31
0.0
  0
CIRCLE
  5
C3
102
{ACAD_REACTORS
330
C4
102
}
100
AcDbEntity
  8
0
370
              -2
390
0
  6
Continuous
 62
               0
100
AcDbCircle
 10
-468.49756079793042
 20
1292.3505675623242
 30
0.0
 40
2.99981689453125
  0
HATCH
  5
C4
100
AcDbEntity
  8
0
370
              -2
390
0
  6
Continuous
 62
               0
100
AcDbHatch
 10
0.0
 20
0.0
 30
0.0
210
0.0
220
0.0
230
1.0
  2
SOLID
 70
               1
 71
               1
 91
        1
 92
        1
 93
        1
 72
               2
 10
-468.49756079793042
 20
1292.3505675623242
 40
2.99981689453125
 50
0.0
 51
360.0
 73
               0
 97
        1
330
C3
 75
               0
 76
               1
 98
        1
 10
0.0
 20
0.0
  0
CIRCLE
  5
C5
102
{ACAD_REACTORS
330
C6
102
}
100
AcDbEntity
  8
0
370
              -2
390
0
  6
Continuous
 62
               0
100
AcDbCircle
 10
-368.49756079793042
 20
1292.3505675623242
 30
0.0
 40
2.99981689453125
  0
HATCH
  5
C6
100
AcDbEntity
  8
0
370
              -2
390
0
  6
Continuous
 62
               0
100
AcDbHatch
 10
0.0
 20
0.0
 30
0.0
210
0.0
220
0.0
230
1.0
  2
SOLID
 70
               1
 71
               1
 91
        1
 92
        1
 93
        1
 72
               2
 10
-368.49756079793042
 20
1292.3505675623242
 40
2.99981689453125
 50
0.0
 51
360.0
 73
               0
 97
        1
330
C5
 75
               0
 76
               1
 98
        1
 10
0.0
 20
0.0
  0
MTEXT
  5
C7
100
AcDbEntity
  8
0
390
0
 62
               0
100
AcDbMText
 10
-454.21631332119387
 20
1340.6669933435742
 30
0.0
 40
36.64892578125
 41
0.0
 71
               1
 72
               1
  1
100
  7
ＭＳ ゴシック
 73
               1
 44
0.7828267384257843
  0
POINT
  5
C8
100
AcDbEntity
  8
Defpoints
370
               0
390
0
 62
               0
100
AcDbPoint
 10
-368.49756079793042
 20
1114.981452618671
 30
0.0
  0
POINT
  5
C9
100
AcDbEntity
  8
Defpoints
370
               0
390
0
 62
               0
100
AcDbPoint
 10
-468.49756079793042
 20
1115.981452618671
 30
0.0
  0
POINT
  5
CA
100
AcDbEntity
  8
Defpoints
370
               0
390
0
 62
               0
100
AcDbPoint
 10
-468.49756079793042
 20
1292.3505675623242
 30
0.0
  0
ENDBLK
  5
CB
100
AcDbEntity
  8
notes
390
0
100
AcDbBlockEnd
  0
BLOCK
  5
CC
100
AcDbEntity
  8
notes
390
0
100
AcDbBlockBegin
  2
*D11
 70
               1
 10
0.0
 20
0.0
 30
0.0
  3
*D11
  1

  0
LINE
  5
CD
100
AcDbEntity
  8
0
370
              -2
390
0
  6
Continuous
 62
               0
100
AcDbLine
 10
-1168.4975607979295
 20
1205.8505675623242
 30
0.0
 11
-1168.4975607979295
 21
1372.3505675623242
 31
0.0
  0
LINE
  5
CE
100
AcDbEntity
  8
0
370
              -2
390
0
  6
Continuous
 62
               0
100
AcDbLine
 10
-168.49756079793042
 20
1205.8505675623242
 30
0.0
 11
-168.49756079793042
 21
1372.3505675623242
 31
0.0
  0
LINE
  5
CF
100
AcDbEntity
  8
0
370
              -2
390
0
  6
Continuous
 62
               0
100
AcDbLine
 10
-1168.4975607979295
 20
1372.3505675623242
 30
0.0
 11
-168.49756079793042
 21
1372.3505675623242
 31
0.0
  0
CIRCLE
  5
D0
102
{ACAD_REACTORS
330
D1
102
}
100
AcDbEntity
  8
0
370
              -2
390
0
  6
Continuous
 62
               0
100
AcDbCircle
 10
-1168.4975607979295
 20
1372.3505675623242
 30
0.0
 40
2.99981689453125
  0
HATCH
  5
D1
100
AcDbEntity
  8
0
370
              -2
390
0
  6
Continuous
 62
               0
100
AcDbHatch
 10
0.0
 20
0.0
 30
0.0
210
0.0
220
0.0
230
1.0
  2
SOLID
 70
               1
 71
               1
 91
        1
 92
        1
 93
        1
 72
               2
 10
-1168.4975607979295
 20
1372.3505675623242
 40
2.99981689453125
 50
0.0
 51
360.0
 73
               0
 97
        1
330
D0
 75
               0
 76
               1
 98
        1
 10
0.0
 20
0.0
  0
CIRCLE
  5
D2
102
{ACAD_REACTORS
330
D3
102
}
100
AcDbEntity
  8
0
370
              -2
390
0
  6
Continuous
 62
               0
100
AcDbCircle
 10
-168.49756079793042
 20
1372.3505675623242
 30
0.0
 40
2.99981689453125
  0
HATCH
  5
D3
100
AcDbEntity
  8
0
370
              -2
390
0
  6
Continuous
 62
               0
100
AcDbHatch
 10
0.0
 20
0.0
 30
0.0
210
0.0
220
0.0
230
1.0
  2
SOLID
 70
               1
 71
               1
 91
        1
 92
        1
 93
        1
 72
               2
 10
-168.49756079793042
 20
1372.3505675623242
 40
2.99981689453125
 50
0.0
 51
360.0
 73
               0
 97
        1
330
D2
 75
               0
 76
               1
 98
        1
 10
0.0
 20
0.0
  0
MTEXT
  5
D4
100
AcDbEntity
  8
0
390
0
 62
               0
100
AcDbMText
 10
-716.12256079792996
 20
1420.6669933435742
 30
0.0
 40
36.64892578125
 41
0.0
 71
               1
 72
               1
  1
1000
  7
ＭＳ ゴシック
 73
               1
 44
0.7828267384257843
  0
POINT
  5
D5
100
AcDbEntity
  8
Defpoints
370
               0
390
0
 62
               0
100
AcDbPoint
 10
-168.49756079793042
 20
1168.3505675623242
 30
0.0
  0
POINT
  5
D6
100
AcDbEntity
  8
Defpoints
370
               0
390
0
 62
               0
100
AcDbPoint
 10
-1168.4975607979295
 20
1168.3505675623242
 30
0.0
  0
POINT
  5
D7
100
AcDbEntity
  8
Defpoints
370
               0
390
0
 62
               0
100
AcDbPoint
 10
-1168.4975607979295
 20
1372.3505675623242
 30
0.0
  0
ENDBLK
  5
D8
100
AcDbEntity
  8
notes
390
0
100
AcDbBlockEnd
  0
BLOCK
  5
D9
100
AcDbEntity
  8
notes
390
0
100
AcDbBlockBegin
  2
*D12
 70
               1
 10
0.0
 20
0.0
 30
0.0
  3
*D12
  1

  0
LINE
  5
DA
100
AcDbEntity
  8
0
370
              -2
390
0
  6
Continuous
 62
               0
100
AcDbLine
 10
-1205.9975607979295
 20
1032.3505675623232
 30
0.0
 11
-1288.4975607979295
 21
1032.3505675623235
 31
0.0
  0
LINE
  5
DB
100
AcDbEntity
  8
0
370
              -2
390
0
  6
Continuous
 62
               0
100
AcDbLine
 10
-1205.9975607979295
 20
692.35056756232336
 30
0.0
 11
-1288.49756079793
 21
692.35056756232348
 31
0.0
  0
LINE
  5
DC
100
AcDbEntity
  8
0
370
              -2
390
0
  6
Continuous
 62
               0
100
AcDbLine
 10
-1288.4975607979295
 20
1032.3505675623235
 30
0.0
 11
-1288.49756079793
 21
692.35056756232348
 31
0.0
  0
CIRCLE
  5
DD
102
{ACAD_REACTORS
330
DE
102
}
100
AcDbEntity
  8
0
370
              -2
390
0
  6
Continuous
 62
               0
100
AcDbCircle
 10
-1288.4975607979295
 20
1032.3505675623235
 30
0.0
 40
2.99981689453125
  0
HATCH
  5
DE
100
AcDbEntity
  8
0
370
              -2
390
0
  6
Continuous
 62
               0
100
AcDbHatch
 10
0.0
 20
0.0
 30
0.0
210
0.0
220
0.0
230
1.0
  2
SOLID
 70
               1
 71
               1
 91
        1
 92
        1
 93
        1
 72
               2
 10
-1288.4975607979295
 20
1032.3505675623235
 40
2.99981689453125
 50
0.0
 51
360.0
 73
               0
 97
        1
330
DD
 75
               0
 76
               1
 98
        1
 10
0.0
 20
0.0
  0
CIRCLE
  5
DF
102
{ACAD_REACTORS
330
E0
102
}
100
AcDbEntity
  8
0
370
              -2
390
0
  6
Continuous
 62
               0
100
AcDbCircle
 10
-1288.49756079793
 20
692.35056756232348
 30
0.0
 40
2.99981689453125
  0
HATCH
  5
E0
100
AcDbEntity
  8
0
370
              -2
390
0
  6
Continuous
 62
               0
100
AcDbHatch
 10
0.0
 20
0.0
 30
0.0
210
0.0
220
0.0
230
1.0
  2
SOLID
 70
               1
 71
               1
 91
        1
 92
        1
 93
        1
 72
               2
 10
-1288.49756079793
 20
692.35056756232348
 40
2.99981689453125
 50
0.0
 51
360.0
 73
               0
 97
        1
330
DF
 75
               0
 76
               1
 98
        1
 10
0.0
 20
0.0
  0
MTEXT
  5
E1
100
AcDbEntity
  8
0
390
0
 62
               0
100
AcDbMText
 10
-1336.8139865791795
 20
826.63181503906014
 30
0.0
 40
36.64892578125
 41
0.0
 71
               1
 72
               1
  1
340
  7
ＭＳ ゴシック
 11
0.0
 21
1.0
 31
0.0
 73
               1
 44
0.7828267384257843
  0
POINT
  5
E2
100
AcDbEntity
  8
Defpoints
370
               0
390
0
 62
               0
100
AcDbPoint
 10
-1168.4975607979295
 20
692.35056756232336
 30
0.0
  0
POINT
  5
E3
100
AcDbEntity
  8
Defpoints
370
               0
390
0
 62
               0
100
AcDbPoint
 10
-1168.4975607979295
 20
1032.3505675623232
 30
0.0
  0
POINT
  5
E4
100
AcDbEntity
  8
Defpoints
370
               0
390
0
 62
               0
100
AcDbPoint
 10
-1288.4975607979295
 20
1032.3505675623235
 30
0.0
  0
ENDBLK
  5
E5
100
AcDbEntity
  8
notes
390
0
100
AcDbBlockEnd
  0
BLOCK
  5
E6
100
AcDbEntity
  8
notes
390
0
100
AcDbBlockBegin
  2
*D13
 70
               1
 10
0.0
 20
0.0
 30
0.0
  3
*D13
  1

  0
LINE
  5
E7
100
AcDbEntity
  8
0
370
              -2
390
0
  6
Continuous
 62
               0
100
AcDbLine
 10
-1205.9975607979295
 20
1032.3505675623232
 30
0.0
 11
-1288.4975607979295
 21
1032.3505675623232
 31
0.0
  0
LINE
  5
E8
100
AcDbEntity
  8
0
370
              -2
390
0
  6
Continuous
 62
               0
100
AcDbLine
 10
-1201.9975607979295
 20
1172.3505675623242
 30
0.0
 11
-1288.4975607979295
 21
1172.3505675623242
 31
0.0
  0
LINE
  5
E9
100
AcDbEntity
  8
0
370
              -2
390
0
  6
Continuous
 62
               0
100
AcDbLine
 10
-1288.4975607979295
 20
1032.3505675623232
 30
0.0
 11
-1288.4975607979295
 21
1172.3505675623242
 31
0.0
  0
CIRCLE
  5
EA
102
{ACAD_REACTORS
330
EB
102
}
100
AcDbEntity
  8
0
370
              -2
390
0
  6
Continuous
 62
               0
100
AcDbCircle
 10
-1288.4975607979295
 20
1032.3505675623232
 30
0.0
 40
2.99981689453125
  0
HATCH
  5
EB
100
AcDbEntity
  8
0
370
              -2
390
0
  6
Continuous
 62
               0
100
AcDbHatch
 10
0.0
 20
0.0
 30
0.0
210
0.0
220
0.0
230
1.0
  2
SOLID
 70
               1
 71
               1
 91
        1
 92
        1
 93
        1
 72
               2
 10
-1288.4975607979295
 20
1032.3505675623232
 40
2.99981689453125
 50
0.0
 51
360.0
 73
               0
 97
        1
330
EA
 75
               0
 76
               1
 98
        1
 10
0.0
 20
0.0
  0
CIRCLE
  5
EC
102
{ACAD_REACTORS
330
ED
102
}
100
AcDbEntity
  8
0
370
              -2
390
0
  6
Continuous
 62
               0
100
AcDbCircle
 10
-1288.4975607979295
 20
1172.3505675623242
 30
0.0
 40
2.99981689453125
  0
HATCH
  5
ED
100
AcDbEntity
  8
0
370
              -2
390
0
  6
Continuous
 62
               0
100
AcDbHatch
 10
0.0
 20
0.0
 30
0.0
210
0.0
220
0.0
230
1.0
  2
SOLID
 70
               1
 71
               1
 91
        1
 92
        1
 93
        1
 72
               2
 10
-1288.4975607979295
 20
1172.3505675623242
 40
2.99981689453125
 50
0.0
 51
360.0
 73
               0
 97
        1
330
EC
 75
               0
 76
               1
 98
        1
 10
0.0
 20
0.0
  0
MTEXT
  5
EE
100
AcDbEntity
  8
0
390
0
 62
               0
100
AcDbMText
 10
-1336.8139865791795
 20
1066.6318150390605
 30
0.0
 40
36.64892578125
 41
0.0
 71
               1
 72
               1
  1
140
  7
ＭＳ ゴシック
 11
0.0
 21
1.0
 31
0.0
 73
               1
 44
0.7828267384257843
  0
POINT
  5
EF
100
AcDbEntity
  8
Defpoints
370
               0
390
0
 62
               0
100
AcDbPoint
 10
-1164.4975607979295
 20
1172.3505675623242
 30
0.0
  0
POINT
  5
F0
100
AcDbEntity
  8
Defpoints
370
               0
390
0
 62
               0
100
AcDbPoint
 10
-1168.4975607979295
 20
1032.3505675623232
 30
0.0
  0
POINT
  5
F1
100
AcDbEntity
  8
Defpoints
370
               0
390
0
 62
               0
100
AcDbPoint
 10
-1288.4975607979295
 20
1032.3505675623232
 30
0.0
  0
ENDBLK
  5
F2
100
AcDbEntity
  8
notes
390
0
100
AcDbBlockEnd
  0
BLOCK
  5
F3
100
AcDbEntity
  8
notes
390
0
100
AcDbBlockBegin
  2
*D14
 70
               1
 10
0.0
 20
0.0
 30
0.0
  3
*D14
  1

  0
LINE
  5
F4
100
AcDbEntity
  8
0
370
              -2
390
0
  6
Continuous
 62
               0
100
AcDbLine
 10
-1095.99756079793
 20
584.85056756232427
 30
0.0
 11
-1095.99756079793
 21
502.35056756232404
 31
0.0
  0
LINE
  5
F5
100
AcDbEntity
  8
0
370
              -2
390
0
  6
Continuous
 62
               0
100
AcDbLine
 10
-240.99756079793087
 20
584.85056756232427
 30
0.0
 11
-240.99756079793087
 21
502.35056756232404
 31
0.0
  0
LINE
  5
F6
100
AcDbEntity
  8
0
370
              -2
390
0
  6
Continuous
 62
               0
100
AcDbLine
 10
-1095.99756079793
 20
502.35056756232404
 30
0.0
 11
-240.99756079793087
 21
502.35056756232404
 31
0.0
  0
CIRCLE
  5
F7
102
{ACAD_REACTORS
330
F8
102
}
100
AcDbEntity
  8
0
370
              -2
390
0
  6
Continuous
 62
               0
100
AcDbCircle
 10
-1095.99756079793
 20
502.35056756232404
 30
0.0
 40
2.99981689453125
  0
HATCH
  5
F8
100
AcDbEntity
  8
0
370
              -2
390
0
  6
Continuous
 62
               0
100
AcDbHatch
 10
0.0
 20
0.0
 30
0.0
210
0.0
220
0.0
230
1.0
  2
SOLID
 70
               1
 71
               1
 91
        1
 92
        1
 93
        1
 72
               2
 10
-1095.99756079793
 20
502.35056756232404
 40
2.99981689453125
 50
0.0
 51
360.0
 73
               0
 97
        1
330
F7
 75
               0
 76
               1
 98
        1
 10
0.0
 20
0.0
  0
CIRCLE
  5
F9
102
{ACAD_REACTORS
330
FA
102
}
100
AcDbEntity
  8
0
370
              -2
390
0
  6
Continuous
 62
               0
100
AcDbCircle
 10
-240.99756079793087
 20
502.35056756232404
 30
0.0
 40
2.99981689453125
  0
HATCH
  5
FA
100
AcDbEntity
  8
0
370
              -2
390
0
  6
Continuous
 62
               0
100
AcDbHatch
 10
0.0
 20
0.0
 30
0.0
210
0.0
220
0.0
230
1.0
  2
SOLID
 70
               1
 71
               1
 91
        1
 92
        1
 93
        1
 72
               2
 10
-240.99756079793087
 20
502.35056756232404
 40
2.99981689453125
 50
0.0
 51
360.0
 73
               0
 97
        1
330
F9
 75
               0
 76
               1
 98
        1
 10
0.0
 20
0.0
  0
MTEXT
  5
FB
100
AcDbEntity
  8
0
390
0
 62
               0
100
AcDbMText
 10
-704.21631332119387
 20
550.66699334357406
 30
0.0
 40
36.64892578125
 41
0.0
 71
               1
 72
               1
  1
855
  7
ＭＳ ゴシック
 73
               1
 44
0.7828267384257843
  0
POINT
  5
FC
100
AcDbEntity
  8
Defpoints
370
               0
390
0
 62
               0
100
AcDbPoint
 10
-240.99756079793087
 20
622.35056756232427
 30
0.0
  0
POINT
  5
FD
100
AcDbEntity
  8
Defpoints
370
               0
390
0
 62
               0
100
AcDbPoint
 10
-1095.99756079793
 20
622.35056756232427
 30
0.0
  0
POINT
  5
FE
100
AcDbEntity
  8
Defpoints
370
               0
390
0
 62
               0
100
AcDbPoint
 10
-1095.99756079793
 20
502.35056756232404
 30
0.0
  0
ENDBLK
  5
FF
100
AcDbEntity
  8
notes
390
0
100
AcDbBlockEnd
  0
BLOCK
  5
100
100
AcDbEntity
  8
notes
390
0
100
AcDbBlockBegin
  2
*D15
 70
               1
 10
0.0
 20
0.0
 30
0.0
  3
*D15
  1

  0
LINE
  5
101
100
AcDbEntity
  8
0
370
              -2
390
0
  6
Continuous
 62
               0
100
AcDbLine
 10
1172.4046060566106
 20
637.35056756232404
 30
0.0
 11
1283.9046060566093
 21
637.35056756232404
 31
0.0
  0
LINE
  5
102
100
AcDbEntity
  8
0
370
              -2
390
0
  6
Continuous
 62
               0
100
AcDbLine
 10
1172.4046060566106
 20
1157.3505675623235
 30
0.0
 11
1283.9046060566093
 21
1157.3505675623235
 31
0.0
  0
LINE
  5
103
100
AcDbEntity
  8
0
370
              -2
390
0
  6
Continuous
 62
               0
100
AcDbLine
 10
1283.9046060566093
 20
637.35056756232404
 30
0.0
 11
1283.9046060566093
 21
1157.3505675623235
 31
0.0
  0
CIRCLE
  5
104
102
{ACAD_REACTORS
330
105
102
}
100
AcDbEntity
  8
0
370
              -2
390
0
  6
Continuous
 62
               0
100
AcDbCircle
 10
1283.9046060566093
 20
637.35056756232404
 30
0.0
 40
2.99981689453125
  0
HATCH
  5
105
100
AcDbEntity
  8
0
370
              -2
390
0
  6
Continuous
 62
               0
100
AcDbHatch
 10
0.0
 20
0.0
 30
0.0
210
0.0
220
0.0
230
1.0
  2
SOLID
 70
               1
 71
               1
 91
        1
 92
        1
 93
        1
 72
               2
 10
1283.9046060566093
 20
637.35056756232404
 40
2.99981689453125
 50
0.0
 51
360.0
 73
               0
 97
        1
330
104
 75
               0
 76
               1
 98
        1
 10
0.0
 20
0.0
  0
CIRCLE
  5
106
102
{ACAD_REACTORS
330
107
102
}
100
AcDbEntity
  8
0
370
              -2
390
0
  6
Continuous
 62
               0
100
AcDbCircle
 10
1283.9046060566093
 20
1157.3505675623235
 30
0.0
 40
2.99981689453125
  0
HATCH
  5
107
100
AcDbEntity
  8
0
370
              -2
390
0
  6
Continuous
 62
               0
100
AcDbHatch
 10
0.0
 20
0.0
 30
0.0
210
0.0
220
0.0
230
1.0
  2
SOLID
 70
               1
 71
               1
 91
        1
 92
        1
 93
        1
 72
               2
 10
1283.9046060566093
 20
1157.3505675623235
 40
2.99981689453125
 50
0.0
 51
360.0
 73
               0
 97
        1
330
106
 75
               0
 76
               1
 98
        1
 10
0.0
 20
0.0
  0
MTEXT
  5
108
100
AcDbEntity
  8
0
390
0
 62
               0
100
AcDbMText
 10
1235.5881802753593
 20
861.63181503906037
 30
0.0
 40
36.64892578125
 41
0.0
 71
               1
 72
               1
  1
520
  7
ＭＳ ゴシック
 11
0.0
 21
1.0
 31
0.0
 73
               1
 44
0.7828267384257843
  0
POINT
  5
109
100
AcDbEntity
  8
Defpoints
370
               0
390
0
 62
               0
100
AcDbPoint
 10
1134.9046060566106
 20
1157.3505675623235
 30
0.0
  0
POINT
  5
10A
100
AcDbEntity
  8
Defpoints
370
               0
390
0
 62
               0
100
AcDbPoint
 10
1134.9046060566106
 20
637.35056756232404
 30
0.0
  0
POINT
  5
10B
100
AcDbEntity
  8
Defpoints
370
               0
390
0
 62
               0
100
AcDbPoint
 10
1283.9046060566093
 20
637.35056756232404
 30
0.0
  0
ENDBLK
  5
10C
100
AcDbEntity
  8
notes
390
0
100
AcDbBlockEnd
  0
BLOCK
  5
10D
100
AcDbEntity
  8
notes
390
0
100
AcDbBlockBegin
  2
*D16
 70
               1
 10
0.0
 20
0.0
 30
0.0
  3
*D16
  1

  0
LINE
  5
10E
100
AcDbEntity
  8
0
370
              -2
390
0
  6
Continuous
 62
               0
100
AcDbLine
 10
978.90460605661087
 20
-598.47839726458642
 30
0.0
 11
978.90460605661087
 21
-793.97839726388884
 31
0.0
  0
LINE
  5
10F
100
AcDbEntity
  8
0
370
              -2
390
0
  6
Continuous
 62
               0
100
AcDbLine
 10
663.90460605661087
 20
-690.47839726389111
 30
0.0
 11
663.90460605661087
 21
-793.97839726388884
 31
0.0
  0
LINE
  5
110
100
AcDbEntity
  8
0
370
              -2
390
0
  6
Continuous
 62
               0
100
AcDbLine
 10
978.90460605661087
 20
-793.97839726388884
 30
0.0
 11
663.90460605661087
 21
-793.97839726388884
 31
0.0
  0
CIRCLE
  5
111
102
{ACAD_REACTORS
330
112
102
}
100
AcDbEntity
  8
0
370
              -2
390
0
  6
Continuous
 62
               0
100
AcDbCircle
 10
978.90460605661087
 20
-793.97839726388884
 30
0.0
 40
2.99981689453125
  0
HATCH
  5
112
100
AcDbEntity
  8
0
370
              -2
390
0
  6
Continuous
 62
               0
100
AcDbHatch
 10
0.0
 20
0.0
 30
0.0
210
0.0
220
0.0
230
1.0
  2
SOLID
 70
               1
 71
               1
 91
        1
 92
        1
 93
        1
 72
               2
 10
978.90460605661087
 20
-793.97839726388884
 40
2.99981689453125
 50
0.0
 51
360.0
 73
               0
 97
        1
330
111
 75
               0
 76
               1
 98
        1
 10
0.0
 20
0.0
  0
CIRCLE
  5
113
102
{ACAD_REACTORS
330
114
102
}
100
AcDbEntity
  8
0
370
              -2
390
0
  6
Continuous
 62
               0
100
AcDbCircle
 10
663.90460605661087
 20
-793.97839726388884
 30
0.0
 40
2.99981689453125
  0
HATCH
  5
114
100
AcDbEntity
  8
0
370
              -2
390
0
  6
Continuous
 62
               0
100
AcDbHatch
 10
0.0
 20
0.0
 30
0.0
210
0.0
220
0.0
230
1.0
  2
SOLID
 70
               1
 71
               1
 91
        1
 92
        1
 93
        1
 72
               2
 10
663.90460605661087
 20
-793.97839726388884
 40
2.99981689453125
 50
0.0
 51
360.0
 73
               0
 97
        1
330
113
 75
               0
 76
               1
 98
        1
 10
0.0
 20
0.0
  0
MTEXT
  5
115
100
AcDbEntity
  8
0
390
0
 62
               0
100
AcDbMText
 10
785.68585353334765
 20
-745.66197148263882
 30
0.0
 40
36.64892578125
 41
0.0
 71
               1
 72
               1
  1
315
  7
ＭＳ ゴシック
 73
               1
 44
0.7828267384257843
  0
POINT
  5
116
100
AcDbEntity
  8
Defpoints
370
               0
390
0
 62
               0
100
AcDbPoint
 10
663.90460605661087
 20
-652.97839726389111
 30
0.0
  0
POINT
  5
117
100
AcDbEntity
  8
Defpoints
370
               0
390
0
 62
               0
100
AcDbPoint
 10
978.90460605661087
 20
-560.97839726458619
 30
0.0
  0
POINT
  5
118
100
AcDbEntity
  8
Defpoints
370
               0
390
0
 62
               0
100
AcDbPoint
 10
978.90460605661087
 20
-793.97839726388884
 30
0.0
  0
ENDBLK
  5
119
100
AcDbEntity
  8
notes
390
0
100
AcDbBlockEnd
  0
BLOCK
  5
11A
100
AcDbEntity
  8
notes
390
0
100
AcDbBlockBegin
  2
*D17
 70
               1
 10
0.0
 20
0.0
 30
0.0
  3
*D17
  1

  0
LINE
  5
11B
100
AcDbEntity
  8
0
370
              -2
390
0
  6
Continuous
 62
               0
100
AcDbLine
 10
-1138.4487185563976
 20
-709.01753350094123
 30
0.0
 11
-1138.4487185563976
 21
-793.97839726389066
 31
0.0
  0
LINE
  5
11C
100
AcDbEntity
  8
0
370
              -2
390
0
  6
Continuous
 62
               0
100
AcDbLine
 10
-198.49756079778399
 20
-706.4783972638902
 30
0.0
 11
-198.49756079778399
 21
-793.97839726389066
 31
0.0
  0
LINE
  5
11D
100
AcDbEntity
  8
0
370
              -2
390
0
  6
Continuous
 62
               0
100
AcDbLine
 10
-1138.4487185563976
 20
-793.97839726389066
 30
0.0
 11
-198.49756079778399
 21
-793.97839726389066
 31
0.0
  0
CIRCLE
  5
11E
102
{ACAD_REACTORS
330
11F
102
}
100
AcDbEntity
  8
0
370
              -2
390
0
  6
Continuous
 62
               0
100
AcDbCircle
 10
-1138.4487185563976
 20
-793.97839726389066
 30
0.0
 40
2.99981689453125
  0
HATCH
  5
11F
100
AcDbEntity
  8
0
370
              -2
390
0
  6
Continuous
 62
               0
100
AcDbHatch
 10
0.0
 20
0.0
 30
0.0
210
0.0
220
0.0
230
1.0
  2
SOLID
 70
               1
 71
               1
 91
        1
 92
        1
 93
        1
 72
               2
 10
-1138.4487185563976
 20
-793.97839726389066
 40
2.99981689453125
 50
0.0
 51
360.0
 73
               0
 97
        1
330
11E
 75
               0
 76
               1
 98
        1
 10
0.0
 20
0.0
  0
CIRCLE
  5
120
102
{ACAD_REACTORS
330
121
102
}
100
AcDbEntity
  8
0
370
              -2
390
0
  6
Continuous
 62
               0
100
AcDbCircle
 10
-198.49756079778399
 20
-793.97839726389066
 30
0.0
 40
2.99981689453125
  0
HATCH
  5
121
100
AcDbEntity
  8
0
370
              -2
390
0
  6
Continuous
 62
               0
100
AcDbHatch
 10
0.0
 20
0.0
 30
0.0
210
0.0
220
0.0
230
1.0
  2
SOLID
 70
               1
 71
               1
 91
        1
 92
        1
 93
        1
 72
               2
 10
-198.49756079778399
 20
-793.97839726389066
 40
2.99981689453125
 50
0.0
 51
360.0
 73
               0
 97
        1
330
120
 75
               0
 76
               1
 98
        1
 10
0.0
 20
0.0
  0
MTEXT
  5
122
100
AcDbEntity
  8
0
390
0
 62
               0
100
AcDbMText
 10
-704.19189220035423
 20
-745.66197148264064
 30
0.0
 40
36.64892578125
 41
0.0
 71
               1
 72
               1
  1
940
  7
ＭＳ ゴシック
 73
               1
 44
0.7828267384257843
  0
POINT
  5
123
100
AcDbEntity
  8
Defpoints
370
               0
390
0
 62
               0
100
AcDbPoint
 10
-198.49756079778399
 20
-668.9783972638902
 30
0.0
  0
POINT
  5
124
100
AcDbEntity
  8
Defpoints
370
               0
390
0
 62
               0
100
AcDbPoint
 10
-1138.4487185563976
 20
-671.51753350094123
 30
0.0
  0
POINT
  5
125
100
AcDbEntity
  8
Defpoints
370
               0
390
0
 62
               0
100
AcDbPoint
 10
-1138.4487185563976
 20
-793.97839726389066
 30
0.0
  0
ENDBLK
  5
126
100
AcDbEntity
  8
notes
390
0
100
AcDbBlockEnd
  0
BLOCK
  5
127
100
AcDbEntity
  8
notes
390
0
100
AcDbBlockBegin
  2
*D18
 70
               1
 10
0.0
 20
0.0
 30
0.0
  3
*D18
  1

  0
LINE
  5
128
100
AcDbEntity
  8
0
370
              -2
390
0
  6
Continuous
 62
               0
100
AcDbLine
 10
458.90460605661065
 20
-708.47839726388975
 30
0.0
 11
458.90460605661065
 21
-890.1852123191843
 31
0.0
  0
LINE
  5
129
100
AcDbEntity
  8
0
370
              -2
390
0
  6
Continuous
 62
               0
100
AcDbLine
 10
948.90460605661087
 20
-709.4783972638902
 30
0.0
 11
948.90460605661087
 21
-890.1852123191843
 31
0.0
  0
LINE
  5
12A
100
AcDbEntity
  8
0
370
              -2
390
0
  6
Continuous
 62
               0
100
AcDbLine
 10
458.90460605661065
 20
-890.1852123191843
 30
0.0
 11
948.90460605661087
 21
-890.1852123191843
 31
0.0
  0
CIRCLE
  5
12B
102
{ACAD_REACTORS
330
12C
102
}
100
AcDbEntity
  8
0
370
              -2
390
0
  6
Continuous
 62
               0
100
AcDbCircle
 10
458.90460605661065
 20
-890.1852123191843
 30
0.0
 40
2.99981689453125
  0
HATCH
  5
12C
100
AcDbEntity
  8
0
370
              -2
390
0
  6
Continuous
 62
               0
100
AcDbHatch
 10
0.0
 20
0.0
 30
0.0
210
0.0
220
0.0
230
1.0
  2
SOLID
 70
               1
 71
               1
 91
        1
 92
        1
 93
        1
 72
               2
 10
458.90460605661065
 20
-890.1852123191843
 40
2.99981689453125
 50
0.0
 51
360.0
 73
               0
 97
        1
330
12B
 75
               0
 76
               1
 98
        1
 10
0.0
 20
0.0
  0
CIRCLE
  5
12D
102
{ACAD_REACTORS
330
12E
102
}
100
AcDbEntity
  8
0
370
              -2
390
0
  6
Continuous
 62
               0
100
AcDbCircle
 10
948.90460605661087
 20
-890.1852123191843
 30
0.0
 40
2.99981689453125
  0
HATCH
  5
12E
100
AcDbEntity
  8
0
370
              -2
390
0
  6
Continuous
 62
               0
100
AcDbHatch
 10
0.0
 20
0.0
 30
0.0
210
0.0
220
0.0
230
1.0
  2
SOLID
 70
               1
 71
               1
 91
        1
 92
        1
 93
        1
 72
               2
 10
948.90460605661087
 20
-890.1852123191843
 40
2.99981689453125
 50
0.0
 51
360.0
 73
               0
 97
        1
330
12D
 75
               0
 76
               1
 98
        1
 10
0.0
 20
0.0
  0
MTEXT
  5
12F
100
AcDbEntity
  8
0
390
0
 62
               0
100
AcDbMText
 10
668.18585353334743
 20
-841.86878653793428
 30
0.0
 40
36.64892578125
 41
0.0
 71
               1
 72
               1
  1
490
  7
ＭＳ ゴシック
 73
               1
 44
0.7828267384257843
  0
POINT
  5
130
100
AcDbEntity
  8
Defpoints
370
               0
390
0
 62
               0
100
AcDbPoint
 10
948.90460605661087
 20
-671.9783972638902
 30
0.0
  0
POINT
  5
131
100
AcDbEntity
  8
Defpoints
370
               0
390
0
 62
               0
100
AcDbPoint
 10
458.90460605661065
 20
-670.97839726388975
 30
0.0
  0
POINT
  5
132
100
AcDbEntity
  8
Defpoints
370
               0
390
0
 62
               0
100
AcDbPoint
 10
458.90460605661065
 20
-890.1852123191843
 30
0.0
  0
ENDBLK
  5
133
100
AcDbEntity
  8
notes
390
0
100
AcDbBlockEnd
  0
BLOCK
  5
134
100
AcDbEntity
  8
notes
390
0
100
AcDbBlockBegin
  2
*D19
 70
               1
 10
0.0
 20
0.0
 30
0.0
  3
*D19
  1

  0
LINE
  5
135
100
AcDbEntity
  8
0
370
              -2
390
0
  6
Continuous
 62
               0
100
AcDbLine
 10
458.90460605661065
 20
-745.97839726389111
 30
0.0
 11
458.90460605661065
 21
-890.18521231918567
 31
0.0
  0
LINE
  5
136
100
AcDbEntity
  8
0
370
              -2
390
0
  6
Continuous
 62
               0
100
AcDbLine
 10
428.90460605661156
 20
-598.47839726388702
 30
0.0
 11
428.90460605661156
 21
-890.18521231918567
 31
0.0
  0
LINE
  5
137
100
AcDbEntity
  8
0
370
              -2
390
0
  6
Continuous
 62
               0
100
AcDbLine
 10
428.90460605661156
 20
-890.18521231918567
 30
0.0
 11
373.96465946260537
 21
-890.18521231918567
 31
0.0
  0
LINE
  5
138
100
AcDbEntity
  8
0
370
              -2
390
0
  6
Continuous
 62
               0
100
AcDbLine
 10
458.90460605661065
 20
-890.18521231918567
 30
0.0
 11
428.90460605661156
 21
-890.18521231918567
 31
0.0
  0
CIRCLE
  5
139
102
{ACAD_REACTORS
330
13A
102
}
100
AcDbEntity
  8
0
370
              -2
390
0
  6
Continuous
 62
               0
100
AcDbCircle
 10
458.90460605661065
 20
-890.18521231918567
 30
0.0
 40
2.99981689453125
  0
HATCH
  5
13A
100
AcDbEntity
  8
0
370
              -2
390
0
  6
Continuous
 62
               0
100
AcDbHatch
 10
0.0
 20
0.0
 30
0.0
210
0.0
220
0.0
230
1.0
  2
SOLID
 70
               1
 71
               1
 91
        1
 92
        1
 93
        1
 72
               2
 10
458.90460605661065
 20
-890.18521231918567
 40
2.99981689453125
 50
0.0
 51
360.0
 73
               0
 97
        1
330
139
 75
               0
 76
               1
 98
        1
 10
0.0
 20
0.0
  0
CIRCLE
  5
13B
102
{ACAD_REACTORS
330
13C
102
}
100
AcDbEntity
  8
0
370
              -2
390
0
  6
Continuous
 62
               0
100
AcDbCircle
 10
428.90460605661156
 20
-890.18521231918567
 30
0.0
 40
2.99981689453125
  0
HATCH
  5
13C
100
AcDbEntity
  8
0
370
              -2
390
0
  6
Continuous
 62
               0
100
AcDbHatch
 10
0.0
 20
0.0
 30
0.0
210
0.0
220
0.0
230
1.0
  2
SOLID
 70
               1
 71
               1
 91
        1
 92
        1
 93
        1
 72
               2
 10
428.90460605661156
 20
-890.18521231918567
 40
2.99981689453125
 50
0.0
 51
360.0
 73
               0
 97
        1
330
13B
 75
               0
 76
               1
 98
        1
 10
0.0
 20
0.0
  0
MTEXT
  5
13D
100
AcDbEntity
  8
0
390
0
 62
               0
100
AcDbMText
 10
373.96465946260537
 20
-839.36878653793565
 30
0.0
 40
36.64892578125
 41
0.0
 71
               1
 72
               1
  1
30
  7
ＭＳ ゴシック
 73
               1
 44
0.7828267384257843
  0
POINT
  5
13E
100
AcDbEntity
  8
Defpoints
370
               0
390
0
 62
               0
100
AcDbPoint
 10
428.90460605661156
 20
-560.97839726388725
 30
0.0
  0
POINT
  5
13F
100
AcDbEntity
  8
Defpoints
370
               0
390
0
 62
               0
100
AcDbPoint
 10
458.90460605661065
 20
-708.47839726389111
 30
0.0
  0
POINT
  5
140
100
AcDbEntity
  8
Defpoints
370
               0
390
0
 62
               0
100
AcDbPoint
 10
458.90460605661065
 20
-890.18521231918567
 30
0.0
  0
ENDBLK
  5
141
100
AcDbEntity
  8
notes
390
0
100
AcDbBlockEnd
  0
BLOCK
  5
142
100
AcDbEntity
  8
notes
390
0
100
AcDbBlockBegin
  2
*D20
 70
               1
 10
0.0
 20
0.0
 30
0.0
  3
*D20
  1

  0
LINE
  5
143
100
AcDbEntity
  8
0
370
              -2
390
0
  6
Continuous
 62
               0
100
AcDbLine
 10
628.32016081022289
 20
-463.97839726388725
 30
0.0
 11
654.9046060566111
 21
-463.97839726388747
 31
0.0
  0
LINE
  5
144
100
AcDbEntity
  8
0
370
              -2
390
0
  6
Continuous
 62
               0
100
AcDbLine
 10
624.40460605661087
 20
-603.9783972638902
 30
0.0
 11
654.90460605661065
 21
-603.9783972638902
 31
0.0
  0
LINE
  5
145
100
AcDbEntity
  8
0
370
              -2
390
0
  6
Continuous
 62
               0
100
AcDbLine
 10
654.9046060566111
 20
-463.97839726388747
 30
0.0
 11
654.90460605661178
 21
-232.8139774426154
 31
0.0
  0
LINE
  5
146
100
AcDbEntity
  8
0
370
              -2
390
0
  6
Continuous
 62
               0
100
AcDbLine
 10
654.9046060566111
 20
-463.97839726388747
 30
0.0
 11
654.90460605661065
 21
-603.9783972638902
 31
0.0
  0
CIRCLE
  5
147
102
{ACAD_REACTORS
330
148
102
}
100
AcDbEntity
  8
0
370
              -2
390
0
  6
Continuous
 62
               0
100
AcDbCircle
 10
654.9046060566111
 20
-463.97839726388747
 30
0.0
 40
2.99981689453125
  0
HATCH
  5
148
100
AcDbEntity
  8
0
370
              -2
390
0
  6
Continuous
 62
               0
100
AcDbHatch
 10
0.0
 20
0.0
 30
0.0
210
0.0
220
0.0
230
1.0
  2
SOLID
 70
               1
 71
               1
 91
        1
 92
        1
 93
        1
 72
               2
 10
654.9046060566111
 20
-463.97839726388747
 40
2.99981689453125
 50
0.0
 51
360.0
 73
               0
 97
        1
330
147
 75
               0
 76
               1
 98
        1
 10
0.0
 20
0.0
  0
CIRCLE
  5
149
102
{ACAD_REACTORS
330
14A
102
}
100
AcDbEntity
  8
0
370
              -2
390
0
  6
Continuous
 62
               0
100
AcDbCircle
 10
654.90460605661065
 20
-603.9783972638902
 30
0.0
 40
2.99981689453125
  0
HATCH
  5
14A
100
AcDbEntity
  8
0
370
              -2
390
0
  6
Continuous
 62
               0
100
AcDbHatch
 10
0.0
 20
0.0
 30
0.0
210
0.0
220
0.0
230
1.0
  2
SOLID
 70
               1
 71
               1
 91
        1
 92
        1
 93
        1
 72
               2
 10
654.90460605661065
 20
-603.9783972638902
 40
2.99981689453125
 50
0.0
 51
360.0
 73
               0
 97
        1
330
149
 75
               0
 76
               1
 98
        1
 10
0.0
 20
0.0
  0
MTEXT
  5
14B
100
AcDbEntity
  8
0
390
0
 62
               0
100
AcDbMText
 10
606.58818027536154
 20
-447.1264774426154
 30
0.0
 40
36.64892578125
 41
0.0
 71
               1
 72
               1
  1
140(深さ)
  7
ＭＳ ゴシック
 11
0.0
 21
1.0
 31
0.0
 73
               1
 44
0.7828267384257843
  0
POINT
  5
14C
100
AcDbEntity
  8
Defpoints
370
               0
390
0
 62
               0
100
AcDbPoint
 10
661.90460605661087
 20
-603.9783972638902
 30
0.0
  0
POINT
  5
14D
100
AcDbEntity
  8
Defpoints
370
               0
390
0
 62
               0
100
AcDbPoint
 10
665.82016081022289
 20
-463.97839726388747
 30
0.0
  0
POINT
  5
14E
100
AcDbEntity
  8
Defpoints
370
               0
390
0
 62
               0
100
AcDbPoint
 10
654.9046060566111
 20
-463.97839726388747
 30
0.0
  0
ENDBLK
  5
14F
100
AcDbEntity
  8
notes
390
0
100
AcDbBlockEnd
  0
BLOCK
  5
150
100
AcDbEntity
  8
notes
390
0
100
AcDbBlockBegin
  2
*D21
 70
               1
 10
0.0
 20
0.0
 30
0.0
  3
*D21
  1

  0
LINE
  5
151
100
AcDbEntity
  8
0
370
              -2
390
0
  6
Continuous
 62
               0
100
AcDbLine
 10
984.40460605660996
 20
-673.9783972638902
 30
0.0
 11
1098.9046060566106
 21
-673.97839726389066
 31
0.0
  0
LINE
  5
152
100
AcDbEntity
  8
0
370
              -2
390
0
  6
Continuous
 62
               0
100
AcDbLine
 10
1009.6546060566682
 20
-563.97839726388838
 30
0.0
 11
1098.9046060566111
 21
-563.97839726388884
 31
0.0
  0
LINE
  5
153
100
AcDbEntity
  8
0
370
              -2
390
0
  6
Continuous
 62
               0
100
AcDbLine
 10
1098.9046060566106
 20
-673.97839726389066
 30
0.0
 11
1098.9046060566111
 21
-563.97839726388884
 31
0.0
  0
CIRCLE
  5
154
102
{ACAD_REACTORS
330
155
102
}
100
AcDbEntity
  8
0
370
              -2
390
0
  6
Continuous
 62
               0
100
AcDbCircle
 10
1098.9046060566106
 20
-673.97839726389066
 30
0.0
 40
2.99981689453125
  0
HATCH
  5
155
100
AcDbEntity
  8
0
370
              -2
390
0
  6
Continuous
 62
               0
100
AcDbHatch
 10
0.0
 20
0.0
 30
0.0
210
0.0
220
0.0
230
1.0
  2
SOLID
 70
               1
 71
               1
 91
        1
 92
        1
 93
        1
 72
               2
 10
1098.9046060566106
 20
-673.97839726389066
 40
2.99981689453125
 50
0.0
 51
360.0
 73
               0
 97
        1
330
154
 75
               0
 76
               1
 98
        1
 10
0.0
 20
0.0
  0
CIRCLE
  5
156
102
{ACAD_REACTORS
330
157
102
}
100
AcDbEntity
  8
0
370
              -2
390
0
  6
Continuous
 62
               0
100
AcDbCircle
 10
1098.9046060566111
 20
-563.97839726388884
 30
0.0
 40
2.99981689453125
  0
HATCH
  5
157
100
AcDbEntity
  8
0
370
              -2
390
0
  6
Continuous
 62
               0
100
AcDbHatch
 10
0.0
 20
0.0
 30
0.0
210
0.0
220
0.0
230
1.0
  2
SOLID
 70
               1
 71
               1
 91
        1
 92
        1
 93
        1
 72
               2
 10
1098.9046060566111
 20
-563.97839726388884
 40
2.99981689453125
 50
0.0
 51
360.0
 73
               0
 97
        1
330
156
 75
               0
 76
               1
 98
        1
 10
0.0
 20
0.0
  0
MTEXT
  5
158
100
AcDbEntity
  8
0
390
0
 62
               0
100
AcDbMText
 10
1050.5881802753606
 20
-654.69714978715319
 30
0.0
 40
36.64892578125
 41
0.0
 71
               1
 72
               1
  1
110
  7
ＭＳ ゴシック
 11
0.0
 21
1.0
 31
0.0
 73
               1
 44
0.7828267384257843
  0
POINT
  5
159
100
AcDbEntity
  8
Defpoints
370
               0
390
0
 62
               0
100
AcDbPoint
 10
972.15460605666817
 20
-563.97839726388838
 30
0.0
  0
POINT
  5
15A
100
AcDbEntity
  8
Defpoints
370
               0
390
0
 62
               0
100
AcDbPoint
 10
946.90460605660996
 20
-673.9783972638902
 30
0.0
  0
POINT
  5
15B
100
AcDbEntity
  8
Defpoints
370
               0
390
0
 62
               0
100
AcDbPoint
 10
1098.9046060566106
 20
-673.97839726389066
 30
0.0
  0
ENDBLK
  5
15C
100
AcDbEntity
  8
notes
390
0
100
AcDbBlockEnd
  0
BLOCK
  5
15D
100
AcDbEntity
  8
notes
390
0
100
AcDbBlockBegin
  2
*D22
 70
               1
 10
0.0
 20
0.0
 30
0.0
  3
*D22
  1

  0
LINE
  5
15E
100
AcDbEntity
  8
0
370
              -2
390
0
  6
Continuous
 62
               0
100
AcDbLine
 10
1013.4046060567273
 20
-563.97839726388656
 30
0.0
 11
1098.9046060566109
 21
-563.97839726388656
 31
0.0
  0
LINE
  5
15F
100
AcDbEntity
  8
0
370
              -2
390
0
  6
Continuous
 62
               0
100
AcDbLine
 10
1013.4046060567273
 20
-463.97839726388747
 30
0.0
 11
1098.9046060566109
 21
-463.97839726388747
 31
0.0
  0
LINE
  5
160
100
AcDbEntity
  8
0
370
              -2
390
0
  6
Continuous
 62
               0
100
AcDbLine
 10
1098.9046060566109
 20
-563.97839726388656
 30
0.0
 11
1098.9046060566109
 21
-463.97839726388747
 31
0.0
  0
CIRCLE
  5
161
102
{ACAD_REACTORS
330
162
102
}
100
AcDbEntity
  8
0
370
              -2
390
0
  6
Continuous
 62
               0
100
AcDbCircle
 10
1098.9046060566109
 20
-563.97839726388656
 30
0.0
 40
2.99981689453125
  0
HATCH
  5
162
100
AcDbEntity
  8
0
370
              -2
390
0
  6
Continuous
 62
               0
100
AcDbHatch
 10
0.0
 20
0.0
 30
0.0
210
0.0
220
0.0
230
1.0
  2
SOLID
 70
               1
 71
               1
 91
        1
 92
        1
 93
        1
 72
               2
 10
1098.9046060566109
 20
-563.97839726388656
 40
2.99981689453125
 50
0.0
 51
360.0
 73
               0
 97
        1
330
161
 75
               0
 76
               1
 98
        1
 10
0.0
 20
0.0
  0
CIRCLE
  5
163
102
{ACAD_REACTORS
330
164
102
}
100
AcDbEntity
  8
0
370
              -2
390
0
  6
Continuous
 62
               0
100
AcDbCircle
 10
1098.9046060566109
 20
-463.97839726388747
 30
0.0
 40
2.99981689453125
  0
HATCH
  5
164
100
AcDbEntity
  8
0
370
              -2
390
0
  6
Continuous
 62
               0
100
AcDbHatch
 10
0.0
 20
0.0
 30
0.0
210
0.0
220
0.0
230
1.0
  2
SOLID
 70
               1
 71
               1
 91
        1
 92
        1
 93
        1
 72
               2
 10
1098.9046060566109
 20
-463.97839726388747
 40
2.99981689453125
 50
0.0
 51
360.0
 73
               0
 97
        1
330
163
 75
               0
 76
               1
 98
        1
 10
0.0
 20
0.0
  0
MTEXT
  5
165
100
AcDbEntity
  8
0
390
0
 62
               0
100
AcDbMText
 10
1050.5881802753609
 20
-549.69714978715024
 30
0.0
 40
36.64892578125
 41
0.0
 71
               1
 72
               1
  1
100
  7
ＭＳ ゴシック
 11
0.0
 21
1.0
 31
0.0
 73
               1
 44
0.7828267384257843
  0
POINT
  5
166
100
AcDbEntity
  8
Defpoints
370
               0
390
0
 62
               0
100
AcDbPoint
 10
975.90460605672729
 20
-463.97839726388747
 30
0.0
  0
POINT
  5
167
100
AcDbEntity
  8
Defpoints
370
               0
390
0
 62
               0
100
AcDbPoint
 10
975.90460605672729
 20
-563.97839726388656
 30
0.0
  0
POINT
  5
168
100
AcDbEntity
  8
Defpoints
370
               0
390
0
 62
               0
100
AcDbPoint
 10
1098.9046060566109
 20
-563.97839726388656
 30
0.0
  0
ENDBLK
  5
169
100
AcDbEntity
  8
notes
390
0
100
AcDbBlockEnd
  0
BLOCK
  5
16A
100
AcDbEntity
  8
notes
390
0
100
AcDbBlockBegin
  2
*D23
 70
               1
 10
0.0
 20
0.0
 30
0.0
  3
*D23
  1

  0
LINE
  5
16B
100
AcDbEntity
  8
0
370
              -2
390
0
  6
Continuous
 62
               0
100
AcDbLine
 10
-133.99756079766667
 20
-463.97839726388747
 30
0.0
 11
-48.497560797783535
 21
-463.97839726388747
 31
0.0
  0
LINE
  5
16C
100
AcDbEntity
  8
0
370
              -2
390
0
  6
Continuous
 62
               0
100
AcDbLine
 10
-163.99756079778399
 20
-673.9783972638902
 30
0.0
 11
-48.497560797783535
 21
-673.9783972638902
 31
0.0
  0
LINE
  5
16D
100
AcDbEntity
  8
0
370
              -2
390
0
  6
Continuous
 62
               0
100
AcDbLine
 10
-48.497560797783535
 20
-463.97839726388747
 30
0.0
 11
-48.497560797783535
 21
-673.9783972638902
 31
0.0
  0
CIRCLE
  5
16E
102
{ACAD_REACTORS
330
16F
102
}
100
AcDbEntity
  8
0
370
              -2
390
0
  6
Continuous
 62
               0
100
AcDbCircle
 10
-48.497560797783535
 20
-463.97839726388747
 30
0.0
 40
2.99981689453125
  0
HATCH
  5
16F
100
AcDbEntity
  8
0
370
              -2
390
0
  6
Continuous
 62
               0
100
AcDbHatch
 10
0.0
 20
0.0
 30
0.0
210
0.0
220
0.0
230
1.0
  2
SOLID
 70
               1
 71
               1
 91
        1
 92
        1
 93
        1
 72
               2
 10
-48.497560797783535
 20
-463.97839726388747
 40
2.99981689453125
 50
0.0
 51
360.0
 73
               0
 97
        1
330
16E
 75
               0
 76
               1
 98
        1
 10
0.0
 20
0.0
  0
CIRCLE
  5
170
102
{ACAD_REACTORS
330
171
102
}
100
AcDbEntity
  8
0
370
              -2
390
0
  6
Continuous
 62
               0
100
AcDbCircle
 10
-48.497560797783535
 20
-673.9783972638902
 30
0.0
 40
2.99981689453125
  0
HATCH
  5
171
100
AcDbEntity
  8
0
370
              -2
390
0
  6
Continuous
 62
               0
100
AcDbHatch
 10
0.0
 20
0.0
 30
0.0
210
0.0
220
0.0
230
1.0
  2
SOLID
 70
               1
 71
               1
 91
        1
 92
        1
 93
        1
 72
               2
 10
-48.497560797783535
 20
-673.9783972638902
 40
2.99981689453125
 50
0.0
 51
360.0
 73
               0
 97
        1
330
170
 75
               0
 76
               1
 98
        1
 10
0.0
 20
0.0
  0
MTEXT
  5
172
100
AcDbEntity
  8
0
390
0
 62
               0
100
AcDbMText
 10
-96.813986579033553
 20
-604.69714978715228
 30
0.0
 40
36.64892578125
 41
0.0
 71
               1
 72
               1
  1
210
  7
ＭＳ ゴシック
 11
0.0
 21
1.0
 31
0.0
 73
               1
 44
0.7828267384257843
  0
POINT
  5
173
100
AcDbEntity
  8
Defpoints
370
               0
390
0
 62
               0
100
AcDbPoint
 10
-201.49756079778399
 20
-673.9783972638902
 30
0.0
  0
POINT
  5
174
100
AcDbEntity
  8
Defpoints
370
               0
390
0
 62
               0
100
AcDbPoint
 10
-171.49756079766667
 20
-463.97839726388747
 30
0.0
  0
POINT
  5
175
100
AcDbEntity
  8
Defpoints
370
               0
390
0
 62
               0
100
AcDbPoint
 10
-48.497560797783535
 20
-463.97839726388747
 30
0.0
  0
ENDBLK
  5
176
100
AcDbEntity
  8
notes
390
0
100
AcDbBlockEnd
  0
BLOCK
  5
177
100
AcDbEntity
  8
notes
390
0
100
AcDbBlockBegin
  2
*D24
 70
               1
 10
0.0
 20
0.0
 30
0.0
  3
*D24
  1

  0
LINE
  5
178
100
AcDbEntity
  8
0
370
              -2
390
0
  6
Continuous
 62
               0
100
AcDbLine
 10
978.90460605661087
 20
-429.47839726377106
 30
0.0
 11
978.90460605661087
 21
-343.97839726388747
 31
0.0
  0
LINE
  5
179
100
AcDbEntity
  8
0
370
              -2
390
0
  6
Continuous
 62
               0
100
AcDbLine
 10
908.90460605661087
 20
-426.47839726388747
 30
0.0
 11
908.90460605661087
 21
-343.97839726388747
 31
0.0
  0
LINE
  5
17A
100
AcDbEntity
  8
0
370
              -2
390
0
  6
Continuous
 62
               0
100
AcDbLine
 10
978.90460605661087
 20
-343.97839726388747
 30
0.0
 11
908.90460605661087
 21
-343.97839726388747
 31
0.0
  0
CIRCLE
  5
17B
102
{ACAD_REACTORS
330
17C
102
}
100
AcDbEntity
  8
0
370
              -2
390
0
  6
Continuous
 62
               0
100
AcDbCircle
 10
978.90460605661087
 20
-343.97839726388747
 30
0.0
 40
2.99981689453125
  0
HATCH
  5
17C
100
AcDbEntity
  8
0
370
              -2
390
0
  6
Continuous
 62
               0
100
AcDbHatch
 10
0.0
 20
0.0
 30
0.0
210
0.0
220
0.0
230
1.0
  2
SOLID
 70
               1
 71
               1
 91
        1
 92
        1
 93
        1
 72
               2
 10
978.90460605661087
 20
-343.97839726388747
 40
2.99981689453125
 50
0.0
 51
360.0
 73
               0
 97
        1
330
17B
 75
               0
 76
               1
 98
        1
 10
0.0
 20
0.0
  0
CIRCLE
  5
17D
102
{ACAD_REACTORS
330
17E
102
}
100
AcDbEntity
  8
0
370
              -2
390
0
  6
Continuous
 62
               0
100
AcDbCircle
 10
908.90460605661087
 20
-343.97839726388747
 30
0.0
 40
2.99981689453125
  0
HATCH
  5
17E
100
AcDbEntity
  8
0
370
              -2
390
0
  6
Continuous
 62
               0
100
AcDbHatch
 10
0.0
 20
0.0
 30
0.0
210
0.0
220
0.0
230
1.0
  2
SOLID
 70
               1
 71
               1
 91
        1
 92
        1
 93
        1
 72
               2
 10
908.90460605661087
 20
-343.97839726388747
 40
2.99981689453125
 50
0.0
 51
360.0
 73
               0
 97
        1
330
17D
 75
               0
 76
               1
 98
        1
 10
0.0
 20
0.0
  0
MTEXT
  5
17F
100
AcDbEntity
  8
0
390
0
 62
               0
100
AcDbMText
 10
920.09210605661087
 20
-295.66197148263745
 30
0.0
 40
36.64892578125
 41
0.0
 71
               1
 72
               1
  1
70
  7
ＭＳ ゴシック
 73
               1
 44
0.7828267384257843
  0
POINT
  5
180
100
AcDbEntity
  8
Defpoints
370
               0
390
0
 62
               0
100
AcDbPoint
 10
908.90460605661087
 20
-463.97839726388747
 30
0.0
  0
POINT
  5
181
100
AcDbEntity
  8
Defpoints
370
               0
390
0
 62
               0
100
AcDbPoint
 10
978.90460605661087
 20
-466.97839726377106
 30
0.0
  0
POINT
  5
182
100
AcDbEntity
  8
Defpoints
370
               0
390
0
 62
               0
100
AcDbPoint
 10
978.90460605661087
 20
-343.97839726388747
 30
0.0
  0
ENDBLK
  5
183
100
AcDbEntity
  8
notes
390
0
100
AcDbBlockEnd
  0
ENDSEC
  0
SECTION
  2
ENTITIES
  0
MTEXT
  5
184
100
AcDbEntity
  8
template
390
0
 62
               7
100
AcDbMText
 10
-1451.9999999996389
 20
-1721.1264438505505
 30
0.0
 40
24.432617187500004
 41
0.0
 71
               1
 72
               1
  1
品名
  7
ＭＳ ゴシック
 73
               1
 44
0.7828267384257843
  0
MTEXT
  5
185
100
AcDbEntity
  8
template
390
0
 62
               7
100
AcDbMText
 10
-1451.9999999996389
 20
-1848.6264438505505
 30
0.0
 40
24.432617187500004
 41
0.0
 71
               1
 72
               1
  1
仕様
  7
ＭＳ ゴシック
 73
               1
 44
0.7828267384257843
  0
MTEXT
  5
186
100
AcDbEntity
  8
template
390
0
 62
               7
100
AcDbMText
 10
-1372.4999999996389
 20
-1764.0001352568006
 30
0.0
 40
36.64892578125
 41
0.0
 71
               1
 72
               1
  1
洗面器　-FLAMINIA,Acquagrande-
  7
ＭＳ ゴシック
 73
               1
 44
0.7828267384257843
  0
LINE
  5
187
100
AcDbEntity
  8
template
370
               5
390
0
  6
Continuous
 62
               7
100
AcDbLine
 10
1462.499999999638
 20
-1836.0040610380506
 30
0.0
 11
-1462.500000000362
 21
-1836.0040610380506
 31
0.0
  0
LWPOLYLINE
  5
188
100
AcDbEntity
  8
template
370
               5
390
0
  6
Continuous
 62
               7
100
AcDbPolyline
 90
        5
 70
             128
 10
1462.500000000362
 20
2108.9959389619494
 10
-1462.4999999996389
 20
2108.9959389619494
 10
-1462.4999999996389
 20
-2091.0040610380506
 10
1462.500000000362
 20
-2091.0040610380506
 10
1462.500000000362
 20
2108.9959389619494
  0
LINE
  5
189
100
AcDbEntity
  8
template
370
               5
390
0
  6
Continuous
 62
               7
100
AcDbLine
 10
1462.499999999638
 20
-1708.5040610380506
 30
0.0
 11
-1462.500000000362
 21
-1708.5040610380506
 31
0.0
  0
LINE
  5
18A
100
AcDbEntity
  8
template
370
               5
390
0
  6
Continuous
 62
               7
100
AcDbLine
 10
1462.500000000362
 20
-1963.5040610380506
 30
0.0
 11
333.00000000036198
 21
-1963.5040610380506
 31
0.0
  0
MTEXT
  5
18B
100
AcDbEntity
  8
template
390
0
 62
               7
100
AcDbMText
 10
-1372.4999999996389
 20
-1891.5001352568006
 30
0.0
 40
36.64892578125
 41
0.0
 71
               1
 72
               1
  1
半埋め込み/オーバーフロー付き/陶器,背面釉薬あり/ホワイト
  7
ＭＳ ゴシック
 73
               1
 44
1.1307497332816887
  0
MTEXT
  5
18C
100
AcDbEntity
  8
template
390
0
 62
               7
100
AcDbMText
 10
-1462.4999999993338
 20
-2108.7847941233358
 30
0.0
 40
32.576822916666664
 41
0.0
 71
               1
 72
               1
  1
100710SH
  7
ＭＳ ゴシック
 73
               1
 44
0.7828267384257843
  0
MTEXT
  5
18D
100
AcDbEntity
  8
template
390
0
 62
               7
100
AcDbMText
 10
377.80710937875119
 20
-2008.369652748012
 30
0.0
 40
36.64892578125
 41
0.0
 71
               1
 72
               1
  1
大洋金物株式会社 ティーフォルム事業部
  7
ＭＳ ゴシック
 73
               1
 44
0.7828267384257843
  0
INSERT
  5
18E
100
AcDbEntity
  8
template
390
0
 62
               7
100
AcDbBlockReference
  2
グループ
 10
2100.0
 20
1485.0
 30
0.0
  0
MTEXT
  5
18F
100
AcDbEntity
  8
template
390
0
 62
               7
100
AcDbMText
 10
1176.0000000007499
 20
-1891.5001352568006
 30
0.0
 40
36.64892578125
 41
0.0
 71
               1
 72
               1
  1
1:15
  7
ＭＳ ゴシック
 73
               1
 44
0.7828267384257843
  0
MTEXT
  5
190
100
AcDbEntity
  8
template
390
0
 62
               7
100
AcDbMText
 10
1096.5000000007499
 20
-1848.6264438505505
 30
0.0
 40
24.432617187500004
 41
0.0
 71
               1
 72
               1
  1
縮尺
  7
ＭＳ ゴシック
 73
               1
 44
0.7828267384257843
  0
LINE
  5
191
100
AcDbEntity
  8
template
370
               5
390
0
  6
Continuous
 62
               7
100
AcDbLine
 10
1086.0000000007499
 20
-1963.5040610380506
 30
0.0
 11
1086.0000000007499
 21
-1836.0040610380506
 31
0.0
  0
MTEXT
  5
192
100
AcDbEntity
  8
template
390
0
 62
               7
100
AcDbMText
 10
720.00000000074988
 20
-1848.6264438505505
 30
0.0
 40
24.432617187500004
 41
0.0
 71
               1
 72
               1
  1
容量
  7
ＭＳ ゴシック
 73
               1
 44
0.7828267384257843
  0
MTEXT
  5
193
100
AcDbEntity
  8
template
390
0
 62
               7
100
AcDbMText
 10
799.50000000074988
 20
-1891.5001352568006
 30
0.0
 40
36.64892578125
 41
0.0
 71
               1
 72
               1
  1
35L
  7
ＭＳ ゴシック
 73
               1
 44
0.7828267384257843
  0
LINE
  5
194
100
AcDbEntity
  8
template
370
               5
390
0
  6
Continuous
 62
               7
100
AcDbLine
 10
709.50000000074988
 20
-1963.5040610380506
 30
0.0
 11
709.50000000074988
 21
-1836.0040610380506
 31
0.0
  0
MTEXT
  5
195
100
AcDbEntity
  8
template
390
0
 62
               7
100
AcDbMText
 10
343.50000000074988
 20
-1721.1264438505505
 30
0.0
 40
24.432617187500004
 41
0.0
 71
               1
 72
               1
  1
品番
  7
ＭＳ ゴシック
 73
               1
 44
0.7828267384257843
  0
MTEXT
  5
196
100
AcDbEntity
  8
template
390
0
 62
               7
100
AcDbMText
 10
343.50000000074988
 20
-1848.6264438505505
 30
0.0
 40
24.432617187500004
 41
0.0
 71
               1
 72
               1
  1
重量
  7
ＭＳ ゴシック
 73
               1
 44
0.7828267384257843
  0
MTEXT
  5
197
100
AcDbEntity
  8
template
390
0
 62
               7
100
AcDbMText
 10
423.00000000074988
 20
-1764.0001352568006
 30
0.0
 40
36.64892578125
 41
0.0
 71
               1
 72
               1
  1
AAA70-1004
  7
ＭＳ ゴシック
 73
               1
 44
0.7828267384257843
  0
MTEXT
  5
198
100
AcDbEntity
  8
template
390
0
 62
               7
100
AcDbMText
 10
423.00000000074988
 20
-1891.5001352568006
 30
0.0
 40
36.64892578125
 41
0.0
 71
               1
 72
               1
  1
43kg
  7
ＭＳ ゴシック
 73
               1
 44
0.7828267384257843
  0
LINE
  5
199
100
AcDbEntity
  8
template
370
               5
390
0
  6
Continuous
 62
               7
100
AcDbLine
 10
333.00000000074988
 20
-2091.0040610380506
 30
0.0
 11
333.00000000074988
 21
-1708.5040610380506
 31
0.0
  0
MTEXT
  5
19A
100
AcDbEntity
  8
notes
390
0
 62
               7
100
AcDbMText
 10
141.98909909393205
 20
413.46807293159941
 30
0.0
 40
36.64892578125
 41
1153.2882911955778
 71
               1
 72
               1
  1
※陶器製品には寸法公差があります。\P  洗面器の収め方をご確認の上、必ず現物を合わせて\P  カウンターの切込を行ってください。
  7
ＭＳ ゴシック
 73
               1
 44
1.0437689845677125
  0
MTEXT
  5
19B
100
AcDbEntity
  8
notes
390
0
 62
               7
100
AcDbMText
 10
-1247.3994042554077
 20
413.46807293159941
 30
0.0
 40
36.64892578125
 41
1269.9776818793575
 71
               1
 72
               1
  1
＝φ30もしくはφ35の水栓取付用穴あけ加工を承ります。\P   必要な場合、ご注文の際にご指示ください。
  7
ＭＳ ゴシック
 73
               1
 44
1.0437689845677125
  0
CIRCLE
  5
19C
100
AcDbEntity
  8
notes
370
               5
390
0
  6
STYLE_12
 62
               7
100
AcDbCircle
 10
-1268.8098910086742
 20
394.98027554767145
 30
0.0
 40
17.499999999999091
  0
DIMENSION
  5
19D
100
AcDbEntity
  8
notes
370
               5
390
0
  6
Continuous
 62
               7
100
AcDbDimension
  2
*D3
 10
1138.9046060566093
 20
502.35056756232393
 30
0.0
 11
663.90460605661019
 21
502.35056756232393
 31
0.0
 71
               5
 72
               1
 41
1.0
 42
0.0
  3
tfrom線あり
100
AcDbAlignedDimension
 13
188.90460605661087
 23
641.35056756232495
 33
0.0
 14
1138.9046060566093
 24
641.35056756232404
 34
0.0
100
AcDbRotatedDimension
1001
ACAD
1000
DSTYLE
1002
{
1070
             279
1070
               2
1070
             340
1005
3A
1070
             147
1040
5.0
1002
}
  0
DIMENSION
  5
19E
100
AcDbEntity
  8
notes
370
               5
390
0
  6
Continuous
 62
               7
100
AcDbDimension
  2
*D4
 10
-48.497560797930419
 20
622.35056756232336
 30
0.0
 11
-48.497560797930419
 21
897.3505675623237
 31
0.0
 71
               5
 72
               1
 41
1.0
 42
0.0
  3
tfrom線あり
100
AcDbAlignedDimension
 13
-172.49756079792951
 23
1172.3505675623242
 33
0.0
 14
-172.49756079792951
 24
622.35056756232336
 34
0.0
 50
90.0
100
AcDbRotatedDimension
1001
ACAD
1000
DSTYLE
1002
{
1070
             279
1070
               2
1070
             340
1005
3A
1070
             147
1040
5.0
1002
}
  0
DIMENSION
  5
19F
100
AcDbEntity
  8
notes
370
               5
390
0
  6
Continuous
 62
               7
100
AcDbDimension
  2
*D5
 10
-868.49756079792996
 20
1292.3505675623242
 30
0.0
 11
-918.49756079792996
 21
1292.3505675623242
 31
0.0
 71
               5
 72
               1
 41
1.0
 42
0.0
  3
tfrom線あり
100
AcDbAlignedDimension
 13
-968.49756079792996
 23
1114.9814526186713
 33
0.0
 14
-868.49756079792996
 24
1115.9814526186713
 34
0.0
100
AcDbRotatedDimension
1001
ACAD
1000
DSTYLE
1002
{
1070
             279
1070
               2
1070
             340
1005
3A
1070
             147
1040
5.0
1002
}
  0
DIMENSION
  5
1A0
100
AcDbEntity
  8
notes
370
               5
390
0
  6
Continuous
 62
               7
100
AcDbDimension
  2
*D6
 10
-868.49756079792996
 20
1292.3505675623242
 30
0.0
 11
-818.49756079792996
 21
1292.3505675623242
 31
0.0
 71
               5
 72
               1
 41
1.0
 42
0.0
  3
tfrom線あり
100
AcDbAlignedDimension
 13
-768.49756079792996
 23
1114.981452618671
 33
0.0
 14
-868.49756079792996
 24
1115.981452618671
 34
0.0
100
AcDbRotatedDimension
1001
ACAD
1000
DSTYLE
1002
{
1070
             279
1070
               2
1070
             340
1005
3A
1070
             147
1040
5.0
1002
}
  0
DIMENSION
  5
1A1
100
AcDbEntity
  8
notes
370
               5
390
0
  6
Continuous
 62
               7
100
AcDbDimension
  2
*D7
 10
-768.49756079792996
 20
1292.3505675623242
 30
0.0
 11
-718.49756079792996
 21
1292.3505675623242
 31
0.0
 71
               5
 72
               1
 41
1.0
 42
0.0
  3
tfrom線あり
100
AcDbAlignedDimension
 13
-668.49756079792996
 23
1115.981452618671
 33
0.0
 14
-768.49756079792996
 24
1114.981452618671
 34
0.0
100
AcDbRotatedDimension
1001
ACAD
1000
DSTYLE
1002
{
1070
             279
1070
               2
1070
             340
1005
3A
1070
             147
1040
5.0
1002
}
  0
DIMENSION
  5
1A2
100
AcDbEntity
  8
notes
370
               5
390
0
  6
Continuous
 62
               7
100
AcDbDimension
  2
*D8
 10
-668.49756079792996
 20
1292.3505675623242
 30
0.0
 11
-618.49756079793042
 21
1292.3505675623242
 31
0.0
 71
               5
 72
               1
 41
1.0
 42
0.0
  3
tfrom線あり
100
AcDbAlignedDimension
 13
-568.49756079793087
 23
1114.981452618671
 33
0.0
 14
-668.49756079792996
 24
1115.981452618671
 34
0.0
100
AcDbRotatedDimension
1001
ACAD
1000
DSTYLE
1002
{
1070
             279
1070
               2
1070
             340
1005
3A
1070
             147
1040
5.0
1002
}
  0
DIMENSION
  5
1A3
100
AcDbEntity
  8
notes
370
               5
390
0
  6
Continuous
 62
               7
100
AcDbDimension
  2
*D9
 10
-568.49756079793087
 20
1292.3505675623242
 30
0.0
 11
-518.49756079793042
 21
1292.3505675623242
 31
0.0
 71
               5
 72
               1
 41
1.0
 42
0.0
  3
tfrom線あり
100
AcDbAlignedDimension
 13
-468.49756079793042
 23
1115.981452618671
 33
0.0
 14
-568.49756079793087
 24
1114.981452618671
 34
0.0
100
AcDbRotatedDimension
1001
ACAD
1000
DSTYLE
1002
{
1070
             279
1070
               2
1070
             340
1005
3A
1070
             147
1040
5.0
1002
}
  0
DIMENSION
  5
1A4
100
AcDbEntity
  8
notes
370
               5
390
0
  6
Continuous
 62
               7
100
AcDbDimension
  2
*D10
 10
-468.49756079793042
 20
1292.3505675623242
 30
0.0
 11
-418.49756079793042
 21
1292.3505675623242
 31
0.0
 71
               5
 72
               1
 41
1.0
 42
0.0
  3
tfrom線あり
100
AcDbAlignedDimension
 13
-368.49756079793042
 23
1114.981452618671
 33
0.0
 14
-468.49756079793042
 24
1115.981452618671
 34
0.0
100
AcDbRotatedDimension
1001
ACAD
1000
DSTYLE
1002
{
1070
             279
1070
               2
1070
             340
1005
3A
1070
             147
1040
5.0
1002
}
  0
DIMENSION
  5
1A5
100
AcDbEntity
  8
notes
370
               5
390
0
  6
Continuous
 62
               7
100
AcDbDimension
  2
*D11
 10
-1168.4975607979295
 20
1372.3505675623242
 30
0.0
 11
-668.49756079792996
 21
1372.3505675623242
 31
0.0
 71
               5
 72
               1
 41
1.0
 42
0.0
  3
tfrom線あり
100
AcDbAlignedDimension
 13
-168.49756079793042
 23
1168.3505675623242
 33
0.0
 14
-1168.4975607979295
 24
1168.3505675623242
 34
0.0
100
AcDbRotatedDimension
1001
ACAD
1000
DSTYLE
1002
{
1070
             279
1070
               2
1070
             340
1005
3A
1070
             147
1040
5.0
1002
}
  0
DIMENSION
  5
1A6
100
AcDbEntity
  8
notes
370
               5
390
0
  6
Continuous
 62
               7
100
AcDbDimension
  2
*D12
 10
-1288.4975607979295
 20
1032.3505675623235
 30
0.0
 11
-1288.4975607979295
 21
862.35056756232348
 31
0.0
 71
               5
 72
               1
 41
1.0
 42
0.0
  3
tfrom線あり
100
AcDbAlignedDimension
 13
-1168.4975607979295
 23
692.35056756232336
 33
0.0
 14
-1168.4975607979295
 24
1032.3505675623232
 34
0.0
 50
89.999999999999929
100
AcDbRotatedDimension
1001
ACAD
1000
DSTYLE
1002
{
1070
             271
1070
               0
1070
             279
1070
               2
1070
             340
1005
3A
1070
             147
1040
5.0
1002
}
  0
DIMENSION
  5
1A7
100
AcDbEntity
  8
notes
370
               5
390
0
  6
Continuous
 62
               7
100
AcDbDimension
  2
*D13
 10
-1288.4975607979295
 20
1032.3505675623232
 30
0.0
 11
-1288.4975607979295
 21
1102.3505675623237
 31
0.0
 71
               5
 72
               1
 41
1.0
 42
0.0
  3
tfrom線あり
100
AcDbAlignedDimension
 13
-1164.4975607979295
 23
1172.3505675623242
 33
0.0
 14
-1168.4975607979295
 24
1032.3505675623232
 34
0.0
 50
90.0
100
AcDbRotatedDimension
1001
ACAD
1000
DSTYLE
1002
{
1070
             271
1070
               0
1070
             279
1070
               2
1070
             340
1005
3A
1070
             147
1040
5.0
1002
}
  0
DIMENSION
  5
1A8
100
AcDbEntity
  8
notes
370
               5
390
0
  6
Continuous
 62
               7
100
AcDbDimension
  2
*D14
 10
-1095.99756079793
 20
502.35056756232404
 30
0.0
 11
-668.49756079793042
 21
502.35056756232404
 31
0.0
 71
               5
 72
               1
 41
1.0
 42
0.0
  3
tfrom線あり
100
AcDbAlignedDimension
 13
-240.99756079793087
 23
622.35056756232427
 33
0.0
 14
-1095.99756079793
 24
622.35056756232427
 34
0.0
100
AcDbRotatedDimension
1001
ACAD
1000
DSTYLE
1002
{
1070
             271
1070
               0
1070
             279
1070
               2
1070
             340
1005
3A
1070
             147
1040
5.0
1002
}
  0
MTEXT
  5
1A9
100
AcDbEntity
  8
notes
390
0
 62
               7
100
AcDbMText
 10
449.59210605661087
 20
1391.985378399921
 30
0.0
 40
36.64892578125
 41
0.0
 71
               1
 72
               1
  1
カウンター切込寸法
  7
ＭＳ ゴシック
 73
               1
 44
0.7828267384257843
  0
DIMENSION
  5
1AA
100
AcDbEntity
  8
notes
370
               5
390
0
  6
Continuous
 62
               7
100
AcDbDimension
  2
*D15
 10
1283.9046060566093
 20
637.35056756232404
 30
0.0
 11
1283.9046060566093
 21
897.3505675623237
 31
0.0
 71
               5
 72
               1
 41
1.0
 42
0.0
  3
tfrom線あり
100
AcDbAlignedDimension
 13
1134.9046060566106
 23
1157.3505675623235
 33
0.0
 14
1134.9046060566106
 24
637.35056756232404
 34
0.0
 50
90.0
100
AcDbRotatedDimension
1001
ACAD
1000
DSTYLE
1002
{
1070
             279
1070
               2
1070
             340
1005
3A
1070
             147
1040
5.0
1002
}
  0
DIMENSION
  5
1AB
100
AcDbEntity
  8
notes
370
               5
390
0
  6
Continuous
 62
               7
100
AcDbDimension
  2
*D16
 10
978.90460605661087
 20
-793.97839726388884
 30
0.0
 11
821.40460605661087
 21
-793.97839726388884
 31
0.0
 71
               5
 72
               1
 41
1.0
 42
0.0
  3
tfrom線あり
100
AcDbAlignedDimension
 13
663.90460605661087
 23
-652.97839726389111
 33
0.0
 14
978.90460605661087
 24
-560.97839726458619
 34
0.0
100
AcDbRotatedDimension
1001
ACAD
1000
DSTYLE
1002
{
1070
             271
1070
               0
1070
             279
1070
               2
1070
             340
1005
3A
1070
             147
1040
5.0
1002
}
  0
DIMENSION
  5
1AC
100
AcDbEntity
  8
notes
370
               5
390
0
  6
Continuous
 62
               7
100
AcDbDimension
  2
*D17
 10
-1138.4487185563976
 20
-793.97839726389066
 30
0.0
 11
-668.47313967709078
 21
-793.97839726389066
 31
0.0
 71
               5
 72
               1
 41
1.0
 42
0.0
  3
tfrom線あり
100
AcDbAlignedDimension
 13
-198.49756079778399
 23
-668.9783972638902
 33
0.0
 14
-1138.4487185563976
 24
-671.51753350094123
 34
0.0
100
AcDbRotatedDimension
1001
ACAD
1000
DSTYLE
1002
{
1070
             279
1070
               2
1070
             340
1005
3A
1070
             147
1040
5.0
1002
}
  0
DIMENSION
  5
1AD
100
AcDbEntity
  8
notes
370
               5
390
0
  6
Continuous
 62
               7
100
AcDbDimension
  2
*D18
 10
458.90460605661065
 20
-890.1852123191843
 30
0.0
 11
703.90460605661065
 21
-890.1852123191843
 31
0.0
 71
               5
 72
               1
 41
1.0
 42
0.0
  3
tfrom線あり
100
AcDbAlignedDimension
 13
948.90460605661087
 23
-671.9783972638902
 33
0.0
 14
458.90460605661065
 24
-670.97839726388975
 34
0.0
100
AcDbRotatedDimension
1001
ACAD
1000
DSTYLE
1002
{
1070
             279
1070
               2
1070
             340
1005
3A
1070
             147
1040
5.0
1002
}
  0
DIMENSION
  5
1AE
100
AcDbEntity
  8
notes
370
               5
390
0
  6
Continuous
 62
               7
100
AcDbDimension
  2
*D19
 10
458.90460605661065
 20
-890.18521231918567
 30
0.0
 11
421.58965946260537
 21
-882.68521231918567
 31
0.0
 70
             128
 71
               5
 72
               1
 41
1.0
 42
0.0
  3
tfrom線あり
100
AcDbAlignedDimension
 13
428.90460605661156
 23
-560.97839726388725
 33
0.0
 14
458.90460605661065
 24
-708.47839726389111
 34
0.0
100
AcDbRotatedDimension
1001
ACAD
1000
DSTYLE
1002
{
1070
             279
1070
               2
1070
             340
1005
3A
1070
             174
1070
               0
1070
             147
1040
7.5
1002
}
  0
DIMENSION
  5
1AF
100
AcDbEntity
  8
notes
370
               5
390
0
  6
Continuous
 62
               7
100
AcDbDimension
  2
*D20
 10
654.9046060566111
 20
-463.97839726388747
 30
0.0
 11
649.9046060566111
 21
-447.1264774426154
 31
0.0
 70
             128
 71
               5
 72
               1
 41
1.0
 42
0.0
  3
tfrom線あり
100
AcDbAlignedDimension
 13
661.90460605661087
 23
-603.9783972638902
 33
0.0
 14
665.82016081022289
 24
-463.97839726388747
 34
0.0
 50
89.999999999999815
100
AcDbRotatedDimension
1001
ACAD
1000
DSTYLE
1002
{
1070
             271
1070
               0
1070
             279
1070
               2
1070
             340
1005
3A
1070
               3
1000
<>(深さ)
1070
             174
1070
               0
1070
             147
1040
5.0
1002
}
  0
DIMENSION
  5
1B0
100
AcDbEntity
  8
notes
370
               5
390
0
  6
Continuous
 62
               7
100
AcDbDimension
  2
*D21
 10
1098.9046060566106
 20
-673.97839726389066
 30
0.0
 11
1098.9046060566106
 21
-618.97839726388975
 31
0.0
 71
               5
 72
               1
 41
1.0
 42
0.0
  3
tfrom線あり
100
AcDbAlignedDimension
 13
972.15460605666817
 23
-563.97839726388838
 33
0.0
 14
946.90460605660996
 24
-673.9783972638902
 34
0.0
 50
89.999999999999773
100
AcDbRotatedDimension
1001
ACAD
1000
DSTYLE
1002
{
1070
             271
1070
               0
1070
             279
1070
               2
1070
             340
1005
3A
1070
             147
1040
5.0
1002
}
  0
DIMENSION
  5
1B1
100
AcDbEntity
  8
notes
370
               5
390
0
  6
Continuous
 62
               7
100
AcDbDimension
  2
*D22
 10
1098.9046060566109
 20
-563.97839726388656
 30
0.0
 11
1098.9046060566109
 21
-513.97839726388702
 31
0.0
 71
               5
 72
               1
 41
1.0
 42
0.0
  3
tfrom線あり
100
AcDbAlignedDimension
 13
975.90460605672729
 23
-463.97839726388747
 33
0.0
 14
975.90460605672729
 24
-563.97839726388656
 34
0.0
 50
90.0
100
AcDbRotatedDimension
1001
ACAD
1000
DSTYLE
1002
{
1070
             271
1070
               0
1070
             279
1070
               2
1070
             340
1005
3A
1070
             147
1040
5.0
1002
}
  0
DIMENSION
  5
1B2
100
AcDbEntity
  8
notes
370
               5
390
0
  6
Continuous
 62
               7
100
AcDbDimension
  2
*D23
 10
-48.497560797783535
 20
-463.97839726388747
 30
0.0
 11
-43.497560797783535
 21
-568.97839726388884
 31
0.0
 70
             128
 71
               5
 72
               1
 41
1.0
 42
0.0
  3
tfrom線あり
100
AcDbAlignedDimension
 13
-201.49756079778399
 23
-673.9783972638902
 33
0.0
 14
-171.49756079766667
 24
-463.97839726388747
 34
0.0
 50
90.0
100
AcDbRotatedDimension
1001
ACAD
1000
DSTYLE
1002
{
1070
             279
1070
               2
1070
             340
1005
3A
1070
             147
1040
5.0
1002
}
  0
DIMENSION
  5
1B3
100
AcDbEntity
  8
notes
370
               5
390
0
  6
Continuous
 62
               7
100
AcDbDimension
  2
*D24
 10
978.90460605661087
 20
-343.97839726388747
 30
0.0
 11
943.90460605661087
 21
-343.97839726388747
 31
0.0
 71
               5
 72
               1
 41
1.0
 42
0.0
  3
tfrom線あり
100
AcDbAlignedDimension
 13
908.90460605661087
 23
-463.97839726388747
 33
0.0
 14
978.90460605661087
 24
-466.97839726377106
 34
0.0
100
AcDbRotatedDimension
1001
ACAD
1000
DSTYLE
1002
{
1070
             279
1070
               2
1070
             340
1005
3A
1070
             147
1040
5.0
1002
}
  0
LINE
  5
1B4
100
AcDbEntity
  8
notes
370
               5
390
0
  6
STYLE_12
 62
               7
100
AcDbLine
 10
923.90460605661087
 20
-463.97839726388747
 30
0.0
 11
923.90460605661087
 21
-473.97839726388747
 31
0.0
  0
LINE
  5
1B5
100
AcDbEntity
  8
notes
370
               5
390
0
  6
STYLE_12
 62
               7
100
AcDbLine
 10
893.90460605661087
 20
-463.97839726388747
 30
0.0
 11
893.90460605661087
 21
-473.97839726388747
 31
0.0
  0
LWPOLYLINE
  5
1B6
100
AcDbEntity
  8
AAA70-1004
370
              15
390
0
  6
STYLE_12
 62
               7
100
AcDbPolyline
 90
        7
 70
             129
 10
-1136.4975607979295
 20
652.35056756232427
 10
-198.49756079793042
 20
652.35056756232427
 10
-198.49756079793042
 20
1140.3505675623251
 42
0.414213562373095
 10
-200.49756079793042
 20
1142.3505675623251
 10
-1136.4975607979295
 20
1142.3505675623242
 42
0.414213562373095
 10
-1138.4975607979295
 20
1140.3505675623242
 10
-1138.4975607979295
 20
654.35056756232427
 42
0.414213562373095
  0
CIRCLE
  5
1B7
100
AcDbEntity
  8
AAA70-1004
370
              15
390
0
  6
STYLE_12
 62
               7
100
AcDbCircle
 10
-668.49756079792996
 20
1102.3814526186713
 30
0.0
 40
18.5
  0
CIRCLE
  5
1B8
100
AcDbEntity
  8
AAA70-1004
370
              15
390
0
  6
STYLE_12
 62
               7
100
AcDbCircle
 10
-568.49756079793042
 20
1102.3814526186713
 30
0.0
 40
17.5
  0
CIRCLE
  5
1B9
100
AcDbEntity
  8
AAA70-1004
370
              15
390
0
  6
STYLE_12
 62
               7
100
AcDbCircle
 10
-468.49756079793042
 20
1102.3814526186713
 30
0.0
 40
18.5
  0
CIRCLE
  5
1BA
100
AcDbEntity
  8
AAA70-1004
370
              15
390
0
  6
STYLE_12
 62
               7
100
AcDbCircle
 10
-368.49756079793042
 20
1102.3814526186711
 30
0.0
 40
17.5
  0
CIRCLE
  5
1BB
100
AcDbEntity
  8
AAA70-1004
370
              15
390
0
  6
STYLE_12
 62
               7
100
AcDbCircle
 10
-768.49756079792996
 20
1102.3814526186713
 30
0.0
 40
17.5
  0
CIRCLE
  5
1BC
100
AcDbEntity
  8
AAA70-1004
370
              15
390
0
  6
STYLE_12
 62
               7
100
AcDbCircle
 10
-868.49756079792996
 20
1102.3814526186713
 30
0.0
 40
18.5
  0
CIRCLE
  5
1BD
100
AcDbEntity
  8
AAA70-1004
370
              15
390
0
  6
STYLE_12
 62
               7
100
AcDbCircle
 10
-968.49756079792996
 20
1102.3814526186713
 30
0.0
 40
17.5
  0
LWPOLYLINE
  5
1BE
100
AcDbEntity
  8
AAA70-1004
370
              15
390
0
  6
Continuous
 62
               7
100
AcDbPolyline
 90
        8
 70
             129
 10
192.90460605661087
 20
637.35056756232495
 10
1134.9046060566106
 20
637.35056756232404
 42
0.4142135623731866
 10
1138.9046060566093
 20
641.35056756232404
 10
1138.9046060566093
 20
1153.3505675623235
 42
0.4142135623729951
 10
1134.9046060566106
 20
1157.3505675623235
 10
192.90460605661087
 20
1157.3505675623235
 42
0.414213562373095
 10
188.90460605661087
 20
1153.3505675623235
 10
188.90460605661087
 20
641.35056756232495
 42
0.4142135623730784
  0
LWPOLYLINE
  5
1BF
100
AcDbEntity
  8
AAA70-1004
370
              15
390
0
  6
Continuous
 62
               7
100
AcDbPolyline
 90
        8
 70
             129
 10
-1164.4975607979295
 20
622.35056756232427
 10
-172.49756079792951
 20
622.35056756232336
 42
0.41421356237317
 10
-168.49756079793042
 20
626.35056756232336
 10
-168.49756079793042
 20
1168.3505675623242
 42
0.4142135623730284
 10
-172.49756079792951
 20
1172.3505675623242
 10
-1164.4975607979295
 20
1172.3505675623242
 42
0.414213562373095
 10
-1168.4975607979295
 20
1168.3505675623242
 10
-1168.4975607979295
 20
626.35056756232427
 42
0.414213562373095
  0
LWPOLYLINE
  5
1C0
100
AcDbEntity
  8
AAA70-1004
370
              15
390
0
  6
Continuous
 62
               7
100
AcDbPolyline
 90
        8
 70
             129
 10
-1091.99756079793
 20
692.35056756232336
 10
-244.99756079792951
 20
692.35056756232336
 42
0.4142135623731034
 10
-240.99756079792951
 20
696.35056756232336
 10
-240.99756079793087
 20
1028.3505675623251
 42
0.4142135623731617
 10
-244.99756079793087
 20
1032.3505675623242
 10
-1091.99756079793
 20
1032.3505675623232
 42
0.4142135623730909
 10
-1095.99756079793
 20
1028.3505675623232
 10
-1095.99756079793
 20
696.35056756232336
 42
0.414213562373095
  0
CIRCLE
  5
1C1
100
AcDbEntity
  8
AAA70-1004
370
              15
390
0
  6
Continuous
 62
               7
100
AcDbCircle
 10
-668.49756079792996
 20
857.35056756232359
 30
0.0
 40
22.5
  0
CIRCLE
  5
1C2
100
AcDbEntity
  8
AAA70-1004
370
              15
390
0
  6
Continuous
 62
               7
100
AcDbCircle
 10
-668.49756079792996
 20
857.35056756232359
 30
0.0
 40
35.0
  0
LINE
  5
1C3
100
AcDbEntity
  8
AAA70-1004
370
              15
390
0
  6
Continuous
 62
               7
100
AcDbLine
 10
505.68752823934938
 20
-604.10390094978538
 30
0.0
 11
622.47228996971739
 21
-607.9783972638902
 31
0.0
  0
ARC
  5
1C4
100
AcDbEntity
  8
AAA70-1004
370
              15
390
0
  6
Continuous
 62
               7
100
AcDbCircle
 10
505.82016081022243
 20
-600.10610047938326
 30
0.0
 40
4.0000000000001332
100
AcDbArc
 50
181.26367255165394
 51
268.09983006298989
  0
LINE
  5
1C5
100
AcDbEntity
  8
AAA70-1004
370
              15
390
0
  6
Continuous
 62
               7
100
AcDbLine
 10
705.33692214349981
 20
-607.9783972638902
 30
0.0
 11
832.11174810721081
 21
-604.09459318115614
 31
0.0
  0
ARC
  5
1C6
100
AcDbEntity
  8
AAA70-1004
370
              15
390
0
  6
Continuous
 62
               7
100
AcDbCircle
 10
831.98926376380882
 20
-600.09646892275396
 30
0.0
 40
4.0000000000003579
100
AcDbArc
 50
271.7547332774468
 51
358.736327448346
  0
LINE
  5
1C7
100
AcDbEntity
  8
AAA70-1004
370
              15
390
0
  6
Continuous
 62
               7
100
AcDbLine
 10
503.84954728272805
 20
-614.35911252209326
 30
0.0
 11
617.40460605661519
 21
-617.97839726388975
 31
0.0
  0
LINE
  5
1C8
100
AcDbEntity
  8
AAA70-1004
370
              15
390
0
  6
Continuous
 62
               7
100
AcDbLine
 10
710.40460605660542
 20
-617.97839726388975
 30
0.0
 11
832.62322757621882
 21
-614.37046747733302
 31
0.0
  0
ARC
  5
1C9
100
AcDbEntity
  8
AAA70-1004
370
              15
390
0
  6
Continuous
 62
               7
100
AcDbCircle
 10
832.2101234035465
 20
-600.37656362806592
 30
0.0
 40
14.000000000000368
100
AcDbArc
 50
271.69089726294385
 51
358.69804732741375
  0
LINE
  5
1CA
100
AcDbEntity
  8
AAA70-1004
370
              15
390
0
  6
Continuous
 62
               7
100
AcDbLine
 10
861.90460605660815
 20
-632.09016606448995
 30
0.0
 11
861.90460605661178
 21
-481.9783972638877
 31
0.0
  0
ARC
  5
1CB
100
AcDbEntity
  8
AAA70-1004
370
              15
390
0
  6
Continuous
 62
               7
100
AcDbCircle
 10
857.90460605660815
 20
-632.09016606448995
 30
0.0
 40
3.9999999999999036
100
AcDbArc
 50
271.75473327744703
 51
0.0
  0
ARC
  5
1CC
100
AcDbEntity
  8
AAA70-1004
370
              15
390
0
  6
Continuous
 62
               7
100
AcDbCircle
 10
859.90460605661178
 20
-481.9783972638877
 30
0.0
 40
2.0
100
AcDbArc
 50
0.0
 51
90.0
  0
LINE
  5
1CD
100
AcDbEntity
  8
AAA70-1004
370
              15
390
0
  6
Continuous
 62
               7
100
AcDbLine
 10
871.90460605661087
 20
-632.41341089773596
 30
0.0
 11
871.90460605661178
 21
-481.9783972638877
 31
0.0
  0
ARC
  5
1CE
100
AcDbEntity
  8
AAA70-1004
370
              15
390
0
  6
Continuous
 62
               7
100
AcDbCircle
 10
857.90460605661087
 20
-632.41341089773596
 30
0.0
 40
14.000000000000368
100
AcDbArc
 50
271.69089726294385
 51
0.0
  0
ARC
  5
1CF
100
AcDbEntity
  8
AAA70-1004
370
              15
390
0
  6
Continuous
 62
               7
100
AcDbCircle
 10
873.90460605661178
 20
-481.9783972638877
 30
0.0
 40
1.9999999999997726
100
AcDbArc
 50
90.0
 51
180.0
  0
LINE
  5
1D0
100
AcDbEntity
  8
AAA70-1004
370
              15
390
0
  6
Continuous
 62
               7
100
AcDbLine
 10
835.98829093543122
 20
-600.1846827574218
 30
0.0
 11
837.77960605661087
 21
-518.97839726388838
 31
0.0
  0
LINE
  5
1D1
100
AcDbEntity
  8
AAA70-1004
370
              15
390
0
  6
Continuous
 62
               7
100
AcDbLine
 10
838.11048840955232
 20
-503.97839726388838
 30
0.0
 11
838.90460605661178
 21
-467.97839726388906
 31
0.0
  0
LINE
  5
1D2
100
AcDbEntity
  8
AAA70-1004
370
              15
390
0
  6
Continuous
 62
               7
100
AcDbLine
 10
846.20650910117661
 20
-600.69466330301248
 30
0.0
 11
848.06369696570187
 21
-518.97839726388838
 31
0.0
  0
LINE
  5
1D3
100
AcDbEntity
  8
AAA70-1004
370
              15
390
0
  6
Continuous
 62
               7
100
AcDbLine
 10
848.40460605661087
 20
-503.97839726388838
 30
0.0
 11
848.90460605661087
 21
-481.9783972638877
 31
0.0
  0
ARC
  5
1D4
100
AcDbEntity
  8
AAA70-1004
370
              15
390
0
  6
Continuous
 62
               7
100
AcDbCircle
 10
850.90460605661087
 20
-481.9783972638877
 30
0.0
 40
1.9999999999997726
100
AcDbArc
 50
90.0
 51
180.0
  0
ARC
  5
1D5
100
AcDbEntity
  8
AAA70-1004
370
              15
390
0
  6
Continuous
 62
               7
100
AcDbCircle
 10
975.90460605701833
 20
-560.97839726429424
 30
0.0
 40
2.999999999592319
100
AcDbArc
 50
269.99999999442429
 51
359.99999999442429
  0
LINE
  5
1D6
100
AcDbEntity
  8
AAA70-1004
370
              15
390
0
  6
Continuous
 62
               7
100
AcDbLine
 10
431.90460605649446
 20
-463.97839726388747
 30
0.0
 11
494.90460605661065
 21
-463.97839726388747
 31
0.0
  0
LINE
  5
1D7
100
AcDbEntity
  8
AAA70-1004
370
              15
390
0
  6
Continuous
 62
               7
100
AcDbLine
 10
440.90460605660974
 20
-473.97839726388747
 30
0.0
 11
486.90460605661156
 21
-473.97839726388747
 31
0.0
  0
LINE
  5
1D8
100
AcDbEntity
  8
AAA70-1004
370
              15
390
0
  6
Continuous
 62
               7
100
AcDbLine
 10
842.90460605661087
 20
-463.97839726388747
 30
0.0
 11
975.90460605672729
 21
-463.97839726388747
 31
0.0
  0
LINE
  5
1D9
100
AcDbEntity
  8
AAA70-1004
370
              15
390
0
  6
Continuous
 62
               7
100
AcDbLine
 10
850.90460605661087
 20
-479.97839726388747
 30
0.0
 11
859.90460605661178
 21
-479.97839726388747
 31
0.0
  0
LINE
  5
1DA
100
AcDbEntity
  8
AAA70-1004
370
              15
390
0
  6
Continuous
 62
               7
100
AcDbLine
 10
873.90460605661178
 20
-479.97839726388747
 30
0.0
 11
960.90460605661178
 21
-479.97839726388747
 31
0.0
  0
ARC
  5
1DB
100
AcDbEntity
  8
AAA70-1004
370
              15
390
0
  6
Continuous
 62
               7
100
AcDbCircle
 10
975.90460605672729
 20
-466.97839726377128
 30
0.0
 40
2.9999999998835847
100
AcDbArc
 50
0.0
 51
90.0
  0
LINE
  5
1DC
100
AcDbEntity
  8
AAA70-1004
370
              15
390
0
  6
Continuous
 62
               7
100
AcDbLine
 10
978.90460605661087
 20
-466.97839726377106
 30
0.0
 11
978.90460605661087
 21
-560.97839726458619
 31
0.0
  0
LINE
  5
1DD
100
AcDbEntity
  8
AAA70-1004
370
              15
390
0
  6
Continuous
 62
               7
100
AcDbLine
 10
962.90460605661087
 20
-481.9783972638877
 30
0.0
 11
962.90460605661178
 21
-560.97839726458619
 31
0.0
  0
ARC
  5
1DE
100
AcDbEntity
  8
AAA70-1004
370
              15
390
0
  6
Continuous
 62
               7
100
AcDbCircle
 10
960.90460605661178
 20
-481.9783972638877
 30
0.0
 40
2.0
100
AcDbArc
 50
0.0
 51
90.0
  0
LINE
  5
1DF
100
AcDbEntity
  8
AAA70-1004
370
              15
390
0
  6
Continuous
 62
               7
100
AcDbLine
 10
975.90460605672729
 20
-563.97839726388656
 30
0.0
 11
965.90460605661178
 21
-563.97839726388793
 31
0.0
  0
ARC
  5
1E0
100
AcDbEntity
  8
AAA70-1004
370
              15
390
0
  6
Continuous
 62
               7
100
AcDbCircle
 10
965.90460605661087
 20
-560.97839726388816
 30
0.0
 40
3.0
100
AcDbArc
 50
180.0
 51
270.0
  0
LINE
  5
1E1
100
AcDbEntity
  8
AAA70-1004
370
              15
390
0
  6
Continuous
 62
               7
100
AcDbLine
 10
495.43835364227107
 20
-673.97839726389066
 30
0.0
 11
461.90460605661065
 21
-673.9783972638902
 31
0.0
  0
ARC
  5
1E2
100
AcDbEntity
  8
AAA70-1004
370
              15
390
0
  6
Continuous
 62
               7
100
AcDbCircle
 10
495.43835364227084
 20
-670.97839726389066
 30
0.0
 40
3.0
100
AcDbArc
 50
270.0
 51
356.97227298478299
  0
LINE
  5
1E3
100
AcDbEntity
  8
AAA70-1004
370
              15
390
0
  6
Continuous
 62
               7
100
AcDbLine
 10
486.90460605661065
 20
-663.97839726389111
 30
0.0
 11
470.90460605661156
 21
-663.9783972638902
 31
0.0
  0
LINE
  5
1E4
100
AcDbEntity
  8
AAA70-1004
370
              15
390
0
  6
Continuous
 62
               7
100
AcDbLine
 10
428.90460605661178
 20
-560.97839726388725
 30
0.0
 11
428.90460605661178
 21
-466.97839726377106
 31
0.0
  0
LINE
  5
1E5
100
AcDbEntity
  8
AAA70-1004
370
              15
390
0
  6
Continuous
 62
               7
100
AcDbLine
 10
438.90460605661065
 20
-551.97839726388747
 30
0.0
 11
438.90460605661065
 21
-475.97839726388747
 31
0.0
  0
ARC
  5
1E6
100
AcDbEntity
  8
AAA70-1004
370
              15
390
0
  6
Continuous
 62
               7
100
AcDbCircle
 10
440.90460605660974
 20
-475.97839726388793
 30
0.0
 40
2.0
100
AcDbArc
 50
90.0
 51
180.0
  0
ARC
  5
1E7
100
AcDbEntity
  8
AAA70-1004
370
              15
390
0
  6
Continuous
 62
               7
100
AcDbCircle
 10
431.90460605649446
 20
-466.97839726377128
 30
0.0
 40
2.9999999998835847
100
AcDbArc
 50
90.0
 51
180.0
  0
LINE
  5
1E8
100
AcDbEntity
  8
AAA70-1004
370
              15
390
0
  6
Continuous
 62
               7
100
AcDbLine
 10
501.82113363859935
 20
-600.19431431405155
 30
0.0
 11
498.90460605661065
 21
-467.97839726388906
 31
0.0
  0
LINE
  5
1E9
100
AcDbEntity
  8
AAA70-1004
370
              15
390
0
  6
Continuous
 62
               7
100
AcDbLine
 10
491.61621659541379
 20
-600.71248204886842
 30
0.0
 11
488.90460605661156
 21
-475.97839726388747
 31
0.0
  0
ARC
  5
1EA
100
AcDbEntity
  8
AAA70-1004
370
              15
390
0
  6
Continuous
 62
               7
100
AcDbCircle
 10
486.90460605661156
 20
-475.97839726388747
 30
0.0
 40
2.0
100
AcDbArc
 50
0.0
 51
90.0
  0
ARC
  5
1EB
100
AcDbEntity
  8
AAA70-1004
370
              15
390
0
  6
Continuous
 62
               7
100
AcDbCircle
 10
842.90460605661087
 20
-467.97839726388929
 30
0.0
 40
4.0
100
AcDbArc
 50
90.0
 51
180.0
  0
ARC
  5
1EC
100
AcDbEntity
  8
AAA70-1004
370
              15
390
0
  6
Continuous
 62
               7
100
AcDbCircle
 10
494.90460605661065
 20
-467.97839726388929
 30
0.0
 40
4.0
100
AcDbArc
 50
0.0
 51
90.0
  0
LINE
  5
1ED
100
AcDbEntity
  8
AAA70-1004
370
              15
390
0
  6
Continuous
 62
               7
100
AcDbLine
 10
495.43835364227107
 20
-673.97839726389066
 30
0.0
 11
946.90460605660996
 21
-673.97839726389066
 31
0.0
  0
LINE
  5
1EE
100
AcDbEntity
  8
AAA70-1004
370
              15
390
0
  6
Continuous
 62
               7
100
AcDbLine
 10
-1089.1256921747317
 20
-604.01882738927861
 30
0.0
 11
-709.92987688482253
 21
-607.9783972638902
 31
0.0
  0
ARC
  5
1EF
100
AcDbEntity
  8
AAA70-1004
370
              15
390
0
  6
Continuous
 62
               7
100
AcDbCircle
 10
-1089.0839263760045
 20
-600.01904544296394
 30
0.0
 40
4.0000000000001332
100
AcDbArc
 50
181.26367255165394
 51
269.40173813009341
  0
ARC
  5
1F0
100
AcDbEntity
  8
AAA70-1004
370
              15
390
0
  6
Continuous
 62
               7
100
AcDbCircle
 10
-709.92987688482299
 20
-611.9783972638902
 30
0.0
 40
4.0000000000000941
100
AcDbArc
 50
51.204814102816478
 51
90.0
  0
LINE
  5
1F1
100
AcDbEntity
  8
AAA70-1004
370
              15
390
0
  6
Continuous
 62
               7
100
AcDbLine
 10
-627.06524471103876
 20
-607.9783972638902
 30
0.0
 11
-247.86942942112819
 21
-604.01882738927861
 31
0.0
  0
ARC
  5
1F2
100
AcDbEntity
  8
AAA70-1004
370
              15
390
0
  6
Continuous
 62
               7
100
AcDbCircle
 10
-247.91119521985502
 20
-600.0190454429644
 30
0.0
 40
4.0000000000001021
100
AcDbArc
 50
270.59826186990654
 51
358.73632744834612
  0
ARC
  5
1F3
100
AcDbEntity
  8
AAA70-1004
370
              15
390
0
  6
Continuous
 62
               7
100
AcDbCircle
 10
-627.06524471103921
 20
-611.9783972638902
 30
0.0
 40
4.0
100
AcDbArc
 50
90.0
 51
128.79518589718353
  0
LINE
  5
1F4
100
AcDbEntity
  8
AAA70-1004
370
              15
390
0
  6
Continuous
 62
               7
100
AcDbLine
 10
-1091.1185675707793
 20
-614.10086111159262
 30
0.0
 11
-714.9975607979236
 21
-617.9783972638902
 31
0.0
  0
ARC
  5
1F5
100
AcDbEntity
  8
AAA70-1004
370
              15
390
0
  6
Continuous
 62
               7
100
AcDbCircle
 10
-714.99756079792405
 20
-629.9783972638902
 30
0.0
 40
12.0
100
AcDbArc
 50
0.0
 51
90.0
  0
LINE
  5
1F6
100
AcDbEntity
  8
AAA70-1004
370
              15
390
0
  6
Continuous
 62
               7
100
AcDbLine
 10
-621.99756079793451
 20
-617.97839726388975
 30
0.0
 11
-245.87655402507789
 21
-614.10086111159262
 31
0.0
  0
ARC
  5
1F7
100
AcDbEntity
  8
AAA70-1004
370
              15
390
0
  6
Continuous
 62
               7
100
AcDbCircle
 10
-621.99756079793497
 20
-629.97839726388975
 30
0.0
 40
12.0
100
AcDbArc
 50
90.0
 51
180.0
  0
LINE
  5
1F8
100
AcDbEntity
  8
AAA70-1004
370
              15
390
0
  6
Continuous
 62
               7
100
AcDbLine
 10
-1165.4975607981905
 20
-463.97839726388747
 30
0.0
 11
-1099.9975607979295
 21
-463.97839726388747
 31
0.0
  0
LINE
  5
1F9
100
AcDbEntity
  8
AAA70-1004
370
              15
390
0
  6
Continuous
 62
               7
100
AcDbLine
 10
-1156.4975607980755
 20
-473.97839726388747
 30
0.0
 11
-1107.9975607979295
 21
-473.97839726388747
 31
0.0
  0
LINE
  5
1FA
100
AcDbEntity
  8
AAA70-1004
370
              15
390
0
  6
Continuous
 62
               7
100
AcDbLine
 10
-1099.4601983482517
 20
-673.97839726389066
 30
0.0
 11
-1135.4975607980746
 21
-673.9783972638902
 31
0.0
  0
ARC
  5
1FB
100
AcDbEntity
  8
AAA70-1004
370
              15
390
0
  6
Continuous
 62
               7
100
AcDbCircle
 10
-1135.4975607980746
 20
-670.97839726388929
 30
0.0
 40
3.0
100
AcDbArc
 50
180.0
 51
270.0
  0
LINE
  5
1FC
100
AcDbEntity
  8
AAA70-1004
370
              15
390
0
  6
Continuous
 62
               7
100
AcDbLine
 10
-1107.9975607979295
 20
-663.97839726389066
 30
0.0
 11
-1126.4975607980746
 21
-663.9783972638902
 31
0.0
  0
ARC
  5
1FD
100
AcDbEntity
  8
AAA70-1004
370
              15
390
0
  6
Continuous
 62
               7
100
AcDbCircle
 10
-1126.4975607980746
 20
-661.97839726388975
 30
0.0
 40
2.0
100
AcDbArc
 50
180.0
 51
270.0
  0
LINE
  5
1FE
100
AcDbEntity
  8
AAA70-1004
370
              15
390
0
  6
Continuous
 62
               7
100
AcDbLine
 10
-1168.4975607980755
 20
-560.97839726388725
 30
0.0
 11
-1168.4975607980746
 21
-466.97839726377106
 31
0.0
  0
LINE
  5
1FF
100
AcDbEntity
  8
AAA70-1004
370
              15
390
0
  6
Continuous
 62
               7
100
AcDbLine
 10
-1158.4975607980746
 20
-551.97839726388747
 30
0.0
 11
-1158.4975607980755
 21
-475.97839726388747
 31
0.0
  0
ARC
  5
200
100
AcDbEntity
  8
AAA70-1004
370
              15
390
0
  6
Continuous
 62
               7
100
AcDbCircle
 10
-1156.4975607980755
 20
-475.97839726388747
 30
0.0
 40
2.0
100
AcDbArc
 50
90.0
 51
180.0
  0
ARC
  5
201
100
AcDbEntity
  8
AAA70-1004
370
              15
390
0
  6
Continuous
 62
               7
100
AcDbCircle
 10
-1165.4975607981905
 20
-466.97839726377083
 30
0.0
 40
2.9999999998835847
100
AcDbArc
 50
90.0
 51
180.0
  0
LINE
  5
202
100
AcDbEntity
  8
AAA70-1004
370
              15
390
0
  6
Continuous
 62
               7
100
AcDbLine
 10
-1093.0829535476269
 20
-600.10725927763269
 30
0.0
 11
-1095.9975607979295
 21
-467.97839726388906
 31
0.0
  0
LINE
  5
203
100
AcDbEntity
  8
AAA70-1004
370
              15
390
0
  6
Continuous
 62
               7
100
AcDbLine
 10
-1103.2922392790365
 20
-600.42318713293162
 30
0.0
 11
-1105.9975607979295
 21
-475.97839726388747
 31
0.0
  0
ARC
  5
204
100
AcDbEntity
  8
AAA70-1004
370
              15
390
0
  6
Continuous
 62
               7
100
AcDbCircle
 10
-1107.9975607979295
 20
-475.97839726388747
 30
0.0
 40
2.0
100
AcDbArc
 50
0.0
 51
90.0
  0
ARC
  5
205
100
AcDbEntity
  8
AAA70-1004
370
              15
390
0
  6
Continuous
 62
               7
100
AcDbCircle
 10
-1099.9975607979295
 20
-467.97839726388884
 30
0.0
 40
4.0
100
AcDbArc
 50
0.0
 51
90.0
  0
LINE
  5
206
100
AcDbEntity
  8
AAA70-1004
370
              15
390
0
  6
Continuous
 62
               7
100
AcDbLine
 10
-1099.9975607979295
 20
-463.97839726388747
 30
0.0
 11
-236.99756079792905
 21
-463.97839726388747
 31
0.0
  0
LINE
  5
207
100
AcDbEntity
  8
AAA70-1004
370
              15
390
0
  6
Continuous
 62
               7
100
AcDbLine
 10
-1099.4601983482517
 20
-673.97839726389066
 30
0.0
 11
-237.53492324760691
 21
-673.97839726389066
 31
0.0
  0
LINE
  5
208
100
AcDbEntity
  8
AAA70-1004
370
              15
390
0
  6
Continuous
 62
               7
100
AcDbLine
 10
-171.49756079766667
 20
-463.97839726388747
 30
0.0
 11
-236.99756079792905
 21
-463.97839726388747
 31
0.0
  0
LINE
  5
209
100
AcDbEntity
  8
AAA70-1004
370
              15
390
0
  6
Continuous
 62
               7
100
AcDbLine
 10
-180.49756079778354
 20
-473.97839726388747
 30
0.0
 11
-228.99756079792905
 21
-473.97839726388747
 31
0.0
  0
LINE
  5
20A
100
AcDbEntity
  8
AAA70-1004
370
              15
390
0
  6
Continuous
 62
               7
100
AcDbLine
 10
-237.53492324760691
 20
-673.97839726389066
 30
0.0
 11
-201.49756079778399
 21
-673.9783972638902
 31
0.0
  0
ARC
  5
20B
100
AcDbEntity
  8
AAA70-1004
370
              15
390
0
  6
Continuous
 62
               7
100
AcDbCircle
 10
-237.53492324760691
 20
-670.97839726389066
 30
0.0
 40
2.9999999999999849
100
AcDbArc
 50
183.0037986381638
 51
270.0
  0
LINE
  5
20C
100
AcDbEntity
  8
AAA70-1004
370
              15
390
0
  6
Continuous
 62
               7
100
AcDbLine
 10
-228.99756079792905
 20
-663.97839726389066
 30
0.0
 11
-210.49756079778399
 21
-663.9783972638902
 31
0.0
  0
ARC
  5
20D
100
AcDbEntity
  8
AAA70-1004
370
              15
390
0
  6
Continuous
 62
               7
100
AcDbCircle
 10
-228.99756079792905
 20
-661.97839726389066
 30
0.0
 40
2.0
100
AcDbArc
 50
180.0
 51
270.0
  0
LINE
  5
20E
100
AcDbEntity
  8
AAA70-1004
370
              15
390
0
  6
Continuous
 62
               7
100
AcDbLine
 10
-168.49756079778354
 20
-560.97839726388725
 30
0.0
 11
-168.49756079778354
 21
-466.97839726377106
 31
0.0
  0
LINE
  5
20F
100
AcDbEntity
  8
AAA70-1004
370
              15
390
0
  6
Continuous
 62
               7
100
AcDbLine
 10
-178.49756079778354
 20
-551.97839726388747
 30
0.0
 11
-178.49756079778354
 21
-475.97839726388747
 31
0.0
  0
ARC
  5
210
100
AcDbEntity
  8
AAA70-1004
370
              15
390
0
  6
Continuous
 62
               7
100
AcDbCircle
 10
-180.49756079778399
 20
-551.97839726388747
 30
0.0
 40
2.0
100
AcDbArc
 50
270.0
 51
0.0
  0
ARC
  5
211
100
AcDbEntity
  8
AAA70-1004
370
              15
390
0
  6
Continuous
 62
               7
100
AcDbCircle
 10
-180.49756079778399
 20
-475.97839726388747
 30
0.0
 40
2.0
100
AcDbArc
 50
0.0
 51
90.0
  0
ARC
  5
212
100
AcDbEntity
  8
AAA70-1004
370
              15
390
0
  6
Continuous
 62
               7
100
AcDbCircle
 10
-171.49756079766712
 20
-466.97839726377106
 30
0.0
 40
2.9999999998835847
100
AcDbArc
 50
0.0
 51
90.0
  0
LINE
  5
213
100
AcDbEntity
  8
AAA70-1004
370
              15
390
0
  6
Continuous
 62
               7
100
AcDbLine
 10
-243.91216804823216
 20
-600.10725927763269
 30
0.0
 11
-240.99756079792905
 21
-467.97839726388906
 31
0.0
  0
LINE
  5
214
100
AcDbEntity
  8
AAA70-1004
370
              15
390
0
  6
Continuous
 62
               7
100
AcDbLine
 10
-233.70288231682207
 20
-600.42318713293162
 30
0.0
 11
-230.99756079792996
 21
-475.97839726388747
 31
0.0
  0
ARC
  5
215
100
AcDbEntity
  8
AAA70-1004
370
              15
390
0
  6
Continuous
 62
               7
100
AcDbCircle
 10
-228.99756079792905
 20
-475.97839726388747
 30
0.0
 40
2.0
100
AcDbArc
 50
90.0
 51
180.0
  0
ARC
  5
216
100
AcDbEntity
  8
AAA70-1004
370
              15
390
0
  6
Continuous
 62
               7
100
AcDbCircle
 10
-236.99756079792905
 20
-467.97839726388906
 30
0.0
 40
4.0
100
AcDbArc
 50
90.0
 51
180.0
  0
LINE
  5
217
100
AcDbEntity
  8
AAA70-1004
370
              15
390
0
  6
Continuous
 62
               7
100
AcDbLine
 10
-629.57139802168467
 20
-608.86083482128515
 30
0.0
 11
-645.04818051273332
 21
-621.30234654467949
 31
0.0
  0
ARC
  5
218
100
AcDbEntity
  8
AAA70-1004
370
              15
390
0
  6
Continuous
 62
               7
100
AcDbCircle
 10
-643.99756079793497
 20
-623.00416857264781
 30
0.0
 40
2.0000000000005356
100
AcDbArc
 50
121.68910504310961
 51
180.0
  0
LINE
  5
219
100
AcDbEntity
  8
AAA70-1004
370
              15
390
0
  6
Continuous
 62
               7
100
AcDbLine
 10
-645.99756079793451
 20
-623.00416857264781
 30
0.0
 11
-645.99756079793497
 21
-672.97839726389066
 31
0.0
  0
ARC
  5
21A
100
AcDbEntity
  8
AAA70-1004
370
              15
390
0
  6
Continuous
 62
               7
100
AcDbCircle
 10
-644.99756079793497
 20
-672.97839726389066
 30
0.0
 40
1.0
100
AcDbArc
 50
180.0
 51
270.0
  0
LINE
  5
21B
100
AcDbEntity
  8
AAA70-1004
370
              15
390
0
  6
Continuous
 62
               7
100
AcDbLine
 10
-644.99756079793451
 20
-673.97839726389066
 30
0.0
 11
-634.99756079793451
 21
-673.97839726389066
 31
0.0
  0
ARC
  5
21C
100
AcDbEntity
  8
AAA70-1004
370
              15
390
0
  6
Continuous
 62
               7
100
AcDbCircle
 10
-634.99756079793497
 20
-672.97839726389066
 30
0.0
 40
1.0
100
AcDbArc
 50
270.0
 51
0.0
  0
LINE
  5
21D
100
AcDbEntity
  8
AAA70-1004
370
              15
390
0
  6
Continuous
 62
               7
100
AcDbLine
 10
-633.99756079793497
 20
-672.97839726389066
 30
0.0
 11
-633.99756079793451
 21
-629.97839726388975
 31
0.0
  0
LINE
  5
21E
100
AcDbEntity
  8
AAA70-1004
370
              15
390
0
  6
Continuous
 62
               7
100
AcDbLine
 10
-707.42372357417753
 20
-608.86083482128515
 30
0.0
 11
-691.94694108312433
 21
-621.30234654467949
 31
0.0
  0
ARC
  5
21F
100
AcDbEntity
  8
AAA70-1004
370
              15
390
0
  6
Continuous
 62
               7
100
AcDbCircle
 10
-692.99756079792405
 20
-623.00416857264781
 30
0.0
 40
2.0
100
AcDbArc
 50
0.0
 51
58.310894956890422
  0
LINE
  5
220
100
AcDbEntity
  8
AAA70-1004
370
              15
390
0
  6
Continuous
 62
               7
100
AcDbLine
 10
-690.9975607979236
 20
-623.00416857264781
 30
0.0
 11
-690.9975607979236
 21
-673.00416857264918
 31
0.0
  0
ARC
  5
221
100
AcDbEntity
  8
AAA70-1004
370
              15
390
0
  6
Continuous
 62
               7
100
AcDbCircle
 10
-691.99756079792405
 20
-672.97839726389066
 30
0.0
 40
1.0
100
AcDbArc
 50
270.0
 51
0.0
  0
LINE
  5
222
100
AcDbEntity
  8
AAA70-1004
370
              15
390
0
  6
Continuous
 62
               7
100
AcDbLine
 10
-691.9975607979236
 20
-673.97839726389066
 30
0.0
 11
-701.9975607979236
 21
-673.97839726389066
 31
0.0
  0
ARC
  5
223
100
AcDbEntity
  8
AAA70-1004
370
              15
390
0
  6
Continuous
 62
               7
100
AcDbCircle
 10
-701.99756079792405
 20
-672.97839726389066
 30
0.0
 40
1.0
100
AcDbArc
 50
180.0
 51
270.0
  0
LINE
  5
224
100
AcDbEntity
  8
AAA70-1004
370
              15
390
0
  6
Continuous
 62
               7
100
AcDbLine
 10
-702.99756079792405
 20
-672.97839726389066
 30
0.0
 11
-702.9975607979236
 21
-629.9783972638902
 31
0.0
  0
LINE
  5
225
100
AcDbEntity
  8
AAA70-1004
370
              15
390
0
  6
Continuous
 62
               7
100
AcDbLine
 10
-691.9975607979236
 20
-673.97839726389066
 30
0.0
 11
-644.99756079793451
 21
-673.97839726389066
 31
0.0
  0
LINE
  5
226
100
AcDbEntity
  8
AAA70-1004
370
              15
390
0
  6
Continuous
 62
               7
100
AcDbLine
 10
-690.9975607979236
 20
-623.00416857264781
 30
0.0
 11
-645.99756079793451
 21
-623.00416857264781
 31
0.0
  0
LINE
  5
227
100
AcDbEntity
  8
AAA70-1004
370
              15
390
0
  6
Continuous
 62
               7
100
AcDbLine
 10
-709.92987688482253
 20
-607.9783972638902
 30
0.0
 11
-627.06524471103876
 21
-607.9783972638902
 31
0.0
  0
LINE
  5
228
100
AcDbEntity
  8
AAA70-1004
370
              15
390
0
  6
Continuous
 62
               7
100
AcDbLine
 10
-657.9975607979286
 20
-630.99128291826901
 30
0.0
 11
-678.9975607979286
 21
-630.99128291826901
 31
0.0
  0
ARC
  5
229
100
AcDbEntity
  8
AAA70-1004
370
              15
390
0
  6
Continuous
 62
               7
100
AcDbCircle
 10
-657.99756079792905
 20
-632.99128291826901
 30
0.0
 40
2.0
100
AcDbArc
 50
0.0
 51
90.0
  0
LINE
  5
22A
100
AcDbEntity
  8
AAA70-1004
370
              15
390
0
  6
Continuous
 62
               7
100
AcDbLine
 10
-657.99756079792769
 20
-640.99128291826901
 30
0.0
 11
-678.9975607979286
 21
-640.99128291826901
 31
0.0
  0
ARC
  5
22B
100
AcDbEntity
  8
AAA70-1004
370
              15
390
0
  6
Continuous
 62
               7
100
AcDbCircle
 10
-678.99756079792905
 20
-638.99128291826901
 30
0.0
 40
2.0
100
AcDbArc
 50
180.0
 51
270.0
  0
LINE
  5
22C
100
AcDbEntity
  8
AAA70-1004
370
              15
390
0
  6
Continuous
 62
               7
100
AcDbLine
 10
-680.9975607979286
 20
-632.99128291826901
 30
0.0
 11
-680.99756079792769
 21
-638.99128291826901
 31
0.0
  0
ARC
  5
22D
100
AcDbEntity
  8
AAA70-1004
370
              15
390
0
  6
Continuous
 62
               7
100
AcDbCircle
 10
-678.99756079792905
 20
-632.99128291826901
 30
0.0
 40
2.0
100
AcDbArc
 50
90.0
 51
180.0
  0
LINE
  5
22E
100
AcDbEntity
  8
AAA70-1004
370
              15
390
0
  6
Continuous
 62
               7
100
AcDbLine
 10
-655.9975607979286
 20
-632.99128291826901
 30
0.0
 11
-655.9975607979286
 21
-638.99128291826901
 31
0.0
  0
ARC
  5
22F
100
AcDbEntity
  8
AAA70-1004
370
              15
390
0
  6
Continuous
 62
               7
100
AcDbCircle
 10
-657.99756079792814
 20
-638.99128291826901
 30
0.0
 40
2.0
100
AcDbArc
 50
270.0
 51
0.0
  0
ARC
  5
230
100
AcDbEntity
  8
AAA70-1004
370
              15
390
0
  6
Continuous
 62
               7
100
AcDbCircle
 10
622.47228996971739
 20
-611.97839726389066
 30
0.0
 40
4.0000000000000941
100
AcDbArc
 50
51.204814102816478
 51
90.0
  0
ARC
  5
231
100
AcDbEntity
  8
AAA70-1004
370
              15
390
0
  6
Continuous
 62
               7
100
AcDbCircle
 10
705.33692214349981
 20
-611.9783972638902
 30
0.0
 40
4.0
100
AcDbArc
 50
90.0
 51
128.79518589718353
  0
ARC
  5
232
100
AcDbEntity
  8
AAA70-1004
370
              15
390
0
  6
Continuous
 62
               7
100
AcDbCircle
 10
617.40460605661519
 20
-629.9783972638902
 30
0.0
 40
12.000000000000227
100
AcDbArc
 50
0.0
 51
90.0
  0
ARC
  5
233
100
AcDbEntity
  8
AAA70-1004
370
              15
390
0
  6
Continuous
 62
               7
100
AcDbCircle
 10
710.40460605660542
 20
-629.9783972638902
 30
0.0
 40
12.0
100
AcDbArc
 50
90.0
 51
180.0
  0
LINE
  5
234
100
AcDbEntity
  8
AAA70-1004
370
              15
390
0
  6
Continuous
 62
               7
100
AcDbLine
 10
702.83076883285435
 20
-608.86083482128561
 30
0.0
 11
687.3539863418066
 21
-621.30234654467995
 31
0.0
  0
ARC
  5
235
100
AcDbEntity
  8
AAA70-1004
370
              15
390
0
  6
Continuous
 62
               7
100
AcDbCircle
 10
688.40460605660451
 20
-623.00416857264827
 30
0.0
 40
2.0000000000005356
100
AcDbArc
 50
121.68910504310961
 51
180.0
  0
LINE
  5
236
100
AcDbEntity
  8
AAA70-1004
370
              15
390
0
  6
Continuous
 62
               7
100
AcDbLine
 10
686.40460605660451
 20
-623.00416857264827
 30
0.0
 11
686.40460605660451
 21
-629.99128291826855
 31
0.0
  0
LINE
  5
237
100
AcDbEntity
  8
AAA70-1004
370
              15
390
0
  6
Continuous
 62
               7
100
AcDbLine
 10
686.4046060566036
 20
-642.31585639017521
 30
0.0
 11
686.40460605660451
 21
-672.97839726389066
 31
0.0
  0
ARC
  5
238
100
AcDbEntity
  8
AAA70-1004
370
              15
390
0
  6
Continuous
 62
               7
100
AcDbCircle
 10
687.4046060566036
 20
-642.31585639017521
 30
0.0
 40
0.9999999999999759
100
AcDbArc
 50
91.754733277447002
 51
180.0
  0
ARC
  5
239
100
AcDbEntity
  8
AAA70-1004
370
              15
390
0
  6
Continuous
 62
               7
100
AcDbCircle
 10
687.40460605660451
 20
-672.97839726389066
 30
0.0
 40
1.0
100
AcDbArc
 50
180.0
 51
270.0
  0
ARC
  5
23A
100
AcDbEntity
  8
AAA70-1004
370
              15
390
0
  6
Continuous
 62
               7
100
AcDbCircle
 10
697.40460605660451
 20
-672.97839726389066
 30
0.0
 40
1.0
100
AcDbArc
 50
270.0
 51
0.0
  0
LINE
  5
23B
100
AcDbEntity
  8
AAA70-1004
370
              15
390
0
  6
Continuous
 62
               7
100
AcDbLine
 10
698.40460605660451
 20
-672.97839726389066
 30
0.0
 11
698.40460605660451
 21
-651.12799678900046
 31
0.0
  0
LINE
  5
23C
100
AcDbEntity
  8
AAA70-1004
370
              15
390
0
  6
Continuous
 62
               7
100
AcDbLine
 10
698.40460605660451
 20
-640.99128291826901
 30
0.0
 11
698.40460605660451
 21
-640.9783972638902
 31
0.0
  0
LINE
  5
23D
100
AcDbEntity
  8
AAA70-1004
370
              15
390
0
  6
Continuous
 62
               7
100
AcDbLine
 10
698.40460605660542
 20
-629.9912829182681
 30
0.0
 11
698.40460605660451
 21
-629.9783972638902
 31
0.0
  0
LINE
  5
23E
100
AcDbEntity
  8
AAA70-1004
370
              15
390
0
  6
Continuous
 62
               7
100
AcDbLine
 10
624.97844328036194
 20
-608.86083482128515
 30
0.0
 11
640.45522577141423
 21
-621.30234654467995
 31
0.0
  0
ARC
  5
23F
100
AcDbEntity
  8
AAA70-1004
370
              15
390
0
  6
Continuous
 62
               7
100
AcDbCircle
 10
639.40460605661542
 20
-623.00416857264827
 30
0.0
 40
2.0
100
AcDbArc
 50
0.0
 51
58.310894956890422
  0
LINE
  5
240
100
AcDbEntity
  8
AAA70-1004
370
              15
390
0
  6
Continuous
 62
               7
100
AcDbLine
 10
641.40460605661542
 20
-623.00416857264827
 30
0.0
 11
641.40460605661542
 21
-672.97839726389066
 31
0.0
  0
ARC
  5
241
100
AcDbEntity
  8
AAA70-1004
370
              15
390
0
  6
Continuous
 62
               7
100
AcDbCircle
 10
640.40460605661542
 20
-672.97839726389066
 30
0.0
 40
1.0
100
AcDbArc
 50
270.0
 51
0.0
  0
ARC
  5
242
100
AcDbEntity
  8
AAA70-1004
370
              15
390
0
  6
Continuous
 62
               7
100
AcDbCircle
 10
630.40460605661542
 20
-672.97839726389066
 30
0.0
 40
1.0
100
AcDbArc
 50
180.0
 51
270.0
  0
LINE
  5
243
100
AcDbEntity
  8
AAA70-1004
370
              15
390
0
  6
Continuous
 62
               7
100
AcDbLine
 10
629.40460605661542
 20
-672.97839726389066
 30
0.0
 11
629.40460605661542
 21
-629.9783972638902
 31
0.0
  0
LINE
  5
244
100
AcDbEntity
  8
AAA70-1004
370
              15
390
0
  6
Continuous
 62
               7
100
AcDbLine
 10
641.40460605661542
 20
-623.00416857264827
 30
0.0
 11
686.40460605660451
 21
-623.00416857264827
 31
0.0
  0
LINE
  5
245
100
AcDbEntity
  8
AAA70-1004
370
              15
390
0
  6
Continuous
 62
               7
100
AcDbLine
 10
622.47228996971739
 20
-607.97839726389066
 30
0.0
 11
705.33692214349981
 21
-607.9783972638902
 31
0.0
  0
LINE
  5
246
100
AcDbEntity
  8
AAA70-1004
370
              15
390
0
  6
Continuous
 62
               7
100
AcDbLine
 10
848.40460605661087
 20
-503.97839726388838
 30
0.0
 11
838.11048840955232
 21
-503.97839726388838
 31
0.0
  0
LINE
  5
247
100
AcDbEntity
  8
AAA70-1004
370
              15
390
0
  6
Continuous
 62
               7
100
AcDbLine
 10
848.06369696570187
 20
-518.97839726388838
 30
0.0
 11
837.77960605661087
 21
-518.97839726388838
 31
0.0
  0
LINE
  5
248
100
AcDbEntity
  8
AAA70-1004
370
              15
390
0
  6
Continuous
 62
               7
100
AcDbLine
 10
838.11048840955232
 20
-503.97839726388838
 30
0.0
 11
837.77960605661087
 21
-518.97839726388838
 31
0.0
  0
LINE
  5
249
100
AcDbEntity
  8
AAA70-1004
370
              15
390
0
  6
Continuous
 62
               7
100
AcDbLine
 10
848.40460605661087
 20
-503.97839726388838
 30
0.0
 11
848.40460605660996
 21
-518.97839726388838
 31
0.0
  0
LINE
  5
24A
100
AcDbEntity
  8
AAA70-1004
370
              15
390
0
  6
Continuous
 62
               7
100
AcDbLine
 10
687.40460605660451
 20
-630.99128291826901
 30
0.0
 11
697.40460605660542
 21
-630.99128291826946
 31
0.0
  0
ARC
  5
24B
100
AcDbEntity
  8
AAA70-1004
370
              15
390
0
  6
Continuous
 62
               7
100
AcDbCircle
 10
687.40460605660451
 20
-629.99128291826855
 30
0.0
 40
1.0
100
AcDbArc
 50
180.0
 51
270.0
  0
ARC
  5
24C
100
AcDbEntity
  8
AAA70-1004
370
              15
390
0
  6
Continuous
 62
               7
100
AcDbCircle
 10
697.40460605660542
 20
-629.99128291826901
 30
0.0
 40
1.0000000000004547
100
AcDbArc
 50
270.0
 51
0.0000000000260343
  0
LINE
  5
24D
100
AcDbEntity
  8
AAA70-1004
370
              15
390
0
  6
Continuous
 62
               7
100
AcDbLine
 10
687.37398497075287
 20
-641.31632532557478
 30
0.0
 11
858.02709040001196
 21
-636.08829032289168
 31
0.0
  0
LINE
  5
24E
100
AcDbEntity
  8
AAA70-1004
370
              15
390
0
  6
Continuous
 62
               7
100
AcDbLine
 10
698.40460605660815
 20
-651.12799678900046
 30
0.0
 11
858.31771022928137
 21
-646.40731474700306
 31
0.0
  0
LINE
  5
24F
100
AcDbEntity
  8
AAA70-1004
370
              15
390
0
  6
Continuous
 62
               7
100
AcDbLine
 10
491.61621659541379
 20
-600.71248204886842
 30
0.0
 11
488.90460605661156
 21
-661.97839726389111
 31
0.0
  0
LINE
  5
250
100
AcDbEntity
  8
AAA70-1004
370
              15
390
0
  6
Continuous
 62
               7
100
AcDbLine
 10
500.75816600972848
 20
-617.19913225294431
 30
0.0
 11
498.4341659152833
 21
-671.13685490768194
 31
0.0
  0
ARC
  5
251
100
AcDbEntity
  8
AAA70-1004
370
              15
390
0
  6
Continuous
 62
               7
100
AcDbCircle
 10
503.75397828273958
 20
-617.35758989673513
 30
0.0
 40
3.000000000000123
100
AcDbArc
 50
88.17445769267691
 51
176.97227298478299
  0
ARC
  5
252
100
AcDbEntity
  8
AAA70-1004
370
              15
390
0
  6
Continuous
 62
               7
100
AcDbCircle
 10
486.90460605661042
 20
-661.97839726389111
 30
0.0
 40
2.0
100
AcDbArc
 50
270.0
 51
0.0
  0
LINE
  5
253
100
AcDbEntity
  8
AAA70-1004
370
              15
390
0
  6
Continuous
 62
               7
100
AcDbLine
 10
-233.70288231682207
 20
-600.42318713293162
 30
0.0
 11
-230.99756079792905
 21
-661.97839726389066
 31
0.0
  0
LINE
  5
254
100
AcDbEntity
  8
AAA70-1004
370
              15
390
0
  6
Continuous
 62
               7
100
AcDbLine
 10
-242.84974964516505
 20
-616.94349521043705
 30
0.0
 11
-240.53080143586203
 21
-671.13560375592306
 31
0.0
  0
ARC
  5
255
100
AcDbEntity
  8
AAA70-1004
370
              15
390
0
  6
Continuous
 62
               7
100
AcDbCircle
 10
-245.84562783342017
 20
-617.100701702469
 30
0.0
 40
2.9999999999999849
100
AcDbArc
 50
3.00379863816381
 51
90.590657214622851
  0
ARC
  5
256
100
AcDbEntity
  8
AAA70-1004
370
              15
390
0
  6
Continuous
 62
               7
100
AcDbCircle
 10
-1099.4601983482517
 20
-670.9783972638902
 30
0.0
 40
3.0
100
AcDbArc
 50
270.0
 51
356.9962013618362
  0
ARC
  5
257
100
AcDbEntity
  8
AAA70-1004
370
              15
390
0
  6
Continuous
 62
               7
100
AcDbCircle
 10
-1107.9975607979295
 20
-661.9783972638902
 30
0.0
 40
2.0
100
AcDbArc
 50
270.0
 51
0.0
  0
LINE
  5
258
100
AcDbEntity
  8
AAA70-1004
370
              15
390
0
  6
Continuous
 62
               7
100
AcDbLine
 10
-1103.2922392790374
 20
-600.42318713293162
 30
0.0
 11
-1105.9975607979295
 21
-661.97839726389066
 31
0.0
  0
LINE
  5
259
100
AcDbEntity
  8
AAA70-1004
370
              15
390
0
  6
Continuous
 62
               7
100
AcDbLine
 10
-1094.1453719506935
 20
-616.94349521043705
 30
0.0
 11
-1096.4643201599965
 21
-671.13560375592306
 31
0.0
  0
ARC
  5
25A
100
AcDbEntity
  8
AAA70-1004
370
              15
390
0
  6
Continuous
 62
               7
100
AcDbCircle
 10
-1091.1494937624384
 20
-617.100701702469
 30
0.0
 40
3.0000000000004441
100
AcDbArc
 50
89.409342785377234
 51
176.99620136183668
  0
LINE
  5
25B
100
AcDbEntity
  8
AAA70-1004
370
              15
390
0
  6
Continuous
 62
               7
100
AcDbLine
 10
686.40460605660451
 20
-629.99128291826855
 30
0.0
 11
686.4046060566036
 21
-642.31585639017521
 31
0.0
  0
LINE
  5
25C
100
AcDbEntity
  8
AAA70-1004
370
              15
390
0
  6
Continuous
 62
               7
100
AcDbLine
 10
698.40460605660633
 20
-629.99128291826855
 30
0.0
 11
698.40460605660451
 21
-641.04696195884617
 31
0.0
  0
LINE
  5
25D
100
AcDbEntity
  8
AAA70-1004
370
              15
390
0
  6
Continuous
 62
               7
100
AcDbLine
 10
-1138.4975607980746
 20
-565.97839726388702
 30
0.0
 11
-1138.4975607980746
 21
-670.97839726388975
 31
0.0
  0
ARC
  5
25E
100
AcDbEntity
  8
AAA70-1004
370
              15
390
0
  6
Continuous
 62
               7
100
AcDbCircle
 10
-1140.4975607980746
 20
-565.97839726388656
 30
0.0
 40
2.0
100
AcDbArc
 50
0.0
 51
90.0
  0
LINE
  5
25F
100
AcDbEntity
  8
AAA70-1004
370
              15
390
0
  6
Continuous
 62
               7
100
AcDbLine
 10
-1128.4975607980755
 20
-557.9783972638877
 30
0.0
 11
-1128.4975607980746
 21
-661.9783972638902
 31
0.0
  0
ARC
  5
260
100
AcDbEntity
  8
AAA70-1004
370
              15
390
0
  6
Continuous
 62
               7
100
AcDbCircle
 10
-1132.4975607980746
 20
-557.97839726388725
 30
0.0
 40
4.0
100
AcDbArc
 50
0.0
 51
90.0
  0
LINE
  5
261
100
AcDbEntity
  8
AAA70-1004
370
              15
390
0
  6
Continuous
 62
               7
100
AcDbLine
 10
-1140.4975607980746
 20
-563.97839726388702
 30
0.0
 11
-1165.4975607980746
 21
-563.97839726388702
 31
0.0
  0
ARC
  5
262
100
AcDbEntity
  8
AAA70-1004
370
              15
390
0
  6
Continuous
 62
               7
100
AcDbCircle
 10
-1165.4975607980746
 20
-560.97839726388679
 30
0.0
 40
3.0
100
AcDbArc
 50
180.0
 51
270.0
  0
LINE
  5
263
100
AcDbEntity
  8
AAA70-1004
370
              15
390
0
  6
Continuous
 62
               7
100
AcDbLine
 10
-1132.4975607980746
 20
-553.97839726388747
 30
0.0
 11
-1156.4975607980746
 21
-553.97839726388747
 31
0.0
  0
ARC
  5
264
100
AcDbEntity
  8
AAA70-1004
370
              15
390
0
  6
Continuous
 62
               7
100
AcDbCircle
 10
-1156.4975607980746
 20
-551.97839726388702
 30
0.0
 40
2.0
100
AcDbArc
 50
180.0
 51
270.0
  0
ARC
  5
265
100
AcDbEntity
  8
AAA70-1004
370
              15
390
0
  6
Continuous
 62
               7
100
AcDbCircle
 10
-201.49756079778399
 20
-670.97839726388975
 30
0.0
 40
3.0
100
AcDbArc
 50
270.0
 51
0.0
  0
ARC
  5
266
100
AcDbEntity
  8
AAA70-1004
370
              15
390
0
  6
Continuous
 62
               7
100
AcDbCircle
 10
-210.49756079778399
 20
-661.9783972638902
 30
0.0
 40
2.0
100
AcDbArc
 50
270.0
 51
0.0
  0
LINE
  5
267
100
AcDbEntity
  8
AAA70-1004
370
              15
390
0
  6
Continuous
 62
               7
100
AcDbLine
 10
-198.49756079778399
 20
-565.97839726388702
 30
0.0
 11
-198.49756079778399
 21
-670.97839726388975
 31
0.0
  0
ARC
  5
268
100
AcDbEntity
  8
AAA70-1004
370
              15
390
0
  6
Continuous
 62
               7
100
AcDbCircle
 10
-196.49756079778399
 20
-565.97839726388702
 30
0.0
 40
2.0
100
AcDbArc
 50
90.0
 51
180.0
  0
LINE
  5
269
100
AcDbEntity
  8
AAA70-1004
370
              15
390
0
  6
Continuous
 62
               7
100
AcDbLine
 10
-208.49756079778399
 20
-557.9783972638877
 30
0.0
 11
-208.49756079778399
 21
-661.9783972638902
 31
0.0
  0
ARC
  5
26A
100
AcDbEntity
  8
AAA70-1004
370
              15
390
0
  6
Continuous
 62
               7
100
AcDbCircle
 10
-204.49756079778399
 20
-557.9783972638877
 30
0.0
 40
4.0000000000002274
100
AcDbArc
 50
90.0
 51
180.0
  0
LINE
  5
26B
100
AcDbEntity
  8
AAA70-1004
370
              15
390
0
  6
Continuous
 62
               7
100
AcDbLine
 10
-196.49756079778399
 20
-563.97839726388702
 30
0.0
 11
-171.49756079778354
 21
-563.97839726388702
 31
0.0
  0
ARC
  5
26C
100
AcDbEntity
  8
AAA70-1004
370
              15
390
0
  6
Continuous
 62
               7
100
AcDbCircle
 10
-171.49756079778399
 20
-560.97839726388725
 30
0.0
 40
2.9999999999997726
100
AcDbArc
 50
270.0
 51
0.0
  0
LINE
  5
26D
100
AcDbEntity
  8
AAA70-1004
370
              15
390
0
  6
Continuous
 62
               7
100
AcDbLine
 10
-204.49756079778399
 20
-553.97839726388747
 30
0.0
 11
-180.49756079778354
 21
-553.97839726388747
 31
0.0
  0
ARC
  5
26E
100
AcDbEntity
  8
AAA70-1004
370
              15
390
0
  6
Continuous
 62
               7
100
AcDbCircle
 10
461.90460605661042
 20
-670.97839726388975
 30
0.0
 40
3.0
100
AcDbArc
 50
180.0
 51
270.0
  0
ARC
  5
26F
100
AcDbEntity
  8
AAA70-1004
370
              15
390
0
  6
Continuous
 62
               7
100
AcDbCircle
 10
470.90460605661133
 20
-661.9783972638902
 30
0.0
 40
2.0
100
AcDbArc
 50
180.0
 51
270.0
  0
LINE
  5
270
100
AcDbEntity
  8
AAA70-1004
370
              15
390
0
  6
Continuous
 62
               7
100
AcDbLine
 10
458.90460605661065
 20
-565.97839726388702
 30
0.0
 11
458.90460605661065
 21
-670.97839726388975
 31
0.0
  0
ARC
  5
271
100
AcDbEntity
  8
AAA70-1004
370
              15
390
0
  6
Continuous
 62
               7
100
AcDbCircle
 10
456.90460605661133
 20
-565.97839726388702
 30
0.0
 40
2.0
100
AcDbArc
 50
0.0
 51
90.0
  0
LINE
  5
272
100
AcDbEntity
  8
AAA70-1004
370
              15
390
0
  6
Continuous
 62
               7
100
AcDbLine
 10
468.90460605661065
 20
-557.9783972638877
 30
0.0
 11
468.90460605661156
 21
-661.9783972638902
 31
0.0
  0
ARC
  5
273
100
AcDbEntity
  8
AAA70-1004
370
              15
390
0
  6
Continuous
 62
               7
100
AcDbCircle
 10
464.90460605661042
 20
-557.9783972638877
 30
0.0
 40
4.0
100
AcDbArc
 50
0.0
 51
90.0
  0
LINE
  5
274
100
AcDbEntity
  8
AAA70-1004
370
              15
390
0
  6
Continuous
 62
               7
100
AcDbLine
 10
456.90460605661156
 20
-563.97839726388702
 30
0.0
 11
431.90460605661178
 21
-563.97839726388702
 31
0.0
  0
ARC
  5
275
100
AcDbEntity
  8
AAA70-1004
370
              15
390
0
  6
Continuous
 62
               7
100
AcDbCircle
 10
431.90460605661156
 20
-560.97839726388725
 30
0.0
 40
3.0
100
AcDbArc
 50
180.0
 51
270.0
  0
LINE
  5
276
100
AcDbEntity
  8
AAA70-1004
370
              15
390
0
  6
Continuous
 62
               7
100
AcDbLine
 10
464.90460605661065
 20
-553.97839726388747
 30
0.0
 11
440.90460605661065
 21
-553.97839726388747
 31
0.0
  0
ARC
  5
277
100
AcDbEntity
  8
AAA70-1004
370
              15
390
0
  6
Continuous
 62
               7
100
AcDbCircle
 10
440.90460605661042
 20
-551.97839726388747
 30
0.0
 40
2.0
100
AcDbArc
 50
180.0
 51
270.0
  0
LINE
  5
278
100
AcDbEntity
  8
AAA70-1004
370
              15
390
0
  6
Continuous
 62
               7
100
AcDbLine
 10
965.90460605661178
 20
-563.97839726388793
 30
0.0
 11
950.90460605661087
 21
-563.97839726388793
 31
0.0
  0
LINE
  5
279
100
AcDbEntity
  8
AAA70-1004
370
              15
390
0
  6
Continuous
 62
               7
100
AcDbLine
 10
948.90460605661087
 20
-565.97839726388793
 30
0.0
 11
948.90460605661087
 21
-671.9783972638902
 31
0.0
  0
ARC
  5
27A
100
AcDbEntity
  8
AAA70-1004
370
              15
390
0
  6
Continuous
 62
               7
100
AcDbCircle
 10
950.90460605661087
 20
-565.97839726388793
 30
0.0
 40
2.0
100
AcDbArc
 50
90.0
 51
180.0
  0
ARC
  5
27B
100
AcDbEntity
  8
AAA70-1004
370
              15
390
0
  6
Continuous
 62
               7
100
AcDbCircle
 10
946.90460605660996
 20
-671.9783972638902
 30
0.0
 40
2.0
100
AcDbArc
 50
270.0
 51
0.0
  0
CIRCLE
  5
27C
100
AcDbEntity
  8
AAA70-1004
370
               5
390
0
  6
STYLE_12
 62
               7
100
AcDbCircle
 10
663.90460605661087
 20
1102.3814526186711
 30
0.0
 40
18.5
  0
CIRCLE
  5
27D
100
AcDbEntity
  8
AAA70-1004
370
               5
390
0
  6
STYLE_12
 62
               7
100
AcDbCircle
 10
763.90460605660996
 20
1102.3814526186711
 30
0.0
 40
17.5
  0
CIRCLE
  5
27E
100
AcDbEntity
  8
AAA70-1004
370
               5
390
0
  6
STYLE_12
 62
               7
100
AcDbCircle
 10
863.90460605660996
 20
1102.3814526186711
 30
0.0
 40
18.5
  0
CIRCLE
  5
27F
100
AcDbEntity
  8
AAA70-1004
370
               5
390
0
  6
STYLE_12
 62
               7
100
AcDbCircle
 10
963.90460605660996
 20
1102.3814526186711
 30
0.0
 40
17.5
  0
CIRCLE
  5
280
100
AcDbEntity
  8
AAA70-1004
370
               5
390
0
  6
STYLE_12
 62
               7
100
AcDbCircle
 10
563.90460605661087
 20
1102.3814526186711
 30
0.0
 40
17.5
  0
CIRCLE
  5
281
100
AcDbEntity
  8
AAA70-1004
370
               5
390
0
  6
STYLE_12
 62
               7
100
AcDbCircle
 10
463.90460605661087
 20
1102.3814526186711
 30
0.0
 40
18.5
  0
CIRCLE
  5
282
100
AcDbEntity
  8
AAA70-1004
370
               5
390
0
  6
STYLE_12
 62
               7
100
AcDbCircle
 10
363.90460605661087
 20
1102.3814526186711
 30
0.0
 40
17.5
  0
LWPOLYLINE
  5
283
100
AcDbEntity
  8
AAA70-1004
370
               5
390
0
  6
STYLE_12
 62
               7
100
AcDbPolyline
 90
        8
 70
             129
 10
167.90460605661087
 20
622.35056756232427
 10
1159.9046060566106
 20
622.35056756232336
 42
0.4142135623731949
 10
1163.9046060566093
 20
626.35056756232336
 10
1163.9046060566093
 20
1168.3505675623242
 42
0.4142135623729951
 10
1159.9046060566106
 20
1172.3505675623242
 10
167.90460605661087
 20
1172.3505675623242
 42
0.4142135623731117
 10
163.90460605661087
 20
1168.3505675623242
 10
163.90460605661087
 20
626.35056756232427
 42
0.4142135623731117
  0
CIRCLE
  5
284
100
AcDbEntity
  8
AAA70-1004
370
               5
390
0
  6
STYLE_12
 62
               7
100
AcDbCircle
 10
663.90460605661087
 20
857.35056756232325
 30
0.0
 40
22.5
  0
LINE
  5
285
100
AcDbEntity
  8
AAA70-1004
370
              15
390
0
  6
Continuous
 62
               7
100
AcDbLine
 10
494.90460605661087
 20
-463.97839726388747
 30
0.0
 11
842.90460605661087
 21
-463.97839726388747
 31
0.0
  0
ENDSEC
  0
SECTION
  2
OBJECTS
  0
DICTIONARY
  5
19
100
AcDbDictionary
280
               0
281
               1
  3
ACAD_GROUP
350
1A
  3
ACAD_MLINESTYLE
350
1B
  3
ACAD_LAYOUT
350
1E
  3
ACAD_PLOTSETTINGS
350
22
  3
ACAD_PLOTSTYLENAME
350
1F
  0
DICTIONARY
  5
1A
102
{ACAD_REACTORS
330
19
102
}
100
AcDbDictionary
280
               0
281
               1
  0
DICTIONARY
  5
1B
102
{ACAD_REACTORS
330
19
102
}
100
AcDbDictionary
280
               0
281
               1
  3
Standard
350
1C
  0
MLINESTYLE
  5
1C
102
{ACAD_REACTORS
330
1B
102
}
100
AcDbMlineStyle
  2
Standard
 70
               0
  3

 62
               0
 51
90.0
 52
90.0
 71
               2
 49
0.5
 62
             256
  6
ByLayer
 49
-0.5
 62
             256
  6
ByLayer
  0
ACDBDICTIONARYWDFLT
  5
1F
102
{ACAD_REACTORS
330
19
102
}
100
AcDbDictionary
281
               1
  3
Normal
350
1D
100
AcDbDictionaryWithDefault
340
1D
  0
ACDBPLACEHOLDER
  5
1D
102
{ACAD_REACTORS
330
1F
102
}
  0
LAYOUT
  5
20
102
{ACAD_REACTORS
330
1E
102
}
100
AcDbPlotSettings
  1

  2

  4

  6

 40
0.0
 41
0.0
 42
0.0
 43
0.0
 44
0.0
 45
0.0
 46
0.0
 47
0.0
 48
0.0
 49
0.0
140
0.0
141
0.0
142
1.0
143
1.0
 70
            1024
 72
               0
 73
               0
 74
               0
  7

 75
               0
147
1.0
148
0.0
149
0.0
100
AcDbLayout
  1
Model
 70
               0
 71
               0
 10
0.0
 20
0.0
 11
0.0
 21
0.0
 12
0.0
 22
0.0
 32
0.0
 14
0.0
 24
0.0
 34
0.0
 15
0.0
 25
0.0
 35
0.0
146
0.0
 13
0.0
 23
0.0
 33
0.0
 16
0.0
 26
0.0
 36
0.0
 17
0.0
 27
0.0
 37
0.0
 76
               0
330
A
331
0
345
0
346
0
  0
LAYOUT
  5
21
102
{ACAD_REACTORS
330
1E
102
}
100
AcDbPlotSettings
  1

  2

  4

  6

 40
0.0
 41
0.0
 42
0.0
 43
0.0
 44
0.0
 45
0.0
 46
0.0
 47
0.0
 48
0.0
 49
0.0
140
0.0
141
0.0
142
1.0
143
1.0
 70
               0
 72
               0
 73
               0
 74
               0
  7

 75
               0
147
1.0
148
0.0
149
0.0
100
AcDbLayout
  1
Layout1
 70
               0
 71
               0
 10
0.0
 20
0.0
 11
0.0
 21
0.0
 12
0.0
 22
0.0
 32
0.0
 14
0.0
 24
0.0
 34
0.0
 15
0.0
 25
0.0
 35
0.0
146
0.0
 13
0.0
 23
0.0
 33
0.0
 16
0.0
 26
0.0
 36
0.0
 17
0.0
 27
0.0
 37
0.0
 76
               0
330
B
331
0
345
0
346
0
  0
DICTIONARY
  5
1E
102
{ACAD_REACTORS
330
19
102
}
100
AcDbDictionary
280
               0
281
               1
  3
Layout1
350
21
  3
Model
350
20
  0
DICTIONARY
  5
22
102
{ACAD_REACTORS
330
19
102
}
100
AcDbDictionary
280
               0
281
               1
  0
ENDSEC
  0
EOF
