  0
SECTION
  2
HEADER
  9
$ACADVER
  1
AC1015
  9
$ACADMAINTVER
 70
               6
  9
$DWGCODEPAGE
  3
ANSI_932
  9
$INSBASE
 10
0.0
 20
0.0
 30
0.0
  9
$EXTMIN
 10
1124.9999999997588
 20
3036.2385924437936
 30
-14.851944444444445
  9
$EXTMAX
 10
3076.0344152901857
 20
5873.761407556206
 30
14.851944444444445
  9
$LIMMIN
 10
0.0
 20
0.0
  9
$LIMMAX
 10
0.0
 20
0.0
  9
$ORTHOMODE
 70
               0
  9
$REGENMODE
 70
               1
  9
$FILLMODE
 70
               1
  9
$QTEXTMODE
 70
               0
  9
$MIRRTEXT
 70
               1
  9
$LTSCALE
 40
50.799999999999997
  9
$ATTMODE
 70
               1
  9
$TEXTSIZE
 40
0.2
  9
$TRACEWID
 40
1.0
  9
$TEXTSTYLE
  7
Standard
  9
$CLAYER
  8
notes
  9
$CELTYPE
  6
Continuous
  9
$CECOLOR
 62
             256
  9
$CELTSCALE
 40
1.0
  9
$DISPSILH
 70
               0
  9
$DIMSCALE
 40
1.0
  9
$DIMASZ
 40
31.75
  9
$DIMEXO
 40
0.0
  9
$DIMDLI
 40
6.9999999999999396
  9
$DIMRND
 40
0.0
  9
$DIMDLE
 40
0.0
  9
$DIMEXE
 40
19.999999999996199
  9
$DIMTP
 40
0.0
  9
$DIMTM
 40
0.0
  9
$DIMTXT
 40
24.432617187500004
  9
$DIMCEN
 40
0.0
  9
$DIMTSZ
 40
0.0
  9
$DIMTOL
 70
               0
  9
$DIMLIM
 70
               0
  9
$DIMTIH
 70
               0
  9
$DIMTOH
 70
               0
  9
$DIMSE1
 70
               0
  9
$DIMSE2
 70
               0
  9
$DIMTAD
 70
               1
  9
$DIMZIN
 70
              11
  9
$DIMBLK
  1
VW_FILLEDARROW
  9
$DIMASO
 70
               1
  9
$DIMSHO
 70
               1
  9
$DIMPOST
  1
<>
  9
$DIMAPOST
  1
[]
  9
$DIMALT
 70
               0
  9
$DIMALTD
 70
               3
  9
$DIMALTF
 40
0.0393700787401575
  9
$DIMLFAC
 40
1.0
  9
$DIMTOFL
 70
               0
  9
$DIMTVP
 40
0.0
  9
$DIMTIX
 70
               1
  9
$DIMSOXD
 70
               0
  9
$DIMSAH
 70
               0
  9
$DIMBLK1
  1

  9
$DIMBLK2
  1

  9
$DIMSTYLE
  2
JIS
  9
$DIMCLRD
 70
               0
  9
$DIMCLRE
 70
               0
  9
$DIMCLRT
 70
               0
  9
$DIMTFAC
 40
1.0
  9
$DIMGAP
 40
1.00000000000108
  9
$DIMJUST
 70
               0
  9
$DIMSD1
 70
               0
  9
$DIMSD2
 70
               0
  9
$DIMTOLJ
 70
               1
  9
$DIMTZIN
 70
              11
  9
$DIMALTZ
 70
              15
  9
$DIMALTTZ
 70
              15
  9
$DIMUPT
 70
               0
  9
$DIMDEC
 70
               1
  9
$DIMTDEC
 70
               1
  9
$DIMALTU
 70
               4
  9
$DIMALTTD
 70
               2
  9
$DIMTXSTY
  7
ＭＳ ゴシック
  9
$DIMAUNIT
 70
               0
  9
$DIMADEC
 70
               2
  9
$DIMALTRND
 40
0.0
  9
$DIMAZIN
 70
               0
  9
$DIMDSEP
 70
              46
  9
$DIMATFIT
 70
               0
  9
$DIMFRAC
 70
               2
  9
$DIMLDRBLK
  1

  9
$DIMLUNIT
 70
               2
  9
$DIMLWD
 70
              -2
  9
$DIMLWE
 70
              -2
  9
$DIMTMOVE
 70
               0
  9
$LUNITS
 70
               2
  9
$LUPREC
 70
               4
  9
$SKETCHINC
 40
0.1
  9
$FILLETRAD
 40
0.0
  9
$AUNITS
 70
               0
  9
$AUPREC
 70
               0
  9
$MENU
  1
acad
  9
$ELEVATION
 40
0.0
  9
$PELEVATION
 40
0.0
  9
$THICKNESS
 40
0.0
  9
$LIMCHECK
 70
               0
  9
$CHAMFERA
 40
0.0
  9
$CHAMFERB
 40
0.0
  9
$CHAMFERC
 40
0.0
  9
$CHAMFERD
 40
0.0
  9
$SKPOLY
 70
               0
  9
$TDCREATE
 40
2455965.476458333
  9
$TDUCREATE
 40
0.000000000
  9
$TDUPDATE
 40
2455965.476458333
  9
$TDUUPDATE
 40
0.000000000
  9
$TDINDWG
 40
0.0000000000
  9
$TDUSRTIMER
 40
0.0000000000
  9
$USRTIMER
 70
               1
  9
$ANGBASE
 50
0.0
  9
$ANGDIR
 70
               0
  9
$PDMODE
 70
               1
  9
$PDSIZE
 40
-2.0
  9
$PLINEWID
 40
0.0
  9
$SPLFRAME
 70
               0
  9
$SPLINETYPE
 70
               6
  9
$SPLINESEGS
 70
               8
  9
$HANDSEED
  5
1BA
  9
$SURFTAB1
 70
               6
  9
$SURFTAB2
 70
               6
  9
$SURFTYPE
 70
               6
  9
$SURFU
 70
               6
  9
$SURFV
 70
               6
  9
$UCSBASE
  2

  9
$UCSNAME
  2

  9
$UCSORG
 10
0.0
 20
0.0
 30
0.0
  9
$UCSXDIR
 10
1.0
 20
0.0
 30
0.0
  9
$UCSYDIR
 10
0.0
 20
1.0
 30
0.0
  9
$UCSORTHOREF
  2

  9
$UCSORTHOVIEW
 70
               0
  9
$UCSORGTOP
 10
0.0
 20
0.0
 30
0.0
  9
$UCSORGBOTTOM
 10
0.0
 20
0.0
 30
0.0
  9
$UCSORGLEFT
 10
0.0
 20
0.0
 30
0.0
  9
$UCSORGRIGHT
 10
0.0
 20
0.0
 30
0.0
  9
$UCSORGFRONT
 10
0.0
 20
0.0
 30
0.0
  9
$UCSORGBACK
 10
0.0
 20
0.0
 30
0.0
  9
$PUCSBASE
  2

  9
$PUCSNAME
  2

  9
$PUCSORG
 10
0.0
 20
0.0
 30
0.0
  9
$PUCSXDIR
 10
1.0
 20
0.0
 30
0.0
  9
$PUCSYDIR
 10
0.0
 20
1.0
 30
0.0
  9
$PUCSORTHOREF
  2

  9
$PUCSORTHOVIEW
 70
               0
  9
$PUCSORGTOP
 10
0.0
 20
0.0
 30
0.0
  9
$PUCSORGBOTTOM
 10
0.0
 20
0.0
 30
0.0
  9
$PUCSORGLEFT
 10
0.0
 20
0.0
 30
0.0
  9
$PUCSORGRIGHT
 10
0.0
 20
0.0
 30
0.0
  9
$PUCSORGFRONT
 10
0.0
 20
0.0
 30
0.0
  9
$PUCSORGBACK
 10
0.0
 20
0.0
 30
0.0
  9
$USERI1
 70
               0
  9
$USERI2
 70
               0
  9
$USERI3
 70
               0
  9
$USERI4
 70
               0
  9
$USERI5
 70
               0
  9
$USERR1
 40
0.0
  9
$USERR2
 40
0.0
  9
$USERR3
 40
0.0
  9
$USERR4
 40
0.0
  9
$USERR5
 40
0.0
  9
$WORLDVIEW
 70
               1
  9
$SHADEDGE
 70
               3
  9
$SHADEDIF
 70
              70
  9
$TILEMODE
 70
               1
  9
$MAXACTVP
 70
              64
  9
$PINSBASE
 10
0.0
 20
0.0
 30
0.0
  9
$PLIMCHECK
 70
               0
  9
$PEXTMIN
 10
1.0000000000000000E+20
 20
1.0000000000000000E+20
 30
1.0000000000000000E+20
  9
$PEXTMAX
 10
-1.0000000000000000E+20
 20
-1.0000000000000000E+20
 30
-1.0000000000000000E+20
  9
$PLIMMIN
 10
0.0
 20
0.0
  9
$PLIMMAX
 10
12.0
 20
9.0
  9
$UNITMODE
 70
               0
  9
$VISRETAIN
 70
               0
  9
$PLINEGEN
 70
               1
  9
$PSLTSCALE
 70
               0
  9
$TREEDEPTH
 70
            3020
  9
$CMLSTYLE
  2
Standard
  9
$CMLJUST
 70
               0
  9
$CMLSCALE
 40
1.0
  9
$PROXYGRAPHICS
 70
               0
  9
$MEASUREMENT
 70
               1
  9
$CELWEIGHT
370
               0
  9
$ENDCAPS
280
               0
  9
$JOINSTYLE
280
               0
  9
$LWDISPLAY
290
               1
  9
$INSUNITS
 70
               4
  9
$HYPERLINKBASE
  1

  9
$STYLESHEET
  1

  9
$XEDIT
290
               1
  9
$CEPSNTYPE
380
               0
  9
$PSTYLEMODE
290
               1
  9
$FINGERPRINTGUID
  2

  9
$VERSIONGUID
  2

  9
$EXTNAMES
290
               1
  9
$PSVPSCALE
 40
0.0
  0
ENDSEC
  0
SECTION
  2
CLASSES
  0
CLASS
  1
LWPOLYLINE
  2
AcDbPolyline
  3
AutoCAD 2000
 90
        0
280
               0
281
               1
  0
CLASS
  1
IMAGE
  2
AcDbRasterImage
  3
ISM
 90
      127
280
               0
281
               1
  0
CLASS
  1
OLE2FRAME
  2
AcDbOle2Frame
  3
AutoCAD 2000
 90
        0
280
               0
281
               1
  0
CLASS
  1
HATCH
  2
AcDbHatch
  3
AutoCAD 2000
 90
        0
280
               0
281
               1
  0
CLASS
  1
DICTIONARYVAR
  2
AcDbDictionaryVar
  3
AutoCAD 2000
 90
        0
280
               0
281
               0
  0
CLASS
  1
RASTERVARIABLES
  2
AcDbRasterVariables
  3
ISM
 90
        0
280
               0
281
               0
  0
CLASS
  1
IMAGEDEF
  2
AcDbRasterImageDef
  3
ISM
 90
        0
280
               0
281
               0
  0
CLASS
  1
IMAGEDEF_REACTOR
  2
AcDbRasterImageDefReactor
  3
ISM
 90
        1
280
               0
281
               0
  0
CLASS
  1
IDBUFFER
  2
AcDbIdBuffer
  3
AutoCAD 2000
 90
        0
280
               0
281
               0
  0
CLASS
  1
SPATIAL_FILTER
  2
AcDbSpatialFilter
  3
AutoCAD 2000
 90
        0
280
               0
281
               0
  0
CLASS
  1
XRECORD
  2
AcDbXrecord
  3
AutoCAD 2000
 90
        0
280
               0
281
               0
  0
CLASS
  1
SORTENTSTABLE
  2
AcDbSortentsTable
  3
AutoCAD 2000
 90
        0
280
               0
281
               0
  0
CLASS
  1
LAYER_INDEX
  2
AcDbLayerIndex
  3
AutoCAD 2000
 90
        0
280
               0
281
               0
  0
CLASS
  1
SPATIAL_INDEX
  2
AcDbSpatialIndex
  3
AutoCAD 2000
 90
        0
280
               0
281
               0
  0
CLASS
  1
OBJECT_PTR
  2
CAseDLPNTableRecord
  3
"ASE-LPNTableRecord"
 90
        1
280
               0
281
               0
  0
CLASS
  1
LAYOUT
  2
AcDbLayout
  3
AutoCAD 2000
 90
        0
280
               0
281
               0
  0
CLASS
  1
PLOTSETTINGS
  2
AcDbPlotSettings
  3
AutoCAD 2000
 90
        0
280
               0
281
               0
  0
CLASS
  1
ACDBDICTIONARYWDFLT
  2
AcDbDictionaryWithDefault
  3
AutoCAD 2000
 90
        0
280
               0
281
               0
  0
CLASS
  1
ACDBPLACEHOLDER
  2
AcDbPlaceHolder
  3
AutoCAD 2000
 90
        0
280
               0
281
               0
  0
ENDSEC
  0
SECTION
  2
TABLES
  0
TABLE
  2
VPORT
  5
7
100
AcDbSymbolTable
 70
               1
  0
VPORT
  5
15
100
AcDbSymbolTableRecord
100
AcDbViewportTableRecord
  2
*ACTIVE
 70
               0
 10
0.0
 20
0.0
 11
1.0
 21
1.0
 12
2100.5172076449721
 22
4455.0
 13
0.0
 23
0.0
 14
1.0
 24
1.0
 15
0.0
 25
0.0
 16
0.0
 26
0.0
 36
1.0
 17
0.0
 27
0.0
 37
0.0
 40
2837.5228151124124
 41
0.688564
 42
50.0
 43
0.0
 44
0.0
 50
0.0
 51
0.0
 71
               0
 72
            2000
 73
               1
 74
               1
 75
               0
 76
               0
 77
               0
 78
               0
281
               0
 65
               0
110
0.0
120
0.0
130
0.0
111
1.0
121
0.0
131
0.0
112
0.0
122
1.0
132
0.0
345
0
346
0
 79
               0
146
0.0
  0
ENDTAB
  0
TABLE
  2
LTYPE
  5
4
100
AcDbSymbolTable
 70
              15
  0
LTYPE
  5
11
100
AcDbSymbolTableRecord
100
AcDbLinetypeTableRecord
  2
ByBlock
 70
              64
  3

 72
              65
 73
               0
 40
0.0
  0
LTYPE
  5
12
100
AcDbSymbolTableRecord
100
AcDbLinetypeTableRecord
  2
ByLayer
 70
              64
  3

 72
              65
 73
               0
 40
0.0
  0
LTYPE
  5
13
100
AcDbSymbolTableRecord
100
AcDbLinetypeTableRecord
  2
Continuous
 70
              64
  3
Solid line
 72
              65
 73
               0
 40
0.0
  0
LTYPE
  5
36
100
AcDbSymbolTableRecord
100
AcDbLinetypeTableRecord
  2
STYLE_01
 70
               0
  3

 72
              65
 73
               2
 40
0.0375
 49
0.025
 74
               0
 49
-0.0125
 74
               0
  0
LTYPE
  5
37
100
AcDbSymbolTableRecord
100
AcDbLinetypeTableRecord
  2
STYLE_02
 70
               0
  3

 72
              65
 73
               2
 40
0.6944250000000001
 49
0.48607
 74
               0
 49
-0.2083550000000001
 74
               0
  0
LTYPE
  5
38
100
AcDbSymbolTableRecord
100
AcDbLinetypeTableRecord
  2
STYLE_03
 70
               0
  3

 72
              65
 73
               2
 40
1.25
 49
1.0416400000000001
 74
               0
 49
-0.2083599999999999
 74
               0
  0
LTYPE
  5
39
100
AcDbSymbolTableRecord
100
AcDbLinetypeTableRecord
  2
STYLE_04
 70
               0
  3

 72
              65
 73
               2
 40
1.5277099999999999
 49
1.3194249999999998
 74
               0
 49
-0.208285
 74
               0
  0
LTYPE
  5
3A
100
AcDbSymbolTableRecord
100
AcDbLinetypeTableRecord
  2
STYLE_05
 70
               0
  3

 72
              65
 73
               2
 40
0.20828
 49
0.069425
 74
               0
 49
-0.138855
 74
               0
  0
LTYPE
  5
3B
100
AcDbSymbolTableRecord
100
AcDbLinetypeTableRecord
  2
STYLE_06
 70
               0
  3

 72
              65
 73
               4
 40
1.0416400000000001
 49
0.625
 74
               0
 49
-0.20828
 74
               0
 49
0.06943
 74
               0
 49
-0.13893
 74
               0
  0
LTYPE
  5
3C
100
AcDbSymbolTableRecord
100
AcDbLinetypeTableRecord
  2
STYLE_07
 70
               0
  3

 72
              65
 73
               6
 40
1.875
 49
0.625
 74
               0
 49
-0.20828
 74
               0
 49
0.6250000000000001
 74
               0
 49
-0.2083599999999999
 74
               0
 49
0.06943
 74
               0
 49
-0.1389299999999999
 74
               0
  0
LTYPE
  5
3D
100
AcDbSymbolTableRecord
100
AcDbLinetypeTableRecord
  2
STYLE_08
 70
               0
  3

 72
              65
 73
               6
 40
1.25
 49
0.625
 74
               0
 49
-0.20828
 74
               0
 49
0.06943
 74
               0
 49
-0.13893
 74
               0
 49
0.0694299999999999
 74
               0
 49
-0.13893
 74
               0
  0
LTYPE
  5
3E
100
AcDbSymbolTableRecord
100
AcDbLinetypeTableRecord
  2
STYLE_09
 70
               0
  3

 72
              65
 73
               4
 40
5.0
 49
3.75
 74
               0
 49
-0.2777849999999998
 74
               0
 49
0.6944300000000003
 74
               0
 49
-0.2777849999999998
 74
               0
  0
LTYPE
  5
3F
100
AcDbSymbolTableRecord
100
AcDbLinetypeTableRecord
  2
STYLE_10
 70
               0
  3

 72
              65
 73
               6
 40
5.9375
 49
3.75
 74
               0
 49
-0.2777849999999998
 74
               0
 49
0.6944300000000003
 74
               0
 49
-0.2777849999999998
 74
               0
 49
0.625
 74
               0
 49
-0.3125
 74
               0
  0
LTYPE
  5
40
100
AcDbSymbolTableRecord
100
AcDbLinetypeTableRecord
  2
STYLE_11
 70
               0
  3

 72
              65
 73
               2
 40
0.516732283464567
 49
0.344488188976378
 74
               0
 49
-0.172244094488189
 74
               0
  0
LTYPE
  5
41
100
AcDbSymbolTableRecord
100
AcDbLinetypeTableRecord
  2
STYLE_12
 70
               0
  3

 72
              65
 73
               2
 40
0.3937007874015748
 49
0.1968503937007874
 74
               0
 49
-0.1968503937007874
 74
               0
  0
ENDTAB
  0
TABLE
  2
LAYER
  5
2
100
AcDbSymbolTable
 70
               5
  0
LAYER
  5
14
100
AcDbSymbolTableRecord
100
AcDbLayerTableRecord
  2
0
 70
               0
 62
               7
  6
Continuous
290
               1
370
              -3
390
1D
  0
LAYER
  5
42
100
AcDbSymbolTableRecord
100
AcDbLayerTableRecord
  2
Defpoints
 70
               0
 62
               7
  6
Continuous
290
               0
370
              -3
390
1D
  0
LAYER
  5
43
100
AcDbSymbolTableRecord
100
AcDbLayerTableRecord
  2
template
 70
               0
 62
               7
  6
Continuous
290
               1
370
              -3
390
1D
  0
LAYER
  5
44
100
AcDbSymbolTableRecord
100
AcDbLayerTableRecord
  2
notes
 70
               0
 62
               7
  6
Continuous
290
               1
370
              -3
390
1D
  0
LAYER
  5
45
100
AcDbSymbolTableRecord
100
AcDbLayerTableRecord
  2
AAA70-1102
 70
               0
 62
               7
  6
Continuous
290
               1
370
              -3
390
1D
  0
ENDTAB
  0
TABLE
  2
STYLE
  5
3
100
AcDbSymbolTable
 70
               2
  0
STYLE
  5
17
100
AcDbSymbolTableRecord
100
AcDbTextStyleTableRecord
  2
Standard
 70
               0
 40
0.0
 41
1.0
 50
0.0
 71
               0
 42
0.0
  3
txt
  4
BIGFONT.SHX
  0
STYLE
  5
35
100
AcDbSymbolTableRecord
100
AcDbTextStyleTableRecord
  2
ＭＳ ゴシック
 70
               0
 40
0.0
 41
1.0
 50
0.0
 71
               0
 42
0.0
  3

  4
ＭＳ ゴシック
1001
ACAD
1000
ＭＳ ゴシック
1071
        0
  0
ENDTAB
  0
TABLE
  2
VIEW
  5
5
100
AcDbSymbolTable
 70
               0
  0
ENDTAB
  0
TABLE
  2
UCS
  5
6
100
AcDbSymbolTable
 70
               0
  0
ENDTAB
  0
TABLE
  2
APPID
  5
8
100
AcDbSymbolTable
 70
               1
  0
APPID
  5
16
100
AcDbSymbolTableRecord
100
AcDbRegAppTableRecord
  2
ACAD
 70
               0
  0
ENDTAB
  0
TABLE
  2
DIMSTYLE
  5
9
100
AcDbSymbolTable
 70
               3
100
AcDbDimStyleTable
 71
               0
  0
DIMSTYLE
105
18
100
AcDbSymbolTableRecord
100
AcDbDimStyleTableRecord
  2
Standard
 70
               0
  3

  4

 40
1.0
 41
0.18
 42
0.0625
 43
0.38
 44
0.18
 45
0.0
 46
0.0
 47
0.0
 48
0.0
 71
               0
 72
               0
 73
               1
 74
               1
 75
               0
 76
               0
 77
               0
 78
               0
 79
               0
140
0.18
141
0.09
142
0.0
143
25.399999999999999
144
1.0
145
0.0
146
1.0
147
0.09
148
0.0
170
               0
171
               2
172
               0
173
               0
174
               0
175
               0
176
               0
177
               0
178
               0
179
               0
271
               4
272
               4
273
               2
274
               2
275
               0
276
               0
277
               2
278
              46
279
               0
280
               0
281
               0
282
               0
283
               1
284
               0
285
               0
286
               0
288
               0
289
               3
340
17
341
0
342
0
343
0
344
0
371
              -2
372
              -2
  0
DIMSTYLE
105
4E
100
AcDbSymbolTableRecord
100
AcDbDimStyleTableRecord
  2
tfrom線あり
 70
               0
  3
<>
  4
[]
 40
1.0
 41
3.999755859375
 42
24.999999999999996
 43
0.9999999999999999
 44
0.0
 45
0.0
 46
0.0
 47
0.0
 48
0.0
 71
               0
 72
               0
 73
               0
 74
               0
 75
               0
 76
               0
 77
               1
 78
              11
 79
               0
140
24.432617187500004
141
0.0
142
0.0
143
0.0393700787401575
144
1.0
145
0.0
146
1.0
147
0.4999999999999999
148
0.0
170
               0
171
               3
172
               0
173
               0
174
               1
175
               0
176
               0
177
               0
178
               0
179
               2
271
               1
272
               1
273
               4
274
               2
275
               0
276
               2
277
               2
278
              46
279
               0
280
               0
281
               0
282
               0
283
               1
284
              11
285
              15
286
              15
288
               0
289
               0
340
35
341
46
342
46
343
0
344
0
371
              -2
372
              -2
  0
DIMSTYLE
105
53
100
AcDbSymbolTableRecord
100
AcDbDimStyleTableRecord
  2
JIS
 70
               0
  3
<>
  4
[]
 40
1.0
 41
31.75
 42
0.0
 43
6.9999999999999396
 44
19.999999999996199
 45
0.0
 46
0.0
 47
0.0
 48
0.0
 71
               0
 72
               0
 73
               0
 74
               0
 75
               0
 76
               0
 77
               1
 78
              11
 79
               0
140
24.432617187500004
141
0.0
142
0.0
143
0.0393700787401575
144
1.0
145
0.0
146
1.0
147
1.00000000000108
148
0.0
170
               0
171
               3
172
               0
173
               0
174
               1
175
               0
176
               0
177
               0
178
               0
179
               2
271
               1
272
               1
273
               4
274
               2
275
               0
276
               2
277
               2
278
              46
279
               0
280
               0
281
               0
282
               0
283
               1
284
              11
285
              15
286
              15
288
               0
289
               0
340
35
341
4F
342
4F
343
0
344
0
371
              -2
372
              -2
  0
ENDTAB
  0
TABLE
  2
BLOCK_RECORD
  5
1
100
AcDbSymbolTable
 70
              20
  0
BLOCK_RECORD
  5
A
100
AcDbSymbolTableRecord
100
AcDbBlockTableRecord
  2
*MODEL_SPACE
340
20
  0
BLOCK_RECORD
  5
B
100
AcDbSymbolTableRecord
100
AcDbBlockTableRecord
  2
*PAPER_SPACE
340
21
  0
BLOCK_RECORD
  5
46
100
AcDbSymbolTableRecord
100
AcDbBlockTableRecord
  2
_DOT
340
0
  0
BLOCK_RECORD
  5
4F
100
AcDbSymbolTableRecord
100
AcDbBlockTableRecord
  2
VW_FILLEDARROW
340
0
  0
BLOCK_RECORD
  5
23
100
AcDbSymbolTableRecord
100
AcDbBlockTableRecord
  2
グループ
340
0
102
{BLKREFS
331
145
102
}
  0
BLOCK_RECORD
  5
24
100
AcDbSymbolTableRecord
100
AcDbBlockTableRecord
  2
*D3
340
0
  0
BLOCK_RECORD
  5
25
100
AcDbSymbolTableRecord
100
AcDbBlockTableRecord
  2
*D4
340
0
  0
BLOCK_RECORD
  5
26
100
AcDbSymbolTableRecord
100
AcDbBlockTableRecord
  2
*D5
340
0
  0
BLOCK_RECORD
  5
27
100
AcDbSymbolTableRecord
100
AcDbBlockTableRecord
  2
*D6
340
0
  0
BLOCK_RECORD
  5
28
100
AcDbSymbolTableRecord
100
AcDbBlockTableRecord
  2
*D7
340
0
  0
BLOCK_RECORD
  5
29
100
AcDbSymbolTableRecord
100
AcDbBlockTableRecord
  2
*D8
340
0
  0
BLOCK_RECORD
  5
2A
100
AcDbSymbolTableRecord
100
AcDbBlockTableRecord
  2
*D9
340
0
  0
BLOCK_RECORD
  5
2B
100
AcDbSymbolTableRecord
100
AcDbBlockTableRecord
  2
*D10
340
0
  0
BLOCK_RECORD
  5
2C
100
AcDbSymbolTableRecord
100
AcDbBlockTableRecord
  2
*D11
340
0
  0
BLOCK_RECORD
  5
2D
100
AcDbSymbolTableRecord
100
AcDbBlockTableRecord
  2
*D12
340
0
  0
BLOCK_RECORD
  5
2E
100
AcDbSymbolTableRecord
100
AcDbBlockTableRecord
  2
*D13
340
0
  0
BLOCK_RECORD
  5
2F
100
AcDbSymbolTableRecord
100
AcDbBlockTableRecord
  2
*D14
340
0
  0
BLOCK_RECORD
  5
30
100
AcDbSymbolTableRecord
100
AcDbBlockTableRecord
  2
*D15
340
0
  0
BLOCK_RECORD
  5
31
100
AcDbSymbolTableRecord
100
AcDbBlockTableRecord
  2
*D16
340
0
  0
BLOCK_RECORD
  5
32
100
AcDbSymbolTableRecord
100
AcDbBlockTableRecord
  2
*D17
340
0
  0
BLOCK_RECORD
  5
33
100
AcDbSymbolTableRecord
100
AcDbBlockTableRecord
  2
*D18
340
0
  0
BLOCK_RECORD
  5
34
100
AcDbSymbolTableRecord
100
AcDbBlockTableRecord
  2
*D19
340
0
  0
ENDTAB
  0
ENDSEC
  0
SECTION
  2
BLOCKS
  0
BLOCK
  5
D
100
AcDbEntity
  8
0
390
0
100
AcDbBlockBegin
  2
*MODEL_SPACE
 70
               0
 10
0.0
 20
0.0
 30
0.0
  3
*MODEL_SPACE
  1

  0
ENDBLK
  5
E
100
AcDbEntity
  8
0
390
0
100
AcDbBlockEnd
  0
BLOCK
  5
F
100
AcDbEntity
 67
               1
  8
0
390
0
100
AcDbBlockBegin
  2
*PAPER_SPACE
 70
               0
 10
0.0
 20
0.0
 30
0.0
  3
*PAPER_SPACE
  1

  0
ENDBLK
  5
10
100
AcDbEntity
 67
               1
  8
0
390
0
100
AcDbBlockEnd
  0
BLOCK
  5
47
100
AcDbEntity
  8
0
390
0
100
AcDbBlockBegin
  2
_DOT
 70
               0
 10
0.0
 20
0.0
 30
0.0
  3
_DOT
  1

  0
POLYLINE
  5
48
100
AcDbEntity
  8
0
370
              -2
390
0
  6
ByBlock
 62
               0
100
AcDb2dPolyline
 66
               1
 10
0.0
 20
0.0
 30
0.0
 70
               1
 40
0.5
 41
0.5
  0
VERTEX
  5
49
100
AcDbEntity
  8
0
370
              -2
390
0
  6
ByBlock
 62
               0
100
AcDbVertex
100
AcDb2dVertex
 10
-0.25
 20
0.0
 30
0.0
 42
1.0
  0
VERTEX
  5
4A
100
AcDbEntity
  8
0
370
              -2
390
0
  6
ByBlock
 62
               0
100
AcDbVertex
100
AcDb2dVertex
 10
0.25
 20
0.0
 30
0.0
 42
1.0
  0
SEQEND
  5
4B
100
AcDbEntity
  8
0
390
0
  0
LINE
  5
4C
100
AcDbEntity
  8
0
370
              -2
390
0
  6
ByBlock
 62
               0
100
AcDbLine
 10
-0.5
 20
0.0
 30
0.0
 11
-1.0
 21
0.0
 31
0.0
  0
ENDBLK
  5
4D
100
AcDbEntity
  8
0
390
0
100
AcDbBlockEnd
  0
BLOCK
  5
50
100
AcDbEntity
  8
0
370
              -2
390
0
  6
ByBlock
 62
               0
100
AcDbBlockBegin
  2
VW_FILLEDARROW
 70
               0
 10
0.0
 20
0.0
 30
0.0
  3
VW_FILLEDARROW
  1

  0
SOLID
  5
51
100
AcDbEntity
  8
0
370
              -2
390
0
 62
               0
100
AcDbTrace
 10
0.0
 20
0.0
 30
0.0
 11
-0.9921874999999999
 21
-0.2658558393652545
 31
0.0
 12
-0.9921874999999999
 22
0.2658558393652548
 32
0.0
 13
-0.9921874999999999
 23
0.2658558393652548
 33
0.0
  0
ENDBLK
  5
52
100
AcDbEntity
  8
0
390
0
100
AcDbBlockEnd
  0
BLOCK
  5
54
100
AcDbEntity
  8
template
390
0
100
AcDbBlockBegin
  2
グループ
 70
               0
 10
0.0
 20
0.0
 30
0.0
  3
グループ
  1

  0
LWPOLYLINE
  5
55
100
AcDbEntity
  8
0
370
              15
390
0
  6
Continuous
 62
               7
100
AcDbPolyline
 90
        8
 70
             129
 10
887.42850780307481
 20
-1321.7256061087792
 10
887.42850780307481
 20
-1327.7229948023551
 10
877.92731088507151
 20
-1327.7229948023551
 10
877.92731088507151
 20
-1352.1739580658641
 10
869.57193362328871
 20
-1352.1739580658641
 10
869.57193362328871
 20
-1327.7229948023551
 10
860.23897667697929
 20
-1327.7229948023551
 10
860.23897667697929
 20
-1321.7256061087792
  0
LWPOLYLINE
  5
56
100
AcDbEntity
  8
0
370
              15
390
0
  6
Continuous
 62
               7
100
AcDbPolyline
 90
      101
 70
             128
 10
900.15679963363175
 20
-1322.4538546017156
 10
900.17214966241681
 20
-1322.4494938450305
 42
-0.0222221607812452
 10
900.46215423908779
 20
-1322.380869379786
 10
900.47794800307383
 20
-1322.3778659566904
 42
-0.0146883565588934
 10
900.74065070830557
 20
-1322.3358627697396
 42
-0.0127458844187232
 10
901.00528967545358
 20
-1322.3083258016675
 10
901.06774475377142
 20
-1322.3034323790789
 42
-0.0198099018564203
 10
901.45859386324787
 20
-1322.2883472216822
 10
901.51040533269202
 20
-1322.2884009973473
 42
-0.0147617382767081
 10
902.00502879366388
 20
-1322.3035210225921
 10
902.07772024854728
 20
-1322.3078936294803
 42
-0.0162624548994798
 10
902.46787387800578
 20
-1322.3441265047522
 10
902.58940626926324
 20
-1322.3594130637484
 42
-0.0080020874677846
 10
902.73498530035658
 20
-1322.3800959110172
 10
902.7733047709329
 20
-1322.3861671888253
 42
-0.0053821929673327
 10
902.84178887626638
 20
-1322.3977747126501
 10
902.11538317706777
 20
-1324.578703168364
 42
0.010866775739458
 10
902.04806610693299
 20
-1324.5655160531433
 10
902.01059808374748
 20
-1324.5590183105496
 42
0.017066320330555
 10
901.86738129683056
 20
-1324.5391887132575
 10
901.79950596414892
 20
-1324.5321415426702
 42
0.0220162375278403
 10
901.5191265562944
 20
-1324.5154591818998
 10
901.44127098924127
 20
-1324.5142598146333
 42
0.0282606915787519
 10
901.10563466566362
 20
-1324.5280630916025
 10
901.06172139189118
 20
-1324.5323630816063
 42
0.0169677213689199
 10
900.8157968969324
 20
-1324.5649001311583
 42
0.0190576269859945
 10
900.57288893435577
 20
-1324.615047003264
 10
900.56662974624146
 20
-1324.6165899773741
 42
0.0213685642844021
 10
900.3162452617612
 20
-1324.6897902624796
 10
900.3107553668475
 20
-1324.6916532585378
 42
0.0237595297595475
 10
900.05726048195015
 20
-1324.7913377804327
 10
900.05215840791914
 20
-1324.7936295559116
 42
0.0261857468810989
 10
899.79998763168908
 20
-1324.9231658932861
 10
899.78956144260201
 20
-1324.9292313677547
 42
0.0272553062022719
 10
899.55313166736369
 20
-1325.0846035736986
 10
899.51836865385417
 20
-1325.1102647217908
 42
0.0325996893183754
 10
899.36821331020269
 20
-1325.2370125947623
 10
899.34450388108132
 20
-1325.2598306232735
 42
0.0138050960622077
 10
899.25262072486953
 20
-1325.353280284827
 42
0.0125280103811061
 10
899.16577819203553
 20
-1325.4514436114275
 10
899.14209774712765
 20
-1325.4796021096142
 42
0.0205218024740018
 10
899.01699767161551
 20
-1325.6413954238412
 10
898.99453133112684
 20
-1325.6730551536702
 42
0.0163110129586428
 10
898.83882095187516
 20
-1325.9083855887409
 10
898.83609705582455
 20
-1325.9128093507256
 42
0.0131897341900631
 10
898.68929653491591
 20
-1326.1659414430953
 10
898.68759643955218
 20
-1326.1690596822259
 42
0.0107895576062599
 10
898.54981973733982
 20
-1326.4352748918641
 10
898.5490868478164
 20
-1326.4367691245075
 42
0.0091371507225028
 10
898.42060689916593
 20
-1326.7112943222689
 10
898.3908612677576
 20
-1326.7780008294258
 42
0.0135418326351088
 10
898.21914732868436
 20
-1327.1929386146987
 10
898.1855425202524
 20
-1327.280804756974
 42
0.0092834542409608
 10
898.01431346033087
 20
-1327.7547032552811
 10
897.98869633261347
 20
-1327.8299443250737
 42
0.0054261043585329
 10
897.88105818432018
 20
-1328.1577082981398
 10
897.86353219816351
 20
-1328.2130964603045
 42
0.0008225090811953
 10
897.79486214631277
 20
-1328.4313652185192
 10
896.8101730143793
 20
-1331.4562565117758
 10
900.04279685445317
 20
-1331.4562565117758
 10
899.53860442459973
 20
-1333.3607348101277
 10
896.28254814261641
 20
-1333.3607348101277
 10
890.45339911026258
 20
-1352.1739578761326
 10
888.62830149995227
 20
-1352.1739578761326
 10
894.4629795354532
 20
-1333.3607348101277
 10
892.05786316641286
 20
-1333.3607348101277
 10
892.5620555962663
 20
-1331.4562565117758
 10
894.99060440721632
 20
-1331.4562565117758
 10
895.85075932540497
 20
-1328.8198435110767
 42
-0.00058635606447
 10
895.88749400353106
 20
-1328.7030170910302
 10
895.96358183726886
 20
-1328.4620247913995
 42
-0.0087522378926788
 10
896.16304998072587
 20
-1327.8667487042526
 10
896.25531425614099
 20
-1327.6066085357349
 42
-0.0077400953830428
 10
896.51324791527031
 20
-1326.9136038581919
 10
896.52901288684689
 20
-1326.8731729748117
 42
-0.0082369946330518
 10
896.77609735746114
 20
-1326.2690939086101
 42
-0.0085725238362489
 10
897.04334345346786
 20
-1325.6736678693146
 10
897.14497305447071
 20
-1325.4572467673395
 42
-0.0168109410597172
 10
897.43191748320146
 20
-1324.8960392412334
 10
897.55776087369225
 20
-1324.6690752081788
 42
-0.0007817726868056
 10
897.61204522371713
 20
-1324.5715309632051
 10
897.6121735297196
 20
-1324.5713012544952
 42
-0.0036626142161405
 10
897.6670613937556
 20
-1324.4747033745002
 42
-0.0080221150696845
 10
897.72418564915722
 20
-1324.3794241397557
 10
897.75488560052349
 20
-1324.330033190625
 42
-0.0202139325569975
 10
897.88254134033389
 20
-1324.1420515899385
 10
897.93660880551784
 20
-1324.0689727257027
 42
-0.0249323791802378
 10
898.19577159923324
 20
-1323.7529274835524
 10
898.219911413364
 20
-1323.7263132106357
 42
-0.0242132121537746
 10
898.5595921549118
 20
-1323.3864297244265
 10
898.60750372765222
 20
-1323.3429205882496
 42
-0.0251017527863961
 10
898.8914854282973
 20
-1323.1099278424811
 10
898.89293090510876
 20
-1323.1088585849038
 42
-0.0130868069033684
 10
899.19119155506837
 20
-1322.9000781163595
 10
899.19275337420959
 20
-1322.8990446760854
 42
-0.029032952639383
 10
899.50386451560439
 20
-1322.718219174455
 10
899.53371007759426
 20
-1322.7031167916136
 42
-0.0160250190047949
 10
899.79961449135521
 20
-1322.5791006814025
 42
-0.0267600374781006
 10
900.07489056882639
 20
-1322.4783523608533
 10
900.10162648834478
 20
-1322.4701598020283
 42
-0.0049981587650879
 10
900.15679963363175
 20
-1322.4538546017156
 42
-0.0049981587650879
  0
LWPOLYLINE
  5
57
100
AcDbEntity
  8
0
370
              15
390
0
  6
Continuous
 62
               7
100
AcDbPolyline
 90
      118
 70
             128
 10
919.97116719807866
 20
-1331.5302398396029
 10
921.84628912257813
 20
-1331.5302398396029
 10
921.00825021697824
 20
-1334.2118063660027
 42
-0.0010587229241178
 10
921.039706032548
 20
-1334.1749018326502
 10
921.09790012318217
 20
-1334.1069195764719
 42
-0.0071874740413046
 10
921.24827534127098
 20
-1333.936278884453
 10
921.38999811454244
 20
-1333.7800427431296
 42
-0.0148118053513141
 10
921.84012740725871
 20
-1333.312428897113
 10
921.92734974215819
 20
-1333.2270315762619
 42
-0.0086273358692324
 10
922.26289854316542
 20
-1332.9096559422467
 10
922.30673225939165
 20
-1332.8696062979134
 42
-0.0103138323115429
 10
922.56475596162477
 20
-1332.6434431605753
 10
922.61053036796045
 20
-1332.6049611133078
 42
-0.0060206748564274
 10
922.78337843206407
 20
-1332.4631664625608
 10
922.78540956294921
 20
-1332.4615407569302
 42
-0.0067069027288388
 10
922.95770237761258
 20
-1332.3273901231346
 10
922.96025114354586
 20
-1332.3254599532538
 42
-0.0076184352049488
 10
923.13115640940987
 20
-1332.2000850780155
 42
-0.0089652861668954
 10
923.30611737213997
 20
-1332.0804518176858
 10
923.34246909228648
 20
-1332.0565406042017
 42
-0.0156916245939346
 10
923.5384285894495
 20
-1331.9362781177254
 42
-0.002329901107008
 10
923.73869063339816
 20
-1331.8231001782019
 10
923.75407476580915
 20
-1331.8145001831199
 42
-0.010766934147845
 10
923.9883115909139
 20
-1331.6901000497687
 10
924.0105763919853
 20
-1331.6788832998204
 42
-0.0078058045899749
 10
924.29416650994472
 20
-1331.5415218441788
 10
924.30407359764718
 20
-1331.5369127163135
 42
-0.0181829330469362
 10
924.6143830022595
 20
-1331.4060489752194
 10
924.66843844483174
 20
-1331.3855338552737
 42
-0.0208411536025736
 10
925.01752341227984
 20
-1331.2694433927813
 10
925.03187951240784
 20
-1331.2653249478276
 42
-0.022279981713889
 10
925.3605993063245
 20
-1331.1866833816875
 10
925.36948826956541
 20
-1331.1849713711017
 42
-0.0215509523877046
 10
925.68595923784142
 20
-1331.1380556825682
 10
925.72844119889146
 20
-1331.1336181557772
 42
-0.0182545924873453
 10
925.96254997819551
 20
-1331.1177743303863
 10
926.00195099454572
 20
-1331.1165497853069
 42
-0.0072962856529092
 10
926.15787387423256
 20
-1331.1139804567849
 10
926.18697354479764
 20
-1331.1139256213812
 42
-0.0059227516312301
 10
926.2847230439495
 20
-1331.1148993331715
 10
926.31396526148501
 20
-1331.115537099776
 42
-0.0011833111943547
 10
926.35321654515383
 20
-1331.1164861040852
 10
925.55782994954666
 20
-1333.6552200491842
 42
0.0143932051622683
 10
925.53142856719535
 20
-1333.6450210791386
 10
925.52415659477879
 20
-1333.6424498602814
 42
0.0234388603487501
 10
925.48232572884456
 20
-1333.6298306245656
 10
925.47364406593397
 20
-1333.627649662561
 42
0.0199162742993094
 10
925.41335523185478
 20
-1333.6150329272257
 10
925.39254129404776
 20
-1333.6115357277972
 42
0.0293643550681769
 10
925.2894664352873
 20
-1333.6003856821442
 10
925.26478125456833
 20
-1333.5991740651257
 42
0.0214606686855263
 10
925.11164033861553
 20
-1333.5982355047083
 10
925.10226842779787
 20
-1333.5985804162526
 42
0.0167564054188611
 10
924.93074823669042
 20
-1333.6106574586206
 10
924.92228844393048
 20
-1333.6115387990478
 42
0.0137677553235924
 10
924.73493513066603
 20
-1333.6362881075911
 10
924.72758339115785
 20
-1333.6374660275592
 42
0.0118497261494734
 10
924.52708562705209
 20
-1333.6744833777491
 10
924.52093561980928
 20
-1333.6757702404684
 42
0.010642114387476
 10
924.31005473252446
 20
-1333.7246026160431
 10
924.30514592413522
 20
-1333.7258499587283
 42
0.0099746379708861
 10
924.08668745497539
 20
-1333.7860244870421
 10
924.02513941480242
 20
-1333.8043063656737
 42
0.0191613675857488
 10
923.68915495228566
 20
-1333.9182837459614
 10
923.60109517953936
 20
-1333.9519706562858
 42
0.0205274080147246
 10
923.21578840764073
 20
-1334.1177990641113
 10
923.15813912566023
 20
-1334.145467028683
 42
0.0181256912192269
 10
922.89986218499178
 20
-1334.2811508476614
 10
922.8469068016725
 20
-1334.3114684608793
 42
0.0140709242421627
 10
922.7019518670495
 20
-1334.3999631343104
 10
922.67570299843123
 20
-1334.4170199530256
 42
0.0086667884412557
 10
922.58677683688848
 20
-1334.4770226209089
 42
0.003640819201061
 10
922.49934359886356
 20
-1334.5392034786953
 10
922.46411672438649
 20
-1334.564644424614
 42
0.0052260781284684
 10
922.30788802698169
 20
-1334.6799768112585
 10
922.29168117073573
 20
-1334.6922049218663
 42
0.0050024435887732
 10
922.10567782768851
 20
-1334.8354874901195
 10
922.09035967116176
 20
-1334.8475335125743
 42
0.0136138710288885
 10
921.87991840283269
 20
-1335.022500017491
 10
921.84625052704291
 20
-1335.0520789902018
 42
0.0172815186914376
 10
921.58184698538139
 20
-1335.3010756628241
 10
921.57928463953772
 20
-1335.3036614799723
 42
0.0189403857994063
 10
921.32870284095759
 20
-1335.5764667447779
 10
921.29607134742253
 20
-1335.6148106762739
 42
0.0185044199506342
 10
921.10411490844263
 20
-1335.8580592573967
 42
0.0088565243898951
 10
920.9256548018152
 20
-1336.1115756775455
 10
920.91647682216569
 20
-1336.1251170573069
 42
0.0157195347234652
 10
920.73325621582853
 20
-1336.4146392666275
 10
920.68717327389959
 20
-1336.4927914636451
 42
0.009545187978228
 10
920.52208772376309
 20
-1336.7853861059998
 10
920.51093980483915
 20
-1336.8060567781213
 42
0.0100351706251944
 10
920.3788960556742
 20
-1337.0631123386227
 42
0.0086935915418291
 10
920.25656490388019
 20
-1337.3249454840268
 10
920.25324416246565
 20
-1337.3323878069989
 42
0.0072580174866602
 10
920.13289771052291
 20
-1337.6129797985766
 10
920.1296360772144
 20
-1337.6208998245997
 42
0.006000512261394
 10
920.0104354088727
 20
-1337.9205094952024
 10
920.00722443053007
 20
-1337.9288710231097
 42
0.0049017786984264
 10
919.88832427166869
 20
-1338.2478000037249
 10
919.88515846528219
 20
-1338.2565529409446
 42
0.003941516760848
 10
919.76572218722015
 20
-1338.5950950033737
 10
919.76259108457339
 20
-1338.6041982042339
 42
0.0031035838769905
 10
919.64178629888124
 20
-1338.9626380660045
 10
919.63867625434989
 20
-1338.9720586873821
 42
0.00250707471534
 10
919.51577490304044
 20
-1339.3507059043077
 10
919.47848100660917
 20
-1339.4675975695791
 42
0.0029081910284024
 10
919.28646270879415
 20
-1340.081761227884
 10
919.24565954028128
 20
-1340.2149844701466
 42
0.0009266453730843
 10
918.97724216599499
 20
-1341.097208929976
 10
918.95635469338356
 20
-1341.1663208091154
 42
-0.0005809993667144
 10
918.67901801273479
 20
-1342.0801289159449
 10
918.61273621446253
 20
-1342.2976138481019
 42
-0.0012018708168205
 10
918.46575190503268
 20
-1342.7757765126253
 10
918.41343205347721
 20
-1342.9445356534577
 42
-0.0002691059607424
 10
918.36986257229853
 20
-1343.0848032738331
 10
915.53690667400929
 20
-1352.1739578761326
 10
913.71891778203076
 20
-1352.1739578761326
 10
919.97116719807866
 20
-1331.5302398396029
  0
SPLINE
  5
58
100
AcDbEntity
  8
0
370
              15
390
0
  6
Continuous
 62
               7
100
AcDbSpline
210
0.0
220
0.0
230
1.0
 70
              13
 71
               2
 72
             782
 73
             779
 74
               0
 42
0.000001
 43
0.000001
 40
0.0
 40
0.0
 40
0.0
 40
1.0
 40
1.0
 40
2.0
 40
2.0
 40
3.0
 40
3.0
 40
4.0
 40
4.0
 40
5.0
 40
5.0
 40
6.0
 40
6.0
 40
7.0
 40
7.0
 40
8.0
 40
8.0
 40
9.0
 40
9.0
 40
10.0
 40
10.0
 40
11.0
 40
11.0
 40
12.0
 40
12.0
 40
13.0
 40
13.0
 40
14.0
 40
14.0
 40
15.0
 40
15.0
 40
16.0
 40
16.0
 40
17.0
 40
17.0
 40
18.0
 40
18.0
 40
19.0
 40
19.0
 40
20.0
 40
20.0
 40
21.0
 40
21.0
 40
22.0
 40
22.0
 40
23.0
 40
23.0
 40
24.0
 40
24.0
 40
25.0
 40
25.0
 40
26.0
 40
26.0
 40
27.0
 40
27.0
 40
28.0
 40
28.0
 40
29.0
 40
29.0
 40
30.0
 40
30.0
 40
31.0
 40
31.0
 40
32.0
 40
32.0
 40
33.0
 40
33.0
 40
34.0
 40
34.0
 40
35.0
 40
35.0
 40
36.0
 40
36.0
 40
37.0
 40
37.0
 40
38.0
 40
38.0
 40
39.0
 40
39.0
 40
40.0
 40
40.0
 40
41.0
 40
41.0
 40
42.0
 40
42.0
 40
43.0
 40
43.0
 40
44.0
 40
44.0
 40
45.0
 40
45.0
 40
46.0
 40
46.0
 40
47.0
 40
47.0
 40
48.0
 40
48.0
 40
49.0
 40
49.0
 40
50.0
 40
50.0
 40
51.0
 40
51.0
 40
52.0
 40
52.0
 40
53.0
 40
53.0
 40
54.0
 40
54.0
 40
55.0
 40
55.0
 40
56.0
 40
56.0
 40
57.0
 40
57.0
 40
58.0
 40
58.0
 40
59.0
 40
59.0
 40
60.0
 40
60.0
 40
61.0
 40
61.0
 40
62.0
 40
62.0
 40
63.0
 40
63.0
 40
64.0
 40
64.0
 40
65.0
 40
65.0
 40
66.0
 40
66.0
 40
67.0
 40
67.0
 40
68.0
 40
68.0
 40
69.0
 40
69.0
 40
70.0
 40
70.0
 40
71.0
 40
71.0
 40
72.0
 40
72.0
 40
73.0
 40
73.0
 40
74.0
 40
74.0
 40
75.0
 40
75.0
 40
76.0
 40
76.0
 40
77.0
 40
77.0
 40
78.0
 40
78.0
 40
79.0
 40
79.0
 40
80.0
 40
80.0
 40
81.0
 40
81.0
 40
82.0
 40
82.0
 40
83.0
 40
83.0
 40
84.0
 40
84.0
 40
85.0
 40
85.0
 40
86.0
 40
86.0
 40
87.0
 40
87.0
 40
88.0
 40
88.0
 40
89.0
 40
89.0
 40
90.0
 40
90.0
 40
91.0
 40
91.0
 40
92.0
 40
92.0
 40
93.0
 40
93.0
 40
94.0
 40
94.0
 40
95.0
 40
95.0
 40
96.0
 40
96.0
 40
97.0
 40
97.0
 40
98.0
 40
98.0
 40
99.0
 40
99.0
 40
100.0
 40
100.0
 40
101.0
 40
101.0
 40
102.0
 40
102.0
 40
103.0
 40
103.0
 40
104.0
 40
104.0
 40
105.0
 40
105.0
 40
106.0
 40
106.0
 40
107.0
 40
107.0
 40
108.0
 40
108.0
 40
109.0
 40
109.0
 40
110.0
 40
110.0
 40
111.0
 40
111.0
 40
112.0
 40
112.0
 40
113.0
 40
113.0
 40
114.0
 40
114.0
 40
115.0
 40
115.0
 40
116.0
 40
116.0
 40
117.0
 40
117.0
 40
118.0
 40
118.0
 40
119.0
 40
119.0
 40
120.0
 40
120.0
 40
121.0
 40
121.0
 40
122.0
 40
122.0
 40
123.0
 40
123.0
 40
124.0
 40
124.0
 40
125.0
 40
125.0
 40
126.0
 40
126.0
 40
127.0
 40
127.0
 40
128.0
 40
128.0
 40
129.0
 40
129.0
 40
130.0
 40
130.0
 40
131.0
 40
131.0
 40
132.0
 40
132.0
 40
133.0
 40
133.0
 40
134.0
 40
134.0
 40
135.0
 40
135.0
 40
136.0
 40
136.0
 40
137.0
 40
137.0
 40
138.0
 40
138.0
 40
139.0
 40
139.0
 40
140.0
 40
140.0
 40
141.0
 40
141.0
 40
142.0
 40
142.0
 40
143.0
 40
143.0
 40
144.0
 40
144.0
 40
145.0
 40
145.0
 40
146.0
 40
146.0
 40
147.0
 40
147.0
 40
148.0
 40
148.0
 40
149.0
 40
149.0
 40
150.0
 40
150.0
 40
151.0
 40
151.0
 40
152.0
 40
152.0
 40
153.0
 40
153.0
 40
154.0
 40
154.0
 40
155.0
 40
155.0
 40
156.0
 40
156.0
 40
157.0
 40
157.0
 40
158.0
 40
158.0
 40
159.0
 40
159.0
 40
160.0
 40
160.0
 40
161.0
 40
161.0
 40
162.0
 40
162.0
 40
163.0
 40
163.0
 40
164.0
 40
164.0
 40
165.0
 40
165.0
 40
166.0
 40
166.0
 40
167.0
 40
167.0
 40
168.0
 40
168.0
 40
169.0
 40
169.0
 40
170.0
 40
170.0
 40
171.0
 40
171.0
 40
172.0
 40
172.0
 40
173.0
 40
173.0
 40
174.0
 40
174.0
 40
175.0
 40
175.0
 40
176.0
 40
176.0
 40
177.0
 40
177.0
 40
178.0
 40
178.0
 40
179.0
 40
179.0
 40
180.0
 40
180.0
 40
181.0
 40
181.0
 40
182.0
 40
182.0
 40
183.0
 40
183.0
 40
184.0
 40
184.0
 40
185.0
 40
185.0
 40
186.0
 40
186.0
 40
187.0
 40
187.0
 40
188.0
 40
188.0
 40
189.0
 40
189.0
 40
190.0
 40
190.0
 40
191.0
 40
191.0
 40
192.0
 40
192.0
 40
193.0
 40
193.0
 40
194.0
 40
194.0
 40
195.0
 40
195.0
 40
196.0
 40
196.0
 40
197.0
 40
197.0
 40
198.0
 40
198.0
 40
199.0
 40
199.0
 40
200.0
 40
200.0
 40
201.0
 40
201.0
 40
202.0
 40
202.0
 40
203.0
 40
203.0
 40
204.0
 40
204.0
 40
205.0
 40
205.0
 40
206.0
 40
206.0
 40
207.0
 40
207.0
 40
208.0
 40
208.0
 40
209.0
 40
209.0
 40
210.0
 40
210.0
 40
211.0
 40
211.0
 40
212.0
 40
212.0
 40
213.0
 40
213.0
 40
214.0
 40
214.0
 40
215.0
 40
215.0
 40
216.0
 40
216.0
 40
217.0
 40
217.0
 40
218.0
 40
218.0
 40
219.0
 40
219.0
 40
220.0
 40
220.0
 40
221.0
 40
221.0
 40
222.0
 40
222.0
 40
223.0
 40
223.0
 40
224.0
 40
224.0
 40
225.0
 40
225.0
 40
226.0
 40
226.0
 40
227.0
 40
227.0
 40
228.0
 40
228.0
 40
229.0
 40
229.0
 40
230.0
 40
230.0
 40
231.0
 40
231.0
 40
232.0
 40
232.0
 40
233.0
 40
233.0
 40
234.0
 40
234.0
 40
235.0
 40
235.0
 40
236.0
 40
236.0
 40
237.0
 40
237.0
 40
238.0
 40
238.0
 40
239.0
 40
239.0
 40
240.0
 40
240.0
 40
241.0
 40
241.0
 40
242.0
 40
242.0
 40
243.0
 40
243.0
 40
244.0
 40
244.0
 40
245.0
 40
245.0
 40
246.0
 40
246.0
 40
247.0
 40
247.0
 40
248.0
 40
248.0
 40
249.0
 40
249.0
 40
250.0
 40
250.0
 40
251.0
 40
251.0
 40
252.0
 40
252.0
 40
253.0
 40
253.0
 40
254.0
 40
254.0
 40
255.0
 40
255.0
 40
256.0
 40
256.0
 40
257.0
 40
257.0
 40
258.0
 40
258.0
 40
259.0
 40
259.0
 40
260.0
 40
260.0
 40
261.0
 40
261.0
 40
262.0
 40
262.0
 40
263.0
 40
263.0
 40
264.0
 40
264.0
 40
265.0
 40
265.0
 40
266.0
 40
266.0
 40
267.0
 40
267.0
 40
268.0
 40
268.0
 40
269.0
 40
269.0
 40
270.0
 40
270.0
 40
271.0
 40
271.0
 40
272.0
 40
272.0
 40
273.0
 40
273.0
 40
274.0
 40
274.0
 40
275.0
 40
275.0
 40
276.0
 40
276.0
 40
277.0
 40
277.0
 40
278.0
 40
278.0
 40
279.0
 40
279.0
 40
280.0
 40
280.0
 40
281.0
 40
281.0
 40
282.0
 40
282.0
 40
283.0
 40
283.0
 40
284.0
 40
284.0
 40
285.0
 40
285.0
 40
286.0
 40
286.0
 40
287.0
 40
287.0
 40
288.0
 40
288.0
 40
289.0
 40
289.0
 40
290.0
 40
290.0
 40
291.0
 40
291.0
 40
292.0
 40
292.0
 40
293.0
 40
293.0
 40
294.0
 40
294.0
 40
295.0
 40
295.0
 40
296.0
 40
296.0
 40
297.0
 40
297.0
 40
298.0
 40
298.0
 40
299.0
 40
299.0
 40
300.0
 40
300.0
 40
301.0
 40
301.0
 40
302.0
 40
302.0
 40
303.0
 40
303.0
 40
304.0
 40
304.0
 40
305.0
 40
305.0
 40
306.0
 40
306.0
 40
307.0
 40
307.0
 40
308.0
 40
308.0
 40
309.0
 40
309.0
 40
310.0
 40
310.0
 40
311.0
 40
311.0
 40
312.0
 40
312.0
 40
313.0
 40
313.0
 40
314.0
 40
314.0
 40
315.0
 40
315.0
 40
316.0
 40
316.0
 40
317.0
 40
317.0
 40
318.0
 40
318.0
 40
319.0
 40
319.0
 40
320.0
 40
320.0
 40
321.0
 40
321.0
 40
322.0
 40
322.0
 40
323.0
 40
323.0
 40
324.0
 40
324.0
 40
325.0
 40
325.0
 40
326.0
 40
326.0
 40
327.0
 40
327.0
 40
328.0
 40
328.0
 40
329.0
 40
329.0
 40
330.0
 40
330.0
 40
331.0
 40
331.0
 40
332.0
 40
332.0
 40
333.0
 40
333.0
 40
334.0
 40
334.0
 40
335.0
 40
335.0
 40
336.0
 40
336.0
 40
337.0
 40
337.0
 40
338.0
 40
338.0
 40
339.0
 40
339.0
 40
340.0
 40
340.0
 40
341.0
 40
341.0
 40
342.0
 40
342.0
 40
343.0
 40
343.0
 40
344.0
 40
344.0
 40
345.0
 40
345.0
 40
346.0
 40
346.0
 40
347.0
 40
347.0
 40
348.0
 40
348.0
 40
349.0
 40
349.0
 40
350.0
 40
350.0
 40
351.0
 40
351.0
 40
352.0
 40
352.0
 40
353.0
 40
353.0
 40
354.0
 40
354.0
 40
355.0
 40
355.0
 40
356.0
 40
356.0
 40
357.0
 40
357.0
 40
358.0
 40
358.0
 40
359.0
 40
359.0
 40
360.0
 40
360.0
 40
361.0
 40
361.0
 40
362.0
 40
362.0
 40
363.0
 40
363.0
 40
364.0
 40
364.0
 40
365.0
 40
365.0
 40
366.0
 40
366.0
 40
367.0
 40
367.0
 40
368.0
 40
368.0
 40
369.0
 40
369.0
 40
370.0
 40
370.0
 40
371.0
 40
371.0
 40
372.0
 40
372.0
 40
373.0
 40
373.0
 40
374.0
 40
374.0
 40
375.0
 40
375.0
 40
376.0
 40
376.0
 40
377.0
 40
377.0
 40
378.0
 40
378.0
 40
379.0
 40
379.0
 40
380.0
 40
380.0
 40
381.0
 40
381.0
 40
382.0
 40
382.0
 40
383.0
 40
383.0
 40
384.0
 40
384.0
 40
385.0
 40
385.0
 40
386.0
 40
386.0
 40
387.0
 40
387.0
 40
388.0
 40
388.0
 40
389.0
 40
389.0
 40
389.0
 10
930.29987164881129
 20
-1331.5193134762403
 30
0.0
 41
1.0
 10
931.11829575753177
 20
-1331.5193134762403
 30
0.0
 41
1.0
 10
931.93671986625225
 20
-1331.5193134762403
 30
0.0
 41
1.0
 10
931.52296613073554
 20
-1332.86193974049
 30
0.0
 41
1.0
 10
931.10921239521872
 20
-1334.2045660047397
 30
0.0
 41
1.0
 10
931.12755189037102
 20
-1334.1758652318526
 30
0.0
 41
0.9999957264380115
 10
931.14605888718779
 20
-1334.1472721817238
 30
0.0
 41
1.0
 10
931.17648821133992
 20
-1334.1002593033249
 30
0.0
 41
1.0
 10
931.20691753549204
 20
-1334.0532464249261
 30
0.0
 41
1.0
 10
931.28628318059964
 20
-1333.9306276180207
 30
0.0
 41
0.9995394069080855
 10
931.37294157215149
 20
-1333.8130495562791
 30
0.0
 41
1.0
 10
931.40869843441249
 20
-1333.7645346636839
 30
0.0
 41
1.0
 10
931.44445529667348
 20
-1333.7160197710887
 30
0.0
 41
1.0
 10
931.57818196448875
 20
-1333.5345794959662
 30
0.0
 41
0.9994460617143479
 10
931.72368244577569
 20
-1333.3624370983177
 30
0.0
 41
1.0
 10
931.7280706267502
 20
-1333.3572454179357
 30
0.0
 41
1.0
 10
931.73245880772458
 20
-1333.3520537375539
 30
0.0
 41
1.0
 10
931.86918292706412
 20
-1333.1902947006677
 30
0.0
 41
0.9994359394934401
 10
932.01645715741506
 20
-1333.0380784995036
 30
0.0
 41
1.0
 10
932.01884051136688
 20
-1333.0356151691321
 30
0.0
 41
1.0
 10
932.02122386531869
 20
-1333.0331518387604
 30
0.0
 41
1.0
 10
932.16373138776441
 20
-1332.885862298341
 30
0.0
 41
0.999529368856773
 10
932.31500306874864
 20
-1332.7475890861747
 30
0.0
 41
1.0
 10
932.33429682801261
 20
-1332.7299532005229
 30
0.0
 41
1.0
 10
932.35359058727659
 20
-1332.7123173148711
 30
0.0
 41
1.0
 10
932.46627474973218
 20
-1332.6093158740093
 30
0.0
 41
0.999708761480295
 10
932.58379763868584
 20
-1332.5118715932126
 30
0.0
 41
1.0
 10
932.60296371186837
 20
-1332.4959800146989
 30
0.0
 41
1.0
 10
932.62212978505079
 20
-1332.4800884361853
 30
0.0
 41
1.0
 10
932.70132052765098
 20
-1332.4144273124066
 30
0.0
 41
0.9999595338700135
 10
932.78167979849604
 20
-1332.3502015817598
 30
0.0
 41
1.0
 10
932.86203906936078
 20
-1332.2859758510976
 30
0.0
 41
0.9999749417497325
 10
932.94329960370794
 20
-1332.2228942971483
 30
0.0
 41
1.0
 10
932.96428574987453
 20
-1332.2066030098435
 30
0.0
 41
1.0
 10
932.98527189604101
 20
-1332.1903117225386
 30
0.0
 41
1.0
 10
933.06983978133303
 20
-1332.1246627127055
 30
0.0
 41
0.9999792037124936
 10
933.15524738109707
 20
-1332.0601099310659
 30
0.0
 41
1.0
 10
933.17607220694708
 20
-1332.0443701088548
 30
0.0
 41
1.0
 10
933.19689703279698
 20
-1332.0286302866434
 30
0.0
 41
1.0
 10
933.24065498078096
 20
-1331.9955571494866
 30
0.0
 41
0.9999993374092212
 10
933.28433666700971
 20
-1331.9623833539981
 30
0.0
 41
1.0
 10
933.32801835315377
 20
-1331.9292095585736
 30
0.0
 41
0.9999160953816474
 10
933.37254476407429
 20
-1331.8971784933744
 30
0.0
 41
1.0
 10
933.40536665149284
 20
-1331.8735673377903
 30
0.0
 41
1.0
 10
933.4381885389115
 20
-1331.8499561822061
 30
0.0
 41
1.0
 10
933.54835872466901
 20
-1331.7707028058389
 30
0.0
 41
0.9980964527231609
 10
933.66744771816752
 20
-1331.7056153329841
 30
0.0
 41
1.0
 10
933.70448032509694
 20
-1331.6853753533901
 30
0.0
 41
1.0
 10
933.74151293202624
 20
-1331.6651353737964
 30
0.0
 41
1.0
 10
933.92083994529992
 20
-1331.5671251230947
 30
0.0
 41
0.998457281057227
 10
934.10992851165884
 20
-1331.4896028617484
 30
0.0
 41
1.0
 10
934.1135747810539
 20
-1331.4881079694107
 30
0.0
 41
1.0
 10
934.11722105044896
 20
-1331.4866130770731
 30
0.0
 41
1.0
 10
934.29901707801707
 20
-1331.4120806004023
 30
0.0
 41
0.998783852803421
 10
934.48726973657699
 20
-1331.3558149602363
 30
0.0
 41
1.0
 10
934.49150768577351
 20
-1331.3545483065468
 30
0.0
 41
1.0
 10
934.49574563497004
 20
-1331.3532816528573
 30
0.0
 41
1.0
 10
934.67552239513407
 20
-1331.299549320071
 30
0.0
 41
0.9990652816207445
 10
934.85926832685209
 20
-1331.2615456405283
 30
0.0
 41
1.0
 10
934.86445672788386
 20
-1331.2604725374217
 30
0.0
 41
1.0
 10
934.86964512891552
 20
-1331.2593994343151
 30
0.0
 41
1.0
 10
935.04301425856818
 20
-1331.223541960986
 30
0.0
 41
0.9992909934269767
 10
935.21859002502629
 20
-1331.2008315285198
 30
0.0
 41
1.0
 10
935.39416579148542
 20
-1331.1781210960535
 30
0.0
 41
0.9994553539449393
 10
935.57085722457964
 20
-1331.1670417918469
 30
0.0
 41
1.0
 10
935.60629163237377
 20
-1331.1648199037991
 30
0.0
 41
1.0
 10
935.64172604016801
 20
-1331.1625980157514
 30
0.0
 41
1.0
 10
935.80795180673783
 20
-1331.1521749533395
 30
0.0
 41
0.9990928098292499
 10
935.97446159864103
 20
-1331.1559345945741
 30
0.0
 41
1.0
 10
936.01302343391262
 20
-1331.1568052861071
 30
0.0
 41
1.0
 10
936.05158526918422
 20
-1331.1576759776401
 30
0.0
 41
1.0
 10
936.14097139054343
 20
-1331.1596942358087
 30
0.0
 41
0.9998382089204567
 10
936.23022707332984
 20
-1331.1649263623369
 30
0.0
 41
1.0
 10
936.23065697954735
 20
-1331.1649515632389
 30
0.0
 41
1.0
 10
936.23108688576485
 20
-1331.1649767641411
 30
0.0
 41
1.0
 10
936.31948275611376
 20
-1331.1701584888649
 30
0.0
 41
0.9997558016758416
 10
936.40756333331683
 20
-1331.1792410042315
 30
0.0
 41
1.0
 10
936.40803947174948
 20
-1331.1792901017143
 30
0.0
 41
1.0
 10
936.40851561018212
 20
-1331.1793391991973
 30
0.0
 41
1.0
 10
936.4956439105207
 20
-1331.1883235195983
 30
0.0
 41
0.9996565144182174
 10
936.58218176385981
 20
-1331.2018608262867
 30
0.0
 41
1.0
 10
936.58264768923925
 20
-1331.2019337120184
 30
0.0
 41
1.0
 10
936.5831136146187
 20
-1331.2020065977501
 30
0.0
 41
1.0
 10
936.66871961720346
 20
-1331.2153981329759
 30
0.0
 41
0.9995321806866752
 10
936.75334669752976
 20
-1331.2339986214051
 30
0.0
 41
1.0
 10
936.75373589210085
 20
-1331.2340841638709
 30
0.0
 41
1.0
 10
936.75412508667205
 20
-1331.2341697063366
 30
0.0
 41
1.0
 10
936.83797377785697
 20
-1331.2525991098344
 30
0.0
 41
0.9993819199220022
 10
936.92032031205395
 20
-1331.2768744930952
 30
0.0
 41
1.0
 10
936.92055874555172
 20
-1331.2769447822045
 30
0.0
 41
1.0
 10
936.92079717904949
 20
-1331.2770150713138
 30
0.0
 41
1.0
 10
937.00266684625024
 20
-1331.3011498763558
 30
0.0
 41
0.9992088568505112
 10
937.0823593652384
 20
-1331.3317151121503
 30
0.0
 41
1.0
 10
937.16204035611747
 20
-1331.3622747128836
 30
0.0
 41
0.9990226101773911
 10
937.23871102602459
 20
-1331.3997521444981
 30
0.0
 41
1.0
 10
937.31537016782215
 20
-1331.4372239410509
 30
0.0
 41
0.9988424273972117
 10
937.38807379503419
 20
-1331.4818887163037
 30
0.0
 41
1.0
 10
937.38834150341393
 20
-1331.4820531803762
 30
0.0
 41
1.0
 10
937.38860921179366
 20
-1331.4822176444486
 30
0.0
 41
1.0
 10
937.46184825576483
 20
-1331.5272113478461
 30
0.0
 41
0.9986928844490697
 10
937.53011112247441
 20
-1331.5794470821256
 30
0.0
 41
1.0
 10
937.53069241469711
 20
-1331.5798918953535
 30
0.0
 41
1.0
 10
937.53127370691982
 20
-1331.5803367085814
 30
0.0
 41
1.0
 10
937.60069915807503
 20
-1331.6334620693169
 30
0.0
 41
0.998600726227902
 10
937.66412532784193
 20
-1331.6936228390105
 30
0.0
 41
1.0
 10
937.66501974329913
 20
-1331.6944712068455
 30
0.0
 41
1.0
 10
937.66591415875632
 20
-1331.6953195746805
 30
0.0
 41
1.0
 10
937.73112915943818
 20
-1331.7571770800448
 30
0.0
 41
0.9985581491381195
 10
937.78933677113935
 20
-1331.825669570316
 30
0.0
 41
1.0
 10
937.79859522473498
 20
-1331.8365639280178
 30
0.0
 41
1.0
 10
937.80785367833073
 20
-1331.8474582857193
 30
0.0
 41
1.0
 10
937.8845781972235
 20
-1331.9377394913938
 30
0.0
 41
0.9970460233520153
 10
937.94657009838295
 20
-1332.0387065755756
 30
0.0
 41
1.0
 10
937.96103946346307
 20
-1332.0622730346577
 30
0.0
 41
1.0
 10
937.9755088285433
 20
-1332.08583949374
 30
0.0
 41
1.0
 10
938.01524552855506
 20
-1332.1505592177712
 30
0.0
 41
0.9988468816637008
 10
938.0485918993063
 20
-1332.2187916701982
 30
0.0
 41
1.0
 10
938.05562792179944
 20
-1332.2331885913391
 30
0.0
 41
1.0
 10
938.06266394429247
 20
-1332.2475855124799
 30
0.0
 41
1.0
 10
938.081938270058
 20
-1332.2870241226262
 30
0.0
 41
0.999843118999852
 10
938.09980359755286
 20
-1332.3271206770664
 30
0.0
 41
1.0
 10
938.11766892507671
 20
-1332.3672172315714
 30
0.0
 41
0.9999989990011805
 10
938.13564764850173
 20
-1332.4072630691619
 30
0.0
 41
1.0
 10
938.14181996008006
 20
-1332.4210112859391
 30
0.0
 41
1.0
 10
938.14799227165827
 20
-1332.4347595027161
 30
0.0
 41
1.0
 10
938.17831561826858
 20
-1332.5023017739247
 30
0.0
 41
0.9998790356321278
 10
938.20652349840657
 20
-1332.5707545258624
 30
0.0
 41
1.0
 10
938.21335867969105
 20
-1332.5873416272902
 30
0.0
 41
1.0
 10
938.22019386097566
 20
-1332.6039287287183
 30
0.0
 41
1.0
 10
938.2437515233546
 20
-1332.6610966836006
 30
0.0
 41
0.9998227574561576
 10
938.26514027174494
 20
-1332.7191109918801
 30
0.0
 41
1.0
 10
938.28652902013425
 20
-1332.7771253001576
 30
0.0
 41
0.9996797971041902
 10
938.30495530509347
 20
-1332.8361474192757
 30
0.0
 41
1.0
 10
938.30885910781899
 20
-1332.8486518774446
 30
0.0
 41
1.0
 10
938.31276291054451
 20
-1332.8611563356135
 30
0.0
 41
1.0
 10
938.33899680095487
 20
-1332.9451873710696
 30
0.0
 41
0.9979274938734355
 10
938.35422132443409
 20
-1333.03189172973
 30
0.0
 41
1.0
 10
938.35644501169486
 20
-1333.0445557305493
 30
0.0
 41
1.0
 10
938.35866869895574
 20
-1333.0572197313684
 30
0.0
 41
1.0
 10
938.36959863865468
 20
-1333.1194662386622
 30
0.0
 41
0.9994985982137418
 10
938.37656680383157
 20
-1333.1822797398045
 30
0.0
 41
1.0
 10
938.38353496900834
 20
-1333.2450932409417
 30
0.0
 41
0.9996372611201243
 10
938.38711083477608
 20
-1333.3081908196241
 30
0.0
 41
1.0
 10
938.38727941226557
 20
-1333.3111654367085
 30
0.0
 41
1.0
 10
938.38744798975495
 20
-1333.3141400537929
 30
0.0
 41
1.0
 10
938.39136101050144
 20
-1333.3831868666384
 30
0.0
 41
0.9997730630736228
 10
938.39232932398932
 20
-1333.4523376906716
 30
0.0
 41
1.0
 10
938.39238643040744
 20
-1333.4564158698145
 30
0.0
 41
1.0
 10
938.39244353682557
 20
-1333.4604940489571
 30
0.0
 41
1.0
 10
938.39352606314992
 20
-1333.5378012312724
 30
0.0
 41
0.9998772614070446
 10
938.3921859764182
 20
-1333.6151043778336
 30
0.0
 41
1.0
 10
938.39209671321942
 20
-1333.6202535416714
 30
0.0
 41
1.0
 10
938.39200745002063
 20
-1333.6254027055093
 30
0.0
 41
1.0
 10
938.39048883689168
 20
-1333.7130041797375
 30
0.0
 41
0.9999415567321696
 10
938.3870765266455
 20
-1333.8005523414167
 30
0.0
 41
1.0
 10
938.3868352059701
 20
-1333.8067438011549
 30
0.0
 41
1.0
 10
938.38659388529481
 20
-1333.812935260893
 30
0.0
 41
1.0
 10
938.38269893369886
 20
-1333.912866342034
 30
0.0
 41
0.9999716810429059
 10
938.37730035057996
 20
-1334.0127274802674
 30
0.0
 41
1.0
 10
938.37408755179115
 20
-1334.0721567299254
 30
0.0
 41
1.0
 10
938.37087475300234
 20
-1334.1315859795834
 30
0.0
 41
1.0
 10
938.36280084384907
 20
-1334.2809343808749
 30
0.0
 41
0.999981912991207
 10
938.35293105223286
 20
-1334.430174858579
 30
0.0
 41
1.0
 10
938.34306126061631
 20
-1334.5794153362904
 30
0.0
 41
1.0
 10
938.34062194005242
 20
-1334.6166083821395
 30
0.0
 41
1.0
 10
938.3633201739176
 20
-1334.5778673847526
 30
0.0
 41
0.9999982128058216
 10
938.38616473271577
 20
-1334.5392124907216
 30
0.0
 41
1.0
 10
938.41307429256221
 20
-1334.4936792767317
 30
0.0
 41
1.0
 10
938.43998385240855
 20
-1334.4481460627417
 30
0.0
 41
1.0
 10
938.51664753093155
 20
-1334.3184247406764
 30
0.0
 41
0.9998609190058746
 10
938.59759484379163
 20
-1334.1913323587496
 30
0.0
 41
1.0
 10
938.6272431652767
 20
-1334.1447826257872
 30
0.0
 41
1.0
 10
938.65689148676188
 20
-1334.0982328928246
 30
0.0
 41
1.0
 10
938.7391637069984
 20
-1333.9690603228305
 30
0.0
 41
0.99990676097348
 10
938.82493271646081
 20
-1333.8421826333915
 30
0.0
 41
1.0
 10
938.82733741965831
 20
-1333.8386253673418
 30
0.0
 41
1.0
 10
938.82974212285569
 20
-1333.8350681012921
 30
0.0
 41
1.0
 10
938.91070172592049
 20
-1333.7153049439562
 30
0.0
 41
0.9998784952149136
 10
938.99535533560618
 20
-1333.5981237272415
 30
0.0
 41
1.0
 10
939.08000894528891
 20
-1333.4809425105311
 30
0.0
 41
0.9998532968281754
 10
939.16862656611272
 20
-1333.3667296020592
 30
0.0
 41
1.0
 10
939.18858835510309
 20
-1333.3410022810399
 30
0.0
 41
1.0
 10
939.20855014409358
 20
-1333.3152749600206
 30
0.0
 41
1.0
 10
939.32703419385189
 20
-1333.162569349053
 30
0.0
 41
0.9991551975795396
 10
939.45765864347482
 20
-1333.0201097869701
 30
0.0
 41
1.0
 10
939.46116825945319
 20
-1333.0162821853473
 30
0.0
 41
1.0
 10
939.46467787543156
 20
-1333.0124545837245
 30
0.0
 41
1.0
 10
939.58828309309649
 20
-1332.8776502248884
 30
0.0
 41
0.9997418144181018
 10
939.71788523279884
 20
-1332.7486008142741
 30
0.0
 41
1.0
 10
939.84748737249879
 20
-1332.6195514036622
 30
0.0
 41
0.9989238204633436
 10
939.98848992074886
 20
-1332.503066441624
 30
0.0
 41
1.0
 10
940.03373759889155
 20
-1332.4656864500125
 30
0.0
 41
1.0
 10
940.07898527703435
 20
-1332.4283064584013
 30
0.0
 41
1.0
 10
940.21922533425413
 20
-1332.3124514051119
 30
0.0
 41
0.9990825084096954
 10
940.36886526685498
 20
-1332.2090224072813
 30
0.0
 41
1.0
 10
940.37891063090854
 20
-1332.2020791942041
 30
0.0
 41
1.0
 10
940.38895599496209
 20
-1332.1951359811269
 30
0.0
 41
1.0
 10
940.51850519945401
 20
-1332.1055934094516
 30
0.0
 41
0.9998164899825488
 10
940.65138940283521
 20
-1332.0210791679319
 30
0.0
 41
1.0
 10
940.66323496335917
 20
-1332.0135454014076
 30
0.0
 41
1.0
 10
940.67508052388314
 20
-1332.0060116348832
 30
0.0
 41
1.0
 10
940.78427360621083
 20
-1331.9365649264157
 30
0.0
 41
0.9997473449130689
 10
940.89647756346085
 20
-1331.8720959685998
 30
0.0
 41
1.0
 10
941.00868152070495
 20
-1331.807627010787
 30
0.0
 41
0.999932786114679
 10
941.12235013146881
 20
-1331.7457770191054
 30
0.0
 41
1.0
 10
941.12290213403207
 20
-1331.7454766604249
 30
0.0
 41
1.0
 10
941.12345413659523
 20
-1331.7451763017443
 30
0.0
 41
1.0
 10
941.23822675248164
 20
-1331.6827255927039
 30
0.0
 41
0.9996956420484265
 10
941.35594007832333
 20
-1331.6260121257285
 30
0.0
 41
1.0
 10
941.38638048321343
 20
-1331.6113461489999
 30
0.0
 41
1.0
 10
941.41682088810353
 20
-1331.5966801722711
 30
0.0
 41
1.0
 10
941.51979799484729
 20
-1331.5470665138275
 30
0.0
 41
0.9998070570175864
 10
941.6246443837905
 20
-1331.5015359269255
 30
0.0
 41
1.0
 10
941.72949077273188
 20
-1331.4560053400241
 30
0.0
 41
0.999782743614707
 10
941.83614370934231
 20
-1331.4148841687124
 30
0.0
 41
1.0
 10
941.85536655897317
 20
-1331.4074725950802
 30
0.0
 41
1.0
 10
941.87458940860415
 20
-1331.400061021448
 30
0.0
 41
1.0
 10
942.01968804447586
 20
-1331.3441167028718
 30
0.0
 41
0.9988031841976732
 10
942.16955840707885
 20
-1331.3026166387044
 30
0.0
 41
1.0
 10
942.19447565544442
 20
-1331.295716892897
 30
0.0
 41
1.0
 10
942.2193929038101
 20
-1331.2888171470893
 30
0.0
 41
1.0
 10
942.38666292945641
 20
-1331.2424990046827
 30
0.0
 41
0.9984748040550027
 10
942.55801983810409
 20
-1331.2149047724181
 30
0.0
 41
1.0
 10
942.56275897435319
 20
-1331.2141416119048
 30
0.0
 41
1.0
 10
942.56749811060229
 20
-1331.2133784513912
 30
0.0
 41
1.0
 10
942.72937674675313
 20
-1331.1873105401532
 30
0.0
 41
0.9984436495479933
 10
942.89315149047775
 20
-1331.1794325863345
 30
0.0
 41
1.0
 10
942.91484869860903
 20
-1331.1783888991349
 30
0.0
 41
1.0
 10
942.93654590674032
 20
-1331.1773452119353
 30
0.0
 41
1.0
 10
943.05692623420248
 20
-1331.1715546325158
 30
0.0
 41
0.9987954789335164
 10
943.17729447911233
 20
-1331.1775911602581
 30
0.0
 41
1.0
 10
943.19725927160812
 20
-1331.1785924045967
 30
0.0
 41
1.0
 10
943.21722406410402
 20
-1331.1795936489355
 30
0.0
 41
1.0
 10
943.29766272402367
 20
-1331.1836276880006
 30
0.0
 41
0.9997941595877944
 10
943.37787150211659
 20
-1331.1909217539214
 30
0.0
 41
1.0
 10
943.45808028021474
 20
-1331.198215819843
 30
0.0
 41
0.9998589466237378
 10
943.53799882707324
 20
-1331.2081996742936
 30
0.0
 41
1.0
 10
943.57040502887787
 20
-1331.2122480312123
 30
0.0
 41
1.0
 10
943.60281123068251
 20
-1331.216296388131
 30
0.0
 41
1.0
 10
943.74754218115311
 20
-1331.2343769564193
 30
0.0
 41
0.9993495063249657
 10
943.89059342491794
 20
-1331.2628426661609
 30
0.0
 41
1.0
 10
943.92352712206821
 20
-1331.2693961293753
 30
0.0
 41
1.0
 10
943.95646081921859
 20
-1331.2759495925895
 30
0.0
 41
1.0
 10
944.06575464242633
 20
-1331.2976979267255
 30
0.0
 41
0.9996788715561102
 10
944.17380621438463
 20
-1331.3249557260892
 30
0.0
 41
1.0
 10
944.17586921692509
 20
-1331.3254761526625
 30
0.0
 41
1.0
 10
944.17793221946545
 20
-1331.3259965792358
 30
0.0
 41
1.0
 10
944.28185778634236
 20
-1331.352213525453
 30
0.0
 41
0.9995480654492928
 10
944.38402002157045
 20
-1331.3846284820768
 30
0.0
 41
1.0
 10
944.38570966369957
 20
-1331.3851645869909
 30
0.0
 41
1.0
 10
944.38739930582869
 20
-1331.3857006919047
 30
0.0
 41
1.0
 10
944.48618225680059
 20
-1331.4170434387013
 30
0.0
 41
0.9993867959456221
 10
944.58252941524245
 20
-1331.4552228079908
 30
0.0
 41
1.0
 10
944.58377236432659
 20
-1331.4557153498868
 30
0.0
 41
1.0
 10
944.58501531341074
 20
-1331.4562078917827
 30
0.0
 41
1.0
 10
944.67887657368453
 20
-1331.4934021772804
 30
0.0
 41
0.9992050256521701
 10
944.76947624871832
 20
-1331.5379560765193
 30
0.0
 41
1.0
 10
944.77021093143162
 20
-1331.5383173689806
 30
0.0
 41
1.0
 10
944.77094561414503
 20
-1331.538678661442
 30
0.0
 41
1.0
 10
944.8600759237529
 20
-1331.582509975759
 30
0.0
 41
0.9990222350742198
 10
944.94498598514542
 20
-1331.6340432434565
 30
0.0
 41
1.0
 10
944.94516987042789
 20
-1331.6341548463611
 30
0.0
 41
1.0
 10
944.94535375571047
 20
-1331.6342664492659
 30
0.0
 41
1.0
 10
945.02989604653942
 20
-1331.6855765111552
 30
0.0
 41
0.998864274380613
 10
945.10917058115797
 20
-1331.7447006986799
 30
0.0
 41
1.0
 10
945.18844511577663
 20
-1331.8038248862047
 30
0.0
 41
0.9987681233309949
 10
945.26146890005396
 20
-1331.8705155776065
 30
0.0
 41
1.0
 10
945.26179782801933
 20
-1331.8708159788202
 30
0.0
 41
1.0
 10
945.26212675598481
 20
-1331.8711163800342
 30
0.0
 41
1.0
 10
945.33580839619219
 20
-1331.9384078738631
 30
0.0
 41
0.9987496570898798
 10
945.40240220151941
 20
-1332.0127206879499
 30
0.0
 41
1.0
 10
945.40317437127999
 20
-1332.013582361308
 30
0.0
 41
1.0
 10
945.40394654104057
 20
-1332.014444034666
 30
0.0
 41
1.0
 10
945.47208468588769
 20
-1332.0904801954671
 30
0.0
 41
0.9988147669826568
 10
945.53250694011274
 20
-1332.1727812023096
 30
0.0
 41
1.0
 10
945.53362626619094
 20
-1332.1743058336629
 30
0.0
 41
1.0
 10
945.53474559226913
 20
-1332.1758304650159
 30
0.0
 41
1.0
 10
945.59740649864955
 20
-1332.2611807345634
 30
0.0
 41
0.9989452636216355
 10
945.65197341161104
 20
-1332.3519194237213
 30
0.0
 41
1.0
 10
945.6533221376967
 20
-1332.3541622047474
 30
0.0
 41
1.0
 10
945.65467086378226
 20
-1332.3564049857735
 30
0.0
 41
1.0
 10
945.71193522891497
 20
-1332.4516292369838
 30
0.0
 41
0.999104643607108
 10
945.76094444223668
 20
-1332.5513536700091
 30
0.0
 41
1.0
 10
945.76240830382665
 20
-1332.5543323500815
 30
0.0
 41
1.0
 10
945.76387216541661
 20
-1332.5573110301541
 30
0.0
 41
1.0
 10
945.81580910191872
 20
-1332.6629928233256
 30
0.0
 41
0.999276383110127
 10
945.85956223047424
 20
-1332.7723168852824
 30
0.0
 41
1.0
 10
945.86104150013716
 20
-1332.7760130728152
 30
0.0
 41
1.0
 10
945.86252076980008
 20
-1332.7797092603478
 30
0.0
 41
1.0
 10
945.90923243768202
 20
-1332.8964256973713
 30
0.0
 41
0.9994163472883417
 10
945.94786546887065
 20
-1333.0160592858322
 30
0.0
 41
1.0
 10
945.94910362111762
 20
-1333.0198934296156
 30
0.0
 41
1.0
 10
945.95034177336458
 20
-1333.0237275733991
 30
0.0
 41
1.0
 10
945.99022533438279
 20
-1333.1472336348804
 30
0.0
 41
0.9997268055890305
 10
946.02429339029436
 20
-1333.2724686668296
 30
0.0
 41
1.0
 10
946.02522357056341
 20
-1333.2758880329361
 30
0.0
 41
1.0
 10
946.02615375083235
 20
-1333.2793073990429
 30
0.0
 41
1.0
 10
946.05836144620537
 20
-1333.3977036987758
 30
0.0
 41
0.9996701319000043
 10
946.08444706297678
 20
-1333.5175976520438
 30
0.0
 41
1.0
 10
946.11053267974762
 20
-1333.6374916053092
 30
0.0
 41
0.9995785451109317
 10
946.12961625708715
 20
-1333.7586973663394
 30
0.0
 41
1.0
 10
946.13383603926059
 20
-1333.7854985211025
 30
0.0
 41
1.0
 10
946.13805582143402
 20
-1333.8122996758657
 30
0.0
 41
1.0
 10
946.16463079737298
 20
-1333.9810856495706
 30
0.0
 41
0.9979925101216784
 10
946.16965638329941
 20
-1334.1518769776635
 30
0.0
 41
1.0
 10
946.17048119572405
 20
-1334.179907701141
 30
0.0
 41
1.0
 10
946.17130600814858
 20
-1334.2079384246183
 30
0.0
 41
1.0
 10
946.17468196922584
 20
-1334.3226683057492
 30
0.0
 41
0.999531490226334
 10
946.17103177708725
 20
-1334.4373897895073
 30
0.0
 41
1.0
 10
946.16738158494888
 20
-1334.5521112732586
 30
0.0
 41
0.999624548694436
 10
946.15745248981796
 20
-1334.6664605443827
 30
0.0
 41
1.0
 10
946.15728944182365
 20
-1334.6683383005181
 30
0.0
 41
1.0
 10
946.15712639382946
 20
-1334.6702160566535
 30
0.0
 41
1.0
 10
946.14687120271014
 20
-1334.7883208400476
 30
0.0
 41
0.9997286095000849
 10
946.13112587913827
 20
-1334.9058197489453
 30
0.0
 41
1.0
 10
946.13073238648803
 20
-1334.908756173646
 30
0.0
 41
1.0
 10
946.13033889383792
 20
-1334.9116925983465
 30
0.0
 41
1.0
 10
946.11380658496569
 20
-1335.0350643566464
 30
0.0
 41
0.9998265533969455
 10
946.09269112623269
 20
-1335.1577348314358
 30
0.0
 41
1.0
 10
946.09201458409575
 20
-1335.1616652099419
 30
0.0
 41
1.0
 10
946.09133804195881
 20
-1335.1655955884482
 30
0.0
 41
1.0
 10
946.06886949895102
 20
-1335.2961268202562
 30
0.0
 41
0.9999022530851781
 10
946.04276003434052
 20
-1335.4259787888973
 30
0.0
 41
1.0
 10
946.04178139317582
 20
-1335.4308459312811
 30
0.0
 41
1.0
 10
946.04080275201125
 20
-1335.4357130736648
 30
0.0
 41
1.0
 10
946.01273600507011
 20
-1335.5752993270794
 30
0.0
 41
0.9999524761933322
 10
945.98195303623527
 20
-1335.714311820245
 30
0.0
 41
1.0
 10
945.98067692906011
 20
-1335.7200745795462
 30
0.0
 41
1.0
 10
945.97940082188484
 20
-1335.7258373388474
 30
0.0
 41
1.0
 10
945.9460656387007
 20
-1335.87637535061
 30
0.0
 41
0.9999813588734339
 10
945.91089463790604
 20
-1336.0264950632611
 30
0.0
 41
1.0
 10
945.90934071244817
 20
-1336.033127653689
 30
0.0
 41
1.0
 10
945.9077867869903
 20
-1336.0397602441171
 30
0.0
 41
1.0
 10
945.86950793528536
 20
-1336.2031451376006
 30
0.0
 41
0.9999955237628675
 10
945.83025205729962
 20
-1336.3662980412296
 30
0.0
 41
1.0
 10
945.8179704216659
 20
-1336.4173422317499
 30
0.0
 41
1.0
 10
945.80568878603208
 20
-1336.4683864222704
 30
0.0
 41
1.0
 10
945.74186963675652
 20
-1336.7336277070312
 30
0.0
 41
0.999999360428612
 10
945.67745068958686
 20
-1336.9987239577222
 30
0.0
 41
1.0
 10
945.67273185405384
 20
-1337.0181428657049
 30
0.0
 41
1.0
 10
945.66801301852081
 20
-1337.0375617736877
 30
0.0
 41
1.0
 10
945.5941564002577
 20
-1337.3414958404569
 30
0.0
 41
0.9999659914736995
 10
945.51529680437352
 20
-1337.6441703870119
 30
0.0
 41
1.0
 10
945.51034411544367
 20
-1337.6631795241913
 30
0.0
 41
1.0
 10
945.50539142651382
 20
-1337.6821886613707
 30
0.0
 41
1.0
 10
945.41662645276892
 20
-1338.0228814822883
 30
0.0
 41
0.9999441976026204
 10
945.32068341980801
 20
-1338.3616229075781
 30
0.0
 41
1.0
 10
945.303982901381
 20
-1338.4205866201112
 30
0.0
 41
1.0
 10
945.28728238295389
 20
-1338.4795503326443
 30
0.0
 41
1.0
 10
945.15793831314068
 20
-1338.9362191829941
 30
0.0
 41
0.9999625120730799
 10
945.0207055458186
 20
-1339.3905797169855
 30
0.0
 41
1.0
 10
944.98491560273385
 20
-1339.5090757436183
 30
0.0
 41
1.0
 10
944.9491256596491
 20
-1339.6275717702513
 30
0.0
 41
1.0
 10
944.87460545560907
 20
-1339.8742988483505
 30
0.0
 41
0.9999793386305091
 10
944.79691943247121
 20
-1340.120047487587
 30
0.0
 41
1.0
 10
944.7192334093337
 20
-1340.3657961268232
 30
0.0
 41
1.0
 10
944.708453850463
 20
-1340.3998140311978
 30
0.0
 41
1.0
 10
942.85808079719391
 20
-1346.2868859536652
 30
0.0
 41
1.0
 10
941.0077077439247
 20
-1352.1739578761326
 30
0.0
 41
1.0
 10
940.04645105390114
 20
-1352.1739578761326
 30
0.0
 41
1.0
 10
939.08519436387758
 20
-1352.1739578761326
 30
0.0
 41
1.0
 10
940.70413914255596
 20
-1347.0259293743434
 30
0.0
 41
1.0
 10
942.32308392123446
 20
-1341.8779008725542
 30
0.0
 41
1.0
 10
942.36824974440833
 20
-1341.7338696502857
 30
0.0
 41
1.0
 10
942.41341556758221
 20
-1341.5898384280169
 30
0.0
 41
1.0
 10
942.5837199849459
 20
-1341.046747398851
 30
0.0
 41
0.9999911657917133
 10
942.74945279662597
 20
-1340.502243867488
 30
0.0
 41
1.0
 10
942.77914874012708
 20
-1340.4046799274354
 30
0.0
 41
1.0
 10
942.80884468362819
 20
-1340.3071159873828
 30
0.0
 41
1.0
 10
942.91518560830661
 20
-1339.9577403361232
 30
0.0
 41
0.9999952428160223
 10
943.01936919763125
 20
-1339.6077153117749
 30
0.0
 41
1.0
 10
943.02442866796969
 20
-1339.5907170374799
 30
0.0
 41
1.0
 10
943.02948813830801
 20
-1339.5737187631848
 30
0.0
 41
1.0
 10
943.12355278696805
 20
-1339.2576902873857
 30
0.0
 41
0.9999931687501528
 10
943.21527862482981
 20
-1338.9409750741547
 30
0.0
 41
1.0
 10
943.22021388928954
 20
-1338.9239343648828
 30
0.0
 41
1.0
 10
943.22514915374927
 20
-1338.9068936556112
 30
0.0
 41
1.0
 10
943.30700446270703
 20
-1338.624259860871
 30
0.0
 41
0.9999893840802843
 10
943.3862516891603
 20
-1338.3408837316374
 30
0.0
 41
1.0
 10
943.46549891561517
 20
-1338.0575076023981
 30
0.0
 41
0.9999833980091085
 10
943.54147515635339
 20
-1337.7732370193833
 30
0.0
 41
1.0
 10
943.55047909307996
 20
-1337.7395481408889
 30
0.0
 41
1.0
 10
943.55948302980642
 20
-1337.7058592623946
 30
0.0
 41
1.0
 10
943.62844757867265
 20
-1337.4478234300982
 30
0.0
 41
0.9999233658068563
 10
943.69100254989064
 20
-1337.1881592713844
 30
0.0
 41
1.0
 10
943.75355752111091
 20
-1336.9284951126619
 30
0.0
 41
1.0
 10
943.79304093996848
 20
-1336.764688448236
 30
0.0
 41
1.0
 10
943.79801954394088
 20
-1336.7440334863863
 30
0.0
 41
1.0
 10
943.80299814791317
 20
-1336.7233785245364
 30
0.0
 41
1.0
 10
943.83252435882162
 20
-1336.6008817838281
 30
0.0
 41
0.9999868670876481
 10
943.86079344282223
 20
-1336.4780888381647
 30
0.0
 41
1.0
 10
943.86469092998141
 20
-1336.4611592507413
 30
0.0
 41
1.0
 10
943.86858841714059
 20
-1336.4442296633179
 30
0.0
 41
1.0
 10
943.88906252682102
 20
-1336.3552958925075
 30
0.0
 41
0.9999778173351187
 10
943.9083501249338
 20
-1336.2660972752888
 30
0.0
 41
1.0
 10
943.92763772304568
 20
-1336.1768986580755
 30
0.0
 41
0.9999602692861467
 10
943.94533208167684
 20
-1336.0873703696484
 30
0.0
 41
1.0
 10
943.94853591375613
 20
-1336.0711599147544
 30
0.0
 41
1.0
 10
943.95173974583531
 20
-1336.0549494598604
 30
0.0
 41
1.0
 10
943.97584176862131
 20
-1335.9330002616621
 30
0.0
 41
0.9995617985320676
 10
943.99268511583944
 20
-1335.8098385139604
 30
0.0
 41
1.0
 10
943.99514960574584
 20
-1335.7918176965939
 30
0.0
 41
1.0
 10
943.99761409565224
 20
-1335.7737968792273
 30
0.0
 41
1.0
 10
944.01789735670093
 20
-1335.6254818295245
 30
0.0
 41
0.9991121410639366
 10
944.0256227102891
 20
-1335.4759857307179
 30
0.0
 41
1.0
 10
944.02654150031344
 20
-1335.458205894146
 30
0.0
 41
1.0
 10
944.02746029033779
 20
-1335.4404260575741
 30
0.0
 41
1.0
 10
944.03334806387716
 20
-1335.3264896319158
 30
0.0
 41
0.9989792494906268
 10
944.02892897176002
 20
-1335.2124867960133
 30
0.0
 41
1.0
 10
944.02828099989142
 20
-1335.1957705500881
 30
0.0
 41
1.0
 10
944.02763302802293
 20
-1335.1790543041629
 30
0.0
 41
1.0
 10
944.02450987964255
 20
-1335.0984839601142
 30
0.0
 41
0.9997820295393982
 10
944.01802588226701
 20
-1335.018114238371
 30
0.0
 41
1.0
 10
944.01154188489124
 20
-1334.9377445166256
 30
0.0
 41
0.9998335105973163
 10
944.00212968937922
 20
-1334.8576649001739
 30
0.0
 41
1.0
 10
944.00053476470305
 20
-1334.8440951696925
 30
0.0
 41
1.0
 10
943.99893984002688
 20
-1334.830525439211
 30
0.0
 41
1.0
 10
943.98633779516263
 20
-1334.7233063617971
 30
0.0
 41
0.9996876457879571
 10
943.96839388236424
 20
-1334.6168509340791
 30
0.0
 41
1.0
 10
943.96616221921863
 20
-1334.6036111988351
 30
0.0
 41
1.0
 10
943.96393055607291
 20
-1334.5903714635913
 30
0.0
 41
1.0
 10
943.95013473465235
 20
-1334.5085253196346
 30
0.0
 41
0.9995547496493974
 10
943.93148141275992
 20
-1334.4276478224456
 30
0.0
 41
1.0
 10
943.93110745588842
 20
-1334.4260264117393
 30
0.0
 41
1.0
 10
943.93073349901681
 20
-1334.4244050010327
 30
0.0
 41
1.0
 10
943.9128280908667
 20
-1334.346770325252
 30
0.0
 41
0.9994899427175199
 10
943.89000318218791
 20
-1334.2704370424201
 30
0.0
 41
1.0
 10
943.8895446554468
 20
-1334.2689035926305
 30
0.0
 41
1.0
 10
943.88908612870569
 20
-1334.2673701428407
 30
0.0
 41
1.0
 10
943.86717827350844
 20
-1334.1941037595848
 30
0.0
 41
0.9993784877590453
 10
943.84016263840203
 20
-1334.1225630544266
 30
0.0
 41
1.0
 10
943.83963094742512
 20
-1334.121155071706
 30
0.0
 41
1.0
 10
943.83909925644821
 20
-1334.1197470889854
 30
0.0
 41
1.0
 10
943.81314700329528
 20
-1334.051022349267
 30
0.0
 41
0.9992430832254525
 10
943.78193046813612
 20
-1333.9845231971992
 30
0.0
 41
1.0
 10
943.7813483520797
 20
-1333.9832831420822
 30
0.0
 41
1.0
 10
943.78076623602328
 20
-1333.9820430869654
 30
0.0
 41
1.0
 10
943.75071393297708
 20
-1333.9180240451315
 30
0.0
 41
0.9990789632797902
 10
943.71528330620004
 20
-1333.8568174333814
 30
0.0
 41
1.0
 10
943.71468760001767
 20
-1333.8557883475216
 30
0.0
 41
1.0
 10
943.71409189383542
 20
-1333.8547592616619
 30
0.0
 41
1.0
 10
943.6798526794222
 20
-1333.7956108216299
 30
0.0
 41
0.9988874801120301
 10
943.64019340339132
 20
-1333.7399511092137
 30
0.0
 41
1.0
 10
943.63963787732689
 20
-1333.7391714575388
 30
0.0
 41
1.0
 10
943.63908235126246
 20
-1333.7383918058638
 30
0.0
 41
1.0
 10
943.60053412735908
 20
-1333.6842913967957
 30
0.0
 41
0.9986762060692415
 10
943.55663165608303
 20
-1333.6344376823567
 30
0.0
 41
1.0
 10
943.55618769575119
 20
-1333.6339335405405
 30
0.0
 41
1.0
 10
943.55574373541936
 20
-1333.6334293987243
 30
0.0
 41
1.0
 10
943.5127291848072
 20
-1333.5845839679182
 30
0.0
 41
0.9984621642489411
 10
943.46457162802903
 20
-1333.5408006674465
 30
0.0
 41
1.0
 10
943.46432499351238
 20
-1333.5405764352831
 30
0.0
 41
1.0
 10
943.46407835899572
 20
-1333.5403522031195
 30
0.0
 41
1.0
 10
943.41641407125121
 20
-1333.4970173669753
 30
0.0
 41
0.9982724693850277
 10
943.36399543940979
 20
-1333.4595730164579
 30
0.0
 41
1.0
 10
943.31157680756803
 20
-1333.4221286659399
 30
0.0
 41
0.9981399180159398
 10
943.25499074417496
 20
-1333.3913421464965
 30
0.0
 41
1.0
 10
943.25494508209658
 20
-1333.3913173033393
 30
0.0
 41
1.0
 10
943.25489942001809
 20
-1333.3912924601823
 30
0.0
 41
1.0
 10
943.19822203246815
 20
-1333.3604562544244
 30
0.0
 41
0.998092708683597
 10
943.138176681402
 20
-1333.336839445572
 30
0.0
 41
1.0
 10
943.13773651169004
 20
-1333.3366663196969
 30
0.0
 41
1.0
 10
943.13729634197807
 20
-1333.3364931938218
 30
0.0
 41
1.0
 10
943.07637065148731
 20
-1333.3125301332188
 30
0.0
 41
0.9981411356559654
 10
943.01298213008738
 20
-1333.2961574917135
 30
0.0
 41
1.0
 10
943.01210001338677
 20
-1333.2959296495083
 30
0.0
 41
1.0
 10
943.01121789668605
 20
-1333.295701807303
 30
0.0
 41
1.0
 10
942.94606514188285
 20
-1333.2788734813864
 30
0.0
 41
0.9983031812935552
 10
942.87939771288723
 20
-1333.2697341202102
 30
0.0
 41
1.0
 10
942.87052668748538
 20
-1333.2685180015392
 30
0.0
 41
1.0
 10
942.86165566208342
 20
-1333.2673018828682
 30
0.0
 41
1.0
 10
942.80730601957839
 20
-1333.259851152877
 30
0.0
 41
0.9983887708264193
 10
942.75246217028428
 20
-1333.2586064792433
 30
0.0
 41
1.0
 10
942.74439876507051
 20
-1333.2584234813685
 30
0.0
 41
1.0
 10
942.73633535985675
 20
-1333.2582404834936
 30
0.0
 41
1.0
 10
942.69761832099516
 20
-1333.2573618056099
 30
0.0
 41
0.9998869563079209
 10
942.65889236778878
 20
-1333.2576476749696
 30
0.0
 41
1.0
 10
942.62016641454159
 20
-1333.2579335443295
 30
0.0
 41
0.999997232018938
 10
942.58144223528654
 20
-1333.2584016438593
 30
0.0
 41
1.0
 10
942.562089218751
 20
-1333.2586355839483
 30
0.0
 41
1.0
 10
942.54273620221534
 20
-1333.2588695240372
 30
0.0
 41
1.0
 10
942.46530598984748
 20
-1333.2598055037452
 30
0.0
 41
0.9997304945088436
 10
942.38800268361274
 20
-1333.2643345975307
 30
0.0
 41
1.0
 10
942.37895304190556
 20
-1333.2648648035208
 30
0.0
 41
1.0
 10
942.3699034001985
 20
-1333.2653950095109
 30
0.0
 41
1.0
 10
942.27450081055349
 20
-1333.2709845152767
 30
0.0
 41
0.9997888306415056
 10
942.1794084747122
 20
-1333.2804894797655
 30
0.0
 41
1.0
 10
942.17068741313824
 20
-1333.2813611943977
 30
0.0
 41
1.0
 10
942.16196635156427
 20
-1333.28223290903
 30
0.0
 41
1.0
 10
942.0494318925754
 20
-1333.2934813027832
 30
0.0
 41
0.998417023819027
 10
941.93887274522331
 20
-1333.3172973847193
 30
0.0
 41
1.0
 10
941.90249161423731
 20
-1333.3251344205253
 30
0.0
 41
1.0
 10
941.86611048325142
 20
-1333.3329714563313
 30
0.0
 41
1.0
 10
941.75091941483038
 20
-1333.3577853228408
 30
0.0
 41
0.9976592854198687
 10
941.64019124842548
 20
-1333.3980839999881
 30
0.0
 41
1.0
 10
941.52946308202092
 20
-1333.4383826771352
 30
0.0
 41
0.9993255074352395
 10
941.42199128323045
 20
-1333.4866995756274
 30
0.0
 41
1.0
 10
941.41736610430678
 20
-1333.4887789518273
 30
0.0
 41
1.0
 10
941.4127409253831
 20
-1333.4908583280271
 30
0.0
 41
1.0
 10
941.29601876874517
 20
-1333.5433339789192
 30
0.0
 41
0.9976475078274283
 10
941.1875714244353
 20
-1333.6112819685775
 30
0.0
 41
1.0
 10
941.16922903029922
 20
-1333.6227744473929
 30
0.0
 41
1.0
 10
941.15088663616302
 20
-1333.6342669262083
 30
0.0
 41
1.0
 10
941.06668444461206
 20
-1333.6870240469759
 30
0.0
 41
0.9995131336406542
 10
940.98593672965615
 20
-1333.7449302589282
 30
0.0
 41
1.0
 10
940.9051890147008
 20
-1333.80283647088
 30
0.0
 41
0.9995810107606381
 10
940.82792736697183
 20
-1333.8653181533459
 30
0.0
 41
1.0
 10
940.82495733576081
 20
-1333.8677200248112
 30
0.0
 41
1.0
 10
940.82198730454979
 20
-1333.8701218962765
 30
0.0
 41
1.0
 10
940.73878559439891
 20
-1333.9374073216732
 30
0.0
 41
0.9996617837954929
 10
940.65919490726128
 20
-1334.0089277772352
 30
0.0
 41
1.0
 10
940.64706415638443
 20
-1334.0198285102256
 30
0.0
 41
1.0
 10
940.63493340550758
 20
-1334.0307292432162
 30
0.0
 41
1.0
 10
940.56665787811176
 20
-1334.0920818586878
 30
0.0
 41
0.999726775005193
 10
940.5013243698304
 20
-1334.1565583952111
 30
0.0
 41
1.0
 10
940.43599086154472
 20
-1334.2210349317384
 30
0.0
 41
0.9999667288956335
 10
940.37171791838898
 20
-1334.286568738642
 30
0.0
 41
1.0
 10
940.30289047061933
 20
-1334.3567463973948
 30
0.0
 41
1.0
 10
940.2340630228498
 20
-1334.4269240561475
 30
0.0
 41
1.0
 10
940.03213518415248
 20
-1334.632813180559
 30
0.0
 41
0.9988205335174978
 10
939.85112956717217
 20
-1334.8573174126207
 30
0.0
 41
1.0
 10
939.82048960226814
 20
-1334.8953206630499
 30
0.0
 41
1.0
 10
939.78984963736411
 20
-1334.9333239134789
 30
0.0
 41
1.0
 10
939.54756409057563
 20
-1335.2338346463989
 30
0.0
 41
0.9997077826755412
 10
939.32008613947335
 20
-1335.545704440611
 30
0.0
 41
1.0
 10
939.31836272434111
 20
-1335.5480672239928
 30
0.0
 41
1.0
 10
939.31663930920899
 20
-1335.5504300073749
 30
0.0
 41
1.0
 10
939.08571452784133
 20
-1335.8670253683524
 30
0.0
 41
0.998914756707892
 10
938.88525102495748
 20
-1336.203734829538
 30
0.0
 41
1.0
 10
938.86050987965041
 20
-1336.2452914100904
 30
0.0
 41
1.0
 10
938.83576873434345
 20
-1336.2868479906431
 30
0.0
 41
1.0
 10
938.68055743570676
 20
-1336.5475493750946
 30
0.0
 41
0.9997476598182001
 10
938.53721244819849
 20
-1336.8149591236747
 30
0.0
 41
1.0
 10
938.39386746068988
 20
-1337.0823688722553
 30
0.0
 41
0.9996258967110135
 10
938.26535920876051
 20
-1337.3572168088742
 30
0.0
 41
1.0
 10
938.25215929930687
 20
-1337.3854482089785
 30
0.0
 41
1.0
 10
938.23895938985322
 20
-1337.4136796090827
 30
0.0
 41
1.0
 10
938.09875066885456
 20
-1337.7135520070335
 30
0.0
 41
0.9998735413945222
 10
937.96814932213738
 20
-1338.017731606494
 30
0.0
 41
1.0
 10
937.96470649407297
 20
-1338.0257501919677
 30
0.0
 41
1.0
 10
937.96126366600856
 20
-1338.0337687774415
 30
0.0
 41
1.0
 10
937.83754797541349
 20
-1338.3219112059696
 30
0.0
 41
0.9999377418861857
 10
937.72029317324223
 20
-1338.6127426736364
 30
0.0
 41
1.0
 10
937.60303837106585
 20
-1338.9035741413156
 30
0.0
 41
0.9999508299506575
 10
937.49157442768467
 20
-1339.1966738181472
 30
0.0
 41
1.0
 10
937.4884936590247
 20
-1339.2047748441043
 30
0.0
 41
1.0
 10
937.48541289036484
 20
-1339.2128758700615
 30
0.0
 41
1.0
 10
937.3677874096627
 20
-1339.5221775988098
 30
0.0
 41
0.999960922843368
 10
937.2556488067878
 20
-1339.8335106148279
 30
0.0
 41
1.0
 10
937.25269279643851
 20
-1339.8417174552364
 30
0.0
 41
1.0
 10
937.24973678608922
 20
-1339.849924295645
 30
0.0
 41
1.0
 10
937.13168616251278
 20
-1340.1776709924884
 30
0.0
 41
0.9999674607402643
 10
937.01893863644489
 20
-1340.507279612483
 30
0.0
 41
1.0
 10
936.96754024588495
 20
-1340.6575388081674
 30
0.0
 41
1.0
 10
936.91614185532501
 20
-1340.8077980038518
 30
0.0
 41
1.0
 10
936.80013124856725
 20
-1341.1469459863542
 30
0.0
 41
0.9999287532305647
 10
936.69224984459424
 20
-1341.4887667253372
 30
0.0
 41
1.0
 10
936.64577258844679
 20
-1341.6360292697345
 30
0.0
 41
1.0
 10
936.59929533229945
 20
-1341.7832918141316
 30
0.0
 41
1.0
 10
936.58436844058474
 20
-1341.8305874644357
 30
0.0
 41
0.9999998224285235
 10
936.56949793189301
 20
-1341.8779008725542
 30
0.0
 41
1.0
 10
934.94884179509756
 20
-1347.0259293743434
 30
0.0
 41
1.0
 10
933.32818565830212
 20
-1352.1739578761326
 30
0.0
 41
1.0
 10
932.42287721441119
 20
-1352.1739578761326
 30
0.0
 41
1.0
 10
931.51756877052026
 20
-1352.1739578761326
 30
0.0
 41
1.0
 10
933.3696531819063
 20
-1346.2868859536652
 30
0.0
 41
1.0
 10
935.22173759329235
 20
-1340.3998140311978
 30
0.0
 41
1.0
 10
935.23185935159506
 20
-1340.3677708177484
 30
0.0
 41
1.0
 10
935.3044670204448
 20
-1340.1374712759225
 30
0.0
 41
1.0
 10
935.37707468928988
 20
-1339.9071717341112
 30
0.0
 41
0.9999825681963102
 10
935.4469577284973
 20
-1339.6760308390606
 30
0.0
 41
1.0
 10
935.49524879066257
 20
-1339.5163062555494
 30
0.0
 41
1.0
 10
935.54353985282796
 20
-1339.3565816720384
 30
0.0
 41
1.0
 10
935.64069220614408
 20
-1339.0352464502666
 30
0.0
 41
0.9999672528959805
 10
935.7326310117669
 20
-1338.7123809046816
 30
0.0
 41
1.0
 10
935.73541989543696
 20
-1338.7025870592906
 30
0.0
 41
1.0
 10
935.73820877910691
 20
-1338.6927932138999
 30
0.0
 41
1.0
 10
935.82456981739438
 20
-1338.3895153590806
 30
0.0
 41
0.9999899749168832
 10
935.90821142692494
 20
-1338.0854762706429
 30
0.0
 41
1.0
 10
935.91831734594257
 20
-1338.0487410329642
 30
0.0
 41
1.0
 10
935.92842326496009
 20
-1338.0120057952856
 30
0.0
 41
1.0
 10
935.99185303645788
 20
-1337.7814371821967
 30
0.0
 41
0.9999214200503497
 10
936.04948246483741
 20
-1337.5493508399811
 30
0.0
 41
1.0
 10
936.06224831701729
 20
-1337.4979399545878
 30
0.0
 41
1.0
 10
936.07501416919729
 20
-1337.4465290691942
 30
0.0
 41
1.0
 10
936.10711189321387
 20
-1337.3172644977763
 30
0.0
 41
0.9999828681653704
 10
936.1376941452105
 20
-1337.1876330233044
 30
0.0
 41
1.0
 10
936.16827639720543
 20
-1337.0580015488385
 30
0.0
 41
0.9999389844480446
 10
936.1959873859945
 20
-1336.9277260929398
 30
0.0
 41
1.0
 10
936.20312512971509
 20
-1336.8941699891009
 30
0.0
 41
1.0
 10
936.21026287343557
 20
-1336.860613885262
 30
0.0
 41
1.0
 10
936.25224934966468
 20
-1336.6632262216892
 30
0.0
 41
0.9998933699440634
 10
936.28845361406809
 20
-1336.4646966139251
 30
0.0
 41
1.0
 10
936.28982643928407
 20
-1336.4571685932301
 30
0.0
 41
1.0
 10
936.29119926450016
 20
-1336.4496405725351
 30
0.0
 41
1.0
 10
936.33014917933474
 20
-1336.2360549233858
 30
0.0
 41
0.9996850305193779
 10
936.35833285559386
 20
-1336.020783917947
 30
0.0
 41
1.0
 10
936.36032788896296
 20
-1336.0055455638262
 30
0.0
 41
1.0
 10
936.36232292233205
 20
-1335.9903072097056
 30
0.0
 41
1.0
 10
936.38973078479171
 20
-1335.7809619825478
 30
0.0
 41
0.9994697936706802
 10
936.40345534401104
 20
-1335.5702767872176
 30
0.0
 41
1.0
 10
936.40393241326069
 20
-1335.5629533150063
 30
0.0
 41
1.0
 10
936.40440948251046
 20
-1335.5556298427953
 30
0.0
 41
1.0
 10
936.41717990323082
 20
-1335.3595915918854
 30
0.0
 41
0.9991804893136589
 10
936.41405158695784
 20
-1335.1631627419133
 30
0.0
 41
1.0
 10
936.41396770813571
 20
-1335.1578959405006
 30
0.0
 41
1.0
 10
936.41388382931359
 20
-1335.1526291390876
 30
0.0
 41
1.0
 10
936.41092327068509
 20
-1334.9667338919396
 30
0.0
 41
0.9988448329321524
 10
936.39013172506134
 20
-1334.7819813021065
 30
0.0
 41
1.0
 10
936.38853765135821
 20
-1334.7678164463343
 30
0.0
 41
1.0
 10
936.38694357765507
 20
-1334.7536515905622
 30
0.0
 41
1.0
 10
936.36934017943747
 20
-1334.5972287122725
 30
0.0
 41
0.998550320945869
 10
936.33502390713807
 20
-1334.4436045281839
 30
0.0
 41
1.0
 10
936.32743791506732
 20
-1334.4096442007854
 30
0.0
 41
1.0
 10
936.31985192299646
 20
-1334.3756838733871
 30
0.0
 41
1.0
 10
936.30070763483911
 20
-1334.2899803440976
 30
0.0
 41
0.999103678137127
 10
936.2743827731872
 20
-1334.2062032567696
 30
0.0
 41
1.0
 10
936.27040054773101
 20
-1334.1935300942584
 30
0.0
 41
1.0
 10
936.26641832227483
 20
-1334.1808569317473
 30
0.0
 41
1.0
 10
936.24805791153585
 20
-1334.122426169444
 30
0.0
 41
0.9998874504367591
 10
936.22795270385768
 20
-1334.0645725672214
 30
0.0
 41
1.0
 10
936.2078474961794
 20
-1334.0067189649983
 30
0.0
 41
0.9994041637543277
 10
936.18379888324512
 20
-1333.9503902611089
 30
0.0
 41
1.0
 10
936.17960209902117
 20
-1333.9405601966268
 30
0.0
 41
1.0
 10
936.17540531479722
 20
-1333.9307301321451
 30
0.0
 41
1.0
 10
936.14752648380193
 20
-1333.8654299661762
 30
0.0
 41
0.9991846840701917
 10
936.11447012710926
 20
-1333.802591934897
 30
0.0
 41
1.0
 10
936.11333352071381
 20
-1333.8004313184415
 30
0.0
 41
1.0
 10
936.11219691431836
 20
-1333.798270701986
 30
0.0
 41
1.0
 10
936.08141377041636
 20
-1333.7397539036169
 30
0.0
 41
0.9989253167922398
 10
936.04534434636116
 20
-1333.6843389752264
 30
0.0
 41
1.0
 10
936.04429022168711
 20
-1333.6827194804646
 30
0.0
 41
1.0
 10
936.04323609701316
 20
-1333.6810999857025
 30
0.0
 41
1.0
 10
936.00927492230721
 20
-1333.6289240468375
 30
0.0
 41
0.9986467172836678
 10
935.97007776966893
 20
-1333.5805580132067
 30
0.0
 41
1.0
 10
935.96920364096786
 20
-1333.5794794109279
 30
0.0
 41
1.0
 10
935.96832951226679
 20
-1333.5784008086493
 30
0.0
 41
1.0
 10
935.93088061703111
 20
-1333.5321919795765
 30
0.0
 41
0.9984001104266106
 10
935.8884538865143
 20
-1333.4905068722082
 30
0.0
 41
1.0
 10
935.8878667484048
 20
-1333.489929997327
 30
0.0
 41
1.0
 10
935.88727961029542
 20
-1333.4893531224457
 30
0.0
 41
1.0
 10
935.84602715599658
 20
-1333.4488217648391
 30
0.0
 41
0.9982442159082056
 10
935.80027105466161
 20
-1333.4134532035794
 30
0.0
 41
1.0
 10
935.80005625919978
 20
-1333.4132871709362
 30
0.0
 41
1.0
 10
935.79984146373795
 20
-1333.4131211382928
 30
0.0
 41
1.0
 10
935.75451495332584
 20
-1333.3780846423192
 30
0.0
 41
0.9982450060836938
 10
935.70536397425417
 20
-1333.3486528592855
 30
0.0
 41
1.0
 10
935.65621299518307
 20
-1333.3192210762522
 30
0.0
 41
0.9983922639634258
 10
935.60404668901799
 20
-1333.2955414415981
 30
0.0
 41
1.0
 10
935.60381981169326
 20
-1333.2954384561167
 30
0.0
 41
1.0
 10
935.60359293436863
 20
-1333.2953354706351
 30
0.0
 41
1.0
 10
935.55097287355466
 20
-1333.2714498650184
 30
0.0
 41
0.9986517147151848
 10
935.49615990068673
 20
-1333.2531487458964
 30
0.0
 41
1.0
 10
935.49548197925901
 20
-1333.252922399465
 30
0.0
 41
1.0
 10
935.49480405783129
 20
-1333.2526960530336
 30
0.0
 41
1.0
 10
935.43863524210758
 20
-1333.2339422410487
 30
0.0
 41
0.9989435598955134
 10
935.38098185495539
 20
-1333.2204245388141
 30
0.0
 41
1.0
 10
935.37990173537401
 20
-1333.2201712885612
 30
0.0
 41
1.0
 10
935.37882161579273
 20
-1333.2199180383082
 30
0.0
 41
1.0
 10
935.319007989478
 20
-1333.2058938355676
 30
0.0
 41
0.9992249241239745
 10
935.25827648058089
 20
-1333.1966184928526
 30
0.0
 41
1.0
 10
935.25686279228967
 20
-1333.1964025844447
 30
0.0
 41
1.0
 10
935.25544910399856
 20
-1333.1961866760369
 30
0.0
 41
1.0
 10
935.19189021851855
 20
-1333.1864795165061
 30
0.0
 41
0.9994396597833948
 10
935.12782428198057
 20
-1333.1810465941603
 30
0.0
 41
1.0
 10
935.10868361450355
 20
-1333.1794234264416
 30
0.0
 41
1.0
 10
935.08954294702653
 20
-1333.1778002587232
 30
0.0
 41
1.0
 10
934.98719567553519
 20
-1333.1691210009403
 30
0.0
 41
0.9987693403122404
 10
934.88449205194945
 20
-1333.1706240643928
 30
0.0
 41
1.0
 10
934.87423771772205
 20
-1333.170774136167
 30
0.0
 41
1.0
 10
934.86398338349477
 20
-1333.1709242079412
 30
0.0
 41
1.0
 10
934.75442761731483
 20
-1333.1725275522285
 30
0.0
 41
0.9989753644966589
 10
934.64546561729708
 20
-1333.1840305591536
 30
0.0
 41
1.0
 10
934.5365036172791
 20
-1333.1955335660789
 30
0.0
 41
0.9983190067304677
 10
934.42960480631291
 20
-1333.2195685578663
 30
0.0
 41
1.0
 10
934.42070385470754
 20
-1333.2215698364287
 30
0.0
 41
1.0
 10
934.41180290310217
 20
-1333.223571114991
 30
0.0
 41
1.0
 10
934.28710218892525
 20
-1333.251608663903
 30
0.0
 41
0.9985539388304173
 10
934.16613243524898
 20
-1333.2928723399477
 30
0.0
 41
1.0
 10
934.16378700428709
 20
-1333.2936723837643
 30
0.0
 41
1.0
 10
934.16144157332519
 20
-1333.2944724275806
 30
0.0
 41
1.0
 10
934.03578095772548
 20
-1333.3373361912581
 30
0.0
 41
0.9988468746493665
 10
933.91481061542413
 20
-1333.392054276321
 30
0.0
 41
1.0
 10
933.91162779343654
 20
-1333.3934939508804
 30
0.0
 41
1.0
 10
933.90844497144894
 20
-1333.39493362544
 30
0.0
 41
1.0
 10
933.78110898517195
 20
-1333.4525310596218
 30
0.0
 41
0.9991322885919013
 10
933.65900840111522
 20
-1333.5205263918037
 30
0.0
 41
1.0
 10
933.64140639006951
 20
-1333.5303285937946
 30
0.0
 41
1.0
 10
933.6238043790238
 20
-1333.5401307957854
 30
0.0
 41
1.0
 10
933.52162769796894
 20
-1333.5970309115651
 30
0.0
 41
0.9993860037849588
 10
933.423686693896
 20
-1333.660946927153
 30
0.0
 41
1.0
 10
933.41806838104526
 20
-1333.6646134218468
 30
0.0
 41
1.0
 10
933.41245006819463
 20
-1333.6682799165405
 30
0.0
 41
1.0
 10
933.32574568982398
 20
-1333.7248629427404
 30
0.0
 41
0.9998821494954122
 10
933.24081931400974
 20
-1333.7840811728181
 30
0.0
 41
1.0
 10
933.1558929381988
 20
-1333.8432994028938
 30
0.0
 41
0.9997976482744074
 10
933.07341730779888
 20
-1333.9058858109327
 30
0.0
 41
1.0
 10
933.0587810429912
 20
-1333.9169925007145
 30
0.0
 41
1.0
 10
933.04414477818352
 20
-1333.9280991904964
 30
0.0
 41
1.0
 10
932.93239661816938
 20
-1334.0128989780983
 30
0.0
 41
0.999809163080035
 10
932.82404634014154
 20
-1334.1019993288
 30
0.0
 41
1.0
 10
932.81104058766459
 20
-1334.1126944292457
 30
0.0
 41
1.0
 10
932.79803483518776
 20
-1334.1233895296914
 30
0.0
 41
1.0
 10
932.66367305220217
 20
-1334.2338800812879
 30
0.0
 41
0.999503511231748
 10
932.53653717443706
 20
-1334.3526138983045
 30
0.0
 41
1.0
 10
932.52688986405224
 20
-1334.36162364446
 30
0.0
 41
1.0
 10
932.5172425536673
 20
-1334.3706333906157
 30
0.0
 41
1.0
 10
932.39381949090239
 20
-1334.4858997623712
 30
0.0
 41
0.9994630424299179
 10
932.2782110851183
 20
-1334.6090025056064
 30
0.0
 41
1.0
 10
932.27452824634543
 20
-1334.612924085121
 30
0.0
 41
1.0
 10
932.27084540757244
 20
-1334.6168456646358
 30
0.0
 41
1.0
 10
932.16260267933308
 20
-1334.732105248843
 30
0.0
 41
0.9995160693750003
 10
932.06173664980236
 20
-1334.8538726667143
 30
0.0
 41
1.0
 10
932.05980292972163
 20
-1334.8562070909225
 30
0.0
 41
1.0
 10
932.05786920964101
 20
-1334.8585415151306
 30
0.0
 41
1.0
 10
931.96087062027095
 20
-1334.9756400845863
 30
0.0
 41
0.9996561470514485
 10
931.87014440160453
 20
-1335.0976628470362
 30
0.0
 41
1.0
 10
931.86398673570466
 20
-1335.1059446360755
 30
0.0
 41
1.0
 10
931.85782906980489
 20
-1335.114226425115
 30
0.0
 41
1.0
 10
931.7794181829405
 20
-1335.2196856094829
 30
0.0
 41
0.9998349055175018
 10
931.70489090100637
 20
-1335.3279241931486
 30
0.0
 41
1.0
 10
931.63036361908121
 20
-1335.4361627768019
 30
0.0
 41
0.9999728109567746
 10
931.55744072317952
 20
-1335.5454887023438
 30
0.0
 41
1.0
 10
931.55612550776004
 20
-1335.5474604718579
 30
0.0
 41
1.0
 10
931.55481029234056
 20
-1335.5494322413722
 30
0.0
 41
1.0
 10
931.47925696558605
 20
-1335.6627017059636
 30
0.0
 41
0.9999972147356913
 10
931.40423915519227
 20
-1335.7763265488295
 30
0.0
 41
1.0
 10
931.39926761259017
 20
-1335.7838566372711
 30
0.0
 41
1.0
 10
931.39429606998817
 20
-1335.7913867257128
 30
0.0
 41
1.0
 10
931.30933517436961
 20
-1335.9200717454928
 30
0.0
 41
0.9999371979003704
 10
931.22727982496701
 20
-1336.0506286592674
 30
0.0
 41
1.0
 10
931.22377094060403
 20
-1336.0562115873345
 30
0.0
 41
1.0
 10
931.22026205624115
 20
-1336.0617945154013
 30
0.0
 41
1.0
 10
931.13118893811065
 20
-1336.203517285313
 30
0.0
 41
0.9998272025610834
 10
931.04744554722652
 20
-1336.3484531620591
 30
0.0
 41
1.0
 10
931.03223037520445
 20
-1336.3747862765124
 30
0.0
 41
1.0
 10
931.01701520318238
 20
-1336.4011193909657
 30
0.0
 41
1.0
 10
930.90284146825365
 20
-1336.598721496619
 30
0.0
 41
0.9995217214838131
 10
930.80110177869938
 20
-1336.8030038244781
 30
0.0
 41
1.0
 10
930.79345821606262
 20
-1336.8183512741848
 30
0.0
 41
1.0
 10
930.78581465342575
 20
-1336.8336987238913
 30
0.0
 41
1.0
 10
930.69890936083539
 20
-1337.0081951819741
 30
0.0
 41
0.9998269762607489
 10
930.6185548945648
 20
-1337.1858034686945
 30
0.0
 41
1.0
 10
930.53820042829489
 20
-1337.3634117554136
 30
0.0
 41
0.9998944747388798
 10
930.4630396337318
 20
-1337.5432794810383
 30
0.0
 41
1.0
 10
930.45808596413724
 20
-1337.5551341359637
 30
0.0
 41
1.0
 10
930.45313229454268
 20
-1337.5669887908891
 30
0.0
 41
1.0
 10
930.37248523399137
 20
-1337.7599857309042
 30
0.0
 41
0.9999506734410262
 10
930.29568770508899
 20
-1337.9545465357576
 30
0.0
 41
1.0
 10
930.28108773981626
 20
-1337.9915344575682
 30
0.0
 41
1.0
 10
930.26648777454363
 20
-1338.0285223793787
 30
0.0
 41
1.0
 10
930.21889017617639
 20
-1338.1491073406364
 30
0.0
 41
0.9999912393934113
 10
930.17230373216285
 20
-1338.2700865433094
 30
0.0
 41
1.0
 10
930.1257172881426
 20
-1338.3910657459992
 30
0.0
 41
0.9999927113991453
 10
930.0800559937511
 20
-1338.512397153494
 30
0.0
 41
1.0
 10
930.06608756235096
 20
-1338.5495141354995
 30
0.0
 41
1.0
 10
930.05211913095081
 20
-1338.586631117505
 30
0.0
 41
1.0
 10
929.9785209737579
 20
-1338.7821964890136
 30
0.0
 41
0.9999487550948938
 10
929.90889734878726
 20
-1338.9792118541934
 30
0.0
 41
1.0
 10
929.88530373885123
 20
-1339.0459751644835
 30
0.0
 41
1.0
 10
929.86171012891532
 20
-1339.1127384747738
 30
0.0
 41
1.0
 10
929.76702449454547
 20
-1339.3806723095968
 30
0.0
 41
0.9999808436946469
 10
929.67566290590366
 20
-1339.6497577408622
 30
0.0
 41
1.0
 10
929.58430131727164
 20
-1339.9188431720991
 30
0.0
 41
0.9999873932927033
 10
929.49564660855606
 20
-1340.1888325271045
 30
0.0
 41
1.0
 10
929.47555425168071
 20
-1340.2500218598752
 30
0.0
 41
1.0
 10
929.45546189480547
 20
-1340.3112111926462
 30
0.0
 41
1.0
 10
929.32662247234055
 20
-1340.7035792131896
 30
0.0
 41
0.9999794883037185
 10
929.20281968737834
 20
-1341.0975654194815
 30
0.0
 41
1.0
 10
929.1916674279687
 20
-1341.1330560296301
 30
0.0
 41
1.0
 10
929.18051516855894
 20
-1341.1685466397789
 30
0.0
 41
1.0
 10
929.03795700464639
 20
-1341.6222193919134
 30
0.0
 41
0.9999982761731662
 10
928.89708456460289
 20
-1342.0764184141262
 30
0.0
 41
1.0
 10
927.30894423203029
 20
-1347.1251881451294
 30
0.0
 41
1.0
 10
925.72080389945768
 20
-1352.1739578761326
 30
0.0
 41
1.0
 10
924.77205328798129
 20
-1352.1739578761326
 30
0.0
 41
1.0
 10
923.82330267650491
 20
-1352.1739578761326
 30
0.0
 41
1.0
 10
927.06158716265804
 20
-1341.8466356761865
 30
0.0
 41
1.0
 10
930.29987164881129
 20
-1331.5193134762403
 30
0.0
 41
1.0
  0
LWPOLYLINE
  5
59
100
AcDbEntity
  8
0
370
              15
390
0
  6
Continuous
 62
               7
100
AcDbPolyline
 90
      232
 70
             128
 10
904.59632587498425
 20
-1332.603656307756
 42
0.0004370800697991
 10
904.5434487010408
 20
-1332.6723229468444
 10
904.50416446978477
 20
-1332.7234300599084
 42
0.0030481992175739
 10
904.37382575265565
 20
-1332.895151752266
 10
904.33531408091517
 20
-1332.9465385360409
 42
0.0042058245754892
 10
904.13132903024484
 20
-1333.2235442811152
 10
904.07892390774464
 20
-1333.2959771278952
 42
0.0120948898746028
 10
903.78287999098131
 20
-1333.7267267324471
 10
903.68668749186179
 20
-1333.8742074676684
 42
0.0141601263947513
 10
903.38304344493929
 20
-1334.3698768044046
 10
903.34350617751534
 20
-1334.438720771833
 42
0.0071131081299427
 10
903.13823385427486
 20
-1334.8082235706745
 42
0.0068458791003174
 10
902.94335432742503
 20
-1335.1833151341639
 10
902.93654246497408
 20
-1335.1968768478741
 42
0.0064120880289223
 10
902.73840021493447
 20
-1335.6043013227829
 10
902.73086552941277
 20
-1335.6203131795141
 42
0.0058857236448083
 10
902.52811013754467
 20
-1336.0646892905411
 10
902.51993521124712
 20
-1336.0831794441833
 42
0.0053189741890886
 10
902.31123089857783
 20
-1336.5691429181054
 10
902.30248309289823
 20
-1336.5901247962975
 42
0.0047503650418229
 10
902.08650936674837
 20
-1337.1223242295048
 10
902.07724111839934
 20
-1337.145800605615
 42
0.0042071762169229
 10
901.85269373467156
 20
-1337.7288941996851
 10
901.84294433232299
 20
-1337.7548603745545
 42
0.0036680086484977
 10
901.60848968900757
 20
-1338.3934957590948
 10
901.59828190916312
 20
-1338.42194429343
 42
0.0032573142627999
 10
901.35264962319297
 20
-1339.1207969531933
 10
901.28399910235566
 20
-1339.3202600372365
 42
0.0026133366648819
 10
900.93555390359779
 20
-1340.3501233209083
 10
900.87229711611872
 20
-1340.5403541562362
 42
0.0020592950737172
 10
900.65843404712996
 20
-1341.1924578089145
 10
900.65538225597174
 20
-1341.2018942973089
 42
0.0025609928536041
 10
900.45356175448103
 20
-1341.8370395196901
 10
900.4509703873639
 20
-1341.8453418606
 42
0.0031362356241646
 10
900.26147960167737
 20
-1342.4661047168102
 10
900.25934855875039
 20
-1342.4732460230198
 42
0.0037229918028203
 10
900.08254817182365
 20
-1343.0822313249953
 10
900.08086958261526
 20
-1343.0881782151764
 42
0.0043077623706413
 10
899.91712878055216
 20
-1343.6879969469387
 42
0.0047654161822263
 10
899.76430005804048
 20
-1344.2906830358238
 10
899.72983544919703
 20
-1344.432244812991
 42
0.011296936844503
 10
899.53397109105208
 20
-1345.3239369736225
 10
899.50596470195683
 20
-1345.466765019713
 42
0.0130056762572353
 10
899.30512745831015
 20
-1346.6537060913579
 10
899.28458770816349
 20
-1346.7977842048324
 42
0.0138721532145957
 10
899.18088470362522
 20
-1347.7046136906606
 10
899.1615892157173
 20
-1347.9281114125872
 42
0.0071254697013998
 10
899.12824256979479
 20
-1348.3912984214328
 10
899.12328159563219
 20
-1348.4773024159801
 42
0.002888179920178
 10
899.10814330234166
 20
-1348.7690441258358
 42
0.006029729713426
 10
899.09821110256621
 20
-1349.0609930619462
 10
899.09714882089895
 20
-1349.1093854338842
 42
0.0229523164149889
 10
899.10487984868473
 20
-1349.4321402801672
 10
899.10910562220499
 20
-1349.4925438141822
 42
0.0123673300662717
 10
899.12818426872343
 20
-1349.6936645393582
 42
0.012857767448102
 10
899.15737965913002
 20
-1349.8935623892867
 10
899.16450553251673
 20
-1349.934891203882
 42
0.0285717853770663
 10
899.22899953421199
 20
-1350.2130073551937
 10
899.24266805787863
 20
-1350.2596621246714
 42
0.031628309915651
 10
899.35847863779304
 20
-1350.5786766264982
 10
899.36152732954861
 20
-1350.5856629988239
 42
0.0338984824238197
 10
899.51095904051579
 20
-1350.8732289630129
 10
899.51326776988617
 20
-1350.8770199922897
 42
0.0350228718357741
 10
899.69562806055922
 20
-1351.1340719769657
 10
899.69651331233399
 20
-1351.1351510547295
 42
0.0347476747526579
 10
899.91093799957434
 20
-1351.3623361019497
 42
0.0331337701911539
 10
900.15418132532079
 20
-1351.5584647640271
 10
900.15528142383687
 20
-1351.5592374671996
 42
0.0305233319079946
 10
900.42382611940991
 20
-1351.7243656372909
 10
900.4270561639114
 20
-1351.7260896491539
 42
0.0273744481160284
 10
900.71960987548709
 20
-1351.8622277930447
 10
900.72471441062328
 20
-1351.8642713775139
 42
0.0240964406194028
 10
901.04019148627106
 20
-1351.9732551037957
 10
901.04677481547901
 20
-1351.9751798434702
 42
0.0209636179815163
 10
901.38417496813292
 20
-1352.0586479914027
 10
901.39180742858025
 20
-1352.0601999044038
 42
0.0181388704692253
 10
901.75012982057876
 20
-1352.1196159976178
 10
901.75841066895691
 20
-1352.1206821814349
 42
0.0156086547586117
 10
902.13659803314579
 20
-1352.1574183680116
 10
902.17979328547779
 20
-1352.1602568704907
 42
0.0137148329024585
 10
902.50746643077161
 20
-1352.172777125742
 10
902.55340262071343
 20
-1352.1732715588571
 42
0.0051057823891939
 10
902.78954820728984
 20
-1352.1734018132663
 42
0.0052256693311645
 10
903.02564549107444
 20
-1352.1686529888018
 10
903.09587227481791
 20
-1352.1665060227879
 42
0.0161507179048212
 10
903.47160935291924
 20
-1352.1428556524613
 10
903.49162231329228
 20
-1352.1409454571738
 42
0.0101216737832246
 10
903.90564953478167
 20
-1352.0929525268084
 10
903.93970282420969
 20
-1352.0883048299986
 42
0.0245291776401665
 10
904.41649247976341
 20
-1351.9992297519216
 10
904.50131579528625
 20
-1351.9790338315761
 42
0.0143509212555683
 10
904.85794689922443
 20
-1351.8832291977976
 42
0.0156557857041786
 10
905.20816296395083
 20
-1351.7662179819793
 10
905.21566417844633
 20
-1351.7634478202247
 42
0.0170137333626193
 10
905.57226017412518
 20
-1351.6177902053546
 10
905.57936409653519
 20
-1351.6146023697897
 42
0.0183105364409703
 10
905.93871376470281
 20
-1351.4372673279647
 10
905.94566052934022
 20
-1351.4335168930934
 42
0.0194899958151807
 10
906.30414127031997
 20
-1351.2215379112054
 10
906.31115514966086
 20
-1351.2170125689076
 42
0.0204869852950445
 10
906.66516945175624
 20
-1350.9674925538206
 10
906.67243506034185
 20
-1350.9619124884734
 42
0.0212516938556666
 10
907.018424991448
 20
-1350.6720084915808
 10
907.06494168552433
 20
-1350.6295411814865
 42
0.0215248918251471
 10
907.32496785441322
 20
-1350.3707769024907
 10
907.36999758879085
 20
-1350.3219327811441
 42
0.0114578554945069
 10
907.52478974247106
 20
-1350.1461098476825
 10
907.53598427846237
 20
-1350.1327910841314
 42
0.0061531305135825
 10
907.66245892445215
 20
-1349.9785015508314
 42
0.0006325587120629
 10
907.78683740858332
 20
-1349.8224981751814
 10
907.80987754365538
 20
-1349.7935246544962
 42
0.0041897761554223
 10
907.97833294762052
 20
-1349.5780052784442
 10
908.0367950675203
 20
-1349.5019039314493
 42
0.0092993880040216
 10
908.31340699475095
 20
-1349.1276251675558
 10
908.39580148794062
 20
-1349.0116881640001
 42
0.0159321727083017
 10
908.7424079705853
 20
-1348.4895139432408
 10
908.78676410597836
 20
-1348.4178343789843
 42
0.0085547317021975
 10
909.02127587130008
 20
-1348.0239594297661
 42
0.0084601156888836
 10
909.24225204873653
 20
-1347.6223325807448
 10
909.25036752257256
 20
-1347.606972898461
 42
0.0081429654288137
 10
909.47361679301696
 20
-1347.1672513859062
 10
909.48247695719408
 20
-1347.149072543901
 42
0.007657458133204
 10
909.70888446776189
 20
-1346.6658896686458
 10
909.71836410848448
 20
-1346.6448251903448
 42
0.0070682724198872
 10
909.94880901629028
 20
-1346.1127878855659
 10
909.95879930027297
 20
-1346.0887986965517
 42
0.0064559514449016
 10
910.19413250845537
 20
-1345.5024864300308
 10
910.20454186661959
 20
-1345.4755515045906
 42
0.0058311413905863
 10
910.44558860338464
 20
-1344.8295194102011
 10
910.45634368076992
 20
-1344.7996350690466
 42
0.0052312425820078
 10
910.70392495881674
 20
-1344.0884326551943
 10
910.71496879519054
 20
-1344.0556059431424
 42
0.0046680544796336
 10
910.9698972229213
 20
-1343.2737796273993
 10
911.01188937297275
 20
-1343.1407963900824
 42
0.004166685644544
 10
911.21517538536364
 20
-1342.4778276150901
 10
911.25283782604561
 20
-1342.3512465073752
 42
0.0015170975161345
 10
911.37402440444043
 20
-1341.9393781559424
 42
-0.0004887993115892
 10
911.49436417760171
 20
-1341.5272597437702
 10
911.57084143505858
 20
-1341.2663023579594
 42
0.0002583378929194
 10
911.84405600521154
 20
-1340.3322456544768
 10
911.92582885467436
 20
-1340.0521463952834
 42
0.000663616967142
 10
912.11969661471085
 20
-1339.3847934716102
 10
912.12479326907157
 20
-1339.3671618886829
 42
0.0010589131324638
 10
912.30624196997451
 20
-1338.7344305456813
 10
912.31122404044822
 20
-1338.7169176386851
 42
0.0015655524460597
 10
912.47949424763783
 20
-1338.1183009594604
 10
912.48432444805633
 20
-1338.1009088005119
 42
0.002164044047703
 10
912.63861442003872
 20
-1337.5358817825065
 10
912.64324863947445
 20
-1337.518617052491
 42
0.0028763871854535
 10
912.78276435752173
 20
-1336.9866491016655
 10
912.78715022168501
 20
-1336.9695251235264
 42
0.0037310511942125
 10
912.91110691352583
 20
-1336.4700775294871
 10
912.91518213381778
 20
-1336.4531172582292
 42
0.0047652197773197
 10
913.02280603432325
 20
-1335.9856394899366
 10
913.02649663364775
 20
-1335.9688799347814
 42
0.0060276699299018
 10
913.11702673280024
 20
-1335.5328041396424
 10
913.1202454230887
 20
-1335.5163029253367
 42
0.0075824337758629
 10
913.19293473250491
 20
-1335.111035760907
 10
913.19558010988533
 20
-1335.0948808134553
 42
0.0095130624610486
 10
913.24969534551633
 20
-1334.7197914603848
 10
913.25668156939776
 20
-1334.6638579022783
 42
0.0121054653227063
 10
913.28327289997685
 20
-1334.3989620737943
 10
913.28413938973665
 20
-1334.3875586308611
 42
0.0069050827389133
 10
913.29922820777415
 20
-1334.1446174040209
 10
913.3003635074424
 20
-1334.121091146983
 42
0.0169063976686008
 10
913.30319078642287
 20
-1333.9248984196754
 10
913.30202013489156
 20
-1333.8645626583202
 42
0.0052007732902867
 10
913.29976668629865
 20
-1333.7889692681742
 42
0.0054038123306267
 10
913.27980317445883
 20
-1333.6689509721591
 10
913.27471731858941
 20
-1333.6402924855831
 42
0.0112050460468246
 10
913.23933295653046
 20
-1333.4639660472421
 10
913.22150799449014
 20
-1333.3844244605232
 42
0.0240764468009701
 10
913.13061062834379
 20
-1333.0541874250214
 10
913.1120518655307
 20
-1332.9975672600287
 42
0.0256812331833848
 10
912.968688945341
 20
-1332.625843053771
 10
912.96327951951935
 20
-1332.6137117187807
 42
0.026836050121424
 10
912.79385227866976
 20
-1332.28271858476
 10
912.78831587103537
 20
-1332.2731989144488
 42
0.0274670231731511
 10
912.59611489462145
 20
-1331.9809115395306
 10
912.59073359465924
 20
-1331.9736323919897
 42
0.0275035967098132
 10
912.37916071509699
 20
-1331.7181165016852
 10
912.37409121413066
 20
-1331.7126374140551
 42
0.0269557673521437
 10
912.14668767069088
 20
-1331.4919951280924
 10
912.14194461290833
 20
-1331.4878651736317
 42
0.025912480220992
 10
911.9023897814775
 20
-1331.3001746464793
 10
911.89785893629551
 20
-1331.2969891441489
 42
0.0245162153005956
 10
911.64994258320075
 20
-1331.1402561350387
 10
911.64541603687599
 20
-1331.1376959378376
 42
0.0229282588837823
 10
911.39299648004919
 20
-1331.009827745339
 10
911.38821598621303
 20
-1331.0076754455772
 42
0.0212984135700765
 10
911.13517803375066
 20
-1330.9064765283347
 10
911.12987374878207
 20
-1330.9046129655751
 42
0.0197555462340629
 10
910.88009541105816
 20
-1330.8277975476099
 42
0.0183511896789339
 10
910.62516668559556
 20
-1330.7702146406443
 10
910.53880148887163
 20
-1330.7540118502591
 42
0.0338057877144022
 10
910.25329413961174
 20
-1330.7202034451188
 10
910.16228873456828
 20
-1330.7156237898573
 42
0.0091990524513203
 10
910.0564416259358
 20
-1330.7122479339355
 42
0.002833398075789
 10
909.95052770996767
 20
-1330.7114198264189
 10
909.94961225689349
 20
-1330.7114178565948
 42
-0.002361982780501
 10
909.84186624179608
 20
-1330.7106770155162
 10
909.80546107161172
 20
-1330.7102547090531
 42
0.0008824598485298
 10
909.62490508169446
 20
-1330.7084789308142
 10
909.58104364935593
 20
-1330.7081249692892
 42
0.0038132665763906
 10
909.31276075348512
 20
-1330.7080060332225
 10
909.29622709868363
 20
-1330.7081247993663
 42
0.0060665569335522
 10
908.9949466070974
 20
-1330.713945098787
 10
908.98069627506698
 20
-1330.7143934067547
 42
0.0080356953336722
 10
908.65123755872389
 20
-1330.7300611288217
 10
908.6391675436405
 20
-1330.730829711762
 42
0.0098996399105945
 10
908.28640445898736
 20
-1330.7603149409604
 10
908.27635874961493
 20
-1330.7613552371583
 42
0.0117740981366489
 10
907.90520189126732
 20
-1330.808647484688
 10
907.89697919478363
 20
-1330.809892601259
 42
0.0137435215135065
 10
907.51239037529808
 20
-1330.8789895748207
 10
907.50573333617513
 20
-1330.8803754710541
 42
0.0158359869387155
 10
907.11273624237162
 20
-1330.975267559535
 10
907.1073230555055
 20
-1330.9767575004053
 42
0.0180554124029828
 10
906.71100801089278
 20
-1331.1013955166443
 10
906.70645122280973
 20
-1331.1030115529104
 42
0.0203657431284668
 10
906.3119737049991
 20
-1331.261271894426
 10
906.30783016599105
 20
-1331.2631335158683
 42
0.0226819684651565
 10
905.92039410978634
 20
-1331.4587760945399
 10
905.91619431876927
 20
-1331.4611416864591
 42
0.024863498460645
 10
905.54101237758812
 20
-1331.697768332406
 10
905.49281744880625
 20
-1331.7316253742301
 42
0.0267044190887879
 10
905.21852475188757
 20
-1331.9470657500999
 42
0.0139303002195357
 10
904.96235758595037
 20
-1332.1843045910105
 10
904.95750420022785
 20
-1332.1890572538721
 42
0.0283460963445129
 10
904.71343160600031
 20
-1332.4567879143176
 10
904.6737631008441
 20
-1332.5055894917905
 42
0.0070695364826285
 10
904.59632587498425
 20
-1332.603656307756
 42
0.0070695364826285
  0
LWPOLYLINE
  5
5A
100
AcDbEntity
  8
0
370
              15
390
0
  6
Continuous
 62
               7
100
AcDbPolyline
 90
      226
 70
             128
 10
901.06750543773785
 20
-1348.3252451139397
 42
-0.002627763661857
 10
901.06742755393782
 20
-1348.2584731881891
 10
901.06764491216984
 20
-1348.2053179707534
 42
-0.0088680296718044
 10
901.07142152846291
 20
-1348.0323021883496
 10
901.07376788757529
 20
-1347.9730221628968
 42
-0.0077381705617038
 10
901.08981399833829
 20
-1347.6817616671019
 10
901.09068190951155
 20
-1347.6694734334135
 42
-0.0068872530537659
 10
901.11731398925883
 20
-1347.3542516813536
 10
901.11851821344578
 20
-1347.342010702326
 42
-0.0062130021489666
 10
901.15611193027405
 20
-1347.0031410110839
 10
901.15761583380868
 20
-1346.9909671391711
 42
-0.0056726929665583
 10
901.20653769331068
 20
-1346.6287719170593
 10
901.20831113895542
 20
-1346.6166781168122
 42
-0.0052341884495975
 10
901.26892172521445
 20
-1346.2314848612996
 10
901.27093971399199
 20
-1346.2194799313017
 42
-0.0049768450174071
 10
901.34367839541767
 20
-1345.8116353638736
 10
901.36792741014017
 20
-1345.6830873808633
 42
-0.0089029805625281
 10
901.50500826193343
 20
-1345.0213119334478
 10
901.53775363725345
 20
-1344.8762805029173
 42
-0.0080318257099082
 10
901.76730225159429
 20
-1343.9305708710629
 10
901.77928717804241
 20
-1343.8844402358734
 42
-0.0074265721318132
 10
902.06329871689161
 20
-1342.8543756574959
 10
902.08317826000632
 20
-1342.7862415969132
 42
-0.0069711922704744
 10
902.41048283851569
 20
-1341.7199738565757
 10
902.47043478562284
 20
-1341.5339524982001
 42
-0.0052070422893824
 10
902.69986001088046
 20
-1340.8466804211739
 10
902.71714120304352
 20
-1340.7966531405832
 42
-0.0009167004447409
 10
902.92023309034221
 20
-1340.2121972924026
 42
-0.0025162726944069
 10
903.12733072059632
 20
-1339.6291560282632
 10
903.16455533241515
 20
-1339.5260064823206
 42
-0.0028212681459968
 10
903.41273125137332
 20
-1338.8502758501634
 10
903.42256201412101
 20
-1338.8239684054945
 42
-0.0031964916822978
 10
903.65885427178625
 20
-1338.2037636433597
 10
903.66848872578646
 20
-1338.1789536532133
 42
-0.003628183645229
 10
903.89359468688644
 20
-1337.6115129723232
 10
903.90303309705018
 20
-1337.5882155408051
 42
-0.0041269166833405
 10
904.11765079370309
 20
-1337.070774644842
 10
904.15028375012582
 20
-1336.9938961984762
 42
-0.0047472213058377
 10
904.30732855567749
 20
-1336.6334747305978
 10
904.31422263687898
 20
-1336.6180541332808
 42
-0.0025651659996234
 10
904.46258067073586
 20
-1336.2907260775173
 42
-0.0057144634996202
 10
904.61633036450985
 20
-1335.9659164041493
 10
904.64436106990411
 20
-1335.9084080217692
 42
-0.0065388068374359
 10
904.82782809764819
 20
-1335.5441755250959
 10
904.83628655341988
 20
-1335.5279159457396
 42
-0.0074510843028616
 10
905.01246879930454
 20
-1335.2012276646035
 10
905.02064846984456
 20
-1335.1865868873188
 42
-0.0084648979856583
 10
905.19028232293567
 20
-1334.8946778763734
 10
905.19813844942382
 20
-1334.8816708847226
 42
-0.0095638542805224
 10
905.36197389701795
 20
-1334.621782012744
 10
905.36944884069158
 20
-1334.6104126512857
 42
-0.0107191626803515
 10
905.52825042107725
 20
-1334.3798014167444
 10
905.53526715480371
 20
-1334.3700653243861
 42
-0.0118458573910902
 10
905.68981525332083
 20
-1334.1659931290692
 42
-0.012918451818619
 10
905.8542678769237
 20
-1333.9698326128976
 10
905.88441264928258
 20
-1333.9357065340025
 42
-0.0217742579642932
 10
906.06102497162078
 20
-1333.752499763749
 10
906.07177051607766
 20
-1333.7422829305494
 42
-0.0097266568655337
 10
906.23782813493699
 20
-1333.5904353561086
 42
-0.0187720905728109
 10
906.41217571082154
 20
-1333.4483665027233
 10
906.44288170149798
 20
-1333.4252074203253
 42
-0.017942820752072
 10
906.67530242149678
 20
-1333.2626552432116
 10
906.67895474841396
 20
-1333.2602913083231
 42
-0.0170047877699502
 10
906.91471838594293
 20
-1333.1188307941725
 10
906.91850137469044
 20
-1333.1167324891358
 42
-0.0160190788363567
 10
907.15540992232479
 20
-1332.9950811871481
 42
-0.0151102861495054
 10
907.39944170477384
 20
-1332.8883984110926
 10
907.45182820698324
 20
-1332.8673582781989
 42
-0.0271945441881808
 10
907.81049076604029
 20
-1332.7454934674934
 10
907.87955556652742
 20
-1332.7261439262272
 42
-0.023759659402726
 10
908.29535241355211
 20
-1332.630693214245
 10
908.36341526728256
 20
-1332.6184385261183
 42
-0.0213715440554118
 10
908.64929019872784
 20
-1332.5794914946084
 10
908.70943736494382
 20
-1332.5739017799076
 42
-0.0101465655820695
 10
908.87692989693994
 20
-1332.5617582366435
 10
908.88627028313556
 20
-1332.5612713216465
 42
-0.010037591087991
 10
909.03542438370073
 20
-1332.5564955037212
 10
909.04568365337718
 20
-1332.5563730647068
 42
-0.0103625633384436
 10
909.17439164803591
 20
-1332.5575044982334
 10
909.19665729930318
 20
-1332.5581618566982
 42
-0.0115689250225736
 10
909.28070803683079
 20
-1332.5625913629433
 42
-0.0072438037434797
 10
909.36454631627225
 20
-1332.5701805626927
 10
909.38134682574275
 20
-1332.5719471054167
 42
-0.0217917313139367
 10
909.49791658905451
 20
-1332.5893669981374
 10
909.56351667962497
 20
-1332.6021136065524
 42
-0.0332943556758809
 10
909.7679088446514
 20
-1332.6561538978592
 10
909.79808141320382
 20
-1332.6663219749785
 42
-0.0184824084793735
 10
909.93658646966696
 20
-1332.7187729903642
 42
-0.0198002050692993
 10
910.07066081016603
 20
-1332.7816570505634
 10
910.07254744754323
 20
-1332.7826348374433
 42
-0.0212242342982324
 10
910.20468638994589
 20
-1332.8583975762369
 10
910.20650168548855
 20
-1332.8595433784449
 42
-0.0226090605795186
 10
910.33500558671119
 20
-1332.9490230220101
 10
910.33685002844777
 20
-1332.9504352749968
 42
-0.0238457052245872
 10
910.4600321097405
 20
-1333.0544311708591
 10
910.46198483829971
 20
-1333.0562460486253
 42
-0.0248160564147562
 10
910.57818634559999
 20
-1333.1755206498337
 10
910.58028997900237
 20
-1333.1779059835385
 42
-0.0254109591459934
 10
910.68789519686845
 20
-1333.313194369503
 10
910.6901432187824
 20
-1333.3163359179034
 42
-0.0255528488295252
 10
910.78758989757898
 20
-1333.4683629721369
 10
910.78992099749576
 20
-1333.4724445837455
 42
-0.0252146793206938
 10
910.87570202350537
 20
-1333.6419468297436
 10
910.87800426266244
 20
-1333.6471289116553
 42
-0.0244265635948048
 10
910.95065895642313
 20
-1333.8348754836993
 10
910.95990535789247
 20
-1333.8627409020398
 42
-0.0231319612896142
 10
911.00582813688436
 20
-1334.0260419488413
 42
-0.0112130424360246
 10
911.04046415942298
 20
-1334.1922455490317
 10
911.04166668453513
 20
-1334.1987421359174
 42
-0.0210527881227358
 10
911.06735315990591
 20
-1334.3797977813585
 10
911.07086375472772
 20
-1334.415203329906
 42
-0.0190029892425727
 10
911.08630522827229
 20
-1334.6687391761759
 10
911.08711520471638
 20
-1334.7042147905472
 42
-0.0137974553659721
 10
911.08556635188074
 20
-1335.0292461972836
 10
911.08472089692555
 20
-1335.0553649418641
 42
-0.0081336634218494
 10
911.06986156170274
 20
-1335.3607124094729
 42
-0.0073526923578256
 10
911.0455530283283
 20
-1335.6654606537559
 10
911.04429160454538
 20
-1335.678797328424
 42
-0.0066886138698002
 10
911.00855601849833
 20
-1336.0093833719252
 10
911.00689892902892
 20
-1336.0230049909126
 42
-0.0061359187359396
 10
910.95904832698022
 20
-1336.3797689709977
 10
910.95701082590517
 20
-1336.3936637738418
 42
-0.0056698610064979
 10
910.89636049513729
 20
-1336.7769423426853
 10
910.89395506181518
 20
-1336.7911014619106
 42
-0.0052721077277576
 10
910.81982286101743
 20
-1337.2012288015781
 10
910.81705971217377
 20
-1337.2156454369745
 42
-0.0049289272178544
 10
910.72876559407393
 20
-1337.652953948096
 10
910.72565309939114
 20
-1337.6676228009128
 42
-0.0047415956709917
 10
910.62241510785759
 20
-1338.1324195583288
 10
910.5876468974991
 20
-1338.2822266537064
 42
-0.0084404470903388
 10
910.39763045392726
 20
-1339.0424506782372
 10
910.39150376594159
 20
-1339.0653148023907
 42
-0.0039635940257975
 10
910.1700500816587
 20
-1339.8663036666342
 10
910.15667328647805
 20
-1339.9132352832301
 42
-0.0072475040838171
 10
909.88922639861858
 20
-1340.8024549996089
 10
909.81901407179259
 20
-1341.024195349577
 42
-0.0051345458829883
 10
909.5322546997287
 20
-1341.8985205374038
 10
909.51072843295651
 20
-1341.9619468045478
 42
-0.0019150016601091
 10
909.2551950260945
 20
-1342.7054959247598
 10
909.24872742169816
 20
-1342.7240833896813
 42
-0.0021524362753526
 10
909.00024937063449
 20
-1343.4284092113892
 10
908.99103894992845
 20
-1343.4541627897174
 42
-0.0024331286820841
 10
908.75478369090206
 20
-1344.1047620978086
 10
908.74573573835096
 20
-1344.1293054041644
 42
-0.0027449721784658
 10
908.52112116751607
 20
-1344.7284352830875
 10
908.51223116012522
 20
-1344.7517578729362
 42
-0.0031083229769963
 10
908.29868867351388
 20
-1345.3016819105196
 10
908.2899525418328
 20
-1345.3237716263914
 42
-0.0035311343282895
 10
908.08691135624645
 20
-1345.8267547521073
 10
908.0783260171022
 20
-1345.8475974756093
 42
-0.0040245640949912
 10
907.88521421330438
 20
-1346.3059067982099
 10
907.87677809970262
 20
-1346.325486166279
 42
-0.0046015135852397
 10
907.69302180653756
 20
-1346.7413911959243
 10
907.68473562870508
 20
-1346.7596883353858
 42
-0.0052768638270867
 10
907.50975810975365
 20
-1347.1354612196467
 10
907.50162589913009
 20
-1347.1524545581829
 42
-0.0060672675643335
 10
907.33484628636074
 20
-1347.4903701813041
 10
907.32687680588185
 20
-1347.5060354402963
 42
-0.0069904648866937
 10
907.16770841187781
 20
-1347.808371246965
 10
907.15991701226608
 20
-1347.822681796194
 42
-0.0080637022763247
 10
907.00776515192115
 20
-1348.0917170993453
 10
907.00017611929286
 20
-1348.1046449649411
 42
-0.0093006455671446
 10
906.85443544275836
 20
-1348.3426593634492
 10
906.84708477601635
 20
-1348.3541773326199
 42
-0.0107060778050952
 10
906.7071362325762
 20
-1348.5634476500015
 10
906.70007446429338
 20
-1348.5735331925721
 42
-0.0122723111405004
 10
906.56528074609855
 20
-1348.7563265220565
 10
906.56495452255001
 20
-1348.756746909859
 42
-0.0141836319641338
 10
906.42137291957033
 20
-1348.9313166676957
 10
906.41442516391783
 20
-1348.939291667961
 42
-0.0175957477207675
 10
906.27451899588368
 20
-1349.0889125563651
 42
-0.0080466359667425
 10
906.12705523084094
 20
-1349.2312350845282
 10
906.08102068633605
 20
-1349.2742555226075
 42
-0.0269600260398421
 10
905.82774044035625
 20
-1349.4865787811143
 10
905.76117330406089
 20
-1349.536530195737
 42
-0.0178362839758901
 10
905.52122881440027
 20
-1349.703548121993
 10
905.51398384339655
 20
-1349.7082166342
 42
-0.0174650732648243
 10
905.2776476459585
 20
-1349.849077599157
 42
-0.0169240130160951
 10
905.03218140009892
 20
-1349.9733698589355
 10
904.98619524454307
 20
-1349.9947318145016
 42
-0.0318883036841081
 10
904.63584438892201
 20
-1350.131070124012
 10
904.56747885375717
 20
-1350.1527707444875
 42
-0.0284435909899725
 10
904.19142872746727
 20
-1350.248988179962
 10
904.15627056696906
 20
-1350.2558817757904
 42
-0.0243909341019005
 10
903.84282710604975
 20
-1350.3016028068205
 10
903.79254637927966
 20
-1350.3064483537219
 42
-0.0196639292930407
 10
903.57695080175131
 20
-1350.3186966392354
 10
903.52512673058277
 20
-1350.3195998999722
 42
-0.0100501510670947
 10
903.41270344892359
 20
-1350.3192995016193
 10
903.38104358762007
 20
-1350.318578429735
 42
-0.0019752031166231
 10
903.33195125089821
 20
-1350.3172662695245
 10
903.32919094767999
 20
-1350.3171815776982
 42
0.0065378751991807
 10
903.28561437292137
 20
-1350.3164146864831
 42
-0.0167974694634621
 10
903.24208354998916
 20
-1350.3147547879571
 10
903.23800421072747
 20
-1350.3144617770622
 42
-0.0081283276280933
 10
903.18644441298738
 20
-1350.3099147834243
 10
903.17470483911029
 20
-1350.3086868658461
 42
-0.0126703440184251
 10
903.09998654331741
 20
-1350.2989520747747
 10
903.07719867564015
 20
-1350.2953938188593
 42
-0.0117852088426261
 10
902.95765968980265
 20
-1350.2738308237012
 10
902.90227923804468
 20
-1350.2624872834676
 42
-0.0251774592297392
 10
902.67543519903836
 20
-1350.2039892740349
 10
902.63071600918363
 20
-1350.1900224546985
 42
-0.0146525199882727
 10
902.44432302164728
 20
-1350.1257559275011
 42
-0.016692943586721
 10
902.26234536552317
 20
-1350.0499487944478
 10
902.25768873424749
 20
-1350.0478238938326
 42
-0.0191684358439037
 10
902.07250510299923
 20
-1349.9545878100432
 10
902.06917251724121
 20
-1349.9527465624892
 42
-0.0221181781806163
 10
901.8858622133373
 20
-1349.8406130641172
 10
901.88351240933059
 20
-1349.8390287661273
 42
-0.0254984685376553
 10
901.70722225894531
 20
-1349.7066176161579
 10
901.6847401112434
 20
-1349.6878653072217
 42
-0.0292492648804158
 10
901.55997117240031
 20
-1349.5707725075786
 42
-0.0159048957500434
 10
901.44613117494987
 20
-1349.442752515979
 10
901.44481238437083
 20
-1349.4411709029594
 42
-0.0343813379557752
 10
901.34217512274461
 20
-1349.2992995771897
 10
901.31068359138339
 20
-1349.2487961850952
 42
-0.0369117275705544
 10
901.22479108948653
 20
-1349.0853189441473
 42
-0.0191751379916413
 10
901.15759770393061
 20
-1348.9129143381444
 10
901.15583438017006
 20
-1348.9078209934664
 42
-0.0378178042221968
 10
901.10603966138581
 20
-1348.7188802173855
 10
901.10004436565544
 20
-1348.6863195991875
 42
-0.0184846046474589
 10
901.07932716636105
 20
-1348.544566778643
 42
-0.0179866351323981
 10
901.06899416128738
 20
-1348.4016759655599
 10
901.06893771884165
 20
-1348.4001182789498
 42
-0.0085497186139518
 10
901.06750543773785
 20
-1348.3252451139397
 42
-0.0085497186139518
  0
ENDBLK
  5
5B
100
AcDbEntity
  8
template
390
0
100
AcDbBlockEnd
  0
BLOCK
  5
5C
100
AcDbEntity
  8
notes
390
0
100
AcDbBlockBegin
  2
*D3
 70
               1
 10
0.0
 20
0.0
 30
0.0
  3
*D3
  1

  0
LINE
  5
5D
100
AcDbEntity
  8
0
370
              -2
390
0
  6
Continuous
 62
               0
100
AcDbLine
 10
1564.404314850734
 20
5202.4773144559176
 30
0.0
 11
1564.404314850734
 21
5337.7586643425884
 31
0.0
  0
LINE
  5
5E
100
AcDbEntity
  8
0
370
              -2
390
0
  6
Continuous
 62
               0
100
AcDbLine
 10
1664.404314850734
 20
5203.4773144559176
 30
0.0
 11
1664.404314850734
 21
5337.7586643425884
 31
0.0
  0
LINE
  5
5F
100
AcDbEntity
  8
0
370
              -2
390
0
  6
Continuous
 62
               0
100
AcDbLine
 10
1564.404314850734
 20
5337.7586643425884
 30
0.0
 11
1664.404314850734
 21
5337.7586643425884
 31
0.0
  0
CIRCLE
  5
60
102
{ACAD_REACTORS
330
61
102
}
100
AcDbEntity
  8
0
370
              -2
390
0
  6
Continuous
 62
               0
100
AcDbCircle
 10
1564.404314850734
 20
5337.7586643425884
 30
0.0
 40
1.9998779296875
  0
HATCH
  5
61
100
AcDbEntity
  8
0
370
              -2
390
0
  6
Continuous
 62
               0
100
AcDbHatch
 10
0.0
 20
0.0
 30
0.0
210
0.0
220
0.0
230
1.0
  2
SOLID
 70
               1
 71
               1
 91
        1
 92
        1
 93
        1
 72
               2
 10
1564.404314850734
 20
5337.7586643425884
 40
1.9998779296875
 50
0.0
 51
360.0
 73
               0
 97
        1
330
60
 75
               0
 76
               1
 98
        1
 10
0.0
 20
0.0
  0
CIRCLE
  5
62
102
{ACAD_REACTORS
330
63
102
}
100
AcDbEntity
  8
0
370
              -2
390
0
  6
Continuous
 62
               0
100
AcDbCircle
 10
1664.404314850734
 20
5337.7586643425884
 30
0.0
 40
1.9998779296875
  0
HATCH
  5
63
100
AcDbEntity
  8
0
370
              -2
390
0
  6
Continuous
 62
               0
100
AcDbHatch
 10
0.0
 20
0.0
 30
0.0
210
0.0
220
0.0
230
1.0
  2
SOLID
 70
               1
 71
               1
 91
        1
 92
        1
 93
        1
 72
               2
 10
1664.404314850734
 20
5337.7586643425884
 40
1.9998779296875
 50
0.0
 51
360.0
 73
               0
 97
        1
330
62
 75
               0
 76
               1
 98
        1
 10
0.0
 20
0.0
  0
MTEXT
  5
64
100
AcDbEntity
  8
0
390
0
 62
               0
100
AcDbMText
 10
1590.5918131685585
 20
5371.636281530089
 30
0.0
 40
24.432617187500004
 41
0.0
 71
               1
 72
               1
  1
100
  7
ＭＳ ゴシック
 73
               1
 44
0.7828267384257843
  0
POINT
  5
65
100
AcDbEntity
  8
Defpoints
370
               0
390
0
 62
               0
100
AcDbPoint
 10
1664.404314850734
 20
5178.4773144559176
 30
0.0
  0
POINT
  5
66
100
AcDbEntity
  8
Defpoints
370
               0
390
0
 62
               0
100
AcDbPoint
 10
1564.404314850734
 20
5177.4773144559176
 30
0.0
  0
POINT
  5
67
100
AcDbEntity
  8
Defpoints
370
               0
390
0
 62
               0
100
AcDbPoint
 10
1564.404314850734
 20
5337.7586643425884
 30
0.0
  0
ENDBLK
  5
68
100
AcDbEntity
  8
notes
390
0
100
AcDbBlockEnd
  0
BLOCK
  5
69
100
AcDbEntity
  8
notes
390
0
100
AcDbBlockBegin
  2
*D4
 70
               1
 10
0.0
 20
0.0
 30
0.0
  3
*D4
  1

  0
LINE
  5
6A
100
AcDbEntity
  8
0
370
              -2
390
0
  6
Continuous
 62
               0
100
AcDbLine
 10
1664.404314850734
 20
5211.2586643425884
 30
0.0
 11
1664.404314850734
 21
5337.7586643425884
 31
0.0
  0
LINE
  5
6B
100
AcDbEntity
  8
0
370
              -2
390
0
  6
Continuous
 62
               0
100
AcDbLine
 10
1764.4043148507335
 20
5210.2586643425884
 30
0.0
 11
1764.4043148507335
 21
5337.7586643425884
 31
0.0
  0
LINE
  5
6C
100
AcDbEntity
  8
0
370
              -2
390
0
  6
Continuous
 62
               0
100
AcDbLine
 10
1664.404314850734
 20
5337.7586643425884
 30
0.0
 11
1764.4043148507335
 21
5337.7586643425884
 31
0.0
  0
CIRCLE
  5
6D
102
{ACAD_REACTORS
330
6E
102
}
100
AcDbEntity
  8
0
370
              -2
390
0
  6
Continuous
 62
               0
100
AcDbCircle
 10
1664.404314850734
 20
5337.7586643425884
 30
0.0
 40
1.9998779296875
  0
HATCH
  5
6E
100
AcDbEntity
  8
0
370
              -2
390
0
  6
Continuous
 62
               0
100
AcDbHatch
 10
0.0
 20
0.0
 30
0.0
210
0.0
220
0.0
230
1.0
  2
SOLID
 70
               1
 71
               1
 91
        1
 92
        1
 93
        1
 72
               2
 10
1664.404314850734
 20
5337.7586643425884
 40
1.9998779296875
 50
0.0
 51
360.0
 73
               0
 97
        1
330
6D
 75
               0
 76
               1
 98
        1
 10
0.0
 20
0.0
  0
CIRCLE
  5
6F
102
{ACAD_REACTORS
330
70
102
}
100
AcDbEntity
  8
0
370
              -2
390
0
  6
Continuous
 62
               0
100
AcDbCircle
 10
1764.4043148507335
 20
5337.7586643425884
 30
0.0
 40
1.9998779296875
  0
HATCH
  5
70
100
AcDbEntity
  8
0
370
              -2
390
0
  6
Continuous
 62
               0
100
AcDbHatch
 10
0.0
 20
0.0
 30
0.0
210
0.0
220
0.0
230
1.0
  2
SOLID
 70
               1
 71
               1
 91
        1
 92
        1
 93
        1
 72
               2
 10
1764.4043148507335
 20
5337.7586643425884
 40
1.9998779296875
 50
0.0
 51
360.0
 73
               0
 97
        1
330
6F
 75
               0
 76
               1
 98
        1
 10
0.0
 20
0.0
  0
MTEXT
  5
71
100
AcDbEntity
  8
0
390
0
 62
               0
100
AcDbMText
 10
1690.5918131685582
 20
5371.636281530089
 30
0.0
 40
24.432617187500004
 41
0.0
 71
               1
 72
               1
  1
100
  7
ＭＳ ゴシック
 73
               1
 44
0.7828267384257843
  0
POINT
  5
72
100
AcDbEntity
  8
Defpoints
370
               0
390
0
 62
               0
100
AcDbPoint
 10
1764.4043148507335
 20
5185.2586643425884
 30
0.0
  0
POINT
  5
73
100
AcDbEntity
  8
Defpoints
370
               0
390
0
 62
               0
100
AcDbPoint
 10
1664.404314850734
 20
5186.2586643425884
 30
0.0
  0
POINT
  5
74
100
AcDbEntity
  8
Defpoints
370
               0
390
0
 62
               0
100
AcDbPoint
 10
1664.404314850734
 20
5337.7586643425884
 30
0.0
  0
ENDBLK
  5
75
100
AcDbEntity
  8
notes
390
0
100
AcDbBlockEnd
  0
BLOCK
  5
76
100
AcDbEntity
  8
notes
390
0
100
AcDbBlockBegin
  2
*D5
 70
               1
 10
0.0
 20
0.0
 30
0.0
  3
*D5
  1

  0
LINE
  5
77
100
AcDbEntity
  8
0
370
              -2
390
0
  6
Continuous
 62
               0
100
AcDbLine
 10
2579.0568226108494
 20
5229.8713458124103
 30
0.0
 11
2724.0568226108489
 21
5229.8713458124103
 31
0.0
  0
LINE
  5
78
100
AcDbEntity
  8
0
370
              -2
390
0
  6
Continuous
 62
               0
100
AcDbLine
 10
2579.0568226108494
 20
5199.8713458124103
 30
0.0
 11
2724.0568226108489
 21
5199.8713458124103
 31
0.0
  0
LINE
  5
79
100
AcDbEntity
  8
0
370
              -2
390
0
  6
Continuous
 62
               0
100
AcDbLine
 10
2724.0568226108489
 20
5229.8713458124103
 30
0.0
 11
2724.0568226108489
 21
5294.1012571357396
 31
0.0
  0
LINE
  5
7A
100
AcDbEntity
  8
0
370
              -2
390
0
  6
Continuous
 62
               0
100
AcDbLine
 10
2724.0568226108489
 20
5229.8713458124103
 30
0.0
 11
2724.0568226108489
 21
5199.8713458124103
 31
0.0
  0
CIRCLE
  5
7B
102
{ACAD_REACTORS
330
7C
102
}
100
AcDbEntity
  8
0
370
              -2
390
0
  6
Continuous
 62
               0
100
AcDbCircle
 10
2724.0568226108489
 20
5229.8713458124103
 30
0.0
 40
1.9998779296875
  0
HATCH
  5
7C
100
AcDbEntity
  8
0
370
              -2
390
0
  6
Continuous
 62
               0
100
AcDbHatch
 10
0.0
 20
0.0
 30
0.0
210
0.0
220
0.0
230
1.0
  2
SOLID
 70
               1
 71
               1
 91
        1
 92
        1
 93
        1
 72
               2
 10
2724.0568226108489
 20
5229.8713458124103
 40
1.9998779296875
 50
0.0
 51
360.0
 73
               0
 97
        1
330
7B
 75
               0
 76
               1
 98
        1
 10
0.0
 20
0.0
  0
CIRCLE
  5
7D
102
{ACAD_REACTORS
330
7E
102
}
100
AcDbEntity
  8
0
370
              -2
390
0
  6
Continuous
 62
               0
100
AcDbCircle
 10
2724.0568226108489
 20
5199.8713458124103
 30
0.0
 40
1.9998779296875
  0
HATCH
  5
7E
100
AcDbEntity
  8
0
370
              -2
390
0
  6
Continuous
 62
               0
100
AcDbHatch
 10
0.0
 20
0.0
 30
0.0
210
0.0
220
0.0
230
1.0
  2
SOLID
 70
               1
 71
               1
 91
        1
 92
        1
 93
        1
 72
               2
 10
2724.0568226108489
 20
5199.8713458124103
 40
1.9998779296875
 50
0.0
 51
360.0
 73
               0
 97
        1
330
7D
 75
               0
 76
               1
 98
        1
 10
0.0
 20
0.0
  0
MTEXT
  5
7F
100
AcDbEntity
  8
0
390
0
 62
               0
100
AcDbMText
 10
2690.1792054233492
 20
5262.3512571357396
 30
0.0
 40
24.432617187500004
 41
0.0
 71
               1
 72
               1
  1
30
  7
ＭＳ ゴシック
 11
0.0
 21
1.0
 31
0.0
 73
               1
 44
0.7828267384257843
  0
POINT
  5
80
100
AcDbEntity
  8
Defpoints
370
               0
390
0
 62
               0
100
AcDbPoint
 10
2554.0568226108494
 20
5199.8713458124103
 30
0.0
  0
POINT
  5
81
100
AcDbEntity
  8
Defpoints
370
               0
390
0
 62
               0
100
AcDbPoint
 10
2554.0568226108494
 20
5229.8713458124103
 30
0.0
  0
POINT
  5
82
100
AcDbEntity
  8
Defpoints
370
               0
390
0
 62
               0
100
AcDbPoint
 10
2724.0568226108489
 20
5229.8713458124103
 30
0.0
  0
ENDBLK
  5
83
100
AcDbEntity
  8
notes
390
0
100
AcDbBlockEnd
  0
BLOCK
  5
84
100
AcDbEntity
  8
notes
390
0
100
AcDbBlockBegin
  2
*D6
 70
               1
 10
0.0
 20
0.0
 30
0.0
  3
*D6
  1

  0
LINE
  5
85
100
AcDbEntity
  8
0
370
              -2
390
0
  6
Continuous
 62
               0
100
AcDbLine
 10
2579.0568226108494
 20
5199.8713458124103
 30
0.0
 11
2724.0568226108489
 21
5199.8713458124103
 31
0.0
  0
LINE
  5
86
100
AcDbEntity
  8
0
370
              -2
390
0
  6
Continuous
 62
               0
100
AcDbLine
 10
2579.0568226108494
 20
4899.8713458124103
 30
0.0
 11
2724.0568226108489
 21
4899.8713458124103
 31
0.0
  0
LINE
  5
87
100
AcDbEntity
  8
0
370
              -2
390
0
  6
Continuous
 62
               0
100
AcDbLine
 10
2724.0568226108489
 20
5199.8713458124103
 30
0.0
 11
2724.0568226108489
 21
4899.8713458124103
 31
0.0
  0
CIRCLE
  5
88
102
{ACAD_REACTORS
330
89
102
}
100
AcDbEntity
  8
0
370
              -2
390
0
  6
Continuous
 62
               0
100
AcDbCircle
 10
2724.0568226108489
 20
5199.8713458124103
 30
0.0
 40
1.9998779296875
  0
HATCH
  5
89
100
AcDbEntity
  8
0
370
              -2
390
0
  6
Continuous
 62
               0
100
AcDbHatch
 10
0.0
 20
0.0
 30
0.0
210
0.0
220
0.0
230
1.0
  2
SOLID
 70
               1
 71
               1
 91
        1
 92
        1
 93
        1
 72
               2
 10
2724.0568226108489
 20
5199.8713458124103
 40
1.9998779296875
 50
0.0
 51
360.0
 73
               0
 97
        1
330
88
 75
               0
 76
               1
 98
        1
 10
0.0
 20
0.0
  0
CIRCLE
  5
8A
102
{ACAD_REACTORS
330
8B
102
}
100
AcDbEntity
  8
0
370
              -2
390
0
  6
Continuous
 62
               0
100
AcDbCircle
 10
2724.0568226108489
 20
4899.8713458124103
 30
0.0
 40
1.9998779296875
  0
HATCH
  5
8B
100
AcDbEntity
  8
0
370
              -2
390
0
  6
Continuous
 62
               0
100
AcDbHatch
 10
0.0
 20
0.0
 30
0.0
210
0.0
220
0.0
230
1.0
  2
SOLID
 70
               1
 71
               1
 91
        1
 92
        1
 93
        1
 72
               2
 10
2724.0568226108489
 20
4899.8713458124103
 40
1.9998779296875
 50
0.0
 51
360.0
 73
               0
 97
        1
330
8A
 75
               0
 76
               1
 98
        1
 10
0.0
 20
0.0
  0
MTEXT
  5
8C
100
AcDbEntity
  8
0
390
0
 62
               0
100
AcDbMText
 10
2690.1792054233492
 20
5026.0588441302352
 30
0.0
 40
24.432617187500004
 41
0.0
 71
               1
 72
               1
  1
300
  7
ＭＳ ゴシック
 11
0.0
 21
1.0
 31
0.0
 73
               1
 44
0.7828267384257843
  0
POINT
  5
8D
100
AcDbEntity
  8
Defpoints
370
               0
390
0
 62
               0
100
AcDbPoint
 10
2554.0568226108494
 20
4899.8713458124103
 30
0.0
  0
POINT
  5
8E
100
AcDbEntity
  8
Defpoints
370
               0
390
0
 62
               0
100
AcDbPoint
 10
2554.0568226108494
 20
5199.8713458124103
 30
0.0
  0
POINT
  5
8F
100
AcDbEntity
  8
Defpoints
370
               0
390
0
 62
               0
100
AcDbPoint
 10
2724.0568226108489
 20
5199.8713458124103
 30
0.0
  0
ENDBLK
  5
90
100
AcDbEntity
  8
notes
390
0
100
AcDbBlockEnd
  0
BLOCK
  5
91
100
AcDbEntity
  8
notes
390
0
100
AcDbBlockBegin
  2
*D7
 70
               1
 10
0.0
 20
0.0
 30
0.0
  3
*D7
  1

  0
LINE
  5
92
100
AcDbEntity
  8
0
370
              -2
390
0
  6
Continuous
 62
               0
100
AcDbLine
 10
2484.0568226108494
 20
4932.2169985801866
 30
0.0
 11
2484.0568226108494
 21
4799.8713458124103
 31
0.0
  0
LINE
  5
93
100
AcDbEntity
  8
0
370
              -2
390
0
  6
Continuous
 62
               0
100
AcDbLine
 10
2624.0568226108489
 20
4932.2169985801866
 30
0.0
 11
2624.0568226108489
 21
4799.8713458124103
 31
0.0
  0
LINE
  5
94
100
AcDbEntity
  8
0
370
              -2
390
0
  6
Continuous
 62
               0
100
AcDbLine
 10
2484.0568226108494
 20
4799.8713458124103
 30
0.0
 11
2624.0568226108489
 21
4799.8713458124103
 31
0.0
  0
CIRCLE
  5
95
102
{ACAD_REACTORS
330
96
102
}
100
AcDbEntity
  8
0
370
              -2
390
0
  6
Continuous
 62
               0
100
AcDbCircle
 10
2484.0568226108494
 20
4799.8713458124103
 30
0.0
 40
1.9998779296875
  0
HATCH
  5
96
100
AcDbEntity
  8
0
370
              -2
390
0
  6
Continuous
 62
               0
100
AcDbHatch
 10
0.0
 20
0.0
 30
0.0
210
0.0
220
0.0
230
1.0
  2
SOLID
 70
               1
 71
               1
 91
        1
 92
        1
 93
        1
 72
               2
 10
2484.0568226108494
 20
4799.8713458124103
 40
1.9998779296875
 50
0.0
 51
360.0
 73
               0
 97
        1
330
95
 75
               0
 76
               1
 98
        1
 10
0.0
 20
0.0
  0
CIRCLE
  5
97
102
{ACAD_REACTORS
330
98
102
}
100
AcDbEntity
  8
0
370
              -2
390
0
  6
Continuous
 62
               0
100
AcDbCircle
 10
2624.0568226108489
 20
4799.8713458124103
 30
0.0
 40
1.9998779296875
  0
HATCH
  5
98
100
AcDbEntity
  8
0
370
              -2
390
0
  6
Continuous
 62
               0
100
AcDbHatch
 10
0.0
 20
0.0
 30
0.0
210
0.0
220
0.0
230
1.0
  2
SOLID
 70
               1
 71
               1
 91
        1
 92
        1
 93
        1
 72
               2
 10
2624.0568226108489
 20
4799.8713458124103
 40
1.9998779296875
 50
0.0
 51
360.0
 73
               0
 97
        1
330
97
 75
               0
 76
               1
 98
        1
 10
0.0
 20
0.0
  0
MTEXT
  5
99
100
AcDbEntity
  8
0
390
0
 62
               0
100
AcDbMText
 10
2530.2443209286735
 20
4833.7489629999109
 30
0.0
 40
24.432617187500004
 41
0.0
 71
               1
 72
               1
  1
140
  7
ＭＳ ゴシック
 73
               1
 44
0.7828267384257843
  0
POINT
  5
9A
100
AcDbEntity
  8
Defpoints
370
               0
390
0
 62
               0
100
AcDbPoint
 10
2624.0568226108489
 20
4957.2169985801866
 30
0.0
  0
POINT
  5
9B
100
AcDbEntity
  8
Defpoints
370
               0
390
0
 62
               0
100
AcDbPoint
 10
2484.0568226108494
 20
4957.2169985801866
 30
0.0
  0
POINT
  5
9C
100
AcDbEntity
  8
Defpoints
370
               0
390
0
 62
               0
100
AcDbPoint
 10
2484.0568226108494
 20
4799.8713458124103
 30
0.0
  0
ENDBLK
  5
9D
100
AcDbEntity
  8
notes
390
0
100
AcDbBlockEnd
  0
BLOCK
  5
9E
100
AcDbEntity
  8
notes
390
0
100
AcDbBlockBegin
  2
*D8
 70
               1
 10
0.0
 20
0.0
 30
0.0
  3
*D8
  1

  0
LINE
  5
9F
100
AcDbEntity
  8
0
370
              -2
390
0
  6
Continuous
 62
               0
100
AcDbLine
 10
1374.404314850734
 20
4825.2796439221192
 30
0.0
 11
1374.404314850734
 21
4657.7586643425884
 31
0.0
  0
LINE
  5
A0
100
AcDbEntity
  8
0
370
              -2
390
0
  6
Continuous
 62
               0
100
AcDbLine
 10
1954.4043148507333
 20
4827.17153215699
 30
0.0
 11
1954.4043148507333
 21
4657.7586643425884
 31
0.0
  0
LINE
  5
A1
100
AcDbEntity
  8
0
370
              -2
390
0
  6
Continuous
 62
               0
100
AcDbLine
 10
1374.404314850734
 20
4657.7586643425884
 30
0.0
 11
1954.4043148507333
 21
4657.7586643425884
 31
0.0
  0
CIRCLE
  5
A2
102
{ACAD_REACTORS
330
A3
102
}
100
AcDbEntity
  8
0
370
              -2
390
0
  6
Continuous
 62
               0
100
AcDbCircle
 10
1374.404314850734
 20
4657.7586643425884
 30
0.0
 40
1.9998779296875
  0
HATCH
  5
A3
100
AcDbEntity
  8
0
370
              -2
390
0
  6
Continuous
 62
               0
100
AcDbHatch
 10
0.0
 20
0.0
 30
0.0
210
0.0
220
0.0
230
1.0
  2
SOLID
 70
               1
 71
               1
 91
        1
 92
        1
 93
        1
 72
               2
 10
1374.404314850734
 20
4657.7586643425884
 40
1.9998779296875
 50
0.0
 51
360.0
 73
               0
 97
        1
330
A2
 75
               0
 76
               1
 98
        1
 10
0.0
 20
0.0
  0
CIRCLE
  5
A4
102
{ACAD_REACTORS
330
A5
102
}
100
AcDbEntity
  8
0
370
              -2
390
0
  6
Continuous
 62
               0
100
AcDbCircle
 10
1954.4043148507333
 20
4657.7586643425884
 30
0.0
 40
1.9998779296875
  0
HATCH
  5
A5
100
AcDbEntity
  8
0
370
              -2
390
0
  6
Continuous
 62
               0
100
AcDbHatch
 10
0.0
 20
0.0
 30
0.0
210
0.0
220
0.0
230
1.0
  2
SOLID
 70
               1
 71
               1
 91
        1
 92
        1
 93
        1
 72
               2
 10
1954.4043148507333
 20
4657.7586643425884
 40
1.9998779296875
 50
0.0
 51
360.0
 73
               0
 97
        1
330
A4
 75
               0
 76
               1
 98
        1
 10
0.0
 20
0.0
  0
MTEXT
  5
A6
100
AcDbEntity
  8
0
390
0
 62
               0
100
AcDbMText
 10
1640.591813168558
 20
4691.636281530089
 30
0.0
 40
24.432617187500004
 41
0.0
 71
               1
 72
               1
  1
580
  7
ＭＳ ゴシック
 73
               1
 44
0.7828267384257843
  0
POINT
  5
A7
100
AcDbEntity
  8
Defpoints
370
               0
390
0
 62
               0
100
AcDbPoint
 10
1954.4043148507333
 20
4852.17153215699
 30
0.0
  0
POINT
  5
A8
100
AcDbEntity
  8
Defpoints
370
               0
390
0
 62
               0
100
AcDbPoint
 10
1374.404314850734
 20
4850.2796439221192
 30
0.0
  0
POINT
  5
A9
100
AcDbEntity
  8
Defpoints
370
               0
390
0
 62
               0
100
AcDbPoint
 10
1374.404314850734
 20
4657.7586643425884
 30
0.0
  0
ENDBLK
  5
AA
100
AcDbEntity
  8
notes
390
0
100
AcDbBlockEnd
  0
BLOCK
  5
AB
100
AcDbEntity
  8
notes
390
0
100
AcDbBlockBegin
  2
*D9
 70
               1
 10
0.0
 20
0.0
 30
0.0
  3
*D9
  1

  0
LINE
  5
AC
100
AcDbEntity
  8
0
370
              -2
390
0
  6
Continuous
 62
               0
100
AcDbLine
 10
1344.404314850734
 20
5166.7172706662423
 30
0.0
 11
1344.404314850734
 21
5387.7586643425884
 31
0.0
  0
LINE
  5
AD
100
AcDbEntity
  8
0
370
              -2
390
0
  6
Continuous
 62
               0
100
AcDbLine
 10
1984.4043148507333
 20
5166.7172706662222
 30
0.0
 11
1984.4043148507333
 21
5387.7586643425884
 31
0.0
  0
LINE
  5
AE
100
AcDbEntity
  8
0
370
              -2
390
0
  6
Continuous
 62
               0
100
AcDbLine
 10
1344.404314850734
 20
5387.7586643425884
 30
0.0
 11
1984.4043148507333
 21
5387.7586643425884
 31
0.0
  0
CIRCLE
  5
AF
102
{ACAD_REACTORS
330
B0
102
}
100
AcDbEntity
  8
0
370
              -2
390
0
  6
Continuous
 62
               0
100
AcDbCircle
 10
1344.404314850734
 20
5387.7586643425884
 30
0.0
 40
1.9998779296875
  0
HATCH
  5
B0
100
AcDbEntity
  8
0
370
              -2
390
0
  6
Continuous
 62
               0
100
AcDbHatch
 10
0.0
 20
0.0
 30
0.0
210
0.0
220
0.0
230
1.0
  2
SOLID
 70
               1
 71
               1
 91
        1
 92
        1
 93
        1
 72
               2
 10
1344.404314850734
 20
5387.7586643425884
 40
1.9998779296875
 50
0.0
 51
360.0
 73
               0
 97
        1
330
AF
 75
               0
 76
               1
 98
        1
 10
0.0
 20
0.0
  0
CIRCLE
  5
B1
102
{ACAD_REACTORS
330
B2
102
}
100
AcDbEntity
  8
0
370
              -2
390
0
  6
Continuous
 62
               0
100
AcDbCircle
 10
1984.4043148507333
 20
5387.7586643425884
 30
0.0
 40
1.9998779296875
  0
HATCH
  5
B2
100
AcDbEntity
  8
0
370
              -2
390
0
  6
Continuous
 62
               0
100
AcDbHatch
 10
0.0
 20
0.0
 30
0.0
210
0.0
220
0.0
230
1.0
  2
SOLID
 70
               1
 71
               1
 91
        1
 92
        1
 93
        1
 72
               2
 10
1984.4043148507333
 20
5387.7586643425884
 40
1.9998779296875
 50
0.0
 51
360.0
 73
               0
 97
        1
330
B1
 75
               0
 76
               1
 98
        1
 10
0.0
 20
0.0
  0
MTEXT
  5
B3
100
AcDbEntity
  8
0
390
0
 62
               0
100
AcDbMText
 10
1637.260370659058
 20
5421.636281530089
 30
0.0
 40
24.432617187500004
 41
0.0
 71
               1
 72
               1
  1
640
  7
ＭＳ ゴシック
 73
               1
 44
0.7828267384257843
  0
POINT
  5
B4
100
AcDbEntity
  8
Defpoints
370
               0
390
0
 62
               0
100
AcDbPoint
 10
1984.4043148507333
 20
5141.7172706662222
 30
0.0
  0
POINT
  5
B5
100
AcDbEntity
  8
Defpoints
370
               0
390
0
 62
               0
100
AcDbPoint
 10
1344.404314850734
 20
5141.7172706662423
 30
0.0
  0
POINT
  5
B6
100
AcDbEntity
  8
Defpoints
370
               0
390
0
 62
               0
100
AcDbPoint
 10
1344.404314850734
 20
5387.7586643425884
 30
0.0
  0
ENDBLK
  5
B7
100
AcDbEntity
  8
notes
390
0
100
AcDbBlockEnd
  0
BLOCK
  5
B8
100
AcDbEntity
  8
notes
390
0
100
AcDbBlockBegin
  2
*D10
 70
               1
 10
0.0
 20
0.0
 30
0.0
  3
*D10
  1

  0
LINE
  5
B9
100
AcDbEntity
  8
0
370
              -2
390
0
  6
Continuous
 62
               0
100
AcDbLine
 10
1414.0113123462679
 20
5237.2651277537561
 30
0.0
 11
1244.404314850734
 21
5237.2651277537561
 31
0.0
  0
LINE
  5
BA
100
AcDbEntity
  8
0
370
              -2
390
0
  6
Continuous
 62
               0
100
AcDbLine
 10
1327.0728723412335
 20
5122.7586643425884
 30
0.0
 11
1244.404314850734
 21
5122.7586643425884
 31
0.0
  0
LINE
  5
BB
100
AcDbEntity
  8
0
370
              -2
390
0
  6
Continuous
 62
               0
100
AcDbLine
 10
1244.404314850734
 20
5237.2651277537561
 30
0.0
 11
1244.404314850734
 21
5122.7586643425884
 31
0.0
  0
CIRCLE
  5
BC
102
{ACAD_REACTORS
330
BD
102
}
100
AcDbEntity
  8
0
370
              -2
390
0
  6
Continuous
 62
               0
100
AcDbCircle
 10
1244.404314850734
 20
5237.2651277537561
 30
0.0
 40
1.9998779296875
  0
HATCH
  5
BD
100
AcDbEntity
  8
0
370
              -2
390
0
  6
Continuous
 62
               0
100
AcDbHatch
 10
0.0
 20
0.0
 30
0.0
210
0.0
220
0.0
230
1.0
  2
SOLID
 70
               1
 71
               1
 91
        1
 92
        1
 93
        1
 72
               2
 10
1244.404314850734
 20
5237.2651277537561
 40
1.9998779296875
 50
0.0
 51
360.0
 73
               0
 97
        1
330
BC
 75
               0
 76
               1
 98
        1
 10
0.0
 20
0.0
  0
CIRCLE
  5
BE
102
{ACAD_REACTORS
330
BF
102
}
100
AcDbEntity
  8
0
370
              -2
390
0
  6
Continuous
 62
               0
100
AcDbCircle
 10
1244.404314850734
 20
5122.7586643425884
 30
0.0
 40
1.9998779296875
  0
HATCH
  5
BF
100
AcDbEntity
  8
0
370
              -2
390
0
  6
Continuous
 62
               0
100
AcDbHatch
 10
0.0
 20
0.0
 30
0.0
210
0.0
220
0.0
230
1.0
  2
SOLID
 70
               1
 71
               1
 91
        1
 92
        1
 93
        1
 72
               2
 10
1244.404314850734
 20
5122.7586643425884
 40
1.9998779296875
 50
0.0
 51
360.0
 73
               0
 97
        1
330
BE
 75
               0
 76
               1
 98
        1
 10
0.0
 20
0.0
  0
MTEXT
  5
C0
100
AcDbEntity
  8
0
390
0
 62
               0
100
AcDbMText
 10
1210.5266976632338
 20
5156.1993943659963
 30
0.0
 40
24.432617187500004
 41
0.0
 71
               1
 72
               1
  1
115
  7
ＭＳ ゴシック
 11
0.0
 21
1.0
 31
0.0
 73
               1
 44
0.7828267384257843
  0
POINT
  5
C1
100
AcDbEntity
  8
Defpoints
370
               0
390
0
 62
               0
100
AcDbPoint
 10
1352.0728723412335
 20
5122.7586643425884
 30
0.0
  0
POINT
  5
C2
100
AcDbEntity
  8
Defpoints
370
               0
390
0
 62
               0
100
AcDbPoint
 10
1439.0113123462679
 20
5237.2651277537561
 30
0.0
  0
POINT
  5
C3
100
AcDbEntity
  8
Defpoints
370
               0
390
0
 62
               0
100
AcDbPoint
 10
1244.404314850734
 20
5237.2651277537561
 30
0.0
  0
ENDBLK
  5
C4
100
AcDbEntity
  8
notes
390
0
100
AcDbBlockEnd
  0
BLOCK
  5
C5
100
AcDbEntity
  8
notes
390
0
100
AcDbBlockBegin
  2
*D11
 70
               1
 10
0.0
 20
0.0
 30
0.0
  3
*D11
  1

  0
LINE
  5
C6
100
AcDbEntity
  8
0
370
              -2
390
0
  6
Continuous
 62
               0
100
AcDbLine
 10
1322.0008879267714
 20
5122.7586643425884
 30
0.0
 11
1244.404314850734
 21
5122.7586643425884
 31
0.0
  0
LINE
  5
C7
100
AcDbEntity
  8
0
370
              -2
390
0
  6
Continuous
 62
               0
100
AcDbLine
 10
1424.6670572793664
 20
4782.7586643425884
 30
0.0
 11
1244.404314850734
 21
4782.7586643425884
 31
0.0
  0
LINE
  5
C8
100
AcDbEntity
  8
0
370
              -2
390
0
  6
Continuous
 62
               0
100
AcDbLine
 10
1244.404314850734
 20
5122.7586643425884
 30
0.0
 11
1244.404314850734
 21
4782.7586643425884
 31
0.0
  0
CIRCLE
  5
C9
102
{ACAD_REACTORS
330
CA
102
}
100
AcDbEntity
  8
0
370
              -2
390
0
  6
Continuous
 62
               0
100
AcDbCircle
 10
1244.404314850734
 20
5122.7586643425884
 30
0.0
 40
1.9998779296875
  0
HATCH
  5
CA
100
AcDbEntity
  8
0
370
              -2
390
0
  6
Continuous
 62
               0
100
AcDbHatch
 10
0.0
 20
0.0
 30
0.0
210
0.0
220
0.0
230
1.0
  2
SOLID
 70
               1
 71
               1
 91
        1
 92
        1
 93
        1
 72
               2
 10
1244.404314850734
 20
5122.7586643425884
 40
1.9998779296875
 50
0.0
 51
360.0
 73
               0
 97
        1
330
C9
 75
               0
 76
               1
 98
        1
 10
0.0
 20
0.0
  0
CIRCLE
  5
CB
102
{ACAD_REACTORS
330
CC
102
}
100
AcDbEntity
  8
0
370
              -2
390
0
  6
Continuous
 62
               0
100
AcDbCircle
 10
1244.404314850734
 20
4782.7586643425884
 30
0.0
 40
1.9998779296875
  0
HATCH
  5
CC
100
AcDbEntity
  8
0
370
              -2
390
0
  6
Continuous
 62
               0
100
AcDbHatch
 10
0.0
 20
0.0
 30
0.0
210
0.0
220
0.0
230
1.0
  2
SOLID
 70
               1
 71
               1
 91
        1
 92
        1
 93
        1
 72
               2
 10
1244.404314850734
 20
4782.7586643425884
 40
1.9998779296875
 50
0.0
 51
360.0
 73
               0
 97
        1
330
CB
 75
               0
 76
               1
 98
        1
 10
0.0
 20
0.0
  0
MTEXT
  5
CD
100
AcDbEntity
  8
0
390
0
 62
               0
100
AcDbMText
 10
1210.5266976632338
 20
4928.9461626604134
 30
0.0
 40
24.432617187500004
 41
0.0
 71
               1
 72
               1
  1
340
  7
ＭＳ ゴシック
 11
0.0
 21
1.0
 31
0.0
 73
               1
 44
0.7828267384257843
  0
POINT
  5
CE
100
AcDbEntity
  8
Defpoints
370
               0
390
0
 62
               0
100
AcDbPoint
 10
1449.6670572793664
 20
4782.7586643425884
 30
0.0
  0
POINT
  5
CF
100
AcDbEntity
  8
Defpoints
370
               0
390
0
 62
               0
100
AcDbPoint
 10
1347.0008879267714
 20
5122.7586643425884
 30
0.0
  0
POINT
  5
D0
100
AcDbEntity
  8
Defpoints
370
               0
390
0
 62
               0
100
AcDbPoint
 10
1244.404314850734
 20
5122.7586643425884
 30
0.0
  0
ENDBLK
  5
D1
100
AcDbEntity
  8
notes
390
0
100
AcDbBlockEnd
  0
BLOCK
  5
D2
100
AcDbEntity
  8
notes
390
0
100
AcDbBlockBegin
  2
*D12
 70
               1
 10
0.0
 20
0.0
 30
0.0
  3
*D12
  1

  0
LINE
  5
D3
100
AcDbEntity
  8
0
370
              -2
390
0
  6
Continuous
 62
               0
100
AcDbLine
 10
1909.9235150015268
 20
5237.6336326222954
 30
0.0
 11
2084.4043148507335
 21
5237.6336326222954
 31
0.0
  0
LINE
  5
D4
100
AcDbEntity
  8
0
370
              -2
390
0
  6
Continuous
 62
               0
100
AcDbLine
 10
1795.0728723412335
 20
4757.7586643425884
 30
0.0
 11
2084.4043148507335
 21
4757.7586643425884
 31
0.0
  0
LINE
  5
D5
100
AcDbEntity
  8
0
370
              -2
390
0
  6
Continuous
 62
               0
100
AcDbLine
 10
2084.4043148507335
 20
5237.6336326222954
 30
0.0
 11
2084.4043148507335
 21
4757.7586643425884
 31
0.0
  0
CIRCLE
  5
D6
102
{ACAD_REACTORS
330
D7
102
}
100
AcDbEntity
  8
0
370
              -2
390
0
  6
Continuous
 62
               0
100
AcDbCircle
 10
2084.4043148507335
 20
5237.6336326222954
 30
0.0
 40
1.9998779296875
  0
HATCH
  5
D7
100
AcDbEntity
  8
0
370
              -2
390
0
  6
Continuous
 62
               0
100
AcDbHatch
 10
0.0
 20
0.0
 30
0.0
210
0.0
220
0.0
230
1.0
  2
SOLID
 70
               1
 71
               1
 91
        1
 92
        1
 93
        1
 72
               2
 10
2084.4043148507335
 20
5237.6336326222954
 40
1.9998779296875
 50
0.0
 51
360.0
 73
               0
 97
        1
330
D6
 75
               0
 76
               1
 98
        1
 10
0.0
 20
0.0
  0
CIRCLE
  5
D8
102
{ACAD_REACTORS
330
D9
102
}
100
AcDbEntity
  8
0
370
              -2
390
0
  6
Continuous
 62
               0
100
AcDbCircle
 10
2084.4043148507335
 20
4757.7586643425884
 30
0.0
 40
1.9998779296875
  0
HATCH
  5
D9
100
AcDbEntity
  8
0
370
              -2
390
0
  6
Continuous
 62
               0
100
AcDbHatch
 10
0.0
 20
0.0
 30
0.0
210
0.0
220
0.0
230
1.0
  2
SOLID
 70
               1
 71
               1
 91
        1
 92
        1
 93
        1
 72
               2
 10
2084.4043148507335
 20
4757.7586643425884
 40
1.9998779296875
 50
0.0
 51
360.0
 73
               0
 97
        1
330
D8
 75
               0
 76
               1
 98
        1
 10
0.0
 20
0.0
  0
MTEXT
  5
DA
100
AcDbEntity
  8
0
390
0
 62
               0
100
AcDbMText
 10
2050.5266976632333
 20
4973.8836468002664
 30
0.0
 40
24.432617187500004
 41
0.0
 71
               1
 72
               1
  1
480
  7
ＭＳ ゴシック
 11
0.0
 21
1.0
 31
0.0
 73
               1
 44
0.7828267384257843
  0
POINT
  5
DB
100
AcDbEntity
  8
Defpoints
370
               0
390
0
 62
               0
100
AcDbPoint
 10
1770.0728723412335
 20
4757.7586643425884
 30
0.0
  0
POINT
  5
DC
100
AcDbEntity
  8
Defpoints
370
               0
390
0
 62
               0
100
AcDbPoint
 10
1884.9235150015268
 20
5237.6336326222954
 30
0.0
  0
POINT
  5
DD
100
AcDbEntity
  8
Defpoints
370
               0
390
0
 62
               0
100
AcDbPoint
 10
2084.4043148507335
 20
5237.6336326222954
 30
0.0
  0
ENDBLK
  5
DE
100
AcDbEntity
  8
notes
390
0
100
AcDbBlockEnd
  0
BLOCK
  5
DF
100
AcDbEntity
  8
notes
390
0
100
AcDbBlockBegin
  2
*D13
 70
               1
 10
0.0
 20
0.0
 30
0.0
  3
*D13
  1

  0
LINE
  5
E0
100
AcDbEntity
  8
0
370
              -2
390
0
  6
Continuous
 62
               0
100
AcDbLine
 10
1524.404314850734
 20
4051.0610510060442
 30
0.0
 11
1524.404314850734
 21
4141.4256131168486
 31
0.0
  0
LINE
  5
E1
100
AcDbEntity
  8
0
370
              -2
390
0
  6
Continuous
 62
               0
100
AcDbLine
 10
1804.4043148507335
 20
4051.0610510060442
 30
0.0
 11
1804.4043148507335
 21
4141.4256131168486
 31
0.0
  0
LINE
  5
E2
100
AcDbEntity
  8
0
370
              -2
390
0
  6
Continuous
 62
               0
100
AcDbLine
 10
1524.404314850734
 20
4141.4256131168486
 30
0.0
 11
1804.4043148507335
 21
4141.4256131168486
 31
0.0
  0
CIRCLE
  5
E3
102
{ACAD_REACTORS
330
E4
102
}
100
AcDbEntity
  8
0
370
              -2
390
0
  6
Continuous
 62
               0
100
AcDbCircle
 10
1524.404314850734
 20
4141.4256131168486
 30
0.0
 40
1.9998779296875
  0
HATCH
  5
E4
100
AcDbEntity
  8
0
370
              -2
390
0
  6
Continuous
 62
               0
100
AcDbHatch
 10
0.0
 20
0.0
 30
0.0
210
0.0
220
0.0
230
1.0
  2
SOLID
 70
               1
 71
               1
 91
        1
 92
        1
 93
        1
 72
               2
 10
1524.404314850734
 20
4141.4256131168486
 40
1.9998779296875
 50
0.0
 51
360.0
 73
               0
 97
        1
330
E3
 75
               0
 76
               1
 98
        1
 10
0.0
 20
0.0
  0
CIRCLE
  5
E5
102
{ACAD_REACTORS
330
E6
102
}
100
AcDbEntity
  8
0
370
              -2
390
0
  6
Continuous
 62
               0
100
AcDbCircle
 10
1804.4043148507335
 20
4141.4256131168486
 30
0.0
 40
1.9998779296875
  0
HATCH
  5
E6
100
AcDbEntity
  8
0
370
              -2
390
0
  6
Continuous
 62
               0
100
AcDbHatch
 10
0.0
 20
0.0
 30
0.0
210
0.0
220
0.0
230
1.0
  2
SOLID
 70
               1
 71
               1
 91
        1
 92
        1
 93
        1
 72
               2
 10
1804.4043148507335
 20
4141.4256131168486
 40
1.9998779296875
 50
0.0
 51
360.0
 73
               0
 97
        1
330
E5
 75
               0
 76
               1
 98
        1
 10
0.0
 20
0.0
  0
MTEXT
  5
E7
100
AcDbEntity
  8
0
390
0
 62
               0
100
AcDbMText
 10
1640.5918131685582
 20
4175.3032303043492
 30
0.0
 40
24.432617187500004
 41
0.0
 71
               1
 72
               1
  1
280
  7
ＭＳ ゴシック
 73
               1
 44
0.7828267384257843
  0
POINT
  5
E8
100
AcDbEntity
  8
Defpoints
370
               0
390
0
 62
               0
100
AcDbPoint
 10
1804.4043148507335
 20
4026.0610510060442
 30
0.0
  0
POINT
  5
E9
100
AcDbEntity
  8
Defpoints
370
               0
390
0
 62
               0
100
AcDbPoint
 10
1524.404314850734
 20
4026.0610510060442
 30
0.0
  0
POINT
  5
EA
100
AcDbEntity
  8
Defpoints
370
               0
390
0
 62
               0
100
AcDbPoint
 10
1524.404314850734
 20
4141.4256131168486
 30
0.0
  0
ENDBLK
  5
EB
100
AcDbEntity
  8
notes
390
0
100
AcDbBlockEnd
  0
BLOCK
  5
EC
100
AcDbEntity
  8
notes
390
0
100
AcDbBlockBegin
  2
*D14
 70
               1
 10
0.0
 20
0.0
 30
0.0
  3
*D14
  1

  0
LINE
  5
ED
100
AcDbEntity
  8
0
370
              -2
390
0
  6
Continuous
 62
               0
100
AcDbLine
 10
2532.000371552308
 20
4041.4256130621598
 30
0.0
 11
2528.000371552308
 21
4041.4256130621598
 31
0.0
  0
LINE
  5
EE
100
AcDbEntity
  8
0
370
              -2
390
0
  6
Continuous
 62
               0
100
AcDbLine
 10
2506.0831109247961
 20
3896.4256130550157
 30
0.0
 11
2528.000371552308
 21
3896.4256130550157
 31
0.0
  0
LINE
  5
EF
100
AcDbEntity
  8
0
370
              -2
390
0
  6
Continuous
 62
               0
100
AcDbLine
 10
2528.000371552308
 20
4041.4256130621598
 30
0.0
 11
2528.000371552308
 21
4222.875
 31
0.0
  0
LINE
  5
F0
100
AcDbEntity
  8
0
370
              -2
390
0
  6
Continuous
 62
               0
100
AcDbLine
 10
2528.000371552308
 20
4041.4256130621598
 30
0.0
 11
2528.000371552308
 21
3896.4256130550157
 31
0.0
  0
CIRCLE
  5
F1
102
{ACAD_REACTORS
330
F2
102
}
100
AcDbEntity
  8
0
370
              -2
390
0
  6
Continuous
 62
               0
100
AcDbCircle
 10
2528.000371552308
 20
4041.4256130621598
 30
0.0
 40
1.9998779296875
  0
HATCH
  5
F2
100
AcDbEntity
  8
0
370
              -2
390
0
  6
Continuous
 62
               0
100
AcDbHatch
 10
0.0
 20
0.0
 30
0.0
210
0.0
220
0.0
230
1.0
  2
SOLID
 70
               1
 71
               1
 91
        1
 92
        1
 93
        1
 72
               2
 10
2528.000371552308
 20
4041.4256130621598
 40
1.9998779296875
 50
0.0
 51
360.0
 73
               0
 97
        1
330
F1
 75
               0
 76
               1
 98
        1
 10
0.0
 20
0.0
  0
CIRCLE
  5
F3
102
{ACAD_REACTORS
330
F4
102
}
100
AcDbEntity
  8
0
370
              -2
390
0
  6
Continuous
 62
               0
100
AcDbCircle
 10
2528.000371552308
 20
3896.4256130550157
 30
0.0
 40
1.9998779296875
  0
HATCH
  5
F4
100
AcDbEntity
  8
0
370
              -2
390
0
  6
Continuous
 62
               0
100
AcDbHatch
 10
0.0
 20
0.0
 30
0.0
210
0.0
220
0.0
230
1.0
  2
SOLID
 70
               1
 71
               1
 91
        1
 92
        1
 93
        1
 72
               2
 10
2528.000371552308
 20
3896.4256130550157
 40
1.9998779296875
 50
0.0
 51
360.0
 73
               0
 97
        1
330
F3
 75
               0
 76
               1
 98
        1
 10
0.0
 20
0.0
  0
MTEXT
  5
F5
100
AcDbEntity
  8
0
390
0
 62
               0
100
AcDbMText
 10
2494.1227543648083
 20
4080.0
 30
0.0
 40
24.432617187500004
 41
0.0
 71
               1
 72
               1
  1
145(深さ)
  7
ＭＳ ゴシック
 11
0.0
 21
1.0
 31
0.0
 73
               1
 44
0.7828267384257843
  0
POINT
  5
F6
100
AcDbEntity
  8
Defpoints
370
               0
390
0
 62
               0
100
AcDbPoint
 10
2531.0831109247961
 20
3896.4256130550157
 30
0.0
  0
POINT
  5
F7
100
AcDbEntity
  8
Defpoints
370
               0
390
0
 62
               0
100
AcDbPoint
 10
2507.000371552308
 20
4041.4256130621598
 30
0.0
  0
POINT
  5
F8
100
AcDbEntity
  8
Defpoints
370
               0
390
0
 62
               0
100
AcDbPoint
 10
2528.000371552308
 20
4041.4256130621598
 30
0.0
  0
ENDBLK
  5
F9
100
AcDbEntity
  8
notes
390
0
100
AcDbBlockEnd
  0
BLOCK
  5
FA
100
AcDbEntity
  8
notes
390
0
100
AcDbBlockBegin
  2
*D15
 70
               1
 10
0.0
 20
0.0
 30
0.0
  3
*D15
  1

  0
LINE
  5
FB
100
AcDbEntity
  8
0
370
              -2
390
0
  6
Continuous
 62
               0
100
AcDbLine
 10
2531.0831109247961
 20
3836.4256130550157
 30
0.0
 11
2531.0831109247961
 21
3757.3006130564545
 31
0.0
  0
LINE
  5
FC
100
AcDbEntity
  8
0
370
              -2
390
0
  6
Continuous
 62
               0
100
AcDbLine
 10
2791.0831109247938
 20
3833.4256130550298
 30
0.0
 11
2791.0831109247938
 21
3757.3006130564545
 31
0.0
  0
LINE
  5
FD
100
AcDbEntity
  8
0
370
              -2
390
0
  6
Continuous
 62
               0
100
AcDbLine
 10
2531.0831109247961
 20
3757.3006130564545
 30
0.0
 11
2791.0831109247938
 21
3757.3006130564545
 31
0.0
  0
CIRCLE
  5
FE
102
{ACAD_REACTORS
330
FF
102
}
100
AcDbEntity
  8
0
370
              -2
390
0
  6
Continuous
 62
               0
100
AcDbCircle
 10
2531.0831109247961
 20
3757.3006130564545
 30
0.0
 40
1.9998779296875
  0
HATCH
  5
FF
100
AcDbEntity
  8
0
370
              -2
390
0
  6
Continuous
 62
               0
100
AcDbHatch
 10
0.0
 20
0.0
 30
0.0
210
0.0
220
0.0
230
1.0
  2
SOLID
 70
               1
 71
               1
 91
        1
 92
        1
 93
        1
 72
               2
 10
2531.0831109247961
 20
3757.3006130564545
 40
1.9998779296875
 50
0.0
 51
360.0
 73
               0
 97
        1
330
FE
 75
               0
 76
               1
 98
        1
 10
0.0
 20
0.0
  0
CIRCLE
  5
100
102
{ACAD_REACTORS
330
101
102
}
100
AcDbEntity
  8
0
370
              -2
390
0
  6
Continuous
 62
               0
100
AcDbCircle
 10
2791.0831109247938
 20
3757.3006130564545
 30
0.0
 40
1.9998779296875
  0
HATCH
  5
101
100
AcDbEntity
  8
0
370
              -2
390
0
  6
Continuous
 62
               0
100
AcDbHatch
 10
0.0
 20
0.0
 30
0.0
210
0.0
220
0.0
230
1.0
  2
SOLID
 70
               1
 71
               1
 91
        1
 92
        1
 93
        1
 72
               2
 10
2791.0831109247938
 20
3757.3006130564545
 40
1.9998779296875
 50
0.0
 51
360.0
 73
               0
 97
        1
330
100
 75
               0
 76
               1
 98
        1
 10
0.0
 20
0.0
  0
MTEXT
  5
102
100
AcDbEntity
  8
0
390
0
 62
               0
100
AcDbMText
 10
2637.2706092426197
 20
3791.1782302439542
 30
0.0
 40
24.432617187500004
 41
0.0
 71
               1
 72
               1
  1
260
  7
ＭＳ ゴシック
 73
               1
 44
0.7828267384257843
  0
POINT
  5
103
100
AcDbEntity
  8
Defpoints
370
               0
390
0
 62
               0
100
AcDbPoint
 10
2791.0831109247938
 20
3858.4256130550298
 30
0.0
  0
POINT
  5
104
100
AcDbEntity
  8
Defpoints
370
               0
390
0
 62
               0
100
AcDbPoint
 10
2531.0831109247961
 20
3861.4256130550157
 30
0.0
  0
POINT
  5
105
100
AcDbEntity
  8
Defpoints
370
               0
390
0
 62
               0
100
AcDbPoint
 10
2531.0831109247961
 20
3757.3006130564545
 30
0.0
  0
ENDBLK
  5
106
100
AcDbEntity
  8
notes
390
0
100
AcDbBlockEnd
  0
BLOCK
  5
107
100
AcDbEntity
  8
notes
390
0
100
AcDbBlockBegin
  2
*D16
 70
               1
 10
0.0
 20
0.0
 30
0.0
  3
*D16
  1

  0
LINE
  5
108
100
AcDbEntity
  8
0
370
              -2
390
0
  6
Continuous
 62
               0
100
AcDbLine
 10
2391.0218907399308
 20
3833.6269352424338
 30
0.0
 11
2391.0218907399308
 21
3706.4256130570984
 31
0.0
  0
LINE
  5
109
100
AcDbEntity
  8
0
370
              -2
390
0
  6
Continuous
 62
               0
100
AcDbLine
 10
2791.0831109247947
 20
3836.0
 30
0.0
 11
2791.0831109247947
 21
3706.4256130570984
 31
0.0
  0
LINE
  5
10A
100
AcDbEntity
  8
0
370
              -2
390
0
  6
Continuous
 62
               0
100
AcDbLine
 10
2391.0218907399308
 20
3706.4256130570984
 30
0.0
 11
2791.0831109247947
 21
3706.4256130570984
 31
0.0
  0
CIRCLE
  5
10B
102
{ACAD_REACTORS
330
10C
102
}
100
AcDbEntity
  8
0
370
              -2
390
0
  6
Continuous
 62
               0
100
AcDbCircle
 10
2391.0218907399308
 20
3706.4256130570984
 30
0.0
 40
1.9998779296875
  0
HATCH
  5
10C
100
AcDbEntity
  8
0
370
              -2
390
0
  6
Continuous
 62
               0
100
AcDbHatch
 10
0.0
 20
0.0
 30
0.0
210
0.0
220
0.0
230
1.0
  2
SOLID
 70
               1
 71
               1
 91
        1
 92
        1
 93
        1
 72
               2
 10
2391.0218907399308
 20
3706.4256130570984
 40
1.9998779296875
 50
0.0
 51
360.0
 73
               0
 97
        1
330
10B
 75
               0
 76
               1
 98
        1
 10
0.0
 20
0.0
  0
CIRCLE
  5
10D
102
{ACAD_REACTORS
330
10E
102
}
100
AcDbEntity
  8
0
370
              -2
390
0
  6
Continuous
 62
               0
100
AcDbCircle
 10
2791.0831109247947
 20
3706.4256130570984
 30
0.0
 40
1.9998779296875
  0
HATCH
  5
10E
100
AcDbEntity
  8
0
370
              -2
390
0
  6
Continuous
 62
               0
100
AcDbHatch
 10
0.0
 20
0.0
 30
0.0
210
0.0
220
0.0
230
1.0
  2
SOLID
 70
               1
 71
               1
 91
        1
 92
        1
 93
        1
 72
               2
 10
2791.0831109247947
 20
3706.4256130570984
 40
1.9998779296875
 50
0.0
 51
360.0
 73
               0
 97
        1
330
10D
 75
               0
 76
               1
 98
        1
 10
0.0
 20
0.0
  0
MTEXT
  5
10F
100
AcDbEntity
  8
0
390
0
 62
               0
100
AcDbMText
 10
2567.2399991501875
 20
3740.3032302445981
 30
0.0
 40
24.432617187500004
 41
0.0
 71
               1
 72
               1
  1
400
  7
ＭＳ ゴシック
 73
               1
 44
0.7828267384257843
  0
POINT
  5
110
100
AcDbEntity
  8
Defpoints
370
               0
390
0
 62
               0
100
AcDbPoint
 10
2791.0831109247947
 20
3861.0
 30
0.0
  0
POINT
  5
111
100
AcDbEntity
  8
Defpoints
370
               0
390
0
 62
               0
100
AcDbPoint
 10
2391.0218907399308
 20
3858.6269352424338
 30
0.0
  0
POINT
  5
112
100
AcDbEntity
  8
Defpoints
370
               0
390
0
 62
               0
100
AcDbPoint
 10
2391.0218907399308
 20
3706.4256130570984
 30
0.0
  0
ENDBLK
  5
113
100
AcDbEntity
  8
notes
390
0
100
AcDbBlockEnd
  0
BLOCK
  5
114
100
AcDbEntity
  8
notes
390
0
100
AcDbBlockBegin
  2
*D17
 70
               1
 10
0.0
 20
0.0
 30
0.0
  3
*D17
  1

  0
LINE
  5
115
100
AcDbEntity
  8
0
370
              -2
390
0
  6
Continuous
 62
               0
100
AcDbLine
 10
1905.0585102752946
 20
3856.425613116849
 30
0.0
 11
2129.0633614911117
 21
3856.425613116849
 31
0.0
  0
LINE
  5
116
100
AcDbEntity
  8
0
370
              -2
390
0
  6
Continuous
 62
               0
100
AcDbLine
 10
1999.8797185745843
 20
4041.4213160005229
 30
0.0
 11
2129.0633614911117
 21
4041.4213160005229
 31
0.0
  0
LINE
  5
117
100
AcDbEntity
  8
0
370
              -2
390
0
  6
Continuous
 62
               0
100
AcDbLine
 10
2129.0633614911117
 20
3856.425613116849
 30
0.0
 11
2129.0633614911117
 21
4041.4213160005229
 31
0.0
  0
CIRCLE
  5
118
102
{ACAD_REACTORS
330
119
102
}
100
AcDbEntity
  8
0
370
              -2
390
0
  6
Continuous
 62
               0
100
AcDbCircle
 10
2129.0633614911117
 20
3856.425613116849
 30
0.0
 40
1.9998779296875
  0
HATCH
  5
119
100
AcDbEntity
  8
0
370
              -2
390
0
  6
Continuous
 62
               0
100
AcDbHatch
 10
0.0
 20
0.0
 30
0.0
210
0.0
220
0.0
230
1.0
  2
SOLID
 70
               1
 71
               1
 91
        1
 92
        1
 93
        1
 72
               2
 10
2129.0633614911117
 20
3856.425613116849
 40
1.9998779296875
 50
0.0
 51
360.0
 73
               0
 97
        1
330
118
 75
               0
 76
               1
 98
        1
 10
0.0
 20
0.0
  0
CIRCLE
  5
11A
102
{ACAD_REACTORS
330
11B
102
}
100
AcDbEntity
  8
0
370
              -2
390
0
  6
Continuous
 62
               0
100
AcDbCircle
 10
2129.0633614911117
 20
4041.4213160005229
 30
0.0
 40
1.9998779296875
  0
HATCH
  5
11B
100
AcDbEntity
  8
0
370
              -2
390
0
  6
Continuous
 62
               0
100
AcDbHatch
 10
0.0
 20
0.0
 30
0.0
210
0.0
220
0.0
230
1.0
  2
SOLID
 70
               1
 71
               1
 91
        1
 92
        1
 93
        1
 72
               2
 10
2129.0633614911117
 20
4041.4213160005229
 40
1.9998779296875
 50
0.0
 51
360.0
 73
               0
 97
        1
330
11A
 75
               0
 76
               1
 98
        1
 10
0.0
 20
0.0
  0
MTEXT
  5
11C
100
AcDbEntity
  8
0
390
0
 62
               0
100
AcDbMText
 10
2095.1857443036115
 20
3925.1109628765103
 30
0.0
 40
24.432617187500004
 41
0.0
 71
               1
 72
               1
  1
185
  7
ＭＳ ゴシック
 11
0.0
 21
1.0
 31
0.0
 73
               1
 44
0.7828267384257843
  0
POINT
  5
11D
100
AcDbEntity
  8
Defpoints
370
               0
390
0
 62
               0
100
AcDbPoint
 10
1974.8797185745843
 20
4041.4213160005229
 30
0.0
  0
POINT
  5
11E
100
AcDbEntity
  8
Defpoints
370
               0
390
0
 62
               0
100
AcDbPoint
 10
1880.0585102752946
 20
3856.425613116849
 30
0.0
  0
POINT
  5
11F
100
AcDbEntity
  8
Defpoints
370
               0
390
0
 62
               0
100
AcDbPoint
 10
2129.0633614911117
 20
3856.425613116849
 30
0.0
  0
ENDBLK
  5
120
100
AcDbEntity
  8
notes
390
0
100
AcDbBlockEnd
  0
BLOCK
  5
121
100
AcDbEntity
  8
notes
390
0
100
AcDbBlockBegin
  2
*D18
 70
               1
 10
0.0
 20
0.0
 30
0.0
  3
*D18
  1

  0
LINE
  5
122
100
AcDbEntity
  8
0
370
              -2
390
0
  6
Continuous
 62
               0
100
AcDbLine
 10
2791.0831109247947
 20
4062.4256130550157
 30
0.0
 11
2791.0831109247947
 21
4141.4256130656058
 31
0.0
  0
LINE
  5
123
100
AcDbEntity
  8
0
370
              -2
390
0
  6
Continuous
 62
               0
100
AcDbLine
 10
2721.0831109247911
 20
4066.4256130606495
 30
0.0
 11
2721.0831109247911
 21
4141.4256130656058
 31
0.0
  0
LINE
  5
124
100
AcDbEntity
  8
0
370
              -2
390
0
  6
Continuous
 62
               0
100
AcDbLine
 10
2791.0831109247947
 20
4141.4256130656058
 30
0.0
 11
2721.0831109247911
 21
4141.4256130656058
 31
0.0
  0
CIRCLE
  5
125
102
{ACAD_REACTORS
330
126
102
}
100
AcDbEntity
  8
0
370
              -2
390
0
  6
Continuous
 62
               0
100
AcDbCircle
 10
2791.0831109247947
 20
4141.4256130656058
 30
0.0
 40
1.9998779296875
  0
HATCH
  5
126
100
AcDbEntity
  8
0
370
              -2
390
0
  6
Continuous
 62
               0
100
AcDbHatch
 10
0.0
 20
0.0
 30
0.0
210
0.0
220
0.0
230
1.0
  2
SOLID
 70
               1
 71
               1
 91
        1
 92
        1
 93
        1
 72
               2
 10
2791.0831109247947
 20
4141.4256130656058
 40
1.9998779296875
 50
0.0
 51
360.0
 73
               0
 97
        1
330
125
 75
               0
 76
               1
 98
        1
 10
0.0
 20
0.0
  0
CIRCLE
  5
127
102
{ACAD_REACTORS
330
128
102
}
100
AcDbEntity
  8
0
370
              -2
390
0
  6
Continuous
 62
               0
100
AcDbCircle
 10
2721.0831109247911
 20
4141.4256130656058
 30
0.0
 40
1.9998779296875
  0
HATCH
  5
128
100
AcDbEntity
  8
0
370
              -2
390
0
  6
Continuous
 62
               0
100
AcDbHatch
 10
0.0
 20
0.0
 30
0.0
210
0.0
220
0.0
230
1.0
  2
SOLID
 70
               1
 71
               1
 91
        1
 92
        1
 93
        1
 72
               2
 10
2721.0831109247911
 20
4141.4256130656058
 40
1.9998779296875
 50
0.0
 51
360.0
 73
               0
 97
        1
330
127
 75
               0
 76
               1
 98
        1
 10
0.0
 20
0.0
  0
MTEXT
  5
129
100
AcDbEntity
  8
0
390
0
 62
               0
100
AcDbMText
 10
2740.2081109247929
 20
4175.3032302531055
 30
0.0
 40
24.432617187500004
 41
0.0
 71
               1
 72
               1
  1
70
  7
ＭＳ ゴシック
 73
               1
 44
0.7828267384257843
  0
POINT
  5
12A
100
AcDbEntity
  8
Defpoints
370
               0
390
0
 62
               0
100
AcDbPoint
 10
2721.0831109247911
 20
4041.4256130606495
 30
0.0
  0
POINT
  5
12B
100
AcDbEntity
  8
Defpoints
370
               0
390
0
 62
               0
100
AcDbPoint
 10
2791.0831109247947
 20
4037.4256130550157
 30
0.0
  0
POINT
  5
12C
100
AcDbEntity
  8
Defpoints
370
               0
390
0
 62
               0
100
AcDbPoint
 10
2791.0831109247947
 20
4141.4256130656058
 30
0.0
  0
ENDBLK
  5
12D
100
AcDbEntity
  8
notes
390
0
100
AcDbBlockEnd
  0
BLOCK
  5
12E
100
AcDbEntity
  8
notes
390
0
100
AcDbBlockBegin
  2
*D19
 70
               1
 10
0.0
 20
0.0
 30
0.0
  3
*D19
  1

  0
LINE
  5
12F
100
AcDbEntity
  8
0
370
              -2
390
0
  6
Continuous
 62
               0
100
AcDbLine
 10
1479.404314850734
 20
4001.425613116849
 30
0.0
 11
1250.0
 21
4001.425613116849
 31
0.0
  0
LINE
  5
130
100
AcDbEntity
  8
0
370
              -2
390
0
  6
Continuous
 62
               0
100
AcDbLine
 10
1318.0616440413078
 20
4041.4256131168727
 30
0.0
 11
1250.0
 21
4041.4256131168727
 31
0.0
  0
LINE
  5
131
100
AcDbEntity
  8
0
370
              -2
390
0
  6
Continuous
 62
               0
100
AcDbLine
 10
1250.0
 20
4001.425613116849
 30
0.0
 11
1250.0
 21
4041.4256131168727
 31
0.0
  0
CIRCLE
  5
132
102
{ACAD_REACTORS
330
133
102
}
100
AcDbEntity
  8
0
370
              -2
390
0
  6
Continuous
 62
               0
100
AcDbCircle
 10
1250.0
 20
4001.425613116849
 30
0.0
 40
1.9998779296875
  0
HATCH
  5
133
100
AcDbEntity
  8
0
370
              -2
390
0
  6
Continuous
 62
               0
100
AcDbHatch
 10
0.0
 20
0.0
 30
0.0
210
0.0
220
0.0
230
1.0
  2
SOLID
 70
               1
 71
               1
 91
        1
 92
        1
 93
        1
 72
               2
 10
1250.0
 20
4001.425613116849
 40
1.9998779296875
 50
0.0
 51
360.0
 73
               0
 97
        1
330
132
 75
               0
 76
               1
 98
        1
 10
0.0
 20
0.0
  0
CIRCLE
  5
134
102
{ACAD_REACTORS
330
135
102
}
100
AcDbEntity
  8
0
370
              -2
390
0
  6
Continuous
 62
               0
100
AcDbCircle
 10
1250.0
 20
4041.4256131168727
 30
0.0
 40
1.9998779296875
  0
HATCH
  5
135
100
AcDbEntity
  8
0
370
              -2
390
0
  6
Continuous
 62
               0
100
AcDbHatch
 10
0.0
 20
0.0
 30
0.0
210
0.0
220
0.0
230
1.0
  2
SOLID
 70
               1
 71
               1
 91
        1
 92
        1
 93
        1
 72
               2
 10
1250.0
 20
4041.4256131168727
 40
1.9998779296875
 50
0.0
 51
360.0
 73
               0
 97
        1
330
134
 75
               0
 76
               1
 98
        1
 10
0.0
 20
0.0
  0
MTEXT
  5
136
100
AcDbEntity
  8
0
390
0
 62
               0
100
AcDbMText
 10
1216.1223828124998
 20
4005.5506131168609
 30
0.0
 40
24.432617187500004
 41
0.0
 71
               1
 72
               1
  1
40
  7
ＭＳ ゴシック
 11
0.0
 21
1.0
 31
0.0
 73
               1
 44
0.7828267384257843
  0
POINT
  5
137
100
AcDbEntity
  8
Defpoints
370
               0
390
0
 62
               0
100
AcDbPoint
 10
1343.0616440413078
 20
4041.4256131168727
 30
0.0
  0
POINT
  5
138
100
AcDbEntity
  8
Defpoints
370
               0
390
0
 62
               0
100
AcDbPoint
 10
1504.404314850734
 20
4001.425613116849
 30
0.0
  0
POINT
  5
139
100
AcDbEntity
  8
Defpoints
370
               0
390
0
 62
               0
100
AcDbPoint
 10
1250.0
 20
4001.425613116849
 30
0.0
  0
ENDBLK
  5
13A
100
AcDbEntity
  8
notes
390
0
100
AcDbBlockEnd
  0
ENDSEC
  0
SECTION
  2
ENTITIES
  0
MTEXT
  5
13B
100
AcDbEntity
  8
template
390
0
 62
               7
100
AcDbMText
 10
1132.0000000002408
 20
3320.3464856812061
 30
0.0
 40
16.288411458333332
 41
0.0
 71
               1
 72
               1
  1
品名
  7
ＭＳ ゴシック
 73
               1
 44
0.7828267384257843
  0
MTEXT
  5
13C
100
AcDbEntity
  8
template
390
0
 62
               7
100
AcDbMText
 10
1132.0000000002408
 20
3235.3464856812061
 30
0.0
 40
16.288411458333332
 41
0.0
 71
               1
 72
               1
  1
仕様
  7
ＭＳ ゴシック
 73
               1
 44
0.7828267384257843
  0
MTEXT
  5
13D
100
AcDbEntity
  8
template
390
0
 62
               7
100
AcDbMText
 10
1185.0000000002408
 20
3291.7640247437057
 30
0.0
 40
24.432617187500004
 41
0.0
 71
               1
 72
               1
  1
洗面器 -FLAMINIA,Mono- 
  7
ＭＳ ゴシック
 73
               1
 44
0.7828267384257843
  0
LINE
  5
13E
100
AcDbEntity
  8
template
370
               5
390
0
  6
Continuous
 62
               7
100
AcDbLine
 10
3074.999999999759
 20
3243.761407556206
 30
0.0
 11
1124.9999999997588
 21
3243.761407556206
 31
0.0
  0
LWPOLYLINE
  5
13F
100
AcDbEntity
  8
template
370
               5
390
0
  6
Continuous
 62
               7
100
AcDbPolyline
 90
        5
 70
             128
 10
3075.000000000241
 20
5873.761407556206
 10
1125.0000000002408
 20
5873.761407556206
 10
1125.0000000002408
 20
3073.761407556206
 10
3075.000000000241
 20
3073.761407556206
 10
3075.000000000241
 20
5873.761407556206
  0
LINE
  5
140
100
AcDbEntity
  8
template
370
               5
390
0
  6
Continuous
 62
               7
100
AcDbLine
 10
3074.999999999759
 20
3328.761407556206
 30
0.0
 11
1124.9999999997588
 21
3328.761407556206
 31
0.0
  0
LINE
  5
141
100
AcDbEntity
  8
template
370
               5
390
0
  6
Continuous
 62
               7
100
AcDbLine
 10
3075.000000000241
 20
3158.761407556206
 30
0.0
 11
2322.000000000241
 21
3158.761407556206
 31
0.0
  0
MTEXT
  5
142
100
AcDbEntity
  8
template
390
0
 62
               7
100
AcDbMText
 10
1185.0000000002408
 20
3206.7640247437057
 30
0.0
 40
24.432617187500004
 41
0.0
 71
               1
 72
               1
  1
壁付,カウンタ ー置き兼用/オーバーフロー無/壁取付ボルト付属/\P陶器/ホワイト
  7
ＭＳ ゴシック
 73
               1
 44
1.1307497332816883
  0
MTEXT
  5
143
100
AcDbEntity
  8
template
390
0
 62
               7
100
AcDbMText
 10
1125.0000000004441
 20
3061.9075854993489
 30
0.0
 40
21.717881944444446
 41
0.0
 71
               1
 72
               1
  1
120206HO
  7
ＭＳ ゴシック
 73
               1
 44
0.7828267384257843
  0
MTEXT
  5
144
100
AcDbEntity
  8
template
390
0
 62
               7
100
AcDbMText
 10
2351.8714062525009
 20
3128.8510130828981
 30
0.0
 40
24.432617187500004
 41
0.0
 71
               1
 72
               1
  1
大洋金物株式会社 ティーフォルム事業部
  7
ＭＳ ゴシック
 73
               1
 44
0.7828267384257843
  0
INSERT
  5
145
100
AcDbEntity
  8
template
390
0
 62
               7
100
AcDbBlockReference
  2
グループ
 10
2100.0
 20
4455.0
 30
0.0
  0
MTEXT
  5
146
100
AcDbEntity
  8
template
390
0
 62
               7
100
AcDbMText
 10
2884.0000000005002
 20
3206.7640247437057
 30
0.0
 40
24.432617187500004
 41
0.0
 71
               1
 72
               1
  1
1:10
  7
ＭＳ ゴシック
 73
               1
 44
0.7828267384257843
  0
MTEXT
  5
147
100
AcDbEntity
  8
template
390
0
 62
               7
100
AcDbMText
 10
2831.0000000005002
 20
3235.3464856812061
 30
0.0
 40
16.288411458333332
 41
0.0
 71
               1
 72
               1
  1
縮尺
  7
ＭＳ ゴシック
 73
               1
 44
0.7828267384257843
  0
LINE
  5
148
100
AcDbEntity
  8
template
370
               5
390
0
  6
Continuous
 62
               7
100
AcDbLine
 10
2824.0000000005002
 20
3158.761407556206
 30
0.0
 11
2824.0000000005002
 21
3243.761407556206
 31
0.0
  0
MTEXT
  5
149
100
AcDbEntity
  8
template
390
0
 62
               7
100
AcDbMText
 10
2580.0000000005002
 20
3235.3464856812061
 30
0.0
 40
16.288411458333332
 41
0.0
 71
               1
 72
               1
  1
容量
  7
ＭＳ ゴシック
 73
               1
 44
0.7828267384257843
  0
MTEXT
  5
14A
100
AcDbEntity
  8
template
390
0
 62
               7
100
AcDbMText
 10
2633.0000000005002
 20
3206.7640247437057
 30
0.0
 40
24.432617187500004
 41
0.0
 71
               1
 72
               1
  1
21L
  7
ＭＳ ゴシック
 73
               1
 44
0.7828267384257843
  0
LINE
  5
14B
100
AcDbEntity
  8
template
370
               5
390
0
  6
Continuous
 62
               7
100
AcDbLine
 10
2573.0000000005002
 20
3158.761407556206
 30
0.0
 11
2573.0000000005002
 21
3243.761407556206
 31
0.0
  0
MTEXT
  5
14C
100
AcDbEntity
  8
template
390
0
 62
               7
100
AcDbMText
 10
2329.0000000005002
 20
3320.3464856812061
 30
0.0
 40
16.288411458333332
 41
0.0
 71
               1
 72
               1
  1
品番
  7
ＭＳ ゴシック
 73
               1
 44
0.7828267384257843
  0
MTEXT
  5
14D
100
AcDbEntity
  8
template
390
0
 62
               7
100
AcDbMText
 10
2329.0000000005002
 20
3235.3464856812061
 30
0.0
 40
16.288411458333332
 41
0.0
 71
               1
 72
               1
  1
重量
  7
ＭＳ ゴシック
 73
               1
 44
0.7828267384257843
  0
MTEXT
  5
14E
100
AcDbEntity
  8
template
390
0
 62
               7
100
AcDbMText
 10
2382.0000000005002
 20
3291.7640247437057
 30
0.0
 40
24.432617187500004
 41
0.0
 71
               1
 72
               1
  1
AAA70-1102
  7
ＭＳ ゴシック
 73
               1
 44
0.7828267384257843
  0
MTEXT
  5
14F
100
AcDbEntity
  8
template
390
0
 62
               7
100
AcDbMText
 10
2382.0000000005002
 20
3206.7640247437057
 30
0.0
 40
24.432617187500004
 41
0.0
 71
               1
 72
               1
  1
24.5kg
  7
ＭＳ ゴシック
 73
               1
 44
0.7828267384257843
  0
LINE
  5
150
100
AcDbEntity
  8
template
370
               5
390
0
  6
Continuous
 62
               7
100
AcDbLine
 10
2322.0000000005002
 20
3073.761407556206
 30
0.0
 11
2322.0000000005002
 21
3328.761407556206
 31
0.0
  0
MTEXT
  5
151
100
AcDbEntity
  8
notes
390
0
 62
               7
100
AcDbMText
 10
1893.3853723412335
 20
4130.8776171874997
 30
0.0
 40
24.432617187500004
 41
0.0
 71
               1
 72
               1
  1
壁取付ボルト穴(2ヶ所)
  7
ＭＳ ゴシック
 73
               1
 44
0.7828267384257843
  0
LINE
  5
152
100
AcDbEntity
  8
notes
370
               5
390
0
  6
Continuous
 62
               7
100
AcDbLine
 10
1810.1099069202905
 20
4005.5287986018166
 30
0.0
 11
1905.4488664998103
 21
4100.8677581813363
 31
0.0
  0
LINE
  5
153
100
AcDbEntity
  8
notes
370
               5
390
0
  6
STYLE_12
 62
               7
100
AcDbLine
 10
1804.404314850733
 20
4021.425613116849
 30
0.0
 11
1804.404314850733
 21
3981.425613116849
 31
0.0
  0
LINE
  5
154
100
AcDbEntity
  8
notes
370
               5
390
0
  6
STYLE_12
 62
               7
100
AcDbLine
 10
1524.404314850734
 20
4021.425613116849
 30
0.0
 11
1524.404314850734
 21
3981.425613116849
 31
0.0
  0
LINE
  5
155
100
AcDbEntity
  8
notes
370
               5
390
0
  6
STYLE_12
 62
               7
100
AcDbLine
 10
1504.404314850734
 20
4001.425613116849
 30
0.0
 11
1544.404314850734
 21
4001.425613116849
 31
0.0
  0
CIRCLE
  5
156
100
AcDbEntity
  8
notes
370
               5
390
0
  6
STYLE_12
 62
               7
100
AcDbCircle
 10
1524.404314850734
 20
4001.425613116849
 30
0.0
 40
10.0
  0
LINE
  5
157
100
AcDbEntity
  8
notes
370
               5
390
0
  6
STYLE_12
 62
               7
100
AcDbLine
 10
1784.404314850733
 20
4001.425613116849
 30
0.0
 11
1824.404314850733
 21
4001.425613116849
 31
0.0
  0
CIRCLE
  5
158
100
AcDbEntity
  8
notes
370
               5
390
0
  6
STYLE_12
 62
               7
100
AcDbCircle
 10
1804.404314850733
 20
4001.425613116849
 30
0.0
 40
10.0
  0
MTEXT
  5
159
100
AcDbEntity
  8
notes
390
0
 62
               7
100
AcDbMText
 10
2184.6339995830299
 20
4562.1276171874997
 30
0.0
 40
24.432617187500004
 41
891.40041570715573
 71
               1
 72
               1
  1
※陶器製品には寸法公差があります。\P　必ず現物をあわせてカウンターに切込を行ってください。
  7
ＭＳ ゴシック
 73
               1
 44
1.1742401076386764
  0
MTEXT
  5
15A
100
AcDbEntity
  8
notes
390
0
 62
               7
100
AcDbMText
 10
1281.7191586594349
 20
4559.6946142071401
 30
0.0
 40
24.432617187500004
 41
833.92979864183906
 71
               1
 72
               1
  1
＝φ30もしくはφ35の水栓取付用穴あけ加工を承ります。\P  必要な場合、ご注文の際にご指示ください。
  7
ＭＳ ゴシック
 73
               1
 44
1.1742401076386764
  0
CIRCLE
  5
15B
100
AcDbEntity
  8
notes
370
               5
390
0
  6
STYLE_12
 62
               7
100
AcDbCircle
 10
1259.0677345106128
 20
4547.5
 30
0.0
 40
17.5
  0
DIMENSION
  5
15C
100
AcDbEntity
  8
notes
370
               5
390
0
  6
Continuous
 62
               7
100
AcDbDimension
  2
*D3
 10
1564.404314850734
 20
5337.7586643425884
 30
0.0
 11
1614.404314850734
 21
5337.7586643425884
 31
0.0
 71
               5
 72
               1
 41
1.0
 42
0.0
  3
tfrom線あり
100
AcDbAlignedDimension
 13
1664.404314850734
 23
5178.4773144559176
 33
0.0
 14
1564.404314850734
 24
5177.4773144559176
 34
0.0
100
AcDbRotatedDimension
1001
ACAD
1000
DSTYLE
1002
{
1070
             271
1070
               0
1070
             279
1070
               2
1070
             340
1005
35
1070
             147
1040
5.0
1002
}
  0
DIMENSION
  5
15D
100
AcDbEntity
  8
notes
370
               5
390
0
  6
Continuous
 62
               7
100
AcDbDimension
  2
*D4
 10
1664.404314850734
 20
5337.7586643425884
 30
0.0
 11
1714.4043148507337
 21
5337.7586643425884
 31
0.0
 71
               5
 72
               1
 41
1.0
 42
0.0
  3
tfrom線あり
100
AcDbAlignedDimension
 13
1764.4043148507335
 23
5185.2586643425884
 33
0.0
 14
1664.404314850734
 24
5186.2586643425884
 34
0.0
100
AcDbRotatedDimension
1001
ACAD
1000
DSTYLE
1002
{
1070
             271
1070
               0
1070
             279
1070
               2
1070
             340
1005
35
1070
             147
1040
5.0
1002
}
  0
DIMENSION
  5
15E
100
AcDbEntity
  8
notes
370
               5
390
0
  6
Continuous
 62
               7
100
AcDbDimension
  2
*D5
 10
2724.0568226108489
 20
5229.8713458124103
 30
0.0
 11
2729.0568226108489
 21
5262.3512571357396
 31
0.0
 70
             128
 71
               5
 72
               1
 41
1.0
 42
0.0
  3
tfrom線あり
100
AcDbAlignedDimension
 13
2554.0568226108494
 23
5199.8713458124103
 33
0.0
 14
2554.0568226108494
 24
5229.8713458124103
 34
0.0
 50
90.0
100
AcDbRotatedDimension
1001
ACAD
1000
DSTYLE
1002
{
1070
             271
1070
               0
1070
             279
1070
               2
1070
             340
1005
35
1070
             174
1070
               0
1070
             147
1040
5.0
1002
}
  0
DIMENSION
  5
15F
100
AcDbEntity
  8
notes
370
               5
390
0
  6
Continuous
 62
               7
100
AcDbDimension
  2
*D6
 10
2724.0568226108489
 20
5199.8713458124103
 30
0.0
 11
2724.0568226108489
 21
5049.8713458124103
 31
0.0
 71
               5
 72
               1
 41
1.0
 42
0.0
  3
tfrom線あり
100
AcDbAlignedDimension
 13
2554.0568226108494
 23
4899.8713458124103
 33
0.0
 14
2554.0568226108494
 24
5199.8713458124103
 34
0.0
 50
90.0
100
AcDbRotatedDimension
1001
ACAD
1000
DSTYLE
1002
{
1070
             271
1070
               0
1070
             279
1070
               2
1070
             340
1005
35
1070
             147
1040
5.0
1002
}
  0
DIMENSION
  5
160
100
AcDbEntity
  8
notes
370
               5
390
0
  6
Continuous
 62
               7
100
AcDbDimension
  2
*D7
 10
2484.0568226108494
 20
4799.8713458124103
 30
0.0
 11
2554.0568226108489
 21
4799.8713458124103
 31
0.0
 71
               5
 72
               1
 41
1.0
 42
0.0
  3
tfrom線あり
100
AcDbAlignedDimension
 13
2624.0568226108489
 23
4957.2169985801866
 33
0.0
 14
2484.0568226108494
 24
4957.2169985801866
 34
0.0
100
AcDbRotatedDimension
1001
ACAD
1000
DSTYLE
1002
{
1070
             271
1070
               0
1070
             279
1070
               2
1070
             340
1005
35
1070
             147
1040
5.0
1002
}
  0
DIMENSION
  5
161
100
AcDbEntity
  8
notes
370
               5
390
0
  6
Continuous
 62
               7
100
AcDbDimension
  2
*D8
 10
1374.404314850734
 20
4657.7586643425884
 30
0.0
 11
1664.4043148507335
 21
4657.7586643425884
 31
0.0
 71
               5
 72
               1
 41
1.0
 42
0.0
  3
tfrom線あり
100
AcDbAlignedDimension
 13
1954.4043148507333
 23
4852.17153215699
 33
0.0
 14
1374.404314850734
 24
4850.2796439221192
 34
0.0
100
AcDbRotatedDimension
1001
ACAD
1000
DSTYLE
1002
{
1070
             271
1070
               0
1070
             279
1070
               2
1070
             340
1005
35
1070
             147
1040
5.0
1002
}
  0
DIMENSION
  5
162
100
AcDbEntity
  8
notes
370
               5
390
0
  6
Continuous
 62
               7
100
AcDbDimension
  2
*D9
 10
1344.404314850734
 20
5387.7586643425884
 30
0.0
 11
1661.0728723412335
 21
5392.7586643425884
 31
0.0
 70
             128
 71
               5
 72
               1
 41
1.0
 42
0.0
  3
tfrom線あり
100
AcDbAlignedDimension
 13
1984.4043148507333
 23
5141.7172706662222
 33
0.0
 14
1344.404314850734
 24
5141.7172706662423
 34
0.0
100
AcDbRotatedDimension
1001
ACAD
1000
DSTYLE
1002
{
1070
             271
1070
               0
1070
             279
1070
               2
1070
             340
1005
35
1070
             147
1040
5.0
1002
}
  0
DIMENSION
  5
163
100
AcDbEntity
  8
notes
370
               5
390
0
  6
Continuous
 62
               7
100
AcDbDimension
  2
*D10
 10
1244.404314850734
 20
5237.2651277537561
 30
0.0
 11
1244.404314850734
 21
5180.0118960481723
 31
0.0
 71
               5
 72
               1
 41
1.0
 42
0.0
  3
tfrom線あり
100
AcDbAlignedDimension
 13
1352.0728723412335
 23
5122.7586643425884
 33
0.0
 14
1439.0113123462679
 24
5237.2651277537561
 34
0.0
 50
90.0
100
AcDbRotatedDimension
1001
ACAD
1000
DSTYLE
1002
{
1070
             271
1070
               0
1070
             279
1070
               2
1070
             340
1005
35
1070
             147
1040
5.0
1002
}
  0
DIMENSION
  5
164
100
AcDbEntity
  8
notes
370
               5
390
0
  6
Continuous
 62
               7
100
AcDbDimension
  2
*D11
 10
1244.404314850734
 20
5122.7586643425884
 30
0.0
 11
1244.404314850734
 21
4952.7586643425884
 31
0.0
 71
               5
 72
               1
 41
1.0
 42
0.0
  3
tfrom線あり
100
AcDbAlignedDimension
 13
1449.6670572793664
 23
4782.7586643425884
 33
0.0
 14
1347.0008879267714
 24
5122.7586643425884
 34
0.0
 50
90.0
100
AcDbRotatedDimension
1001
ACAD
1000
DSTYLE
1002
{
1070
             271
1070
               0
1070
             279
1070
               2
1070
             340
1005
35
1070
             147
1040
5.0
1002
}
  0
DIMENSION
  5
165
100
AcDbEntity
  8
notes
370
               5
390
0
  6
Continuous
 62
               7
100
AcDbDimension
  2
*D12
 10
2084.4043148507335
 20
5237.6336326222954
 30
0.0
 11
2084.4043148507335
 21
4997.6961484824424
 31
0.0
 71
               5
 72
               1
 41
1.0
 42
0.0
  3
tfrom線あり
100
AcDbAlignedDimension
 13
1770.0728723412335
 23
4757.7586643425884
 33
0.0
 14
1884.9235150015268
 24
5237.6336326222954
 34
0.0
 50
90.0
100
AcDbRotatedDimension
1001
ACAD
1000
DSTYLE
1002
{
1070
             271
1070
               0
1070
             279
1070
               2
1070
             340
1005
35
1070
             147
1040
5.0
1002
}
  0
DIMENSION
  5
166
100
AcDbEntity
  8
notes
370
               5
390
0
  6
Continuous
 62
               7
100
AcDbDimension
  2
*D13
 10
1524.404314850734
 20
4141.4256131168486
 30
0.0
 11
1664.4043148507337
 21
4141.4256131168486
 31
0.0
 71
               5
 72
               1
 41
1.0
 42
0.0
  3
tfrom線あり
100
AcDbAlignedDimension
 13
1804.4043148507335
 23
4026.0610510060442
 33
0.0
 14
1524.404314850734
 24
4026.0610510060442
 34
0.0
100
AcDbRotatedDimension
1001
ACAD
1000
DSTYLE
1002
{
1070
             271
1070
               0
1070
             279
1070
               2
1070
             340
1005
35
1070
             147
1040
5.0
1002
}
  0
DIMENSION
  5
167
100
AcDbEntity
  8
notes
370
               5
390
0
  6
Continuous
 62
               7
100
AcDbDimension
  2
*D14
 10
2528.000371552308
 20
4041.4256130621598
 30
0.0
 11
2533.000371552308
 21
4080.0
 31
0.0
 70
             128
 71
               5
 72
               1
 41
1.0
 42
0.0
  3
tfrom線あり
100
AcDbAlignedDimension
 13
2531.0831109247961
 23
3896.4256130550157
 33
0.0
 14
2507.000371552308
 24
4041.4256130621598
 34
0.0
 50
90.0
100
AcDbRotatedDimension
1001
ACAD
1000
DSTYLE
1002
{
1070
             271
1070
               0
1070
             279
1070
               2
1070
             340
1005
35
1070
               3
1000
<>(深さ)
1070
             174
1070
               0
1070
             147
1040
5.0
1002
}
  0
DIMENSION
  5
168
100
AcDbEntity
  8
notes
370
               5
390
0
  6
Continuous
 62
               7
100
AcDbDimension
  2
*D15
 10
2531.0831109247961
 20
3757.3006130564545
 30
0.0
 11
2661.0831109247952
 21
3757.3006130564545
 31
0.0
 71
               5
 72
               1
 41
1.0
 42
0.0
  3
tfrom線あり
100
AcDbAlignedDimension
 13
2791.0831109247938
 23
3858.4256130550298
 33
0.0
 14
2531.0831109247961
 24
3861.4256130550157
 34
0.0
100
AcDbRotatedDimension
1001
ACAD
1000
DSTYLE
1002
{
1070
             271
1070
               0
1070
             279
1070
               2
1070
             340
1005
35
1070
             147
1040
5.0
1002
}
  0
DIMENSION
  5
169
100
AcDbEntity
  8
notes
370
               5
390
0
  6
Continuous
 62
               7
100
AcDbDimension
  2
*D16
 10
2391.0218907399308
 20
3706.4256130570984
 30
0.0
 11
2591.052500832363
 21
3706.4256130570984
 31
0.0
 71
               5
 72
               1
 41
1.0
 42
0.0
  3
tfrom線あり
100
AcDbAlignedDimension
 13
2791.0831109247947
 23
3861.0
 33
0.0
 14
2391.0218907399308
 24
3858.6269352424338
 34
0.0
100
AcDbRotatedDimension
1001
ACAD
1000
DSTYLE
1002
{
1070
             271
1070
               0
1070
             279
1070
               2
1070
             340
1005
35
1070
             147
1040
5.0
1002
}
  0
DIMENSION
  5
16A
100
AcDbEntity
  8
notes
370
               5
390
0
  6
Continuous
 62
               7
100
AcDbDimension
  2
*D17
 10
2129.0633614911117
 20
3856.425613116849
 30
0.0
 11
2129.0633614911117
 21
3948.9234645586857
 31
0.0
 71
               5
 72
               1
 41
1.0
 42
0.0
  3
tfrom線あり
100
AcDbAlignedDimension
 13
1974.8797185745843
 23
4041.4213160005229
 33
0.0
 14
1880.0585102752946
 24
3856.425613116849
 34
0.0
 50
90.0
100
AcDbRotatedDimension
1001
ACAD
1000
DSTYLE
1002
{
1070
             279
1070
               2
1070
             340
1005
35
1070
             147
1040
5.0
1002
}
  0
MTEXT
  5
16B
100
AcDbEntity
  8
notes
390
0
 62
               7
100
AcDbMText
 10
2419.750364341206
 20
5381.833454836742
 30
0.0
 40
24.432617187500004
 41
0.0
 71
               1
 72
               1
  1
カウンター切込寸法
  7
ＭＳ ゴシック
 73
               1
 44
0.7828267384257843
  0
DIMENSION
  5
16C
100
AcDbEntity
  8
notes
370
               5
390
0
  6
Continuous
 62
               7
100
AcDbDimension
  2
*D18
 10
2791.0831109247947
 20
4141.4256130656058
 30
0.0
 11
2756.0831109247929
 21
4141.4256130656058
 31
0.0
 71
               5
 72
               1
 41
1.0
 42
0.0
  3
tfrom線あり
100
AcDbAlignedDimension
 13
2721.0831109247911
 23
4041.4256130606495
 33
0.0
 14
2791.0831109247947
 24
4037.4256130550157
 34
0.0
100
AcDbRotatedDimension
1001
ACAD
1000
DSTYLE
1002
{
1070
             279
1070
               2
1070
             340
1005
35
1070
             147
1040
5.0
1002
}
  0
DIMENSION
  5
16D
100
AcDbEntity
  8
notes
370
               5
390
0
  6
Continuous
 62
               7
100
AcDbDimension
  2
*D19
 10
1250.0
 20
4001.425613116849
 30
0.0
 11
1250.0
 21
4021.4256131168609
 31
0.0
 71
               5
 72
               1
 41
1.0
 42
0.0
  3
tfrom線あり
100
AcDbAlignedDimension
 13
1343.0616440413078
 23
4041.4256131168727
 33
0.0
 14
1504.404314850734
 24
4001.425613116849
 34
0.0
 50
90.0
100
AcDbRotatedDimension
1001
ACAD
1000
DSTYLE
1002
{
1070
             279
1070
               2
1070
             340
1005
35
1070
             147
1040
5.0
1002
}
  0
LINE
  5
16E
100
AcDbEntity
  8
notes
370
               5
390
0
  6
Continuous
 62
               7
100
AcDbLine
 10
1533.7666681798917
 20
3856.4256131168499
 30
0.0
 11
1788.0
 21
3856.4256131168499
 31
0.0
  0
CIRCLE
  5
16F
100
AcDbEntity
  8
AAA70-1102
370
              15
390
0
  6
Continuous
 62
               7
100
AcDbCircle
 10
1664.404314850734
 20
4977.7586643425884
 30
0.0
 40
22.5
  0
CIRCLE
  5
170
100
AcDbEntity
  8
AAA70-1102
370
              15
390
0
  6
Continuous
 62
               7
100
AcDbCircle
 10
1664.404314850734
 20
4977.7586643425884
 30
0.0
 40
35.0
  0
LWPOLYLINE
  5
171
100
AcDbEntity
  8
AAA70-1102
370
              15
390
0
  6
Continuous
 62
               7
100
AcDbPolyline
 90
       51
 70
             128
 10
1979.1650577986434
 20
5149.3569974046541
 42
0.0035856279531332
 10
1978.9854098933843
 20
5150.8052086947519
 10
1978.8438955505619
 20
5151.8827046019687
 42
0.0143812723274078
 10
1978.2676885503856
 20
5155.4680427808689
 10
1978.0620494459422
 20
5156.5483033361452
 42
0.0143354739549232
 10
1976.8322459589967
 20
5162.1322334611159
 10
1976.826395537624
 20
5162.1555885572816
 42
0.0142703611373211
 10
1975.2923518169564
 20
5167.6137499770002
 10
1975.2862375953907
 20
5167.6333402082591
 42
0.0141940235266741
 10
1973.457463211404
 20
5172.956603737035
 10
1973.4513741411117
 20
5172.9728152583775
 42
0.0141108628648544
 10
1971.3374340830949
 20
5178.1520590317114
 10
1971.3316038283606
 20
5178.1652654976288
 42
0.014025335167716
 10
1968.9421141998509
 20
5183.1913854478653
 10
1968.9367287836703
 20
5183.2019393596038
 42
0.0139415826468578
 10
1966.2813484378985
 20
5188.0658567101282
 10
1966.2765554377213
 20
5188.0740822854468
 42
0.0138633583446811
 10
1963.3649760459625
 20
5192.7667496270406
 10
1963.3608932157906
 20
5192.772940111442
 42
0.0137938789030355
 10
1960.2028314736551
 20
5197.2853420061183
 10
1960.199561595934
 20
5197.2897501536818
 42
0.0137360414994375
 10
1956.8047401138444
 20
5201.6129149128865
 10
1956.8023588048054
 20
5201.6157816684854
 42
0.0136915232625037
 10
1953.1805361549591
 20
5205.7407373659007
 42
0.0136585254031049
 10
1949.3399902787912
 20
5209.6601238769263
 42
0.0136489330914899
 10
1945.2929195997172
 20
5213.3623447041491
 42
0.0136575774867864
 10
1941.0492078292268
 20
5216.8386070777142
 42
0.0136753152820695
 10
1936.6210000890692
 20
5220.0785656997659
 10
1936.6186424631846
 20
5220.0801936113176
 42
0.0137121140796534
 10
1932.0149150287384
 20
5223.07599371369
 10
1932.0110030681387
 20
5223.0783892959171
 42
0.0137634496351683
 10
1927.2417579883102
 20
5225.8213957454554
 10
1927.2360945217349
 20
5225.8244487867614
 42
0.0138274729661733
 10
1922.3113604943064
 20
5228.3060346178545
 10
1922.3037185628464
 20
5228.3096239996476
 42
0.0139017114626417
 10
1917.2335588738954
 20
5230.5211742535812
 10
1917.2236779001837
 20
5230.5251610922742
 42
0.0139831592756145
 10
1912.0181884260712
 20
5232.4580831339308
 10
1912.0057770608678
 20
5232.4623007938262
 42
0.0140683065574386
 10
1906.6750830477663
 20
5234.1080339419968
 10
1906.6598236254179
 20
5234.1122786365468
 42
0.0141531992665651
 10
1901.21407424976
 20
5235.4623033712214
 10
1901.1956294301601
 20
5235.46632548054
 42
0.0142335200790528
 10
1895.6449902412915
 20
5236.5121717103902
 10
1895.6230117607295
 20
5236.5156683272944
 42
0.0143046648677023
 10
1889.9776552250573
 20
5237.2489225819136
 10
1889.2530717633999
 20
5237.322030208421
 42
0.0143553274773332
 10
1884.9235150015268
 20
5237.6336326222954
 10
1884.2081571070498
 20
5237.664511180612
 42
0.0071923665514888
 10
1881.299164376393
 20
5237.7481791973987
 42
0.0035922960118749
 10
1879.8398543481233
 20
5237.7586643425884
 42
0.0035922960118749
  0
LWPOLYLINE
  5
172
100
AcDbEntity
  8
AAA70-1102
370
              15
390
0
  6
Continuous
 62
               7
100
AcDbPolyline
 90
       26
 70
             128
 10
1664.404314850734
 20
4757.7586643425884
 42
0.0002043211073778
 10
1663.8221166181538
 20
4757.75837282679
 10
1662.9866513388406
 20
4757.7576130896514
 42
0.0001634081629455
 10
1660.7335235770975
 20
4757.7548278298336
 10
1659.2477682033802
 20
4757.7525056063805
 42
-0.0006729565302489
 10
1654.0231290780841
 20
4757.7513714539191
 10
1650.7440535636097
 20
4757.7550729913419
 42
-0.0029880411220941
 10
1638.9617621655791
 20
4757.838786398037
 10
1633.9885661706742
 20
4757.9038443071377
 42
-0.0043125853067036
 10
1617.0855183116118
 20
4758.2708008702602
 10
1614.9412916967083
 20
4758.3358577847403
 42
-0.0025860235773473
 10
1602.3321785189264
 20
4758.7837102661788
 42
-0.002874456646054
 10
1589.7287478280271
 20
4759.3692347405795
 10
1589.3594838824197
 20
4759.3885178718438
 42
-0.0031945486288425
 10
1576.0258861079196
 20
4760.1702557600292
 10
1575.7129438818474
 20
4760.1906103691435
 42
-0.0035474183264664
 10
1561.7655980084596
 20
4761.197203383902
 10
1561.508451510887
 20
4761.2175967652092
 42
-0.0039432104046249
 10
1547.0638933836788
 20
4762.4778495636565
 10
1546.8618825130739
 20
4762.4970809243132
 42
-0.0043945684258741
 10
1532.0368030147076
 20
4764.0400162481392
 10
1531.0221595937123
 20
4764.1546391648935
 42
-0.0049239668744816
 10
1517.6656342478791
 20
4765.7968724631774
 10
1516.738631075229
 20
4765.9201294049908
 42
-0.0040961223992661
 10
1505.2655669590374
 20
4767.5413779123946
 42
-0.0007320885724635
 10
1503.3513301493517
 20
4767.8307590691502
 42
-0.0007320885724635
  0
LINE
  5
173
100
AcDbEntity
  8
AAA70-1102
370
              15
390
0
  6
Continuous
 62
               7
100
AcDbLine
 10
1448.968775353344
 20
5237.7586643425884
 30
0.0
 11
1879.8398543481233
 21
5237.7586643425884
 31
0.0
  0
LWPOLYLINE
  5
174
100
AcDbEntity
  8
AAA70-1102
370
              15
390
0
  6
Continuous
 62
               7
100
AcDbPolyline
 90
       48
 70
             128
 10
1503.3513301493517
 20
4767.8307590691502
 42
-0.00321463309503
 10
1501.2845587437807
 20
4768.0439757657095
 10
1499.7437175744144
 20
4768.2129539809612
 42
-0.0128673508364653
 10
1494.6145613507654
 20
4768.9094342323524
 10
1493.0706961286778
 20
4769.1596854531463
 42
-0.0128210526450494
 10
1485.0296803063081
 20
4770.6756098580781
 10
1485.0041739698631
 20
4770.6810990983313
 42
-0.0127658988927092
 10
1477.1018979882865
 20
4772.5940596939517
 10
1477.0802817474423
 20
4772.5998804658866
 42
-0.0127067440190466
 10
1469.3285515913458
 20
4774.900022030125
 10
1469.3104778175671
 20
4774.9058886307412
 42
-0.0126461908926101
 10
1461.721088508084
 20
4777.5833117433858
 10
1461.7062242704801
 20
4777.5889822410127
 42
-0.0125867974792775
 10
1454.2909525058235
 20
4780.633747419769
 10
1454.2789854279329
 20
4780.6390169692968
 42
-0.0125308870297401
 10
1447.0495845728283
 20
4784.041151740088
 10
1447.0402278849169
 20
4784.0458448612644
 42
-0.0124805256036845
 10
1440.0084235498266
 20
4787.7953520268429
 10
1440.0014167947256
 20
4787.7993158664249
 42
-0.0124374369225879
 10
1433.1789081293041
 20
4791.8861792236767
 10
1433.1740275278962
 20
4791.8892703229858
 42
-0.0124031800363884
 10
1426.5724731408895
 20
4796.3034725120824
 42
-0.0123841729286658
 10
1420.2005691850416
 20
4801.0370599797652
 42
-0.0123675269846811
 10
1414.0745857471645
 20
4806.0768373951241
 42
-0.0123610590824689
 10
1408.2059696454028
 20
4811.4126488917482
 42
-0.0123665570644698
 10
1402.6062490502666
 20
4817.0342654919596
 42
-0.0123896014071788
 10
1397.2899082743097
 20
4822.9279984263512
 10
1397.2868507922979
 20
4822.9315616441463
 42
-0.0124191588931726
 10
1392.2634227021997
 20
4829.0889686758701
 10
1392.2591965977826
 20
4829.09441974327
 42
-0.0124580208941065
 10
1387.5400336626024
 20
4835.5051227734066
 10
1387.5347451934467
 20
4835.5126949689784
 42
-0.0125049490015462
 10
1383.1311912964716
 20
4842.1662931614474
 10
1383.1249563191918
 20
4842.1762460996879
 42
-0.0125583352831326
 10
1379.0483465059083
 20
4849.0623068434679
 10
1379.0412946337633
 20
4849.0749314547329
 42
-0.0126162701159958
 10
1375.3029462397246
 20
4856.1829914804075
 10
1375.2952293846236
 20
4856.1986083505171
 42
-0.0126765580237511
 10
1371.9064339041688
 20
4863.5181754929363
 10
1371.8982343469086
 20
4863.5371321474267
 42
-0.0127367503249384
 10
1368.8702494013473
 20
4871.0576888239475
 10
1368.8617875508571
 20
4871.0803552673869
 42
-0.0127941690686786
 10
1366.2058290801565
 20
4878.7913634121696
 10
1365.8931412269785
 20
4879.7806982718303
 42
-0.0128422726489044
 10
1364.1789543539758
 20
4885.732089053301
 10
1363.920821758582
 20
4886.7233220299331
 42
-0.0064374814469652
 10
1362.9276175634259
 20
4890.7490702281184
 42
-0.0032181269354679
 10
1362.4689733785167
 20
4892.7755873569113
 42
-0.0032181269354679
  0
LWPOLYLINE
  5
175
100
AcDbEntity
  8
AAA70-1102
370
              15
390
0
  6
Continuous
 62
               7
100
AcDbPolyline
 90
       51
 70
             128
 10
1349.6435719028236
 20
5149.3569974046541
 42
-0.0035856279531274
 10
1349.8232198080832
 20
5150.8052086947555
 10
1349.9647341509053
 20
5151.8827046019696
 42
-0.0143812723274392
 10
1350.5409411510818
 20
5155.4680427808717
 10
1350.7465802555243
 20
5156.5483033361434
 42
-0.0143354739548748
 10
1351.9763837424703
 20
5162.1322334611168
 10
1351.9822341638442
 20
5162.155588557288
 42
-0.0142703611374326
 10
1353.5162778845108
 20
5167.613749977002
 10
1353.5223921060756
 20
5167.6333402082582
 42
-0.0141940235265694
 10
1355.3511664900634
 20
5172.9566037370341
 10
1355.3572555603546
 20
5172.9728152583748
 42
-0.0141108628648859
 10
1357.4711956183723
 20
5178.1520590317114
 10
1357.4770258731076
 20
5178.1652654976315
 42
-0.0140253351677546
 10
1359.8665155016163
 20
5183.1913854478653
 10
1359.8719009177958
 20
5183.201939359602
 42
-0.0139415826467522
 10
1362.5272812635687
 20
5188.0658567101291
 10
1362.5320742637473
 20
5188.0740822854495
 42
-0.0138633583447352
 10
1365.4436536555047
 20
5192.7667496270424
 10
1365.4477364856748
 20
5192.7729401114411
 42
-0.013793878903106
 10
1368.6057982278123
 20
5197.2853420061192
 10
1368.6090681055357
 20
5197.2897501536863
 42
-0.013736041499391
 10
1372.003889587623
 20
5201.6129149128856
 10
1372.006270896658
 20
5201.615781668479
 42
-0.0136915232623465
 10
1375.6280935465084
 20
5205.7407373659016
 42
-0.0136683141605472
 10
1379.4686394226765
 20
5209.6601238769263
 42
-0.0136510420823388
 10
1383.5157101017508
 20
5213.3623447041491
 42
-0.0136517072361921
 10
1387.7594218722409
 20
5216.838607077716
 42
-0.0136753152820258
 10
1392.1876296123964
 20
5220.078565699765
 10
1392.189987238283
 20
5220.0801936113176
 42
-0.0137121140794904
 10
1396.7937146727336
 20
5223.0759937136936
 10
1396.7976266333287
 20
5223.0783892959189
 42
-0.0137634496353318
 10
1401.5668717131534
 20
5225.8213957454554
 10
1401.5725351797325
 20
5225.8244487867642
 42
-0.0138274729661733
 10
1406.4972692071628
 20
5228.3060346178572
 10
1406.5049111386215
 20
5228.3096239996494
 42
-0.0139017114626547
 10
1411.5750708275759
 20
5230.5211742535821
 10
1411.5849518012838
 20
5230.5251610922742
 42
-0.013983159275542
 10
1416.7904412753942
 20
5232.4580831339299
 10
1416.8028526405999
 20
5232.4623007938262
 42
-0.014068306557372
 10
1422.1335466537016
 20
5234.1080339419977
 10
1422.1488060760498
 20
5234.1122786365477
 42
-0.0141531992667639
 10
1427.5945554517052
 20
5235.4623033712214
 10
1427.6130002713073
 20
5235.46632548054
 42
-0.0142335200788308
 10
1433.1636394601769
 20
5236.5121717103912
 10
1433.1856179407382
 20
5236.5156683272944
 42
-0.0143046648679232
 10
1438.8309744764106
 20
5237.2489225819136
 10
1439.5555579380682
 20
5237.322030208421
 42
-0.0143553274772138
 10
1443.8851146999405
 20
5237.6336326222945
 10
1444.6004725944133
 20
5237.664511180611
 42
-0.0071923665514801
 10
1447.509465325074
 20
5237.7481791973978
 42
-0.0035924545398364
 10
1448.968775353344
 20
5237.7586643425884
 42
-0.0035924545398364
  0
LWPOLYLINE
  5
176
100
AcDbEntity
  8
AAA70-1102
370
              15
390
0
  6
Continuous
 62
               7
100
AcDbPolyline
 90
       18
 70
             128
 10
1362.4689733785167
 20
4892.7755873569113
 42
-0.0016656584919309
 10
1361.3765957375049
 20
4897.8311905872715
 10
1360.0331217057978
 20
4904.1507950008099
 42
-0.0099838631661616
 10
1356.6254298749159
 20
4921.9172967655431
 10
1355.5348459723718
 20
4928.2883134720796
 42
-0.0066497732371717
 10
1352.322345418464
 20
4948.6825291750865
 42
-0.0066471473664416
 10
1349.6538285298202
 20
4969.1495486113035
 42
-0.0066435987958374
 10
1347.5310615511714
 20
4989.6712520549727
 42
-0.0066412296430638
 10
1345.9545923880748
 20
5010.2367029552361
 42
-0.0066400653328995
 10
1344.924968711658
 20
5030.8349680341471
 42
-0.0066401091070671
 10
1344.4427386639704
 20
5051.4551137244625
 42
-0.0066413515997859
 10
1344.5084507878473
 20
5072.086206486415
 42
-0.0066437694998491
 10
1345.1226540258415
 20
5092.7173126715006
 42
-0.0066500668784765
 10
1346.2854067434084
 20
5113.3302266828041
 10
1346.4659126257641
 20
5115.9176792160251
 42
-0.0099841163984215
 10
1348.777601483406
 20
5141.6438679000576
 10
1349.0607641147367
 20
5144.2174869194696
 42
-0.0016655559362307
 10
1349.6435719028236
 20
5149.3569974046541
 42
-0.0016655559362307
  0
CIRCLE
  5
177
100
AcDbEntity
  8
AAA70-1102
370
              15
390
0
  6
STYLE_12
 62
               7
100
AcDbCircle
 10
1664.404314850734
 20
5167.7586643425884
 30
0.0
 40
18.5
  0
CIRCLE
  5
178
100
AcDbEntity
  8
AAA70-1102
370
              15
390
0
  6
STYLE_12
 62
               7
100
AcDbCircle
 10
1764.4043148507335
 20
5167.7586643425884
 30
0.0
 40
17.5
  0
CIRCLE
  5
179
100
AcDbEntity
  8
AAA70-1102
370
              15
390
0
  6
STYLE_12
 62
               7
100
AcDbCircle
 10
1564.404314850734
 20
5167.7586643425884
 30
0.0
 40
17.5
  0
CIRCLE
  5
17A
100
AcDbEntity
  8
AAA70-1102
370
               5
390
0
  6
STYLE_12
 62
               7
100
AcDbCircle
 10
2554.0568226108494
 20
4969.8713458124103
 30
0.0
 40
22.5
  0
LWPOLYLINE
  5
17B
100
AcDbEntity
  8
AAA70-1102
370
               5
390
0
  6
STYLE_12
 62
               7
100
AcDbPolyline
 90
       48
 70
             128
 10
2715.1098073122303
 20
4759.9434405389729
 42
0.0032146330950278
 10
2717.1765787178019
 20
4760.1566572355323
 10
2718.7174198871676
 20
4760.3256354507839
 42
0.0128673508365301
 10
2723.8465761108182
 20
4761.0221157021751
 10
2725.3904413329046
 20
4761.272366922969
 42
0.0128210526450012
 10
2733.4314571552736
 20
4762.7882913279018
 10
2733.4569634917175
 20
4762.793780568154
 42
0.0127658988926722
 10
2741.3592394732955
 20
4764.7067411637745
 10
2741.3808557141401
 20
4764.7125619357093
 42
0.0127067440190794
 10
2749.1325858702367
 20
4767.0127034999468
 10
2749.1506596440158
 20
4767.018570100563
 42
0.0126461908926255
 10
2756.740048953498
 20
4769.6959932132067
 10
2756.754913191101
 20
4769.7016637108336
 42
0.0125867974793288
 10
2764.1701849557589
 20
4772.7464288895908
 10
2764.1821520336489
 20
4772.7516984391186
 42
0.0125308870296553
 10
2771.4115528887542
 20
4776.1538332099099
 10
2771.4209095766655
 20
4776.1585263310863
 42
0.0124805256038052
 10
2778.4527139117549
 20
4779.9080334966648
 10
2778.4597206668564
 20
4779.9119973362467
 42
0.0124374369224902
 10
2785.2822293322774
 20
4783.9988606934994
 10
2785.2871099336849
 20
4784.0019517928076
 42
0.012403180036403
 10
2791.8886643206924
 20
4788.4161539819042
 42
0.0123728078220355
 10
2798.2605682765402
 20
4793.149741449588
 42
0.0123629584110268
 10
2804.3865517144177
 20
4798.1895188649469
 42
0.0123625782714609
 10
2810.2551678161794
 20
4803.5253303615709
 42
0.0123744651860404
 10
2815.8548884113152
 20
4809.1469469617814
 42
0.0123896014071385
 10
2821.1712291872695
 20
4815.0406798961703
 10
2821.1742866692839
 20
4815.0442431139682
 42
0.0124191588931928
 10
2826.1977147593843
 20
4821.2016501456947
 10
2826.2019408637993
 20
4821.2071012130918
 42
0.0124580208940965
 10
2830.9211037989771
 20
4827.6178042432248
 10
2830.9263922681353
 20
4827.6253764388002
 42
0.0125049490015695
 10
2835.3299461651131
 20
4834.2789746312728
 10
2835.3361811423902
 20
4834.2889275695106
 42
0.0125583352831298
 10
2839.4127909556732
 20
4841.1749883132898
 10
2839.4198428278187
 20
4841.1876129245557
 42
0.0126162701159385
 10
2843.1581912218539
 20
4848.2956729502239
 10
2843.1659080769577
 20
4848.311289820339
 42
0.012676558023796
 10
2846.5547035574145
 20
4855.6308569627608
 10
2846.5629031146732
 20
4855.6498136172486
 42
0.0127367503249171
 10
2849.5908880602356
 20
4863.1703702937721
 10
2849.5993499107244
 20
4863.1930367372079
 42
0.0127941690686992
 10
2852.255308381425
 20
4870.9040448819906
 10
2852.5679962346044
 20
4871.8933797416557
 42
0.0128422726488536
 10
2854.2821831076062
 20
4877.8447705231238
 10
2854.5403157030005
 20
4878.8360034997559
 42
0.0064374814470622
 10
2855.5335198981561
 20
4882.8617516979402
 42
0.0032180039061307
 10
2855.9921640830653
 20
4884.8882688267331
 42
0.0032180039061307
  0
LWPOLYLINE
  5
17C
100
AcDbEntity
  8
AAA70-1102
370
               5
390
0
  6
STYLE_12
 62
               7
100
AcDbPolyline
 90
       43
 70
             128
 10
2708.6751914382953
 20
4785.8913832688713
 42
0.0032344522440621
 10
2710.4131675825734
 20
4786.0733967757651
 10
2712.5707192850314
 20
4786.3134710747572
 42
0.019399334261502
 10
2718.5874203576304
 20
4787.2204039739709
 10
2720.729137970653
 20
4787.6287538715451
 42
0.0128724896082284
 10
2727.4427823327333
 20
4789.0888482790342
 10
2727.4605539227041
 20
4789.0931952214896
 42
0.0128107605873459
 10
2734.0551051336856
 20
4790.886457190988
 10
2734.069899896479
 20
4790.8908903623042
 42
0.0127527028363338
 10
2740.534870941397
 20
4793.0091946866805
 10
2740.5469596371458
 20
4793.0135000166401
 42
0.0126965161523041
 10
2746.8718680233637
 20
4795.4487467086965
 10
2746.881503371369
 20
4795.4527403185566
 42
0.0126444789907327
 10
2753.0558872112474
 20
4798.1968029905793
 10
2753.0633021528993
 20
4798.2003255332502
 42
0.0125985328498549
 10
2759.0767200654814
 20
4801.2450563619486
 10
2759.0821173762374
 20
4801.2479622402807
 42
0.0125604641952976
 10
2764.9241623007861
 20
4804.585206601254
 10
2764.9277463969929
 20
4804.5873751760946
 42
0.0125312005132234
 10
2770.5879957373913
 20
4808.2089448551997
 42
0.0125087613243482
 10
2776.0580589290407
 20
4812.1080175289035
 42
0.0125031055308239
 10
2781.324138352722
 20
4816.2741296810909
 42
0.0125095986459799
 10
2786.375946405482
 20
4820.6989278938554
 42
0.0125266416356193
 10
2791.2032889096499
 20
4825.3741427375098
 42
0.0125447724142234
 10
2795.7925626326828
 20
4830.2876672658995
 10
2795.7959767186553
 20
4830.2915115238075
 42
0.0125785276180183
 10
2800.1393110605027
 20
4835.4371682724395
 10
2800.1437872445599
 20
4835.4427503403458
 42
0.0126207744961426
 10
2804.2310531355079
 20
4840.8120393753934
 10
2804.2364973009262
 20
4840.8195786475517
 42
0.0126700096422833
 10
2808.0575693745932
 20
4846.4039731708508
 10
2808.0638794669594
 20
4846.4137159968268
 42
0.0127244103132111
 10
2811.6086437182685
 20
4852.2046624359373
 10
2811.6157023126402
 20
4852.2168815437508
 42
0.0127818492374501
 10
2814.8740632018989
 20
4858.2058002424346
 10
2814.8817303701967
 20
4858.2207932349511
 42
0.0128399316348598
 10
2817.8436179291248
 20
4864.3990806939792
 10
2817.8517244137806
 20
4864.4171674560057
 42
0.0128959715135379
 10
2820.507102102617
 20
4870.7762005901968
 10
2820.5154402280036
 20
4870.7977125464486
 42
0.0129435144832792
 10
2822.8543556121331
 20
4877.3288260507743
 10
2822.8581181161717
 20
4877.3402561399571
 42
0.0032375612011709
 10
2823.3937705398571
 20
4879.0037015197395
 42
0.0032375612011709
  0
LWPOLYLINE
  5
17D
100
AcDbEntity
  8
AAA70-1102
370
               5
390
0
  6
STYLE_12
 62
               7
100
AcDbPolyline
 90
       31
 70
             128
 10
2823.3937705398571
 20
4879.0037015197395
 42
0.0021224323876068
 10
2824.0471703474805
 20
4881.1100225255514
 10
2824.208631304442
 20
4881.6384294259333
 42
0.0041055452455797
 10
2825.1499524713226
 20
4884.8120672423884
 10
2825.6122340643169
 20
4886.4189164155023
 42
0.0075543106456557
 10
2827.3550349373168
 20
4892.8403148028647
 10
2827.6356583025563
 20
4893.9397251021692
 42
0.0068081324996366
 10
2829.724555371678
 20
4902.6147212037185
 10
2829.7314279059901
 20
4902.6450721204274
 42
0.0061133710729845
 10
2831.6085019797492
 20
4911.4321657083101
 10
2831.6136913593732
 20
4911.4580008277117
 42
0.0054555910533588
 10
2833.2968075898184
 20
4920.3380813471613
 10
2833.3004476460528
 20
4920.358501477659
 42
0.0048310871357588
 10
2834.8074332779697
 20
4929.3123486900504
 10
2834.8096856078223
 20
4929.326569204416
 42
0.0042356522240798
 10
2836.1583470433911
 20
4938.3348436697943
 10
2836.1593837966884
 20
4938.3421932326455
 42
0.0036645277085996
 10
2837.3675141332155
 20
4947.3853567452597
 10
2837.3685225266499
 20
4947.3933507843385
 42
0.0031133926580561
 10
2838.4520372582301
 20
4956.4360378927358
 10
2838.4538869173139
 20
4956.4523329166695
 42
0.0025751144393757
 10
2839.4309298793528
 20
4965.4742088844605
 10
2839.4334988689689
 20
4965.4991289177187
 42
0.0020521832553505
 10
2840.3220785163762
 20
4974.4798439191463
 10
2840.3252847145486
 20
4974.5136645026323
 42
0.001522104069514
 10
2841.143439665193
 20
4983.4328760487151
 10
2841.2443388863312
 20
4984.5709157996835
 42
0.0009734861603663
 10
2841.8206023552802
 20
4991.2176604536171
 10
2841.9155070755583
 20
4992.3376476760704
 42
0.0002824465825373
 10
2842.2865299570899
 20
4996.7457494437958
 42
0.0000888855539239
 10
2842.4699532655504
 20
4998.9445286139244
 42
0.0000888855539239
  0
LWPOLYLINE
  5
17E
100
AcDbEntity
  8
AAA70-1102
370
               5
390
0
  6
STYLE_12
 62
               7
100
AcDbPolyline
 90
       33
 70
             128
 10
2554.0568226108458
 20
4774.8713458124103
 42
-0.0013717886603051
 10
2554.5706490371722
 20
4774.8979832848563
 10
2555.3165066990036
 20
4774.9345980476228
 42
-0.0038035534235411
 10
2557.3227544158831
 20
4775.0177933588802
 10
2557.8904971396323
 20
4775.0370115749365
 42
-0.0014115821211058
 10
2561.0331384409892
 20
4775.1345091465409
 10
2561.8050463968711
 20
4775.1562757510228
 42
-0.0011656108032296
 10
2566.4920614814309
 20
4775.2775078356844
 10
2567.7607042494956
 20
4775.3073626495379
 42
0.0001043092577165
 10
2574.9852517066347
 20
4775.4788850506075
 10
2575.5927497922557
 20
4775.4934348417319
 42
0.0008755245889855
 10
2584.0318778236269
 20
4775.7103413389623
 10
2584.5848187366391
 20
4775.7255222009735
 42
0.0014385062611235
 10
2594.1286158736302
 20
4776.0150254424461
 10
2594.6270884182086
 20
4776.0315817569817
 42
0.0018942360419575
 10
2605.1655202353986
 20
4776.4215800062184
 10
2605.6097271099238
 20
4776.4397042879582
 42
0.0023076627156207
 10
2617.0327003027487
 20
4776.9585968181118
 10
2617.4228907559213
 20
4776.9781263151008
 42
0.0027019119860028
 10
2629.6201938109571
 20
4777.6547114184905
 10
2629.9567277796541
 20
4777.6752037033484
 42
0.0031004152951424
 10
2642.8180897785651
 20
4778.5384378298158
 10
2643.101410928803
 20
4778.5592193865286
 42
0.0035222949907206
 10
2656.5164608220466
 20
4779.6382732185157
 10
2656.7471256595959
 20
4779.6584633905459
 42
0.0039808950860069
 10
2670.6053598593107
 20
4780.9827403665886
 10
2672.4815704208008
 20
4781.1771150152808
 42
0.0045135543341299
 10
2683.2807004266256
 20
4782.3945259357361
 42
0.0024333690022567
 10
2694.0621858427726
 20
4783.7618947378123
 10
2694.1302923195312
 20
4783.7708693831728
 42
0.005419662822301
 10
2705.0244708594628
 20
4785.3267474689101
 10
2706.8524500699928
 20
4785.6080648271673
 42
0.0007520486345958
 10
2708.6751914382953
 20
4785.8913832688713
 42
0.0007520486345958
  0
LWPOLYLINE
  5
17F
100
AcDbEntity
  8
AAA70-1102
370
               5
390
0
  6
STYLE_12
 62
               7
100
AcDbPolyline
 90
       61
 70
             128
 10
2842.4699532655504
 20
4998.9445286139244
 42
0.00078275473144
 10
2842.5454581354461
 20
4999.8690830125552
 10
2842.6388175054963
 20
5001.0347567959825
 42
0.0054118041796693
 10
2842.8643243768438
 20
5004.2932178345327
 10
2842.9058342011972
 20
5005.004746542003
 42
0.0039432617466551
 10
2843.1421359547394
 20
5009.6905694933703
 10
2843.1635458636742
 20
5010.1940297012434
 42
0.0090730534175022
 10
2843.3023228493021
 20
5015.8911551660167
 10
2843.3082796755816
 20
5016.8505751529301
 42
0.0051095377183284
 10
2843.2929046781373
 20
5020.6844434968025
 42
0.0054731664458966
 10
2843.1963547932114
 20
5024.5187067522074
 42
0.005892682920827
 10
2843.0126850812167
 20
5028.3503930061725
 10
2843.0124880999001
 20
5028.3536892174852
 42
0.0063442080852311
 10
2842.7356357420786
 20
5032.1721410541577
 10
2842.7351791845595
 20
5032.1774952361375
 42
0.0068228482666659
 10
2842.3589441571994
 20
5035.9765915215048
 10
2842.358142849876
 20
5035.98369332121
 42
0.0073315741330893
 10
2841.876344172485
 20
5039.7563867139515
 10
2841.8751317746855
 20
5039.7648865448664
 42
0.0078713525019225
 10
2841.2815652682216
 20
5043.5041702891613
 10
2841.2799023468897
 20
5043.5136771054322
 42
0.0084424209398572
 10
2840.5683316395925
 20
5047.2125866804818
 10
2840.5662153846897
 20
5047.2226669108904
 42
0.0090440288864895
 10
2839.7303612370347
 20
5050.8742801949784
 10
2839.7278368609568
 20
5050.8844584551798
 42
0.0096741285101056
 10
2838.7613648537967
 20
5054.4818937049795
 10
2838.7585385481193
 20
5054.4916560500387
 42
0.0103290238620376
 10
2837.6550453973291
 20
5058.0280668641899
 10
2837.6520984602962
 20
5058.0368674583488
 42
0.0110029991294493
 10
2836.4050975379846
 20
5061.5054338149203
 10
2836.4023009251737
 20
5061.5127059360038
 42
0.011687963702665
 10
2835.0052079831903
 20
5064.9066204224418
 10
2835.0029360806116
 20
5064.9117926190893
 42
0.0123731724999502
 10
2833.4490566594359
 20
5068.2242411829238
 10
2833.4477985763128
 20
5068.2267590902575
 42
0.0130451011463333
 10
2831.7303190710441
 20
5071.4508961008787
 42
0.0136903535474379
 10
2829.8426700120099
 20
5074.5791680010725
 42
0.0142822161647677
 10
2827.7827484497902
 20
5077.5975393103781
 10
2827.779788610349
 20
5077.601620884855
 42
0.0148093643366009
 10
2825.5417576837208
 20
5080.5030006762217
 10
2825.535364384144
 20
5080.5107999954371
 42
0.0152493265108824
 10
2823.1138842488099
 20
5083.2876071931432
 10
2823.103103631172
 20
5083.2992341478139
 42
0.0155840151970151
 10
2820.4928999098429
 20
5085.9440515230617
 10
2820.4767351597975
 20
5085.9594405618245
 42
0.0157986899355138
 10
2817.6725581935866
 20
5088.4650345769551
 10
2817.6500142315258
 20
5088.4839319351977
 42
0.0158835524176465
 10
2814.6465914412338
 20
5090.8432597774108
 10
2814.6167237389486
 20
5090.8652249240668
 42
0.0158348891518632
 10
2811.4087101809951
 20
5093.0714263767422
 10
2811.3706721121798
 20
5093.0958487485432
 42
0.0156555227713132
 10
2807.9526051595444
 20
5095.1422228980719
 10
2807.9056881348679
 20
5095.1683524921455
 42
0.0153544642444355
 10
2804.2719518510103
 20
5097.0483218805975
 10
2804.215613837503
 20
5097.0753098520045
 42
0.0149455957845902
 10
2800.3604183481202
 20
5098.7823785882938
 10
2799.830197789277
 20
5098.9984457152914
 42
0.0144021244473386
 10
2796.6860596523761
 20
5100.175295461695
 10
2796.1758350693526
 20
5100.3496920177004
 42
0.0069814360673571
 10
2794.0083656603251
 20
5101.0568997523651
 42
0.0034160291596255
 10
2792.9067425450671
 20
5101.3911608296357
 42
0.0034160291596255
  0
LWPOLYLINE
  5
180
100
AcDbEntity
  8
AAA70-1102
370
               5
390
0
  6
STYLE_12
 62
               7
100
AcDbPolyline
 90
       33
 70
             128
 10
2554.056822610853
 20
4774.8713458124103
 42
0.0013717886603456
 10
2553.5429961845484
 20
4774.8979832848554
 10
2552.7971385226951
 20
4774.9345980476228
 42
0.0038035534234809
 10
2550.7908908058162
 20
4775.0177933588802
 10
2550.2231480820665
 20
4775.0370115749374
 42
0.0014115821212532
 10
2547.0805067807059
 20
4775.1345091465419
 10
2546.3085988248272
 20
4775.1562757510228
 42
0.0011656108031403
 10
2541.6215837402592
 20
4775.2775078356835
 10
2540.3529409722028
 20
4775.3073626495379
 42
-0.0001043092577165
 10
2533.1283935150718
 20
4775.4788850506066
 10
2532.5208954294426
 20
4775.4934348417319
 42
-0.0008755245890331
 10
2524.0817673980891
 20
4775.7103413389632
 10
2523.5288264850592
 20
4775.7255222009744
 42
-0.0014385062610222
 10
2513.9850293480526
 20
4776.0150254424479
 10
2513.4865568034893
 20
4776.0315817569817
 42
-0.0018942360420417
 10
2502.9481249862997
 20
4776.4215800062184
 10
2502.5039181117745
 20
4776.4397042879591
 42
-0.0023076627155665
 10
2491.0809449189514
 20
4776.9585968181127
 10
2490.690754465777
 20
4776.9781263151017
 42
-0.0027019119860182
 10
2478.493451410744
 20
4777.6547114184905
 10
2478.1569174420442
 20
4777.6752037033484
 42
-0.0031004152951559
 10
2465.2955554431442
 20
4778.5384378298149
 10
2465.0122342928953
 20
4778.5592193865286
 42
-0.0035222949907364
 10
2451.5971843996563
 20
4779.6382732185157
 10
2451.3665195621029
 20
4779.6584633905459
 42
-0.0039808950859686
 10
2437.5082853623812
 20
4780.9827403665895
 10
2435.6320748009025
 20
4781.1771150152808
 42
-0.0045135543341945
 10
2424.8329447950719
 20
4782.394525935737
 42
-0.002433369002154
 10
2414.0514593789258
 20
4783.7618947378123
 10
2413.9833529021666
 20
4783.7708693831737
 42
-0.0054196628223932
 10
2403.0891743622283
 20
4785.326747468911
 10
2401.2611951517051
 20
4785.6080648271673
 42
-0.000751361662245
 10
2399.4384537834026
 20
4785.8913832688713
 42
-0.000751361662245
  0
LWPOLYLINE
  5
181
100
AcDbEntity
  8
AAA70-1102
370
               5
390
0
  6
STYLE_12
 62
               7
100
AcDbPolyline
 90
       48
 70
             128
 10
2792.9067425450671
 20
5101.3911608296357
 42
0.0244266728594667
 10
2792.6875162825618
 20
5101.5177903620042
 10
2792.6581704990485
 20
5101.5328805074578
 42
0.0137134906320451
 10
2792.3702716929774
 20
5101.6710763199117
 10
2792.2343572229329
 20
5101.731789450022
 42
0.0155684308714876
 10
2791.6635523281766
 20
5101.9657364603981
 10
2791.4496925984104
 20
5102.0457065263799
 42
0.0126703444507846
 10
2790.4350014853558
 20
5102.3960991864269
 10
2790.2029212426924
 20
5102.4697147235256
 42
0.0104878418181644
 10
2788.7059481561701
 20
5102.9102178692865
 10
2788.4345700328304
 20
5102.9839263200647
 42
0.0087916702305177
 10
2786.376450067286
 20
5103.5042514578636
 10
2786.0652785407024
 20
5103.5771246904378
 42
0.007455120214075
 10
2783.3668735370975
 20
5104.1667687683075
 10
2783.0156226001136
 20
5104.2380528490503
 42
0.0063893875148278
 10
2779.5976387229421
 20
5104.8863495545502
 10
2779.206146979629
 20
5104.9554342338633
 42
0.0055292154946736
 10
2774.989196251779
 20
5105.6515865834654
 10
2774.5573781402904
 20
5105.7179763932108
 42
0.0048268112083769
 10
2769.462015290318
 20
5106.4510842229201
 10
2768.989831623212
 20
5106.5143745089554
 42
0.0042469466829679
 10
2762.9365764508238
 20
5107.2734564243437
 10
2762.4240163856766
 20
5107.33331430403
 42
0.0037633927401252
 10
2755.3333675123954
 20
5108.1073247985805
 10
2754.7804373828326
 20
5108.1634743026134
 42
0.0033563973542983
 10
2746.5728807998298
 20
5108.9413169932686
 10
2745.9795971263684
 20
5108.9935275422704
 42
0.0030109128166574
 10
2736.5756115526742
 20
5109.7640653930839
 10
2735.9419966374976
 20
5109.8121428578215
 42
0.0027153445165053
 10
2725.2620568950765
 20
5110.5642061040726
 10
2724.5881360359663
 20
5110.6079858442044
 42
0.0024606614185733
 10
2712.5527151762512
 20
5111.3303781612858
 10
2711.8385149068044
 20
5111.3697195730756
 42
0.0022397548731953
 10
2698.3680855445673
 20
5112.0512229412534
 10
2697.6136325311736
 20
5112.0860051635882
 42
0.0020469818677304
 10
2682.6286676625732
 20
5112.7153835943118
 10
2681.83398802601
 20
5112.7455020822763
 42
0.0018777940047113
 10
2665.2549615392995
 20
5113.3115051164923
 10
2664.4200804543361
 20
5113.3368689759891
 42
0.0017286083372927
 10
2646.1674673621951
 20
5113.8282320896724
 10
2645.2924087904598
 20
5113.8487616123957
 42
0.0015961144307345
 10
2625.2866854902604
 20
5114.254217334621
 10
2624.371472357599
 20
5114.2698433585647
 42
0.0014791789451912
 10
2602.5331165981888
 20
5114.5780823052401
 10
2601.5777690634513
 20
5114.5887399113935
 42
0.0013698466611648
 10
2577.8272587429524
 20
5114.7886190203199
 10
2577.3395549488869
 20
5114.7913872037998
 42
0.0011208303707725
 10
2554.0568226108494
 20
5114.8713458124103
 42
0.0011208303707725
  0
LWPOLYLINE
  5
182
100
AcDbEntity
  8
AAA70-1102
370
               5
390
0
  6
STYLE_12
 62
               7
100
AcDbPolyline
 90
       43
 70
             128
 10
2399.4384537834026
 20
4785.8913832688713
 42
-0.00323445224409
 10
2397.7004776391245
 20
4786.0733967757651
 10
2395.5429259366665
 20
4786.3134710747572
 42
-0.0193993342614461
 10
2389.5262248640674
 20
4787.2204039739709
 10
2387.3845072510435
 20
4787.6287538715451
 42
-0.0128724896083401
 10
2380.6708628889646
 20
4789.0888482790342
 10
2380.6530912989924
 20
4789.0931952214905
 42
-0.0128107605871301
 10
2374.0585400880118
 20
4790.886457190988
 10
2374.0437453252207
 20
4790.8908903623033
 42
-0.0127527028366349
 10
2367.5787742803004
 20
4793.0091946866796
 10
2367.5666855845493
 20
4793.0135000166401
 42
-0.0126965161521001
 10
2361.2417771983337
 20
4795.4487467086974
 10
2361.2321418503298
 20
4795.4527403185566
 42
-0.0126444789908068
 10
2355.05775801045
 20
4798.1968029905802
 10
2355.0503430687963
 20
4798.2003255332511
 42
-0.012598532849791
 10
2349.0369251562161
 20
4801.2450563619486
 10
2349.0315278454605
 20
4801.2479622402798
 42
-0.0125604641953772
 10
2343.1894829209109
 20
4804.585206601254
 10
2343.1858988247041
 20
4804.5873751760946
 42
-0.0125312005132589
 10
2337.5256494843061
 20
4808.2089448552006
 42
-0.0125170574394281
 10
2332.0555862926567
 20
4812.1080175289044
 42
-0.0125048844918234
 10
2326.7895068689754
 20
4816.2741296810909
 42
-0.0125046193802067
 10
2321.7376988162155
 20
4820.6989278938545
 42
-0.0125146092744718
 10
2316.910356312047
 20
4825.3741427375107
 42
-0.0125447724140712
 10
2312.3210825890128
 20
4830.2876672659013
 10
2312.3176685030421
 20
4830.2915115238075
 42
-0.012578527618142
 10
2307.9743341611952
 20
4835.4371682724377
 10
2307.969857977138
 20
4835.4427503403449
 42
-0.0126207744960937
 10
2303.8825920861896
 20
4840.8120393753934
 10
2303.8771479207717
 20
4840.8195786475517
 42
-0.012670009642286
 10
2300.0560758471047
 20
4846.4039731708508
 10
2300.0497657547385
 20
4846.4137159968268
 42
-0.0127244103131827
 10
2296.5050015034285
 20
4852.2046624359364
 10
2296.4979429090572
 20
4852.2168815437508
 42
-0.0127818492375093
 10
2293.2395820197976
 20
4858.2058002424365
 10
2293.2319148515007
 20
4858.2207932349511
 42
-0.012839931634763
 10
2290.2700272925749
 20
4864.3990806939746
 10
2290.2619208079168
 20
4864.4171674560039
 42
-0.0128959715136133
 10
2287.6065431190796
 20
4870.7762005901977
 10
2287.5982049936938
 20
4870.7977125464477
 42
-0.0129435144832615
 10
2285.2592896095639
 20
4877.3288260507743
 10
2285.2555271055253
 20
4877.3402561399571
 42
-0.00323784759418
 10
2284.7198746818403
 20
4879.0037015197395
 42
-0.00323784759418
  0
LWPOLYLINE
  5
183
100
AcDbEntity
  8
AAA70-1102
370
               5
390
0
  6
STYLE_12
 62
               7
100
AcDbPolyline
 90
       48
 70
             128
 10
2315.2069026766303
 20
5101.3911608296357
 42
-0.0244266728612623
 10
2315.4261289391366
 20
5101.5177903620042
 10
2315.4554747226493
 20
5101.5328805074569
 42
-0.0137134906299842
 10
2315.7433735287213
 20
5101.6710763199117
 10
2315.8792879987645
 20
5101.7317894500211
 42
-0.0155684308719614
 10
2316.4500928935217
 20
5101.9657364603981
 10
2316.6639526232871
 20
5102.0457065263799
 42
-0.0126703444507654
 10
2317.6786437363448
 20
5102.3960991864278
 10
2317.9107239790051
 20
5102.4697147235265
 42
-0.0104878418184894
 10
2319.4076970655233
 20
5102.9102178692856
 10
2319.679075188867
 20
5102.9839263200647
 42
-0.0087916702303037
 10
2321.7371951544083
 20
5103.5042514578618
 10
2322.0483666809955
 20
5103.5771246904369
 42
-0.0074551202139103
 10
2324.7467716846054
 20
5104.1667687683093
 10
2325.0980226215834
 20
5104.2380528490503
 42
-0.0063893875151091
 10
2328.5160064987531
 20
5104.8863495545502
 10
2328.9074982420684
 20
5104.9554342338643
 42
-0.0055292154944916
 10
2333.1244489699216
 20
5105.6515865834663
 10
2333.556267081407
 20
5105.7179763932108
 42
-0.0048268112085854
 10
2338.6516299313785
 20
5106.4510842229192
 10
2339.1238135984859
 20
5106.5143745089545
 42
-0.0042469466826966
 10
2345.1770687708768
 20
5107.2734564243437
 10
2345.6896288360213
 20
5107.333314304029
 42
-0.0037633927403078
 10
2352.7802777093084
 20
5108.1073247985823
 10
2353.3332078388648
 20
5108.1634743026134
 42
-0.0033563973542446
 10
2361.5407644218599
 20
5108.9413169932668
 10
2362.1340480953295
 20
5108.9935275422704
 42
-0.0030109128165744
 10
2371.5380336690455
 20
5109.7640653930857
 10
2372.1716485842003
 20
5109.8121428578215
 42
-0.0027153445166382
 10
2382.8515883266105
 20
5110.5642061040717
 10
2383.5255091857316
 20
5110.6079858442044
 42
-0.0024606614184605
 10
2395.5609300454453
 20
5111.3303781612849
 10
2396.2751303148934
 20
5111.3697195730747
 42
-0.0022397548732542
 10
2409.7455596771392
 20
5112.0512229412543
 10
2410.5000126905243
 20
5112.0860051635882
 42
-0.0020469818676897
 10
2425.4849775590937
 20
5112.71538359431
 10
2426.2796571956878
 20
5112.7455020822763
 42
-0.0018777940047224
 10
2442.8586836823965
 20
5113.3115051164923
 10
2443.6935647673617
 20
5113.33686897599
 42
-0.0017286083372847
 10
2461.9461778595414
 20
5113.8282320896733
 10
2462.8212364312385
 20
5113.8487616123966
 42
-0.0015961144307736
 10
2482.8269597314134
 20
5114.2542173346201
 10
2483.7421728640993
 20
5114.2698433585647
 42
-0.0014791789451162
 10
2505.5805286235127
 20
5114.5780823052401
 10
2506.535876158247
 20
5114.5887399113935
 42
-0.0013698466612054
 10
2530.28638647871
 20
5114.7886190203208
 10
2530.7740902728124
 20
5114.7913872038007
 42
-0.0011208308695408
 10
2554.0568226108494
 20
5114.8713458124103
 42
-0.0011208308695408
  0
LWPOLYLINE
  5
184
100
AcDbEntity
  8
AAA70-1102
370
               5
390
0
  6
STYLE_12
 62
               7
100
AcDbPolyline
 90
       31
 70
             128
 10
2284.7198746818403
 20
4879.0037015197395
 42
-0.002122432387695
 10
2284.0664748742165
 20
4881.1100225255523
 10
2283.9050139172555
 20
4881.6384294259342
 42
-0.0041055452455408
 10
2282.9636927503739
 20
4884.812067242392
 10
2282.5014111573805
 20
4886.4189164155023
 42
-0.0075543106456861
 10
2280.7586102843784
 20
4892.8403148028738
 10
2280.4779869191416
 20
4893.9397251021692
 42
-0.0068081324996202
 10
2278.389089850019
 20
4902.6147212037213
 10
2278.3822173157073
 20
4902.6450721204274
 42
-0.0061133710729947
 10
2276.5051432419486
 20
4911.4321657083092
 10
2276.4999538623242
 20
4911.4580008277117
 42
-0.005455591053355
 10
2274.8168376318777
 20
4920.3380813471704
 10
2274.8131975756451
 20
4920.358501477659
 42
-0.0048310871357502
 10
2273.3062119437272
 20
4929.3123486900522
 10
2273.3039596138751
 20
4929.3265692044151
 42
-0.0042356522241174
 10
2271.955298178309
 20
4938.3348436697779
 10
2271.9542614250095
 20
4938.3421932326455
 42
-0.0036646005395632
 10
2270.7461310884823
 20
4947.3853567452607
 10
2270.7451226950479
 20
4947.3933507843385
 42
-0.0031133926580962
 10
2269.6616079634673
 20
4956.4360378927349
 10
2269.659758304384
 20
4956.4523329166686
 42
-0.0025751144393595
 10
2268.6827153423446
 20
4965.4742088844614
 10
2268.6801463527286
 20
4965.4991289177151
 42
-0.0020521832553809
 10
2267.7915667053212
 20
4974.4798439191472
 10
2267.788360507147
 20
4974.5136645026523
 42
-0.0015221040694593
 10
2266.9702055565044
 20
4983.4328760487142
 10
2266.8693063353658
 20
4984.5709157996816
 42
-0.0009734861604376
 10
2266.2930428664167
 20
4991.217660453618
 10
2266.1981381461646
 20
4992.3376476757612
 42
-0.0002824465825128
 10
2265.8271152646071
 20
4996.7457494437967
 42
-0.000088820804527
 10
2265.6436919561465
 20
4998.9445286139244
 42
-0.000088820804527
  0
LWPOLYLINE
  5
185
100
AcDbEntity
  8
AAA70-1102
370
               5
390
0
  6
STYLE_12
 62
               7
100
AcDbPolyline
 90
       61
 70
             128
 10
2265.6436919561465
 20
4998.9445286139244
 42
-0.0007827547314931
 10
2265.568187086239
 20
4999.8690830126998
 10
2265.4748277162003
 20
5001.0347567959825
 42
-0.0054118041797335
 10
2265.2493208448532
 20
5004.2932178345318
 10
2265.2078110204993
 20
5005.004746542003
 42
-0.0039432617466656
 10
2264.9715092669594
 20
5009.6905694933484
 10
2264.9500993580232
 20
5010.1940297012434
 42
-0.009073053417376
 10
2264.8113223723954
 20
5015.8911551660158
 10
2264.8053655461154
 20
5016.8505751529337
 42
-0.0051095377184683
 10
2264.8207405435592
 20
5020.6844434968016
 42
-0.0054685766139247
 10
2264.9172904284856
 20
5024.5187067522074
 42
-0.0058956478855763
 10
2265.1009601404803
 20
5028.3503930061734
 10
2265.1011571217973
 20
5028.3536892174916
 42
-0.0063442080853142
 10
2265.3780094796184
 20
5032.1721410541586
 10
2265.378466037138
 20
5032.1774952361375
 42
-0.0068228482665448
 10
2265.7547010644976
 20
5035.9765915215048
 10
2265.7555023718214
 20
5035.98369332121
 42
-0.0073315741331148
 10
2266.237301049212
 20
5039.7563867139534
 10
2266.2385134470123
 20
5039.7648865448782
 42
-0.0078713525020063
 10
2266.8320799534754
 20
5043.5041702891631
 10
2266.8337428748077
 20
5043.5136771054385
 42
-0.0084424209398539
 10
2267.5453135821044
 20
5047.2125866804818
 10
2267.5474298370059
 20
5047.2226669108823
 42
-0.009044028886478
 10
2268.3832839846627
 20
5050.8742801949775
 10
2268.3858083607406
 20
5050.8844584551798
 42
-0.0096741285100109
 10
2269.3522803679007
 20
5054.4818937049795
 10
2269.3551066735754
 20
5054.4916560500296
 42
-0.0103290238620571
 10
2270.4585998243683
 20
5058.0280668641899
 10
2270.4615467614017
 20
5058.0368674583506
 42
-0.011002999129455
 10
2271.7085476837124
 20
5061.5054338149212
 10
2271.7113442965233
 20
5061.5127059360038
 42
-0.0116879637027945
 10
2273.1084372385071
 20
5064.9066204224409
 10
2273.1107091410877
 20
5064.911792619092
 42
-0.0123731724997252
 10
2274.6645885622615
 20
5068.2242411829229
 10
2274.6658466453837
 20
5068.2267590902547
 42
-0.0130451011464796
 10
2276.3833261506529
 20
5071.4508961008778
 42
-0.0136847879280449
 10
2278.2709752096875
 20
5074.5791680010707
 42
-0.0142822161645261
 10
2280.3308967719086
 20
5077.5975393103799
 10
2280.3338566113484
 20
5077.6016208848541
 42
-0.0148093643368016
 10
2282.5718875379771
 20
5080.5030006762227
 10
2282.5782808375534
 20
5080.510799995438
 42
-0.0152493265108801
 10
2284.999760972888
 20
5083.2876071931432
 10
2285.0105415905255
 20
5083.2992341478139
 42
-0.0155840151968693
 10
2287.6207453118518
 20
5085.944051523059
 10
2287.6369100618999
 20
5085.9594405618245
 42
-0.0157986899357503
 10
2290.4410870281158
 20
5088.4650345769587
 10
2290.4636309901721
 20
5088.4839319351968
 42
-0.0158835524173269
 10
2293.4670537804604
 20
5090.843259777409
 10
2293.4969214827488
 20
5090.8652249240668
 42
-0.0158348891521413
 10
2296.7049350407042
 20
5093.0714263767441
 10
2296.7429731095181
 20
5093.0958487485441
 42
-0.0156555227711557
 10
2300.1610400621494
 20
5095.14222289807
 10
2300.20795708683
 20
5095.1683524921455
 42
-0.0153544642444513
 10
2303.8416933706922
 20
5097.0483218806003
 10
2303.8980313841948
 20
5097.0753098520045
 42
-0.0149455957846088
 10
2307.7532268735772
 20
5098.7823785882947
 10
2308.2834474324168
 20
5098.9984457152905
 42
-0.0144021244473511
 10
2311.4275855693213
 20
5100.175295461695
 10
2311.937810152348
 20
5100.3496920177013
 42
-0.0069814360673402
 10
2314.1052795613723
 20
5101.0568997523651
 42
-0.0034144195831822
 10
2315.2069026766303
 20
5101.3911608296357
 42
-0.0034144195831822
  0
LWPOLYLINE
  5
186
100
AcDbEntity
  8
AAA70-1102
370
              15
390
0
  6
Continuous
 62
               7
100
AcDbPolyline
 90
       43
 70
             128
 10
1819.0226836781806
 20
4793.7787017990495
 42
0.0032344522440106
 10
1820.7606598224636
 20
4793.9607153059442
 10
1822.9182115249166
 20
4794.2007896049345
 42
0.0193993342615969
 10
1828.9349125975159
 20
4795.1077225041472
 10
1831.0766302105385
 20
4795.5160724017223
 42
0.0128724896083169
 10
1837.7902745726183
 20
4796.9761668092124
 10
1837.8080461625898
 20
4796.9805137516687
 42
0.0128107605870554
 10
1844.4025973735711
 20
4798.7737757211653
 10
1844.4173921363622
 20
4798.7782088924805
 42
0.0127527028367449
 10
1850.882363181282
 20
4800.8965132168578
 10
1850.8944518770327
 20
4800.9008185468183
 42
0.0126965161519257
 10
1857.2193602632487
 20
4803.3360652388747
 10
1857.2289956112522
 20
4803.3400588487339
 42
0.012644478990994
 10
1863.4033794511329
 20
4806.0841215207565
 10
1863.4107943927854
 20
4806.0876440634283
 42
0.012598532849775
 10
1869.4242123053666
 20
4809.1323748921277
 10
1869.4296096161227
 20
4809.1352807704598
 42
0.0125604641952462
 10
1875.2716545406711
 20
4812.4725251314321
 10
1875.2752386368786
 20
4812.4746937062728
 42
0.0125312005133154
 10
1880.9354879772764
 20
4816.0962633853778
 42
0.0125087613242921
 10
1886.405551168926
 20
4819.9953360590825
 42
0.0125031055308439
 10
1891.6716305926072
 20
4824.16144821127
 42
0.01250959864588
 10
1896.7234386453677
 20
4828.5862464240327
 42
0.0125266416358099
 10
1901.5507811495356
 20
4833.261461267688
 42
0.0125447724140861
 10
1906.1400548725696
 20
4838.1749857960795
 10
1906.1434689585408
 20
4838.1788300539856
 42
0.0125785276180078
 10
1910.4868033003888
 20
4843.3244868026168
 10
1910.4912794844452
 20
4843.3300688705231
 42
0.0126207744962098
 10
1914.5785453753933
 20
4848.6993579055688
 10
1914.5839895408114
 20
4848.706897177728
 42
0.0126700096423206
 10
1918.4050616144782
 20
4854.2912917010281
 10
1918.4113717068449
 20
4854.301034527005
 42
0.0127244103131598
 10
1921.9561359581544
 20
4860.0919809661154
 10
1921.9631945525252
 20
4860.104200073929
 42
0.012781849237468
 10
1925.2215554417839
 20
4866.0931187726128
 10
1925.2292226100817
 20
4866.1081117651293
 42
0.0128399316348311
 10
1928.1911101690089
 20
4872.2863992241555
 10
1928.1992166536659
 20
4872.304485986183
 42
0.0128959715135514
 10
1930.8545943425024
 20
4878.6635191203759
 10
1930.8629324678889
 20
4878.6850310766267
 42
0.0129435144832829
 10
1933.2018478520195
 20
4885.2161445809552
 10
1933.2056103560574
 20
4885.2275746701362
 42
0.003237561201008
 10
1933.7412627797423
 20
4886.8910200499176
 42
0.003237561201008
  0
LWPOLYLINE
  5
187
100
AcDbEntity
  8
AAA70-1102
370
              15
390
0
  6
Continuous
 62
               7
100
AcDbPolyline
 90
       31
 70
             128
 10
1933.7412627797423
 20
4886.8910200499176
 42
0.002122432387646
 10
1934.394662587368
 20
4888.9973410557368
 10
1934.5561235443272
 20
4889.5257479561124
 42
0.004105545245578
 10
1935.4974447112099
 20
4892.6993857725747
 10
1935.9597263042024
 20
4894.3062349456804
 42
0.007554310645653
 10
1937.7025271772029
 20
4900.7276333330465
 10
1937.9831505424413
 20
4901.8270436323473
 42
0.0068081324996702
 10
1940.0720476115641
 20
4910.5020397339031
 10
1940.0789201458751
 20
4910.5323906506055
 42
0.0061133710729516
 10
1941.955994219634
 20
4919.3194842384873
 10
1941.9611835992584
 20
4919.3453193578916
 42
0.0054555910533766
 10
1943.6442998297061
 20
4928.2253998773558
 10
1943.6479398859378
 20
4928.2458200078381
 42
0.0048310871357358
 10
1945.154925517855
 20
4937.1996672202285
 10
1945.1571778477073
 20
4937.2138877345942
 42
0.0042356522241191
 10
1946.5058392832734
 20
4946.2221621999533
 10
1946.5068760365732
 20
4946.2295117628237
 42
0.0036645277085352
 10
1947.7150063731006
 20
4955.272675275437
 10
1947.7160147665343
 20
4955.2806693145121
 42
0.003113392658114
 10
1948.7995294981156
 20
4964.3233564229131
 10
1948.8013791571991
 20
4964.3396514468486
 42
0.0025751144393649
 10
1949.7784221192378
 20
4973.3615274146396
 10
1949.7809911088546
 20
4973.3864474479014
 42
0.0020521832553404
 10
1950.6695707562615
 20
4982.3671624493245
 10
1950.6727769544343
 20
4982.4009830328177
 42
0.0015221040695231
 10
1951.4909319050782
 20
4991.3201945788924
 10
1951.5918311262192
 20
4992.4582343298898
 42
0.0009734861603948
 10
1952.1680945951655
 20
4999.1049789837953
 10
1952.2629993154153
 20
5000.224966205913
 42
0.0002824465824882
 10
1952.6340221969751
 20
5004.633067973974
 42
0.000088885554002
 10
1952.8174455054354
 20
5006.8318471441016
 42
0.000088885554002
  0
LWPOLYLINE
  5
188
100
AcDbEntity
  8
AAA70-1102
370
              15
390
0
  6
Continuous
 62
               7
100
AcDbPolyline
 90
       33
 70
             128
 10
1664.4043148507303
 20
4782.7586643425884
 42
-0.001371788660725
 10
1664.9181412770563
 20
4782.7853018150354
 10
1665.6639989388882
 20
4782.8219165778019
 42
-0.0038035534237728
 10
1667.6702466557661
 20
4782.9051118890584
 10
1668.2379893795169
 20
4782.9243301051147
 42
-0.00141158212086
 10
1671.3806306808674
 20
4783.0218276767182
 10
1672.1525386367557
 20
4783.0435942812001
 42
-0.0011656108033308
 10
1676.8395537213216
 20
4783.1648263658617
 10
1678.1081964893804
 20
4783.1946811797152
 42
0.0001043092577831
 10
1685.3327439466116
 20
4783.3662035807884
 10
1685.9402420321405
 20
4783.3807533719109
 42
0.0008755245888508
 10
1694.3793700634956
 20
4783.5976598691423
 10
1694.9323109765239
 20
4783.6128407311535
 42
0.001438506261027
 10
1704.4761081135218
 20
4783.9023439726243
 10
1704.9745806580936
 20
4783.918900287159
 42
0.0018942360421736
 10
1715.5130124752741
 20
4784.3088985363947
 10
1715.9572193498084
 20
4784.3270228181354
 42
0.0023076627155034
 10
1727.3801925426271
 20
4784.8459153482909
 10
1727.7703829958059
 20
4784.8654448452799
 42
0.0027019119859951
 10
1739.9676860508489
 20
4785.5420299486686
 10
1740.3042200195387
 20
4785.5625222335257
 42
0.003100415295223
 10
1753.1655820184446
 20
4786.425756359994
 10
1753.448903168688
 20
4786.4465379167068
 42
0.0035222949906182
 10
1766.863953061925
 20
4787.5255917486938
 10
1767.0946178994809
 20
4787.545781920724
 42
0.0039808950860557
 10
1780.9528520991946
 20
4788.8700588967658
 10
1782.8290626606858
 20
4789.0644335454581
 42
0.0045135543341745
 10
1793.628192666511
 20
4790.2818444659142
 42
0.002433369002154
 10
1804.4096780826517
 20
4791.6492132679896
 10
1804.4777845594162
 20
4791.658187913351
 42
0.0054196628224547
 10
1815.3719630993548
 20
4793.2140659990891
 10
1817.1999423098782
 20
4793.4953833573463
 42
0.0007520486346142
 10
1819.0226836781806
 20
4793.7787017990495
 42
0.0007520486346142
  0
LWPOLYLINE
  5
189
100
AcDbEntity
  8
AAA70-1102
370
              15
390
0
  6
Continuous
 62
               7
100
AcDbPolyline
 90
       61
 70
             128
 10
1952.8174455054354
 20
5006.8318471441016
 42
0.0007827547315463
 10
1952.8929503753438
 20
5007.7564015428879
 10
1952.9863097453815
 20
5008.9220753261588
 42
0.0054118041795809
 10
1953.2118166167286
 20
5012.1805363647063
 10
1953.2533264410824
 20
5012.8920650721793
 42
0.0039432617467395
 10
1953.4896281946237
 20
5017.5778880235275
 10
1953.5110381035595
 20
5018.0813482314206
 42
0.0090730534174165
 10
1953.6498150891871
 20
5023.778473696193
 10
1953.6557719154669
 20
5024.7378936831046
 42
0.0051095377184127
 10
1953.6403969180226
 20
5028.5717620269797
 42
0.005473166445837
 10
1953.5438470330964
 20
5032.4060252823856
 42
0.0058926829208611
 10
1953.3601773211019
 20
5036.2377115363515
 10
1953.3599803397849
 20
5036.241007747667
 42
0.0063442080851939
 10
1953.083127981964
 20
5040.0594595843359
 10
1953.0826714244442
 20
5040.0648137663165
 42
0.006822848266675
 10
1952.7064363970849
 20
5043.8639100516821
 10
1952.7056350897617
 20
5043.8710118513845
 42
0.0073315741330031
 10
1952.2238364123705
 20
5047.6437052441297
 10
1952.2226240145694
 20
5047.6522050750573
 42
0.0078713525021192
 10
1951.6290575081071
 20
5051.3914888193394
 10
1951.6273945867747
 20
5051.4009956356122
 42
0.0084424209396912
 10
1950.915823879478
 20
5055.099905210659
 10
1950.9137076245761
 20
5055.1099854410613
 42
0.0090440288865854
 10
1950.0778534769199
 20
5058.7615987251556
 10
1950.0753291008421
 20
5058.7717769853571
 42
0.0096741285100317
 10
1949.1088570936818
 20
5062.3692122351567
 10
1949.106030788007
 20
5062.378974580206
 42
0.0103290238620329
 10
1948.0025376372141
 20
5065.9153853943671
 10
1947.9995907001805
 20
5065.9241859885278
 42
0.0110029991293591
 10
1946.7525897778701
 20
5069.3927523450984
 10
1946.7497931650591
 20
5069.400024466182
 42
0.011687963702836
 10
1945.352700223076
 20
5072.79393895262
 10
1945.3504283204959
 20
5072.7991111492702
 42
0.0123731724997527
 10
1943.7965488993211
 20
5076.1115597131029
 10
1943.7952908161983
 20
5076.1140776204356
 42
0.0130451011466042
 10
1942.0778113109293
 20
5079.3382146310569
 42
0.0136903535472071
 10
1940.1901622518953
 20
5082.4664865312498
 42
0.0142822161647886
 10
1938.1302406896739
 20
5085.4848578405599
 10
1938.1272808502345
 20
5085.4889394150332
 42
0.0148093643369311
 10
1935.8892499236049
 20
5088.3903192063999
 10
1935.8828566240293
 20
5088.3981185256134
 42
0.01524932651034
 10
1933.4613764886976
 20
5091.1749257233168
 10
1933.450595871057
 20
5091.1865526779902
 42
0.0155840151973885
 10
1930.8403921497274
 20
5093.8313700532408
 10
1930.8242273996827
 20
5093.8467590920027
 42
0.0157986899353335
 10
1928.0200504334689
 20
5096.3523531071351
 10
1927.9975064714113
 20
5096.3712504653749
 42
0.0158835524178451
 10
1924.9940836811209
 20
5098.7305783075881
 10
1924.9642159788341
 20
5098.752543454244
 42
0.0158348891515824
 10
1921.7562024208792
 20
5100.9587449069222
 10
1921.7181643520646
 20
5100.9831672787222
 42
0.015655522771638
 10
1918.3000973994326
 20
5103.0295414282482
 10
1918.2531803747529
 20
5103.0556710223236
 42
0.0153544642441917
 10
1914.6194440908935
 20
5104.9356404107757
 10
1914.5631060773881
 20
5104.9626283821817
 42
0.0149455957847157
 10
1910.7079105880073
 20
5106.669697118471
 10
1910.1776900291622
 20
5106.8857642454695
 42
0.0144021244471857
 10
1907.0335518922616
 20
5108.0626139918731
 10
1906.5233273092333
 20
5108.2370105478803
 42
0.0069814360675698
 10
1904.3558579002104
 20
5108.9442182825433
 42
0.0034160291594061
 10
1903.2542347849524
 20
5109.278479359813
 42
0.0034160291594061
  0
LWPOLYLINE
  5
18A
100
AcDbEntity
  8
AAA70-1102
370
              15
390
0
  6
Continuous
 62
               7
100
AcDbPolyline
 90
       33
 70
             128
 10
1664.4043148507376
 20
4782.7586643425884
 42
0.0013717886608211
 10
1663.8904884244278
 20
4782.7853018150345
 10
1663.1446307625797
 20
4782.8219165778009
 42
0.0038035534235429
 10
1661.138383045698
 20
4782.9051118890584
 10
1660.5706403219513
 20
4782.9243301051147
 42
0.0014115821209436
 10
1657.427999020586
 20
4783.02182767672
 10
1656.6560910647124
 20
4783.0435942812019
 42
0.0011656108034439
 10
1651.9690759801583
 20
4783.1648263658626
 10
1650.700433212088
 20
4783.1946811797161
 42
-0.0001043092580491
 10
1643.4758857547863
 20
4783.3662035807893
 10
1642.8683876693274
 20
4783.3807533719109
 42
-0.0008755245888983
 10
1634.429259637966
 20
4783.5976598691423
 10
1633.8763187249438
 20
4783.6128407311535
 42
-0.001438506261027
 10
1624.3325215879418
 20
4783.9023439726243
 10
1623.8340490433743
 20
4783.918900287159
 42
-0.0018942360421077
 10
1613.2956172261938
 20
4784.3088985363947
 10
1612.8514103516595
 20
4784.3270228181354
 42
-0.0023076627155455
 10
1601.4284371588369
 20
4784.84591534829
 10
1601.038246705662
 20
4784.8654448452789
 42
-0.002701911986049
 10
1588.8409436506322
 20
4785.5420299486686
 10
1588.5044096819292
 20
4785.5625222335266
 42
-0.0031004152951335
 10
1575.6430476830219
 20
4786.4257563599949
 10
1575.3597265327803
 20
4786.4465379167077
 42
-0.0035222949906793
 10
1561.9446766395458
 20
4787.5255917486948
 10
1561.7140118019875
 20
4787.5457819207249
 42
-0.0039808950860226
 10
1547.8557776022642
 20
4788.8700588967686
 10
1545.9795670407841
 20
4789.0644335454599
 42
-0.004513554334153
 10
1535.1804370349564
 20
4790.2818444659151
 42
-0.0024333690021996
 10
1524.398951618809
 20
4791.6492132679914
 10
1524.3308451420512
 20
4791.6581879133519
 42
-0.0054196628223753
 10
1513.4366666021192
 20
4793.2140659990891
 10
1511.6086873915897
 20
4793.4953833573463
 42
-0.000751361662245
 10
1509.7859460232871
 20
4793.7787017990495
 42
-0.000751361662245
  0
LWPOLYLINE
  5
18B
100
AcDbEntity
  8
AAA70-1102
370
              15
390
0
  6
Continuous
 62
               7
100
AcDbPolyline
 90
       48
 70
             128
 10
1903.2542347849524
 20
5109.278479359813
 42
0.0244266728585794
 10
1903.0350085224459
 20
5109.4051088921815
 10
1903.0056627389333
 20
5109.4201990376341
 42
0.0137134906313707
 10
1902.7177639328604
 20
5109.5583948500898
 10
1902.5818494628177
 20
5109.6191079801993
 42
0.0155684308717245
 10
1902.0110445680616
 20
5109.8530549905754
 10
1901.7971848382956
 20
5109.9330250565563
 42
0.0126703444506443
 10
1900.7824937252408
 20
5110.2834177166042
 10
1900.5504134825778
 20
5110.3570332537029
 42
0.0104878418180519
 10
1899.0534403960582
 20
5110.7975363994638
 10
1898.7820622727161
 20
5110.8712448502438
 42
0.0087916702310625
 10
1896.7239423071742
 20
5111.3915699880408
 10
1896.4127707805876
 20
5111.4644432206151
 42
0.0074551202134792
 10
1893.7143657769748
 20
5112.0540872984875
 10
1893.3631148399993
 20
5112.1253713792285
 42
0.0063893875153448
 10
1889.9451309628344
 20
5112.7736680847283
 10
1889.5536392195145
 20
5112.8427527640424
 42
0.0055292154943435
 10
1885.3366884916575
 20
5113.5389051136444
 10
1884.9048703801757
 20
5113.605294923389
 42
0.0048268112086055
 10
1879.8095075302053
 20
5114.3384027530974
 10
1879.3373238630966
 20
5114.4016930391326
 42
0.0042469466827783
 10
1873.2840686907023
 20
5115.1607749545219
 10
1872.7715086255614
 20
5115.2206328342072
 42
0.0037633927401455
 10
1865.6808597522861
 20
5115.9946433287596
 10
1865.1279296227181
 20
5116.0507928327916
 42
0.0033563973544079
 10
1856.9203730397235
 20
5116.8286355234459
 10
1856.3270893662534
 20
5116.8808460724485
 42
0.0030109128165536
 10
1846.923103792554
 20
5117.6513839232621
 10
1846.2894888773828
 20
5117.6994613879988
 42
0.0027153445165922
 10
1835.6095491349479
 20
5118.4515246342507
 10
1834.9356282758513
 20
5118.4953043743817
 42
0.0024606614184521
 10
1822.9002074161347
 20
5119.2176966914631
 10
1822.1860071466895
 20
5119.2570381032529
 42
0.0022397548733099
 10
1808.7155777844766
 20
5119.9385414714316
 10
1807.9611247710586
 20
5119.9733236937664
 42
0.0020469818676897
 10
1792.9761599024491
 20
5120.602702124489
 10
1792.1814802658951
 20
5120.6328206124535
 42
0.0018777940046485
 10
1775.6024537792027
 20
5121.1988236466705
 10
1774.7675726942211
 20
5121.2241875061682
 42
0.001728608337381
 10
1756.5149596020303
 20
5121.7155506198524
 10
1755.6399010303448
 20
5121.7360801425748
 42
0.0015961144307171
 10
1735.6341777301889
 20
5122.1415358647973
 10
1734.718964597484
 20
5122.1571618887428
 42
0.0014791789451302
 10
1712.880608838072
 20
5122.4654008354191
 10
1711.9252613033364
 20
5122.4760584415726
 42
0.001369846661256
 10
1688.1747509828624
 20
5122.675937550498
 10
1687.6870471887714
 20
5122.6787057339779
 42
0.001120830370692
 10
1664.404314850734
 20
5122.7586643425884
 42
0.001120830370692
  0
LWPOLYLINE
  5
18C
100
AcDbEntity
  8
AAA70-1102
370
              15
390
0
  6
Continuous
 62
               7
100
AcDbPolyline
 90
       43
 70
             128
 10
1509.7859460232871
 20
4793.7787017990495
 42
-0.0032344522440642
 10
1508.0479698790054
 20
4793.9607153059442
 10
1505.8904181765513
 20
4794.2007896049354
 42
-0.0193993342614672
 10
1499.8737171039529
 20
4795.1077225041481
 10
1497.7319994909271
 20
4795.5160724017232
 42
-0.012872489608339
 10
1491.0183551288492
 20
4796.9761668092124
 10
1491.0005835388783
 20
4796.9805137516678
 42
-0.0128107605871751
 10
1484.4060323278966
 20
4798.7737757211662
 10
1484.3912375651043
 20
4798.7782088924814
 42
-0.0127527028365854
 10
1477.9262665201854
 20
4800.8965132168587
 10
1477.9141778244357
 20
4800.9008185468192
 42
-0.0126965161519842
 10
1471.5892694382187
 20
4803.3360652388747
 10
1471.5796340902152
 20
4803.3400588487339
 42
-0.0126444789910391
 10
1465.4052502503348
 20
4806.0841215207574
 10
1465.3978353086818
 20
4806.0876440634283
 42
-0.0125985328496014
 10
1459.3844173961011
 20
4809.1323748921268
 10
1459.3790200853459
 20
4809.1352807704579
 42
-0.0125604641955016
 10
1453.5369751607961
 20
4812.4725251314312
 10
1453.5333910645882
 20
4812.4746937062728
 42
-0.0125312005131735
 10
1447.8731417241911
 20
4816.0962633853787
 42
-0.0125170574394869
 10
1442.4030785325417
 20
4819.9953360590816
 42
-0.0125048844917856
 10
1437.1369991088604
 20
4824.1614482112691
 42
-0.0125046193801812
 10
1432.0851910561
 20
4828.5862464240317
 42
-0.0125146092745195
 10
1427.2578485519321
 20
4833.2614612676871
 42
-0.0125447724141442
 10
1422.6685748288999
 20
4838.1749857960776
 10
1422.6651607429271
 20
4838.1788300539856
 42
-0.0125785276179775
 10
1418.321826401077
 20
4843.3244868026195
 10
1418.3173502170225
 20
4843.3300688705231
 42
-0.0126207744961745
 10
1414.230084326075
 20
4848.699357905567
 10
1414.2246401606558
 20
4848.706897177728
 42
-0.0126700096423688
 10
1410.4035680869897
 20
4854.2912917010262
 10
1410.397257994623
 20
4854.3010345270031
 42
-0.0127244103131478
 10
1406.8524937433124
 20
4860.0919809661164
 10
1406.8454351489422
 20
4860.104200073928
 42
-0.0127818492374914
 10
1403.587074259683
 20
4866.0931187726137
 10
1403.5794070913857
 20
4866.1081117651293
 42
-0.0128399316347889
 10
1400.617519532459
 20
4872.2863992241546
 10
1400.6094130478018
 20
4872.304485986183
 42
-0.0128959715135487
 10
1397.9540353589641
 20
4878.6635191203768
 10
1397.9456972335788
 20
4878.6850310766249
 42
-0.0129435144833543
 10
1395.6067818494512
 20
4885.2161445809452
 10
1395.6030193454103
 20
4885.2275746701353
 42
-0.0032378475941072
 10
1395.0673669217254
 20
4886.8910200499176
 42
-0.0032378475941072
  0
LWPOLYLINE
  5
18D
100
AcDbEntity
  8
AAA70-1102
370
              15
390
0
  6
Continuous
 62
               7
100
AcDbPolyline
 90
       48
 70
             128
 10
1425.5543949165153
 20
5109.278479359813
 42
-0.024426672853565
 10
1425.7736211790211
 20
5109.4051088921806
 10
1425.8029669625348
 20
5109.4201990376332
 42
-0.0137134906331885
 10
1426.0908657686055
 20
5109.558394850088
 10
1426.2267802386502
 20
5109.6191079801984
 42
-0.0155684308709014
 10
1426.7975851334074
 20
5109.8530549905754
 10
1427.0114448631723
 20
5109.9330250565572
 42
-0.0126703444514553
 10
1428.0261359762294
 20
5110.283417716606
 10
1428.2582162188901
 20
5110.3570332537038
 42
-0.0104878418178302
 10
1429.7551893054074
 20
5110.7975363994628
 10
1430.0265674287521
 20
5110.8712448502438
 42
-0.0087916702311469
 10
1432.0846873942983
 20
5111.3915699880417
 10
1432.3958589208801
 20
5111.4644432206142
 42
-0.0074551202131366
 10
1435.0942639244886
 20
5112.0540872984857
 10
1435.4455148614684
 20
5112.1253713792275
 42
-0.0063893875155783
 10
1438.8634987386379
 20
5112.7736680847293
 10
1439.2549904819534
 20
5112.8427527640424
 42
-0.0055292154942494
 10
1443.4719412097991
 20
5113.5389051136426
 10
1443.9037593212925
 20
5113.605294923389
 42
-0.0048268112086041
 10
1448.999122171273
 20
5114.3384027531001
 10
1449.4713058383713
 20
5114.4016930391344
 42
-0.0042469466829221
 10
1455.5245610107513
 20
5115.160774954521
 10
1456.0371210759063
 20
5115.2206328342072
 42
-0.0037633927400459
 10
1463.1277699492016
 20
5115.9946433287605
 10
1463.6807000787496
 20
5116.0507928327906
 42
-0.0033563973543562
 10
1471.8882566617362
 20
5116.828635523445
 10
1472.4815403352143
 20
5116.8808460724485
 42
-0.0030109128165836
 10
1481.8855259089264
 20
5117.6513839232639
 10
1482.5191408240848
 20
5117.6994613879997
 42
-0.0027153445166382
 10
1493.1990805665002
 20
5118.4515246342498
 10
1493.8730014256164
 20
5118.4953043743826
 42
-0.0024606614184098
 10
1505.9084222853312
 20
5119.2176966914631
 10
1506.622622554778
 20
5119.2570381032529
 42
-0.0022397548733316
 10
1520.0930519169963
 20
5119.9385414714316
 10
1520.8475049304091
 20
5119.9733236937664
 42
-0.0020469818676423
 10
1535.832469799012
 20
5120.602702124489
 10
1536.6271494355728
 20
5120.6328206124535
 42
-0.0018777940047002
 10
1553.2061759222947
 20
5121.1988236466714
 10
1554.0410570072468
 20
5121.2241875061682
 42
-0.0017286083373529
 10
1572.2936700993878
 20
5121.7155506198505
 10
1573.1687286711231
 20
5121.7360801425739
 42
-0.001596114430704
 10
1593.1744519712888
 20
5122.1415358647982
 10
1594.0896651039841
 20
5122.1571618887428
 42
-0.0014791789451818
 10
1615.9280208634068
 20
5122.4654008354191
 10
1616.8833683981316
 20
5122.4760584415726
 42
-0.0013698466612104
 10
1640.6338787186082
 20
5122.675937550498
 10
1641.1215825126965
 20
5122.6787057339779
 42
-0.0011208308694912
 10
1664.404314850734
 20
5122.7586643425884
 42
-0.0011208308694912
  0
LWPOLYLINE
  5
18E
100
AcDbEntity
  8
AAA70-1102
370
              15
390
0
  6
Continuous
 62
               7
100
AcDbPolyline
 90
       31
 70
             128
 10
1395.0673669217254
 20
4886.8910200499176
 42
-0.0021224323876721
 10
1394.4139671140929
 20
4888.9973410557595
 10
1394.2525061571405
 20
4889.5257479561124
 42
-0.0041055452455797
 10
1393.3111849902598
 20
4892.6993857725674
 10
1392.8489033972655
 20
4894.3062349456804
 42
-0.0075543106456824
 10
1391.106102524265
 20
4900.7276333330465
 10
1390.8254791590266
 20
4901.8270436323482
 42
-0.0068081324996202
 10
1388.7365820899033
 20
4910.502039733904
 10
1388.7297095555923
 20
4910.5323906506064
 42
-0.0061133710729993
 10
1386.8526354818332
 20
4919.3194842384892
 10
1386.8474461022092
 20
4919.3453193578907
 42
-0.0054555910533333
 10
1385.1643298717622
 20
4928.2253998773504
 10
1385.1606898155298
 20
4928.2458200078372
 42
-0.0048310871357818
 10
1383.6537041836118
 20
4937.1996672202331
 10
1383.6514518537604
 20
4937.2138877345933
 42
-0.0042356522240699
 10
1382.3027904181927
 20
4946.2221621999652
 10
1382.3017536648945
 20
4946.2295117628237
 42
-0.0036646005396068
 10
1381.0936233283669
 20
4955.272675275437
 10
1381.092614934932
 20
4955.2806693145203
 42
-0.0031133926580784
 10
1380.0091002033521
 20
4964.3233564229122
 10
1380.0072505442677
 20
4964.3396514468559
 42
-0.0025751144393568
 10
1379.0302075822297
 20
4973.3615274146377
 10
1379.0276385926113
 20
4973.3864474479151
 42
-0.0020521832553742
 10
1378.1390589452062
 20
4982.3671624493227
 10
1378.1358527470341
 20
4982.4009830328077
 42
-0.0015221040694638
 10
1377.3176977963894
 20
4991.3201945788924
 10
1377.2167985752524
 20
4992.4582343298434
 42
-0.0009734861604091
 10
1376.6405351063017
 20
4999.1049789837962
 10
1376.5456303860376
 20
5000.2249662060813
 42
-0.0002824465825128
 10
1376.1746075044919
 20
5004.633067973974
 42
-0.0000888208046051
 10
1375.9911841960316
 20
5006.8318471441016
 42
-0.0000888208046051
  0
LWPOLYLINE
  5
18F
100
AcDbEntity
  8
AAA70-1102
370
              15
390
0
  6
Continuous
 62
               7
100
AcDbPolyline
 90
       61
 70
             128
 10
1375.9911841960316
 20
5006.8318471441016
 42
-0.0007827547314843
 10
1375.9156793261229
 20
5007.7564015428898
 10
1375.8223199560853
 20
5008.9220753261607
 42
-0.0054118041796809
 10
1375.5968130847382
 20
5012.1805363647063
 10
1375.5553032603843
 20
5012.8920650721802
 42
-0.0039432617467008
 10
1375.3190015068437
 20
5017.5778880235302
 10
1375.2975915979082
 20
5018.0813482314188
 42
-0.0090730534173653
 10
1375.1588146122801
 20
5023.778473696183
 10
1375.1528577859999
 20
5024.7378936831083
 42
-0.0051095377184874
 10
1375.1682327834442
 20
5028.5717620269797
 42
-0.005468576613959
 10
1375.2647826683708
 20
5032.4060252823856
 42
-0.005895647885508
 10
1375.4484523803653
 20
5036.2377115363524
 10
1375.4486493616828
 20
5036.2410077476743
 42
-0.0063442080853547
 10
1375.7255017195034
 20
5040.0594595843359
 10
1375.7259582770221
 20
5040.0648137663056
 42
-0.0068228482665438
 10
1376.1021933043828
 20
5043.8639100516839
 10
1376.1029946117055
 20
5043.8710118513818
 42
-0.0073315741331546
 10
1376.5847932890965
 20
5047.6437052441306
 10
1376.5860056868955
 20
5047.6522050750445
 42
-0.0078713525020319
 10
1377.1795721933599
 20
5051.3914888193394
 10
1377.1812351146932
 20
5051.4009956356176
 42
-0.008442420939803
 10
1377.8928058219894
 20
5055.0999052106599
 10
1377.8949220768923
 20
5055.1099854410668
 42
-0.0090440288865378
 10
1378.7307762245478
 20
5058.7615987251538
 10
1378.7333006006243
 20
5058.7717769853516
 42
-0.0096741285099578
 10
1379.6997726077857
 20
5062.3692122351558
 10
1379.7025989134609
 20
5062.3789745802069
 42
-0.0103290238620948
 10
1380.8060920642536
 20
5065.9153853943681
 10
1380.8090390012867
 20
5065.9241859885269
 42
-0.0110029991294108
 10
1382.0560399235976
 20
5069.3927523450984
 10
1382.0588365364088
 20
5069.400024466182
 42
-0.0116879637027208
 10
1383.4559294783917
 20
5072.7939389526191
 10
1383.4582013809704
 20
5072.7991111492665
 42
-0.0123731724999536
 10
1385.0120808021461
 20
5076.1115597131011
 10
1385.0133388852682
 20
5076.1140776204329
 42
-0.0130451011462699
 10
1386.7308183905379
 20
5079.3382146310569
 42
-0.013684787928186
 10
1388.6184674495726
 20
5082.4664865312498
 42
-0.0142822161646136
 10
1390.6783890117922
 20
5085.4848578405545
 10
1390.6813488512332
 20
5085.4889394150305
 42
-0.0148093643367566
 10
1392.9193797778607
 20
5088.3903192063954
 10
1392.9257730774384
 20
5088.3981185256125
 42
-0.015249326510641
 10
1395.3472532127751
 20
5091.1749257233205
 10
1395.3580338304109
 20
5091.1865526779893
 42
-0.0155840151969335
 10
1397.9682375517373
 20
5093.8313700532372
 10
1397.9844023017847
 20
5093.8467590920027
 42
-0.0157986899357837
 10
1400.7885792679986
 20
5096.3523531071369
 10
1400.8111232300569
 20
5096.3712504653768
 42
-0.0158835524175866
 10
1403.8145460203498
 20
5098.7305783075899
 10
1403.8444137226338
 20
5098.7525434542449
 42
-0.0158348891517772
 10
1407.0524272805856
 20
5100.9587449069195
 10
1407.0904653494031
 20
5100.9831672787222
 42
-0.0156555227715555
 10
1410.5085323020346
 20
5103.0295414282473
 10
1410.5554493267148
 20
5103.0556710223227
 42
-0.0153544642441406
 10
1414.1891856105742
 20
5104.9356404107757
 10
1414.2455236240794
 20
5104.9626283821808
 42
-0.014945595784961
 10
1418.100719113464
 20
5106.6696971184701
 10
1418.6309396723018
 20
5106.8857642454659
 42
-0.0144021244467184
 10
1421.7750778092063
 20
5108.0626139918713
 10
1422.2853023922339
 20
5108.2370105478785
 42
-0.0069814360678293
 10
1424.4527718012573
 20
5108.9442182825433
 42
-0.0034144195829932
 10
1425.5543949165153
 20
5109.278479359813
 42
-0.0034144195829932
  0
LWPOLYLINE
  5
190
100
AcDbEntity
  8
AAA70-1102
370
              15
390
0
  6
Continuous
 62
               7
100
AcDbPolyline
 90
       48
 70
             128
 10
1825.4572995521155
 20
4767.8307590691502
 42
0.0032146330950753
 10
1827.5240709576874
 20
4768.0439757657105
 10
1829.064912127053
 20
4768.2129539809612
 42
0.0128673508364756
 10
1834.1940683507028
 20
4768.9094342323524
 10
1835.7379335727896
 20
4769.1596854531463
 42
0.0128210526450137
 10
1843.7789493951589
 20
4770.6756098580781
 10
1843.804455731603
 20
4770.6810990983304
 42
0.0127658988927565
 10
1851.7067317131809
 20
4772.5940596939508
 10
1851.728347954026
 20
4772.5998804658866
 42
0.0127067440190341
 10
1859.4800781101214
 20
4774.900022030125
 10
1859.4981518838995
 20
4774.9058886307412
 42
0.0126461908925997
 10
1867.087541193383
 20
4777.5833117433858
 10
1867.1024054309862
 20
4777.5889822410127
 42
0.0125867974792504
 10
1874.517677195644
 20
4780.633747419769
 10
1874.5296442735341
 20
4780.6390169692968
 42
0.012530887029801
 10
1881.7590451286389
 20
4784.041151740088
 10
1881.7684018165505
 20
4784.0458448612635
 42
0.0124805256036589
 10
1888.8002061516406
 20
4787.7953520268429
 10
1888.8072129067418
 20
4787.7993158664249
 42
0.0124374369225834
 10
1895.6297215721629
 20
4791.8861792236767
 10
1895.634602173571
 20
4791.8892703229858
 42
0.012403180036385
 10
1902.2361565605775
 20
4796.3034725120824
 42
0.0123728078219974
 10
1908.6080605164257
 20
4801.0370599797652
 42
0.0123629584110572
 10
1914.7340439543027
 20
4806.0768373951241
 42
0.0123625782714722
 10
1920.6026600560642
 20
4811.4126488917482
 42
0.012374465185991
 10
1926.2023806512004
 20
4817.0342654919586
 42
0.0123896014071867
 10
1931.5187214271566
 20
4822.9279984263485
 10
1931.5217789091691
 20
4822.9315616441445
 42
0.0124191588932106
 10
1936.5452069992664
 20
4829.0889686758683
 10
1936.5494331036844
 20
4829.0944197432691
 42
0.0124580208940931
 10
1941.2685960388644
 20
4835.5051227734066
 10
1941.2738845080203
 20
4835.5126949689793
 42
0.0125049490015029
 10
1945.6774384049977
 20
4842.166293161451
 10
1945.6836733822752
 20
4842.1762460996888
 42
0.0125583352831497
 10
1949.7602831955573
 20
4849.0623068434652
 10
1949.7673350677037
 20
4849.074931454732
 42
0.0126162701159726
 10
1953.5056834617408
 20
4856.1829914804039
 10
1953.5134003168432
 20
4856.1986083505153
 42
0.0126765580237894
 10
1956.9021957972977
 20
4863.5181754929345
 10
1956.9103953545584
 20
4863.5371321474267
 42
0.0127367503248964
 10
1959.9383803001206
 20
4871.0576888239493
 10
1959.9468421506101
 20
4871.0803552673869
 42
0.0127941690687383
 10
1962.6028006213107
 20
4878.7913634121696
 10
1962.9154884744905
 20
4879.7806982718366
 42
0.0128422726488223
 10
1964.6296753474912
 20
4885.732089053301
 10
1964.8878079428853
 20
4886.7233220299331
 42
0.0064374814470935
 10
1965.8810121380409
 20
4890.7490702281184
 42
0.0032180039061803
 10
1966.3396563229503
 20
4892.7755873569113
 42
0.0032180039061803
  0
LWPOLYLINE
  5
191
100
AcDbEntity
  8
AAA70-1102
370
              15
390
0
  6
Continuous
 62
               7
100
AcDbPolyline
 90
       18
 70
             128
 10
1966.3396563229503
 20
4892.7755873569113
 42
0.0016656584919184
 10
1967.4320339639648
 20
4897.8311905872833
 10
1968.7755079956694
 20
4904.1507950008099
 42
0.009983863166161
 10
1972.1831998265507
 20
4921.9172967655395
 10
1973.273783729094
 20
4928.2883134720714
 42
0.0066497732371748
 10
1976.4862842830034
 20
4948.6825291750865
 42
0.0066436467401782
 10
1979.1548011716475
 20
4969.1495486113026
 42
0.0066412717757051
 10
1981.277568150296
 20
4989.6712520549718
 42
0.0066400685936057
 10
1982.8540373133926
 20
5010.2367029552352
 42
0.0066400650405719
 10
1983.8836609898092
 20
5030.8349680341471
 42
0.0066412696440868
 10
1984.3658910374963
 20
5051.4551137244625
 42
0.0066436780332872
 10
1984.3001789136197
 20
5072.086206486415
 42
0.0066472718572311
 10
1983.6859756756257
 20
5092.7173126715006
 42
0.0066500668784754
 10
1982.5232229580579
 20
5113.3302266828114
 10
1982.3427170757029
 20
5115.9176792160251
 42
0.0099841163984118
 10
1980.0310282180615
 20
5141.6438679000557
 10
1979.7478655867305
 20
5144.2174869194696
 42
0.0016654420909155
 10
1979.1650577986434
 20
5149.3569974046541
 42
0.0016654420909155
  0
LWPOLYLINE
  5
192
100
AcDbEntity
  8
AAA70-1102
370
              15
390
0
  6
Continuous
 62
               7
100
AcDbPolyline
 90
       26
 70
             128
 10
1664.404314850734
 20
4757.7586643425884
 42
-0.0002043211075476
 10
1664.9865130832952
 20
4757.75837282679
 10
1665.8219783626273
 20
4757.7576130896505
 42
-0.0001634081626482
 10
1668.0751061244678
 20
4757.7548278298318
 10
1669.5608614980879
 20
4757.7525056063796
 42
0.0006729565301767
 10
1674.7855006233917
 20
4757.75137145392
 10
1678.0645761378582
 20
4757.7550729913428
 42
0.0029880411220174
 10
1689.8468675358918
 20
4757.8387863980379
 10
1694.820063530794
 20
4757.9038443071386
 42
0.0043125853067502
 10
1711.7231113898561
 20
4758.2708008702602
 10
1713.8673380047592
 20
4758.3358577847393
 42
0.0025860235773312
 10
1726.4764511825415
 20
4758.7837102661788
 42
0.0028744566461047
 10
1739.0798818734347
 20
4759.3692347405813
 10
1739.4491458190482
 20
4759.3885178718456
 42
0.0031945486287643
 10
1752.7827435935578
 20
4760.1702557600311
 10
1753.0956858196205
 20
4760.1906103691454
 42
0.0035474183264958
 10
1767.0430316930006
 20
4761.197203383902
 10
1767.3001781905805
 20
4761.2175967652101
 42
0.0039432104045914
 10
1781.7447363177957
 20
4762.4778495636574
 10
1781.9467471883938
 20
4762.4970809243132
 42
0.0043945684259483
 10
1796.7718266867591
 20
4764.0400162481392
 10
1797.7864701077569
 20
4764.1546391648944
 42
0.0049239668743802
 10
1811.1429954535881
 20
4765.7968724631774
 10
1812.0699986262314
 20
4765.9201294049908
 42
0.0040961223993593
 10
1823.5430627424298
 20
4767.5413779123946
 42
0.0007326012249466
 10
1825.4572995521155
 20
4767.8307590691502
 42
0.0007326012249466
  0
LINE
  5
193
100
AcDbEntity
  8
AAA70-1102
370
              15
390
0
  6
Continuous
 62
               7
100
AcDbLine
 10
2508.3297132592779
 20
3882.3742032218915
 30
0.0
 11
2553.836508590317
 21
3882.3742032218925
 31
0.0
  0
LINE
  5
194
100
AcDbEntity
  8
AAA70-1102
370
              15
390
0
  6
Continuous
 62
               7
100
AcDbLine
 10
2489.7253653712937
 20
3896.4256130550157
 30
0.0
 11
2572.4408564782971
 21
3896.4256130550157
 31
0.0
  0
LINE
  5
195
100
AcDbEntity
  8
AAA70-1102
370
              15
390
0
  6
Continuous
 62
               7
100
AcDbLine
 10
2507.5831109247988
 20
3861.4256130550157
 30
0.0
 11
2554.583110924792
 21
3861.4256130550157
 31
0.0
  0
LINE
  5
196
100
AcDbEntity
  8
AAA70-1102
370
              15
390
0
  6
Continuous
 62
               7
100
AcDbLine
 10
2701.583110924792
 20
4041.4256130663885
 30
0.0
 11
2740.5831109247897
 21
4041.4256130549106
 31
0.0
  0
LINE
  5
197
100
AcDbEntity
  8
AAA70-1102
370
              15
390
0
  6
Continuous
 62
               7
100
AcDbLine
 10
2740.5831109248011
 20
4029.4256130663885
 30
0.0
 11
2701.5831109247988
 21
4029.4256130663885
 31
0.0
  0
LINE
  5
198
100
AcDbEntity
  8
AAA70-1102
370
              15
390
0
  6
Continuous
 62
               7
100
AcDbLine
 10
2790.0831109247961
 20
4021.4256130550248
 30
0.0
 11
2790.0831109603096
 21
4021.4256130945314
 31
0.0
  0
LWPOLYLINE
  5
199
100
AcDbEntity
  8
AAA70-1102
370
              15
390
0
  6
Continuous
 62
               7
100
AcDbPolyline
 90
       15
 70
             129
 10
2758.3275226901351
 20
3940.1579784229984
 10
2755.64798634515
 20
4025.5572155636446
 42
0.4046079684884107
 10
2751.6501518334408
 20
4029.4256130664426
 10
2740.5831109248011
 20
4029.4256130663885
 42
-0.4142135623733614
 10
2739.5831109248011
 20
4030.4256130663875
 10
2739.5831109247897
 20
4040.4256130549106
 42
-0.4142135623730784
 10
2740.5831109247897
 20
4041.4256130549106
 10
2787.0831109247879
 20
4041.4256130550148
 42
-0.4142135623736694
 10
2791.0831109247947
 20
4037.4256130550157
 10
2791.0831109247947
 20
4022.4256130550248
 42
-0.4142135623728286
 10
2790.0831109247938
 20
4021.4256130550248
 42
0.4142135623728286
 10
2789.0831109247929
 20
4020.4256130550248
 10
2789.0831109247961
 20
3940.2701271696055
 42
-0.414213562373095
 10
2785.0831109247961
 20
3936.2701271696055
 10
2762.3270393773719
 20
3936.2201577484116
 42
-0.4096676982736996
  0
LWPOLYLINE
  5
19A
100
AcDbEntity
  8
AAA70-1102
370
              15
390
0
  6
Continuous
 62
               7
100
AcDbPolyline
 90
       12
 70
             129
 10
2767.920279037005
 20
3950.2079478441924
 10
2765.5806565865928
 20
4021.6432407053976
 42
0.1277007750669127
 10
2763.7067038400428
 20
4028.4256130564027
 42
-0.577350268914012
 10
2765.4387546484368
 20
4031.4256130549675
 10
2779.0831109247897
 20
4031.4256130549957
 42
-0.4142135623739108
 10
2781.0831109247961
 20
4029.4256130549948
 10
2781.0831109247929
 20
4022.4256130550257
 42
-0.4142135623733614
 10
2780.0831109247938
 20
4021.4256130550257
 42
0.4142135623745601
 10
2779.0831109247979
 20
4020.4256130550248
 10
2779.0831109247947
 20
3950.2701271696055
 42
-0.414213562373095
 10
2775.0831109247947
 20
3946.2701271696055
 10
2771.9197957242427
 20
3946.2701271696064
 42
-0.4096676982736295
  0
LWPOLYLINE
  5
19B
100
AcDbEntity
  8
AAA70-1102
370
              15
390
0
  6
Continuous
 62
               7
100
AcDbPolyline
 90
        6
 70
             128
 10
2789.0831109247811
 20
3940.2701271696365
 10
2789.020356109264
 20
3858.4240795711717
 42
-0.4139890066639816
 10
2787.0203566971581
 20
3856.4256130550457
 10
2763.0191084291173
 20
3856.4256130550457
 42
-0.404607968485749
 10
2761.0201911732797
 20
3858.3598118064615
 10
2758.3275226901201
 20
3940.1579784230285
  0
LINE
  5
19C
100
AcDbEntity
  8
AAA70-1102
370
              15
390
0
  6
Continuous
 62
               7
100
AcDbLine
 10
2334.139820510019
 20
4041.4256130578788
 30
0.0
 11
2679.8609225945979
 21
4041.4256130664426
 31
0.0
  0
LWPOLYLINE
  5
19D
100
AcDbEntity
  8
AAA70-1102
370
              15
390
0
  6
Continuous
 62
               7
100
AcDbPolyline
 90
       22
 70
             129
 10
2564.5831109247852
 20
3861.4256130550157
 42
0.4142135623734946
 10
2565.5831109247838
 20
3862.4256130550157
 10
2565.5831109247861
 20
3872.6654092624335
 42
-0.3987181330749034
 10
2576.9450958765879
 20
3884.6484362922847
 10
2659.7802469308931
 20
3889.0588471810115
 42
0.3822610097071294
 10
2680.5746748555571
 20
3909.7718093408698
 10
2686.97215861821
 20
4025.6539622897803
 42
-0.3975812287954048
 10
2690.9656353781697
 20
4029.4256130664526
 10
2701.5831109247988
 20
4029.4256130663885
 42
0.4142135623728286
 10
2702.5831109247988
 20
4030.4256130663875
 10
2702.583110924792
 20
4040.4256130663885
 42
0.4142135623731283
 10
2701.583110924792
 20
4041.4256130663885
 10
2679.8609225945875
 20
4041.4256130664426
 42
0.3975812287966789
 10
2675.8674458346431
 20
4037.6539622897535
 10
2668.5942445757241
 20
3910.4568570108036
 42
-0.3822610097071505
 10
2659.1422318826949
 20
3901.0418742108677
 10
2572.4408564782834
 20
3896.4256130550157
 42
0.1660613428258027
 10
2570.010159108253
 20
3895.5438872608174
 10
2554.5324912099927
 20
3883.1016637742255
 42
0.2600653575290218
 10
2553.583110924792
 20
3881.3998417462585
 10
2553.5831109247852
 20
3862.4256130550157
 42
0.4142135623726622
 10
2554.5831109247838
 20
3861.4256130550157
  0
LWPOLYLINE
  5
19E
100
AcDbEntity
  8
AAA70-1102
370
              15
390
0
  6
Continuous
 62
               7
100
AcDbPolyline
 90
       27
 70
             128
 10
2338.0905731599469
 20
4038.0513554162317
 42
0.0310670015762011
 10
2359.127497389275
 20
3945.8214658126808
 42
0.3204991886119652
 10
2413.0060983936019
 20
3901.5179154781258
 10
2489.7253653712937
 20
3896.4256130550157
 42
-0.166061342825938
 10
2492.1560627413342
 20
3895.5438872608197
 10
2507.6337306395981
 20
3883.1016637742255
 42
-0.2600653575290233
 10
2508.5831109247988
 20
3881.3998417462585
 10
2508.5831109247988
 20
3862.4256130550157
 42
-0.414213562373095
 10
2507.5831109247988
 20
3861.4256130550157
 10
2497.5831109247988
 20
3861.4256130550157
 42
-0.414213562373095
 10
2496.5831109247988
 20
3862.4256130550157
 10
2496.5831109247988
 20
3872.7197754172257
 42
0.3944715067516788
 10
2485.3969360427759
 20
3884.6921473074294
 10
2411.1169100892157
 20
3889.6436377451328
 42
0.4136874131644987
 10
2402.616449702864
 20
3882.1929872231894
 10
2401.0218907399299
 20
3858.2924759894336
 42
-0.3948335622961292
 10
2399.0263270298451
 20
3856.4256130578797
 10
2393.0218907399299
 20
3856.4256130578797
 42
-0.414213562373095
 10
2391.0218907399299
 20
3858.4256130578797
 10
2391.0218907399321
 20
3858.8282574269888
 42
0.3036331800270393
 10
2389.167032026895
 20
3861.6010991882326
 10
2366.8782052419183
 20
3869.1230802612808
 42
-0.2579731897759057
 10
2327.7191588626824
 20
3911.9764037259906
 42
-0.051546346880695
 10
2311.0218907693938
 20
4037.3084096073458
 42
-0.4228230956748899
 10
2315.0201733195881
 20
4041.4256130578779
 10
2334.139820510019
 20
4041.4256130578788
 42
-0.3689191537359626
 10
2338.0905731599701
 20
4038.0513554161248
 42
-0.3689191537359626
  0
LWPOLYLINE
  5
19F
100
AcDbEntity
  8
AAA70-1102
370
              15
390
0
  6
Continuous
 62
               7
100
AcDbPolyline
 90
       12
 70
             129
 10
2370.075801643643
 20
3878.5980671874818
 42
-0.2579731897758637
 10
2337.4432629942789
 20
3914.3091700747432
 42
-0.0481201737959887
 10
2321.3174691635741
 20
4029.3394125798609
 42
-0.4268983650278796
 10
2323.3156106694728
 20
4031.4256130578788
 10
2327.3721780732171
 20
4031.4256130578779
 42
-0.3649977871758652
 10
2329.3430406763446
 20
4029.7657609662888
 42
0.0288366558272858
 10
2349.5019553465258
 20
3943.1081202225191
 42
0.2509272974381632
 10
2394.835815404083
 20
3895.0065219876296
 42
-0.5007598046285829
 10
2395.840233811668
 20
3891.965172893882
 42
0.1365686533019781
 10
2392.6386311524438
 20
3882.8586725654195
 10
2392.03679423936
 20
3873.8378647832178
 42
-0.4922315797197134
 10
2389.401711248931
 20
3872.0760044664235
  0
LWPOLYLINE
  5
1A0
100
AcDbEntity
  8
AAA70-1102
370
              15
390
0
  6
Continuous
 62
               7
100
AcDbPolyline
 90
        4
 70
             128
 10
2791.0831109247947
 20
4022.4256130550248
 10
2791.0831109247938
 20
3858.4256130550298
 42
-0.4142135623707642
 10
2789.0831109247788
 20
3856.4256130550307
 10
2399.0263270298469
 20
3856.4256130578797
  0
LWPOLYLINE
  5
1A1
100
AcDbEntity
  8
AAA70-1102
370
               5
390
0
  6
STYLE_12
 62
               7
100
AcDbPolyline
 90
       18
 70
             128
 10
2855.9921640830653
 20
4884.8882688267331
 42
0.0016656584919393
 10
2857.0845417240807
 20
4889.9438720571088
 10
2858.4280157557837
 20
4896.2634764706318
 42
0.0099838631661352
 10
2861.8357075866647
 20
4914.0299782353577
 10
2862.9262914892092
 20
4920.4009949418951
 42
0.0066497732371957
 10
2866.138792043118
 20
4940.7952106449075
 42
0.0066436467401615
 10
2868.8073089317622
 20
4961.2622300811236
 42
0.0066412717757124
 10
2870.9300759104108
 20
4981.7839335247936
 42
0.0066400685935963
 10
2872.5065450735074
 20
5002.3493844250579
 42
0.0066400650405823
 10
2873.5361687499239
 20
5022.9476495039698
 42
0.0066412696440679
 10
2874.0183987976111
 20
5043.5677951942853
 42
0.0066436780333029
 10
2873.9526866737351
 20
5064.1988879562377
 42
0.0066472718572321
 10
2873.3384834357407
 20
5084.8299941413234
 42
0.0066500668784723
 10
2872.1757307181733
 20
5105.4429081526323
 10
2871.9952248358177
 20
5108.0303606858461
 42
0.0099841163984076
 10
2869.6835359781771
 20
5133.7565493698658
 10
2869.4003733468453
 20
5136.3301683892923
 42
0.0016654420909488
 10
2868.8175655587584
 20
5141.4696788744759
 42
0.0016654420909488
  0
LWPOLYLINE
  5
1A2
100
AcDbEntity
  8
AAA70-1102
370
               5
390
0
  6
STYLE_12
 62
               7
100
AcDbPolyline
 90
       26
 70
             128
 10
2554.0568226108494
 20
4749.8713458124103
 42
-0.0002043211077514
 10
2554.6390208434595
 20
4749.8710542966119
 10
2555.4744861227427
 20
4749.8702945594732
 42
-0.0001634081628605
 10
2557.7276138846091
 20
4749.8675092996555
 10
2559.2133692582033
 20
4749.8651870762023
 42
0.0006729565301974
 10
2564.4380083835454
 20
4749.8640529237418
 10
2567.7170838979737
 20
4749.8677544611637
 42
0.0029880411221196
 10
2579.4993752960027
 20
4749.9514678678588
 10
2584.4725712909149
 20
4750.0165257769595
 42
0.0043125853066907
 10
2601.3756191499715
 20
4750.3834823400821
 10
2603.5198457648717
 20
4750.4485392545612
 42
0.0025860235773419
 10
2616.1289589426569
 20
4750.8963917360006
 42
0.0028744566460975
 10
2628.7323896335511
 20
4751.4819162104013
 10
2629.1016535791632
 20
4751.5011993416656
 42
0.0031945486287882
 10
2642.4352513536714
 20
4752.2829372298511
 10
2642.748193579735
 20
4752.3032918389654
 42
0.0035474183265173
 10
2656.6955394531183
 20
4753.3098848537229
 10
2656.9526859506955
 20
4753.3302782350302
 42
0.0039432104045826
 10
2671.3972440779075
 20
4754.5905310334783
 10
2671.5992549485086
 20
4754.6097623941341
 42
0.0043945684259641
 10
2686.4243344468728
 20
4756.1526977179601
 10
2687.4389778678724
 20
4756.2673206347154
 42
0.0049239668743647
 10
2700.7955032137024
 20
4757.9095539329992
 10
2701.722506386347
 20
4758.0328108748126
 42
0.004096122399444
 10
2713.1955705025443
 20
4759.6540593822183
 42
0.000732601224833
 10
2715.1098073122303
 20
4759.9434405389729
 42
0.000732601224833
  0
LWPOLYLINE
  5
1A3
100
AcDbEntity
  8
AAA70-1102
370
               5
390
0
  6
STYLE_12
 62
               7
100
AcDbPolyline
 90
       51
 70
             128
 10
2868.8175655587584
 20
5141.4696788744759
 42
0.0035856279531293
 10
2868.6379176534997
 20
5142.9178901645701
 10
2868.4964033106767
 20
5143.9953860717906
 42
0.0143812723274242
 10
2867.9201963105002
 20
5147.5807242506926
 10
2867.7145572060572
 20
5148.6609848059661
 42
0.0143354739548942
 10
2866.4847537191122
 20
5154.2449149309386
 10
2866.4789032977392
 20
5154.2682700271052
 42
0.0142703611374404
 10
2864.9448595770714
 20
5159.7264314468221
 10
2864.9387453555073
 20
5159.7460216780773
 42
0.014194023526544
 10
2863.1099709715181
 20
5165.069285206856
 10
2863.1038819012256
 20
5165.0854967281994
 42
0.0141108628648495
 10
2860.9899418432096
 20
5170.2647405015341
 10
2860.9841115884756
 20
5170.2779469674506
 42
0.0140253351678011
 10
2858.5946219599655
 20
5175.304066917688
 10
2858.5892365437858
 20
5175.3146208294238
 42
0.0139415826467542
 10
2855.9338561980135
 20
5180.17853817995
 10
2855.9290631978333
 20
5180.1867637552732
 42
0.0138633583447703
 10
2853.0174838060771
 20
5184.8794310968624
 10
2853.0134009759063
 20
5184.8856215812621
 42
0.0137938789029842
 10
2849.8553392337699
 20
5189.3980234759401
 10
2849.8520693560477
 20
5189.4024316235063
 42
0.0137360414995958
 10
2846.4572478739592
 20
5193.7255963827065
 10
2846.4548665649227
 20
5193.7284631383018
 42
0.0136915232621162
 10
2842.8330439150736
 20
5197.8534188357226
 42
0.0136585254034832
 10
2838.992498038906
 20
5201.7728053467481
 42
0.0136489330911847
 10
2834.9454273598321
 20
5205.4750261739719
 42
0.0136575774870691
 10
2830.7017155893418
 20
5208.9512885475369
 42
0.0136753152820334
 10
2826.2735078491864
 20
5212.1912471695841
 10
2826.2711502232992
 20
5212.1928750811376
 42
0.0137121140793496
 10
2821.6674227888529
 20
5215.1886751835118
 10
2821.6635108282539
 20
5215.1910707657389
 42
0.0137634496354145
 10
2816.8942657484295
 20
5217.9340772152764
 10
2816.8886022818501
 20
5217.9371302565851
 42
0.0138274729661221
 10
2811.9638682544182
 20
5220.4187160876791
 10
2811.9562263229614
 20
5220.4223054694703
 42
0.0139017114627641
 10
2806.8860666340092
 20
5222.633855723403
 10
2806.8761856602987
 20
5222.637842562096
 42
0.0139831592754496
 10
2801.6706961861837
 20
5224.5707646037527
 10
2801.6582848209828
 20
5224.5749822636471
 42
0.0140683065574929
 10
2796.327590807884
 20
5226.2207154118169
 10
2796.3123313855326
 20
5226.2249601063686
 42
0.0141531992665853
 10
2790.866582009874
 20
5227.5749848410433
 10
2790.8481371902749
 20
5227.579006950361
 42
0.0142335200790728
 10
2785.2974980014064
 20
5228.6248531802103
 10
2785.2755195208438
 20
5228.6283497971144
 42
0.014304664867531
 10
2779.6301629851737
 20
5229.3616040517345
 10
2778.9055795235158
 20
5229.4347116782419
 42
0.0143553274773971
 10
2774.576022761642
 20
5229.7463140921182
 10
2773.8606648671666
 20
5229.7771926504356
 42
0.0071923665517648
 10
2770.951672136508
 20
5229.8608606672215
 42
0.0035922960117165
 10
2769.492362108238
 20
5229.8713458124103
 42
0.0035922960117165
  0
LWPOLYLINE
  5
1A4
100
AcDbEntity
  8
AAA70-1102
370
               5
390
0
  6
STYLE_12
 62
               7
100
AcDbPolyline
 90
       26
 70
             128
 10
2554.0568226108494
 20
4749.8713458124103
 42
0.0002043211076835
 10
2553.4746243782251
 20
4749.8710542966119
 10
2552.639159098956
 20
4749.8702945594741
 42
0.0001634081629455
 10
2550.3860313371679
 20
4749.8675092996564
 10
2548.9002759634955
 20
4749.8651870762033
 42
-0.0006729565301767
 10
2543.675636838178
 20
4749.8640529237418
 10
2540.3965613237251
 20
4749.8677544611646
 42
-0.0029880411221266
 10
2528.614269925693
 20
4749.9514678678579
 10
2523.641073930788
 20
4750.0165257769595
 42
-0.0043125853067341
 10
2506.7380260717273
 20
4750.3834823400821
 10
2504.5937994568217
 20
4750.4485392545621
 42
-0.0025860235772695
 10
2491.9846862790414
 20
4750.8963917360006
 42
-0.0028744566461989
 10
2479.3812555881445
 20
4751.4819162104031
 10
2479.0119916425347
 20
4751.5011993416674
 42
-0.0031945486286709
 10
2465.6783938680319
 20
4752.282937229852
 10
2465.3654516419629
 20
4752.3032918389672
 42
-0.0035474183265584
 10
2451.418105768581
 20
4753.3098848537229
 10
2451.1609592710024
 20
4753.3302782350302
 42
-0.0039432104046108
 10
2436.7164011437944
 20
4754.5905310334783
 10
2436.5143902731893
 20
4754.609762394135
 42
-0.0043945684258994
 10
2421.6893107748215
 20
4756.1526977179601
 10
2420.6746673538246
 20
4756.2673206347154
 42
-0.0049239668744816
 10
2407.3181420079945
 20
4757.9095539329992
 10
2406.3911388353463
 20
4758.0328108748135
 42
-0.0040961223992848
 10
2394.9180747191531
 20
4759.6540593822183
 42
-0.0007320885724824
 10
2393.0038379094672
 20
4759.9434405389729
 42
-0.0007320885724824
  0
LINE
  5
1A5
100
AcDbEntity
  8
AAA70-1102
370
               5
390
0
  6
STYLE_12
 62
               7
100
AcDbLine
 10
2338.621283113459
 20
5229.8713458124103
 30
0.0
 11
2769.492362108238
 21
5229.8713458124103
 31
0.0
  0
LWPOLYLINE
  5
1A6
100
AcDbEntity
  8
AAA70-1102
370
               5
390
0
  6
STYLE_12
 62
               7
100
AcDbPolyline
 90
       48
 70
             128
 10
2393.0038379094672
 20
4759.9434405389729
 42
-0.0032146330950321
 10
2390.9370665038955
 20
4760.1566572355323
 10
2389.3962253345294
 20
4760.325635450783
 42
-0.0128673508365231
 10
2384.2670691108792
 20
4761.0221157021742
 10
2382.7232038887942
 20
4761.2723669229681
 42
-0.0128210526450651
 10
2374.6821880664234
 20
4762.7882913279009
 10
2374.656681729979
 20
4762.793780568154
 42
-0.0127658988926167
 10
2366.754405748402
 20
4764.7067411637736
 10
2366.7327895075578
 20
4764.7125619357084
 42
-0.0127067440191351
 10
2358.9810593514612
 20
4767.0127034999468
 10
2358.9629855776825
 20
4767.018570100563
 42
-0.0126461908925344
 10
2351.373596268199
 20
4769.6959932132077
 10
2351.3587320305951
 20
4769.7016637108345
 42
-0.0125867974793569
 10
2343.9434602659385
 20
4772.7464288895908
 10
2343.9314931880485
 20
4772.7516984391186
 42
-0.0125308870296653
 10
2336.7020923329433
 20
4776.1538332099099
 10
2336.6927356450315
 20
4776.1585263310863
 42
-0.0124805256038175
 10
2329.660931309942
 20
4779.9080334966657
 10
2329.6539245548393
 20
4779.9119973362485
 42
-0.0124374369224232
 10
2322.8314158894195
 20
4783.9988606934994
 10
2322.8265352880117
 20
4784.0019517928085
 42
-0.0124031800364645
 10
2316.2249809010045
 20
4788.4161539819042
 42
-0.0123841729286529
 10
2309.8530769451568
 20
4793.1497414495871
 42
-0.0123675269846637
 10
2303.7270935072797
 20
4798.189518864946
 42
-0.0123610590825364
 10
2297.858477405518
 20
4803.52533036157
 42
-0.0123665570644148
 10
2292.2587568103822
 20
4809.1469469617814
 42
-0.0123896014071603
 10
2286.9424160344265
 20
4815.0406798961712
 10
2286.9393585524131
 20
4815.0442431139682
 42
-0.0124191588932067
 10
2281.9159304623131
 20
4821.2016501456947
 10
2281.9117043578976
 20
4821.2071012130928
 42
-0.0124580208940942
 10
2277.1925414227194
 20
4827.6178042432275
 10
2277.1872529535617
 20
4827.625376438802
 42
-0.0125049490015012
 10
2272.7836990565847
 20
4834.2789746312728
 10
2272.7774640793068
 20
4834.2889275695115
 42
-0.0125583352831713
 10
2268.7008542660237
 20
4841.1749883132888
 10
2268.6938023938783
 20
4841.1876129245547
 42
-0.0126162701159539
 10
2264.9554539998412
 20
4848.2956729502266
 10
2264.9477371447388
 20
4848.311289820339
 42
-0.0126765580237817
 10
2261.5589416642824
 20
4855.6308569627599
 10
2261.5507421070233
 20
4855.6498136172486
 42
-0.0127367503249253
 10
2258.5227571614637
 20
4863.1703702937666
 10
2258.5142953109726
 20
4863.1930367372079
 42
-0.0127941690686791
 10
2255.8583368402706
 20
4870.9040448819933
 10
2255.545648987093
 20
4871.893379741653
 42
-0.0128422726488904
 10
2253.8314621140908
 20
4877.844770523122
 10
2253.5733295186956
 20
4878.8360034997586
 42
-0.0064374814470299
 10
2252.5801253235409
 20
4882.8617516979402
 42
-0.0032181269354679
 10
2252.1214811386317
 20
4884.8882688267331
 42
-0.0032181269354679
  0
LWPOLYLINE
  5
1A7
100
AcDbEntity
  8
AAA70-1102
370
               5
390
0
  6
STYLE_12
 62
               7
100
AcDbPolyline
 90
       51
 70
             128
 10
2239.2960796629386
 20
5141.4696788744759
 42
-0.0035856279531777
 10
2239.4757275681982
 20
5142.9178901645764
 10
2239.6172419110208
 20
5143.9953860717906
 42
-0.0143812723273493
 10
2240.1934489111973
 20
5147.5807242506926
 10
2240.3990880156398
 20
5148.6609848059643
 42
-0.0143354739549213
 10
2241.6288915025848
 20
5154.2449149309377
 10
2241.6347419239582
 20
5154.2682700271062
 42
-0.0142703611374272
 10
2243.1687856446256
 20
5159.726431446823
 10
2243.174899866191
 20
5159.7460216780819
 42
-0.0141940235265997
 10
2245.0036742501788
 20
5165.0692852068569
 10
2245.0097633204714
 20
5165.0854967281994
 42
-0.0141108628648495
 10
2247.1237033784873
 20
5170.2647405015332
 10
2247.1295336332219
 20
5170.2779469674497
 42
-0.0140253351677625
 10
2249.5190232617315
 20
5175.3040669176871
 10
2249.5244086779117
 20
5175.3146208294238
 42
-0.013941582646683
 10
2252.1797890236835
 20
5180.1785381799509
 10
2252.1845820238618
 20
5180.1867637552714
 42
-0.0138633583449186
 10
2255.0961614156199
 20
5184.8794310968642
 10
2255.1002442457907
 20
5184.8856215812648
 42
-0.0137938789029217
 10
2258.2583059879275
 20
5189.398023475941
 10
2258.2615758656493
 20
5189.4024316235054
 42
-0.013736041499528
 10
2261.6563973477382
 20
5193.7255963827074
 10
2261.6587786567761
 20
5193.7284631383045
 42
-0.0136915232622623
 10
2265.2806013066233
 20
5197.8534188357226
 42
-0.0136683141604557
 10
2269.121147182791
 20
5201.772805346749
 42
-0.0136510420826059
 10
2273.1682178618653
 20
5205.4750261739719
 42
-0.0136517072359546
 10
2277.4119296323556
 20
5208.9512885475378
 42
-0.013675315282107
 10
2281.840137372516
 20
5212.1912471695896
 10
2281.8424949983983
 20
5212.1928750811403
 42
-0.0137121140794964
 10
2286.4462224328454
 20
5215.1886751835136
 10
2286.4501343934439
 20
5215.1910707657398
 42
-0.0137634496353035
 10
2291.2193794732725
 20
5217.9340772152782
 10
2291.2250429398473
 20
5217.9371302565851
 42
-0.0138274729661934
 10
2296.1497769672774
 20
5220.4187160876772
 10
2296.1574188987365
 20
5220.4223054694703
 42
-0.0139017114626322
 10
2301.2275785876841
 20
5222.6338557234003
 10
2301.2374595613987
 20
5222.6378425620951
 42
-0.0139831592755385
 10
2306.4429490355119
 20
5224.5707646037517
 10
2306.4553604007151
 20
5224.5749822636471
 42
-0.0140683065573794
 10
2311.7860544138175
 20
5226.2207154118196
 10
2311.8013138361648
 20
5226.2249601063695
 42
-0.0141531992667752
 10
2317.2470632118229
 20
5227.5749848410442
 10
2317.2655080314225
 20
5227.5790069503619
 42
-0.0142335200789065
 10
2322.8161472202919
 20
5228.6248531802121
 10
2322.8381257008532
 20
5228.6283497971153
 42
-0.0143046648677771
 10
2328.483482236521
 20
5229.3616040517336
 10
2329.2080656981857
 20
5229.4347116782419
 42
-0.014355327477102
 10
2333.5376224600554
 20
5229.7463140921182
 10
2334.2529803545258
 20
5229.7771926504347
 42
-0.0071923665520707
 10
2337.1619730851894
 20
5229.8608606672205
 42
-0.0035924545395215
 10
2338.621283113459
 20
5229.8713458124103
 42
-0.0035924545395215
  0
LWPOLYLINE
  5
1A8
100
AcDbEntity
  8
AAA70-1102
370
               5
390
0
  6
STYLE_12
 62
               7
100
AcDbPolyline
 90
       18
 70
             128
 10
2252.1214811386317
 20
4884.8882688267331
 42
-0.0016656584919393
 10
2251.0291034976194
 20
4889.9438720570961
 10
2249.6856294659128
 20
4896.2634764706327
 42
-0.0099838631661331
 10
2246.2779376350309
 20
4914.0299782353659
 10
2245.1873537324882
 20
4920.4009949418923
 42
-0.0066497732371978
 10
2241.974853178579
 20
4940.7952106449075
 42
-0.0066471473664301
 10
2239.3063362899352
 20
4961.2622300811245
 42
-0.0066435987958437
 10
2237.1835693112866
 20
4981.7839335247945
 42
-0.0066412296430606
 10
2235.6071001481901
 20
5002.3493844250579
 42
-0.0066400653329016
 10
2234.577476471773
 20
5022.9476495039698
 42
-0.0066401091070682
 10
2234.0952464240859
 20
5043.5677951942853
 42
-0.0066413515997796
 10
2234.1609585479628
 20
5064.1988879562377
 42
-0.0066437694998553
 10
2234.7751617859567
 20
5084.8299941413234
 42
-0.0066500668784629
 10
2235.9379145035241
 20
5105.4429081526341
 10
2236.1184203858793
 20
5108.030360685847
 42
-0.0099841163984292
 10
2238.4301092435207
 20
5133.7565493698748
 10
2238.7132718748517
 20
5136.3301683892923
 42
-0.0016655559362432
 10
2239.2960796629386
 20
5141.4696788744759
 42
-0.0016655559362432
  0
LINE
  5
1A9
100
AcDbEntity
  8
AAA70-1102
370
              15
390
0
  6
Continuous
 62
               7
100
AcDbLine
 10
2484.0568226108494
 20
5129.8713458124103
 30
0.0
 11
2484.0568226108494
 21
4969.8713458124103
 31
0.0
  0
LINE
  5
1AA
100
AcDbEntity
  8
AAA70-1102
370
              15
390
0
  6
Continuous
 62
               7
100
AcDbLine
 10
2624.0568226108489
 20
5129.8713458124103
 30
0.0
 11
2624.0568226108489
 21
4969.8713458124103
 31
0.0
  0
ARC
  5
1AB
100
AcDbEntity
  8
AAA70-1102
370
              15
390
0
  6
Continuous
 62
               7
100
AcDbCircle
 10
2554.0568226108494
 20
4969.8713458124103
 30
0.0
 40
70.0
100
AcDbArc
 50
180.0
 51
0.0
  0
ARC
  5
1AC
100
AcDbEntity
  8
AAA70-1102
370
              15
390
0
  6
Continuous
 62
               7
100
AcDbCircle
 10
2554.0568226108494
 20
5129.8713458124103
 30
0.0
 40
69.999999999999943
100
AcDbArc
 50
0.0
 51
180.0
  0
LINE
  5
1AD
100
AcDbEntity
  8
AAA70-1102
370
              15
390
0
  6
STYLE_01
 62
               7
100
AcDbLine
 10
2756.5934131048489
 20
3995.4256130564545
 30
0.0
 11
2766.4393266891029
 21
3995.4256130564545
 31
0.0
  0
LINE
  5
1AE
100
AcDbEntity
  8
AAA70-1102
370
              15
390
0
  6
STYLE_01
 62
               7
100
AcDbLine
 10
2779.083110924797
 20
3995.4256130564545
 30
0.0
 11
2789.0831109247938
 21
3995.4256130564545
 31
0.0
  0
LINE
  5
1AF
100
AcDbEntity
  8
AAA70-1102
370
              15
390
0
  6
STYLE_01
 62
               7
100
AcDbLine
 10
2756.2168940958218
 20
4007.4256130564545
 30
0.0
 11
2766.0463071005997
 21
4007.4256130564545
 31
0.0
  0
LINE
  5
1B0
100
AcDbEntity
  8
AAA70-1102
370
              15
390
0
  6
STYLE_01
 62
               7
100
AcDbLine
 10
2779.083110924797
 20
4007.4256130564545
 30
0.0
 11
2789.0831109247938
 21
4007.4256130564545
 31
0.0
  0
CIRCLE
  5
1B1
100
AcDbEntity
  8
AAA70-1102
370
               5
390
0
  6
STYLE_12
 62
               7
100
AcDbCircle
 10
2554.0568226108494
 20
5167.7586643425884
 30
0.0
 40
18.5
  0
LINE
  5
1B2
100
AcDbEntity
  8
AAA70-1102
370
              15
390
0
  6
Continuous
 62
               7
100
AcDbLine
 10
1636.3108225505048
 20
3882.3742032837249
 30
0.0
 11
1681.8176178815438
 21
3882.3742032837258
 31
0.0
  0
LINE
  5
1B3
100
AcDbEntity
  8
AAA70-1102
370
              15
390
0
  6
Continuous
 62
               7
100
AcDbLine
 10
1617.7064746625219
 20
3896.4256131168509
 30
0.0
 11
1700.4219657695239
 21
3896.4256131168509
 31
0.0
  0
LINE
  5
1B4
100
AcDbEntity
  8
AAA70-1102
370
              15
390
0
  6
Continuous
 62
               7
100
AcDbLine
 10
1635.5640675541099
 20
3861.4256131168499
 30
0.0
 11
1682.5643728779355
 21
3861.4256131168499
 31
0.0
  0
LWPOLYLINE
  5
1B5
100
AcDbEntity
  8
AAA70-1102
370
              15
390
0
  6
Continuous
 62
               7
100
AcDbPolyline
 90
       27
 70
             129
 10
1871.0585102752946
 20
3858.2924760484038
 10
1868.6909592780296
 20
3893.7792034269009
 42
0.5008264314084521
 10
1857.9425719450928
 20
3900.7532196825209
 42
-0.0808097992374475
 10
1817.1645491141749
 20
3892.6316565783759
 10
1705.0599767587837
 20
3884.6101139897737
 42
0.4019516866445744
 10
1693.5643728779355
 20
3872.6207193196919
 10
1693.5643728779355
 20
3862.4256131168477
 42
-0.4142135623727953
 10
1692.5643728779346
 20
3861.4256131168477
 10
1682.5643728779355
 20
3861.4256131168499
 42
-0.4142135623733614
 10
1681.5643728779346
 20
3862.4256131168499
 10
1681.5643728779346
 20
3881.399841808091
 42
-0.2600653575290439
 10
1682.5137531631367
 20
3883.1016638360588
 10
1697.9914210613956
 20
3895.5438873226512
 42
-0.1660613428258995
 10
1700.4221184314397
 20
3896.4256131168509
 10
1816.7442190148827
 20
3903.4228188034458
 42
0.260393063476953
 10
1920.5949841013637
 20
3967.3113409825846
 42
0.0972174872493567
 10
1944.8600088109642
 20
4037.9717428915974
 42
-0.3746445708037922
 10
1948.8225512106485
 20
4041.4256131168468
 10
1970.7740765768046
 20
4041.4256131168468
 42
-0.4228230956723077
 10
1974.7723591269994
 20
4037.3084096663538
 42
-0.050961516487023
 10
1958.4081192793553
 20
3913.3718016510288
 42
-0.2802168442800528
 10
1914.5812751007913
 20
3869.0158506013668
 10
1883.3309034001852
 20
3862.1541554402147
 42
0.3441507314088488
 10
1881.0585102752946
 20
3859.2437279397786
 10
1881.0585102752946
 20
3858.425613116849
 42
-0.414213562373095
 10
1879.0585102752946
 20
3856.425613116849
 10
1873.0540739853775
 20
3856.425613116849
 42
-0.3948335622958668
  0
LWPOLYLINE
  5
1B6
100
AcDbEntity
  8
AAA70-1102
370
              15
390
0
  6
Continuous
 62
               7
100
AcDbPolyline
 90
       12
 70
             129
 10
1873.7528268139824
 20
3905.650318782582
 42
-0.1751637320280992
 10
1878.6687778284534
 20
3894.444888769111
 10
1880.0314167141307
 20
3874.020579131321
 42
0.4587179162905089
 10
1882.4559057862596
 20
3872.200251832599
 10
1912.2893919180954
 20
3878.7508391149627
 42
0.2794782773166549
 10
1948.6784374477127
 20
3915.6811937682487
 42
0.04710115891015
 10
1964.4306457212035
 20
4028.2911130234197
 42
0.4274111994191161
 10
1961.4336622836647
 20
4031.4256131168477
 10
1956.5162812962765
 20
4031.4256131168477
 42
0.3638444513077014
 10
1953.5620897816464
 20
4028.9478702325378
 42
-0.0875411435077876
 10
1929.2869889644164
 20
3962.3662227922578
 42
-0.1451938607043068
 10
1874.2720703643347
 20
3908.7990706868827
 42
0.4977360510494311
  0
LWPOLYLINE
  5
1B7
100
AcDbEntity
  8
AAA70-1102
370
              15
390
0
  6
Continuous
 62
               7
100
AcDbPolyline
 90
       27
 70
             129
 10
1447.0699301567497
 20
3858.2924760484038
 10
1449.4374811540158
 20
3893.7792034269009
 42
-0.5008264314084676
 10
1460.1858684869517
 20
3900.7532196825209
 42
0.0808097992374438
 10
1500.9638913178708
 20
3892.6316565783759
 10
1613.0684636732608
 20
3884.6101139897737
 42
-0.4019516866446827
 10
1624.5640675541099
 20
3872.6207193196919
 10
1624.5640675541099
 20
3862.4256131168477
 42
0.414213562373095
 10
1625.5640675541099
 20
3861.4256131168477
 10
1635.5640675541099
 20
3861.4256131168499
 42
0.4142135623730617
 10
1636.5640675541099
 20
3862.4256131168499
 10
1636.5640675541099
 20
3881.399841808091
 42
0.2600653575290309
 10
1635.6146872689087
 20
3883.1016638360588
 10
1620.1370193706493
 20
3895.5438873226512
 42
0.1660613428258521
 10
1617.7063220006048
 20
3896.4256131168509
 10
1501.3842214171623
 20
3903.4228188034458
 42
-0.2603930634769511
 10
1397.5334563306817
 20
3967.3113409825846
 42
-0.0972174872493551
 10
1373.2684316210812
 20
4037.9717428915974
 42
0.3746445708054808
 10
1369.3058892213967
 20
4041.4256131168468
 10
1347.3543638552408
 20
4041.4256131168468
 42
0.4228230956719557
 10
1343.3560813050447
 20
4037.3084096663538
 42
0.0509615164870227
 10
1359.7203211526887
 20
3913.3718016510288
 42
0.2802168442800528
 10
1403.5471653312538
 20
3869.0158506013668
 10
1434.7975370318591
 20
3862.1541554402147
 42
-0.3441507314088672
 10
1437.0699301567497
 20
3859.2437279397786
 10
1437.0699301567497
 20
3858.425613116849
 42
0.414213562373095
 10
1439.0699301567497
 20
3856.425613116849
 10
1445.0743664466668
 20
3856.425613116849
 42
0.3948335622965378
  0
LWPOLYLINE
  5
1B8
100
AcDbEntity
  8
AAA70-1102
370
              15
390
0
  6
Continuous
 62
               7
100
AcDbPolyline
 90
       12
 70
             129
 10
1444.375613618063
 20
3905.650318782582
 42
0.1751637320280882
 10
1439.4596626035918
 20
3894.444888769111
 10
1438.0970237179147
 20
3874.020579131321
 42
-0.4587179162904331
 10
1435.6725346457847
 20
3872.200251832599
 10
1405.839048513948
 20
3878.7508391149627
 42
-0.2794782773166508
 10
1369.4500029843318
 20
3915.6811937682487
 42
-0.0471011589101527
 10
1353.6977947108417
 20
4028.2911130234197
 42
-0.4274111994188318
 10
1356.6947781483807
 20
4031.4256131168477
 10
1361.6121591357687
 20
4031.4256131168477
 42
-0.3638444513078184
 10
1364.5663506503977
 20
4028.9478702325378
 42
0.0875411435077827
 10
1388.8414514676288
 20
3962.3662227922578
 42
0.1451938607043103
 10
1443.8563700677107
 20
3908.7990706868827
 42
-0.4977360510493554
  0
LWPOLYLINE
  5
1B9
100
AcDbEntity
  8
AAA70-1102
370
              15
390
0
  6
Continuous
 62
               7
100
AcDbPolyline
 90
       22
 70
             128
 10
1774.8993490650059
 20
3889.6074079229738
 10
1778.3900994666888
 20
3861.6814047093158
 42
0.3782424518882171
 10
1784.3437667269709
 20
3856.4256131168499
 10
1883.3495126394075
 20
3856.4256131168499
 42
0.414213562373095
 10
1885.3495126394075
 20
3858.4256131168499
 10
1885.3495126394075
 20
3859.24372793978
 42
-0.3441507314089596
 10
1887.6219057642986
 20
3862.1541554402156
 10
1918.8722774649034
 20
3869.0158506013677
 42
0.2802168442800491
 10
1962.6991216434683
 20
3913.3718016510297
 42
0.0509615164870232
 10
1979.0633614911114
 20
4037.3084096663556
 42
0.4228230956722873
 10
1975.0650789409167
 20
4041.425613116849
 10
1343.0616440413078
 20
4041.4256131168727
 42
0.4228230956719538
 10
1339.0633614911108
 20
4037.3084096663788
 42
0.0509614248357675
 10
1355.4293187885628
 20
3913.3718016510293
 42
0.2802168442800536
 10
1399.2561629671256
 20
3869.0158506013699
 10
1430.5065346677477
 20
3862.1541554402156
 42
-0.3441507314089519
 10
1432.7789277926388
 20
3859.24372793978
 10
1432.7789277926388
 20
3858.4256131168499
 42
0.4142135623732282
 10
1434.7789277926397
 20
3856.4256131168499
 10
1533.7666681798923
 20
3856.4256131168499
 42
0.3782424518881158
 10
1539.7203354401747
 20
3861.6814047093148
 10
1543.2112454603748
 20
3889.6086848708928
  0
ENDSEC
  0
SECTION
  2
OBJECTS
  0
DICTIONARY
  5
19
100
AcDbDictionary
280
               0
281
               1
  3
ACAD_GROUP
350
1A
  3
ACAD_MLINESTYLE
350
1B
  3
ACAD_LAYOUT
350
1E
  3
ACAD_PLOTSETTINGS
350
22
  3
ACAD_PLOTSTYLENAME
350
1F
  0
DICTIONARY
  5
1A
102
{ACAD_REACTORS
330
19
102
}
100
AcDbDictionary
280
               0
281
               1
  0
DICTIONARY
  5
1B
102
{ACAD_REACTORS
330
19
102
}
100
AcDbDictionary
280
               0
281
               1
  3
Standard
350
1C
  0
MLINESTYLE
  5
1C
102
{ACAD_REACTORS
330
1B
102
}
100
AcDbMlineStyle
  2
Standard
 70
               0
  3

 62
               0
 51
90.0
 52
90.0
 71
               2
 49
0.5
 62
             256
  6
ByLayer
 49
-0.5
 62
             256
  6
ByLayer
  0
ACDBDICTIONARYWDFLT
  5
1F
102
{ACAD_REACTORS
330
19
102
}
100
AcDbDictionary
281
               1
  3
Normal
350
1D
100
AcDbDictionaryWithDefault
340
1D
  0
ACDBPLACEHOLDER
  5
1D
102
{ACAD_REACTORS
330
1F
102
}
  0
LAYOUT
  5
20
102
{ACAD_REACTORS
330
1E
102
}
100
AcDbPlotSettings
  1

  2

  4

  6

 40
0.0
 41
0.0
 42
0.0
 43
0.0
 44
0.0
 45
0.0
 46
0.0
 47
0.0
 48
0.0
 49
0.0
140
0.0
141
0.0
142
1.0
143
1.0
 70
            1024
 72
               0
 73
               0
 74
               0
  7

 75
               0
147
1.0
148
0.0
149
0.0
100
AcDbLayout
  1
Model
 70
               0
 71
               0
 10
0.0
 20
0.0
 11
0.0
 21
0.0
 12
0.0
 22
0.0
 32
0.0
 14
0.0
 24
0.0
 34
0.0
 15
0.0
 25
0.0
 35
0.0
146
0.0
 13
0.0
 23
0.0
 33
0.0
 16
0.0
 26
0.0
 36
0.0
 17
0.0
 27
0.0
 37
0.0
 76
               0
330
A
331
0
345
0
346
0
  0
LAYOUT
  5
21
102
{ACAD_REACTORS
330
1E
102
}
100
AcDbPlotSettings
  1

  2

  4

  6

 40
0.0
 41
0.0
 42
0.0
 43
0.0
 44
0.0
 45
0.0
 46
0.0
 47
0.0
 48
0.0
 49
0.0
140
0.0
141
0.0
142
1.0
143
1.0
 70
               0
 72
               0
 73
               0
 74
               0
  7

 75
               0
147
1.0
148
0.0
149
0.0
100
AcDbLayout
  1
Layout1
 70
               0
 71
               0
 10
0.0
 20
0.0
 11
0.0
 21
0.0
 12
0.0
 22
0.0
 32
0.0
 14
0.0
 24
0.0
 34
0.0
 15
0.0
 25
0.0
 35
0.0
146
0.0
 13
0.0
 23
0.0
 33
0.0
 16
0.0
 26
0.0
 36
0.0
 17
0.0
 27
0.0
 37
0.0
 76
               0
330
B
331
0
345
0
346
0
  0
DICTIONARY
  5
1E
102
{ACAD_REACTORS
330
19
102
}
100
AcDbDictionary
280
               0
281
               1
  3
Layout1
350
21
  3
Model
350
20
  0
DICTIONARY
  5
22
102
{ACAD_REACTORS
330
19
102
}
100
AcDbDictionary
280
               0
281
               1
  0
ENDSEC
  0
EOF
