  0
SECTION
  2
HEADER
  9
$ACADVER
  1
AC1015
  9
$ACADMAINTVER
 70
               6
  9
$DWGCODEPAGE
  3
ANSI_932
  9
$INSBASE
 10
0.0
 20
0.0
 30
0.0
  9
$EXTMIN
 10
1050.0000000000002
 20
2970.0
 30
-14.851944444444445
  9
$EXTMAX
 10
3150.0
 20
5940.0
 30
14.851944444444445
  9
$LIMMIN
 10
0.0
 20
0.0
  9
$LIMMAX
 10
0.0
 20
0.0
  9
$ORTHOMODE
 70
               0
  9
$REGENMODE
 70
               1
  9
$FILLMODE
 70
               1
  9
$QTEXTMODE
 70
               0
  9
$MIRRTEXT
 70
               1
  9
$LTSCALE
 40
50.799999999999997
  9
$ATTMODE
 70
               1
  9
$TEXTSIZE
 40
0.2
  9
$TRACEWID
 40
1.0
  9
$TEXTSTYLE
  7
Standard
  9
$CLAYER
  8
AAA70-1103
  9
$CELTYPE
  6
Continuous
  9
$CECOLOR
 62
             256
  9
$CELTSCALE
 40
1.0
  9
$DISPSILH
 70
               0
  9
$DIMSCALE
 40
1.0
  9
$DIMASZ
 40
31.75
  9
$DIMEXO
 40
0.0
  9
$DIMDLI
 40
6.9999999999999396
  9
$DIMRND
 40
0.0
  9
$DIMDLE
 40
0.0
  9
$DIMEXE
 40
19.999999999996199
  9
$DIMTP
 40
0.0
  9
$DIMTM
 40
0.0
  9
$DIMTXT
 40
24.432617187500004
  9
$DIMCEN
 40
0.0
  9
$DIMTSZ
 40
0.0
  9
$DIMTOL
 70
               0
  9
$DIMLIM
 70
               0
  9
$DIMTIH
 70
               0
  9
$DIMTOH
 70
               0
  9
$DIMSE1
 70
               0
  9
$DIMSE2
 70
               0
  9
$DIMTAD
 70
               1
  9
$DIMZIN
 70
              11
  9
$DIMBLK
  1
VW_FILLEDARROW
  9
$DIMASO
 70
               1
  9
$DIMSHO
 70
               1
  9
$DIMPOST
  1
<>
  9
$DIMAPOST
  1
[]
  9
$DIMALT
 70
               0
  9
$DIMALTD
 70
               3
  9
$DIMALTF
 40
0.0393700787401575
  9
$DIMLFAC
 40
1.0
  9
$DIMTOFL
 70
               0
  9
$DIMTVP
 40
0.0
  9
$DIMTIX
 70
               1
  9
$DIMSOXD
 70
               0
  9
$DIMSAH
 70
               0
  9
$DIMBLK1
  1

  9
$DIMBLK2
  1

  9
$DIMSTYLE
  2
JIS
  9
$DIMCLRD
 70
               0
  9
$DIMCLRE
 70
               0
  9
$DIMCLRT
 70
               0
  9
$DIMTFAC
 40
1.0
  9
$DIMGAP
 40
1.00000000000108
  9
$DIMJUST
 70
               0
  9
$DIMSD1
 70
               0
  9
$DIMSD2
 70
               0
  9
$DIMTOLJ
 70
               1
  9
$DIMTZIN
 70
              11
  9
$DIMALTZ
 70
              15
  9
$DIMALTTZ
 70
              15
  9
$DIMUPT
 70
               0
  9
$DIMDEC
 70
               1
  9
$DIMTDEC
 70
               1
  9
$DIMALTU
 70
               4
  9
$DIMALTTD
 70
               2
  9
$DIMTXSTY
  7
ＭＳ ゴシック
  9
$DIMAUNIT
 70
               0
  9
$DIMADEC
 70
               2
  9
$DIMALTRND
 40
0.0
  9
$DIMAZIN
 70
               0
  9
$DIMDSEP
 70
              46
  9
$DIMATFIT
 70
               0
  9
$DIMFRAC
 70
               2
  9
$DIMLDRBLK
  1

  9
$DIMLUNIT
 70
               2
  9
$DIMLWD
 70
              -2
  9
$DIMLWE
 70
              -2
  9
$DIMTMOVE
 70
               0
  9
$LUNITS
 70
               2
  9
$LUPREC
 70
               4
  9
$SKETCHINC
 40
0.1
  9
$FILLETRAD
 40
0.0
  9
$AUNITS
 70
               0
  9
$AUPREC
 70
               0
  9
$MENU
  1
acad
  9
$ELEVATION
 40
0.0
  9
$PELEVATION
 40
0.0
  9
$THICKNESS
 40
0.0
  9
$LIMCHECK
 70
               0
  9
$CHAMFERA
 40
0.0
  9
$CHAMFERB
 40
0.0
  9
$CHAMFERC
 40
0.0
  9
$CHAMFERD
 40
0.0
  9
$SKPOLY
 70
               0
  9
$TDCREATE
 40
2455965.479247685
  9
$TDUCREATE
 40
0.000000000
  9
$TDUPDATE
 40
2455965.479247685
  9
$TDUUPDATE
 40
0.000000000
  9
$TDINDWG
 40
0.0000000000
  9
$TDUSRTIMER
 40
0.0000000000
  9
$USRTIMER
 70
               1
  9
$ANGBASE
 50
0.0
  9
$ANGDIR
 70
               0
  9
$PDMODE
 70
               1
  9
$PDSIZE
 40
-2.0
  9
$PLINEWID
 40
0.0
  9
$SPLFRAME
 70
               0
  9
$SPLINETYPE
 70
               6
  9
$SPLINESEGS
 70
               8
  9
$HANDSEED
  5
1C0
  9
$SURFTAB1
 70
               6
  9
$SURFTAB2
 70
               6
  9
$SURFTYPE
 70
               6
  9
$SURFU
 70
               6
  9
$SURFV
 70
               6
  9
$UCSBASE
  2

  9
$UCSNAME
  2

  9
$UCSORG
 10
0.0
 20
0.0
 30
0.0
  9
$UCSXDIR
 10
1.0
 20
0.0
 30
0.0
  9
$UCSYDIR
 10
0.0
 20
1.0
 30
0.0
  9
$UCSORTHOREF
  2

  9
$UCSORTHOVIEW
 70
               0
  9
$UCSORGTOP
 10
0.0
 20
0.0
 30
0.0
  9
$UCSORGBOTTOM
 10
0.0
 20
0.0
 30
0.0
  9
$UCSORGLEFT
 10
0.0
 20
0.0
 30
0.0
  9
$UCSORGRIGHT
 10
0.0
 20
0.0
 30
0.0
  9
$UCSORGFRONT
 10
0.0
 20
0.0
 30
0.0
  9
$UCSORGBACK
 10
0.0
 20
0.0
 30
0.0
  9
$PUCSBASE
  2

  9
$PUCSNAME
  2

  9
$PUCSORG
 10
0.0
 20
0.0
 30
0.0
  9
$PUCSXDIR
 10
1.0
 20
0.0
 30
0.0
  9
$PUCSYDIR
 10
0.0
 20
1.0
 30
0.0
  9
$PUCSORTHOREF
  2

  9
$PUCSORTHOVIEW
 70
               0
  9
$PUCSORGTOP
 10
0.0
 20
0.0
 30
0.0
  9
$PUCSORGBOTTOM
 10
0.0
 20
0.0
 30
0.0
  9
$PUCSORGLEFT
 10
0.0
 20
0.0
 30
0.0
  9
$PUCSORGRIGHT
 10
0.0
 20
0.0
 30
0.0
  9
$PUCSORGFRONT
 10
0.0
 20
0.0
 30
0.0
  9
$PUCSORGBACK
 10
0.0
 20
0.0
 30
0.0
  9
$USERI1
 70
               0
  9
$USERI2
 70
               0
  9
$USERI3
 70
               0
  9
$USERI4
 70
               0
  9
$USERI5
 70
               0
  9
$USERR1
 40
0.0
  9
$USERR2
 40
0.0
  9
$USERR3
 40
0.0
  9
$USERR4
 40
0.0
  9
$USERR5
 40
0.0
  9
$WORLDVIEW
 70
               1
  9
$SHADEDGE
 70
               3
  9
$SHADEDIF
 70
              70
  9
$TILEMODE
 70
               1
  9
$MAXACTVP
 70
              64
  9
$PINSBASE
 10
0.0
 20
0.0
 30
0.0
  9
$PLIMCHECK
 70
               0
  9
$PEXTMIN
 10
1.0000000000000000E+20
 20
1.0000000000000000E+20
 30
1.0000000000000000E+20
  9
$PEXTMAX
 10
-1.0000000000000000E+20
 20
-1.0000000000000000E+20
 30
-1.0000000000000000E+20
  9
$PLIMMIN
 10
0.0
 20
0.0
  9
$PLIMMAX
 10
12.0
 20
9.0
  9
$UNITMODE
 70
               0
  9
$VISRETAIN
 70
               0
  9
$PLINEGEN
 70
               1
  9
$PSLTSCALE
 70
               0
  9
$TREEDEPTH
 70
            3020
  9
$CMLSTYLE
  2
Standard
  9
$CMLJUST
 70
               0
  9
$CMLSCALE
 40
1.0
  9
$PROXYGRAPHICS
 70
               0
  9
$MEASUREMENT
 70
               1
  9
$CELWEIGHT
370
               0
  9
$ENDCAPS
280
               0
  9
$JOINSTYLE
280
               0
  9
$LWDISPLAY
290
               1
  9
$INSUNITS
 70
               4
  9
$HYPERLINKBASE
  1

  9
$STYLESHEET
  1

  9
$XEDIT
290
               1
  9
$CEPSNTYPE
380
               0
  9
$PSTYLEMODE
290
               1
  9
$FINGERPRINTGUID
  2

  9
$VERSIONGUID
  2

  9
$EXTNAMES
290
               1
  9
$PSVPSCALE
 40
0.0
  0
ENDSEC
  0
SECTION
  2
CLASSES
  0
CLASS
  1
LWPOLYLINE
  2
AcDbPolyline
  3
AutoCAD 2000
 90
        0
280
               0
281
               1
  0
CLASS
  1
IMAGE
  2
AcDbRasterImage
  3
ISM
 90
      127
280
               0
281
               1
  0
CLASS
  1
OLE2FRAME
  2
AcDbOle2Frame
  3
AutoCAD 2000
 90
        0
280
               0
281
               1
  0
CLASS
  1
HATCH
  2
AcDbHatch
  3
AutoCAD 2000
 90
        0
280
               0
281
               1
  0
CLASS
  1
DICTIONARYVAR
  2
AcDbDictionaryVar
  3
AutoCAD 2000
 90
        0
280
               0
281
               0
  0
CLASS
  1
RASTERVARIABLES
  2
AcDbRasterVariables
  3
ISM
 90
        0
280
               0
281
               0
  0
CLASS
  1
IMAGEDEF
  2
AcDbRasterImageDef
  3
ISM
 90
        0
280
               0
281
               0
  0
CLASS
  1
IMAGEDEF_REACTOR
  2
AcDbRasterImageDefReactor
  3
ISM
 90
        1
280
               0
281
               0
  0
CLASS
  1
IDBUFFER
  2
AcDbIdBuffer
  3
AutoCAD 2000
 90
        0
280
               0
281
               0
  0
CLASS
  1
SPATIAL_FILTER
  2
AcDbSpatialFilter
  3
AutoCAD 2000
 90
        0
280
               0
281
               0
  0
CLASS
  1
XRECORD
  2
AcDbXrecord
  3
AutoCAD 2000
 90
        0
280
               0
281
               0
  0
CLASS
  1
SORTENTSTABLE
  2
AcDbSortentsTable
  3
AutoCAD 2000
 90
        0
280
               0
281
               0
  0
CLASS
  1
LAYER_INDEX
  2
AcDbLayerIndex
  3
AutoCAD 2000
 90
        0
280
               0
281
               0
  0
CLASS
  1
SPATIAL_INDEX
  2
AcDbSpatialIndex
  3
AutoCAD 2000
 90
        0
280
               0
281
               0
  0
CLASS
  1
OBJECT_PTR
  2
CAseDLPNTableRecord
  3
"ASE-LPNTableRecord"
 90
        1
280
               0
281
               0
  0
CLASS
  1
LAYOUT
  2
AcDbLayout
  3
AutoCAD 2000
 90
        0
280
               0
281
               0
  0
CLASS
  1
PLOTSETTINGS
  2
AcDbPlotSettings
  3
AutoCAD 2000
 90
        0
280
               0
281
               0
  0
CLASS
  1
ACDBDICTIONARYWDFLT
  2
AcDbDictionaryWithDefault
  3
AutoCAD 2000
 90
        0
280
               0
281
               0
  0
CLASS
  1
ACDBPLACEHOLDER
  2
AcDbPlaceHolder
  3
AutoCAD 2000
 90
        0
280
               0
281
               0
  0
ENDSEC
  0
SECTION
  2
TABLES
  0
TABLE
  2
VPORT
  5
7
100
AcDbSymbolTable
 70
               1
  0
VPORT
  5
15
100
AcDbSymbolTableRecord
100
AcDbViewportTableRecord
  2
*ACTIVE
 70
               0
 10
0.0
 20
0.0
 11
1.0
 21
1.0
 12
2100.0
 22
4455.0
 13
0.0
 23
0.0
 14
1.0
 24
1.0
 15
0.0
 25
0.0
 16
0.0
 26
0.0
 36
1.0
 17
0.0
 27
0.0
 37
0.0
 40
2970.0
 41
0.688564
 42
50.0
 43
0.0
 44
0.0
 50
0.0
 51
0.0
 71
               0
 72
            2000
 73
               1
 74
               1
 75
               0
 76
               0
 77
               0
 78
               0
281
               0
 65
               0
110
0.0
120
0.0
130
0.0
111
1.0
121
0.0
131
0.0
112
0.0
122
1.0
132
0.0
345
0
346
0
 79
               0
146
0.0
  0
ENDTAB
  0
TABLE
  2
LTYPE
  5
4
100
AcDbSymbolTable
 70
              15
  0
LTYPE
  5
11
100
AcDbSymbolTableRecord
100
AcDbLinetypeTableRecord
  2
ByBlock
 70
              64
  3

 72
              65
 73
               0
 40
0.0
  0
LTYPE
  5
12
100
AcDbSymbolTableRecord
100
AcDbLinetypeTableRecord
  2
ByLayer
 70
              64
  3

 72
              65
 73
               0
 40
0.0
  0
LTYPE
  5
13
100
AcDbSymbolTableRecord
100
AcDbLinetypeTableRecord
  2
Continuous
 70
              64
  3
Solid line
 72
              65
 73
               0
 40
0.0
  0
LTYPE
  5
37
100
AcDbSymbolTableRecord
100
AcDbLinetypeTableRecord
  2
STYLE_01
 70
               0
  3

 72
              65
 73
               2
 40
0.0375
 49
0.025
 74
               0
 49
-0.0125
 74
               0
  0
LTYPE
  5
38
100
AcDbSymbolTableRecord
100
AcDbLinetypeTableRecord
  2
STYLE_02
 70
               0
  3

 72
              65
 73
               2
 40
0.6944250000000001
 49
0.48607
 74
               0
 49
-0.2083550000000001
 74
               0
  0
LTYPE
  5
39
100
AcDbSymbolTableRecord
100
AcDbLinetypeTableRecord
  2
STYLE_03
 70
               0
  3

 72
              65
 73
               2
 40
1.25
 49
1.0416400000000001
 74
               0
 49
-0.2083599999999999
 74
               0
  0
LTYPE
  5
3A
100
AcDbSymbolTableRecord
100
AcDbLinetypeTableRecord
  2
STYLE_04
 70
               0
  3

 72
              65
 73
               2
 40
1.5277099999999999
 49
1.3194249999999998
 74
               0
 49
-0.208285
 74
               0
  0
LTYPE
  5
3B
100
AcDbSymbolTableRecord
100
AcDbLinetypeTableRecord
  2
STYLE_05
 70
               0
  3

 72
              65
 73
               2
 40
0.20828
 49
0.069425
 74
               0
 49
-0.138855
 74
               0
  0
LTYPE
  5
3C
100
AcDbSymbolTableRecord
100
AcDbLinetypeTableRecord
  2
STYLE_06
 70
               0
  3

 72
              65
 73
               4
 40
1.0416400000000001
 49
0.625
 74
               0
 49
-0.20828
 74
               0
 49
0.06943
 74
               0
 49
-0.13893
 74
               0
  0
LTYPE
  5
3D
100
AcDbSymbolTableRecord
100
AcDbLinetypeTableRecord
  2
STYLE_07
 70
               0
  3

 72
              65
 73
               6
 40
1.875
 49
0.625
 74
               0
 49
-0.20828
 74
               0
 49
0.6250000000000001
 74
               0
 49
-0.2083599999999999
 74
               0
 49
0.06943
 74
               0
 49
-0.1389299999999999
 74
               0
  0
LTYPE
  5
3E
100
AcDbSymbolTableRecord
100
AcDbLinetypeTableRecord
  2
STYLE_08
 70
               0
  3

 72
              65
 73
               6
 40
1.25
 49
0.625
 74
               0
 49
-0.20828
 74
               0
 49
0.06943
 74
               0
 49
-0.13893
 74
               0
 49
0.0694299999999999
 74
               0
 49
-0.13893
 74
               0
  0
LTYPE
  5
3F
100
AcDbSymbolTableRecord
100
AcDbLinetypeTableRecord
  2
STYLE_09
 70
               0
  3

 72
              65
 73
               4
 40
5.0
 49
3.75
 74
               0
 49
-0.2777849999999998
 74
               0
 49
0.6944300000000003
 74
               0
 49
-0.2777849999999998
 74
               0
  0
LTYPE
  5
40
100
AcDbSymbolTableRecord
100
AcDbLinetypeTableRecord
  2
STYLE_10
 70
               0
  3

 72
              65
 73
               6
 40
5.9375
 49
3.75
 74
               0
 49
-0.2777849999999998
 74
               0
 49
0.6944300000000003
 74
               0
 49
-0.2777849999999998
 74
               0
 49
0.625
 74
               0
 49
-0.3125
 74
               0
  0
LTYPE
  5
41
100
AcDbSymbolTableRecord
100
AcDbLinetypeTableRecord
  2
STYLE_11
 70
               0
  3

 72
              65
 73
               2
 40
0.516732283464567
 49
0.344488188976378
 74
               0
 49
-0.172244094488189
 74
               0
  0
LTYPE
  5
42
100
AcDbSymbolTableRecord
100
AcDbLinetypeTableRecord
  2
STYLE_12
 70
               0
  3

 72
              65
 73
               2
 40
0.3937007874015748
 49
0.1968503937007874
 74
               0
 49
-0.1968503937007874
 74
               0
  0
ENDTAB
  0
TABLE
  2
LAYER
  5
2
100
AcDbSymbolTable
 70
               5
  0
LAYER
  5
14
100
AcDbSymbolTableRecord
100
AcDbLayerTableRecord
  2
0
 70
               0
 62
               7
  6
Continuous
290
               1
370
              -3
390
1D
  0
LAYER
  5
43
100
AcDbSymbolTableRecord
100
AcDbLayerTableRecord
  2
Defpoints
 70
               0
 62
               7
  6
Continuous
290
               0
370
              -3
390
1D
  0
LAYER
  5
44
100
AcDbSymbolTableRecord
100
AcDbLayerTableRecord
  2
template
 70
               0
 62
               7
  6
Continuous
290
               1
370
              -3
390
1D
  0
LAYER
  5
45
100
AcDbSymbolTableRecord
100
AcDbLayerTableRecord
  2
notes
 70
               0
 62
               7
  6
Continuous
290
               1
370
              -3
390
1D
  0
LAYER
  5
46
100
AcDbSymbolTableRecord
100
AcDbLayerTableRecord
  2
AAA70-1103
 70
               0
 62
               7
  6
Continuous
290
               1
370
              -3
390
1D
  0
ENDTAB
  0
TABLE
  2
STYLE
  5
3
100
AcDbSymbolTable
 70
               2
  0
STYLE
  5
17
100
AcDbSymbolTableRecord
100
AcDbTextStyleTableRecord
  2
Standard
 70
               0
 40
0.0
 41
1.0
 50
0.0
 71
               0
 42
0.0
  3
txt
  4
BIGFONT.SHX
  0
STYLE
  5
36
100
AcDbSymbolTableRecord
100
AcDbTextStyleTableRecord
  2
ＭＳ ゴシック
 70
               0
 40
0.0
 41
1.0
 50
0.0
 71
               0
 42
0.0
  3

  4
ＭＳ ゴシック
1001
ACAD
1000
ＭＳ ゴシック
1071
        0
  0
ENDTAB
  0
TABLE
  2
VIEW
  5
5
100
AcDbSymbolTable
 70
               0
  0
ENDTAB
  0
TABLE
  2
UCS
  5
6
100
AcDbSymbolTable
 70
               0
  0
ENDTAB
  0
TABLE
  2
APPID
  5
8
100
AcDbSymbolTable
 70
               1
  0
APPID
  5
16
100
AcDbSymbolTableRecord
100
AcDbRegAppTableRecord
  2
ACAD
 70
               0
  0
ENDTAB
  0
TABLE
  2
DIMSTYLE
  5
9
100
AcDbSymbolTable
 70
               3
100
AcDbDimStyleTable
 71
               0
  0
DIMSTYLE
105
18
100
AcDbSymbolTableRecord
100
AcDbDimStyleTableRecord
  2
Standard
 70
               0
  3

  4

 40
1.0
 41
0.18
 42
0.0625
 43
0.38
 44
0.18
 45
0.0
 46
0.0
 47
0.0
 48
0.0
 71
               0
 72
               0
 73
               1
 74
               1
 75
               0
 76
               0
 77
               0
 78
               0
 79
               0
140
0.18
141
0.09
142
0.0
143
25.399999999999999
144
1.0
145
0.0
146
1.0
147
0.09
148
0.0
170
               0
171
               2
172
               0
173
               0
174
               0
175
               0
176
               0
177
               0
178
               0
179
               0
271
               4
272
               4
273
               2
274
               2
275
               0
276
               0
277
               2
278
              46
279
               0
280
               0
281
               0
282
               0
283
               1
284
               0
285
               0
286
               0
288
               0
289
               3
340
17
341
0
342
0
343
0
344
0
371
              -2
372
              -2
  0
DIMSTYLE
105
4F
100
AcDbSymbolTableRecord
100
AcDbDimStyleTableRecord
  2
tfrom線あり
 70
               0
  3
<>
  4
[]
 40
1.0
 41
3.999755859375
 42
24.999999999999996
 43
0.9999999999999999
 44
0.0
 45
0.0
 46
0.0
 47
0.0
 48
0.0
 71
               0
 72
               0
 73
               0
 74
               0
 75
               0
 76
               0
 77
               1
 78
              11
 79
               0
140
24.432617187500004
141
0.0
142
0.0
143
0.0393700787401575
144
1.0
145
0.0
146
1.0
147
0.4999999999999999
148
0.0
170
               0
171
               3
172
               0
173
               0
174
               1
175
               0
176
               0
177
               0
178
               0
179
               2
271
               1
272
               1
273
               4
274
               2
275
               0
276
               2
277
               2
278
              46
279
               0
280
               0
281
               0
282
               0
283
               1
284
              11
285
              15
286
              15
288
               0
289
               0
340
36
341
47
342
47
343
0
344
0
371
              -2
372
              -2
  0
DIMSTYLE
105
54
100
AcDbSymbolTableRecord
100
AcDbDimStyleTableRecord
  2
JIS
 70
               0
  3
<>
  4
[]
 40
1.0
 41
31.75
 42
0.0
 43
6.9999999999999396
 44
19.999999999996199
 45
0.0
 46
0.0
 47
0.0
 48
0.0
 71
               0
 72
               0
 73
               0
 74
               0
 75
               0
 76
               0
 77
               1
 78
              11
 79
               0
140
24.432617187500004
141
0.0
142
0.0
143
0.0393700787401575
144
1.0
145
0.0
146
1.0
147
1.00000000000108
148
0.0
170
               0
171
               3
172
               0
173
               0
174
               1
175
               0
176
               0
177
               0
178
               0
179
               2
271
               1
272
               1
273
               4
274
               2
275
               0
276
               2
277
               2
278
              46
279
               0
280
               0
281
               0
282
               0
283
               1
284
              11
285
              15
286
              15
288
               0
289
               0
340
36
341
50
342
50
343
0
344
0
371
              -2
372
              -2
  0
ENDTAB
  0
TABLE
  2
BLOCK_RECORD
  5
1
100
AcDbSymbolTable
 70
              21
  0
BLOCK_RECORD
  5
A
100
AcDbSymbolTableRecord
100
AcDbBlockTableRecord
  2
*MODEL_SPACE
340
20
  0
BLOCK_RECORD
  5
B
100
AcDbSymbolTableRecord
100
AcDbBlockTableRecord
  2
*PAPER_SPACE
340
21
  0
BLOCK_RECORD
  5
47
100
AcDbSymbolTableRecord
100
AcDbBlockTableRecord
  2
_DOT
340
0
  0
BLOCK_RECORD
  5
50
100
AcDbSymbolTableRecord
100
AcDbBlockTableRecord
  2
VW_FILLEDARROW
340
0
  0
BLOCK_RECORD
  5
23
100
AcDbSymbolTableRecord
100
AcDbBlockTableRecord
  2
グループ
340
0
102
{BLKREFS
331
14A
102
}
  0
BLOCK_RECORD
  5
24
100
AcDbSymbolTableRecord
100
AcDbBlockTableRecord
  2
グループ-1
340
0
102
{BLKREFS
331
157
102
}
  0
BLOCK_RECORD
  5
25
100
AcDbSymbolTableRecord
100
AcDbBlockTableRecord
  2
*D4
340
0
  0
BLOCK_RECORD
  5
26
100
AcDbSymbolTableRecord
100
AcDbBlockTableRecord
  2
*D5
340
0
  0
BLOCK_RECORD
  5
27
100
AcDbSymbolTableRecord
100
AcDbBlockTableRecord
  2
*D6
340
0
  0
BLOCK_RECORD
  5
28
100
AcDbSymbolTableRecord
100
AcDbBlockTableRecord
  2
*D7
340
0
  0
BLOCK_RECORD
  5
29
100
AcDbSymbolTableRecord
100
AcDbBlockTableRecord
  2
*D8
340
0
  0
BLOCK_RECORD
  5
2A
100
AcDbSymbolTableRecord
100
AcDbBlockTableRecord
  2
*D9
340
0
  0
BLOCK_RECORD
  5
2B
100
AcDbSymbolTableRecord
100
AcDbBlockTableRecord
  2
*D10
340
0
  0
BLOCK_RECORD
  5
2C
100
AcDbSymbolTableRecord
100
AcDbBlockTableRecord
  2
*D11
340
0
  0
BLOCK_RECORD
  5
2D
100
AcDbSymbolTableRecord
100
AcDbBlockTableRecord
  2
*D12
340
0
  0
BLOCK_RECORD
  5
2E
100
AcDbSymbolTableRecord
100
AcDbBlockTableRecord
  2
*D13
340
0
  0
BLOCK_RECORD
  5
2F
100
AcDbSymbolTableRecord
100
AcDbBlockTableRecord
  2
*D14
340
0
  0
BLOCK_RECORD
  5
30
100
AcDbSymbolTableRecord
100
AcDbBlockTableRecord
  2
*D15
340
0
  0
BLOCK_RECORD
  5
31
100
AcDbSymbolTableRecord
100
AcDbBlockTableRecord
  2
*D16
340
0
  0
BLOCK_RECORD
  5
32
100
AcDbSymbolTableRecord
100
AcDbBlockTableRecord
  2
*D17
340
0
  0
BLOCK_RECORD
  5
33
100
AcDbSymbolTableRecord
100
AcDbBlockTableRecord
  2
*D18
340
0
  0
BLOCK_RECORD
  5
34
100
AcDbSymbolTableRecord
100
AcDbBlockTableRecord
  2
*D19
340
0
  0
BLOCK_RECORD
  5
35
100
AcDbSymbolTableRecord
100
AcDbBlockTableRecord
  2
*D20
340
0
  0
ENDTAB
  0
ENDSEC
  0
SECTION
  2
BLOCKS
  0
BLOCK
  5
D
100
AcDbEntity
  8
0
390
0
100
AcDbBlockBegin
  2
*MODEL_SPACE
 70
               0
 10
0.0
 20
0.0
 30
0.0
  3
*MODEL_SPACE
  1

  0
ENDBLK
  5
E
100
AcDbEntity
  8
0
390
0
100
AcDbBlockEnd
  0
BLOCK
  5
F
100
AcDbEntity
 67
               1
  8
0
390
0
100
AcDbBlockBegin
  2
*PAPER_SPACE
 70
               0
 10
0.0
 20
0.0
 30
0.0
  3
*PAPER_SPACE
  1

  0
ENDBLK
  5
10
100
AcDbEntity
 67
               1
  8
0
390
0
100
AcDbBlockEnd
  0
BLOCK
  5
48
100
AcDbEntity
  8
0
390
0
100
AcDbBlockBegin
  2
_DOT
 70
               0
 10
0.0
 20
0.0
 30
0.0
  3
_DOT
  1

  0
POLYLINE
  5
49
100
AcDbEntity
  8
0
370
              -2
390
0
  6
ByBlock
 62
               0
100
AcDb2dPolyline
 66
               1
 10
0.0
 20
0.0
 30
0.0
 70
               1
 40
0.5
 41
0.5
  0
VERTEX
  5
4A
100
AcDbEntity
  8
0
370
              -2
390
0
  6
ByBlock
 62
               0
100
AcDbVertex
100
AcDb2dVertex
 10
-0.25
 20
0.0
 30
0.0
 42
1.0
  0
VERTEX
  5
4B
100
AcDbEntity
  8
0
370
              -2
390
0
  6
ByBlock
 62
               0
100
AcDbVertex
100
AcDb2dVertex
 10
0.25
 20
0.0
 30
0.0
 42
1.0
  0
SEQEND
  5
4C
100
AcDbEntity
  8
0
390
0
  0
LINE
  5
4D
100
AcDbEntity
  8
0
370
              -2
390
0
  6
ByBlock
 62
               0
100
AcDbLine
 10
-0.5
 20
0.0
 30
0.0
 11
-1.0
 21
0.0
 31
0.0
  0
ENDBLK
  5
4E
100
AcDbEntity
  8
0
390
0
100
AcDbBlockEnd
  0
BLOCK
  5
51
100
AcDbEntity
  8
0
370
              -2
390
0
  6
ByBlock
 62
               0
100
AcDbBlockBegin
  2
VW_FILLEDARROW
 70
               0
 10
0.0
 20
0.0
 30
0.0
  3
VW_FILLEDARROW
  1

  0
SOLID
  5
52
100
AcDbEntity
  8
0
370
              -2
390
0
 62
               0
100
AcDbTrace
 10
0.0
 20
0.0
 30
0.0
 11
-0.9921874999999999
 21
-0.2658558393652545
 31
0.0
 12
-0.9921874999999999
 22
0.2658558393652548
 32
0.0
 13
-0.9921874999999999
 23
0.2658558393652548
 33
0.0
  0
ENDBLK
  5
53
100
AcDbEntity
  8
0
390
0
100
AcDbBlockEnd
  0
BLOCK
  5
55
100
AcDbEntity
  8
template
390
0
100
AcDbBlockBegin
  2
グループ
 70
               0
 10
0.0
 20
0.0
 30
0.0
  3
グループ
  1

  0
LWPOLYLINE
  5
56
100
AcDbEntity
  8
0
370
              15
390
0
  6
Continuous
 62
               7
100
AcDbPolyline
 90
        8
 70
             129
 10
887.42850780307481
 20
-1321.7256061087792
 10
887.42850780307481
 20
-1327.7229948023551
 10
877.92731088507151
 20
-1327.7229948023551
 10
877.92731088507151
 20
-1352.1739580658641
 10
869.57193362328871
 20
-1352.1739580658641
 10
869.57193362328871
 20
-1327.7229948023551
 10
860.23897667697929
 20
-1327.7229948023551
 10
860.23897667697929
 20
-1321.7256061087792
  0
LWPOLYLINE
  5
57
100
AcDbEntity
  8
0
370
              15
390
0
  6
Continuous
 62
               7
100
AcDbPolyline
 90
      101
 70
             128
 10
900.15679963363175
 20
-1322.4538546017156
 10
900.17214966241681
 20
-1322.4494938450305
 42
-0.0222221607812452
 10
900.46215423908779
 20
-1322.380869379786
 10
900.47794800307383
 20
-1322.3778659566904
 42
-0.0146883565588934
 10
900.74065070830557
 20
-1322.3358627697396
 42
-0.0127458844187232
 10
901.00528967545358
 20
-1322.3083258016675
 10
901.06774475377142
 20
-1322.3034323790789
 42
-0.0198099018564203
 10
901.45859386324787
 20
-1322.2883472216822
 10
901.51040533269202
 20
-1322.2884009973473
 42
-0.0147617382767081
 10
902.00502879366388
 20
-1322.3035210225921
 10
902.07772024854728
 20
-1322.3078936294803
 42
-0.0162624548994798
 10
902.46787387800578
 20
-1322.3441265047522
 10
902.58940626926324
 20
-1322.3594130637484
 42
-0.0080020874677846
 10
902.73498530035658
 20
-1322.3800959110172
 10
902.7733047709329
 20
-1322.3861671888253
 42
-0.0053821929673327
 10
902.84178887626638
 20
-1322.3977747126501
 10
902.11538317706777
 20
-1324.578703168364
 42
0.010866775739458
 10
902.04806610693299
 20
-1324.5655160531433
 10
902.01059808374748
 20
-1324.5590183105496
 42
0.017066320330555
 10
901.86738129683056
 20
-1324.5391887132575
 10
901.79950596414892
 20
-1324.5321415426702
 42
0.0220162375278403
 10
901.5191265562944
 20
-1324.5154591818998
 10
901.44127098924127
 20
-1324.5142598146333
 42
0.0282606915787519
 10
901.10563466566362
 20
-1324.5280630916025
 10
901.06172139189118
 20
-1324.5323630816063
 42
0.0169677213689199
 10
900.8157968969324
 20
-1324.5649001311583
 42
0.0190576269859945
 10
900.57288893435577
 20
-1324.615047003264
 10
900.56662974624146
 20
-1324.6165899773741
 42
0.0213685642844021
 10
900.3162452617612
 20
-1324.6897902624796
 10
900.3107553668475
 20
-1324.6916532585378
 42
0.0237595297595475
 10
900.05726048195015
 20
-1324.7913377804327
 10
900.05215840791914
 20
-1324.7936295559116
 42
0.0261857468810989
 10
899.79998763168908
 20
-1324.9231658932861
 10
899.78956144260201
 20
-1324.9292313677547
 42
0.0272553062022719
 10
899.55313166736369
 20
-1325.0846035736986
 10
899.51836865385417
 20
-1325.1102647217908
 42
0.0325996893183754
 10
899.36821331020269
 20
-1325.2370125947623
 10
899.34450388108132
 20
-1325.2598306232735
 42
0.0138050960622077
 10
899.25262072486953
 20
-1325.353280284827
 42
0.0125280103811061
 10
899.16577819203553
 20
-1325.4514436114275
 10
899.14209774712765
 20
-1325.4796021096142
 42
0.0205218024740018
 10
899.01699767161551
 20
-1325.6413954238412
 10
898.99453133112684
 20
-1325.6730551536702
 42
0.0163110129586428
 10
898.83882095187516
 20
-1325.9083855887409
 10
898.83609705582455
 20
-1325.9128093507256
 42
0.0131897341900631
 10
898.68929653491591
 20
-1326.1659414430953
 10
898.68759643955218
 20
-1326.1690596822259
 42
0.0107895576062599
 10
898.54981973733982
 20
-1326.4352748918641
 10
898.5490868478164
 20
-1326.4367691245075
 42
0.0091371507225028
 10
898.42060689916593
 20
-1326.7112943222689
 10
898.3908612677576
 20
-1326.7780008294258
 42
0.0135418326351088
 10
898.21914732868436
 20
-1327.1929386146987
 10
898.1855425202524
 20
-1327.280804756974
 42
0.0092834542409608
 10
898.01431346033087
 20
-1327.7547032552811
 10
897.98869633261347
 20
-1327.8299443250737
 42
0.0054261043585329
 10
897.88105818432018
 20
-1328.1577082981398
 10
897.86353219816351
 20
-1328.2130964603045
 42
0.0008225090811953
 10
897.79486214631277
 20
-1328.4313652185192
 10
896.8101730143793
 20
-1331.4562565117758
 10
900.04279685445317
 20
-1331.4562565117758
 10
899.53860442459973
 20
-1333.3607348101277
 10
896.28254814261641
 20
-1333.3607348101277
 10
890.45339911026258
 20
-1352.1739578761326
 10
888.62830149995227
 20
-1352.1739578761326
 10
894.4629795354532
 20
-1333.3607348101277
 10
892.05786316641286
 20
-1333.3607348101277
 10
892.5620555962663
 20
-1331.4562565117758
 10
894.99060440721632
 20
-1331.4562565117758
 10
895.85075932540497
 20
-1328.8198435110767
 42
-0.00058635606447
 10
895.88749400353106
 20
-1328.7030170910302
 10
895.96358183726886
 20
-1328.4620247913995
 42
-0.0087522378926788
 10
896.16304998072587
 20
-1327.8667487042526
 10
896.25531425614099
 20
-1327.6066085357349
 42
-0.0077400953830428
 10
896.51324791527031
 20
-1326.9136038581919
 10
896.52901288684689
 20
-1326.8731729748117
 42
-0.0082369946330518
 10
896.77609735746114
 20
-1326.2690939086101
 42
-0.0085725238362489
 10
897.04334345346786
 20
-1325.6736678693146
 10
897.14497305447071
 20
-1325.4572467673395
 42
-0.0168109410597172
 10
897.43191748320146
 20
-1324.8960392412334
 10
897.55776087369225
 20
-1324.6690752081788
 42
-0.0007817726868056
 10
897.61204522371713
 20
-1324.5715309632051
 10
897.6121735297196
 20
-1324.5713012544952
 42
-0.0036626142161405
 10
897.6670613937556
 20
-1324.4747033745002
 42
-0.0080221150696845
 10
897.72418564915722
 20
-1324.3794241397557
 10
897.75488560052349
 20
-1324.330033190625
 42
-0.0202139325569975
 10
897.88254134033389
 20
-1324.1420515899385
 10
897.93660880551784
 20
-1324.0689727257027
 42
-0.0249323791802378
 10
898.19577159923324
 20
-1323.7529274835524
 10
898.219911413364
 20
-1323.7263132106357
 42
-0.0242132121537746
 10
898.5595921549118
 20
-1323.3864297244265
 10
898.60750372765222
 20
-1323.3429205882496
 42
-0.0251017527863961
 10
898.8914854282973
 20
-1323.1099278424811
 10
898.89293090510876
 20
-1323.1088585849038
 42
-0.0130868069033684
 10
899.19119155506837
 20
-1322.9000781163595
 10
899.19275337420959
 20
-1322.8990446760854
 42
-0.029032952639383
 10
899.50386451560439
 20
-1322.718219174455
 10
899.53371007759426
 20
-1322.7031167916136
 42
-0.0160250190047949
 10
899.79961449135521
 20
-1322.5791006814025
 42
-0.0267600374781006
 10
900.07489056882639
 20
-1322.4783523608533
 10
900.10162648834478
 20
-1322.4701598020283
 42
-0.0049981587650879
 10
900.15679963363175
 20
-1322.4538546017156
 42
-0.0049981587650879
  0
LWPOLYLINE
  5
58
100
AcDbEntity
  8
0
370
              15
390
0
  6
Continuous
 62
               7
100
AcDbPolyline
 90
      118
 70
             128
 10
919.97116719807866
 20
-1331.5302398396029
 10
921.84628912257813
 20
-1331.5302398396029
 10
921.00825021697824
 20
-1334.2118063660027
 42
-0.0010587229241178
 10
921.039706032548
 20
-1334.1749018326502
 10
921.09790012318217
 20
-1334.1069195764719
 42
-0.0071874740413046
 10
921.24827534127098
 20
-1333.936278884453
 10
921.38999811454244
 20
-1333.7800427431296
 42
-0.0148118053513141
 10
921.84012740725871
 20
-1333.312428897113
 10
921.92734974215819
 20
-1333.2270315762619
 42
-0.0086273358692324
 10
922.26289854316542
 20
-1332.9096559422467
 10
922.30673225939165
 20
-1332.8696062979134
 42
-0.0103138323115429
 10
922.56475596162477
 20
-1332.6434431605753
 10
922.61053036796045
 20
-1332.6049611133078
 42
-0.0060206748564274
 10
922.78337843206407
 20
-1332.4631664625608
 10
922.78540956294921
 20
-1332.4615407569302
 42
-0.0067069027288388
 10
922.95770237761258
 20
-1332.3273901231346
 10
922.96025114354586
 20
-1332.3254599532538
 42
-0.0076184352049488
 10
923.13115640940987
 20
-1332.2000850780155
 42
-0.0089652861668954
 10
923.30611737213997
 20
-1332.0804518176858
 10
923.34246909228648
 20
-1332.0565406042017
 42
-0.0156916245939346
 10
923.5384285894495
 20
-1331.9362781177254
 42
-0.002329901107008
 10
923.73869063339816
 20
-1331.8231001782019
 10
923.75407476580915
 20
-1331.8145001831199
 42
-0.010766934147845
 10
923.9883115909139
 20
-1331.6901000497687
 10
924.0105763919853
 20
-1331.6788832998204
 42
-0.0078058045899749
 10
924.29416650994472
 20
-1331.5415218441788
 10
924.30407359764718
 20
-1331.5369127163135
 42
-0.0181829330469362
 10
924.6143830022595
 20
-1331.4060489752194
 10
924.66843844483174
 20
-1331.3855338552737
 42
-0.0208411536025736
 10
925.01752341227984
 20
-1331.2694433927813
 10
925.03187951240784
 20
-1331.2653249478276
 42
-0.022279981713889
 10
925.3605993063245
 20
-1331.1866833816875
 10
925.36948826956541
 20
-1331.1849713711017
 42
-0.0215509523877046
 10
925.68595923784142
 20
-1331.1380556825682
 10
925.72844119889146
 20
-1331.1336181557772
 42
-0.0182545924873453
 10
925.96254997819551
 20
-1331.1177743303863
 10
926.00195099454572
 20
-1331.1165497853069
 42
-0.0072962856529092
 10
926.15787387423256
 20
-1331.1139804567849
 10
926.18697354479764
 20
-1331.1139256213812
 42
-0.0059227516312301
 10
926.2847230439495
 20
-1331.1148993331715
 10
926.31396526148501
 20
-1331.115537099776
 42
-0.0011833111943547
 10
926.35321654515383
 20
-1331.1164861040852
 10
925.55782994954666
 20
-1333.6552200491842
 42
0.0143932051622683
 10
925.53142856719535
 20
-1333.6450210791386
 10
925.52415659477879
 20
-1333.6424498602814
 42
0.0234388603487501
 10
925.48232572884456
 20
-1333.6298306245656
 10
925.47364406593397
 20
-1333.627649662561
 42
0.0199162742993094
 10
925.41335523185478
 20
-1333.6150329272257
 10
925.39254129404776
 20
-1333.6115357277972
 42
0.0293643550681769
 10
925.2894664352873
 20
-1333.6003856821442
 10
925.26478125456833
 20
-1333.5991740651257
 42
0.0214606686855263
 10
925.11164033861553
 20
-1333.5982355047083
 10
925.10226842779787
 20
-1333.5985804162526
 42
0.0167564054188611
 10
924.93074823669042
 20
-1333.6106574586206
 10
924.92228844393048
 20
-1333.6115387990478
 42
0.0137677553235924
 10
924.73493513066603
 20
-1333.6362881075911
 10
924.72758339115785
 20
-1333.6374660275592
 42
0.0118497261494734
 10
924.52708562705209
 20
-1333.6744833777491
 10
924.52093561980928
 20
-1333.6757702404684
 42
0.010642114387476
 10
924.31005473252446
 20
-1333.7246026160431
 10
924.30514592413522
 20
-1333.7258499587283
 42
0.0099746379708861
 10
924.08668745497539
 20
-1333.7860244870421
 10
924.02513941480242
 20
-1333.8043063656737
 42
0.0191613675857488
 10
923.68915495228566
 20
-1333.9182837459614
 10
923.60109517953936
 20
-1333.9519706562858
 42
0.0205274080147246
 10
923.21578840764073
 20
-1334.1177990641113
 10
923.15813912566023
 20
-1334.145467028683
 42
0.0181256912192269
 10
922.89986218499178
 20
-1334.2811508476614
 10
922.8469068016725
 20
-1334.3114684608793
 42
0.0140709242421627
 10
922.7019518670495
 20
-1334.3999631343104
 10
922.67570299843123
 20
-1334.4170199530256
 42
0.0086667884412557
 10
922.58677683688848
 20
-1334.4770226209089
 42
0.003640819201061
 10
922.49934359886356
 20
-1334.5392034786953
 10
922.46411672438649
 20
-1334.564644424614
 42
0.0052260781284684
 10
922.30788802698169
 20
-1334.6799768112585
 10
922.29168117073573
 20
-1334.6922049218663
 42
0.0050024435887732
 10
922.10567782768851
 20
-1334.8354874901195
 10
922.09035967116176
 20
-1334.8475335125743
 42
0.0136138710288885
 10
921.87991840283269
 20
-1335.022500017491
 10
921.84625052704291
 20
-1335.0520789902018
 42
0.0172815186914376
 10
921.58184698538139
 20
-1335.3010756628241
 10
921.57928463953772
 20
-1335.3036614799723
 42
0.0189403857994063
 10
921.32870284095759
 20
-1335.5764667447779
 10
921.29607134742253
 20
-1335.6148106762739
 42
0.0185044199506342
 10
921.10411490844263
 20
-1335.8580592573967
 42
0.0088565243898951
 10
920.9256548018152
 20
-1336.1115756775455
 10
920.91647682216569
 20
-1336.1251170573069
 42
0.0157195347234652
 10
920.73325621582853
 20
-1336.4146392666275
 10
920.68717327389959
 20
-1336.4927914636451
 42
0.009545187978228
 10
920.52208772376309
 20
-1336.7853861059998
 10
920.51093980483915
 20
-1336.8060567781213
 42
0.0100351706251944
 10
920.3788960556742
 20
-1337.0631123386227
 42
0.0086935915418291
 10
920.25656490388019
 20
-1337.3249454840268
 10
920.25324416246565
 20
-1337.3323878069989
 42
0.0072580174866602
 10
920.13289771052291
 20
-1337.6129797985766
 10
920.1296360772144
 20
-1337.6208998245997
 42
0.006000512261394
 10
920.0104354088727
 20
-1337.9205094952024
 10
920.00722443053007
 20
-1337.9288710231097
 42
0.0049017786984264
 10
919.88832427166869
 20
-1338.2478000037249
 10
919.88515846528219
 20
-1338.2565529409446
 42
0.003941516760848
 10
919.76572218722015
 20
-1338.5950950033737
 10
919.76259108457339
 20
-1338.6041982042339
 42
0.0031035838769905
 10
919.64178629888124
 20
-1338.9626380660045
 10
919.63867625434989
 20
-1338.9720586873821
 42
0.00250707471534
 10
919.51577490304044
 20
-1339.3507059043077
 10
919.47848100660917
 20
-1339.4675975695791
 42
0.0029081910284024
 10
919.28646270879415
 20
-1340.081761227884
 10
919.24565954028128
 20
-1340.2149844701466
 42
0.0009266453730843
 10
918.97724216599499
 20
-1341.097208929976
 10
918.95635469338356
 20
-1341.1663208091154
 42
-0.0005809993667144
 10
918.67901801273479
 20
-1342.0801289159449
 10
918.61273621446253
 20
-1342.2976138481019
 42
-0.0012018708168205
 10
918.46575190503268
 20
-1342.7757765126253
 10
918.41343205347721
 20
-1342.9445356534577
 42
-0.0002691059607424
 10
918.36986257229853
 20
-1343.0848032738331
 10
915.53690667400929
 20
-1352.1739578761326
 10
913.71891778203076
 20
-1352.1739578761326
 10
919.97116719807866
 20
-1331.5302398396029
  0
SPLINE
  5
59
100
AcDbEntity
  8
0
370
              15
390
0
  6
Continuous
 62
               7
100
AcDbSpline
210
0.0
220
0.0
230
1.0
 70
              13
 71
               2
 72
             782
 73
             779
 74
               0
 42
0.000001
 43
0.000001
 40
0.0
 40
0.0
 40
0.0
 40
1.0
 40
1.0
 40
2.0
 40
2.0
 40
3.0
 40
3.0
 40
4.0
 40
4.0
 40
5.0
 40
5.0
 40
6.0
 40
6.0
 40
7.0
 40
7.0
 40
8.0
 40
8.0
 40
9.0
 40
9.0
 40
10.0
 40
10.0
 40
11.0
 40
11.0
 40
12.0
 40
12.0
 40
13.0
 40
13.0
 40
14.0
 40
14.0
 40
15.0
 40
15.0
 40
16.0
 40
16.0
 40
17.0
 40
17.0
 40
18.0
 40
18.0
 40
19.0
 40
19.0
 40
20.0
 40
20.0
 40
21.0
 40
21.0
 40
22.0
 40
22.0
 40
23.0
 40
23.0
 40
24.0
 40
24.0
 40
25.0
 40
25.0
 40
26.0
 40
26.0
 40
27.0
 40
27.0
 40
28.0
 40
28.0
 40
29.0
 40
29.0
 40
30.0
 40
30.0
 40
31.0
 40
31.0
 40
32.0
 40
32.0
 40
33.0
 40
33.0
 40
34.0
 40
34.0
 40
35.0
 40
35.0
 40
36.0
 40
36.0
 40
37.0
 40
37.0
 40
38.0
 40
38.0
 40
39.0
 40
39.0
 40
40.0
 40
40.0
 40
41.0
 40
41.0
 40
42.0
 40
42.0
 40
43.0
 40
43.0
 40
44.0
 40
44.0
 40
45.0
 40
45.0
 40
46.0
 40
46.0
 40
47.0
 40
47.0
 40
48.0
 40
48.0
 40
49.0
 40
49.0
 40
50.0
 40
50.0
 40
51.0
 40
51.0
 40
52.0
 40
52.0
 40
53.0
 40
53.0
 40
54.0
 40
54.0
 40
55.0
 40
55.0
 40
56.0
 40
56.0
 40
57.0
 40
57.0
 40
58.0
 40
58.0
 40
59.0
 40
59.0
 40
60.0
 40
60.0
 40
61.0
 40
61.0
 40
62.0
 40
62.0
 40
63.0
 40
63.0
 40
64.0
 40
64.0
 40
65.0
 40
65.0
 40
66.0
 40
66.0
 40
67.0
 40
67.0
 40
68.0
 40
68.0
 40
69.0
 40
69.0
 40
70.0
 40
70.0
 40
71.0
 40
71.0
 40
72.0
 40
72.0
 40
73.0
 40
73.0
 40
74.0
 40
74.0
 40
75.0
 40
75.0
 40
76.0
 40
76.0
 40
77.0
 40
77.0
 40
78.0
 40
78.0
 40
79.0
 40
79.0
 40
80.0
 40
80.0
 40
81.0
 40
81.0
 40
82.0
 40
82.0
 40
83.0
 40
83.0
 40
84.0
 40
84.0
 40
85.0
 40
85.0
 40
86.0
 40
86.0
 40
87.0
 40
87.0
 40
88.0
 40
88.0
 40
89.0
 40
89.0
 40
90.0
 40
90.0
 40
91.0
 40
91.0
 40
92.0
 40
92.0
 40
93.0
 40
93.0
 40
94.0
 40
94.0
 40
95.0
 40
95.0
 40
96.0
 40
96.0
 40
97.0
 40
97.0
 40
98.0
 40
98.0
 40
99.0
 40
99.0
 40
100.0
 40
100.0
 40
101.0
 40
101.0
 40
102.0
 40
102.0
 40
103.0
 40
103.0
 40
104.0
 40
104.0
 40
105.0
 40
105.0
 40
106.0
 40
106.0
 40
107.0
 40
107.0
 40
108.0
 40
108.0
 40
109.0
 40
109.0
 40
110.0
 40
110.0
 40
111.0
 40
111.0
 40
112.0
 40
112.0
 40
113.0
 40
113.0
 40
114.0
 40
114.0
 40
115.0
 40
115.0
 40
116.0
 40
116.0
 40
117.0
 40
117.0
 40
118.0
 40
118.0
 40
119.0
 40
119.0
 40
120.0
 40
120.0
 40
121.0
 40
121.0
 40
122.0
 40
122.0
 40
123.0
 40
123.0
 40
124.0
 40
124.0
 40
125.0
 40
125.0
 40
126.0
 40
126.0
 40
127.0
 40
127.0
 40
128.0
 40
128.0
 40
129.0
 40
129.0
 40
130.0
 40
130.0
 40
131.0
 40
131.0
 40
132.0
 40
132.0
 40
133.0
 40
133.0
 40
134.0
 40
134.0
 40
135.0
 40
135.0
 40
136.0
 40
136.0
 40
137.0
 40
137.0
 40
138.0
 40
138.0
 40
139.0
 40
139.0
 40
140.0
 40
140.0
 40
141.0
 40
141.0
 40
142.0
 40
142.0
 40
143.0
 40
143.0
 40
144.0
 40
144.0
 40
145.0
 40
145.0
 40
146.0
 40
146.0
 40
147.0
 40
147.0
 40
148.0
 40
148.0
 40
149.0
 40
149.0
 40
150.0
 40
150.0
 40
151.0
 40
151.0
 40
152.0
 40
152.0
 40
153.0
 40
153.0
 40
154.0
 40
154.0
 40
155.0
 40
155.0
 40
156.0
 40
156.0
 40
157.0
 40
157.0
 40
158.0
 40
158.0
 40
159.0
 40
159.0
 40
160.0
 40
160.0
 40
161.0
 40
161.0
 40
162.0
 40
162.0
 40
163.0
 40
163.0
 40
164.0
 40
164.0
 40
165.0
 40
165.0
 40
166.0
 40
166.0
 40
167.0
 40
167.0
 40
168.0
 40
168.0
 40
169.0
 40
169.0
 40
170.0
 40
170.0
 40
171.0
 40
171.0
 40
172.0
 40
172.0
 40
173.0
 40
173.0
 40
174.0
 40
174.0
 40
175.0
 40
175.0
 40
176.0
 40
176.0
 40
177.0
 40
177.0
 40
178.0
 40
178.0
 40
179.0
 40
179.0
 40
180.0
 40
180.0
 40
181.0
 40
181.0
 40
182.0
 40
182.0
 40
183.0
 40
183.0
 40
184.0
 40
184.0
 40
185.0
 40
185.0
 40
186.0
 40
186.0
 40
187.0
 40
187.0
 40
188.0
 40
188.0
 40
189.0
 40
189.0
 40
190.0
 40
190.0
 40
191.0
 40
191.0
 40
192.0
 40
192.0
 40
193.0
 40
193.0
 40
194.0
 40
194.0
 40
195.0
 40
195.0
 40
196.0
 40
196.0
 40
197.0
 40
197.0
 40
198.0
 40
198.0
 40
199.0
 40
199.0
 40
200.0
 40
200.0
 40
201.0
 40
201.0
 40
202.0
 40
202.0
 40
203.0
 40
203.0
 40
204.0
 40
204.0
 40
205.0
 40
205.0
 40
206.0
 40
206.0
 40
207.0
 40
207.0
 40
208.0
 40
208.0
 40
209.0
 40
209.0
 40
210.0
 40
210.0
 40
211.0
 40
211.0
 40
212.0
 40
212.0
 40
213.0
 40
213.0
 40
214.0
 40
214.0
 40
215.0
 40
215.0
 40
216.0
 40
216.0
 40
217.0
 40
217.0
 40
218.0
 40
218.0
 40
219.0
 40
219.0
 40
220.0
 40
220.0
 40
221.0
 40
221.0
 40
222.0
 40
222.0
 40
223.0
 40
223.0
 40
224.0
 40
224.0
 40
225.0
 40
225.0
 40
226.0
 40
226.0
 40
227.0
 40
227.0
 40
228.0
 40
228.0
 40
229.0
 40
229.0
 40
230.0
 40
230.0
 40
231.0
 40
231.0
 40
232.0
 40
232.0
 40
233.0
 40
233.0
 40
234.0
 40
234.0
 40
235.0
 40
235.0
 40
236.0
 40
236.0
 40
237.0
 40
237.0
 40
238.0
 40
238.0
 40
239.0
 40
239.0
 40
240.0
 40
240.0
 40
241.0
 40
241.0
 40
242.0
 40
242.0
 40
243.0
 40
243.0
 40
244.0
 40
244.0
 40
245.0
 40
245.0
 40
246.0
 40
246.0
 40
247.0
 40
247.0
 40
248.0
 40
248.0
 40
249.0
 40
249.0
 40
250.0
 40
250.0
 40
251.0
 40
251.0
 40
252.0
 40
252.0
 40
253.0
 40
253.0
 40
254.0
 40
254.0
 40
255.0
 40
255.0
 40
256.0
 40
256.0
 40
257.0
 40
257.0
 40
258.0
 40
258.0
 40
259.0
 40
259.0
 40
260.0
 40
260.0
 40
261.0
 40
261.0
 40
262.0
 40
262.0
 40
263.0
 40
263.0
 40
264.0
 40
264.0
 40
265.0
 40
265.0
 40
266.0
 40
266.0
 40
267.0
 40
267.0
 40
268.0
 40
268.0
 40
269.0
 40
269.0
 40
270.0
 40
270.0
 40
271.0
 40
271.0
 40
272.0
 40
272.0
 40
273.0
 40
273.0
 40
274.0
 40
274.0
 40
275.0
 40
275.0
 40
276.0
 40
276.0
 40
277.0
 40
277.0
 40
278.0
 40
278.0
 40
279.0
 40
279.0
 40
280.0
 40
280.0
 40
281.0
 40
281.0
 40
282.0
 40
282.0
 40
283.0
 40
283.0
 40
284.0
 40
284.0
 40
285.0
 40
285.0
 40
286.0
 40
286.0
 40
287.0
 40
287.0
 40
288.0
 40
288.0
 40
289.0
 40
289.0
 40
290.0
 40
290.0
 40
291.0
 40
291.0
 40
292.0
 40
292.0
 40
293.0
 40
293.0
 40
294.0
 40
294.0
 40
295.0
 40
295.0
 40
296.0
 40
296.0
 40
297.0
 40
297.0
 40
298.0
 40
298.0
 40
299.0
 40
299.0
 40
300.0
 40
300.0
 40
301.0
 40
301.0
 40
302.0
 40
302.0
 40
303.0
 40
303.0
 40
304.0
 40
304.0
 40
305.0
 40
305.0
 40
306.0
 40
306.0
 40
307.0
 40
307.0
 40
308.0
 40
308.0
 40
309.0
 40
309.0
 40
310.0
 40
310.0
 40
311.0
 40
311.0
 40
312.0
 40
312.0
 40
313.0
 40
313.0
 40
314.0
 40
314.0
 40
315.0
 40
315.0
 40
316.0
 40
316.0
 40
317.0
 40
317.0
 40
318.0
 40
318.0
 40
319.0
 40
319.0
 40
320.0
 40
320.0
 40
321.0
 40
321.0
 40
322.0
 40
322.0
 40
323.0
 40
323.0
 40
324.0
 40
324.0
 40
325.0
 40
325.0
 40
326.0
 40
326.0
 40
327.0
 40
327.0
 40
328.0
 40
328.0
 40
329.0
 40
329.0
 40
330.0
 40
330.0
 40
331.0
 40
331.0
 40
332.0
 40
332.0
 40
333.0
 40
333.0
 40
334.0
 40
334.0
 40
335.0
 40
335.0
 40
336.0
 40
336.0
 40
337.0
 40
337.0
 40
338.0
 40
338.0
 40
339.0
 40
339.0
 40
340.0
 40
340.0
 40
341.0
 40
341.0
 40
342.0
 40
342.0
 40
343.0
 40
343.0
 40
344.0
 40
344.0
 40
345.0
 40
345.0
 40
346.0
 40
346.0
 40
347.0
 40
347.0
 40
348.0
 40
348.0
 40
349.0
 40
349.0
 40
350.0
 40
350.0
 40
351.0
 40
351.0
 40
352.0
 40
352.0
 40
353.0
 40
353.0
 40
354.0
 40
354.0
 40
355.0
 40
355.0
 40
356.0
 40
356.0
 40
357.0
 40
357.0
 40
358.0
 40
358.0
 40
359.0
 40
359.0
 40
360.0
 40
360.0
 40
361.0
 40
361.0
 40
362.0
 40
362.0
 40
363.0
 40
363.0
 40
364.0
 40
364.0
 40
365.0
 40
365.0
 40
366.0
 40
366.0
 40
367.0
 40
367.0
 40
368.0
 40
368.0
 40
369.0
 40
369.0
 40
370.0
 40
370.0
 40
371.0
 40
371.0
 40
372.0
 40
372.0
 40
373.0
 40
373.0
 40
374.0
 40
374.0
 40
375.0
 40
375.0
 40
376.0
 40
376.0
 40
377.0
 40
377.0
 40
378.0
 40
378.0
 40
379.0
 40
379.0
 40
380.0
 40
380.0
 40
381.0
 40
381.0
 40
382.0
 40
382.0
 40
383.0
 40
383.0
 40
384.0
 40
384.0
 40
385.0
 40
385.0
 40
386.0
 40
386.0
 40
387.0
 40
387.0
 40
388.0
 40
388.0
 40
389.0
 40
389.0
 40
389.0
 10
930.29987164881129
 20
-1331.5193134762403
 30
0.0
 41
1.0
 10
931.11829575753177
 20
-1331.5193134762403
 30
0.0
 41
1.0
 10
931.93671986625225
 20
-1331.5193134762403
 30
0.0
 41
1.0
 10
931.52296613073554
 20
-1332.86193974049
 30
0.0
 41
1.0
 10
931.10921239521872
 20
-1334.2045660047397
 30
0.0
 41
1.0
 10
931.12755189037102
 20
-1334.1758652318526
 30
0.0
 41
0.9999957264380115
 10
931.14605888718779
 20
-1334.1472721817238
 30
0.0
 41
1.0
 10
931.17648821133992
 20
-1334.1002593033249
 30
0.0
 41
1.0
 10
931.20691753549204
 20
-1334.0532464249261
 30
0.0
 41
1.0
 10
931.28628318059964
 20
-1333.9306276180207
 30
0.0
 41
0.9995394069080855
 10
931.37294157215149
 20
-1333.8130495562791
 30
0.0
 41
1.0
 10
931.40869843441249
 20
-1333.7645346636839
 30
0.0
 41
1.0
 10
931.44445529667348
 20
-1333.7160197710887
 30
0.0
 41
1.0
 10
931.57818196448875
 20
-1333.5345794959662
 30
0.0
 41
0.9994460617143479
 10
931.72368244577569
 20
-1333.3624370983177
 30
0.0
 41
1.0
 10
931.7280706267502
 20
-1333.3572454179357
 30
0.0
 41
1.0
 10
931.73245880772458
 20
-1333.3520537375539
 30
0.0
 41
1.0
 10
931.86918292706412
 20
-1333.1902947006677
 30
0.0
 41
0.9994359394934401
 10
932.01645715741506
 20
-1333.0380784995036
 30
0.0
 41
1.0
 10
932.01884051136688
 20
-1333.0356151691321
 30
0.0
 41
1.0
 10
932.02122386531869
 20
-1333.0331518387604
 30
0.0
 41
1.0
 10
932.16373138776441
 20
-1332.885862298341
 30
0.0
 41
0.999529368856773
 10
932.31500306874864
 20
-1332.7475890861747
 30
0.0
 41
1.0
 10
932.33429682801261
 20
-1332.7299532005229
 30
0.0
 41
1.0
 10
932.35359058727659
 20
-1332.7123173148711
 30
0.0
 41
1.0
 10
932.46627474973218
 20
-1332.6093158740093
 30
0.0
 41
0.999708761480295
 10
932.58379763868584
 20
-1332.5118715932126
 30
0.0
 41
1.0
 10
932.60296371186837
 20
-1332.4959800146989
 30
0.0
 41
1.0
 10
932.62212978505079
 20
-1332.4800884361853
 30
0.0
 41
1.0
 10
932.70132052765098
 20
-1332.4144273124066
 30
0.0
 41
0.9999595338700135
 10
932.78167979849604
 20
-1332.3502015817598
 30
0.0
 41
1.0
 10
932.86203906936078
 20
-1332.2859758510976
 30
0.0
 41
0.9999749417497325
 10
932.94329960370794
 20
-1332.2228942971483
 30
0.0
 41
1.0
 10
932.96428574987453
 20
-1332.2066030098435
 30
0.0
 41
1.0
 10
932.98527189604101
 20
-1332.1903117225386
 30
0.0
 41
1.0
 10
933.06983978133303
 20
-1332.1246627127055
 30
0.0
 41
0.9999792037124936
 10
933.15524738109707
 20
-1332.0601099310659
 30
0.0
 41
1.0
 10
933.17607220694708
 20
-1332.0443701088548
 30
0.0
 41
1.0
 10
933.19689703279698
 20
-1332.0286302866434
 30
0.0
 41
1.0
 10
933.24065498078096
 20
-1331.9955571494866
 30
0.0
 41
0.9999993374092212
 10
933.28433666700971
 20
-1331.9623833539981
 30
0.0
 41
1.0
 10
933.32801835315377
 20
-1331.9292095585736
 30
0.0
 41
0.9999160953816474
 10
933.37254476407429
 20
-1331.8971784933744
 30
0.0
 41
1.0
 10
933.40536665149284
 20
-1331.8735673377903
 30
0.0
 41
1.0
 10
933.4381885389115
 20
-1331.8499561822061
 30
0.0
 41
1.0
 10
933.54835872466901
 20
-1331.7707028058389
 30
0.0
 41
0.9980964527231609
 10
933.66744771816752
 20
-1331.7056153329841
 30
0.0
 41
1.0
 10
933.70448032509694
 20
-1331.6853753533901
 30
0.0
 41
1.0
 10
933.74151293202624
 20
-1331.6651353737964
 30
0.0
 41
1.0
 10
933.92083994529992
 20
-1331.5671251230947
 30
0.0
 41
0.998457281057227
 10
934.10992851165884
 20
-1331.4896028617484
 30
0.0
 41
1.0
 10
934.1135747810539
 20
-1331.4881079694107
 30
0.0
 41
1.0
 10
934.11722105044896
 20
-1331.4866130770731
 30
0.0
 41
1.0
 10
934.29901707801707
 20
-1331.4120806004023
 30
0.0
 41
0.998783852803421
 10
934.48726973657699
 20
-1331.3558149602363
 30
0.0
 41
1.0
 10
934.49150768577351
 20
-1331.3545483065468
 30
0.0
 41
1.0
 10
934.49574563497004
 20
-1331.3532816528573
 30
0.0
 41
1.0
 10
934.67552239513407
 20
-1331.299549320071
 30
0.0
 41
0.9990652816207445
 10
934.85926832685209
 20
-1331.2615456405283
 30
0.0
 41
1.0
 10
934.86445672788386
 20
-1331.2604725374217
 30
0.0
 41
1.0
 10
934.86964512891552
 20
-1331.2593994343151
 30
0.0
 41
1.0
 10
935.04301425856818
 20
-1331.223541960986
 30
0.0
 41
0.9992909934269767
 10
935.21859002502629
 20
-1331.2008315285198
 30
0.0
 41
1.0
 10
935.39416579148542
 20
-1331.1781210960535
 30
0.0
 41
0.9994553539449393
 10
935.57085722457964
 20
-1331.1670417918469
 30
0.0
 41
1.0
 10
935.60629163237377
 20
-1331.1648199037991
 30
0.0
 41
1.0
 10
935.64172604016801
 20
-1331.1625980157514
 30
0.0
 41
1.0
 10
935.80795180673783
 20
-1331.1521749533395
 30
0.0
 41
0.9990928098292499
 10
935.97446159864103
 20
-1331.1559345945741
 30
0.0
 41
1.0
 10
936.01302343391262
 20
-1331.1568052861071
 30
0.0
 41
1.0
 10
936.05158526918422
 20
-1331.1576759776401
 30
0.0
 41
1.0
 10
936.14097139054343
 20
-1331.1596942358087
 30
0.0
 41
0.9998382089204567
 10
936.23022707332984
 20
-1331.1649263623369
 30
0.0
 41
1.0
 10
936.23065697954735
 20
-1331.1649515632389
 30
0.0
 41
1.0
 10
936.23108688576485
 20
-1331.1649767641411
 30
0.0
 41
1.0
 10
936.31948275611376
 20
-1331.1701584888649
 30
0.0
 41
0.9997558016758416
 10
936.40756333331683
 20
-1331.1792410042315
 30
0.0
 41
1.0
 10
936.40803947174948
 20
-1331.1792901017143
 30
0.0
 41
1.0
 10
936.40851561018212
 20
-1331.1793391991973
 30
0.0
 41
1.0
 10
936.4956439105207
 20
-1331.1883235195983
 30
0.0
 41
0.9996565144182174
 10
936.58218176385981
 20
-1331.2018608262867
 30
0.0
 41
1.0
 10
936.58264768923925
 20
-1331.2019337120184
 30
0.0
 41
1.0
 10
936.5831136146187
 20
-1331.2020065977501
 30
0.0
 41
1.0
 10
936.66871961720346
 20
-1331.2153981329759
 30
0.0
 41
0.9995321806866752
 10
936.75334669752976
 20
-1331.2339986214051
 30
0.0
 41
1.0
 10
936.75373589210085
 20
-1331.2340841638709
 30
0.0
 41
1.0
 10
936.75412508667205
 20
-1331.2341697063366
 30
0.0
 41
1.0
 10
936.83797377785697
 20
-1331.2525991098344
 30
0.0
 41
0.9993819199220022
 10
936.92032031205395
 20
-1331.2768744930952
 30
0.0
 41
1.0
 10
936.92055874555172
 20
-1331.2769447822045
 30
0.0
 41
1.0
 10
936.92079717904949
 20
-1331.2770150713138
 30
0.0
 41
1.0
 10
937.00266684625024
 20
-1331.3011498763558
 30
0.0
 41
0.9992088568505112
 10
937.0823593652384
 20
-1331.3317151121503
 30
0.0
 41
1.0
 10
937.16204035611747
 20
-1331.3622747128836
 30
0.0
 41
0.9990226101773911
 10
937.23871102602459
 20
-1331.3997521444981
 30
0.0
 41
1.0
 10
937.31537016782215
 20
-1331.4372239410509
 30
0.0
 41
0.9988424273972117
 10
937.38807379503419
 20
-1331.4818887163037
 30
0.0
 41
1.0
 10
937.38834150341393
 20
-1331.4820531803762
 30
0.0
 41
1.0
 10
937.38860921179366
 20
-1331.4822176444486
 30
0.0
 41
1.0
 10
937.46184825576483
 20
-1331.5272113478461
 30
0.0
 41
0.9986928844490697
 10
937.53011112247441
 20
-1331.5794470821256
 30
0.0
 41
1.0
 10
937.53069241469711
 20
-1331.5798918953535
 30
0.0
 41
1.0
 10
937.53127370691982
 20
-1331.5803367085814
 30
0.0
 41
1.0
 10
937.60069915807503
 20
-1331.6334620693169
 30
0.0
 41
0.998600726227902
 10
937.66412532784193
 20
-1331.6936228390105
 30
0.0
 41
1.0
 10
937.66501974329913
 20
-1331.6944712068455
 30
0.0
 41
1.0
 10
937.66591415875632
 20
-1331.6953195746805
 30
0.0
 41
1.0
 10
937.73112915943818
 20
-1331.7571770800448
 30
0.0
 41
0.9985581491381195
 10
937.78933677113935
 20
-1331.825669570316
 30
0.0
 41
1.0
 10
937.79859522473498
 20
-1331.8365639280178
 30
0.0
 41
1.0
 10
937.80785367833073
 20
-1331.8474582857193
 30
0.0
 41
1.0
 10
937.8845781972235
 20
-1331.9377394913938
 30
0.0
 41
0.9970460233520153
 10
937.94657009838295
 20
-1332.0387065755756
 30
0.0
 41
1.0
 10
937.96103946346307
 20
-1332.0622730346577
 30
0.0
 41
1.0
 10
937.9755088285433
 20
-1332.08583949374
 30
0.0
 41
1.0
 10
938.01524552855506
 20
-1332.1505592177712
 30
0.0
 41
0.9988468816637008
 10
938.0485918993063
 20
-1332.2187916701982
 30
0.0
 41
1.0
 10
938.05562792179944
 20
-1332.2331885913391
 30
0.0
 41
1.0
 10
938.06266394429247
 20
-1332.2475855124799
 30
0.0
 41
1.0
 10
938.081938270058
 20
-1332.2870241226262
 30
0.0
 41
0.999843118999852
 10
938.09980359755286
 20
-1332.3271206770664
 30
0.0
 41
1.0
 10
938.11766892507671
 20
-1332.3672172315714
 30
0.0
 41
0.9999989990011805
 10
938.13564764850173
 20
-1332.4072630691619
 30
0.0
 41
1.0
 10
938.14181996008006
 20
-1332.4210112859391
 30
0.0
 41
1.0
 10
938.14799227165827
 20
-1332.4347595027161
 30
0.0
 41
1.0
 10
938.17831561826858
 20
-1332.5023017739247
 30
0.0
 41
0.9998790356321278
 10
938.20652349840657
 20
-1332.5707545258624
 30
0.0
 41
1.0
 10
938.21335867969105
 20
-1332.5873416272902
 30
0.0
 41
1.0
 10
938.22019386097566
 20
-1332.6039287287183
 30
0.0
 41
1.0
 10
938.2437515233546
 20
-1332.6610966836006
 30
0.0
 41
0.9998227574561576
 10
938.26514027174494
 20
-1332.7191109918801
 30
0.0
 41
1.0
 10
938.28652902013425
 20
-1332.7771253001576
 30
0.0
 41
0.9996797971041902
 10
938.30495530509347
 20
-1332.8361474192757
 30
0.0
 41
1.0
 10
938.30885910781899
 20
-1332.8486518774446
 30
0.0
 41
1.0
 10
938.31276291054451
 20
-1332.8611563356135
 30
0.0
 41
1.0
 10
938.33899680095487
 20
-1332.9451873710696
 30
0.0
 41
0.9979274938734355
 10
938.35422132443409
 20
-1333.03189172973
 30
0.0
 41
1.0
 10
938.35644501169486
 20
-1333.0445557305493
 30
0.0
 41
1.0
 10
938.35866869895574
 20
-1333.0572197313684
 30
0.0
 41
1.0
 10
938.36959863865468
 20
-1333.1194662386622
 30
0.0
 41
0.9994985982137418
 10
938.37656680383157
 20
-1333.1822797398045
 30
0.0
 41
1.0
 10
938.38353496900834
 20
-1333.2450932409417
 30
0.0
 41
0.9996372611201243
 10
938.38711083477608
 20
-1333.3081908196241
 30
0.0
 41
1.0
 10
938.38727941226557
 20
-1333.3111654367085
 30
0.0
 41
1.0
 10
938.38744798975495
 20
-1333.3141400537929
 30
0.0
 41
1.0
 10
938.39136101050144
 20
-1333.3831868666384
 30
0.0
 41
0.9997730630736228
 10
938.39232932398932
 20
-1333.4523376906716
 30
0.0
 41
1.0
 10
938.39238643040744
 20
-1333.4564158698145
 30
0.0
 41
1.0
 10
938.39244353682557
 20
-1333.4604940489571
 30
0.0
 41
1.0
 10
938.39352606314992
 20
-1333.5378012312724
 30
0.0
 41
0.9998772614070446
 10
938.3921859764182
 20
-1333.6151043778336
 30
0.0
 41
1.0
 10
938.39209671321942
 20
-1333.6202535416714
 30
0.0
 41
1.0
 10
938.39200745002063
 20
-1333.6254027055093
 30
0.0
 41
1.0
 10
938.39048883689168
 20
-1333.7130041797375
 30
0.0
 41
0.9999415567321696
 10
938.3870765266455
 20
-1333.8005523414167
 30
0.0
 41
1.0
 10
938.3868352059701
 20
-1333.8067438011549
 30
0.0
 41
1.0
 10
938.38659388529481
 20
-1333.812935260893
 30
0.0
 41
1.0
 10
938.38269893369886
 20
-1333.912866342034
 30
0.0
 41
0.9999716810429059
 10
938.37730035057996
 20
-1334.0127274802674
 30
0.0
 41
1.0
 10
938.37408755179115
 20
-1334.0721567299254
 30
0.0
 41
1.0
 10
938.37087475300234
 20
-1334.1315859795834
 30
0.0
 41
1.0
 10
938.36280084384907
 20
-1334.2809343808749
 30
0.0
 41
0.999981912991207
 10
938.35293105223286
 20
-1334.430174858579
 30
0.0
 41
1.0
 10
938.34306126061631
 20
-1334.5794153362904
 30
0.0
 41
1.0
 10
938.34062194005242
 20
-1334.6166083821395
 30
0.0
 41
1.0
 10
938.3633201739176
 20
-1334.5778673847526
 30
0.0
 41
0.9999982128058216
 10
938.38616473271577
 20
-1334.5392124907216
 30
0.0
 41
1.0
 10
938.41307429256221
 20
-1334.4936792767317
 30
0.0
 41
1.0
 10
938.43998385240855
 20
-1334.4481460627417
 30
0.0
 41
1.0
 10
938.51664753093155
 20
-1334.3184247406764
 30
0.0
 41
0.9998609190058746
 10
938.59759484379163
 20
-1334.1913323587496
 30
0.0
 41
1.0
 10
938.6272431652767
 20
-1334.1447826257872
 30
0.0
 41
1.0
 10
938.65689148676188
 20
-1334.0982328928246
 30
0.0
 41
1.0
 10
938.7391637069984
 20
-1333.9690603228305
 30
0.0
 41
0.99990676097348
 10
938.82493271646081
 20
-1333.8421826333915
 30
0.0
 41
1.0
 10
938.82733741965831
 20
-1333.8386253673418
 30
0.0
 41
1.0
 10
938.82974212285569
 20
-1333.8350681012921
 30
0.0
 41
1.0
 10
938.91070172592049
 20
-1333.7153049439562
 30
0.0
 41
0.9998784952149136
 10
938.99535533560618
 20
-1333.5981237272415
 30
0.0
 41
1.0
 10
939.08000894528891
 20
-1333.4809425105311
 30
0.0
 41
0.9998532968281754
 10
939.16862656611272
 20
-1333.3667296020592
 30
0.0
 41
1.0
 10
939.18858835510309
 20
-1333.3410022810399
 30
0.0
 41
1.0
 10
939.20855014409358
 20
-1333.3152749600206
 30
0.0
 41
1.0
 10
939.32703419385189
 20
-1333.162569349053
 30
0.0
 41
0.9991551975795396
 10
939.45765864347482
 20
-1333.0201097869701
 30
0.0
 41
1.0
 10
939.46116825945319
 20
-1333.0162821853473
 30
0.0
 41
1.0
 10
939.46467787543156
 20
-1333.0124545837245
 30
0.0
 41
1.0
 10
939.58828309309649
 20
-1332.8776502248884
 30
0.0
 41
0.9997418144181018
 10
939.71788523279884
 20
-1332.7486008142741
 30
0.0
 41
1.0
 10
939.84748737249879
 20
-1332.6195514036622
 30
0.0
 41
0.9989238204633436
 10
939.98848992074886
 20
-1332.503066441624
 30
0.0
 41
1.0
 10
940.03373759889155
 20
-1332.4656864500125
 30
0.0
 41
1.0
 10
940.07898527703435
 20
-1332.4283064584013
 30
0.0
 41
1.0
 10
940.21922533425413
 20
-1332.3124514051119
 30
0.0
 41
0.9990825084096954
 10
940.36886526685498
 20
-1332.2090224072813
 30
0.0
 41
1.0
 10
940.37891063090854
 20
-1332.2020791942041
 30
0.0
 41
1.0
 10
940.38895599496209
 20
-1332.1951359811269
 30
0.0
 41
1.0
 10
940.51850519945401
 20
-1332.1055934094516
 30
0.0
 41
0.9998164899825488
 10
940.65138940283521
 20
-1332.0210791679319
 30
0.0
 41
1.0
 10
940.66323496335917
 20
-1332.0135454014076
 30
0.0
 41
1.0
 10
940.67508052388314
 20
-1332.0060116348832
 30
0.0
 41
1.0
 10
940.78427360621083
 20
-1331.9365649264157
 30
0.0
 41
0.9997473449130689
 10
940.89647756346085
 20
-1331.8720959685998
 30
0.0
 41
1.0
 10
941.00868152070495
 20
-1331.807627010787
 30
0.0
 41
0.999932786114679
 10
941.12235013146881
 20
-1331.7457770191054
 30
0.0
 41
1.0
 10
941.12290213403207
 20
-1331.7454766604249
 30
0.0
 41
1.0
 10
941.12345413659523
 20
-1331.7451763017443
 30
0.0
 41
1.0
 10
941.23822675248164
 20
-1331.6827255927039
 30
0.0
 41
0.9996956420484265
 10
941.35594007832333
 20
-1331.6260121257285
 30
0.0
 41
1.0
 10
941.38638048321343
 20
-1331.6113461489999
 30
0.0
 41
1.0
 10
941.41682088810353
 20
-1331.5966801722711
 30
0.0
 41
1.0
 10
941.51979799484729
 20
-1331.5470665138275
 30
0.0
 41
0.9998070570175864
 10
941.6246443837905
 20
-1331.5015359269255
 30
0.0
 41
1.0
 10
941.72949077273188
 20
-1331.4560053400241
 30
0.0
 41
0.999782743614707
 10
941.83614370934231
 20
-1331.4148841687124
 30
0.0
 41
1.0
 10
941.85536655897317
 20
-1331.4074725950802
 30
0.0
 41
1.0
 10
941.87458940860415
 20
-1331.400061021448
 30
0.0
 41
1.0
 10
942.01968804447586
 20
-1331.3441167028718
 30
0.0
 41
0.9988031841976732
 10
942.16955840707885
 20
-1331.3026166387044
 30
0.0
 41
1.0
 10
942.19447565544442
 20
-1331.295716892897
 30
0.0
 41
1.0
 10
942.2193929038101
 20
-1331.2888171470893
 30
0.0
 41
1.0
 10
942.38666292945641
 20
-1331.2424990046827
 30
0.0
 41
0.9984748040550027
 10
942.55801983810409
 20
-1331.2149047724181
 30
0.0
 41
1.0
 10
942.56275897435319
 20
-1331.2141416119048
 30
0.0
 41
1.0
 10
942.56749811060229
 20
-1331.2133784513912
 30
0.0
 41
1.0
 10
942.72937674675313
 20
-1331.1873105401532
 30
0.0
 41
0.9984436495479933
 10
942.89315149047775
 20
-1331.1794325863345
 30
0.0
 41
1.0
 10
942.91484869860903
 20
-1331.1783888991349
 30
0.0
 41
1.0
 10
942.93654590674032
 20
-1331.1773452119353
 30
0.0
 41
1.0
 10
943.05692623420248
 20
-1331.1715546325158
 30
0.0
 41
0.9987954789335164
 10
943.17729447911233
 20
-1331.1775911602581
 30
0.0
 41
1.0
 10
943.19725927160812
 20
-1331.1785924045967
 30
0.0
 41
1.0
 10
943.21722406410402
 20
-1331.1795936489355
 30
0.0
 41
1.0
 10
943.29766272402367
 20
-1331.1836276880006
 30
0.0
 41
0.9997941595877944
 10
943.37787150211659
 20
-1331.1909217539214
 30
0.0
 41
1.0
 10
943.45808028021474
 20
-1331.198215819843
 30
0.0
 41
0.9998589466237378
 10
943.53799882707324
 20
-1331.2081996742936
 30
0.0
 41
1.0
 10
943.57040502887787
 20
-1331.2122480312123
 30
0.0
 41
1.0
 10
943.60281123068251
 20
-1331.216296388131
 30
0.0
 41
1.0
 10
943.74754218115311
 20
-1331.2343769564193
 30
0.0
 41
0.9993495063249657
 10
943.89059342491794
 20
-1331.2628426661609
 30
0.0
 41
1.0
 10
943.92352712206821
 20
-1331.2693961293753
 30
0.0
 41
1.0
 10
943.95646081921859
 20
-1331.2759495925895
 30
0.0
 41
1.0
 10
944.06575464242633
 20
-1331.2976979267255
 30
0.0
 41
0.9996788715561102
 10
944.17380621438463
 20
-1331.3249557260892
 30
0.0
 41
1.0
 10
944.17586921692509
 20
-1331.3254761526625
 30
0.0
 41
1.0
 10
944.17793221946545
 20
-1331.3259965792358
 30
0.0
 41
1.0
 10
944.28185778634236
 20
-1331.352213525453
 30
0.0
 41
0.9995480654492928
 10
944.38402002157045
 20
-1331.3846284820768
 30
0.0
 41
1.0
 10
944.38570966369957
 20
-1331.3851645869909
 30
0.0
 41
1.0
 10
944.38739930582869
 20
-1331.3857006919047
 30
0.0
 41
1.0
 10
944.48618225680059
 20
-1331.4170434387013
 30
0.0
 41
0.9993867959456221
 10
944.58252941524245
 20
-1331.4552228079908
 30
0.0
 41
1.0
 10
944.58377236432659
 20
-1331.4557153498868
 30
0.0
 41
1.0
 10
944.58501531341074
 20
-1331.4562078917827
 30
0.0
 41
1.0
 10
944.67887657368453
 20
-1331.4934021772804
 30
0.0
 41
0.9992050256521701
 10
944.76947624871832
 20
-1331.5379560765193
 30
0.0
 41
1.0
 10
944.77021093143162
 20
-1331.5383173689806
 30
0.0
 41
1.0
 10
944.77094561414503
 20
-1331.538678661442
 30
0.0
 41
1.0
 10
944.8600759237529
 20
-1331.582509975759
 30
0.0
 41
0.9990222350742198
 10
944.94498598514542
 20
-1331.6340432434565
 30
0.0
 41
1.0
 10
944.94516987042789
 20
-1331.6341548463611
 30
0.0
 41
1.0
 10
944.94535375571047
 20
-1331.6342664492659
 30
0.0
 41
1.0
 10
945.02989604653942
 20
-1331.6855765111552
 30
0.0
 41
0.998864274380613
 10
945.10917058115797
 20
-1331.7447006986799
 30
0.0
 41
1.0
 10
945.18844511577663
 20
-1331.8038248862047
 30
0.0
 41
0.9987681233309949
 10
945.26146890005396
 20
-1331.8705155776065
 30
0.0
 41
1.0
 10
945.26179782801933
 20
-1331.8708159788202
 30
0.0
 41
1.0
 10
945.26212675598481
 20
-1331.8711163800342
 30
0.0
 41
1.0
 10
945.33580839619219
 20
-1331.9384078738631
 30
0.0
 41
0.9987496570898798
 10
945.40240220151941
 20
-1332.0127206879499
 30
0.0
 41
1.0
 10
945.40317437127999
 20
-1332.013582361308
 30
0.0
 41
1.0
 10
945.40394654104057
 20
-1332.014444034666
 30
0.0
 41
1.0
 10
945.47208468588769
 20
-1332.0904801954671
 30
0.0
 41
0.9988147669826568
 10
945.53250694011274
 20
-1332.1727812023096
 30
0.0
 41
1.0
 10
945.53362626619094
 20
-1332.1743058336629
 30
0.0
 41
1.0
 10
945.53474559226913
 20
-1332.1758304650159
 30
0.0
 41
1.0
 10
945.59740649864955
 20
-1332.2611807345634
 30
0.0
 41
0.9989452636216355
 10
945.65197341161104
 20
-1332.3519194237213
 30
0.0
 41
1.0
 10
945.6533221376967
 20
-1332.3541622047474
 30
0.0
 41
1.0
 10
945.65467086378226
 20
-1332.3564049857735
 30
0.0
 41
1.0
 10
945.71193522891497
 20
-1332.4516292369838
 30
0.0
 41
0.999104643607108
 10
945.76094444223668
 20
-1332.5513536700091
 30
0.0
 41
1.0
 10
945.76240830382665
 20
-1332.5543323500815
 30
0.0
 41
1.0
 10
945.76387216541661
 20
-1332.5573110301541
 30
0.0
 41
1.0
 10
945.81580910191872
 20
-1332.6629928233256
 30
0.0
 41
0.999276383110127
 10
945.85956223047424
 20
-1332.7723168852824
 30
0.0
 41
1.0
 10
945.86104150013716
 20
-1332.7760130728152
 30
0.0
 41
1.0
 10
945.86252076980008
 20
-1332.7797092603478
 30
0.0
 41
1.0
 10
945.90923243768202
 20
-1332.8964256973713
 30
0.0
 41
0.9994163472883417
 10
945.94786546887065
 20
-1333.0160592858322
 30
0.0
 41
1.0
 10
945.94910362111762
 20
-1333.0198934296156
 30
0.0
 41
1.0
 10
945.95034177336458
 20
-1333.0237275733991
 30
0.0
 41
1.0
 10
945.99022533438279
 20
-1333.1472336348804
 30
0.0
 41
0.9997268055890305
 10
946.02429339029436
 20
-1333.2724686668296
 30
0.0
 41
1.0
 10
946.02522357056341
 20
-1333.2758880329361
 30
0.0
 41
1.0
 10
946.02615375083235
 20
-1333.2793073990429
 30
0.0
 41
1.0
 10
946.05836144620537
 20
-1333.3977036987758
 30
0.0
 41
0.9996701319000043
 10
946.08444706297678
 20
-1333.5175976520438
 30
0.0
 41
1.0
 10
946.11053267974762
 20
-1333.6374916053092
 30
0.0
 41
0.9995785451109317
 10
946.12961625708715
 20
-1333.7586973663394
 30
0.0
 41
1.0
 10
946.13383603926059
 20
-1333.7854985211025
 30
0.0
 41
1.0
 10
946.13805582143402
 20
-1333.8122996758657
 30
0.0
 41
1.0
 10
946.16463079737298
 20
-1333.9810856495706
 30
0.0
 41
0.9979925101216784
 10
946.16965638329941
 20
-1334.1518769776635
 30
0.0
 41
1.0
 10
946.17048119572405
 20
-1334.179907701141
 30
0.0
 41
1.0
 10
946.17130600814858
 20
-1334.2079384246183
 30
0.0
 41
1.0
 10
946.17468196922584
 20
-1334.3226683057492
 30
0.0
 41
0.999531490226334
 10
946.17103177708725
 20
-1334.4373897895073
 30
0.0
 41
1.0
 10
946.16738158494888
 20
-1334.5521112732586
 30
0.0
 41
0.999624548694436
 10
946.15745248981796
 20
-1334.6664605443827
 30
0.0
 41
1.0
 10
946.15728944182365
 20
-1334.6683383005181
 30
0.0
 41
1.0
 10
946.15712639382946
 20
-1334.6702160566535
 30
0.0
 41
1.0
 10
946.14687120271014
 20
-1334.7883208400476
 30
0.0
 41
0.9997286095000849
 10
946.13112587913827
 20
-1334.9058197489453
 30
0.0
 41
1.0
 10
946.13073238648803
 20
-1334.908756173646
 30
0.0
 41
1.0
 10
946.13033889383792
 20
-1334.9116925983465
 30
0.0
 41
1.0
 10
946.11380658496569
 20
-1335.0350643566464
 30
0.0
 41
0.9998265533969455
 10
946.09269112623269
 20
-1335.1577348314358
 30
0.0
 41
1.0
 10
946.09201458409575
 20
-1335.1616652099419
 30
0.0
 41
1.0
 10
946.09133804195881
 20
-1335.1655955884482
 30
0.0
 41
1.0
 10
946.06886949895102
 20
-1335.2961268202562
 30
0.0
 41
0.9999022530851781
 10
946.04276003434052
 20
-1335.4259787888973
 30
0.0
 41
1.0
 10
946.04178139317582
 20
-1335.4308459312811
 30
0.0
 41
1.0
 10
946.04080275201125
 20
-1335.4357130736648
 30
0.0
 41
1.0
 10
946.01273600507011
 20
-1335.5752993270794
 30
0.0
 41
0.9999524761933322
 10
945.98195303623527
 20
-1335.714311820245
 30
0.0
 41
1.0
 10
945.98067692906011
 20
-1335.7200745795462
 30
0.0
 41
1.0
 10
945.97940082188484
 20
-1335.7258373388474
 30
0.0
 41
1.0
 10
945.9460656387007
 20
-1335.87637535061
 30
0.0
 41
0.9999813588734339
 10
945.91089463790604
 20
-1336.0264950632611
 30
0.0
 41
1.0
 10
945.90934071244817
 20
-1336.033127653689
 30
0.0
 41
1.0
 10
945.9077867869903
 20
-1336.0397602441171
 30
0.0
 41
1.0
 10
945.86950793528536
 20
-1336.2031451376006
 30
0.0
 41
0.9999955237628675
 10
945.83025205729962
 20
-1336.3662980412296
 30
0.0
 41
1.0
 10
945.8179704216659
 20
-1336.4173422317499
 30
0.0
 41
1.0
 10
945.80568878603208
 20
-1336.4683864222704
 30
0.0
 41
1.0
 10
945.74186963675652
 20
-1336.7336277070312
 30
0.0
 41
0.999999360428612
 10
945.67745068958686
 20
-1336.9987239577222
 30
0.0
 41
1.0
 10
945.67273185405384
 20
-1337.0181428657049
 30
0.0
 41
1.0
 10
945.66801301852081
 20
-1337.0375617736877
 30
0.0
 41
1.0
 10
945.5941564002577
 20
-1337.3414958404569
 30
0.0
 41
0.9999659914736995
 10
945.51529680437352
 20
-1337.6441703870119
 30
0.0
 41
1.0
 10
945.51034411544367
 20
-1337.6631795241913
 30
0.0
 41
1.0
 10
945.50539142651382
 20
-1337.6821886613707
 30
0.0
 41
1.0
 10
945.41662645276892
 20
-1338.0228814822883
 30
0.0
 41
0.9999441976026204
 10
945.32068341980801
 20
-1338.3616229075781
 30
0.0
 41
1.0
 10
945.303982901381
 20
-1338.4205866201112
 30
0.0
 41
1.0
 10
945.28728238295389
 20
-1338.4795503326443
 30
0.0
 41
1.0
 10
945.15793831314068
 20
-1338.9362191829941
 30
0.0
 41
0.9999625120730799
 10
945.0207055458186
 20
-1339.3905797169855
 30
0.0
 41
1.0
 10
944.98491560273385
 20
-1339.5090757436183
 30
0.0
 41
1.0
 10
944.9491256596491
 20
-1339.6275717702513
 30
0.0
 41
1.0
 10
944.87460545560907
 20
-1339.8742988483505
 30
0.0
 41
0.9999793386305091
 10
944.79691943247121
 20
-1340.120047487587
 30
0.0
 41
1.0
 10
944.7192334093337
 20
-1340.3657961268232
 30
0.0
 41
1.0
 10
944.708453850463
 20
-1340.3998140311978
 30
0.0
 41
1.0
 10
942.85808079719391
 20
-1346.2868859536652
 30
0.0
 41
1.0
 10
941.0077077439247
 20
-1352.1739578761326
 30
0.0
 41
1.0
 10
940.04645105390114
 20
-1352.1739578761326
 30
0.0
 41
1.0
 10
939.08519436387758
 20
-1352.1739578761326
 30
0.0
 41
1.0
 10
940.70413914255596
 20
-1347.0259293743434
 30
0.0
 41
1.0
 10
942.32308392123446
 20
-1341.8779008725542
 30
0.0
 41
1.0
 10
942.36824974440833
 20
-1341.7338696502857
 30
0.0
 41
1.0
 10
942.41341556758221
 20
-1341.5898384280169
 30
0.0
 41
1.0
 10
942.5837199849459
 20
-1341.046747398851
 30
0.0
 41
0.9999911657917133
 10
942.74945279662597
 20
-1340.502243867488
 30
0.0
 41
1.0
 10
942.77914874012708
 20
-1340.4046799274354
 30
0.0
 41
1.0
 10
942.80884468362819
 20
-1340.3071159873828
 30
0.0
 41
1.0
 10
942.91518560830661
 20
-1339.9577403361232
 30
0.0
 41
0.9999952428160223
 10
943.01936919763125
 20
-1339.6077153117749
 30
0.0
 41
1.0
 10
943.02442866796969
 20
-1339.5907170374799
 30
0.0
 41
1.0
 10
943.02948813830801
 20
-1339.5737187631848
 30
0.0
 41
1.0
 10
943.12355278696805
 20
-1339.2576902873857
 30
0.0
 41
0.9999931687501528
 10
943.21527862482981
 20
-1338.9409750741547
 30
0.0
 41
1.0
 10
943.22021388928954
 20
-1338.9239343648828
 30
0.0
 41
1.0
 10
943.22514915374927
 20
-1338.9068936556112
 30
0.0
 41
1.0
 10
943.30700446270703
 20
-1338.624259860871
 30
0.0
 41
0.9999893840802843
 10
943.3862516891603
 20
-1338.3408837316374
 30
0.0
 41
1.0
 10
943.46549891561517
 20
-1338.0575076023981
 30
0.0
 41
0.9999833980091085
 10
943.54147515635339
 20
-1337.7732370193833
 30
0.0
 41
1.0
 10
943.55047909307996
 20
-1337.7395481408889
 30
0.0
 41
1.0
 10
943.55948302980642
 20
-1337.7058592623946
 30
0.0
 41
1.0
 10
943.62844757867265
 20
-1337.4478234300982
 30
0.0
 41
0.9999233658068563
 10
943.69100254989064
 20
-1337.1881592713844
 30
0.0
 41
1.0
 10
943.75355752111091
 20
-1336.9284951126619
 30
0.0
 41
1.0
 10
943.79304093996848
 20
-1336.764688448236
 30
0.0
 41
1.0
 10
943.79801954394088
 20
-1336.7440334863863
 30
0.0
 41
1.0
 10
943.80299814791317
 20
-1336.7233785245364
 30
0.0
 41
1.0
 10
943.83252435882162
 20
-1336.6008817838281
 30
0.0
 41
0.9999868670876481
 10
943.86079344282223
 20
-1336.4780888381647
 30
0.0
 41
1.0
 10
943.86469092998141
 20
-1336.4611592507413
 30
0.0
 41
1.0
 10
943.86858841714059
 20
-1336.4442296633179
 30
0.0
 41
1.0
 10
943.88906252682102
 20
-1336.3552958925075
 30
0.0
 41
0.9999778173351187
 10
943.9083501249338
 20
-1336.2660972752888
 30
0.0
 41
1.0
 10
943.92763772304568
 20
-1336.1768986580755
 30
0.0
 41
0.9999602692861467
 10
943.94533208167684
 20
-1336.0873703696484
 30
0.0
 41
1.0
 10
943.94853591375613
 20
-1336.0711599147544
 30
0.0
 41
1.0
 10
943.95173974583531
 20
-1336.0549494598604
 30
0.0
 41
1.0
 10
943.97584176862131
 20
-1335.9330002616621
 30
0.0
 41
0.9995617985320676
 10
943.99268511583944
 20
-1335.8098385139604
 30
0.0
 41
1.0
 10
943.99514960574584
 20
-1335.7918176965939
 30
0.0
 41
1.0
 10
943.99761409565224
 20
-1335.7737968792273
 30
0.0
 41
1.0
 10
944.01789735670093
 20
-1335.6254818295245
 30
0.0
 41
0.9991121410639366
 10
944.0256227102891
 20
-1335.4759857307179
 30
0.0
 41
1.0
 10
944.02654150031344
 20
-1335.458205894146
 30
0.0
 41
1.0
 10
944.02746029033779
 20
-1335.4404260575741
 30
0.0
 41
1.0
 10
944.03334806387716
 20
-1335.3264896319158
 30
0.0
 41
0.9989792494906268
 10
944.02892897176002
 20
-1335.2124867960133
 30
0.0
 41
1.0
 10
944.02828099989142
 20
-1335.1957705500881
 30
0.0
 41
1.0
 10
944.02763302802293
 20
-1335.1790543041629
 30
0.0
 41
1.0
 10
944.02450987964255
 20
-1335.0984839601142
 30
0.0
 41
0.9997820295393982
 10
944.01802588226701
 20
-1335.018114238371
 30
0.0
 41
1.0
 10
944.01154188489124
 20
-1334.9377445166256
 30
0.0
 41
0.9998335105973163
 10
944.00212968937922
 20
-1334.8576649001739
 30
0.0
 41
1.0
 10
944.00053476470305
 20
-1334.8440951696925
 30
0.0
 41
1.0
 10
943.99893984002688
 20
-1334.830525439211
 30
0.0
 41
1.0
 10
943.98633779516263
 20
-1334.7233063617971
 30
0.0
 41
0.9996876457879571
 10
943.96839388236424
 20
-1334.6168509340791
 30
0.0
 41
1.0
 10
943.96616221921863
 20
-1334.6036111988351
 30
0.0
 41
1.0
 10
943.96393055607291
 20
-1334.5903714635913
 30
0.0
 41
1.0
 10
943.95013473465235
 20
-1334.5085253196346
 30
0.0
 41
0.9995547496493974
 10
943.93148141275992
 20
-1334.4276478224456
 30
0.0
 41
1.0
 10
943.93110745588842
 20
-1334.4260264117393
 30
0.0
 41
1.0
 10
943.93073349901681
 20
-1334.4244050010327
 30
0.0
 41
1.0
 10
943.9128280908667
 20
-1334.346770325252
 30
0.0
 41
0.9994899427175199
 10
943.89000318218791
 20
-1334.2704370424201
 30
0.0
 41
1.0
 10
943.8895446554468
 20
-1334.2689035926305
 30
0.0
 41
1.0
 10
943.88908612870569
 20
-1334.2673701428407
 30
0.0
 41
1.0
 10
943.86717827350844
 20
-1334.1941037595848
 30
0.0
 41
0.9993784877590453
 10
943.84016263840203
 20
-1334.1225630544266
 30
0.0
 41
1.0
 10
943.83963094742512
 20
-1334.121155071706
 30
0.0
 41
1.0
 10
943.83909925644821
 20
-1334.1197470889854
 30
0.0
 41
1.0
 10
943.81314700329528
 20
-1334.051022349267
 30
0.0
 41
0.9992430832254525
 10
943.78193046813612
 20
-1333.9845231971992
 30
0.0
 41
1.0
 10
943.7813483520797
 20
-1333.9832831420822
 30
0.0
 41
1.0
 10
943.78076623602328
 20
-1333.9820430869654
 30
0.0
 41
1.0
 10
943.75071393297708
 20
-1333.9180240451315
 30
0.0
 41
0.9990789632797902
 10
943.71528330620004
 20
-1333.8568174333814
 30
0.0
 41
1.0
 10
943.71468760001767
 20
-1333.8557883475216
 30
0.0
 41
1.0
 10
943.71409189383542
 20
-1333.8547592616619
 30
0.0
 41
1.0
 10
943.6798526794222
 20
-1333.7956108216299
 30
0.0
 41
0.9988874801120301
 10
943.64019340339132
 20
-1333.7399511092137
 30
0.0
 41
1.0
 10
943.63963787732689
 20
-1333.7391714575388
 30
0.0
 41
1.0
 10
943.63908235126246
 20
-1333.7383918058638
 30
0.0
 41
1.0
 10
943.60053412735908
 20
-1333.6842913967957
 30
0.0
 41
0.9986762060692415
 10
943.55663165608303
 20
-1333.6344376823567
 30
0.0
 41
1.0
 10
943.55618769575119
 20
-1333.6339335405405
 30
0.0
 41
1.0
 10
943.55574373541936
 20
-1333.6334293987243
 30
0.0
 41
1.0
 10
943.5127291848072
 20
-1333.5845839679182
 30
0.0
 41
0.9984621642489411
 10
943.46457162802903
 20
-1333.5408006674465
 30
0.0
 41
1.0
 10
943.46432499351238
 20
-1333.5405764352831
 30
0.0
 41
1.0
 10
943.46407835899572
 20
-1333.5403522031195
 30
0.0
 41
1.0
 10
943.41641407125121
 20
-1333.4970173669753
 30
0.0
 41
0.9982724693850277
 10
943.36399543940979
 20
-1333.4595730164579
 30
0.0
 41
1.0
 10
943.31157680756803
 20
-1333.4221286659399
 30
0.0
 41
0.9981399180159398
 10
943.25499074417496
 20
-1333.3913421464965
 30
0.0
 41
1.0
 10
943.25494508209658
 20
-1333.3913173033393
 30
0.0
 41
1.0
 10
943.25489942001809
 20
-1333.3912924601823
 30
0.0
 41
1.0
 10
943.19822203246815
 20
-1333.3604562544244
 30
0.0
 41
0.998092708683597
 10
943.138176681402
 20
-1333.336839445572
 30
0.0
 41
1.0
 10
943.13773651169004
 20
-1333.3366663196969
 30
0.0
 41
1.0
 10
943.13729634197807
 20
-1333.3364931938218
 30
0.0
 41
1.0
 10
943.07637065148731
 20
-1333.3125301332188
 30
0.0
 41
0.9981411356559654
 10
943.01298213008738
 20
-1333.2961574917135
 30
0.0
 41
1.0
 10
943.01210001338677
 20
-1333.2959296495083
 30
0.0
 41
1.0
 10
943.01121789668605
 20
-1333.295701807303
 30
0.0
 41
1.0
 10
942.94606514188285
 20
-1333.2788734813864
 30
0.0
 41
0.9983031812935552
 10
942.87939771288723
 20
-1333.2697341202102
 30
0.0
 41
1.0
 10
942.87052668748538
 20
-1333.2685180015392
 30
0.0
 41
1.0
 10
942.86165566208342
 20
-1333.2673018828682
 30
0.0
 41
1.0
 10
942.80730601957839
 20
-1333.259851152877
 30
0.0
 41
0.9983887708264193
 10
942.75246217028428
 20
-1333.2586064792433
 30
0.0
 41
1.0
 10
942.74439876507051
 20
-1333.2584234813685
 30
0.0
 41
1.0
 10
942.73633535985675
 20
-1333.2582404834936
 30
0.0
 41
1.0
 10
942.69761832099516
 20
-1333.2573618056099
 30
0.0
 41
0.9998869563079209
 10
942.65889236778878
 20
-1333.2576476749696
 30
0.0
 41
1.0
 10
942.62016641454159
 20
-1333.2579335443295
 30
0.0
 41
0.999997232018938
 10
942.58144223528654
 20
-1333.2584016438593
 30
0.0
 41
1.0
 10
942.562089218751
 20
-1333.2586355839483
 30
0.0
 41
1.0
 10
942.54273620221534
 20
-1333.2588695240372
 30
0.0
 41
1.0
 10
942.46530598984748
 20
-1333.2598055037452
 30
0.0
 41
0.9997304945088436
 10
942.38800268361274
 20
-1333.2643345975307
 30
0.0
 41
1.0
 10
942.37895304190556
 20
-1333.2648648035208
 30
0.0
 41
1.0
 10
942.3699034001985
 20
-1333.2653950095109
 30
0.0
 41
1.0
 10
942.27450081055349
 20
-1333.2709845152767
 30
0.0
 41
0.9997888306415056
 10
942.1794084747122
 20
-1333.2804894797655
 30
0.0
 41
1.0
 10
942.17068741313824
 20
-1333.2813611943977
 30
0.0
 41
1.0
 10
942.16196635156427
 20
-1333.28223290903
 30
0.0
 41
1.0
 10
942.0494318925754
 20
-1333.2934813027832
 30
0.0
 41
0.998417023819027
 10
941.93887274522331
 20
-1333.3172973847193
 30
0.0
 41
1.0
 10
941.90249161423731
 20
-1333.3251344205253
 30
0.0
 41
1.0
 10
941.86611048325142
 20
-1333.3329714563313
 30
0.0
 41
1.0
 10
941.75091941483038
 20
-1333.3577853228408
 30
0.0
 41
0.9976592854198687
 10
941.64019124842548
 20
-1333.3980839999881
 30
0.0
 41
1.0
 10
941.52946308202092
 20
-1333.4383826771352
 30
0.0
 41
0.9993255074352395
 10
941.42199128323045
 20
-1333.4866995756274
 30
0.0
 41
1.0
 10
941.41736610430678
 20
-1333.4887789518273
 30
0.0
 41
1.0
 10
941.4127409253831
 20
-1333.4908583280271
 30
0.0
 41
1.0
 10
941.29601876874517
 20
-1333.5433339789192
 30
0.0
 41
0.9976475078274283
 10
941.1875714244353
 20
-1333.6112819685775
 30
0.0
 41
1.0
 10
941.16922903029922
 20
-1333.6227744473929
 30
0.0
 41
1.0
 10
941.15088663616302
 20
-1333.6342669262083
 30
0.0
 41
1.0
 10
941.06668444461206
 20
-1333.6870240469759
 30
0.0
 41
0.9995131336406542
 10
940.98593672965615
 20
-1333.7449302589282
 30
0.0
 41
1.0
 10
940.9051890147008
 20
-1333.80283647088
 30
0.0
 41
0.9995810107606381
 10
940.82792736697183
 20
-1333.8653181533459
 30
0.0
 41
1.0
 10
940.82495733576081
 20
-1333.8677200248112
 30
0.0
 41
1.0
 10
940.82198730454979
 20
-1333.8701218962765
 30
0.0
 41
1.0
 10
940.73878559439891
 20
-1333.9374073216732
 30
0.0
 41
0.9996617837954929
 10
940.65919490726128
 20
-1334.0089277772352
 30
0.0
 41
1.0
 10
940.64706415638443
 20
-1334.0198285102256
 30
0.0
 41
1.0
 10
940.63493340550758
 20
-1334.0307292432162
 30
0.0
 41
1.0
 10
940.56665787811176
 20
-1334.0920818586878
 30
0.0
 41
0.999726775005193
 10
940.5013243698304
 20
-1334.1565583952111
 30
0.0
 41
1.0
 10
940.43599086154472
 20
-1334.2210349317384
 30
0.0
 41
0.9999667288956335
 10
940.37171791838898
 20
-1334.286568738642
 30
0.0
 41
1.0
 10
940.30289047061933
 20
-1334.3567463973948
 30
0.0
 41
1.0
 10
940.2340630228498
 20
-1334.4269240561475
 30
0.0
 41
1.0
 10
940.03213518415248
 20
-1334.632813180559
 30
0.0
 41
0.9988205335174978
 10
939.85112956717217
 20
-1334.8573174126207
 30
0.0
 41
1.0
 10
939.82048960226814
 20
-1334.8953206630499
 30
0.0
 41
1.0
 10
939.78984963736411
 20
-1334.9333239134789
 30
0.0
 41
1.0
 10
939.54756409057563
 20
-1335.2338346463989
 30
0.0
 41
0.9997077826755412
 10
939.32008613947335
 20
-1335.545704440611
 30
0.0
 41
1.0
 10
939.31836272434111
 20
-1335.5480672239928
 30
0.0
 41
1.0
 10
939.31663930920899
 20
-1335.5504300073749
 30
0.0
 41
1.0
 10
939.08571452784133
 20
-1335.8670253683524
 30
0.0
 41
0.998914756707892
 10
938.88525102495748
 20
-1336.203734829538
 30
0.0
 41
1.0
 10
938.86050987965041
 20
-1336.2452914100904
 30
0.0
 41
1.0
 10
938.83576873434345
 20
-1336.2868479906431
 30
0.0
 41
1.0
 10
938.68055743570676
 20
-1336.5475493750946
 30
0.0
 41
0.9997476598182001
 10
938.53721244819849
 20
-1336.8149591236747
 30
0.0
 41
1.0
 10
938.39386746068988
 20
-1337.0823688722553
 30
0.0
 41
0.9996258967110135
 10
938.26535920876051
 20
-1337.3572168088742
 30
0.0
 41
1.0
 10
938.25215929930687
 20
-1337.3854482089785
 30
0.0
 41
1.0
 10
938.23895938985322
 20
-1337.4136796090827
 30
0.0
 41
1.0
 10
938.09875066885456
 20
-1337.7135520070335
 30
0.0
 41
0.9998735413945222
 10
937.96814932213738
 20
-1338.017731606494
 30
0.0
 41
1.0
 10
937.96470649407297
 20
-1338.0257501919677
 30
0.0
 41
1.0
 10
937.96126366600856
 20
-1338.0337687774415
 30
0.0
 41
1.0
 10
937.83754797541349
 20
-1338.3219112059696
 30
0.0
 41
0.9999377418861857
 10
937.72029317324223
 20
-1338.6127426736364
 30
0.0
 41
1.0
 10
937.60303837106585
 20
-1338.9035741413156
 30
0.0
 41
0.9999508299506575
 10
937.49157442768467
 20
-1339.1966738181472
 30
0.0
 41
1.0
 10
937.4884936590247
 20
-1339.2047748441043
 30
0.0
 41
1.0
 10
937.48541289036484
 20
-1339.2128758700615
 30
0.0
 41
1.0
 10
937.3677874096627
 20
-1339.5221775988098
 30
0.0
 41
0.999960922843368
 10
937.2556488067878
 20
-1339.8335106148279
 30
0.0
 41
1.0
 10
937.25269279643851
 20
-1339.8417174552364
 30
0.0
 41
1.0
 10
937.24973678608922
 20
-1339.849924295645
 30
0.0
 41
1.0
 10
937.13168616251278
 20
-1340.1776709924884
 30
0.0
 41
0.9999674607402643
 10
937.01893863644489
 20
-1340.507279612483
 30
0.0
 41
1.0
 10
936.96754024588495
 20
-1340.6575388081674
 30
0.0
 41
1.0
 10
936.91614185532501
 20
-1340.8077980038518
 30
0.0
 41
1.0
 10
936.80013124856725
 20
-1341.1469459863542
 30
0.0
 41
0.9999287532305647
 10
936.69224984459424
 20
-1341.4887667253372
 30
0.0
 41
1.0
 10
936.64577258844679
 20
-1341.6360292697345
 30
0.0
 41
1.0
 10
936.59929533229945
 20
-1341.7832918141316
 30
0.0
 41
1.0
 10
936.58436844058474
 20
-1341.8305874644357
 30
0.0
 41
0.9999998224285235
 10
936.56949793189301
 20
-1341.8779008725542
 30
0.0
 41
1.0
 10
934.94884179509756
 20
-1347.0259293743434
 30
0.0
 41
1.0
 10
933.32818565830212
 20
-1352.1739578761326
 30
0.0
 41
1.0
 10
932.42287721441119
 20
-1352.1739578761326
 30
0.0
 41
1.0
 10
931.51756877052026
 20
-1352.1739578761326
 30
0.0
 41
1.0
 10
933.3696531819063
 20
-1346.2868859536652
 30
0.0
 41
1.0
 10
935.22173759329235
 20
-1340.3998140311978
 30
0.0
 41
1.0
 10
935.23185935159506
 20
-1340.3677708177484
 30
0.0
 41
1.0
 10
935.3044670204448
 20
-1340.1374712759225
 30
0.0
 41
1.0
 10
935.37707468928988
 20
-1339.9071717341112
 30
0.0
 41
0.9999825681963102
 10
935.4469577284973
 20
-1339.6760308390606
 30
0.0
 41
1.0
 10
935.49524879066257
 20
-1339.5163062555494
 30
0.0
 41
1.0
 10
935.54353985282796
 20
-1339.3565816720384
 30
0.0
 41
1.0
 10
935.64069220614408
 20
-1339.0352464502666
 30
0.0
 41
0.9999672528959805
 10
935.7326310117669
 20
-1338.7123809046816
 30
0.0
 41
1.0
 10
935.73541989543696
 20
-1338.7025870592906
 30
0.0
 41
1.0
 10
935.73820877910691
 20
-1338.6927932138999
 30
0.0
 41
1.0
 10
935.82456981739438
 20
-1338.3895153590806
 30
0.0
 41
0.9999899749168832
 10
935.90821142692494
 20
-1338.0854762706429
 30
0.0
 41
1.0
 10
935.91831734594257
 20
-1338.0487410329642
 30
0.0
 41
1.0
 10
935.92842326496009
 20
-1338.0120057952856
 30
0.0
 41
1.0
 10
935.99185303645788
 20
-1337.7814371821967
 30
0.0
 41
0.9999214200503497
 10
936.04948246483741
 20
-1337.5493508399811
 30
0.0
 41
1.0
 10
936.06224831701729
 20
-1337.4979399545878
 30
0.0
 41
1.0
 10
936.07501416919729
 20
-1337.4465290691942
 30
0.0
 41
1.0
 10
936.10711189321387
 20
-1337.3172644977763
 30
0.0
 41
0.9999828681653704
 10
936.1376941452105
 20
-1337.1876330233044
 30
0.0
 41
1.0
 10
936.16827639720543
 20
-1337.0580015488385
 30
0.0
 41
0.9999389844480446
 10
936.1959873859945
 20
-1336.9277260929398
 30
0.0
 41
1.0
 10
936.20312512971509
 20
-1336.8941699891009
 30
0.0
 41
1.0
 10
936.21026287343557
 20
-1336.860613885262
 30
0.0
 41
1.0
 10
936.25224934966468
 20
-1336.6632262216892
 30
0.0
 41
0.9998933699440634
 10
936.28845361406809
 20
-1336.4646966139251
 30
0.0
 41
1.0
 10
936.28982643928407
 20
-1336.4571685932301
 30
0.0
 41
1.0
 10
936.29119926450016
 20
-1336.4496405725351
 30
0.0
 41
1.0
 10
936.33014917933474
 20
-1336.2360549233858
 30
0.0
 41
0.9996850305193779
 10
936.35833285559386
 20
-1336.020783917947
 30
0.0
 41
1.0
 10
936.36032788896296
 20
-1336.0055455638262
 30
0.0
 41
1.0
 10
936.36232292233205
 20
-1335.9903072097056
 30
0.0
 41
1.0
 10
936.38973078479171
 20
-1335.7809619825478
 30
0.0
 41
0.9994697936706802
 10
936.40345534401104
 20
-1335.5702767872176
 30
0.0
 41
1.0
 10
936.40393241326069
 20
-1335.5629533150063
 30
0.0
 41
1.0
 10
936.40440948251046
 20
-1335.5556298427953
 30
0.0
 41
1.0
 10
936.41717990323082
 20
-1335.3595915918854
 30
0.0
 41
0.9991804893136589
 10
936.41405158695784
 20
-1335.1631627419133
 30
0.0
 41
1.0
 10
936.41396770813571
 20
-1335.1578959405006
 30
0.0
 41
1.0
 10
936.41388382931359
 20
-1335.1526291390876
 30
0.0
 41
1.0
 10
936.41092327068509
 20
-1334.9667338919396
 30
0.0
 41
0.9988448329321524
 10
936.39013172506134
 20
-1334.7819813021065
 30
0.0
 41
1.0
 10
936.38853765135821
 20
-1334.7678164463343
 30
0.0
 41
1.0
 10
936.38694357765507
 20
-1334.7536515905622
 30
0.0
 41
1.0
 10
936.36934017943747
 20
-1334.5972287122725
 30
0.0
 41
0.998550320945869
 10
936.33502390713807
 20
-1334.4436045281839
 30
0.0
 41
1.0
 10
936.32743791506732
 20
-1334.4096442007854
 30
0.0
 41
1.0
 10
936.31985192299646
 20
-1334.3756838733871
 30
0.0
 41
1.0
 10
936.30070763483911
 20
-1334.2899803440976
 30
0.0
 41
0.999103678137127
 10
936.2743827731872
 20
-1334.2062032567696
 30
0.0
 41
1.0
 10
936.27040054773101
 20
-1334.1935300942584
 30
0.0
 41
1.0
 10
936.26641832227483
 20
-1334.1808569317473
 30
0.0
 41
1.0
 10
936.24805791153585
 20
-1334.122426169444
 30
0.0
 41
0.9998874504367591
 10
936.22795270385768
 20
-1334.0645725672214
 30
0.0
 41
1.0
 10
936.2078474961794
 20
-1334.0067189649983
 30
0.0
 41
0.9994041637543277
 10
936.18379888324512
 20
-1333.9503902611089
 30
0.0
 41
1.0
 10
936.17960209902117
 20
-1333.9405601966268
 30
0.0
 41
1.0
 10
936.17540531479722
 20
-1333.9307301321451
 30
0.0
 41
1.0
 10
936.14752648380193
 20
-1333.8654299661762
 30
0.0
 41
0.9991846840701917
 10
936.11447012710926
 20
-1333.802591934897
 30
0.0
 41
1.0
 10
936.11333352071381
 20
-1333.8004313184415
 30
0.0
 41
1.0
 10
936.11219691431836
 20
-1333.798270701986
 30
0.0
 41
1.0
 10
936.08141377041636
 20
-1333.7397539036169
 30
0.0
 41
0.9989253167922398
 10
936.04534434636116
 20
-1333.6843389752264
 30
0.0
 41
1.0
 10
936.04429022168711
 20
-1333.6827194804646
 30
0.0
 41
1.0
 10
936.04323609701316
 20
-1333.6810999857025
 30
0.0
 41
1.0
 10
936.00927492230721
 20
-1333.6289240468375
 30
0.0
 41
0.9986467172836678
 10
935.97007776966893
 20
-1333.5805580132067
 30
0.0
 41
1.0
 10
935.96920364096786
 20
-1333.5794794109279
 30
0.0
 41
1.0
 10
935.96832951226679
 20
-1333.5784008086493
 30
0.0
 41
1.0
 10
935.93088061703111
 20
-1333.5321919795765
 30
0.0
 41
0.9984001104266106
 10
935.8884538865143
 20
-1333.4905068722082
 30
0.0
 41
1.0
 10
935.8878667484048
 20
-1333.489929997327
 30
0.0
 41
1.0
 10
935.88727961029542
 20
-1333.4893531224457
 30
0.0
 41
1.0
 10
935.84602715599658
 20
-1333.4488217648391
 30
0.0
 41
0.9982442159082056
 10
935.80027105466161
 20
-1333.4134532035794
 30
0.0
 41
1.0
 10
935.80005625919978
 20
-1333.4132871709362
 30
0.0
 41
1.0
 10
935.79984146373795
 20
-1333.4131211382928
 30
0.0
 41
1.0
 10
935.75451495332584
 20
-1333.3780846423192
 30
0.0
 41
0.9982450060836938
 10
935.70536397425417
 20
-1333.3486528592855
 30
0.0
 41
1.0
 10
935.65621299518307
 20
-1333.3192210762522
 30
0.0
 41
0.9983922639634258
 10
935.60404668901799
 20
-1333.2955414415981
 30
0.0
 41
1.0
 10
935.60381981169326
 20
-1333.2954384561167
 30
0.0
 41
1.0
 10
935.60359293436863
 20
-1333.2953354706351
 30
0.0
 41
1.0
 10
935.55097287355466
 20
-1333.2714498650184
 30
0.0
 41
0.9986517147151848
 10
935.49615990068673
 20
-1333.2531487458964
 30
0.0
 41
1.0
 10
935.49548197925901
 20
-1333.252922399465
 30
0.0
 41
1.0
 10
935.49480405783129
 20
-1333.2526960530336
 30
0.0
 41
1.0
 10
935.43863524210758
 20
-1333.2339422410487
 30
0.0
 41
0.9989435598955134
 10
935.38098185495539
 20
-1333.2204245388141
 30
0.0
 41
1.0
 10
935.37990173537401
 20
-1333.2201712885612
 30
0.0
 41
1.0
 10
935.37882161579273
 20
-1333.2199180383082
 30
0.0
 41
1.0
 10
935.319007989478
 20
-1333.2058938355676
 30
0.0
 41
0.9992249241239745
 10
935.25827648058089
 20
-1333.1966184928526
 30
0.0
 41
1.0
 10
935.25686279228967
 20
-1333.1964025844447
 30
0.0
 41
1.0
 10
935.25544910399856
 20
-1333.1961866760369
 30
0.0
 41
1.0
 10
935.19189021851855
 20
-1333.1864795165061
 30
0.0
 41
0.9994396597833948
 10
935.12782428198057
 20
-1333.1810465941603
 30
0.0
 41
1.0
 10
935.10868361450355
 20
-1333.1794234264416
 30
0.0
 41
1.0
 10
935.08954294702653
 20
-1333.1778002587232
 30
0.0
 41
1.0
 10
934.98719567553519
 20
-1333.1691210009403
 30
0.0
 41
0.9987693403122404
 10
934.88449205194945
 20
-1333.1706240643928
 30
0.0
 41
1.0
 10
934.87423771772205
 20
-1333.170774136167
 30
0.0
 41
1.0
 10
934.86398338349477
 20
-1333.1709242079412
 30
0.0
 41
1.0
 10
934.75442761731483
 20
-1333.1725275522285
 30
0.0
 41
0.9989753644966589
 10
934.64546561729708
 20
-1333.1840305591536
 30
0.0
 41
1.0
 10
934.5365036172791
 20
-1333.1955335660789
 30
0.0
 41
0.9983190067304677
 10
934.42960480631291
 20
-1333.2195685578663
 30
0.0
 41
1.0
 10
934.42070385470754
 20
-1333.2215698364287
 30
0.0
 41
1.0
 10
934.41180290310217
 20
-1333.223571114991
 30
0.0
 41
1.0
 10
934.28710218892525
 20
-1333.251608663903
 30
0.0
 41
0.9985539388304173
 10
934.16613243524898
 20
-1333.2928723399477
 30
0.0
 41
1.0
 10
934.16378700428709
 20
-1333.2936723837643
 30
0.0
 41
1.0
 10
934.16144157332519
 20
-1333.2944724275806
 30
0.0
 41
1.0
 10
934.03578095772548
 20
-1333.3373361912581
 30
0.0
 41
0.9988468746493665
 10
933.91481061542413
 20
-1333.392054276321
 30
0.0
 41
1.0
 10
933.91162779343654
 20
-1333.3934939508804
 30
0.0
 41
1.0
 10
933.90844497144894
 20
-1333.39493362544
 30
0.0
 41
1.0
 10
933.78110898517195
 20
-1333.4525310596218
 30
0.0
 41
0.9991322885919013
 10
933.65900840111522
 20
-1333.5205263918037
 30
0.0
 41
1.0
 10
933.64140639006951
 20
-1333.5303285937946
 30
0.0
 41
1.0
 10
933.6238043790238
 20
-1333.5401307957854
 30
0.0
 41
1.0
 10
933.52162769796894
 20
-1333.5970309115651
 30
0.0
 41
0.9993860037849588
 10
933.423686693896
 20
-1333.660946927153
 30
0.0
 41
1.0
 10
933.41806838104526
 20
-1333.6646134218468
 30
0.0
 41
1.0
 10
933.41245006819463
 20
-1333.6682799165405
 30
0.0
 41
1.0
 10
933.32574568982398
 20
-1333.7248629427404
 30
0.0
 41
0.9998821494954122
 10
933.24081931400974
 20
-1333.7840811728181
 30
0.0
 41
1.0
 10
933.1558929381988
 20
-1333.8432994028938
 30
0.0
 41
0.9997976482744074
 10
933.07341730779888
 20
-1333.9058858109327
 30
0.0
 41
1.0
 10
933.0587810429912
 20
-1333.9169925007145
 30
0.0
 41
1.0
 10
933.04414477818352
 20
-1333.9280991904964
 30
0.0
 41
1.0
 10
932.93239661816938
 20
-1334.0128989780983
 30
0.0
 41
0.999809163080035
 10
932.82404634014154
 20
-1334.1019993288
 30
0.0
 41
1.0
 10
932.81104058766459
 20
-1334.1126944292457
 30
0.0
 41
1.0
 10
932.79803483518776
 20
-1334.1233895296914
 30
0.0
 41
1.0
 10
932.66367305220217
 20
-1334.2338800812879
 30
0.0
 41
0.999503511231748
 10
932.53653717443706
 20
-1334.3526138983045
 30
0.0
 41
1.0
 10
932.52688986405224
 20
-1334.36162364446
 30
0.0
 41
1.0
 10
932.5172425536673
 20
-1334.3706333906157
 30
0.0
 41
1.0
 10
932.39381949090239
 20
-1334.4858997623712
 30
0.0
 41
0.9994630424299179
 10
932.2782110851183
 20
-1334.6090025056064
 30
0.0
 41
1.0
 10
932.27452824634543
 20
-1334.612924085121
 30
0.0
 41
1.0
 10
932.27084540757244
 20
-1334.6168456646358
 30
0.0
 41
1.0
 10
932.16260267933308
 20
-1334.732105248843
 30
0.0
 41
0.9995160693750003
 10
932.06173664980236
 20
-1334.8538726667143
 30
0.0
 41
1.0
 10
932.05980292972163
 20
-1334.8562070909225
 30
0.0
 41
1.0
 10
932.05786920964101
 20
-1334.8585415151306
 30
0.0
 41
1.0
 10
931.96087062027095
 20
-1334.9756400845863
 30
0.0
 41
0.9996561470514485
 10
931.87014440160453
 20
-1335.0976628470362
 30
0.0
 41
1.0
 10
931.86398673570466
 20
-1335.1059446360755
 30
0.0
 41
1.0
 10
931.85782906980489
 20
-1335.114226425115
 30
0.0
 41
1.0
 10
931.7794181829405
 20
-1335.2196856094829
 30
0.0
 41
0.9998349055175018
 10
931.70489090100637
 20
-1335.3279241931486
 30
0.0
 41
1.0
 10
931.63036361908121
 20
-1335.4361627768019
 30
0.0
 41
0.9999728109567746
 10
931.55744072317952
 20
-1335.5454887023438
 30
0.0
 41
1.0
 10
931.55612550776004
 20
-1335.5474604718579
 30
0.0
 41
1.0
 10
931.55481029234056
 20
-1335.5494322413722
 30
0.0
 41
1.0
 10
931.47925696558605
 20
-1335.6627017059636
 30
0.0
 41
0.9999972147356913
 10
931.40423915519227
 20
-1335.7763265488295
 30
0.0
 41
1.0
 10
931.39926761259017
 20
-1335.7838566372711
 30
0.0
 41
1.0
 10
931.39429606998817
 20
-1335.7913867257128
 30
0.0
 41
1.0
 10
931.30933517436961
 20
-1335.9200717454928
 30
0.0
 41
0.9999371979003704
 10
931.22727982496701
 20
-1336.0506286592674
 30
0.0
 41
1.0
 10
931.22377094060403
 20
-1336.0562115873345
 30
0.0
 41
1.0
 10
931.22026205624115
 20
-1336.0617945154013
 30
0.0
 41
1.0
 10
931.13118893811065
 20
-1336.203517285313
 30
0.0
 41
0.9998272025610834
 10
931.04744554722652
 20
-1336.3484531620591
 30
0.0
 41
1.0
 10
931.03223037520445
 20
-1336.3747862765124
 30
0.0
 41
1.0
 10
931.01701520318238
 20
-1336.4011193909657
 30
0.0
 41
1.0
 10
930.90284146825365
 20
-1336.598721496619
 30
0.0
 41
0.9995217214838131
 10
930.80110177869938
 20
-1336.8030038244781
 30
0.0
 41
1.0
 10
930.79345821606262
 20
-1336.8183512741848
 30
0.0
 41
1.0
 10
930.78581465342575
 20
-1336.8336987238913
 30
0.0
 41
1.0
 10
930.69890936083539
 20
-1337.0081951819741
 30
0.0
 41
0.9998269762607489
 10
930.6185548945648
 20
-1337.1858034686945
 30
0.0
 41
1.0
 10
930.53820042829489
 20
-1337.3634117554136
 30
0.0
 41
0.9998944747388798
 10
930.4630396337318
 20
-1337.5432794810383
 30
0.0
 41
1.0
 10
930.45808596413724
 20
-1337.5551341359637
 30
0.0
 41
1.0
 10
930.45313229454268
 20
-1337.5669887908891
 30
0.0
 41
1.0
 10
930.37248523399137
 20
-1337.7599857309042
 30
0.0
 41
0.9999506734410262
 10
930.29568770508899
 20
-1337.9545465357576
 30
0.0
 41
1.0
 10
930.28108773981626
 20
-1337.9915344575682
 30
0.0
 41
1.0
 10
930.26648777454363
 20
-1338.0285223793787
 30
0.0
 41
1.0
 10
930.21889017617639
 20
-1338.1491073406364
 30
0.0
 41
0.9999912393934113
 10
930.17230373216285
 20
-1338.2700865433094
 30
0.0
 41
1.0
 10
930.1257172881426
 20
-1338.3910657459992
 30
0.0
 41
0.9999927113991453
 10
930.0800559937511
 20
-1338.512397153494
 30
0.0
 41
1.0
 10
930.06608756235096
 20
-1338.5495141354995
 30
0.0
 41
1.0
 10
930.05211913095081
 20
-1338.586631117505
 30
0.0
 41
1.0
 10
929.9785209737579
 20
-1338.7821964890136
 30
0.0
 41
0.9999487550948938
 10
929.90889734878726
 20
-1338.9792118541934
 30
0.0
 41
1.0
 10
929.88530373885123
 20
-1339.0459751644835
 30
0.0
 41
1.0
 10
929.86171012891532
 20
-1339.1127384747738
 30
0.0
 41
1.0
 10
929.76702449454547
 20
-1339.3806723095968
 30
0.0
 41
0.9999808436946469
 10
929.67566290590366
 20
-1339.6497577408622
 30
0.0
 41
1.0
 10
929.58430131727164
 20
-1339.9188431720991
 30
0.0
 41
0.9999873932927033
 10
929.49564660855606
 20
-1340.1888325271045
 30
0.0
 41
1.0
 10
929.47555425168071
 20
-1340.2500218598752
 30
0.0
 41
1.0
 10
929.45546189480547
 20
-1340.3112111926462
 30
0.0
 41
1.0
 10
929.32662247234055
 20
-1340.7035792131896
 30
0.0
 41
0.9999794883037185
 10
929.20281968737834
 20
-1341.0975654194815
 30
0.0
 41
1.0
 10
929.1916674279687
 20
-1341.1330560296301
 30
0.0
 41
1.0
 10
929.18051516855894
 20
-1341.1685466397789
 30
0.0
 41
1.0
 10
929.03795700464639
 20
-1341.6222193919134
 30
0.0
 41
0.9999982761731662
 10
928.89708456460289
 20
-1342.0764184141262
 30
0.0
 41
1.0
 10
927.30894423203029
 20
-1347.1251881451294
 30
0.0
 41
1.0
 10
925.72080389945768
 20
-1352.1739578761326
 30
0.0
 41
1.0
 10
924.77205328798129
 20
-1352.1739578761326
 30
0.0
 41
1.0
 10
923.82330267650491
 20
-1352.1739578761326
 30
0.0
 41
1.0
 10
927.06158716265804
 20
-1341.8466356761865
 30
0.0
 41
1.0
 10
930.29987164881129
 20
-1331.5193134762403
 30
0.0
 41
1.0
  0
LWPOLYLINE
  5
5A
100
AcDbEntity
  8
0
370
              15
390
0
  6
Continuous
 62
               7
100
AcDbPolyline
 90
      232
 70
             128
 10
904.59632587498425
 20
-1332.603656307756
 42
0.0004370800697991
 10
904.5434487010408
 20
-1332.6723229468444
 10
904.50416446978477
 20
-1332.7234300599084
 42
0.0030481992175739
 10
904.37382575265565
 20
-1332.895151752266
 10
904.33531408091517
 20
-1332.9465385360409
 42
0.0042058245754892
 10
904.13132903024484
 20
-1333.2235442811152
 10
904.07892390774464
 20
-1333.2959771278952
 42
0.0120948898746028
 10
903.78287999098131
 20
-1333.7267267324471
 10
903.68668749186179
 20
-1333.8742074676684
 42
0.0141601263947513
 10
903.38304344493929
 20
-1334.3698768044046
 10
903.34350617751534
 20
-1334.438720771833
 42
0.0071131081299427
 10
903.13823385427486
 20
-1334.8082235706745
 42
0.0068458791003174
 10
902.94335432742503
 20
-1335.1833151341639
 10
902.93654246497408
 20
-1335.1968768478741
 42
0.0064120880289223
 10
902.73840021493447
 20
-1335.6043013227829
 10
902.73086552941277
 20
-1335.6203131795141
 42
0.0058857236448083
 10
902.52811013754467
 20
-1336.0646892905411
 10
902.51993521124712
 20
-1336.0831794441833
 42
0.0053189741890886
 10
902.31123089857783
 20
-1336.5691429181054
 10
902.30248309289823
 20
-1336.5901247962975
 42
0.0047503650418229
 10
902.08650936674837
 20
-1337.1223242295048
 10
902.07724111839934
 20
-1337.145800605615
 42
0.0042071762169229
 10
901.85269373467156
 20
-1337.7288941996851
 10
901.84294433232299
 20
-1337.7548603745545
 42
0.0036680086484977
 10
901.60848968900757
 20
-1338.3934957590948
 10
901.59828190916312
 20
-1338.42194429343
 42
0.0032573142627999
 10
901.35264962319297
 20
-1339.1207969531933
 10
901.28399910235566
 20
-1339.3202600372365
 42
0.0026133366648819
 10
900.93555390359779
 20
-1340.3501233209083
 10
900.87229711611872
 20
-1340.5403541562362
 42
0.0020592950737172
 10
900.65843404712996
 20
-1341.1924578089145
 10
900.65538225597174
 20
-1341.2018942973089
 42
0.0025609928536041
 10
900.45356175448103
 20
-1341.8370395196901
 10
900.4509703873639
 20
-1341.8453418606
 42
0.0031362356241646
 10
900.26147960167737
 20
-1342.4661047168102
 10
900.25934855875039
 20
-1342.4732460230198
 42
0.0037229918028203
 10
900.08254817182365
 20
-1343.0822313249953
 10
900.08086958261526
 20
-1343.0881782151764
 42
0.0043077623706413
 10
899.91712878055216
 20
-1343.6879969469387
 42
0.0047654161822263
 10
899.76430005804048
 20
-1344.2906830358238
 10
899.72983544919703
 20
-1344.432244812991
 42
0.011296936844503
 10
899.53397109105208
 20
-1345.3239369736225
 10
899.50596470195683
 20
-1345.466765019713
 42
0.0130056762572353
 10
899.30512745831015
 20
-1346.6537060913579
 10
899.28458770816349
 20
-1346.7977842048324
 42
0.0138721532145957
 10
899.18088470362522
 20
-1347.7046136906606
 10
899.1615892157173
 20
-1347.9281114125872
 42
0.0071254697013998
 10
899.12824256979479
 20
-1348.3912984214328
 10
899.12328159563219
 20
-1348.4773024159801
 42
0.002888179920178
 10
899.10814330234166
 20
-1348.7690441258358
 42
0.006029729713426
 10
899.09821110256621
 20
-1349.0609930619462
 10
899.09714882089895
 20
-1349.1093854338842
 42
0.0229523164149889
 10
899.10487984868473
 20
-1349.4321402801672
 10
899.10910562220499
 20
-1349.4925438141822
 42
0.0123673300662717
 10
899.12818426872343
 20
-1349.6936645393582
 42
0.012857767448102
 10
899.15737965913002
 20
-1349.8935623892867
 10
899.16450553251673
 20
-1349.934891203882
 42
0.0285717853770663
 10
899.22899953421199
 20
-1350.2130073551937
 10
899.24266805787863
 20
-1350.2596621246714
 42
0.031628309915651
 10
899.35847863779304
 20
-1350.5786766264982
 10
899.36152732954861
 20
-1350.5856629988239
 42
0.0338984824238197
 10
899.51095904051579
 20
-1350.8732289630129
 10
899.51326776988617
 20
-1350.8770199922897
 42
0.0350228718357741
 10
899.69562806055922
 20
-1351.1340719769657
 10
899.69651331233399
 20
-1351.1351510547295
 42
0.0347476747526579
 10
899.91093799957434
 20
-1351.3623361019497
 42
0.0331337701911539
 10
900.15418132532079
 20
-1351.5584647640271
 10
900.15528142383687
 20
-1351.5592374671996
 42
0.0305233319079946
 10
900.42382611940991
 20
-1351.7243656372909
 10
900.4270561639114
 20
-1351.7260896491539
 42
0.0273744481160284
 10
900.71960987548709
 20
-1351.8622277930447
 10
900.72471441062328
 20
-1351.8642713775139
 42
0.0240964406194028
 10
901.04019148627106
 20
-1351.9732551037957
 10
901.04677481547901
 20
-1351.9751798434702
 42
0.0209636179815163
 10
901.38417496813292
 20
-1352.0586479914027
 10
901.39180742858025
 20
-1352.0601999044038
 42
0.0181388704692253
 10
901.75012982057876
 20
-1352.1196159976178
 10
901.75841066895691
 20
-1352.1206821814349
 42
0.0156086547586117
 10
902.13659803314579
 20
-1352.1574183680116
 10
902.17979328547779
 20
-1352.1602568704907
 42
0.0137148329024585
 10
902.50746643077161
 20
-1352.172777125742
 10
902.55340262071343
 20
-1352.1732715588571
 42
0.0051057823891939
 10
902.78954820728984
 20
-1352.1734018132663
 42
0.0052256693311645
 10
903.02564549107444
 20
-1352.1686529888018
 10
903.09587227481791
 20
-1352.1665060227879
 42
0.0161507179048212
 10
903.47160935291924
 20
-1352.1428556524613
 10
903.49162231329228
 20
-1352.1409454571738
 42
0.0101216737832246
 10
903.90564953478167
 20
-1352.0929525268084
 10
903.93970282420969
 20
-1352.0883048299986
 42
0.0245291776401665
 10
904.41649247976341
 20
-1351.9992297519216
 10
904.50131579528625
 20
-1351.9790338315761
 42
0.0143509212555683
 10
904.85794689922443
 20
-1351.8832291977976
 42
0.0156557857041786
 10
905.20816296395083
 20
-1351.7662179819793
 10
905.21566417844633
 20
-1351.7634478202247
 42
0.0170137333626193
 10
905.57226017412518
 20
-1351.6177902053546
 10
905.57936409653519
 20
-1351.6146023697897
 42
0.0183105364409703
 10
905.93871376470281
 20
-1351.4372673279647
 10
905.94566052934022
 20
-1351.4335168930934
 42
0.0194899958151807
 10
906.30414127031997
 20
-1351.2215379112054
 10
906.31115514966086
 20
-1351.2170125689076
 42
0.0204869852950445
 10
906.66516945175624
 20
-1350.9674925538206
 10
906.67243506034185
 20
-1350.9619124884734
 42
0.0212516938556666
 10
907.018424991448
 20
-1350.6720084915808
 10
907.06494168552433
 20
-1350.6295411814865
 42
0.0215248918251471
 10
907.32496785441322
 20
-1350.3707769024907
 10
907.36999758879085
 20
-1350.3219327811441
 42
0.0114578554945069
 10
907.52478974247106
 20
-1350.1461098476825
 10
907.53598427846237
 20
-1350.1327910841314
 42
0.0061531305135825
 10
907.66245892445215
 20
-1349.9785015508314
 42
0.0006325587120629
 10
907.78683740858332
 20
-1349.8224981751814
 10
907.80987754365538
 20
-1349.7935246544962
 42
0.0041897761554223
 10
907.97833294762052
 20
-1349.5780052784442
 10
908.0367950675203
 20
-1349.5019039314493
 42
0.0092993880040216
 10
908.31340699475095
 20
-1349.1276251675558
 10
908.39580148794062
 20
-1349.0116881640001
 42
0.0159321727083017
 10
908.7424079705853
 20
-1348.4895139432408
 10
908.78676410597836
 20
-1348.4178343789843
 42
0.0085547317021975
 10
909.02127587130008
 20
-1348.0239594297661
 42
0.0084601156888836
 10
909.24225204873653
 20
-1347.6223325807448
 10
909.25036752257256
 20
-1347.606972898461
 42
0.0081429654288137
 10
909.47361679301696
 20
-1347.1672513859062
 10
909.48247695719408
 20
-1347.149072543901
 42
0.007657458133204
 10
909.70888446776189
 20
-1346.6658896686458
 10
909.71836410848448
 20
-1346.6448251903448
 42
0.0070682724198872
 10
909.94880901629028
 20
-1346.1127878855659
 10
909.95879930027297
 20
-1346.0887986965517
 42
0.0064559514449016
 10
910.19413250845537
 20
-1345.5024864300308
 10
910.20454186661959
 20
-1345.4755515045906
 42
0.0058311413905863
 10
910.44558860338464
 20
-1344.8295194102011
 10
910.45634368076992
 20
-1344.7996350690466
 42
0.0052312425820078
 10
910.70392495881674
 20
-1344.0884326551943
 10
910.71496879519054
 20
-1344.0556059431424
 42
0.0046680544796336
 10
910.9698972229213
 20
-1343.2737796273993
 10
911.01188937297275
 20
-1343.1407963900824
 42
0.004166685644544
 10
911.21517538536364
 20
-1342.4778276150901
 10
911.25283782604561
 20
-1342.3512465073752
 42
0.0015170975161345
 10
911.37402440444043
 20
-1341.9393781559424
 42
-0.0004887993115892
 10
911.49436417760171
 20
-1341.5272597437702
 10
911.57084143505858
 20
-1341.2663023579594
 42
0.0002583378929194
 10
911.84405600521154
 20
-1340.3322456544768
 10
911.92582885467436
 20
-1340.0521463952834
 42
0.000663616967142
 10
912.11969661471085
 20
-1339.3847934716102
 10
912.12479326907157
 20
-1339.3671618886829
 42
0.0010589131324638
 10
912.30624196997451
 20
-1338.7344305456813
 10
912.31122404044822
 20
-1338.7169176386851
 42
0.0015655524460597
 10
912.47949424763783
 20
-1338.1183009594604
 10
912.48432444805633
 20
-1338.1009088005119
 42
0.002164044047703
 10
912.63861442003872
 20
-1337.5358817825065
 10
912.64324863947445
 20
-1337.518617052491
 42
0.0028763871854535
 10
912.78276435752173
 20
-1336.9866491016655
 10
912.78715022168501
 20
-1336.9695251235264
 42
0.0037310511942125
 10
912.91110691352583
 20
-1336.4700775294871
 10
912.91518213381778
 20
-1336.4531172582292
 42
0.0047652197773197
 10
913.02280603432325
 20
-1335.9856394899366
 10
913.02649663364775
 20
-1335.9688799347814
 42
0.0060276699299018
 10
913.11702673280024
 20
-1335.5328041396424
 10
913.1202454230887
 20
-1335.5163029253367
 42
0.0075824337758629
 10
913.19293473250491
 20
-1335.111035760907
 10
913.19558010988533
 20
-1335.0948808134553
 42
0.0095130624610486
 10
913.24969534551633
 20
-1334.7197914603848
 10
913.25668156939776
 20
-1334.6638579022783
 42
0.0121054653227063
 10
913.28327289997685
 20
-1334.3989620737943
 10
913.28413938973665
 20
-1334.3875586308611
 42
0.0069050827389133
 10
913.29922820777415
 20
-1334.1446174040209
 10
913.3003635074424
 20
-1334.121091146983
 42
0.0169063976686008
 10
913.30319078642287
 20
-1333.9248984196754
 10
913.30202013489156
 20
-1333.8645626583202
 42
0.0052007732902867
 10
913.29976668629865
 20
-1333.7889692681742
 42
0.0054038123306267
 10
913.27980317445883
 20
-1333.6689509721591
 10
913.27471731858941
 20
-1333.6402924855831
 42
0.0112050460468246
 10
913.23933295653046
 20
-1333.4639660472421
 10
913.22150799449014
 20
-1333.3844244605232
 42
0.0240764468009701
 10
913.13061062834379
 20
-1333.0541874250214
 10
913.1120518655307
 20
-1332.9975672600287
 42
0.0256812331833848
 10
912.968688945341
 20
-1332.625843053771
 10
912.96327951951935
 20
-1332.6137117187807
 42
0.026836050121424
 10
912.79385227866976
 20
-1332.28271858476
 10
912.78831587103537
 20
-1332.2731989144488
 42
0.0274670231731511
 10
912.59611489462145
 20
-1331.9809115395306
 10
912.59073359465924
 20
-1331.9736323919897
 42
0.0275035967098132
 10
912.37916071509699
 20
-1331.7181165016852
 10
912.37409121413066
 20
-1331.7126374140551
 42
0.0269557673521437
 10
912.14668767069088
 20
-1331.4919951280924
 10
912.14194461290833
 20
-1331.4878651736317
 42
0.025912480220992
 10
911.9023897814775
 20
-1331.3001746464793
 10
911.89785893629551
 20
-1331.2969891441489
 42
0.0245162153005956
 10
911.64994258320075
 20
-1331.1402561350387
 10
911.64541603687599
 20
-1331.1376959378376
 42
0.0229282588837823
 10
911.39299648004919
 20
-1331.009827745339
 10
911.38821598621303
 20
-1331.0076754455772
 42
0.0212984135700765
 10
911.13517803375066
 20
-1330.9064765283347
 10
911.12987374878207
 20
-1330.9046129655751
 42
0.0197555462340629
 10
910.88009541105816
 20
-1330.8277975476099
 42
0.0183511896789339
 10
910.62516668559556
 20
-1330.7702146406443
 10
910.53880148887163
 20
-1330.7540118502591
 42
0.0338057877144022
 10
910.25329413961174
 20
-1330.7202034451188
 10
910.16228873456828
 20
-1330.7156237898573
 42
0.0091990524513203
 10
910.0564416259358
 20
-1330.7122479339355
 42
0.002833398075789
 10
909.95052770996767
 20
-1330.7114198264189
 10
909.94961225689349
 20
-1330.7114178565948
 42
-0.002361982780501
 10
909.84186624179608
 20
-1330.7106770155162
 10
909.80546107161172
 20
-1330.7102547090531
 42
0.0008824598485298
 10
909.62490508169446
 20
-1330.7084789308142
 10
909.58104364935593
 20
-1330.7081249692892
 42
0.0038132665763906
 10
909.31276075348512
 20
-1330.7080060332225
 10
909.29622709868363
 20
-1330.7081247993663
 42
0.0060665569335522
 10
908.9949466070974
 20
-1330.713945098787
 10
908.98069627506698
 20
-1330.7143934067547
 42
0.0080356953336722
 10
908.65123755872389
 20
-1330.7300611288217
 10
908.6391675436405
 20
-1330.730829711762
 42
0.0098996399105945
 10
908.28640445898736
 20
-1330.7603149409604
 10
908.27635874961493
 20
-1330.7613552371583
 42
0.0117740981366489
 10
907.90520189126732
 20
-1330.808647484688
 10
907.89697919478363
 20
-1330.809892601259
 42
0.0137435215135065
 10
907.51239037529808
 20
-1330.8789895748207
 10
907.50573333617513
 20
-1330.8803754710541
 42
0.0158359869387155
 10
907.11273624237162
 20
-1330.975267559535
 10
907.1073230555055
 20
-1330.9767575004053
 42
0.0180554124029828
 10
906.71100801089278
 20
-1331.1013955166443
 10
906.70645122280973
 20
-1331.1030115529104
 42
0.0203657431284668
 10
906.3119737049991
 20
-1331.261271894426
 10
906.30783016599105
 20
-1331.2631335158683
 42
0.0226819684651565
 10
905.92039410978634
 20
-1331.4587760945399
 10
905.91619431876927
 20
-1331.4611416864591
 42
0.024863498460645
 10
905.54101237758812
 20
-1331.697768332406
 10
905.49281744880625
 20
-1331.7316253742301
 42
0.0267044190887879
 10
905.21852475188757
 20
-1331.9470657500999
 42
0.0139303002195357
 10
904.96235758595037
 20
-1332.1843045910105
 10
904.95750420022785
 20
-1332.1890572538721
 42
0.0283460963445129
 10
904.71343160600031
 20
-1332.4567879143176
 10
904.6737631008441
 20
-1332.5055894917905
 42
0.0070695364826285
 10
904.59632587498425
 20
-1332.603656307756
 42
0.0070695364826285
  0
LWPOLYLINE
  5
5B
100
AcDbEntity
  8
0
370
              15
390
0
  6
Continuous
 62
               7
100
AcDbPolyline
 90
      226
 70
             128
 10
901.06750543773785
 20
-1348.3252451139397
 42
-0.002627763661857
 10
901.06742755393782
 20
-1348.2584731881891
 10
901.06764491216984
 20
-1348.2053179707534
 42
-0.0088680296718044
 10
901.07142152846291
 20
-1348.0323021883496
 10
901.07376788757529
 20
-1347.9730221628968
 42
-0.0077381705617038
 10
901.08981399833829
 20
-1347.6817616671019
 10
901.09068190951155
 20
-1347.6694734334135
 42
-0.0068872530537659
 10
901.11731398925883
 20
-1347.3542516813536
 10
901.11851821344578
 20
-1347.342010702326
 42
-0.0062130021489666
 10
901.15611193027405
 20
-1347.0031410110839
 10
901.15761583380868
 20
-1346.9909671391711
 42
-0.0056726929665583
 10
901.20653769331068
 20
-1346.6287719170593
 10
901.20831113895542
 20
-1346.6166781168122
 42
-0.0052341884495975
 10
901.26892172521445
 20
-1346.2314848612996
 10
901.27093971399199
 20
-1346.2194799313017
 42
-0.0049768450174071
 10
901.34367839541767
 20
-1345.8116353638736
 10
901.36792741014017
 20
-1345.6830873808633
 42
-0.0089029805625281
 10
901.50500826193343
 20
-1345.0213119334478
 10
901.53775363725345
 20
-1344.8762805029173
 42
-0.0080318257099082
 10
901.76730225159429
 20
-1343.9305708710629
 10
901.77928717804241
 20
-1343.8844402358734
 42
-0.0074265721318132
 10
902.06329871689161
 20
-1342.8543756574959
 10
902.08317826000632
 20
-1342.7862415969132
 42
-0.0069711922704744
 10
902.41048283851569
 20
-1341.7199738565757
 10
902.47043478562284
 20
-1341.5339524982001
 42
-0.0052070422893824
 10
902.69986001088046
 20
-1340.8466804211739
 10
902.71714120304352
 20
-1340.7966531405832
 42
-0.0009167004447409
 10
902.92023309034221
 20
-1340.2121972924026
 42
-0.0025162726944069
 10
903.12733072059632
 20
-1339.6291560282632
 10
903.16455533241515
 20
-1339.5260064823206
 42
-0.0028212681459968
 10
903.41273125137332
 20
-1338.8502758501634
 10
903.42256201412101
 20
-1338.8239684054945
 42
-0.0031964916822978
 10
903.65885427178625
 20
-1338.2037636433597
 10
903.66848872578646
 20
-1338.1789536532133
 42
-0.003628183645229
 10
903.89359468688644
 20
-1337.6115129723232
 10
903.90303309705018
 20
-1337.5882155408051
 42
-0.0041269166833405
 10
904.11765079370309
 20
-1337.070774644842
 10
904.15028375012582
 20
-1336.9938961984762
 42
-0.0047472213058377
 10
904.30732855567749
 20
-1336.6334747305978
 10
904.31422263687898
 20
-1336.6180541332808
 42
-0.0025651659996234
 10
904.46258067073586
 20
-1336.2907260775173
 42
-0.0057144634996202
 10
904.61633036450985
 20
-1335.9659164041493
 10
904.64436106990411
 20
-1335.9084080217692
 42
-0.0065388068374359
 10
904.82782809764819
 20
-1335.5441755250959
 10
904.83628655341988
 20
-1335.5279159457396
 42
-0.0074510843028616
 10
905.01246879930454
 20
-1335.2012276646035
 10
905.02064846984456
 20
-1335.1865868873188
 42
-0.0084648979856583
 10
905.19028232293567
 20
-1334.8946778763734
 10
905.19813844942382
 20
-1334.8816708847226
 42
-0.0095638542805224
 10
905.36197389701795
 20
-1334.621782012744
 10
905.36944884069158
 20
-1334.6104126512857
 42
-0.0107191626803515
 10
905.52825042107725
 20
-1334.3798014167444
 10
905.53526715480371
 20
-1334.3700653243861
 42
-0.0118458573910902
 10
905.68981525332083
 20
-1334.1659931290692
 42
-0.012918451818619
 10
905.8542678769237
 20
-1333.9698326128976
 10
905.88441264928258
 20
-1333.9357065340025
 42
-0.0217742579642932
 10
906.06102497162078
 20
-1333.752499763749
 10
906.07177051607766
 20
-1333.7422829305494
 42
-0.0097266568655337
 10
906.23782813493699
 20
-1333.5904353561086
 42
-0.0187720905728109
 10
906.41217571082154
 20
-1333.4483665027233
 10
906.44288170149798
 20
-1333.4252074203253
 42
-0.017942820752072
 10
906.67530242149678
 20
-1333.2626552432116
 10
906.67895474841396
 20
-1333.2602913083231
 42
-0.0170047877699502
 10
906.91471838594293
 20
-1333.1188307941725
 10
906.91850137469044
 20
-1333.1167324891358
 42
-0.0160190788363567
 10
907.15540992232479
 20
-1332.9950811871481
 42
-0.0151102861495054
 10
907.39944170477384
 20
-1332.8883984110926
 10
907.45182820698324
 20
-1332.8673582781989
 42
-0.0271945441881808
 10
907.81049076604029
 20
-1332.7454934674934
 10
907.87955556652742
 20
-1332.7261439262272
 42
-0.023759659402726
 10
908.29535241355211
 20
-1332.630693214245
 10
908.36341526728256
 20
-1332.6184385261183
 42
-0.0213715440554118
 10
908.64929019872784
 20
-1332.5794914946084
 10
908.70943736494382
 20
-1332.5739017799076
 42
-0.0101465655820695
 10
908.87692989693994
 20
-1332.5617582366435
 10
908.88627028313556
 20
-1332.5612713216465
 42
-0.010037591087991
 10
909.03542438370073
 20
-1332.5564955037212
 10
909.04568365337718
 20
-1332.5563730647068
 42
-0.0103625633384436
 10
909.17439164803591
 20
-1332.5575044982334
 10
909.19665729930318
 20
-1332.5581618566982
 42
-0.0115689250225736
 10
909.28070803683079
 20
-1332.5625913629433
 42
-0.0072438037434797
 10
909.36454631627225
 20
-1332.5701805626927
 10
909.38134682574275
 20
-1332.5719471054167
 42
-0.0217917313139367
 10
909.49791658905451
 20
-1332.5893669981374
 10
909.56351667962497
 20
-1332.6021136065524
 42
-0.0332943556758809
 10
909.7679088446514
 20
-1332.6561538978592
 10
909.79808141320382
 20
-1332.6663219749785
 42
-0.0184824084793735
 10
909.93658646966696
 20
-1332.7187729903642
 42
-0.0198002050692993
 10
910.07066081016603
 20
-1332.7816570505634
 10
910.07254744754323
 20
-1332.7826348374433
 42
-0.0212242342982324
 10
910.20468638994589
 20
-1332.8583975762369
 10
910.20650168548855
 20
-1332.8595433784449
 42
-0.0226090605795186
 10
910.33500558671119
 20
-1332.9490230220101
 10
910.33685002844777
 20
-1332.9504352749968
 42
-0.0238457052245872
 10
910.4600321097405
 20
-1333.0544311708591
 10
910.46198483829971
 20
-1333.0562460486253
 42
-0.0248160564147562
 10
910.57818634559999
 20
-1333.1755206498337
 10
910.58028997900237
 20
-1333.1779059835385
 42
-0.0254109591459934
 10
910.68789519686845
 20
-1333.313194369503
 10
910.6901432187824
 20
-1333.3163359179034
 42
-0.0255528488295252
 10
910.78758989757898
 20
-1333.4683629721369
 10
910.78992099749576
 20
-1333.4724445837455
 42
-0.0252146793206938
 10
910.87570202350537
 20
-1333.6419468297436
 10
910.87800426266244
 20
-1333.6471289116553
 42
-0.0244265635948048
 10
910.95065895642313
 20
-1333.8348754836993
 10
910.95990535789247
 20
-1333.8627409020398
 42
-0.0231319612896142
 10
911.00582813688436
 20
-1334.0260419488413
 42
-0.0112130424360246
 10
911.04046415942298
 20
-1334.1922455490317
 10
911.04166668453513
 20
-1334.1987421359174
 42
-0.0210527881227358
 10
911.06735315990591
 20
-1334.3797977813585
 10
911.07086375472772
 20
-1334.415203329906
 42
-0.0190029892425727
 10
911.08630522827229
 20
-1334.6687391761759
 10
911.08711520471638
 20
-1334.7042147905472
 42
-0.0137974553659721
 10
911.08556635188074
 20
-1335.0292461972836
 10
911.08472089692555
 20
-1335.0553649418641
 42
-0.0081336634218494
 10
911.06986156170274
 20
-1335.3607124094729
 42
-0.0073526923578256
 10
911.0455530283283
 20
-1335.6654606537559
 10
911.04429160454538
 20
-1335.678797328424
 42
-0.0066886138698002
 10
911.00855601849833
 20
-1336.0093833719252
 10
911.00689892902892
 20
-1336.0230049909126
 42
-0.0061359187359396
 10
910.95904832698022
 20
-1336.3797689709977
 10
910.95701082590517
 20
-1336.3936637738418
 42
-0.0056698610064979
 10
910.89636049513729
 20
-1336.7769423426853
 10
910.89395506181518
 20
-1336.7911014619106
 42
-0.0052721077277576
 10
910.81982286101743
 20
-1337.2012288015781
 10
910.81705971217377
 20
-1337.2156454369745
 42
-0.0049289272178544
 10
910.72876559407393
 20
-1337.652953948096
 10
910.72565309939114
 20
-1337.6676228009128
 42
-0.0047415956709917
 10
910.62241510785759
 20
-1338.1324195583288
 10
910.5876468974991
 20
-1338.2822266537064
 42
-0.0084404470903388
 10
910.39763045392726
 20
-1339.0424506782372
 10
910.39150376594159
 20
-1339.0653148023907
 42
-0.0039635940257975
 10
910.1700500816587
 20
-1339.8663036666342
 10
910.15667328647805
 20
-1339.9132352832301
 42
-0.0072475040838171
 10
909.88922639861858
 20
-1340.8024549996089
 10
909.81901407179259
 20
-1341.024195349577
 42
-0.0051345458829883
 10
909.5322546997287
 20
-1341.8985205374038
 10
909.51072843295651
 20
-1341.9619468045478
 42
-0.0019150016601091
 10
909.2551950260945
 20
-1342.7054959247598
 10
909.24872742169816
 20
-1342.7240833896813
 42
-0.0021524362753526
 10
909.00024937063449
 20
-1343.4284092113892
 10
908.99103894992845
 20
-1343.4541627897174
 42
-0.0024331286820841
 10
908.75478369090206
 20
-1344.1047620978086
 10
908.74573573835096
 20
-1344.1293054041644
 42
-0.0027449721784658
 10
908.52112116751607
 20
-1344.7284352830875
 10
908.51223116012522
 20
-1344.7517578729362
 42
-0.0031083229769963
 10
908.29868867351388
 20
-1345.3016819105196
 10
908.2899525418328
 20
-1345.3237716263914
 42
-0.0035311343282895
 10
908.08691135624645
 20
-1345.8267547521073
 10
908.0783260171022
 20
-1345.8475974756093
 42
-0.0040245640949912
 10
907.88521421330438
 20
-1346.3059067982099
 10
907.87677809970262
 20
-1346.325486166279
 42
-0.0046015135852397
 10
907.69302180653756
 20
-1346.7413911959243
 10
907.68473562870508
 20
-1346.7596883353858
 42
-0.0052768638270867
 10
907.50975810975365
 20
-1347.1354612196467
 10
907.50162589913009
 20
-1347.1524545581829
 42
-0.0060672675643335
 10
907.33484628636074
 20
-1347.4903701813041
 10
907.32687680588185
 20
-1347.5060354402963
 42
-0.0069904648866937
 10
907.16770841187781
 20
-1347.808371246965
 10
907.15991701226608
 20
-1347.822681796194
 42
-0.0080637022763247
 10
907.00776515192115
 20
-1348.0917170993453
 10
907.00017611929286
 20
-1348.1046449649411
 42
-0.0093006455671446
 10
906.85443544275836
 20
-1348.3426593634492
 10
906.84708477601635
 20
-1348.3541773326199
 42
-0.0107060778050952
 10
906.7071362325762
 20
-1348.5634476500015
 10
906.70007446429338
 20
-1348.5735331925721
 42
-0.0122723111405004
 10
906.56528074609855
 20
-1348.7563265220565
 10
906.56495452255001
 20
-1348.756746909859
 42
-0.0141836319641338
 10
906.42137291957033
 20
-1348.9313166676957
 10
906.41442516391783
 20
-1348.939291667961
 42
-0.0175957477207675
 10
906.27451899588368
 20
-1349.0889125563651
 42
-0.0080466359667425
 10
906.12705523084094
 20
-1349.2312350845282
 10
906.08102068633605
 20
-1349.2742555226075
 42
-0.0269600260398421
 10
905.82774044035625
 20
-1349.4865787811143
 10
905.76117330406089
 20
-1349.536530195737
 42
-0.0178362839758901
 10
905.52122881440027
 20
-1349.703548121993
 10
905.51398384339655
 20
-1349.7082166342
 42
-0.0174650732648243
 10
905.2776476459585
 20
-1349.849077599157
 42
-0.0169240130160951
 10
905.03218140009892
 20
-1349.9733698589355
 10
904.98619524454307
 20
-1349.9947318145016
 42
-0.0318883036841081
 10
904.63584438892201
 20
-1350.131070124012
 10
904.56747885375717
 20
-1350.1527707444875
 42
-0.0284435909899725
 10
904.19142872746727
 20
-1350.248988179962
 10
904.15627056696906
 20
-1350.2558817757904
 42
-0.0243909341019005
 10
903.84282710604975
 20
-1350.3016028068205
 10
903.79254637927966
 20
-1350.3064483537219
 42
-0.0196639292930407
 10
903.57695080175131
 20
-1350.3186966392354
 10
903.52512673058277
 20
-1350.3195998999722
 42
-0.0100501510670947
 10
903.41270344892359
 20
-1350.3192995016193
 10
903.38104358762007
 20
-1350.318578429735
 42
-0.0019752031166231
 10
903.33195125089821
 20
-1350.3172662695245
 10
903.32919094767999
 20
-1350.3171815776982
 42
0.0065378751991807
 10
903.28561437292137
 20
-1350.3164146864831
 42
-0.0167974694634621
 10
903.24208354998916
 20
-1350.3147547879571
 10
903.23800421072747
 20
-1350.3144617770622
 42
-0.0081283276280933
 10
903.18644441298738
 20
-1350.3099147834243
 10
903.17470483911029
 20
-1350.3086868658461
 42
-0.0126703440184251
 10
903.09998654331741
 20
-1350.2989520747747
 10
903.07719867564015
 20
-1350.2953938188593
 42
-0.0117852088426261
 10
902.95765968980265
 20
-1350.2738308237012
 10
902.90227923804468
 20
-1350.2624872834676
 42
-0.0251774592297392
 10
902.67543519903836
 20
-1350.2039892740349
 10
902.63071600918363
 20
-1350.1900224546985
 42
-0.0146525199882727
 10
902.44432302164728
 20
-1350.1257559275011
 42
-0.016692943586721
 10
902.26234536552317
 20
-1350.0499487944478
 10
902.25768873424749
 20
-1350.0478238938326
 42
-0.0191684358439037
 10
902.07250510299923
 20
-1349.9545878100432
 10
902.06917251724121
 20
-1349.9527465624892
 42
-0.0221181781806163
 10
901.8858622133373
 20
-1349.8406130641172
 10
901.88351240933059
 20
-1349.8390287661273
 42
-0.0254984685376553
 10
901.70722225894531
 20
-1349.7066176161579
 10
901.6847401112434
 20
-1349.6878653072217
 42
-0.0292492648804158
 10
901.55997117240031
 20
-1349.5707725075786
 42
-0.0159048957500434
 10
901.44613117494987
 20
-1349.442752515979
 10
901.44481238437083
 20
-1349.4411709029594
 42
-0.0343813379557752
 10
901.34217512274461
 20
-1349.2992995771897
 10
901.31068359138339
 20
-1349.2487961850952
 42
-0.0369117275705544
 10
901.22479108948653
 20
-1349.0853189441473
 42
-0.0191751379916413
 10
901.15759770393061
 20
-1348.9129143381444
 10
901.15583438017006
 20
-1348.9078209934664
 42
-0.0378178042221968
 10
901.10603966138581
 20
-1348.7188802173855
 10
901.10004436565544
 20
-1348.6863195991875
 42
-0.0184846046474589
 10
901.07932716636105
 20
-1348.544566778643
 42
-0.0179866351323981
 10
901.06899416128738
 20
-1348.4016759655599
 10
901.06893771884165
 20
-1348.4001182789498
 42
-0.0085497186139518
 10
901.06750543773785
 20
-1348.3252451139397
 42
-0.0085497186139518
  0
ENDBLK
  5
5C
100
AcDbEntity
  8
template
390
0
100
AcDbBlockEnd
  0
BLOCK
  5
5D
100
AcDbEntity
  8
notes
390
0
100
AcDbBlockBegin
  2
グループ-1
 70
               0
 10
0.0
 20
0.0
 30
0.0
  3
グループ-1
  1

  0
MTEXT
  5
5E
100
AcDbEntity
  8
0
390
0
 62
               7
100
AcDbMText
 10
-813.08442323582062
 20
104.69461420714045
 30
0.0
 40
24.432617187500004
 41
833.92979864183906
 71
               1
 72
               1
  1
＝φ30もしくはφ35の水栓取付用穴あけ加工を承ります。\P  必要な場合、ご注文の際にご指示ください。
  7
ＭＳ ゴシック
 73
               1
 44
1.0437689845677123
  0
CIRCLE
  5
5F
100
AcDbEntity
  8
0
370
               5
390
0
  6
STYLE_12
 62
               7
100
AcDbCircle
 10
-835.73584738464274
 20
92.5
 30
0.0
 40
17.5
  0
ENDBLK
  5
60
100
AcDbEntity
  8
notes
390
0
100
AcDbBlockEnd
  0
BLOCK
  5
61
100
AcDbEntity
  8
notes
390
0
100
AcDbBlockBegin
  2
*D4
 70
               1
 10
0.0
 20
0.0
 30
0.0
  3
*D4
  1

  0
LINE
  5
62
100
AcDbEntity
  8
0
370
              -2
390
0
  6
Continuous
 62
               0
100
AcDbLine
 10
1556.1523916221383
 20
5217.4400013490031
 30
0.0
 11
1556.1523916221383
 21
5344.9400013490031
 31
0.0
  0
LINE
  5
63
100
AcDbEntity
  8
0
370
              -2
390
0
  6
Continuous
 62
               0
100
AcDbLine
 10
1656.1523916221381
 20
5218.4400013490031
 30
0.0
 11
1656.1523916221381
 21
5344.9400013490031
 31
0.0
  0
LINE
  5
64
100
AcDbEntity
  8
0
370
              -2
390
0
  6
Continuous
 62
               0
100
AcDbLine
 10
1556.1523916221383
 20
5344.9400013490031
 30
0.0
 11
1656.1523916221381
 21
5344.9400013490031
 31
0.0
  0
CIRCLE
  5
65
102
{ACAD_REACTORS
330
66
102
}
100
AcDbEntity
  8
0
370
              -2
390
0
  6
Continuous
 62
               0
100
AcDbCircle
 10
1556.1523916221383
 20
5344.9400013490031
 30
0.0
 40
1.9998779296875
  0
HATCH
  5
66
100
AcDbEntity
  8
0
370
              -2
390
0
  6
Continuous
 62
               0
100
AcDbHatch
 10
0.0
 20
0.0
 30
0.0
210
0.0
220
0.0
230
1.0
  2
SOLID
 70
               1
 71
               1
 91
        1
 92
        1
 93
        1
 72
               2
 10
1556.1523916221383
 20
5344.9400013490031
 40
1.9998779296875
 50
0.0
 51
360.0
 73
               0
 97
        1
330
65
 75
               0
 76
               1
 98
        1
 10
0.0
 20
0.0
  0
CIRCLE
  5
67
102
{ACAD_REACTORS
330
68
102
}
100
AcDbEntity
  8
0
370
              -2
390
0
  6
Continuous
 62
               0
100
AcDbCircle
 10
1656.1523916221381
 20
5344.9400013490031
 30
0.0
 40
1.9998779296875
  0
HATCH
  5
68
100
AcDbEntity
  8
0
370
              -2
390
0
  6
Continuous
 62
               0
100
AcDbHatch
 10
0.0
 20
0.0
 30
0.0
210
0.0
220
0.0
230
1.0
  2
SOLID
 70
               1
 71
               1
 91
        1
 92
        1
 93
        1
 72
               2
 10
1656.1523916221381
 20
5344.9400013490031
 40
1.9998779296875
 50
0.0
 51
360.0
 73
               0
 97
        1
330
67
 75
               0
 76
               1
 98
        1
 10
0.0
 20
0.0
  0
MTEXT
  5
69
100
AcDbEntity
  8
0
390
0
 62
               0
100
AcDbMText
 10
1582.3398899399626
 20
5378.8176185365037
 30
0.0
 40
24.432617187500004
 41
0.0
 71
               1
 72
               1
  1
100
  7
ＭＳ ゴシック
 73
               1
 44
0.7828267384257843
  0
POINT
  5
6A
100
AcDbEntity
  8
Defpoints
370
               0
390
0
 62
               0
100
AcDbPoint
 10
1656.1523916221381
 20
5193.4400013490031
 30
0.0
  0
POINT
  5
6B
100
AcDbEntity
  8
Defpoints
370
               0
390
0
 62
               0
100
AcDbPoint
 10
1556.1523916221383
 20
5192.4400013490031
 30
0.0
  0
POINT
  5
6C
100
AcDbEntity
  8
Defpoints
370
               0
390
0
 62
               0
100
AcDbPoint
 10
1556.1523916221383
 20
5344.9400013490031
 30
0.0
  0
ENDBLK
  5
6D
100
AcDbEntity
  8
notes
390
0
100
AcDbBlockEnd
  0
BLOCK
  5
6E
100
AcDbEntity
  8
notes
390
0
100
AcDbBlockBegin
  2
*D5
 70
               1
 10
0.0
 20
0.0
 30
0.0
  3
*D5
  1

  0
LINE
  5
6F
100
AcDbEntity
  8
0
370
              -2
390
0
  6
Continuous
 62
               0
100
AcDbLine
 10
1656.1523916221381
 20
5218.4400013490031
 30
0.0
 11
1656.1523916221381
 21
5344.9400013490031
 31
0.0
  0
LINE
  5
70
100
AcDbEntity
  8
0
370
              -2
390
0
  6
Continuous
 62
               0
100
AcDbLine
 10
1756.1523916221381
 20
5217.4400013490031
 30
0.0
 11
1756.1523916221381
 21
5344.9400013490031
 31
0.0
  0
LINE
  5
71
100
AcDbEntity
  8
0
370
              -2
390
0
  6
Continuous
 62
               0
100
AcDbLine
 10
1656.1523916221381
 20
5344.9400013490031
 30
0.0
 11
1756.1523916221381
 21
5344.9400013490031
 31
0.0
  0
CIRCLE
  5
72
102
{ACAD_REACTORS
330
73
102
}
100
AcDbEntity
  8
0
370
              -2
390
0
  6
Continuous
 62
               0
100
AcDbCircle
 10
1656.1523916221381
 20
5344.9400013490031
 30
0.0
 40
1.9998779296875
  0
HATCH
  5
73
100
AcDbEntity
  8
0
370
              -2
390
0
  6
Continuous
 62
               0
100
AcDbHatch
 10
0.0
 20
0.0
 30
0.0
210
0.0
220
0.0
230
1.0
  2
SOLID
 70
               1
 71
               1
 91
        1
 92
        1
 93
        1
 72
               2
 10
1656.1523916221381
 20
5344.9400013490031
 40
1.9998779296875
 50
0.0
 51
360.0
 73
               0
 97
        1
330
72
 75
               0
 76
               1
 98
        1
 10
0.0
 20
0.0
  0
CIRCLE
  5
74
102
{ACAD_REACTORS
330
75
102
}
100
AcDbEntity
  8
0
370
              -2
390
0
  6
Continuous
 62
               0
100
AcDbCircle
 10
1756.1523916221381
 20
5344.9400013490031
 30
0.0
 40
1.9998779296875
  0
HATCH
  5
75
100
AcDbEntity
  8
0
370
              -2
390
0
  6
Continuous
 62
               0
100
AcDbHatch
 10
0.0
 20
0.0
 30
0.0
210
0.0
220
0.0
230
1.0
  2
SOLID
 70
               1
 71
               1
 91
        1
 92
        1
 93
        1
 72
               2
 10
1756.1523916221381
 20
5344.9400013490031
 40
1.9998779296875
 50
0.0
 51
360.0
 73
               0
 97
        1
330
74
 75
               0
 76
               1
 98
        1
 10
0.0
 20
0.0
  0
MTEXT
  5
76
100
AcDbEntity
  8
0
390
0
 62
               0
100
AcDbMText
 10
1682.3398899399624
 20
5378.8176185365037
 30
0.0
 40
24.432617187500004
 41
0.0
 71
               1
 72
               1
  1
100
  7
ＭＳ ゴシック
 73
               1
 44
0.7828267384257843
  0
POINT
  5
77
100
AcDbEntity
  8
Defpoints
370
               0
390
0
 62
               0
100
AcDbPoint
 10
1756.1523916221381
 20
5192.4400013490031
 30
0.0
  0
POINT
  5
78
100
AcDbEntity
  8
Defpoints
370
               0
390
0
 62
               0
100
AcDbPoint
 10
1656.1523916221381
 20
5193.4400013490031
 30
0.0
  0
POINT
  5
79
100
AcDbEntity
  8
Defpoints
370
               0
390
0
 62
               0
100
AcDbPoint
 10
1656.1523916221381
 20
5344.9400013490031
 30
0.0
  0
ENDBLK
  5
7A
100
AcDbEntity
  8
notes
390
0
100
AcDbBlockEnd
  0
BLOCK
  5
7B
100
AcDbEntity
  8
notes
390
0
100
AcDbBlockBegin
  2
*D6
 70
               1
 10
0.0
 20
0.0
 30
0.0
  3
*D6
  1

  0
LINE
  5
7C
100
AcDbEntity
  8
0
370
              -2
390
0
  6
Continuous
 62
               0
100
AcDbLine
 10
1316.1523916221383
 20
4852.7363311058962
 30
0.0
 11
1316.1523916221383
 21
4664.4788367991241
 31
0.0
  0
LINE
  5
7D
100
AcDbEntity
  8
0
370
              -2
390
0
  6
Continuous
 62
               0
100
AcDbLine
 10
1996.1523916221379
 20
4852.7363311058962
 30
0.0
 11
1996.1523916221379
 21
4664.4788367991241
 31
0.0
  0
LINE
  5
7E
100
AcDbEntity
  8
0
370
              -2
390
0
  6
Continuous
 62
               0
100
AcDbLine
 10
1316.1523916221383
 20
4664.4788367991241
 30
0.0
 11
1996.1523916221379
 21
4664.4788367991241
 31
0.0
  0
CIRCLE
  5
7F
102
{ACAD_REACTORS
330
80
102
}
100
AcDbEntity
  8
0
370
              -2
390
0
  6
Continuous
 62
               0
100
AcDbCircle
 10
1316.1523916221383
 20
4664.4788367991241
 30
0.0
 40
1.9998779296875
  0
HATCH
  5
80
100
AcDbEntity
  8
0
370
              -2
390
0
  6
Continuous
 62
               0
100
AcDbHatch
 10
0.0
 20
0.0
 30
0.0
210
0.0
220
0.0
230
1.0
  2
SOLID
 70
               1
 71
               1
 91
        1
 92
        1
 93
        1
 72
               2
 10
1316.1523916221383
 20
4664.4788367991241
 40
1.9998779296875
 50
0.0
 51
360.0
 73
               0
 97
        1
330
7F
 75
               0
 76
               1
 98
        1
 10
0.0
 20
0.0
  0
CIRCLE
  5
81
102
{ACAD_REACTORS
330
82
102
}
100
AcDbEntity
  8
0
370
              -2
390
0
  6
Continuous
 62
               0
100
AcDbCircle
 10
1996.1523916221379
 20
4664.4788367991241
 30
0.0
 40
1.9998779296875
  0
HATCH
  5
82
100
AcDbEntity
  8
0
370
              -2
390
0
  6
Continuous
 62
               0
100
AcDbHatch
 10
0.0
 20
0.0
 30
0.0
210
0.0
220
0.0
230
1.0
  2
SOLID
 70
               1
 71
               1
 91
        1
 92
        1
 93
        1
 72
               2
 10
1996.1523916221379
 20
4664.4788367991241
 40
1.9998779296875
 50
0.0
 51
360.0
 73
               0
 97
        1
330
81
 75
               0
 76
               1
 98
        1
 10
0.0
 20
0.0
  0
MTEXT
  5
83
100
AcDbEntity
  8
0
390
0
 62
               0
100
AcDbMText
 10
1632.3398899399626
 20
4698.3564539866238
 30
0.0
 40
24.432617187500004
 41
0.0
 71
               1
 72
               1
  1
680
  7
ＭＳ ゴシック
 73
               1
 44
0.7828267384257843
  0
POINT
  5
84
100
AcDbEntity
  8
Defpoints
370
               0
390
0
 62
               0
100
AcDbPoint
 10
1996.1523916221379
 20
4877.7363311058962
 30
0.0
  0
POINT
  5
85
100
AcDbEntity
  8
Defpoints
370
               0
390
0
 62
               0
100
AcDbPoint
 10
1316.1523916221383
 20
4877.7363311058962
 30
0.0
  0
POINT
  5
86
100
AcDbEntity
  8
Defpoints
370
               0
390
0
 62
               0
100
AcDbPoint
 10
1316.1523916221383
 20
4664.4788367991241
 30
0.0
  0
ENDBLK
  5
87
100
AcDbEntity
  8
notes
390
0
100
AcDbBlockEnd
  0
BLOCK
  5
88
100
AcDbEntity
  8
notes
390
0
100
AcDbBlockBegin
  2
*D7
 70
               1
 10
0.0
 20
0.0
 30
0.0
  3
*D7
  1

  0
LINE
  5
89
100
AcDbEntity
  8
0
370
              -2
390
0
  6
Continuous
 62
               0
100
AcDbLine
 10
1286.1523916221383
 20
5174.3636751427903
 30
0.0
 11
1286.1523916221383
 21
5394.9400013490031
 31
0.0
  0
LINE
  5
8A
100
AcDbEntity
  8
0
370
              -2
390
0
  6
Continuous
 62
               0
100
AcDbLine
 10
2026.1523916221379
 20
5174.3636751427703
 30
0.0
 11
2026.1523916221379
 21
5394.9400013490031
 31
0.0
  0
LINE
  5
8B
100
AcDbEntity
  8
0
370
              -2
390
0
  6
Continuous
 62
               0
100
AcDbLine
 10
1286.1523916221383
 20
5394.9400013490031
 30
0.0
 11
2026.1523916221379
 21
5394.9400013490031
 31
0.0
  0
CIRCLE
  5
8C
102
{ACAD_REACTORS
330
8D
102
}
100
AcDbEntity
  8
0
370
              -2
390
0
  6
Continuous
 62
               0
100
AcDbCircle
 10
1286.1523916221383
 20
5394.9400013490031
 30
0.0
 40
1.9998779296875
  0
HATCH
  5
8D
100
AcDbEntity
  8
0
370
              -2
390
0
  6
Continuous
 62
               0
100
AcDbHatch
 10
0.0
 20
0.0
 30
0.0
210
0.0
220
0.0
230
1.0
  2
SOLID
 70
               1
 71
               1
 91
        1
 92
        1
 93
        1
 72
               2
 10
1286.1523916221383
 20
5394.9400013490031
 40
1.9998779296875
 50
0.0
 51
360.0
 73
               0
 97
        1
330
8C
 75
               0
 76
               1
 98
        1
 10
0.0
 20
0.0
  0
CIRCLE
  5
8E
102
{ACAD_REACTORS
330
8F
102
}
100
AcDbEntity
  8
0
370
              -2
390
0
  6
Continuous
 62
               0
100
AcDbCircle
 10
2026.1523916221379
 20
5394.9400013490031
 30
0.0
 40
1.9998779296875
  0
HATCH
  5
8F
100
AcDbEntity
  8
0
370
              -2
390
0
  6
Continuous
 62
               0
100
AcDbHatch
 10
0.0
 20
0.0
 30
0.0
210
0.0
220
0.0
230
1.0
  2
SOLID
 70
               1
 71
               1
 91
        1
 92
        1
 93
        1
 72
               2
 10
2026.1523916221379
 20
5394.9400013490031
 40
1.9998779296875
 50
0.0
 51
360.0
 73
               0
 97
        1
330
8E
 75
               0
 76
               1
 98
        1
 10
0.0
 20
0.0
  0
MTEXT
  5
90
100
AcDbEntity
  8
0
390
0
 62
               0
100
AcDbMText
 10
1632.3398899399626
 20
5428.8176185365037
 30
0.0
 40
24.432617187500004
 41
0.0
 71
               1
 72
               1
  1
740
  7
ＭＳ ゴシック
 73
               1
 44
0.7828267384257843
  0
POINT
  5
91
100
AcDbEntity
  8
Defpoints
370
               0
390
0
 62
               0
100
AcDbPoint
 10
2026.1523916221379
 20
5149.3636751427703
 30
0.0
  0
POINT
  5
92
100
AcDbEntity
  8
Defpoints
370
               0
390
0
 62
               0
100
AcDbPoint
 10
1286.1523916221383
 20
5149.3636751427903
 30
0.0
  0
POINT
  5
93
100
AcDbEntity
  8
Defpoints
370
               0
390
0
 62
               0
100
AcDbPoint
 10
1286.1523916221383
 20
5394.9400013490031
 30
0.0
  0
ENDBLK
  5
94
100
AcDbEntity
  8
notes
390
0
100
AcDbBlockEnd
  0
BLOCK
  5
95
100
AcDbEntity
  8
notes
390
0
100
AcDbBlockBegin
  2
*D8
 70
               1
 10
0.0
 20
0.0
 30
0.0
  3
*D8
  1

  0
LINE
  5
96
100
AcDbEntity
  8
0
370
              -2
390
0
  6
Continuous
 62
               0
100
AcDbLine
 10
1365.7168521247484
 20
5244.9400013490031
 30
0.0
 11
1186.1523916221383
 21
5244.9400013490031
 31
0.0
  0
LINE
  5
97
100
AcDbEntity
  8
0
370
              -2
390
0
  6
Continuous
 62
               0
100
AcDbLine
 10
1263.7276979374135
 20
5129.9400013490031
 30
0.0
 11
1186.1523916221383
 21
5129.9400013490031
 31
0.0
  0
LINE
  5
98
100
AcDbEntity
  8
0
370
              -2
390
0
  6
Continuous
 62
               0
100
AcDbLine
 10
1186.1523916221383
 20
5244.9400013490031
 30
0.0
 11
1186.1523916221383
 21
5129.9400013490031
 31
0.0
  0
CIRCLE
  5
99
102
{ACAD_REACTORS
330
9A
102
}
100
AcDbEntity
  8
0
370
              -2
390
0
  6
Continuous
 62
               0
100
AcDbCircle
 10
1186.1523916221383
 20
5244.9400013490031
 30
0.0
 40
1.9998779296875
  0
HATCH
  5
9A
100
AcDbEntity
  8
0
370
              -2
390
0
  6
Continuous
 62
               0
100
AcDbHatch
 10
0.0
 20
0.0
 30
0.0
210
0.0
220
0.0
230
1.0
  2
SOLID
 70
               1
 71
               1
 91
        1
 92
        1
 93
        1
 72
               2
 10
1186.1523916221383
 20
5244.9400013490031
 40
1.9998779296875
 50
0.0
 51
360.0
 73
               0
 97
        1
330
99
 75
               0
 76
               1
 98
        1
 10
0.0
 20
0.0
  0
CIRCLE
  5
9B
102
{ACAD_REACTORS
330
9C
102
}
100
AcDbEntity
  8
0
370
              -2
390
0
  6
Continuous
 62
               0
100
AcDbCircle
 10
1186.1523916221383
 20
5129.9400013490031
 30
0.0
 40
1.9998779296875
  0
HATCH
  5
9C
100
AcDbEntity
  8
0
370
              -2
390
0
  6
Continuous
 62
               0
100
AcDbHatch
 10
0.0
 20
0.0
 30
0.0
210
0.0
220
0.0
230
1.0
  2
SOLID
 70
               1
 71
               1
 91
        1
 92
        1
 93
        1
 72
               2
 10
1186.1523916221383
 20
5129.9400013490031
 40
1.9998779296875
 50
0.0
 51
360.0
 73
               0
 97
        1
330
9B
 75
               0
 76
               1
 98
        1
 10
0.0
 20
0.0
  0
MTEXT
  5
9D
100
AcDbEntity
  8
0
390
0
 62
               0
100
AcDbMText
 10
1152.2747744346384
 20
5163.627499666828
 30
0.0
 40
24.432617187500004
 41
0.0
 71
               1
 72
               1
  1
115
  7
ＭＳ ゴシック
 11
0.0
 21
1.0
 31
0.0
 73
               1
 44
0.7828267384257843
  0
POINT
  5
9E
100
AcDbEntity
  8
Defpoints
370
               0
390
0
 62
               0
100
AcDbPoint
 10
1288.7276979374135
 20
5129.9400013490031
 30
0.0
  0
POINT
  5
9F
100
AcDbEntity
  8
Defpoints
370
               0
390
0
 62
               0
100
AcDbPoint
 10
1390.7168521247484
 20
5244.9400013490031
 30
0.0
  0
POINT
  5
A0
100
AcDbEntity
  8
Defpoints
370
               0
390
0
 62
               0
100
AcDbPoint
 10
1186.1523916221383
 20
5244.9400013490031
 30
0.0
  0
ENDBLK
  5
A1
100
AcDbEntity
  8
notes
390
0
100
AcDbBlockEnd
  0
BLOCK
  5
A2
100
AcDbEntity
  8
notes
390
0
100
AcDbBlockBegin
  2
*D9
 70
               1
 10
0.0
 20
0.0
 30
0.0
  3
*D9
  1

  0
LINE
  5
A3
100
AcDbEntity
  8
0
370
              -2
390
0
  6
Continuous
 62
               0
100
AcDbLine
 10
1263.7276979374135
 20
5129.9400013490031
 30
0.0
 11
1186.1523916221383
 21
5129.9400013490031
 31
0.0
  0
LINE
  5
A4
100
AcDbEntity
  8
0
370
              -2
390
0
  6
Continuous
 62
               0
100
AcDbLine
 10
1365.269290445977
 20
4789.9400013490031
 30
0.0
 11
1186.1523916221383
 21
4789.9400013490031
 31
0.0
  0
LINE
  5
A5
100
AcDbEntity
  8
0
370
              -2
390
0
  6
Continuous
 62
               0
100
AcDbLine
 10
1186.1523916221383
 20
5129.9400013490031
 30
0.0
 11
1186.1523916221383
 21
4789.9400013490031
 31
0.0
  0
CIRCLE
  5
A6
102
{ACAD_REACTORS
330
A7
102
}
100
AcDbEntity
  8
0
370
              -2
390
0
  6
Continuous
 62
               0
100
AcDbCircle
 10
1186.1523916221383
 20
5129.9400013490031
 30
0.0
 40
1.9998779296875
  0
HATCH
  5
A7
100
AcDbEntity
  8
0
370
              -2
390
0
  6
Continuous
 62
               0
100
AcDbHatch
 10
0.0
 20
0.0
 30
0.0
210
0.0
220
0.0
230
1.0
  2
SOLID
 70
               1
 71
               1
 91
        1
 92
        1
 93
        1
 72
               2
 10
1186.1523916221383
 20
5129.9400013490031
 40
1.9998779296875
 50
0.0
 51
360.0
 73
               0
 97
        1
330
A6
 75
               0
 76
               1
 98
        1
 10
0.0
 20
0.0
  0
CIRCLE
  5
A8
102
{ACAD_REACTORS
330
A9
102
}
100
AcDbEntity
  8
0
370
              -2
390
0
  6
Continuous
 62
               0
100
AcDbCircle
 10
1186.1523916221383
 20
4789.9400013490031
 30
0.0
 40
1.9998779296875
  0
HATCH
  5
A9
100
AcDbEntity
  8
0
370
              -2
390
0
  6
Continuous
 62
               0
100
AcDbHatch
 10
0.0
 20
0.0
 30
0.0
210
0.0
220
0.0
230
1.0
  2
SOLID
 70
               1
 71
               1
 91
        1
 92
        1
 93
        1
 72
               2
 10
1186.1523916221383
 20
4789.9400013490031
 40
1.9998779296875
 50
0.0
 51
360.0
 73
               0
 97
        1
330
A8
 75
               0
 76
               1
 98
        1
 10
0.0
 20
0.0
  0
MTEXT
  5
AA
100
AcDbEntity
  8
0
390
0
 62
               0
100
AcDbMText
 10
1152.2747744346384
 20
4936.127499666828
 30
0.0
 40
24.432617187500004
 41
0.0
 71
               1
 72
               1
  1
340
  7
ＭＳ ゴシック
 11
0.0
 21
1.0
 31
0.0
 73
               1
 44
0.7828267384257843
  0
POINT
  5
AB
100
AcDbEntity
  8
Defpoints
370
               0
390
0
 62
               0
100
AcDbPoint
 10
1390.269290445977
 20
4789.9400013490031
 30
0.0
  0
POINT
  5
AC
100
AcDbEntity
  8
Defpoints
370
               0
390
0
 62
               0
100
AcDbPoint
 10
1288.7276979374135
 20
5129.9400013490031
 30
0.0
  0
POINT
  5
AD
100
AcDbEntity
  8
Defpoints
370
               0
390
0
 62
               0
100
AcDbPoint
 10
1186.1523916221383
 20
5129.9400013490031
 30
0.0
  0
ENDBLK
  5
AE
100
AcDbEntity
  8
notes
390
0
100
AcDbBlockEnd
  0
BLOCK
  5
AF
100
AcDbEntity
  8
notes
390
0
100
AcDbBlockBegin
  2
*D10
 70
               1
 10
0.0
 20
0.0
 30
0.0
  3
*D10
  1

  0
LINE
  5
B0
100
AcDbEntity
  8
0
370
              -2
390
0
  6
Continuous
 62
               0
100
AcDbLine
 10
1961.6129499558176
 20
5244.8149696287101
 30
0.0
 11
2126.1523916221377
 21
5244.8149696287101
 31
0.0
  0
LINE
  5
B1
100
AcDbEntity
  8
0
370
              -2
390
0
  6
Continuous
 62
               0
100
AcDbLine
 10
1845.2106486288653
 20
4764.4788367991241
 30
0.0
 11
2126.1523916221377
 21
4764.4788367991241
 31
0.0
  0
LINE
  5
B2
100
AcDbEntity
  8
0
370
              -2
390
0
  6
Continuous
 62
               0
100
AcDbLine
 10
2126.1523916221377
 20
5244.8149696287101
 30
0.0
 11
2126.1523916221377
 21
4764.4788367991241
 31
0.0
  0
CIRCLE
  5
B3
102
{ACAD_REACTORS
330
B4
102
}
100
AcDbEntity
  8
0
370
              -2
390
0
  6
Continuous
 62
               0
100
AcDbCircle
 10
2126.1523916221377
 20
5244.8149696287101
 30
0.0
 40
1.9998779296875
  0
HATCH
  5
B4
100
AcDbEntity
  8
0
370
              -2
390
0
  6
Continuous
 62
               0
100
AcDbHatch
 10
0.0
 20
0.0
 30
0.0
210
0.0
220
0.0
230
1.0
  2
SOLID
 70
               1
 71
               1
 91
        1
 92
        1
 93
        1
 72
               2
 10
2126.1523916221377
 20
5244.8149696287101
 40
1.9998779296875
 50
0.0
 51
360.0
 73
               0
 97
        1
330
B3
 75
               0
 76
               1
 98
        1
 10
0.0
 20
0.0
  0
CIRCLE
  5
B5
102
{ACAD_REACTORS
330
B6
102
}
100
AcDbEntity
  8
0
370
              -2
390
0
  6
Continuous
 62
               0
100
AcDbCircle
 10
2126.1523916221377
 20
4764.4788367991241
 30
0.0
 40
1.9998779296875
  0
HATCH
  5
B6
100
AcDbEntity
  8
0
370
              -2
390
0
  6
Continuous
 62
               0
100
AcDbHatch
 10
0.0
 20
0.0
 30
0.0
210
0.0
220
0.0
230
1.0
  2
SOLID
 70
               1
 71
               1
 91
        1
 92
        1
 93
        1
 72
               2
 10
2126.1523916221377
 20
4764.4788367991241
 40
1.9998779296875
 50
0.0
 51
360.0
 73
               0
 97
        1
330
B5
 75
               0
 76
               1
 98
        1
 10
0.0
 20
0.0
  0
MTEXT
  5
B7
100
AcDbEntity
  8
0
390
0
 62
               0
100
AcDbMText
 10
2092.2747744346379
 20
4980.8344015317416
 30
0.0
 40
24.432617187500004
 41
0.0
 71
               1
 72
               1
  1
480
  7
ＭＳ ゴシック
 11
0.0
 21
1.0
 31
0.0
 73
               1
 44
0.7828267384257843
  0
POINT
  5
B8
100
AcDbEntity
  8
Defpoints
370
               0
390
0
 62
               0
100
AcDbPoint
 10
1820.2106486288653
 20
4764.4788367991241
 30
0.0
  0
POINT
  5
B9
100
AcDbEntity
  8
Defpoints
370
               0
390
0
 62
               0
100
AcDbPoint
 10
1936.6129499558176
 20
5244.8149696287101
 30
0.0
  0
POINT
  5
BA
100
AcDbEntity
  8
Defpoints
370
               0
390
0
 62
               0
100
AcDbPoint
 10
2126.1523916221377
 20
5244.8149696287101
 30
0.0
  0
ENDBLK
  5
BB
100
AcDbEntity
  8
notes
390
0
100
AcDbBlockEnd
  0
BLOCK
  5
BC
100
AcDbEntity
  8
notes
390
0
100
AcDbBlockBegin
  2
*D11
 70
               1
 10
0.0
 20
0.0
 30
0.0
  3
*D11
  1

  0
LINE
  5
BD
100
AcDbEntity
  8
0
370
              -2
390
0
  6
Continuous
 62
               0
100
AcDbLine
 10
1516.1523916221383
 20
4042.5000000000009
 30
0.0
 11
1516.1523916221383
 21
4156.1183608550336
 31
0.0
  0
LINE
  5
BE
100
AcDbEntity
  8
0
370
              -2
390
0
  6
Continuous
 62
               0
100
AcDbLine
 10
1796.1523916221381
 20
4042.5000000000009
 30
0.0
 11
1796.1523916221381
 21
4156.1183608550336
 31
0.0
  0
LINE
  5
BF
100
AcDbEntity
  8
0
370
              -2
390
0
  6
Continuous
 62
               0
100
AcDbLine
 10
1516.1523916221383
 20
4156.1183608550336
 30
0.0
 11
1796.1523916221381
 21
4156.1183608550336
 31
0.0
  0
CIRCLE
  5
C0
102
{ACAD_REACTORS
330
C1
102
}
100
AcDbEntity
  8
0
370
              -2
390
0
  6
Continuous
 62
               0
100
AcDbCircle
 10
1516.1523916221383
 20
4156.1183608550336
 30
0.0
 40
1.9998779296875
  0
HATCH
  5
C1
100
AcDbEntity
  8
0
370
              -2
390
0
  6
Continuous
 62
               0
100
AcDbHatch
 10
0.0
 20
0.0
 30
0.0
210
0.0
220
0.0
230
1.0
  2
SOLID
 70
               1
 71
               1
 91
        1
 92
        1
 93
        1
 72
               2
 10
1516.1523916221383
 20
4156.1183608550336
 40
1.9998779296875
 50
0.0
 51
360.0
 73
               0
 97
        1
330
C0
 75
               0
 76
               1
 98
        1
 10
0.0
 20
0.0
  0
CIRCLE
  5
C2
102
{ACAD_REACTORS
330
C3
102
}
100
AcDbEntity
  8
0
370
              -2
390
0
  6
Continuous
 62
               0
100
AcDbCircle
 10
1796.1523916221381
 20
4156.1183608550336
 30
0.0
 40
1.9998779296875
  0
HATCH
  5
C3
100
AcDbEntity
  8
0
370
              -2
390
0
  6
Continuous
 62
               0
100
AcDbHatch
 10
0.0
 20
0.0
 30
0.0
210
0.0
220
0.0
230
1.0
  2
SOLID
 70
               1
 71
               1
 91
        1
 92
        1
 93
        1
 72
               2
 10
1796.1523916221381
 20
4156.1183608550336
 40
1.9998779296875
 50
0.0
 51
360.0
 73
               0
 97
        1
330
C2
 75
               0
 76
               1
 98
        1
 10
0.0
 20
0.0
  0
MTEXT
  5
C4
100
AcDbEntity
  8
0
390
0
 62
               0
100
AcDbMText
 10
1632.3398899399626
 20
4189.9959780425343
 30
0.0
 40
24.432617187500004
 41
0.0
 71
               1
 72
               1
  1
280
  7
ＭＳ ゴシック
 73
               1
 44
0.7828267384257843
  0
POINT
  5
C5
100
AcDbEntity
  8
Defpoints
370
               0
390
0
 62
               0
100
AcDbPoint
 10
1796.1523916221381
 20
4017.5000000000009
 30
0.0
  0
POINT
  5
C6
100
AcDbEntity
  8
Defpoints
370
               0
390
0
 62
               0
100
AcDbPoint
 10
1516.1523916221383
 20
4017.5000000000009
 30
0.0
  0
POINT
  5
C7
100
AcDbEntity
  8
Defpoints
370
               0
390
0
 62
               0
100
AcDbPoint
 10
1516.1523916221383
 20
4156.1183608550336
 30
0.0
  0
ENDBLK
  5
C8
100
AcDbEntity
  8
notes
390
0
100
AcDbBlockEnd
  0
BLOCK
  5
C9
100
AcDbEntity
  8
notes
390
0
100
AcDbBlockBegin
  2
*D12
 70
               1
 10
0.0
 20
0.0
 30
0.0
  3
*D12
  1

  0
LINE
  5
CA
100
AcDbEntity
  8
0
370
              -2
390
0
  6
Continuous
 62
               0
100
AcDbLine
 10
2772.8161385164522
 20
5244.8882671739875
 30
0.0
 11
2847.5408535694537
 21
5244.8882671739875
 31
0.0
  0
LINE
  5
CB
100
AcDbEntity
  8
0
370
              -2
390
0
  6
Continuous
 62
               0
100
AcDbLine
 10
2772.8161385164522
 20
5214.8882671739875
 30
0.0
 11
2847.5408535694537
 21
5214.8882671739875
 31
0.0
  0
LINE
  5
CC
100
AcDbEntity
  8
0
370
              -2
390
0
  6
Continuous
 62
               0
100
AcDbLine
 10
2847.5408535694537
 20
5244.8882671739875
 30
0.0
 11
2847.5408535694537
 21
5289.75
 31
0.0
  0
LINE
  5
CD
100
AcDbEntity
  8
0
370
              -2
390
0
  6
Continuous
 62
               0
100
AcDbLine
 10
2847.5408535694537
 20
5244.8882671739875
 30
0.0
 11
2847.5408535694537
 21
5214.8882671739875
 31
0.0
  0
CIRCLE
  5
CE
102
{ACAD_REACTORS
330
CF
102
}
100
AcDbEntity
  8
0
370
              -2
390
0
  6
Continuous
 62
               0
100
AcDbCircle
 10
2847.5408535694537
 20
5244.8882671739875
 30
0.0
 40
1.9998779296875
  0
HATCH
  5
CF
100
AcDbEntity
  8
0
370
              -2
390
0
  6
Continuous
 62
               0
100
AcDbHatch
 10
0.0
 20
0.0
 30
0.0
210
0.0
220
0.0
230
1.0
  2
SOLID
 70
               1
 71
               1
 91
        1
 92
        1
 93
        1
 72
               2
 10
2847.5408535694537
 20
5244.8882671739875
 40
1.9998779296875
 50
0.0
 51
360.0
 73
               0
 97
        1
330
CE
 75
               0
 76
               1
 98
        1
 10
0.0
 20
0.0
  0
CIRCLE
  5
D0
102
{ACAD_REACTORS
330
D1
102
}
100
AcDbEntity
  8
0
370
              -2
390
0
  6
Continuous
 62
               0
100
AcDbCircle
 10
2847.5408535694537
 20
5214.8882671739875
 30
0.0
 40
1.9998779296875
  0
HATCH
  5
D1
100
AcDbEntity
  8
0
370
              -2
390
0
  6
Continuous
 62
               0
100
AcDbHatch
 10
0.0
 20
0.0
 30
0.0
210
0.0
220
0.0
230
1.0
  2
SOLID
 70
               1
 71
               1
 91
        1
 92
        1
 93
        1
 72
               2
 10
2847.5408535694537
 20
5214.8882671739875
 40
1.9998779296875
 50
0.0
 51
360.0
 73
               0
 97
        1
330
D0
 75
               0
 76
               1
 98
        1
 10
0.0
 20
0.0
  0
MTEXT
  5
D2
100
AcDbEntity
  8
0
390
0
 62
               0
100
AcDbMText
 10
2813.6632363819535
 20
5258.0
 30
0.0
 40
24.432617187500004
 41
0.0
 71
               1
 72
               1
  1
30
  7
ＭＳ ゴシック
 11
0.0
 21
1.0
 31
0.0
 73
               1
 44
0.7828267384257843
  0
POINT
  5
D3
100
AcDbEntity
  8
Defpoints
370
               0
390
0
 62
               0
100
AcDbPoint
 10
2747.8161385164522
 20
5214.8882671739875
 30
0.0
  0
POINT
  5
D4
100
AcDbEntity
  8
Defpoints
370
               0
390
0
 62
               0
100
AcDbPoint
 10
2747.8161385164522
 20
5244.8882671739875
 30
0.0
  0
POINT
  5
D5
100
AcDbEntity
  8
Defpoints
370
               0
390
0
 62
               0
100
AcDbPoint
 10
2847.5408535694537
 20
5244.8882671739875
 30
0.0
  0
ENDBLK
  5
D6
100
AcDbEntity
  8
notes
390
0
100
AcDbBlockEnd
  0
BLOCK
  5
D7
100
AcDbEntity
  8
notes
390
0
100
AcDbBlockBegin
  2
*D13
 70
               1
 10
0.0
 20
0.0
 30
0.0
  3
*D13
  1

  0
LINE
  5
D8
100
AcDbEntity
  8
0
370
              -2
390
0
  6
Continuous
 62
               0
100
AcDbLine
 10
2773.0922913228851
 20
5214.8882671739875
 30
0.0
 11
2847.5408535694537
 21
5214.8882671739875
 31
0.0
  0
LINE
  5
D9
100
AcDbEntity
  8
0
370
              -2
390
0
  6
Continuous
 62
               0
100
AcDbLine
 10
2773.0922913228851
 20
4914.8882671739848
 30
0.0
 11
2847.5408535694537
 21
4914.8882671739848
 31
0.0
  0
LINE
  5
DA
100
AcDbEntity
  8
0
370
              -2
390
0
  6
Continuous
 62
               0
100
AcDbLine
 10
2847.5408535694537
 20
5214.8882671739875
 30
0.0
 11
2847.5408535694537
 21
4914.8882671739848
 31
0.0
  0
CIRCLE
  5
DB
102
{ACAD_REACTORS
330
DC
102
}
100
AcDbEntity
  8
0
370
              -2
390
0
  6
Continuous
 62
               0
100
AcDbCircle
 10
2847.5408535694537
 20
5214.8882671739875
 30
0.0
 40
1.9998779296875
  0
HATCH
  5
DC
100
AcDbEntity
  8
0
370
              -2
390
0
  6
Continuous
 62
               0
100
AcDbHatch
 10
0.0
 20
0.0
 30
0.0
210
0.0
220
0.0
230
1.0
  2
SOLID
 70
               1
 71
               1
 91
        1
 92
        1
 93
        1
 72
               2
 10
2847.5408535694537
 20
5214.8882671739875
 40
1.9998779296875
 50
0.0
 51
360.0
 73
               0
 97
        1
330
DB
 75
               0
 76
               1
 98
        1
 10
0.0
 20
0.0
  0
CIRCLE
  5
DD
102
{ACAD_REACTORS
330
DE
102
}
100
AcDbEntity
  8
0
370
              -2
390
0
  6
Continuous
 62
               0
100
AcDbCircle
 10
2847.5408535694537
 20
4914.8882671739848
 30
0.0
 40
1.9998779296875
  0
HATCH
  5
DE
100
AcDbEntity
  8
0
370
              -2
390
0
  6
Continuous
 62
               0
100
AcDbHatch
 10
0.0
 20
0.0
 30
0.0
210
0.0
220
0.0
230
1.0
  2
SOLID
 70
               1
 71
               1
 91
        1
 92
        1
 93
        1
 72
               2
 10
2847.5408535694537
 20
4914.8882671739848
 40
1.9998779296875
 50
0.0
 51
360.0
 73
               0
 97
        1
330
DD
 75
               0
 76
               1
 98
        1
 10
0.0
 20
0.0
  0
MTEXT
  5
DF
100
AcDbEntity
  8
0
390
0
 62
               0
100
AcDbMText
 10
2813.6632363819535
 20
5041.0757654918107
 30
0.0
 40
24.432617187500004
 41
0.0
 71
               1
 72
               1
  1
300
  7
ＭＳ ゴシック
 11
0.0
 21
1.0
 31
0.0
 73
               1
 44
0.7828267384257843
  0
POINT
  5
E0
100
AcDbEntity
  8
Defpoints
370
               0
390
0
 62
               0
100
AcDbPoint
 10
2748.0922913228851
 20
4914.8882671739848
 30
0.0
  0
POINT
  5
E1
100
AcDbEntity
  8
Defpoints
370
               0
390
0
 62
               0
100
AcDbPoint
 10
2748.0922913228851
 20
5214.8882671739875
 30
0.0
  0
POINT
  5
E2
100
AcDbEntity
  8
Defpoints
370
               0
390
0
 62
               0
100
AcDbPoint
 10
2847.5408535694537
 20
5214.8882671739875
 30
0.0
  0
ENDBLK
  5
E3
100
AcDbEntity
  8
notes
390
0
100
AcDbBlockEnd
  0
BLOCK
  5
E4
100
AcDbEntity
  8
notes
390
0
100
AcDbBlockBegin
  2
*D14
 70
               1
 10
0.0
 20
0.0
 30
0.0
  3
*D14
  1

  0
LINE
  5
E5
100
AcDbEntity
  8
0
370
              -2
390
0
  6
Continuous
 62
               0
100
AcDbLine
 10
2497.5408535694537
 20
4889.8882671739848
 30
0.0
 11
2497.5408535694537
 21
4814.8882671739848
 31
0.0
  0
LINE
  5
E6
100
AcDbEntity
  8
0
370
              -2
390
0
  6
Continuous
 62
               0
100
AcDbLine
 10
2747.5408535694537
 20
4889.8882671739848
 30
0.0
 11
2747.5408535694537
 21
4814.8882671739848
 31
0.0
  0
LINE
  5
E7
100
AcDbEntity
  8
0
370
              -2
390
0
  6
Continuous
 62
               0
100
AcDbLine
 10
2497.5408535694537
 20
4814.8882671739848
 30
0.0
 11
2747.5408535694537
 21
4814.8882671739848
 31
0.0
  0
CIRCLE
  5
E8
102
{ACAD_REACTORS
330
E9
102
}
100
AcDbEntity
  8
0
370
              -2
390
0
  6
Continuous
 62
               0
100
AcDbCircle
 10
2497.5408535694537
 20
4814.8882671739848
 30
0.0
 40
1.9998779296875
  0
HATCH
  5
E9
100
AcDbEntity
  8
0
370
              -2
390
0
  6
Continuous
 62
               0
100
AcDbHatch
 10
0.0
 20
0.0
 30
0.0
210
0.0
220
0.0
230
1.0
  2
SOLID
 70
               1
 71
               1
 91
        1
 92
        1
 93
        1
 72
               2
 10
2497.5408535694537
 20
4814.8882671739848
 40
1.9998779296875
 50
0.0
 51
360.0
 73
               0
 97
        1
330
E8
 75
               0
 76
               1
 98
        1
 10
0.0
 20
0.0
  0
CIRCLE
  5
EA
102
{ACAD_REACTORS
330
EB
102
}
100
AcDbEntity
  8
0
370
              -2
390
0
  6
Continuous
 62
               0
100
AcDbCircle
 10
2747.5408535694537
 20
4814.8882671739848
 30
0.0
 40
1.9998779296875
  0
HATCH
  5
EB
100
AcDbEntity
  8
0
370
              -2
390
0
  6
Continuous
 62
               0
100
AcDbHatch
 10
0.0
 20
0.0
 30
0.0
210
0.0
220
0.0
230
1.0
  2
SOLID
 70
               1
 71
               1
 91
        1
 92
        1
 93
        1
 72
               2
 10
2747.5408535694537
 20
4814.8882671739848
 40
1.9998779296875
 50
0.0
 51
360.0
 73
               0
 97
        1
330
EA
 75
               0
 76
               1
 98
        1
 10
0.0
 20
0.0
  0
MTEXT
  5
EC
100
AcDbEntity
  8
0
390
0
 62
               0
100
AcDbMText
 10
2598.7283518872782
 20
4848.7658843614845
 30
0.0
 40
24.432617187500004
 41
0.0
 71
               1
 72
               1
  1
250
  7
ＭＳ ゴシック
 73
               1
 44
0.7828267384257843
  0
POINT
  5
ED
100
AcDbEntity
  8
Defpoints
370
               0
390
0
 62
               0
100
AcDbPoint
 10
2747.5408535694537
 20
4914.8882671739848
 30
0.0
  0
POINT
  5
EE
100
AcDbEntity
  8
Defpoints
370
               0
390
0
 62
               0
100
AcDbPoint
 10
2497.5408535694537
 20
4914.8882671739848
 30
0.0
  0
POINT
  5
EF
100
AcDbEntity
  8
Defpoints
370
               0
390
0
 62
               0
100
AcDbPoint
 10
2497.5408535694537
 20
4814.8882671739848
 30
0.0
  0
ENDBLK
  5
F0
100
AcDbEntity
  8
notes
390
0
100
AcDbBlockEnd
  0
BLOCK
  5
F1
100
AcDbEntity
  8
notes
390
0
100
AcDbBlockBegin
  2
*D15
 70
               1
 10
0.0
 20
0.0
 30
0.0
  3
*D15
  1

  0
LINE
  5
F2
100
AcDbEntity
  8
0
370
              -2
390
0
  6
Continuous
 62
               0
100
AcDbLine
 10
2595.2788327222165
 20
4056.118360855045
 30
0.0
 11
2585.2692904459773
 21
4056.118360855045
 31
0.0
  0
LINE
  5
F3
100
AcDbEntity
  8
0
370
              -2
390
0
  6
Continuous
 62
               0
100
AcDbLine
 10
2569.361572094705
 20
3911.1183608479009
 30
0.0
 11
2585.2692904459773
 21
3911.1183608479009
 31
0.0
  0
LINE
  5
F4
100
AcDbEntity
  8
0
370
              -2
390
0
  6
Continuous
 62
               0
100
AcDbLine
 10
2585.2692904459773
 20
4056.118360855045
 30
0.0
 11
2585.2692904459773
 21
4224.9906506758443
 31
0.0
  0
LINE
  5
F5
100
AcDbEntity
  8
0
370
              -2
390
0
  6
Continuous
 62
               0
100
AcDbLine
 10
2585.2692904459773
 20
4056.118360855045
 30
0.0
 11
2585.2692904459773
 21
3911.1183608479009
 31
0.0
  0
CIRCLE
  5
F6
102
{ACAD_REACTORS
330
F7
102
}
100
AcDbEntity
  8
0
370
              -2
390
0
  6
Continuous
 62
               0
100
AcDbCircle
 10
2585.2692904459773
 20
4056.118360855045
 30
0.0
 40
1.9998779296875
  0
HATCH
  5
F7
100
AcDbEntity
  8
0
370
              -2
390
0
  6
Continuous
 62
               0
100
AcDbHatch
 10
0.0
 20
0.0
 30
0.0
210
0.0
220
0.0
230
1.0
  2
SOLID
 70
               1
 71
               1
 91
        1
 92
        1
 93
        1
 72
               2
 10
2585.2692904459773
 20
4056.118360855045
 40
1.9998779296875
 50
0.0
 51
360.0
 73
               0
 97
        1
330
F6
 75
               0
 76
               1
 98
        1
 10
0.0
 20
0.0
  0
CIRCLE
  5
F8
102
{ACAD_REACTORS
330
F9
102
}
100
AcDbEntity
  8
0
370
              -2
390
0
  6
Continuous
 62
               0
100
AcDbCircle
 10
2585.2692904459773
 20
3911.1183608479009
 30
0.0
 40
1.9998779296875
  0
HATCH
  5
F9
100
AcDbEntity
  8
0
370
              -2
390
0
  6
Continuous
 62
               0
100
AcDbHatch
 10
0.0
 20
0.0
 30
0.0
210
0.0
220
0.0
230
1.0
  2
SOLID
 70
               1
 71
               1
 91
        1
 92
        1
 93
        1
 72
               2
 10
2585.2692904459773
 20
3911.1183608479009
 40
1.9998779296875
 50
0.0
 51
360.0
 73
               0
 97
        1
330
F8
 75
               0
 76
               1
 98
        1
 10
0.0
 20
0.0
  0
MTEXT
  5
FA
100
AcDbEntity
  8
0
390
0
 62
               0
100
AcDbMText
 10
2551.3916732584771
 20
4082.1156506758443
 30
0.0
 40
24.432617187500004
 41
0.0
 71
               1
 72
               1
  1
145(深さ)
  7
ＭＳ ゴシック
 11
0.0
 21
1.0
 31
0.0
 73
               1
 44
0.7828267384257843
  0
POINT
  5
FB
100
AcDbEntity
  8
Defpoints
370
               0
390
0
 62
               0
100
AcDbPoint
 10
2594.361572094705
 20
3911.1183608479009
 30
0.0
  0
POINT
  5
FC
100
AcDbEntity
  8
Defpoints
370
               0
390
0
 62
               0
100
AcDbPoint
 10
2570.2788327222165
 20
4056.118360855045
 30
0.0
  0
POINT
  5
FD
100
AcDbEntity
  8
Defpoints
370
               0
390
0
 62
               0
100
AcDbPoint
 10
2585.2692904459773
 20
4056.118360855045
 30
0.0
  0
ENDBLK
  5
FE
100
AcDbEntity
  8
notes
390
0
100
AcDbBlockEnd
  0
BLOCK
  5
FF
100
AcDbEntity
  8
notes
390
0
100
AcDbBlockBegin
  2
*D16
 70
               1
 10
0.0
 20
0.0
 30
0.0
  3
*D16
  1

  0
LINE
  5
100
100
AcDbEntity
  8
0
370
              -2
390
0
  6
Continuous
 62
               0
100
AcDbLine
 10
2594.361572094705
 20
3851.1183608479009
 30
0.0
 11
2594.361572094705
 21
3771.1183608485881
 31
0.0
  0
LINE
  5
101
100
AcDbEntity
  8
0
370
              -2
390
0
  6
Continuous
 62
               0
100
AcDbLine
 10
2854.3615720947037
 20
3852.1183608479009
 30
0.0
 11
2854.3615720947037
 21
3771.1183608485881
 31
0.0
  0
LINE
  5
102
100
AcDbEntity
  8
0
370
              -2
390
0
  6
Continuous
 62
               0
100
AcDbLine
 10
2594.361572094705
 20
3771.1183608485881
 30
0.0
 11
2854.3615720947037
 21
3771.1183608485881
 31
0.0
  0
CIRCLE
  5
103
102
{ACAD_REACTORS
330
104
102
}
100
AcDbEntity
  8
0
370
              -2
390
0
  6
Continuous
 62
               0
100
AcDbCircle
 10
2594.361572094705
 20
3771.1183608485881
 30
0.0
 40
1.9998779296875
  0
HATCH
  5
104
100
AcDbEntity
  8
0
370
              -2
390
0
  6
Continuous
 62
               0
100
AcDbHatch
 10
0.0
 20
0.0
 30
0.0
210
0.0
220
0.0
230
1.0
  2
SOLID
 70
               1
 71
               1
 91
        1
 92
        1
 93
        1
 72
               2
 10
2594.361572094705
 20
3771.1183608485881
 40
1.9998779296875
 50
0.0
 51
360.0
 73
               0
 97
        1
330
103
 75
               0
 76
               1
 98
        1
 10
0.0
 20
0.0
  0
CIRCLE
  5
105
102
{ACAD_REACTORS
330
106
102
}
100
AcDbEntity
  8
0
370
              -2
390
0
  6
Continuous
 62
               0
100
AcDbCircle
 10
2854.3615720947037
 20
3771.1183608485881
 30
0.0
 40
1.9998779296875
  0
HATCH
  5
106
100
AcDbEntity
  8
0
370
              -2
390
0
  6
Continuous
 62
               0
100
AcDbHatch
 10
0.0
 20
0.0
 30
0.0
210
0.0
220
0.0
230
1.0
  2
SOLID
 70
               1
 71
               1
 91
        1
 92
        1
 93
        1
 72
               2
 10
2854.3615720947037
 20
3771.1183608485881
 40
1.9998779296875
 50
0.0
 51
360.0
 73
               0
 97
        1
330
105
 75
               0
 76
               1
 98
        1
 10
0.0
 20
0.0
  0
MTEXT
  5
107
100
AcDbEntity
  8
0
390
0
 62
               0
100
AcDbMText
 10
2700.5490704125286
 20
3804.9959780360878
 30
0.0
 40
24.432617187500004
 41
0.0
 71
               1
 72
               1
  1
260
  7
ＭＳ ゴシック
 73
               1
 44
0.7828267384257843
  0
POINT
  5
108
100
AcDbEntity
  8
Defpoints
370
               0
390
0
 62
               0
100
AcDbPoint
 10
2854.3615720947037
 20
3877.1183608479009
 30
0.0
  0
POINT
  5
109
100
AcDbEntity
  8
Defpoints
370
               0
390
0
 62
               0
100
AcDbPoint
 10
2594.361572094705
 20
3876.1183608479009
 30
0.0
  0
POINT
  5
10A
100
AcDbEntity
  8
Defpoints
370
               0
390
0
 62
               0
100
AcDbPoint
 10
2594.361572094705
 20
3771.1183608485881
 30
0.0
  0
ENDBLK
  5
10B
100
AcDbEntity
  8
notes
390
0
100
AcDbBlockEnd
  0
BLOCK
  5
10C
100
AcDbEntity
  8
notes
390
0
100
AcDbBlockBegin
  2
*D17
 70
               1
 10
0.0
 20
0.0
 30
0.0
  3
*D17
  1

  0
LINE
  5
10D
100
AcDbEntity
  8
0
370
              -2
390
0
  6
Continuous
 62
               0
100
AcDbLine
 10
2454.3003519098397
 20
3848.319683035319
 30
0.0
 11
2454.3003519098397
 21
3721.1183608485881
 31
0.0
  0
LINE
  5
10E
100
AcDbEntity
  8
0
370
              -2
390
0
  6
Continuous
 62
               0
100
AcDbLine
 10
2854.3615720947037
 20
3848.319683035319
 30
0.0
 11
2854.3615720947037
 21
3721.1183608485881
 31
0.0
  0
LINE
  5
10F
100
AcDbEntity
  8
0
370
              -2
390
0
  6
Continuous
 62
               0
100
AcDbLine
 10
2454.3003519098397
 20
3721.1183608485881
 30
0.0
 11
2854.3615720947037
 21
3721.1183608485881
 31
0.0
  0
CIRCLE
  5
110
102
{ACAD_REACTORS
330
111
102
}
100
AcDbEntity
  8
0
370
              -2
390
0
  6
Continuous
 62
               0
100
AcDbCircle
 10
2454.3003519098397
 20
3721.1183608485881
 30
0.0
 40
1.9998779296875
  0
HATCH
  5
111
100
AcDbEntity
  8
0
370
              -2
390
0
  6
Continuous
 62
               0
100
AcDbHatch
 10
0.0
 20
0.0
 30
0.0
210
0.0
220
0.0
230
1.0
  2
SOLID
 70
               1
 71
               1
 91
        1
 92
        1
 93
        1
 72
               2
 10
2454.3003519098397
 20
3721.1183608485881
 40
1.9998779296875
 50
0.0
 51
360.0
 73
               0
 97
        1
330
110
 75
               0
 76
               1
 98
        1
 10
0.0
 20
0.0
  0
CIRCLE
  5
112
102
{ACAD_REACTORS
330
113
102
}
100
AcDbEntity
  8
0
370
              -2
390
0
  6
Continuous
 62
               0
100
AcDbCircle
 10
2854.3615720947037
 20
3721.1183608485881
 30
0.0
 40
1.9998779296875
  0
HATCH
  5
113
100
AcDbEntity
  8
0
370
              -2
390
0
  6
Continuous
 62
               0
100
AcDbHatch
 10
0.0
 20
0.0
 30
0.0
210
0.0
220
0.0
230
1.0
  2
SOLID
 70
               1
 71
               1
 91
        1
 92
        1
 93
        1
 72
               2
 10
2854.3615720947037
 20
3721.1183608485881
 40
1.9998779296875
 50
0.0
 51
360.0
 73
               0
 97
        1
330
112
 75
               0
 76
               1
 98
        1
 10
0.0
 20
0.0
  0
MTEXT
  5
114
100
AcDbEntity
  8
0
390
0
 62
               0
100
AcDbMText
 10
2630.518460320096
 20
3754.9959780360878
 30
0.0
 40
24.432617187500004
 41
0.0
 71
               1
 72
               1
  1
400
  7
ＭＳ ゴシック
 73
               1
 44
0.7828267384257843
  0
POINT
  5
115
100
AcDbEntity
  8
Defpoints
370
               0
390
0
 62
               0
100
AcDbPoint
 10
2854.3615720947037
 20
3873.319683035319
 30
0.0
  0
POINT
  5
116
100
AcDbEntity
  8
Defpoints
370
               0
390
0
 62
               0
100
AcDbPoint
 10
2454.3003519098397
 20
3873.319683035319
 30
0.0
  0
POINT
  5
117
100
AcDbEntity
  8
Defpoints
370
               0
390
0
 62
               0
100
AcDbPoint
 10
2454.3003519098397
 20
3721.1183608485881
 30
0.0
  0
ENDBLK
  5
118
100
AcDbEntity
  8
notes
390
0
100
AcDbBlockEnd
  0
BLOCK
  5
119
100
AcDbEntity
  8
notes
390
0
100
AcDbBlockBegin
  2
*D18
 70
               1
 10
0.0
 20
0.0
 30
0.0
  3
*D18
  1

  0
LINE
  5
11A
100
AcDbEntity
  8
0
370
              -2
390
0
  6
Continuous
 62
               0
100
AcDbLine
 10
2045.0414886480996
 20
4056.1183608550318
 30
0.0
 11
2126.1523916221377
 21
4056.1183608550318
 31
0.0
  0
LINE
  5
11B
100
AcDbEntity
  8
0
370
              -2
390
0
  6
Continuous
 62
               0
100
AcDbLine
 10
1965.5808499446505
 20
3871.118360855035
 30
0.0
 11
2126.1523916221377
 21
3871.118360855035
 31
0.0
  0
LINE
  5
11C
100
AcDbEntity
  8
0
370
              -2
390
0
  6
Continuous
 62
               0
100
AcDbLine
 10
2126.1523916221377
 20
4056.1183608550318
 30
0.0
 11
2126.1523916221377
 21
3871.118360855035
 31
0.0
  0
CIRCLE
  5
11D
102
{ACAD_REACTORS
330
11E
102
}
100
AcDbEntity
  8
0
370
              -2
390
0
  6
Continuous
 62
               0
100
AcDbCircle
 10
2126.1523916221377
 20
4056.1183608550318
 30
0.0
 40
1.9998779296875
  0
HATCH
  5
11E
100
AcDbEntity
  8
0
370
              -2
390
0
  6
Continuous
 62
               0
100
AcDbHatch
 10
0.0
 20
0.0
 30
0.0
210
0.0
220
0.0
230
1.0
  2
SOLID
 70
               1
 71
               1
 91
        1
 92
        1
 93
        1
 72
               2
 10
2126.1523916221377
 20
4056.1183608550318
 40
1.9998779296875
 50
0.0
 51
360.0
 73
               0
 97
        1
330
11D
 75
               0
 76
               1
 98
        1
 10
0.0
 20
0.0
  0
CIRCLE
  5
11F
102
{ACAD_REACTORS
330
120
102
}
100
AcDbEntity
  8
0
370
              -2
390
0
  6
Continuous
 62
               0
100
AcDbCircle
 10
2126.1523916221377
 20
3871.118360855035
 30
0.0
 40
1.9998779296875
  0
HATCH
  5
120
100
AcDbEntity
  8
0
370
              -2
390
0
  6
Continuous
 62
               0
100
AcDbHatch
 10
0.0
 20
0.0
 30
0.0
210
0.0
220
0.0
230
1.0
  2
SOLID
 70
               1
 71
               1
 91
        1
 92
        1
 93
        1
 72
               2
 10
2126.1523916221377
 20
3871.118360855035
 40
1.9998779296875
 50
0.0
 51
360.0
 73
               0
 97
        1
330
11F
 75
               0
 76
               1
 98
        1
 10
0.0
 20
0.0
  0
MTEXT
  5
121
100
AcDbEntity
  8
0
390
0
 62
               0
100
AcDbMText
 10
2092.2747744346379
 20
3939.8058591728577
 30
0.0
 40
24.432617187500004
 41
0.0
 71
               1
 72
               1
  1
185
  7
ＭＳ ゴシック
 11
0.0
 21
1.0
 31
0.0
 73
               1
 44
0.7828267384257843
  0
POINT
  5
122
100
AcDbEntity
  8
Defpoints
370
               0
390
0
 62
               0
100
AcDbPoint
 10
1940.5808499446505
 20
3871.118360855035
 30
0.0
  0
POINT
  5
123
100
AcDbEntity
  8
Defpoints
370
               0
390
0
 62
               0
100
AcDbPoint
 10
2020.0414886480996
 20
4056.1183608550318
 30
0.0
  0
POINT
  5
124
100
AcDbEntity
  8
Defpoints
370
               0
390
0
 62
               0
100
AcDbPoint
 10
2126.1523916221377
 20
4056.1183608550318
 30
0.0
  0
ENDBLK
  5
125
100
AcDbEntity
  8
notes
390
0
100
AcDbBlockEnd
  0
BLOCK
  5
126
100
AcDbEntity
  8
notes
390
0
100
AcDbBlockBegin
  2
*D19
 70
               1
 10
0.0
 20
0.0
 30
0.0
  3
*D19
  1

  0
LINE
  5
127
100
AcDbEntity
  8
0
370
              -2
390
0
  6
Continuous
 62
               0
100
AcDbLine
 10
2854.3615720947037
 20
4076.0497183529737
 30
0.0
 11
2854.3615720947037
 21
4156.1183608477959
 31
0.0
  0
LINE
  5
128
100
AcDbEntity
  8
0
370
              -2
390
0
  6
Continuous
 62
               0
100
AcDbLine
 10
2784.3615720947
 20
4081.1183608535348
 30
0.0
 11
2784.3615720947
 21
4156.1183608477959
 31
0.0
  0
LINE
  5
129
100
AcDbEntity
  8
0
370
              -2
390
0
  6
Continuous
 62
               0
100
AcDbLine
 10
2854.3615720947037
 20
4156.1183608477959
 30
0.0
 11
2784.3615720947
 21
4156.1183608477959
 31
0.0
  0
CIRCLE
  5
12A
102
{ACAD_REACTORS
330
12B
102
}
100
AcDbEntity
  8
0
370
              -2
390
0
  6
Continuous
 62
               0
100
AcDbCircle
 10
2854.3615720947037
 20
4156.1183608477959
 30
0.0
 40
1.9998779296875
  0
HATCH
  5
12B
100
AcDbEntity
  8
0
370
              -2
390
0
  6
Continuous
 62
               0
100
AcDbHatch
 10
0.0
 20
0.0
 30
0.0
210
0.0
220
0.0
230
1.0
  2
SOLID
 70
               1
 71
               1
 91
        1
 92
        1
 93
        1
 72
               2
 10
2854.3615720947037
 20
4156.1183608477959
 40
1.9998779296875
 50
0.0
 51
360.0
 73
               0
 97
        1
330
12A
 75
               0
 76
               1
 98
        1
 10
0.0
 20
0.0
  0
CIRCLE
  5
12C
102
{ACAD_REACTORS
330
12D
102
}
100
AcDbEntity
  8
0
370
              -2
390
0
  6
Continuous
 62
               0
100
AcDbCircle
 10
2784.3615720947
 20
4156.1183608477959
 30
0.0
 40
1.9998779296875
  0
HATCH
  5
12D
100
AcDbEntity
  8
0
370
              -2
390
0
  6
Continuous
 62
               0
100
AcDbHatch
 10
0.0
 20
0.0
 30
0.0
210
0.0
220
0.0
230
1.0
  2
SOLID
 70
               1
 71
               1
 91
        1
 92
        1
 93
        1
 72
               2
 10
2784.3615720947
 20
4156.1183608477959
 40
1.9998779296875
 50
0.0
 51
360.0
 73
               0
 97
        1
330
12C
 75
               0
 76
               1
 98
        1
 10
0.0
 20
0.0
  0
MTEXT
  5
12E
100
AcDbEntity
  8
0
390
0
 62
               0
100
AcDbMText
 10
2803.4865720947018
 20
4189.9959780352956
 30
0.0
 40
24.432617187500004
 41
0.0
 71
               1
 72
               1
  1
70
  7
ＭＳ ゴシック
 73
               1
 44
0.7828267384257843
  0
POINT
  5
12F
100
AcDbEntity
  8
Defpoints
370
               0
390
0
 62
               0
100
AcDbPoint
 10
2784.3615720947
 20
4056.1183608535348
 30
0.0
  0
POINT
  5
130
100
AcDbEntity
  8
Defpoints
370
               0
390
0
 62
               0
100
AcDbPoint
 10
2854.3615720947037
 20
4051.0497183529737
 30
0.0
  0
POINT
  5
131
100
AcDbEntity
  8
Defpoints
370
               0
390
0
 62
               0
100
AcDbPoint
 10
2854.3615720947037
 20
4156.1183608477959
 30
0.0
  0
ENDBLK
  5
132
100
AcDbEntity
  8
notes
390
0
100
AcDbBlockEnd
  0
BLOCK
  5
133
100
AcDbEntity
  8
notes
390
0
100
AcDbBlockBegin
  2
*D20
 70
               1
 10
0.0
 20
0.0
 30
0.0
  3
*D20
  1

  0
LINE
  5
134
100
AcDbEntity
  8
0
370
              -2
390
0
  6
Continuous
 62
               0
100
AcDbLine
 10
1267.9045618559919
 20
4056.1183608550327
 30
0.0
 11
1186.1523916221383
 21
4056.1183608550327
 31
0.0
  0
LINE
  5
135
100
AcDbEntity
  8
0
370
              -2
390
0
  6
Continuous
 62
               0
100
AcDbLine
 10
1455.0
 20
4016.1183608550341
 30
0.0
 11
1186.1523916221383
 21
4016.1183608550341
 31
0.0
  0
LINE
  5
136
100
AcDbEntity
  8
0
370
              -2
390
0
  6
Continuous
 62
               0
100
AcDbLine
 10
1186.1523916221383
 20
4056.1183608550327
 30
0.0
 11
1186.1523916221383
 21
4016.1183608550341
 31
0.0
  0
CIRCLE
  5
137
102
{ACAD_REACTORS
330
138
102
}
100
AcDbEntity
  8
0
370
              -2
390
0
  6
Continuous
 62
               0
100
AcDbCircle
 10
1186.1523916221383
 20
4056.1183608550327
 30
0.0
 40
1.9998779296875
  0
HATCH
  5
138
100
AcDbEntity
  8
0
370
              -2
390
0
  6
Continuous
 62
               0
100
AcDbHatch
 10
0.0
 20
0.0
 30
0.0
210
0.0
220
0.0
230
1.0
  2
SOLID
 70
               1
 71
               1
 91
        1
 92
        1
 93
        1
 72
               2
 10
1186.1523916221383
 20
4056.1183608550327
 40
1.9998779296875
 50
0.0
 51
360.0
 73
               0
 97
        1
330
137
 75
               0
 76
               1
 98
        1
 10
0.0
 20
0.0
  0
CIRCLE
  5
139
102
{ACAD_REACTORS
330
13A
102
}
100
AcDbEntity
  8
0
370
              -2
390
0
  6
Continuous
 62
               0
100
AcDbCircle
 10
1186.1523916221383
 20
4016.1183608550341
 30
0.0
 40
1.9998779296875
  0
HATCH
  5
13A
100
AcDbEntity
  8
0
370
              -2
390
0
  6
Continuous
 62
               0
100
AcDbHatch
 10
0.0
 20
0.0
 30
0.0
210
0.0
220
0.0
230
1.0
  2
SOLID
 70
               1
 71
               1
 91
        1
 92
        1
 93
        1
 72
               2
 10
1186.1523916221383
 20
4016.1183608550341
 40
1.9998779296875
 50
0.0
 51
360.0
 73
               0
 97
        1
330
139
 75
               0
 76
               1
 98
        1
 10
0.0
 20
0.0
  0
MTEXT
  5
13B
100
AcDbEntity
  8
0
390
0
 62
               0
100
AcDbMText
 10
1152.2747744346384
 20
4020.2433608550336
 30
0.0
 40
24.432617187500004
 41
0.0
 71
               1
 72
               1
  1
40
  7
ＭＳ ゴシック
 11
0.0
 21
1.0
 31
0.0
 73
               1
 44
0.7828267384257843
  0
POINT
  5
13C
100
AcDbEntity
  8
Defpoints
370
               0
390
0
 62
               0
100
AcDbPoint
 10
1480.0
 20
4016.1183608550341
 30
0.0
  0
POINT
  5
13D
100
AcDbEntity
  8
Defpoints
370
               0
390
0
 62
               0
100
AcDbPoint
 10
1292.9045618559919
 20
4056.1183608550327
 30
0.0
  0
POINT
  5
13E
100
AcDbEntity
  8
Defpoints
370
               0
390
0
 62
               0
100
AcDbPoint
 10
1186.1523916221383
 20
4056.1183608550327
 30
0.0
  0
ENDBLK
  5
13F
100
AcDbEntity
  8
notes
390
0
100
AcDbBlockEnd
  0
ENDSEC
  0
SECTION
  2
ENTITIES
  0
MTEXT
  5
140
100
AcDbEntity
  8
template
390
0
 62
               7
100
AcDbMText
 10
1132.0000000002408
 20
3320.3464856812061
 30
0.0
 40
16.288411458333332
 41
0.0
 71
               1
 72
               1
  1
品名
  7
ＭＳ ゴシック
 73
               1
 44
0.7828267384257843
  0
MTEXT
  5
141
100
AcDbEntity
  8
template
390
0
 62
               7
100
AcDbMText
 10
1132.0000000002408
 20
3235.3464856812061
 30
0.0
 40
16.288411458333332
 41
0.0
 71
               1
 72
               1
  1
仕様
  7
ＭＳ ゴシック
 73
               1
 44
0.7828267384257843
  0
MTEXT
  5
142
100
AcDbEntity
  8
template
390
0
 62
               7
100
AcDbMText
 10
1185.0000000002408
 20
3291.7640247437057
 30
0.0
 40
24.432617187500004
 41
0.0
 71
               1
 72
               1
  1
洗面器 -FLAMINIA,Mono- 
  7
ＭＳ ゴシック
 73
               1
 44
0.7828267384257843
  0
LINE
  5
143
100
AcDbEntity
  8
template
370
               5
390
0
  6
Continuous
 62
               7
100
AcDbLine
 10
3074.999999999759
 20
3243.761407556206
 30
0.0
 11
1124.9999999997588
 21
3243.761407556206
 31
0.0
  0
LWPOLYLINE
  5
144
100
AcDbEntity
  8
template
370
               5
390
0
  6
Continuous
 62
               7
100
AcDbPolyline
 90
        5
 70
             128
 10
3075.000000000241
 20
5873.761407556206
 10
1125.0000000002408
 20
5873.761407556206
 10
1125.0000000002408
 20
3073.761407556206
 10
3075.000000000241
 20
3073.761407556206
 10
3075.000000000241
 20
5873.761407556206
  0
LINE
  5
145
100
AcDbEntity
  8
template
370
               5
390
0
  6
Continuous
 62
               7
100
AcDbLine
 10
3074.999999999759
 20
3328.761407556206
 30
0.0
 11
1124.9999999997588
 21
3328.761407556206
 31
0.0
  0
LINE
  5
146
100
AcDbEntity
  8
template
370
               5
390
0
  6
Continuous
 62
               7
100
AcDbLine
 10
3075.000000000241
 20
3158.761407556206
 30
0.0
 11
2322.000000000241
 21
3158.761407556206
 31
0.0
  0
MTEXT
  5
147
100
AcDbEntity
  8
template
390
0
 62
               7
100
AcDbMText
 10
1185.0000000002408
 20
3206.7640247437057
 30
0.0
 40
24.432617187500004
 41
0.0
 71
               1
 72
               1
  1
壁付,カウンタ ー置き兼用/オーバーフロー無/壁取付ボルト付属/\P陶器/ホワイト
  7
ＭＳ ゴシック
 73
               1
 44
1.1307497332816883
  0
MTEXT
  5
148
100
AcDbEntity
  8
template
390
0
 62
               7
100
AcDbMText
 10
1125.0000000004441
 20
3061.9075854993489
 30
0.0
 40
21.717881944444446
 41
0.0
 71
               1
 72
               1
  1
120206HO
  7
ＭＳ ゴシック
 73
               1
 44
0.7828267384257843
  0
MTEXT
  5
149
100
AcDbEntity
  8
template
390
0
 62
               7
100
AcDbMText
 10
2351.8714062525009
 20
3128.8510130828981
 30
0.0
 40
24.432617187500004
 41
0.0
 71
               1
 72
               1
  1
大洋金物株式会社 ティーフォルム事業部
  7
ＭＳ ゴシック
 73
               1
 44
0.7828267384257843
  0
INSERT
  5
14A
100
AcDbEntity
  8
template
390
0
 62
               7
100
AcDbBlockReference
  2
グループ
 10
2100.0
 20
4455.0
 30
0.0
  0
MTEXT
  5
14B
100
AcDbEntity
  8
template
390
0
 62
               7
100
AcDbMText
 10
2884.0000000005002
 20
3206.7640247437057
 30
0.0
 40
24.432617187500004
 41
0.0
 71
               1
 72
               1
  1
1:10
  7
ＭＳ ゴシック
 73
               1
 44
0.7828267384257843
  0
MTEXT
  5
14C
100
AcDbEntity
  8
template
390
0
 62
               7
100
AcDbMText
 10
2831.0000000005002
 20
3235.3464856812061
 30
0.0
 40
16.288411458333332
 41
0.0
 71
               1
 72
               1
  1
縮尺
  7
ＭＳ ゴシック
 73
               1
 44
0.7828267384257843
  0
LINE
  5
14D
100
AcDbEntity
  8
template
370
               5
390
0
  6
Continuous
 62
               7
100
AcDbLine
 10
2824.0000000005002
 20
3158.761407556206
 30
0.0
 11
2824.0000000005002
 21
3243.761407556206
 31
0.0
  0
MTEXT
  5
14E
100
AcDbEntity
  8
template
390
0
 62
               7
100
AcDbMText
 10
2580.0000000005002
 20
3235.3464856812061
 30
0.0
 40
16.288411458333332
 41
0.0
 71
               1
 72
               1
  1
容量
  7
ＭＳ ゴシック
 73
               1
 44
0.7828267384257843
  0
MTEXT
  5
14F
100
AcDbEntity
  8
template
390
0
 62
               7
100
AcDbMText
 10
2633.0000000005002
 20
3206.7640247437057
 30
0.0
 40
24.432617187500004
 41
0.0
 71
               1
 72
               1
  1
25L
  7
ＭＳ ゴシック
 73
               1
 44
0.7828267384257843
  0
LINE
  5
150
100
AcDbEntity
  8
template
370
               5
390
0
  6
Continuous
 62
               7
100
AcDbLine
 10
2573.0000000005002
 20
3158.761407556206
 30
0.0
 11
2573.0000000005002
 21
3243.761407556206
 31
0.0
  0
MTEXT
  5
151
100
AcDbEntity
  8
template
390
0
 62
               7
100
AcDbMText
 10
2329.0000000005002
 20
3320.3464856812061
 30
0.0
 40
16.288411458333332
 41
0.0
 71
               1
 72
               1
  1
品番
  7
ＭＳ ゴシック
 73
               1
 44
0.7828267384257843
  0
MTEXT
  5
152
100
AcDbEntity
  8
template
390
0
 62
               7
100
AcDbMText
 10
2329.0000000005002
 20
3235.3464856812061
 30
0.0
 40
16.288411458333332
 41
0.0
 71
               1
 72
               1
  1
重量
  7
ＭＳ ゴシック
 73
               1
 44
0.7828267384257843
  0
MTEXT
  5
153
100
AcDbEntity
  8
template
390
0
 62
               7
100
AcDbMText
 10
2382.0000000005002
 20
3291.7640247437057
 30
0.0
 40
24.432617187500004
 41
0.0
 71
               1
 72
               1
  1
AAA70-1103
  7
ＭＳ ゴシック
 73
               1
 44
0.7828267384257843
  0
MTEXT
  5
154
100
AcDbEntity
  8
template
390
0
 62
               7
100
AcDbMText
 10
2382.0000000005002
 20
3206.7640247437057
 30
0.0
 40
24.432617187500004
 41
0.0
 71
               1
 72
               1
  1
26kg
  7
ＭＳ ゴシック
 73
               1
 44
0.7828267384257843
  0
LINE
  5
155
100
AcDbEntity
  8
template
370
               5
390
0
  6
Continuous
 62
               7
100
AcDbLine
 10
2322.0000000005002
 20
3073.761407556206
 30
0.0
 11
2322.0000000005002
 21
3328.761407556206
 31
0.0
  0
MTEXT
  5
156
100
AcDbEntity
  8
notes
390
0
 62
               7
100
AcDbMText
 10
2189.8304176877737
 20
4562.1276171874997
 30
0.0
 40
24.432617187500004
 41
891.40041570715573
 71
               1
 72
               1
  1
※陶器製品には寸法公差があります。\P　必ず現物をあわせてカウンターに切込を行ってください。
  7
ＭＳ ゴシック
 73
               1
 44
1.0437689845677123
  0
INSERT
  5
157
100
AcDbEntity
  8
notes
390
0
 62
               7
100
AcDbBlockReference
  2
グループ-1
 10
2100.0
 20
4455.0
 30
0.0
  0
MTEXT
  5
158
100
AcDbEntity
  8
notes
390
0
 62
               7
100
AcDbMText
 10
2476.5397575219758
 20
5381.833454836742
 30
0.0
 40
24.432617187500004
 41
0.0
 71
               1
 72
               1
  1
カウンター切込寸法
  7
ＭＳ ゴシック
 73
               1
 44
0.7828267384257843
  0
DIMENSION
  5
159
100
AcDbEntity
  8
notes
370
               5
390
0
  6
Continuous
 62
               7
100
AcDbDimension
  2
*D4
 10
1556.1523916221383
 20
5344.9400013490031
 30
0.0
 11
1606.1523916221381
 21
5344.9400013490031
 31
0.0
 71
               5
 72
               1
 41
1.0
 42
0.0
  3
tfrom線あり
100
AcDbAlignedDimension
 13
1656.1523916221381
 23
5193.4400013490031
 33
0.0
 14
1556.1523916221383
 24
5192.4400013490031
 34
0.0
100
AcDbRotatedDimension
1001
ACAD
1000
DSTYLE
1002
{
1070
             271
1070
               0
1070
             279
1070
               2
1070
             340
1005
36
1070
             147
1040
5.0
1002
}
  0
DIMENSION
  5
15A
100
AcDbEntity
  8
notes
370
               5
390
0
  6
Continuous
 62
               7
100
AcDbDimension
  2
*D5
 10
1656.1523916221381
 20
5344.9400013490031
 30
0.0
 11
1706.1523916221381
 21
5344.9400013490031
 31
0.0
 71
               5
 72
               1
 41
1.0
 42
0.0
  3
tfrom線あり
100
AcDbAlignedDimension
 13
1756.1523916221381
 23
5192.4400013490031
 33
0.0
 14
1656.1523916221381
 24
5193.4400013490031
 34
0.0
100
AcDbRotatedDimension
1001
ACAD
1000
DSTYLE
1002
{
1070
             271
1070
               0
1070
             279
1070
               2
1070
             340
1005
36
1070
             147
1040
5.0
1002
}
  0
DIMENSION
  5
15B
100
AcDbEntity
  8
notes
370
               5
390
0
  6
Continuous
 62
               7
100
AcDbDimension
  2
*D6
 10
1316.1523916221383
 20
4664.4788367991241
 30
0.0
 11
1656.1523916221381
 21
4664.4788367991241
 31
0.0
 71
               5
 72
               1
 41
1.0
 42
0.0
  3
tfrom線あり
100
AcDbAlignedDimension
 13
1996.1523916221379
 23
4877.7363311058962
 33
0.0
 14
1316.1523916221383
 24
4877.7363311058962
 34
0.0
100
AcDbRotatedDimension
1001
ACAD
1000
DSTYLE
1002
{
1070
             271
1070
               0
1070
             279
1070
               2
1070
             340
1005
36
1070
             147
1040
5.0
1002
}
  0
DIMENSION
  5
15C
100
AcDbEntity
  8
notes
370
               5
390
0
  6
Continuous
 62
               7
100
AcDbDimension
  2
*D7
 10
1286.1523916221383
 20
5394.9400013490031
 30
0.0
 11
1656.1523916221381
 21
5394.9400013490031
 31
0.0
 71
               5
 72
               1
 41
1.0
 42
0.0
  3
tfrom線あり
100
AcDbAlignedDimension
 13
2026.1523916221379
 23
5149.3636751427703
 33
0.0
 14
1286.1523916221383
 24
5149.3636751427903
 34
0.0
100
AcDbRotatedDimension
1001
ACAD
1000
DSTYLE
1002
{
1070
             271
1070
               0
1070
             279
1070
               2
1070
             340
1005
36
1070
             147
1040
5.0
1002
}
  0
DIMENSION
  5
15D
100
AcDbEntity
  8
notes
370
               5
390
0
  6
Continuous
 62
               7
100
AcDbDimension
  2
*D8
 10
1186.1523916221383
 20
5244.9400013490031
 30
0.0
 11
1186.1523916221383
 21
5187.4400013490031
 31
0.0
 71
               5
 72
               1
 41
1.0
 42
0.0
  3
tfrom線あり
100
AcDbAlignedDimension
 13
1288.7276979374135
 23
5129.9400013490031
 33
0.0
 14
1390.7168521247484
 24
5244.9400013490031
 34
0.0
 50
90.0
100
AcDbRotatedDimension
1001
ACAD
1000
DSTYLE
1002
{
1070
             271
1070
               0
1070
             279
1070
               2
1070
             340
1005
36
1070
             147
1040
5.0
1002
}
  0
DIMENSION
  5
15E
100
AcDbEntity
  8
notes
370
               5
390
0
  6
Continuous
 62
               7
100
AcDbDimension
  2
*D9
 10
1186.1523916221383
 20
5129.9400013490031
 30
0.0
 11
1186.1523916221383
 21
4959.9400013490031
 31
0.0
 71
               5
 72
               1
 41
1.0
 42
0.0
  3
tfrom線あり
100
AcDbAlignedDimension
 13
1390.269290445977
 23
4789.9400013490031
 33
0.0
 14
1288.7276979374135
 24
5129.9400013490031
 34
0.0
 50
90.0
100
AcDbRotatedDimension
1001
ACAD
1000
DSTYLE
1002
{
1070
             271
1070
               0
1070
             279
1070
               2
1070
             340
1005
36
1070
             147
1040
5.0
1002
}
  0
DIMENSION
  5
15F
100
AcDbEntity
  8
notes
370
               5
390
0
  6
Continuous
 62
               7
100
AcDbDimension
  2
*D10
 10
2126.1523916221377
 20
5244.8149696287101
 30
0.0
 11
2131.1523916221377
 21
5004.6469032139175
 31
0.0
 70
             128
 71
               5
 72
               1
 41
1.0
 42
0.0
  3
tfrom線あり
100
AcDbAlignedDimension
 13
1820.2106486288653
 23
4764.4788367991241
 33
0.0
 14
1936.6129499558176
 24
5244.8149696287101
 34
0.0
 50
90.0
100
AcDbRotatedDimension
1001
ACAD
1000
DSTYLE
1002
{
1070
             271
1070
               0
1070
             279
1070
               2
1070
             340
1005
36
1070
             147
1040
5.0
1002
}
  0
DIMENSION
  5
160
100
AcDbEntity
  8
notes
370
               5
390
0
  6
Continuous
 62
               7
100
AcDbDimension
  2
*D11
 10
1516.1523916221383
 20
4156.1183608550336
 30
0.0
 11
1656.1523916221381
 21
4156.1183608550336
 31
0.0
 71
               5
 72
               1
 41
1.0
 42
0.0
  3
tfrom線あり
100
AcDbAlignedDimension
 13
1796.1523916221381
 23
4017.5000000000009
 33
0.0
 14
1516.1523916221383
 24
4017.5000000000009
 34
0.0
100
AcDbRotatedDimension
1001
ACAD
1000
DSTYLE
1002
{
1070
             271
1070
               0
1070
             279
1070
               2
1070
             340
1005
36
1070
             147
1040
5.0
1002
}
  0
DIMENSION
  5
161
100
AcDbEntity
  8
notes
370
               5
390
0
  6
Continuous
 62
               7
100
AcDbDimension
  2
*D12
 10
2847.5408535694537
 20
5244.8882671739875
 30
0.0
 11
2852.5408535694537
 21
5258.0
 31
0.0
 70
             128
 71
               5
 72
               1
 41
1.0
 42
0.0
  3
tfrom線あり
100
AcDbAlignedDimension
 13
2747.8161385164522
 23
5214.8882671739875
 33
0.0
 14
2747.8161385164522
 24
5244.8882671739875
 34
0.0
 50
90.0
100
AcDbRotatedDimension
1001
ACAD
1000
DSTYLE
1002
{
1070
             271
1070
               0
1070
             279
1070
               2
1070
             340
1005
36
1070
             174
1070
               0
1070
             147
1040
5.0
1002
}
  0
DIMENSION
  5
162
100
AcDbEntity
  8
notes
370
               5
390
0
  6
Continuous
 62
               7
100
AcDbDimension
  2
*D13
 10
2847.5408535694537
 20
5214.8882671739875
 30
0.0
 11
2847.5408535694537
 21
5064.8882671739866
 31
0.0
 71
               5
 72
               1
 41
1.0
 42
0.0
  3
tfrom線あり
100
AcDbAlignedDimension
 13
2748.0922913228851
 23
4914.8882671739848
 33
0.0
 14
2748.0922913228851
 24
5214.8882671739875
 34
0.0
 50
90.0
100
AcDbRotatedDimension
1001
ACAD
1000
DSTYLE
1002
{
1070
             271
1070
               0
1070
             279
1070
               2
1070
             340
1005
36
1070
             147
1040
5.0
1002
}
  0
DIMENSION
  5
163
100
AcDbEntity
  8
notes
370
               5
390
0
  6
Continuous
 62
               7
100
AcDbDimension
  2
*D14
 10
2497.5408535694537
 20
4814.8882671739848
 30
0.0
 11
2622.5408535694537
 21
4814.8882671739848
 31
0.0
 71
               5
 72
               1
 41
1.0
 42
0.0
  3
tfrom線あり
100
AcDbAlignedDimension
 13
2747.5408535694537
 23
4914.8882671739848
 33
0.0
 14
2497.5408535694537
 24
4914.8882671739848
 34
0.0
100
AcDbRotatedDimension
1001
ACAD
1000
DSTYLE
1002
{
1070
             271
1070
               0
1070
             279
1070
               2
1070
             340
1005
36
1070
             147
1040
5.0
1002
}
  0
DIMENSION
  5
164
100
AcDbEntity
  8
notes
370
               5
390
0
  6
Continuous
 62
               7
100
AcDbDimension
  2
*D15
 10
2585.2692904459773
 20
4056.118360855045
 30
0.0
 11
2590.2692904459773
 21
4082.1156506758443
 31
0.0
 70
             128
 71
               5
 72
               1
 41
1.0
 42
0.0
  3
tfrom線あり
100
AcDbAlignedDimension
 13
2594.361572094705
 23
3911.1183608479009
 33
0.0
 14
2570.2788327222165
 24
4056.118360855045
 34
0.0
 50
90.0
100
AcDbRotatedDimension
1001
ACAD
1000
DSTYLE
1002
{
1070
             271
1070
               0
1070
             279
1070
               2
1070
             340
1005
36
1070
               3
1000
<>(深さ)
1070
             174
1070
               0
1070
             147
1040
5.0
1002
}
  0
DIMENSION
  5
165
100
AcDbEntity
  8
notes
370
               5
390
0
  6
Continuous
 62
               7
100
AcDbDimension
  2
*D16
 10
2594.361572094705
 20
3771.1183608485881
 30
0.0
 11
2724.3615720947041
 21
3771.1183608485881
 31
0.0
 71
               5
 72
               1
 41
1.0
 42
0.0
  3
tfrom線あり
100
AcDbAlignedDimension
 13
2854.3615720947037
 23
3877.1183608479009
 33
0.0
 14
2594.361572094705
 24
3876.1183608479009
 34
0.0
100
AcDbRotatedDimension
1001
ACAD
1000
DSTYLE
1002
{
1070
             271
1070
               0
1070
             279
1070
               2
1070
             340
1005
36
1070
             147
1040
5.0
1002
}
  0
DIMENSION
  5
166
100
AcDbEntity
  8
notes
370
               5
390
0
  6
Continuous
 62
               7
100
AcDbDimension
  2
*D17
 10
2454.3003519098397
 20
3721.1183608485881
 30
0.0
 11
2654.3309620022715
 21
3721.1183608485881
 31
0.0
 71
               5
 72
               1
 41
1.0
 42
0.0
  3
tfrom線あり
100
AcDbAlignedDimension
 13
2854.3615720947037
 23
3873.319683035319
 33
0.0
 14
2454.3003519098397
 24
3873.319683035319
 34
0.0
100
AcDbRotatedDimension
1001
ACAD
1000
DSTYLE
1002
{
1070
             271
1070
               0
1070
             279
1070
               2
1070
             340
1005
36
1070
             147
1040
5.0
1002
}
  0
MTEXT
  5
167
100
AcDbEntity
  8
notes
390
0
 62
               7
100
AcDbMText
 10
1885.1334491126383
 20
4142.7815746518354
 30
0.0
 40
24.432617187500004
 41
0.0
 71
               1
 72
               1
  1
壁取付ボルト穴(2ヶ所)
  7
ＭＳ ゴシック
 73
               1
 44
0.7828267384257843
  0
LINE
  5
168
100
AcDbEntity
  8
notes
370
               5
390
0
  6
Continuous
 62
               7
100
AcDbLine
 10
1801.8579836916956
 20
4017.4327560661518
 30
0.0
 11
1897.1969432712151
 21
4112.7717156456711
 31
0.0
  0
LINE
  5
169
100
AcDbEntity
  8
notes
370
               5
390
0
  6
STYLE_12
 62
               7
100
AcDbLine
 10
1796.1523916221381
 20
4036.1183608550341
 30
0.0
 11
1796.1523916221381
 21
3996.1183608550341
 31
0.0
  0
LINE
  5
16A
100
AcDbEntity
  8
notes
370
               5
390
0
  6
STYLE_12
 62
               7
100
AcDbLine
 10
1496.1523916221383
 20
4016.393662226631
 30
0.0
 11
1536.1523916221383
 21
4016.393662226631
 31
0.0
  0
CIRCLE
  5
16B
100
AcDbEntity
  8
notes
370
               5
390
0
  6
STYLE_12
 62
               7
100
AcDbCircle
 10
1516.1523916221383
 20
4016.393662226631
 30
0.0
 40
10.0
  0
LINE
  5
16C
100
AcDbEntity
  8
notes
370
               5
390
0
  6
STYLE_12
 62
               7
100
AcDbLine
 10
1776.1523916221381
 20
4016.1183608550341
 30
0.0
 11
1816.1523916221381
 21
4016.1183608550341
 31
0.0
  0
CIRCLE
  5
16D
100
AcDbEntity
  8
notes
370
               5
390
0
  6
STYLE_12
 62
               7
100
AcDbCircle
 10
1796.1523916221381
 20
4016.1183608550341
 30
0.0
 40
10.0
  0
LINE
  5
16E
100
AcDbEntity
  8
notes
370
               5
390
0
  6
STYLE_12
 62
               7
100
AcDbLine
 10
1516.1523916221383
 20
4033.3295705811843
 30
0.0
 11
1516.1523916221383
 21
3993.3295705811843
 31
0.0
  0
DIMENSION
  5
16F
100
AcDbEntity
  8
notes
370
               5
390
0
  6
Continuous
 62
               7
100
AcDbDimension
  2
*D18
 10
2126.1523916221377
 20
4056.1183608550318
 30
0.0
 11
2131.1523916221377
 21
3963.6183608550332
 31
0.0
 70
             128
 71
               5
 72
               1
 41
1.0
 42
0.0
  3
tfrom線あり
100
AcDbAlignedDimension
 13
1940.5808499446505
 23
3871.118360855035
 33
0.0
 14
2020.0414886480996
 24
4056.1183608550318
 34
0.0
 50
90.0
100
AcDbRotatedDimension
1001
ACAD
1000
DSTYLE
1002
{
1070
             279
1070
               2
1070
             340
1005
36
1070
             147
1040
5.0
1002
}
  0
DIMENSION
  5
170
100
AcDbEntity
  8
notes
370
               5
390
0
  6
Continuous
 62
               7
100
AcDbDimension
  2
*D19
 10
2854.3615720947037
 20
4156.1183608477959
 30
0.0
 11
2819.3615720947018
 21
4156.1183608477959
 31
0.0
 71
               5
 72
               1
 41
1.0
 42
0.0
  3
tfrom線あり
100
AcDbAlignedDimension
 13
2784.3615720947
 23
4056.1183608535348
 33
0.0
 14
2854.3615720947037
 24
4051.0497183529737
 34
0.0
100
AcDbRotatedDimension
1001
ACAD
1000
DSTYLE
1002
{
1070
             279
1070
               2
1070
             340
1005
36
1070
             147
1040
5.0
1002
}
  0
DIMENSION
  5
171
100
AcDbEntity
  8
notes
370
               5
390
0
  6
Continuous
 62
               7
100
AcDbDimension
  2
*D20
 10
1186.1523916221383
 20
4056.1183608550327
 30
0.0
 11
1186.1523916221383
 21
4036.1183608550336
 31
0.0
 71
               5
 72
               1
 41
1.0
 42
0.0
  3
tfrom線あり
100
AcDbAlignedDimension
 13
1480.0
 23
4016.1183608550341
 33
0.0
 14
1292.9045618559919
 24
4056.1183608550327
 34
0.0
 50
90.0
100
AcDbRotatedDimension
1001
ACAD
1000
DSTYLE
1002
{
1070
             279
1070
               2
1070
             340
1005
36
1070
             147
1040
5.0
1002
}
  0
CIRCLE
  5
172
100
AcDbEntity
  8
AAA70-1103
370
              15
390
0
  6
Continuous
 62
               7
100
AcDbCircle
 10
1656.1523916221381
 20
4984.9400013490031
 30
0.0
 40
22.5
  0
CIRCLE
  5
173
100
AcDbEntity
  8
AAA70-1103
370
              15
390
0
  6
Continuous
 62
               7
100
AcDbCircle
 10
1656.1523916221381
 20
4984.9400013490031
 30
0.0
 40
35.0
  0
LWPOLYLINE
  5
174
100
AcDbEntity
  8
AAA70-1103
370
              15
390
0
  6
Continuous
 62
               7
100
AcDbPolyline
 90
       51
 70
             128
 10
2020.9131345700482
 20
5156.5383344110687
 42
0.0035856279531874
 10
2020.7334866647886
 20
5157.9865457011683
 10
2020.5919723219661
 20
5159.0640416083834
 42
0.0143812723273175
 10
2020.0157653217893
 20
5162.6493797872836
 10
2019.8101262173464
 20
5163.7296403425571
 42
0.0143354739549538
 10
2018.5803227304007
 20
5169.3135704675296
 10
2018.574472309027
 20
5169.336925563699
 42
0.0142703611373615
 10
2017.0404285883599
 20
5174.795086983414
 10
2017.0343143667951
 20
5174.8146772146702
 42
0.0141940235265117
 10
2015.205539982808
 20
5180.1379407434488
 10
2015.1994509125145
 20
5180.1541522647949
 42
0.0141108628650296
 10
2013.0855108544995
 20
5185.333396038126
 10
2013.0796805997661
 20
5185.3466025040416
 42
0.0140253351676278
 10
2010.6901909712553
 20
5190.372722454279
 10
2010.6848055550743
 20
5190.3832763660184
 42
0.0139415826468189
 10
2008.0294252093029
 20
5195.2471937165437
 10
2008.024632209125
 20
5195.2554192918633
 42
0.0138633583448294
 10
2005.1130528173665
 20
5199.9480866334561
 10
2005.1089699871948
 20
5199.9542771178567
 42
0.0137938789029308
 10
2001.9509082450588
 20
5204.466679012532
 10
2001.9476383673382
 20
5204.4710871600955
 42
0.0137360414994047
 10
1998.5528168852491
 20
5208.7942519193002
 10
1998.5504355762118
 20
5208.7971186748964
 42
0.0136915232624231
 10
1994.9286129263639
 20
5212.9220743723163
 42
0.0136585254033886
 10
1991.0880670501958
 20
5216.8414608833409
 42
0.0136489330912014
 10
1987.040996371122
 20
5220.5436817105619
 42
0.0136575774869257
 10
1982.7972846006307
 20
5224.0199440841288
 42
0.0136753152821065
 10
1978.369076860467
 20
5227.2599027061842
 10
1978.3667192345877
 20
5227.2615306177322
 42
0.0137121140794691
 10
1973.7629918001417
 20
5230.2573307201055
 10
1973.7590798395424
 20
5230.2597263023326
 42
0.013763449635299
 10
1968.9898347597173
 20
5233.0027327518701
 10
1968.9841712931395
 20
5233.0057857931779
 42
0.0138274729662225
 10
1964.0594372657106
 20
5235.4873716242701
 10
1964.0517953342508
 20
5235.4909610060631
 42
0.0139017114625708
 10
1958.9816356452986
 20
5237.7025112599958
 10
1958.9717546715876
 20
5237.7064980986888
 42
0.0139831592756393
 10
1953.7662651974733
 20
5239.6394201403464
 10
1953.7538538322717
 20
5239.6436378002409
 42
0.014068306557412
 10
1948.423159819173
 20
5241.2893709484106
 10
1948.407900396822
 20
5241.2936156429614
 42
0.0141531992666137
 10
1942.9621510211664
 20
5242.6436403776352
 10
1942.9437062015643
 20
5242.6476624869538
 42
0.0142335200788479
 10
1937.3930670126917
 20
5243.6935087168067
 10
1937.3710885321336
 20
5243.69700533371
 42
0.0143046648680174
 10
1931.725731996466
 20
5244.4302595883282
 10
1931.0011485348023
 20
5244.5033672148356
 42
0.014355327477059
 10
1926.67159177293
 20
5244.8149696287101
 10
1925.9562338784508
 20
5244.8458481870275
 42
0.0071923665517629
 10
1923.047241147797
 20
5244.9295162038134
 42
0.0035922960118768
 10
1921.5879311195279
 20
5244.9400013490031
 42
0.0035922960118768
  0
LWPOLYLINE
  5
175
100
AcDbEntity
  8
AAA70-1103
370
              15
390
0
  6
Continuous
 62
               7
100
AcDbPolyline
 90
       20
 70
             128
 10
1656.1523916221381
 20
4764.9400013490031
 42
0.0001205637869445
 10
1651.748990778507
 20
4764.9388219526509
 10
1648.4487342196849
 20
4764.9371422368486
 42
-0.0000591263027377
 10
1637.4448200343104
 20
4764.9328428690415
 10
1634.1431229255354
 20
4764.9319432887414
 42
-0.0006573225624697
 10
1616.536611604854
 20
4764.950290503285
 42
-0.0012483208055914
 10
1598.9319793423324
 20
4765.0357283643298
 42
-0.0018403936125259
 10
1581.3298809716778
 20
4765.2298913148961
 42
-0.0024325024664521
 10
1563.7310608662572
 20
4765.5744484070583
 42
-0.0030240643843689
 10
1546.1362663125908
 20
4766.1110754849342
 42
-0.0036142065859884
 10
1528.5462461528493
 20
4766.8814597657638
 42
-0.0042009848165244
 10
1510.9617512475595
 20
4767.9272898288409
 42
-0.0047867583305948
 10
1493.3932479662817
 20
4769.2894594725385
 10
1493.3835391191712
 20
4769.2903058238289
 42
-0.0053577857441674
 10
1475.8270925584466
 20
4771.0104971415894
 10
1473.6273739094036
 20
4771.2498501408099
 42
-0.0059478821946659
 10
1460.4488386478458
 20
4772.8426522980499
 10
1458.2606263429057
 20
4773.133576680958
 42
-0.003187502845882
 10
1449.485264951102
 20
4774.3572479163158
 42
-0.0016435675648527
 10
1445.0994069207561
 20
4775.0120960755648
 42
-0.0016435675648527
  0
LINE
  5
176
100
AcDbEntity
  8
AAA70-1103
370
              15
390
0
  6
Continuous
 62
               7
100
AcDbLine
 10
1390.7168521247484
 20
5244.9400013490031
 30
0.0
 11
1921.5879311195279
 21
5244.9400013490031
 31
0.0
  0
LWPOLYLINE
  5
177
100
AcDbEntity
  8
AAA70-1103
370
              15
390
0
  6
Continuous
 62
               7
100
AcDbPolyline
 90
       48
 70
             128
 10
1445.0994069207561
 20
4775.0120960755648
 42
-0.0032146330951034
 10
1443.0326355151842
 20
4775.2253127721251
 10
1441.4917943458183
 20
4775.3942909873758
 42
-0.0128673508364497
 10
1436.362638122167
 20
4776.090771238768
 10
1434.8187729000842
 20
4776.3410224595618
 42
-0.0128210526449498
 10
1426.7777570777132
 20
4777.8569468644937
 10
1426.7522507412668
 20
4777.8624361047468
 42
-0.0127658988927385
 10
1418.8499747596913
 20
4779.7753967003655
 10
1418.8283585188483
 20
4779.7812174723003
 42
-0.0127067440190707
 10
1411.0766283627506
 20
4782.0813590365387
 10
1411.0585545889726
 20
4782.0872256371549
 42
-0.0126461908926464
 10
1403.4691652794888
 20
4784.7646487498005
 10
1403.4543010418852
 20
4784.7703192474264
 42
-0.01258679747924
 10
1396.0390292772279
 20
4787.8150844261836
 10
1396.0270621993375
 20
4787.8203539757114
 42
-0.0125308870297534
 10
1388.7976613442322
 20
4791.2224887465027
 10
1388.7883046563206
 20
4791.2271818676791
 42
-0.0124805256037123
 10
1381.756500321231
 20
4794.9766890332576
 10
1381.7494935661298
 20
4794.9806528728395
 42
-0.012437436922574
 10
1374.9269849007085
 20
4799.0675162300922
 10
1374.922104299299
 20
4799.0706073294014
 42
-0.0124031800363772
 10
1368.3205499122939
 20
4803.484809518498
 42
-0.0123841729286759
 10
1361.9486459564466
 20
4808.2183969861799
 42
-0.0123675269846406
 10
1355.8226625185696
 20
4813.2581744015388
 42
-0.0123610590825094
 10
1349.9540464168074
 20
4818.5939858981628
 42
-0.0123665570644502
 10
1344.3543258216712
 20
4824.2156024983733
 42
-0.012389601407153
 10
1339.0379850457157
 20
4830.1093354327631
 10
1339.0349275637025
 20
4830.1128986505591
 42
-0.0124191588932324
 10
1334.0114994736032
 20
4836.2703056822847
 10
1334.0072733691866
 20
4836.2757567496847
 42
-0.0124580208940864
 10
1329.2881104340067
 20
4842.6864597798212
 10
1329.2828219648507
 20
4842.694031975394
 42
-0.0125049490015401
 10
1324.8792680678737
 20
4849.3476301678656
 10
1324.8730330905962
 20
4849.3575831061025
 42
-0.0125583352831215
 10
1320.7964232773143
 20
4856.2436438498798
 10
1320.7893714051677
 20
4856.2562684611476
 42
-0.0126162701159974
 10
1317.0510230111317
 20
4863.3643284868167
 10
1317.0433061560277
 20
4863.3799453569318
 42
-0.0126765580237784
 10
1313.6545106755721
 20
4870.6995124993518
 10
1313.6463111183127
 20
4870.7184691538414
 42
-0.0127367503249264
 10
1310.6183261727515
 20
4878.239025830364
 10
1310.609864322262
 20
4878.2616922738007
 42
-0.0127941690686824
 10
1307.9539058515611
 20
4885.9727004185843
 10
1307.6412179983818
 20
4886.9620352782495
 42
-0.0128422726488563
 10
1305.9270311253802
 20
4892.9134260597166
 10
1305.6688985299852
 20
4893.9046590363523
 42
-0.0064374814470978
 10
1304.6756943348307
 20
4897.930407234533
 42
-0.0032181269351466
 10
1304.2170501499211
 20
4899.9569243633259
 42
-0.0032181269351466
  0
LWPOLYLINE
  5
178
100
AcDbEntity
  8
AAA70-1103
370
              15
390
0
  6
Continuous
 62
               7
100
AcDbPolyline
 90
       51
 70
             128
 10
1291.391648674228
 20
5156.5383344110687
 42
-0.0035856279531971
 10
1291.5712965794878
 20
5157.9865457011711
 10
1291.7128109223102
 20
5159.0640416083834
 42
-0.0143812723272663
 10
1292.289017922486
 20
5162.6493797872827
 10
1292.4946570269285
 20
5163.7296403425571
 42
-0.0143354739550691
 10
1293.7244605138737
 20
5169.3135704675306
 10
1293.7303109352465
 20
5169.3369255636953
 42
-0.0142703611372837
 10
1295.2643546559145
 20
5174.7950869834149
 10
1295.2704688774807
 20
5174.8146772146765
 42
-0.0141940235266961
 10
1297.0992432614673
 20
5180.1379407434497
 10
1297.1053323317599
 20
5180.1541522647931
 42
-0.0141108628648076
 10
1299.2192723897767
 20
5185.333396038126
 10
1299.2251026445119
 20
5185.3466025040452
 42
-0.0140253351678061
 10
1301.6145922730209
 20
5190.3727224542799
 10
1301.6199776891983
 20
5190.3832763660121
 42
-0.0139415826467084
 10
1304.2753580349734
 20
5195.2471937165428
 10
1304.2801510351501
 20
5195.2554192918597
 42
-0.0138633583447197
 10
1307.1917304269089
 20
5199.9480866334561
 10
1307.1958132570851
 20
5199.954277117864
 42
-0.0137938789031619
 10
1310.3538749992165
 20
5204.4666790125329
 10
1310.3571448769358
 20
5204.4710871600946
 42
-0.0137360414993228
 10
1313.7519663590272
 20
5208.7942519192993
 10
1313.7543476680667
 20
5208.7971186748991
 42
-0.0136915232624226
 10
1317.3761703179123
 20
5212.9220743723154
 42
-0.0136683141603297
 10
1321.2167161940804
 20
5216.8414608833409
 42
-0.0136510420827366
 10
1325.2637868731551
 20
5220.5436817105638
 42
-0.0136517072358508
 10
1329.5074986436455
 20
5224.0199440841288
 42
-0.0136753152820989
 10
1333.9357063838063
 20
5227.2599027061824
 10
1333.9380640096867
 20
5227.2615306177313
 42
-0.0137121140795552
 10
1338.5417914441296
 20
5230.2573307201028
 10
1338.5457034047329
 20
5230.2597263023326
 42
-0.0137634496352167
 10
1343.3149484845676
 20
5233.0027327518746
 10
1343.3206119511367
 20
5233.0057857931779
 42
-0.0138274729663014
 10
1348.2453459785647
 20
5235.4873716242701
 10
1348.2529879100255
 20
5235.4909610060631
 42
-0.0139017114626158
 10
1353.3231475989737
 20
5237.7025112599931
 10
1353.3330285726886
 20
5237.7064980986879
 42
-0.0139831592754849
 10
1358.5385180467997
 20
5239.6394201403446
 10
1358.5509294120045
 20
5239.64363780024
 42
-0.0140683065574046
 10
1363.8816234251101
 20
5241.2893709484133
 10
1363.8968828474542
 20
5241.2936156429623
 42
-0.0141531992667688
 10
1369.3426322231096
 20
5242.6436403776361
 10
1369.3610770427119
 20
5242.6476624869547
 42
-0.0142335200789309
 10
1374.9117162315815
 20
5243.693508716804
 10
1374.9336947121426
 20
5243.6970053337081
 42
-0.0143046648676145
 10
1380.5790512478131
 20
5244.4302595883273
 10
1381.303634709469
 20
5244.5033672148356
 42
-0.0143553274774203
 10
1385.6331914713444
 20
5244.814969628711
 10
1386.3485493658218
 20
5244.8458481870275
 42
-0.0071923665516393
 10
1389.2575420964793
 20
5244.9295162038134
 42
-0.0035924545395235
 10
1390.7168521247484
 20
5244.9400013490031
 42
-0.0035924545395235
  0
LWPOLYLINE
  5
179
100
AcDbEntity
  8
AAA70-1103
370
              15
390
0
  6
Continuous
 62
               7
100
AcDbPolyline
 90
       18
 70
             128
 10
1304.2170501499211
 20
4899.9569243633259
 42
-0.0016656584919726
 10
1303.1246725089029
 20
4905.0125275937135
 10
1301.7811984772022
 20
4911.3321320072255
 42
-0.0099838631661213
 10
1298.37350664632
 20
4929.0986337719605
 10
1297.2829227437787
 20
4935.4696504784797
 42
-0.0066497732372051
 10
1294.0704221898684
 20
4955.8638661815012
 42
-0.006647147366429
 10
1291.401905301225
 20
4976.3308856177182
 42
-0.0066435987958207
 10
1289.2791383225756
 20
4996.8525890613873
 42
-0.0066412296430961
 10
1287.702669159479
 20
5017.4180399616498
 42
-0.0066400653328838
 10
1286.6730454830629
 20
5038.0163050405627
 42
-0.0066401091070525
 10
1286.1908154353748
 20
5058.6364507308781
 42
-0.0066413515998005
 10
1286.2565275592513
 20
5079.2675434928287
 42
-0.0066437694998417
 10
1286.8707307972452
 20
5099.8986496779153
 42
-0.0066500668784828
 10
1288.0334835148124
 20
5120.5115636892242
 10
1288.2139893971678
 20
5123.0990162224398
 42
-0.0099841163984257
 10
1290.5256782548099
 20
5148.8252049064686
 10
1290.8088408861411
 20
5151.3988239258842
 42
-0.0016655559363224
 10
1291.391648674228
 20
5156.5383344110687
 42
-0.0016655559363224
  0
CIRCLE
  5
17A
100
AcDbEntity
  8
AAA70-1103
370
              15
390
0
  6
STYLE_12
 62
               7
100
AcDbCircle
 10
1656.1523916221381
 20
5174.9400013490031
 30
0.0
 40
18.5
  0
CIRCLE
  5
17B
100
AcDbEntity
  8
AAA70-1103
370
              15
390
0
  6
STYLE_12
 62
               7
100
AcDbCircle
 10
1756.1523916221381
 20
5174.9400013490031
 30
0.0
 40
17.5
  0
CIRCLE
  5
17C
100
AcDbEntity
  8
AAA70-1103
370
              15
390
0
  6
STYLE_12
 62
               7
100
AcDbCircle
 10
1556.1523916221383
 20
5174.9400013490031
 30
0.0
 40
17.5
  0
CIRCLE
  5
17D
100
AcDbEntity
  8
AAA70-1103
370
               5
390
0
  6
STYLE_12
 62
               7
100
AcDbCircle
 10
2622.5408535694532
 20
4984.9295162038134
 30
0.0
 40
22.500000000000114
  0
LWPOLYLINE
  5
17E
100
AcDbEntity
  8
AAA70-1103
370
               5
390
0
  6
STYLE_12
 62
               7
100
AcDbPolyline
 90
       48
 70
             128
 10
2833.5938382708346
 20
4775.001610930376
 42
0.0032146330950451
 10
2835.6606096764081
 20
4775.2148276269363
 10
2837.2014508457714
 20
4775.3838058421861
 42
0.0128673508365344
 10
2842.3306070694202
 20
4776.0802860935773
 10
2843.8744722915076
 20
4776.3305373143712
 42
0.0128210526450656
 10
2851.9154881138775
 20
4777.8464617193049
 10
2851.9409944503241
 20
4777.8519509595581
 42
0.0127658988925558
 10
2859.8432704318993
 20
4779.7649115551767
 10
2859.8648866727422
 20
4779.7707323271115
 42
0.0127067440192035
 10
2867.6166168288401
 20
4782.0708738913499
 10
2867.634690602621
 20
4782.0767404919661
 42
0.0126461908925086
 10
2875.2240799121018
 20
4784.7541636046108
 10
2875.2389441497039
 20
4784.7598341022358
 42
0.0125867974793685
 10
2882.6542159143628
 20
4787.8045992809939
 10
2882.6661829922541
 20
4787.8098688305217
 42
0.0125308870296586
 10
2889.8955838473585
 20
4791.2120036013139
 10
2889.9049405352698
 20
4791.2166967224894
 42
0.0124805256037474
 10
2896.9367448703597
 20
4794.9662038880688
 10
2896.943751625462
 20
4794.9701677276507
 42
0.0124374369225511
 10
2903.7662602908822
 20
4799.0570310849025
 10
2903.771140892291
 20
4799.0601221842117
 42
0.0124031800363626
 10
2910.3726952792967
 20
4803.4743243733074
 42
0.0123728078220636
 10
2916.7445992351441
 20
4808.2079118409902
 42
0.0123629584110061
 10
2922.8705826730211
 20
4813.2476892563491
 42
0.0123625782714609
 10
2928.7391987747833
 20
4818.5835007529731
 42
0.0123744651860146
 10
2934.3389193699195
 20
4824.2051173531845
 42
0.0123896014071979
 10
2939.6552601458748
 20
4830.0988502875734
 10
2939.6583176278882
 20
4830.1024135053704
 42
0.0124191588931346
 10
2944.6817457179873
 20
4836.259820537095
 10
2944.6859718224041
 20
4836.265271604495
 42
0.0124580208942024
 10
2949.4051347575837
 20
4842.6759746346315
 10
2949.4104232267391
 20
4842.6835468302042
 42
0.0125049490014318
 10
2953.8139771237147
 20
4849.3371450226741
 10
2953.8202121009936
 20
4849.3470979609137
 42
0.0125583352831845
 10
2957.8968219142789
 20
4856.2331587046956
 10
2957.9038737864221
 20
4856.2457833159579
 42
0.0126162701159325
 10
2961.6422221804592
 20
4863.3538433416279
 10
2961.6499390355621
 20
4863.3694602117412
 42
0.0126765580238157
 10
2965.0387345160179
 20
4870.6890273541603
 10
2965.046934073278
 20
4870.7079840086517
 42
0.0127367503249133
 10
2968.074919018838
 20
4878.2285406851688
 10
2968.0833808693287
 20
4878.251207128611
 42
0.0127941690686889
 10
2970.7393393400275
 20
4885.9622152733873
 10
2971.0520271932096
 20
4886.9515501330616
 42
0.0128422726488915
 10
2972.7662140662096
 20
4892.902940914526
 10
2973.0243466616025
 20
4893.8941738911544
 42
0.0064374814468563
 10
2974.01755085676
 20
4897.9199220893424
 42
0.0032180039057576
 10
2974.4761950416696
 20
4899.9464392181362
 42
0.0032180039057576
  0
LWPOLYLINE
  5
17F
100
AcDbEntity
  8
AAA70-1103
370
               5
390
0
  6
STYLE_12
 62
               7
100
AcDbPolyline
 90
       43
 70
             128
 10
2827.1592223968992
 20
4800.9495536602744
 42
0.0032344522440685
 10
2828.8971985411763
 20
4801.1315671671682
 10
2831.0547502436348
 20
4801.3716414661603
 42
0.0193993342614913
 10
2837.0714513162357
 20
4802.278574365374
 10
2839.2131689292569
 20
4802.6869242629482
 42
0.0128724896082662
 10
2845.9268132913367
 20
4804.1470186704373
 10
2845.9445848813079
 20
4804.1513656128927
 42
0.0128107605873199
 10
2852.5391360922895
 20
4805.9446275823911
 10
2852.5539308550824
 20
4805.9490607537073
 42
0.0127527028364019
 10
2859.0189019000009
 20
4808.0673650780845
 10
2859.0309905957515
 20
4808.0716704080442
 42
0.0126965161521936
 10
2865.3558989819676
 20
4810.5069171001005
 10
2865.3655343299706
 20
4810.5109107099597
 42
0.0126444789907804
 10
2871.5399181698513
 20
4813.2549733819824
 10
2871.5473331115049
 20
4813.2584959246542
 42
0.0125985328498494
 10
2877.5607510240852
 20
4816.3032267533517
 10
2877.5661483348408
 20
4816.3061326316829
 42
0.0125604641953092
 10
2883.4081932593899
 20
4819.6433769926571
 10
2883.4117773555972
 20
4819.6455455674977
 42
0.0125312005133154
 10
2889.0720266959952
 20
4823.2671152466037
 42
0.0125087613242116
 10
2894.5420898876446
 20
4827.1661879203084
 42
0.0125031055308783
 10
2899.8081693113254
 20
4831.3323000724949
 42
0.0125095986459366
 10
2904.8599773640854
 20
4835.7570982852576
 42
0.0125266416356631
 10
2909.6873198682542
 20
4840.4323131289129
 42
0.0125447724142555
 10
2914.2765935912889
 20
4845.3458376573044
 10
2914.2800076772592
 20
4845.3496819152106
 42
0.012578527617983
 10
2918.6233420191061
 20
4850.4953386638426
 10
2918.6278182031629
 20
4850.5009207317489
 42
0.0126207744961289
 10
2922.7150840941099
 20
4855.8702097667938
 10
2922.7205282595296
 20
4855.8777490389548
 42
0.0126700096423496
 10
2926.5416003331975
 20
4861.4621435622557
 10
2926.5479104255628
 20
4861.4718863882308
 42
0.012724410313091
 10
2930.0926746768728
 20
4867.2628328273404
 10
2930.0997332712441
 20
4867.2750519351548
 42
0.0127818492375419
 10
2933.3580941605042
 20
4873.2639706338387
 10
2933.3657613288015
 20
4873.2789636263551
 42
0.0128399316348868
 10
2936.3276488877286
 20
4879.4572510853823
 10
2936.3357553723845
 20
4879.4753378474079
 42
0.0128959715134378
 10
2938.9911330612204
 20
4885.8343709815981
 10
2938.9994711866075
 20
4885.8558829378517
 42
0.012943514483357
 10
2941.3383865707356
 20
4892.3869964421719
 10
2941.342149074776
 20
4892.3984265313602
 42
0.0032375612006822
 10
2941.8778014984609
 20
4894.0618719111426
 42
0.0032375612006822
  0
LWPOLYLINE
  5
180
100
AcDbEntity
  8
AAA70-1103
370
               5
390
0
  6
STYLE_12
 62
               7
100
AcDbPolyline
 90
       31
 70
             128
 10
2941.8778014984609
 20
4894.0618719111426
 42
0.0021224323876558
 10
2942.5312013060866
 20
4896.168192916959
 10
2942.6926622630463
 20
4896.6965998173364
 42
0.0041055452456456
 10
2943.6339834299265
 20
4899.8702376337887
 10
2944.0962650229212
 20
4901.4770868069045
 42
0.0075543106456493
 10
2945.8390658959238
 20
4907.8984851942796
 10
2946.1196892611597
 20
4908.9978954935723
 42
0.0068081324996366
 10
2948.2085863302827
 20
4917.6728915951271
 10
2948.2154588645935
 20
4917.7032425118296
 42
0.0061133710729664
 10
2950.0925329383522
 20
4926.4903360997087
 10
2950.0977223179771
 20
4926.5161712191157
 42
0.0054555910533868
 10
2951.7808385484227
 20
4935.396251738568
 10
2951.7844786046562
 20
4935.4166718690622
 42
0.0048310871357344
 10
2953.2914642365722
 20
4944.3705190814471
 10
2953.2937165664252
 20
4944.3847395958182
 42
0.0042356522240388
 10
2954.6423780019909
 20
4953.3930140611701
 10
2954.6434147552918
 20
4953.4003636240495
 42
0.0036645277086185
 10
2955.8515450918194
 20
4962.4435271366629
 10
2955.8525534852533
 20
4962.4515211757371
 42
0.0031133926580806
 10
2956.9360682168335
 20
4971.494208284138
 10
2956.9379178759195
 20
4971.5105033080927
 42
0.0025751144393488
 10
2957.9149608379557
 20
4980.5323792758645
 10
2957.9175298275754
 20
4980.5572993091519
 42
0.002052183255337
 10
2958.8061094749801
 20
4989.5380143105504
 10
2958.8093156731516
 20
4989.5718348940281
 42
0.0015221040695413
 10
2959.6274706237973
 20
4998.4910464401182
 10
2959.7283698449369
 20
4999.6290861910975
 42
0.0009734861604019
 10
2960.3046333138846
 20
5006.2758308450202
 10
2960.3995380341312
 20
5007.3958180670952
 42
0.0002824465825619
 10
2960.7705609156937
 20
5011.8039198351989
 42
0.0000888855536897
 10
2960.9539842241547
 20
5014.0026990053275
 42
0.0000888855536897
  0
LWPOLYLINE
  5
181
100
AcDbEntity
  8
AAA70-1103
370
               5
390
0
  6
STYLE_12
 62
               7
100
AcDbPolyline
 90
       20
 70
             128
 10
2622.5408535694496
 20
4789.9295162038134
 42
-0.000281767335478
 10
2626.8102042378823
 20
4789.9895148548094
 10
2630.0094664048347
 20
4790.0326719475561
 42
-0.0005219990698722
 10
2640.6775138295748
 20
4790.1654414320292
 10
2643.878688143313
 20
4790.201939241887
 42
0.000146362729624
 10
2660.9485251977367
 20
4790.4015564098809
 42
0.0008065887626663
 10
2678.0166862237284
 20
4790.63368981859
 42
0.0014679177097536
 10
2695.0825037868744
 20
4790.9434455868786
 42
0.0021293713060907
 10
2712.1452017105767
 20
4791.3759647738252
 42
0.0027905560238353
 10
2729.2040003833145
 20
4791.9763953038591
 42
0.0034508146134794
 10
2746.2581187655605
 20
4792.7898975463422
 42
0.0041083144894094
 10
2763.3067730318362
 20
4793.8616338327256
 42
0.0047603672795346
 10
2780.3394140893506
 20
4795.2359429115922
 10
2780.3491748809392
 20
4795.2368240874475
 42
0.0053991494669746
 10
2797.3696571918763
 20
4796.9588600610969
 10
2799.5023330147806
 20
4797.1979232476669
 42
0.0060595480255379
 10
2812.2790817183504
 20
4798.7871455873346
 10
2814.4003061183557
 20
4799.0771372568561
 42
0.0032686739818977
 10
2822.9073716777302
 20
4800.2968388298868
 42
0.0016910047318585
 10
2827.1592223968992
 20
4800.9495536602744
 42
0.0016910047318585
  0
LWPOLYLINE
  5
182
100
AcDbEntity
  8
AAA70-1103
370
               5
390
0
  6
STYLE_12
 62
               7
100
AcDbPolyline
 90
       61
 70
             128
 10
2960.9539842241547
 20
5014.0026990053275
 42
0.0007827547312627
 10
2961.0294890940604
 20
5014.9272534040774
 10
2961.1228484641006
 20
5016.0929271873856
 42
0.0054118041796937
 10
2961.3483553354476
 20
5019.3513882259313
 10
2961.389865159801
 20
5020.0629169334061
 42
0.0039432617466551
 10
2961.6261669133419
 20
5024.7487398847616
 10
2961.6475768222772
 20
5025.2522000926465
 42
0.0090730534173691
 10
2961.7863538079055
 20
5030.9493255574198
 10
2961.7923106341859
 20
5031.908745544355
 42
0.0051095377184928
 10
2961.7769356367417
 20
5035.7426138882047
 42
0.0054731664458624
 10
2961.6803857518153
 20
5039.5768771436115
 42
0.0058926829208823
 10
2961.4967160398201
 20
5043.4085633975774
 10
2961.4965190585035
 20
5043.4118596088892
 42
0.0063442080851206
 10
2961.219666700682
 20
5047.2303114455608
 10
2961.2192101431638
 20
5047.2356656275288
 42
0.0068228482666862
 10
2960.8429751158028
 20
5051.0347619129079
 10
2960.8421738084794
 20
5051.041863712614
 42
0.0073315741330552
 10
2960.3603751310884
 20
5054.8145571053556
 10
2960.3591627332898
 20
5054.8230569362686
 42
0.007871352501941
 10
2959.7655962268254
 20
5058.5623406805644
 10
2959.7639333054922
 20
5058.5718474968453
 42
0.0084424209398556
 10
2959.0523625981969
 20
5062.2707570718858
 10
2959.0502463432949
 20
5062.280837302289
 42
0.0090440288866084
 10
2958.2143921956385
 20
5065.9324505863806
 10
2958.2118678195616
 20
5065.9426288465793
 42
0.0096741285098746
 10
2957.2453958124006
 20
5069.5400640963817
 10
2957.2425695067259
 20
5069.5498264414327
 42
0.0103290238621761
 10
2956.139076355933
 20
5073.0862372555939
 10
2956.1361294188991
 20
5073.0950378497564
 42
0.011002999129378
 10
2954.8891284965885
 20
5076.5636042063243
 10
2954.8863318837789
 20
5076.5708763274051
 42
0.011687963702842
 10
2953.4892389417937
 20
5079.964790813845
 10
2953.4869670392145
 20
5079.9699630104933
 42
0.0123731724996338
 10
2951.9330876180393
 20
5083.2824115743269
 10
2951.9318295349167
 20
5083.2849294816588
 42
0.0130451011465371
 10
2950.2143500296479
 20
5086.5090664922827
 42
0.0136903535474617
 10
2948.3267009706133
 20
5089.6373383924756
 42
0.0142822161647381
 10
2946.2667794083927
 20
5092.6557097017831
 10
2946.2638195689524
 20
5092.6597912762572
 42
0.0148093643365615
 10
2944.0257886423205
 20
5095.5611710676294
 10
2944.0193953427479
 20
5095.5689703868393
 42
0.0152493265108369
 10
2941.5979152074174
 20
5098.3457775845427
 10
2941.5871345897758
 20
5098.357404539217
 42
0.0155840151970645
 10
2938.9769308684472
 20
5101.0022219144657
 10
2938.9607661184018
 20
5101.0176109532285
 42
0.0157986899357116
 10
2936.1565891521886
 20
5103.5232049683591
 10
2936.1340451901297
 20
5103.5421023265999
 42
0.0158835524172451
 10
2933.130622399839
 20
5105.901430168813
 10
2933.1007546975525
 20
5105.9233953154699
 42
0.0158348891522501
 10
2929.8927411395985
 20
5108.1295967681463
 10
2929.8547030707832
 20
5108.1540191399472
 42
0.0156555227710745
 10
2926.4366361181478
 20
5110.200393289475
 10
2926.3897190934713
 20
5110.2265228835486
 42
0.01535446424453
 10
2922.7559828096128
 20
5112.1064922720016
 10
2922.6996447961064
 20
5112.1334802434076
 42
0.0149455957846297
 10
2918.8444493067241
 20
5113.8405489796969
 10
2918.3142287478827
 20
5114.0566161066936
 42
0.0144021244471433
 10
2915.17009061098
 20
5115.233465853099
 10
2914.6598660279569
 20
5115.4078624091035
 42
0.0069814360678054
 10
2912.4923966189281
 20
5116.1150701437682
 42
0.0034160291594833
 10
2911.390773503671
 20
5116.4493312210388
 42
0.0034160291594833
  0
LWPOLYLINE
  5
183
100
AcDbEntity
  8
AAA70-1103
370
               5
390
0
  6
STYLE_12
 62
               7
100
AcDbPolyline
 90
       20
 70
             128
 10
2622.5408535694569
 20
4789.9295162038134
 42
0.000281767335478
 10
2618.2715029009441
 20
4789.9895148548103
 10
2615.0722407340731
 20
4790.0326719475561
 42
0.0005219990698589
 10
2604.4041933093022
 20
4790.1654414320283
 10
2601.2030189955949
 20
4790.2019392418861
 42
-0.0001463736909547
 10
2584.1331819411703
 20
4790.4015564098809
 42
-0.0008066458446771
 10
2567.065020915179
 20
4790.63368981859
 42
-0.0014679960927649
 10
2549.999203352033
 20
4790.9434455868786
 42
-0.002129349494235
 10
2532.9365054283307
 20
4791.3759647738252
 42
-0.0027901614250797
 10
2515.877706755593
 20
4791.9763953038591
 42
-0.0034495692693112
 10
2498.8235883733469
 20
4792.7898975463422
 42
-0.004105484241431
 10
2481.7749341070712
 20
4793.8616338327256
 42
-0.0047603672794384
 10
2464.7422930495586
 20
4795.2359429115922
 10
2464.7325322579682
 20
4795.2368240874475
 42
-0.0053991494670569
 10
2447.7120499470257
 20
4796.9588600610959
 10
2445.5793741241287
 20
4797.197923247666
 42
-0.006059548025531
 10
2432.802625420557
 20
4798.7871455873346
 10
2430.6814010205535
 20
4799.0771372568561
 42
-0.0032686739817873
 10
2422.1743354611754
 20
4800.2968388298859
 42
-0.0016900822715922
 10
2417.9224847420082
 20
4800.9495536602744
 42
-0.0016900822715922
  0
LWPOLYLINE
  5
184
100
AcDbEntity
  8
AAA70-1103
370
               5
390
0
  6
STYLE_12
 62
               7
100
AcDbPolyline
 90
       50
 70
             128
 10
2911.390773503671
 20
5116.4493312210388
 42
0.0214931219793971
 10
2911.3122982850455
 20
5116.4967679118718
 10
2911.2524551118286
 20
5116.5295169297351
 42
0.0211370608061689
 10
2911.0479855986359
 20
5116.6304291097285
 10
2910.9051728539407
 20
5116.6935541349703
 42
0.0163899363238107
 10
2910.4041837775785
 20
5116.8956419619863
 10
2910.3688997041972
 20
5116.9085471654398
 42
0.0073449848255558
 10
2909.7877350369567
 20
5117.1114808765897
 10
2909.6267321140867
 20
5117.1650604988345
 42
0.0120382505560937
 10
2908.7138482357191
 20
5117.4446334671811
 10
2908.3680724378901
 20
5117.5414876344639
 42
0.0096774349011664
 10
2906.748775916456
 20
5117.9614424931942
 10
2906.4576762073839
 20
5118.0309537859121
 42
0.0079777458753343
 10
2904.2401967440437
 20
5118.5232037940341
 10
2903.9054070124539
 20
5118.5919369833991
 42
0.006673993931904
 10
2901.00307714055
 20
5119.1475281534631
 10
2900.6244169325209
 20
5119.2147883895723
 42
0.005656685992385
 10
2896.9504511367854
 20
5119.8245917705453
 10
2896.5278325348181
 20
5119.8898339285752
 42
0.0048500573850207
 10
2891.9953790331601
 20
5120.5445890004785
 10
2891.5287665023834
 20
5120.607381228634
 42
0.0042010473954871
 10
2886.050936126172
 20
5121.2977283410964
 10
2885.5403238320814
 20
5121.3577247666562
 42
0.003671901278084
 10
2879.0302064668217
 20
5122.0742290067046
 10
2878.4756052168641
 20
5122.1311495376676
 42
0.0032353050685691
 10
2870.8462793163926
 20
5122.8643182682408
 10
2870.2477089306176
 20
5122.9179336424031
 42
0.0028711759550746
 10
2861.4122470857669
 20
5123.6582294615982
 10
2860.7697318971232
 20
5123.7083501136867
 42
0.0025645203344927
 10
2850.6412041112226
 20
5124.4462005150062
 10
2849.9547703044391
 20
5124.4926682145369
 42
0.0023039834358784
 10
2838.4462459138258
 20
5125.218472861683
 10
2837.715919960935
 20
5125.2611543695775
 42
0.0020808518339514
 10
2824.740468743852
 20
5125.9652906351293
 10
2823.9662765020685
 20
5126.00407284228
 42
0.001888357273604
 10
2809.4369692968398
 20
5126.676900063836
 10
2808.6189355094912
 20
5126.7116862262401
 42
0.0017211816494267
 10
2792.4488445363518
 20
5127.3435490384436
 10
2791.5869925792558
 20
5127.3742558366612
 42
0.0015751077844378
 10
2773.6891915771239
 20
5127.955486681446
 10
2772.7835433552982
 20
5127.9820418842701
 42
0.0014467381515473
 10
2753.0711076250973
 20
5128.5029634784105
 10
2752.1216835621035
 20
5128.5253041456481
 42
0.0013333972585114
 10
2730.5076899015899
 20
5128.9762293069543
 10
2729.5145089482558
 20
5128.9943000728645
 42
0.0012326101089165
 10
2705.9120356616336
 20
5129.3655412009866
 10
2704.875115571941
 20
5129.3792940480353
 42
0.0011687364212071
 10
2679.1972311579107
 20
5129.6598340480596
 10
2678.6677965562185
 20
5129.6643806521697
 42
0.0019318165933421
 10
2622.5408535694532
 20
5129.9295162038134
 42
0.0019318165933421
  0
LWPOLYLINE
  5
185
100
AcDbEntity
  8
AAA70-1103
370
               5
390
0
  6
STYLE_12
 62
               7
100
AcDbPolyline
 90
       43
 70
             128
 10
2417.9224847420082
 20
4800.9495536602744
 42
-0.0032344522440664
 10
2416.1845085977329
 20
4801.1315671671682
 10
2414.0269568952726
 20
4801.3716414661603
 42
-0.0193993342614619
 10
2408.0102558226718
 20
4802.278574365374
 10
2405.8685382096501
 20
4802.6869242629482
 42
-0.0128724896082775
 10
2399.1548938475703
 20
4804.1470186704373
 10
2399.1371222575999
 20
4804.1513656128927
 42
-0.0128107605873063
 10
2392.5425710466175
 20
4805.9446275823911
 10
2392.5277762838255
 20
4805.9490607537064
 42
-0.0127527028364057
 10
2386.0628052389061
 20
4808.0673650780836
 10
2386.0507165431577
 20
4808.0716704080432
 42
-0.012696516152274
 10
2379.7258081569394
 20
4810.5069171001005
 10
2379.7161728089363
 20
4810.5109107099597
 42
-0.0126444789906788
 10
2373.5417889690557
 20
4813.2549733819824
 10
2373.5343740274038
 20
4813.2584959246533
 42
-0.0125985328499651
 10
2367.5209561148217
 20
4816.3032267533517
 10
2367.5155588040639
 20
4816.3061326316847
 42
-0.0125604641952069
 10
2361.673513879517
 20
4819.643376992658
 10
2361.6699297833084
 20
4819.6455455674986
 42
-0.0125312005132843
 10
2356.0096804429118
 20
4823.2671152466028
 42
-0.0125170574394991
 10
2350.5396172512624
 20
4827.1661879203066
 42
-0.0125048844918139
 10
2345.2735378275815
 20
4831.332300072494
 42
-0.0125046193802189
 10
2340.2217297748216
 20
4835.7570982852594
 42
-0.0125146092743941
 10
2335.3943872706536
 20
4840.4323131289148
 42
-0.0125447724140557
 10
2330.8051135476226
 20
4845.3458376572999
 10
2330.8016994616478
 20
4845.3496819152106
 42
-0.0125785276182215
 10
2326.4583651197986
 20
4850.4953386638426
 10
2326.4538889357432
 20
4850.500920731748
 42
-0.0126207744960915
 10
2322.3666230447957
 20
4855.8702097667956
 10
2322.3611788793773
 20
4855.8777490389548
 42
-0.0126700096422619
 10
2318.5401068057099
 20
4861.4621435622539
 10
2318.5337967133441
 20
4861.4718863882299
 42
-0.0127244103132154
 10
2314.9890324620346
 20
4867.2628328273386
 10
2314.9819738676629
 20
4867.2750519351539
 42
-0.0127818492374881
 10
2311.7236129784023
 20
4873.2639706338414
 10
2311.7159458101064
 20
4873.2789636263542
 42
-0.0128399316347543
 10
2308.7540582511801
 20
4879.4572510853768
 10
2308.7459517665225
 20
4879.475337847407
 42
-0.0128959715136574
 10
2306.0905740776852
 20
4885.8343709816018
 10
2306.0822359522995
 20
4885.8558829378508
 42
-0.0129435144831681
 10
2303.74332056817
 20
4892.3869964421756
 10
2303.739558064131
 20
4892.3984265313602
 42
-0.0032378475947137
 10
2303.203905640446
 20
4894.0618719111426
 42
-0.0032378475947137
  0
LWPOLYLINE
  5
186
100
AcDbEntity
  8
AAA70-1103
370
               5
390
0
  6
STYLE_12
 62
               7
100
AcDbPolyline
 90
       50
 70
             128
 10
2333.690933635236
 20
5116.4493312210388
 42
-0.0214931219551854
 10
2333.7694088538642
 20
5116.4967679118699
 10
2333.8292520270793
 20
5116.5295169297333
 42
-0.0211370608113598
 10
2334.0337215402733
 20
5116.6304291097304
 10
2334.1765342849662
 20
5116.6935541349703
 42
-0.0163899363236556
 10
2334.6775233613266
 20
5116.8956419619853
 10
2334.7128074347097
 20
5116.9085471654389
 42
-0.0073449848250068
 10
2335.2939721019575
 20
5117.1114808765924
 10
2335.4549750248202
 20
5117.1650604988345
 42
-0.0120382505563971
 10
2336.3678589031856
 20
5117.4446334671811
 10
2336.7136347010169
 20
5117.5414876344648
 42
-0.0096774349015523
 10
2338.3329312224528
 20
5117.9614424931951
 10
2338.6240309315231
 20
5118.0309537859121
 42
-0.0079777458749314
 10
2340.8415103948601
 20
5118.5232037940323
 10
2341.176300126453
 20
5118.5919369833982
 42
-0.0066739939317792
 10
2344.0786299983533
 20
5119.1475281534622
 10
2344.457290206386
 20
5119.2147883895723
 42
-0.005656685992612
 10
2348.131256002132
 20
5119.8245917705481
 10
2348.5538746040888
 20
5119.8898339285761
 42
-0.0048500573849849
 10
2353.0863281057404
 20
5120.5445890004776
 10
2353.5529406365235
 20
5120.6073812286349
 42
-0.0042010473955383
 10
2359.0307710127345
 20
5121.2977283410964
 10
2359.5413833068255
 20
5121.3577247666553
 42
-0.0036719012779895
 10
2366.0515006720821
 20
5122.0742290067028
 10
2366.6061019220438
 20
5122.1311495376667
 42
-0.0032353050685219
 10
2374.2354278225148
 20
5122.8643182682408
 10
2374.8339982082903
 20
5122.917933642404
 42
-0.0028711759551978
 10
2383.6694600531564
 20
5123.6582294616001
 10
2384.3119752417838
 20
5123.7083501136876
 42
-0.0025645203344197
 10
2394.4405030276712
 20
5124.4462005150053
 10
2395.1269368344679
 20
5124.4926682145369
 42
-0.0023039834359235
 10
2406.6354612250743
 20
5125.2184728616821
 10
2407.3657871779724
 20
5125.2611543695775
 42
-0.0020808518339181
 10
2420.3412383950617
 20
5125.9652906351293
 10
2421.1154306368389
 20
5126.0040728422791
 42
-0.0018883572736224
 10
2435.6447378420621
 20
5126.676900063836
 10
2436.4627716294162
 20
5126.7116862262401
 42
-0.0017211816494469
 10
2452.6328626025747
 20
5127.3435490384436
 10
2453.4947145596516
 20
5127.3742558366603
 42
-0.0015751077843717
 10
2471.3925155617699
 20
5127.9554866814451
 10
2472.2981637836092
 20
5127.9820418842701
 42
-0.0014467381516
 10
2492.0105995138351
 20
5128.5029634784132
 10
2492.9600235768048
 20
5128.5253041456499
 42
-0.0013333972585166
 10
2514.5740172373216
 20
5128.9762293069543
 10
2515.5671981906526
 20
5128.9943000728645
 42
-0.0012326101089052
 10
2539.1696714772584
 20
5129.3655412009857
 10
2540.2065915669664
 20
5129.3792940480344
 42
-0.0011687364212189
 10
2565.8844759810022
 20
5129.6598340480596
 10
2566.4139105826889
 20
5129.6643806521697
 42
-0.0019318157290745
 10
2622.5408535694532
 20
5129.9295162038134
 42
-0.0019318157290745
  0
LWPOLYLINE
  5
187
100
AcDbEntity
  8
AAA70-1103
370
               5
390
0
  6
STYLE_12
 62
               7
100
AcDbPolyline
 90
       31
 70
             128
 10
2303.203905640446
 20
4894.0618719111426
 42
-0.0021224323876885
 10
2302.5505058328204
 20
4896.1681929169599
 10
2302.3890448758607
 20
4896.6965998173373
 42
-0.0041055452456151
 10
2301.4477237089773
 20
4899.8702376338015
 10
2300.9854421159857
 20
4901.4770868069054
 42
-0.0075543106456493
 10
2299.2426412429854
 20
4907.8984851942714
 10
2298.9620178777473
 20
4908.9978954935732
 42
-0.0068081324996213
 10
2296.8731208086242
 20
4917.6728915951289
 10
2296.8662482743134
 20
4917.7032425118305
 42
-0.0061133710729641
 10
2294.9891742005548
 20
4926.4903360997087
 10
2294.9839848209299
 20
4926.5161712191148
 42
-0.0054555910534173
 10
2293.3008685904824
 20
4935.3962517385789
 10
2293.2972285342507
 20
4935.4166718690622
 42
-0.0048310871357186
 10
2291.7902429023334
 20
4944.3705190814571
 10
2291.7879905724817
 20
4944.3847395958192
 42
-0.0042356522240667
 10
2290.4393291369151
 20
4953.3930140611774
 10
2290.4382923836151
 20
4953.4003636240504
 42
-0.0036646005396371
 10
2289.2301620470876
 20
4962.4435271366629
 10
2289.2291536536541
 20
4962.4515211757353
 42
-0.0031133926581073
 10
2288.1456389220734
 20
4971.494208284138
 10
2288.1437892629897
 20
4971.5105033080754
 42
-0.0025751144392841
 10
2287.1667463009503
 20
4980.5323792758645
 10
2287.1641773113342
 20
4980.5572993091182
 42
-0.0020521832554857
 10
2286.2755976639269
 20
4989.5380143105494
 10
2286.2723914657536
 20
4989.5718348940463
 42
-0.0015221040694
 10
2285.4542365151106
 20
4998.4910464401191
 10
2285.3533372939719
 20
4999.6290861910875
 42
-0.0009734861604233
 10
2284.7770738250224
 20
5006.2758308450202
 10
2284.6821691047726
 20
5007.3958180671343
 42
-0.0002824465824391
 10
2284.3111462232114
 20
5011.803919835198
 42
-0.0000888208038239
 10
2284.1277229147522
 20
5014.0026990053275
 42
-0.0000888208038239
  0
LWPOLYLINE
  5
188
100
AcDbEntity
  8
AAA70-1103
370
               5
390
0
  6
STYLE_12
 62
               7
100
AcDbPolyline
 90
       61
 70
             128
 10
2284.1277229147522
 20
5014.0026990053275
 42
-0.0007827547312449
 10
2284.0522180448452
 20
5014.9272534040974
 10
2283.9588586748064
 20
5016.0929271873856
 42
-0.0054118041796232
 10
2283.7333518034584
 20
5019.3513882259367
 10
2283.691841979105
 20
5020.0629169334052
 42
-0.0039432617468293
 10
2283.4555402255646
 20
5024.7487398847497
 10
2283.4341303166289
 20
5025.2522000926456
 42
-0.0090730534172926
 10
2283.2953533310015
 20
5030.9493255574189
 10
2283.2893965047215
 20
5031.9087455443396
 42
-0.0051095377184656
 10
2283.3047715021653
 20
5035.7426138882056
 42
-0.005468576613959
 10
2283.4013213870917
 20
5039.5768771436115
 42
-0.0058956478855221
 10
2283.584991099086
 20
5043.4085633975774
 10
2283.585188080403
 20
5043.4118596088992
 42
-0.0063442080853919
 10
2283.8620404382241
 20
5047.2303114455608
 10
2283.8624969957432
 20
5047.235665627536
 42
-0.0068228482664553
 10
2284.2387320231032
 20
5051.034761912907
 10
2284.2395333304266
 20
5051.0418637126122
 42
-0.0073315741331574
 10
2284.7213320078167
 20
5054.8145571053556
 10
2284.7225444056176
 20
5054.8230569362813
 42
-0.0078713525019975
 10
2285.3161109120797
 20
5058.5623406805653
 10
2285.317773833412
 20
5058.5718474968389
 42
-0.00844242093996
 10
2286.0293445407092
 20
5062.2707570718849
 10
2286.0314607956111
 20
5062.2808373022872
 42
-0.0090440288864235
 10
2286.8673149432684
 20
5065.9324505863797
 10
2286.8698393193458
 20
5065.9426288465802
 42
-0.0096741285099277
 10
2287.8363113265063
 20
5069.5400640963826
 10
2287.8391376321815
 20
5069.5498264414346
 42
-0.010329023862203
 10
2288.942630782974
 20
5073.0862372555939
 10
2288.9455777200073
 20
5073.0950378497537
 42
-0.0110029991293774
 10
2290.1925786423185
 20
5076.5636042063234
 10
2290.1953752551285
 20
5076.5708763274042
 42
-0.0116879637027125
 10
2291.5924681971132
 20
5079.964790813845
 10
2291.5947400996947
 20
5079.9699630104969
 42
-0.0123731724997421
 10
2293.1486195208677
 20
5083.2824115743279
 10
2293.1498776039898
 20
5083.2849294816597
 42
-0.0130451011466345
 10
2294.867357109259
 20
5086.5090664922827
 42
-0.0136847879279343
 10
2296.7550061682937
 20
5089.6373383924738
 42
-0.0142822161645708
 10
2298.8149277305151
 20
5092.6557097017821
 10
2298.8178875699546
 20
5092.6597912762563
 42
-0.0148093643367013
 10
2301.0559184965819
 20
5095.561171067623
 10
2301.0623117961591
 20
5095.5689703868393
 42
-0.0152493265108177
 10
2303.4837919314932
 20
5098.3457775845454
 10
2303.4945725491311
 20
5098.3574045392161
 42
-0.0155840151970574
 10
2306.1047762704584
 20
5101.0022219144639
 10
2306.1209410205051
 20
5101.0176109532276
 42
-0.0157986899356536
 10
2308.9251179867188
 20
5103.52320496836
 10
2308.9476619487773
 20
5103.5421023265999
 42
-0.0158835524173299
 10
2311.9510847390688
 20
5105.9014301688148
 10
2311.9809524413545
 20
5105.9233953154699
 42
-0.0158348891521176
 10
2315.1889659993067
 20
5108.1295967681472
 10
2315.2270040681237
 20
5108.154019139949
 42
-0.0156555227713221
 10
2318.6450710207587
 20
5110.200393289475
 10
2318.6919880454357
 20
5110.2265228835495
 42
-0.0153544642443174
 10
2322.3257243292951
 20
5112.1064922720016
 10
2322.3820623428005
 20
5112.1334802434076
 42
-0.0149455957846432
 10
2326.237257832182
 20
5113.8405489796969
 10
2326.7674783910256
 20
5114.0566161066954
 42
-0.0144021244473236
 10
2329.911616527927
 20
5115.233465853099
 10
2330.4218411109487
 20
5115.4078624091035
 42
-0.0069814360675151
 10
2332.5893105199789
 20
5116.1150701437682
 42
-0.0034144195830765
 10
2333.690933635236
 20
5116.4493312210388
 42
-0.0034144195830765
  0
LINE
  5
189
100
AcDbEntity
  8
AAA70-1103
370
              15
390
0
  6
Continuous
 62
               7
100
AcDbLine
 10
1633.920506542458
 20
3897.06695102191
 30
0.0
 11
1679.4273018734971
 21
3897.0669510219109
 31
0.0
  0
LINE
  5
18A
100
AcDbEntity
  8
AAA70-1103
370
              15
390
0
  6
Continuous
 62
               7
100
AcDbLine
 10
1615.3161586544743
 20
3911.1183608550359
 30
0.0
 11
1698.0316497614781
 21
3911.1183608550359
 31
0.0
  0
LINE
  5
18B
100
AcDbEntity
  8
AAA70-1103
370
              15
390
0
  6
Continuous
 62
               7
100
AcDbLine
 10
1633.1737515460632
 20
3876.118360855035
 30
0.0
 11
1680.1740568698883
 21
3876.118360855035
 31
0.0
  0
LWPOLYLINE
  5
18C
100
AcDbEntity
  8
AAA70-1103
370
              15
390
0
  6
Continuous
 62
               7
100
AcDbPolyline
 90
       27
 70
             129
 10
1918.6681942672487
 20
3872.9852237865889
 10
1916.3006432699831
 20
3908.4719511650869
 42
0.5008264314084175
 10
1905.5522559370449
 20
3915.445967420706
 42
-0.0808097992374504
 10
1864.7742331061283
 20
3907.324404316561
 10
1702.6696607507379
 20
3899.3028617279588
 42
0.4019516866445442
 10
1691.1740568698883
 20
3887.313467057877
 10
1691.1740568698883
 20
3877.1183608550327
 42
-0.4142135623725622
 10
1690.1740568698865
 20
3876.1183608550327
 10
1680.1740568698883
 20
3876.118360855035
 42
-0.4142135623736278
 10
1679.1740568698865
 20
3877.118360855035
 10
1679.1740568698865
 20
3896.092589546276
 42
-0.2600653575287141
 10
1680.1234371550895
 20
3897.7944115742439
 10
1695.6011050533484
 20
3910.2366350608368
 42
-0.166061342825884
 10
1698.0318024233925
 20
3911.1183608550359
 10
1864.3539030068364
 20
3918.1155665416309
 42
0.2603930634769526
 10
1968.2046680933174
 20
3982.0040887207697
 42
0.097217487249362
 10
1992.4696928029175
 20
4052.6644906297806
 42
-0.3746445708039405
 10
1996.4322352026004
 20
4056.1183608550318
 10
2018.38376056876
 20
4056.1183608550318
 42
-0.4228230956720855
 10
2022.3820431189536
 20
4052.0011574045388
 42
-0.0509615164870159
 10
2006.0178032713093
 20
3928.0645493892125
 42
-0.2802168442800483
 10
1962.1909590927437
 20
3883.7085983395518
 10
1930.9405873921394
 20
3876.8469031783998
 42
0.3441507314088488
 10
1928.6681942672487
 20
3873.9364756779637
 10
1928.6681942672487
 20
3873.1183608550341
 42
-0.414213562373095
 10
1926.6681942672487
 20
3871.1183608550341
 10
1920.6637579773317
 20
3871.1183608550341
 42
-0.3948335622960177
  0
LWPOLYLINE
  5
18D
100
AcDbEntity
  8
AAA70-1103
370
              15
390
0
  6
Continuous
 62
               7
100
AcDbPolyline
 90
       12
 70
             129
 10
1921.3625108059362
 20
3920.343066520767
 42
-0.1751637320281351
 10
1926.2784618204053
 20
3909.1376365072961
 10
1927.6411007060844
 20
3888.7133268695061
 42
0.4587179162909268
 10
1930.0655897782137
 20
3886.892999570784
 10
1959.8990759100514
 20
3893.4435868531482
 42
0.2794782773166404
 10
1996.2881214396716
 20
3930.3739415064542
 42
0.0471011589101358
 10
2012.0403297131572
 20
4042.9838607616066
 42
0.4274111994190132
 10
2009.0433462756184
 20
4046.1183608550327
 10
2004.1259652882288
 20
4046.1183608550327
 42
0.3638444513076748
 10
2001.1717737735992
 20
4043.6406179707228
 42
-0.0875411435077995
 10
1976.8966729563701
 20
3977.0589705304428
 42
-0.1451938607043094
 10
1921.8817543562884
 20
3923.4918184250678
 42
0.4977360510494915
  0
LWPOLYLINE
  5
18E
100
AcDbEntity
  8
AAA70-1103
370
              15
390
0
  6
Continuous
 62
               7
100
AcDbPolyline
 90
       27
 70
             129
 10
1394.6796141487018
 20
3872.9852237865889
 10
1397.0471651459691
 20
3908.471951165086
 42
-0.5008264314085166
 10
1407.7955524789038
 20
3915.445967420706
 42
0.0808097992374442
 10
1448.573575309824
 20
3907.324404316561
 10
1610.6781476652127
 20
3899.3028617279588
 42
-0.401951686644717
 10
1622.1737515460632
 20
3887.313467057877
 10
1622.1737515460632
 20
3877.1183608550327
 42
0.414213562373095
 10
1623.1737515460632
 20
3876.1183608550327
 10
1633.1737515460632
 20
3876.118360855035
 42
0.4142135623730617
 10
1634.1737515460632
 20
3877.118360855035
 10
1634.1737515460632
 20
3896.092589546276
 42
0.2600653575289713
 10
1633.224371260862
 20
3897.7944115742439
 10
1617.7467033625996
 20
3910.2366350608386
 42
0.1660613428256244
 10
1615.3160059925581
 20
3911.1183608550359
 10
1448.9939054091155
 20
3918.1155665416309
 42
-0.2603930634769551
 10
1345.143140322635
 20
3982.0040887207697
 42
-0.0972174872493612
 10
1320.8781156130347
 20
4052.6644906297824
 42
0.3746445708054477
 10
1316.9155732133484
 20
4056.1183608550318
 10
1294.9640478471908
 20
4056.1183608550318
 42
0.4228230956720862
 10
1290.965765296997
 20
4052.0011574045388
 42
0.0509615164870157
 10
1307.3300051446413
 20
3928.0645493892134
 42
0.2802168442800528
 10
1351.1568493232069
 20
3883.7085983395518
 10
1382.4072210238114
 20
3876.8469031783998
 42
-0.3441507314088568
 10
1384.6796141487018
 20
3873.9364756779637
 10
1384.6796141487018
 20
3873.1183608550341
 42
0.414213562373095
 10
1386.6796141487018
 20
3871.1183608550341
 10
1392.6840504386189
 20
3871.1183608550341
 42
0.3948335622965542
  0
LWPOLYLINE
  5
18F
100
AcDbEntity
  8
AAA70-1103
370
              15
390
0
  6
Continuous
 62
               7
100
AcDbPolyline
 90
       12
 70
             129
 10
1391.9852976100162
 20
3920.343066520767
 42
0.1751637320281943
 10
1387.0693465955453
 20
3909.1376365072961
 10
1385.7067077098677
 20
3888.7133268695043
 42
-0.4587179162902976
 10
1383.2822186377368
 20
3886.892999570784
 10
1353.4487325058994
 20
3893.4435868531477
 42
-0.2794782773166381
 10
1317.0596869762837
 20
3930.3739415064338
 42
-0.0471011589101597
 10
1301.3074787027952
 20
4042.9838607616048
 42
-0.4274111994188328
 10
1304.304462140334
 20
4046.1183608550327
 10
1309.2218431277222
 20
4046.1183608550327
 42
-0.3638444513077617
 10
1312.1760346423505
 20
4043.6406179707178
 42
0.0875411435077758
 10
1336.4511354595822
 20
3977.0589705304428
 42
0.1451938607043143
 10
1391.466054059664
 20
3923.4918184250678
 42
-0.4977360510491543
  0
LWPOLYLINE
  5
190
100
AcDbEntity
  8
AAA70-1103
370
              15
390
0
  6
Continuous
 62
               7
100
AcDbPolyline
 90
       22
 70
             128
 10
1822.3934299722164
 20
3905.2249803391037
 10
1825.9997834586425
 20
3876.3741524475008
 42
0.3782424518882364
 10
1831.9534507189251
 20
3871.118360855035
 10
1930.9591966313612
 20
3871.118360855035
 42
0.414213562373095
 10
1932.9591966313612
 20
3873.118360855035
 10
1932.9591966313612
 20
3873.9364756779651
 42
-0.3441507314089754
 10
1935.2315897562523
 20
3876.8469031784007
 10
1966.481961456858
 20
3883.7085983395527
 42
0.2802168442800536
 10
2010.3088056354202
 20
3928.0645493892148
 42
0.0509615164870227
 10
2026.6730454830661
 20
4052.0011574045425
 42
0.4228230956721697
 10
2022.6747629328704
 20
4056.1183608550341
 10
1290.6713280332574
 20
4056.1183608550577
 42
0.4228230956720833
 10
1286.673045483062
 20
4052.0011574045648
 42
0.0509614248357679
 10
1303.0390027805158
 20
3928.0645493892148
 42
0.2802168442800645
 10
1346.865846959078
 20
3883.708598339555
 10
1378.1162186597019
 20
3876.8469031784007
 42
-0.3441507314087361
 10
1380.3886117845911
 20
3873.9364756779651
 10
1380.3886117845911
 20
3873.118360855035
 42
0.4142135623733614
 10
1382.388611784593
 20
3871.118360855035
 10
1481.3763521718436
 20
3871.118360855035
 42
0.3782424518881065
 10
1487.3300194321262
 20
3876.3741524474999
 10
1490.9367647166298
 20
3905.2281147235039
  0
LWPOLYLINE
  5
191
100
AcDbEntity
  8
AAA70-1103
370
              15
390
0
  6
Continuous
 62
               7
100
AcDbPolyline
 90
       43
 70
             128
 10
1860.7707604495849
 20
4800.9600388054641
 42
0.0032344522439505
 10
1862.508736593865
 20
4801.1420523123579
 10
1864.6662882963194
 20
4801.3821266113482
 42
0.0193993342617345
 10
1870.6829893689185
 20
4802.2890595105619
 10
1872.8247069819433
 20
4802.6974094081379
 42
0.0128724896081189
 10
1879.5383513440222
 20
4804.1575038156288
 10
1879.5561229339921
 20
4804.1618507580843
 42
0.0128107605872846
 10
1886.150674144975
 20
4805.9551127275818
 10
1886.1654689077677
 20
4805.9595458988979
 42
0.0127527028364291
 10
1892.6304399526855
 20
4808.0778502232733
 10
1892.6425286484346
 20
4808.082155553233
 42
0.0126965161521942
 10
1898.9674370346522
 20
4810.5174022452893
 10
1898.9770723826568
 20
4810.5213958551485
 42
0.0126444789908683
 10
1905.1514562225368
 20
4813.2654585271721
 10
1905.1588711641884
 20
4813.268981069843
 42
0.012598532849786
 10
1911.1722890767708
 20
4816.3137118985414
 10
1911.1776863875268
 20
4816.3166177768735
 42
0.0125604641953545
 10
1917.0197313120755
 20
4819.6538621378477
 10
1917.0233154082832
 20
4819.6560307126883
 42
0.0125312005131602
 10
1922.6835647486807
 20
4823.2776003917934
 42
0.0125087613243953
 10
1928.1536279403301
 20
4827.1766730654963
 42
0.0125031055308367
 10
1933.4197073640109
 20
4831.3427852176846
 42
0.0125095986458156
 10
1938.4715154167718
 20
4835.7675834304473
 42
0.0125266416358776
 10
1943.2988579209398
 20
4840.4427982741017
 42
0.012544772414075
 10
1947.8881316439711
 20
4845.3563228024914
 10
1947.8915457299438
 20
4845.3601670603994
 42
0.0125785276179896
 10
1952.2348800717923
 20
4850.5058238090314
 10
1952.2393562558484
 20
4850.5114058769368
 42
0.0126207744961855
 10
1956.3266221467961
 20
4855.8806949119817
 10
1956.3320663122151
 20
4855.8882341841418
 42
0.012670009642257
 10
1960.1531383858824
 20
4861.47262870744
 10
1960.1594484782493
 20
4861.4823715334169
 42
0.0127244103134277
 10
1963.7042127295576
 20
4867.2733179725283
 10
1963.7112713239296
 20
4867.2855370803436
 42
0.012781849237229
 10
1966.9696322131895
 20
4873.2744557790329
 10
1966.9772993814852
 20
4873.2894487715457
 42
0.0128399316348976
 10
1969.939186940411
 20
4879.4677362305665
 10
1969.9472934250691
 20
4879.4858229925976
 42
0.0128959715135519
 10
1972.6026711139064
 20
4885.8448561267924
 10
1972.6110092392921
 20
4885.8663680830414
 42
0.0129435144832239
 10
1974.9499246234227
 20
4892.397481587368
 10
1974.9536871274615
 20
4892.4089116765508
 42
0.0032375612006415
 10
1975.4893395511465
 20
4894.0723570563323
 42
0.0032375612006415
  0
LWPOLYLINE
  5
192
100
AcDbEntity
  8
AAA70-1103
370
              15
390
0
  6
Continuous
 62
               7
100
AcDbPolyline
 90
       31
 70
             128
 10
1975.4893395511465
 20
4894.0723570563323
 42
0.0021224323877146
 10
1976.1427393587733
 20
4896.1786780621533
 10
1976.3042003157318
 20
4896.707084962527
 42
0.0041055452456236
 10
1977.2455214826125
 20
4899.8807227789821
 10
1977.7078030756068
 20
4901.487571952096
 42
0.0075543106456273
 10
1979.4506039486087
 20
4907.9089703394684
 10
1979.7312273138452
 20
4909.0083806387629
 42
0.0068081324996539
 10
1981.8201243829674
 20
4917.683376740315
 10
1981.8269969172791
 20
4917.7137276570202
 42
0.0061133710729584
 10
1983.7040709910375
 20
4926.5008212448984
 10
1983.7092603706626
 20
4926.5266563643063
 42
0.0054555910533919
 10
1985.3923766011101
 20
4935.4067368837696
 10
1985.3960166573418
 20
4935.4271570142519
 42
0.0048310871357415
 10
1986.9030022892587
 20
4944.3810042266432
 10
1986.9052546191108
 20
4944.395224741008
 42
0.0042356522240519
 10
1988.2539160546773
 20
4953.403499206368
 10
1988.2549528079774
 20
4953.4108487692392
 42
0.0036645277086147
 10
1989.4630831445049
 20
4962.4540122818516
 10
1989.4640915379387
 20
4962.4620063209259
 42
0.0031133926580761
 10
1990.5476062695191
 20
4971.5046934293268
 10
1990.549455928603
 20
4971.5209884532669
 42
0.0025751144393488
 10
1991.5264988906413
 20
4980.5428644210533
 10
1991.5290678802571
 20
4980.567784454307
 42
0.002052183255364
 10
1992.4176475276647
 20
4989.5484994557391
 10
1992.4208537258382
 20
4989.5823200392388
 42
0.001522104069441
 10
1993.2390086764819
 20
4998.501531585307
 10
1993.3399078976224
 20
4999.6395713362981
 42
0.0009734861604946
 10
1993.9161713665692
 20
5006.286315990209
 10
1994.0110760868233
 20
5007.4063032123795
 42
0.0002824465823408
 10
1994.3820989683793
 20
5011.8144049803877
 42
0.0000888855536117
 10
1994.5655222768403
 20
5014.0131841505163
 42
0.0000888855536117
  0
LWPOLYLINE
  5
193
100
AcDbEntity
  8
AAA70-1103
370
              15
390
0
  6
Continuous
 62
               7
100
AcDbPolyline
 90
       20
 70
             128
 10
1656.1523916221345
 20
4789.9400013490031
 42
-0.0002817673354534
 10
1660.4217422905811
 20
4790.0
 10
1663.6210044575196
 20
4790.0431570927458
 42
-0.0005219990698987
 10
1674.2890518822733
 20
4790.175926577218
 10
1677.4902261959983
 20
4790.2124243870758
 42
0.000146362729624
 10
1694.5600632504224
 20
4790.4120415550706
 42
0.0008065887626921
 10
1711.6282242764141
 20
4790.6441749637806
 42
0.0014679177096591
 10
1728.6940418395593
 20
4790.9539307320683
 42
0.0021293713061754
 10
1745.7567397632615
 20
4791.386449919014
 42
0.0027905560237806
 10
1762.8155384360002
 20
4791.9868804490479
 42
0.0034508146135256
 10
1779.8696568182463
 20
4792.800382691531
 42
0.004108314489384
 10
1796.918311084522
 20
4793.8721189779144
 42
0.0047603672795419
 10
1813.9509521420387
 20
4795.246428056782
 10
1813.960712933625
 20
4795.2473092326363
 42
0.0053991494669913
 10
1830.9811952445648
 20
4796.9693452062857
 10
1833.1138710674636
 20
4797.2084083928567
 42
0.0060595480255425
 10
1845.8906197710362
 20
4798.7976307325243
 10
1848.0118441710506
 20
4799.0876224020476
 42
0.0032686739818022
 10
1856.518909730416
 20
4800.3073239750756
 42
0.00169100473192
 10
1860.7707604495849
 20
4800.9600388054641
 42
0.00169100473192
  0
LWPOLYLINE
  5
194
100
AcDbEntity
  8
AAA70-1103
370
              15
390
0
  6
Continuous
 62
               7
100
AcDbPolyline
 90
       61
 70
             128
 10
1994.5655222768403
 20
5014.0131841505163
 42
0.0007827547312627
 10
1994.6410271467478
 20
5014.9377385492971
 10
1994.7343865167861
 20
5016.1034123325744
 42
0.0054118041797155
 10
1994.9598933881332
 20
5019.3618733711237
 10
1995.0014032124866
 20
5020.0734020785949
 42
0.0039432617466445
 10
1995.2377049660267
 20
5024.7592250299394
 10
1995.2591148749627
 20
5025.2626852378344
 42
0.0090730534173783
 10
1995.397891860591
 20
5030.9598107026077
 10
1995.403848686871
 20
5031.9192306895229
 42
0.0051095377184602
 10
1995.3884736894272
 20
5035.7530990333944
 42
0.0054731664458675
 10
1995.2919238045008
 20
5039.5873622888003
 42
0.0058926829207528
 10
1995.1082540925065
 20
5043.4190485427671
 10
1995.1080571111893
 20
5043.422344754088
 42
0.0063442080853952
 10
1994.8312047533684
 20
5047.2407965907505
 10
1994.8307481958491
 20
5047.2461507727276
 42
0.0068228482665916
 10
1994.4545131684883
 20
5051.0452470580958
 10
1994.4537118611649
 20
5051.0523488578001
 42
0.0073315741328943
 10
1993.9719131837749
 20
5054.8250422505444
 10
1993.970700785974
 20
5054.833542081471
 42
0.0078713525022479
 10
1993.3771342795119
 20
5058.5728258257541
 10
1993.3754713581793
 20
5058.5823326420277
 42
0.0084424209397134
 10
1992.6639006508824
 20
5062.2812422170737
 10
1992.6617843959802
 20
5062.2913224474769
 42
0.0090440288865754
 10
1991.8259302483241
 20
5065.9429357315694
 10
1991.8234058722469
 20
5065.9531139917681
 42
0.0096741285099061
 10
1990.8569338650861
 20
5069.5505492415714
 10
1990.8541075594105
 20
5069.5603115866243
 42
0.0103290238622057
 10
1989.7506144086185
 20
5073.0967224007827
 10
1989.7476674715856
 20
5073.1055229949407
 42
0.0110029991293231
 10
1988.500666549274
 20
5076.5740893515131
 10
1988.4978699364631
 20
5076.5813614725957
 42
0.0116879637027137
 10
1987.1007769944802
 20
5079.9752759590347
 10
1987.0985050918996
 20
5079.9804481556857
 42
0.012373172499948
 10
1985.5446256707257
 20
5083.2928967195157
 10
1985.5433675876043
 20
5083.2954146268467
 42
0.0130451011463743
 10
1983.8258880823334
 20
5086.5195516374715
 42
0.0136903535474937
 10
1981.9382390232988
 20
5089.6478235376644
 42
0.0142822161645304
 10
1979.8783174610778
 20
5092.6661948469728
 10
1979.8753576216388
 20
5092.670276421446
 42
0.0148093643369798
 10
1977.6373266950122
 20
5095.57165621281
 10
1977.6309333954334
 20
5095.5794555320272
 42
0.0152493265103559
 10
1975.2094532600984
 20
5098.3562627297351
 10
1975.1986726424605
 20
5098.3678896844058
 42
0.015584015197364
 10
1972.5884689211325
 20
5101.0127070596545
 10
1972.5723041710874
 20
5101.0280960984173
 42
0.0157986899354557
 10
1969.768127204874
 20
5103.5336901135488
 10
1969.7455832428152
 20
5103.5525874717896
 42
0.0158835524177594
 10
1966.7421604525223
 20
5105.9119153140036
 10
1966.7122927502371
 20
5105.9338804606587
 42
0.0158348891516399
 10
1963.5042791922842
 20
5108.1400819133351
 10
1963.4662411234679
 20
5108.164504285136
 42
0.0156555227715093
 10
1960.0481741708356
 20
5110.2108784346628
 10
1960.0012571461559
 20
5110.2370080287383
 42
0.0153544642442215
 10
1956.3675208622944
 20
5112.1169774171931
 10
1956.311182848792
 20
5112.1439653885973
 42
0.0149455957847849
 10
1952.4559873594144
 20
5113.8510341248857
 10
1951.9257668005662
 20
5114.0671012518851
 42
0.0144021244473019
 10
1948.7816286636655
 20
5115.2439509982878
 10
1948.2714040806379
 20
5115.4183475542941
 42
0.0069814360672885
 10
1946.1039346716136
 20
5116.1255552889579
 42
0.0034160291592944
 10
1945.0023115563565
 20
5116.4598163662276
 42
0.0034160291592944
  0
LWPOLYLINE
  5
195
100
AcDbEntity
  8
AAA70-1103
370
              15
390
0
  6
Continuous
 62
               7
100
AcDbPolyline
 90
       20
 70
             128
 10
1656.1523916221417
 20
4789.9400013490031
 42
0.0002817673355026
 10
1651.8830409536558
 20
4790.0
 10
1648.6837787867566
 20
4790.0431570927458
 42
0.0005219990699386
 10
1638.0157313619748
 20
4790.175926577218
 10
1634.8145570482779
 20
4790.2124243870749
 42
-0.0001463736910495
 10
1617.7447199938529
 20
4790.4120415550697
 42
-0.0008066458446427
 10
1600.6765589678612
 20
4790.6441749637806
 42
-0.0014679960926987
 10
1583.6107414047171
 20
4790.9539307320692
 42
-0.0021293494942904
 10
1566.5480434810149
 20
4791.3864499190149
 42
-0.0027901614250324
 10
1549.4892448082762
 20
4791.9868804490488
 42
-0.0034495692693716
 10
1532.4351264260301
 20
4792.800382691531
 42
-0.0041054842413735
 10
1515.3864721597545
 20
4793.8721189779153
 42
-0.004760367279472
 10
1498.3538311022403
 20
4795.246428056782
 10
1498.3440703106514
 20
4795.2473092326363
 42
-0.005399149467044
 10
1481.3235879997105
 20
4796.9693452062857
 10
1479.1909121768115
 20
4797.2084083928567
 42
-0.0060595480255333
 10
1466.4141634732403
 20
4798.7976307325243
 10
1464.2929390732347
 20
4799.0876224020467
 42
-0.0032686739817895
 10
1455.7858735138586
 20
4800.3073239750756
 42
-0.0016900822716907
 10
1451.5340227946915
 20
4800.9600388054641
 42
-0.0016900822716907
  0
LWPOLYLINE
  5
196
100
AcDbEntity
  8
AAA70-1103
370
              15
390
0
  6
Continuous
 62
               7
100
AcDbPolyline
 90
       50
 70
             128
 10
1945.0023115563565
 20
5116.4598163662276
 42
0.021493121978444
 10
1944.9238363377303
 20
5116.5072530570615
 10
1944.8639931645141
 20
5116.5400020749248
 42
0.0211370608083134
 10
1944.6595236513197
 20
5116.6409142549192
 10
1944.5167109066263
 20
5116.70403928016
 42
0.0163899363235399
 10
1944.0157218302638
 20
5116.9061271071751
 10
1943.9804377568828
 20
5116.9190323106277
 42
0.0073449848247281
 10
1943.3992730896389
 20
5117.1219660217794
 10
1943.2382701667723
 20
5117.1755456440223
 42
0.0120382505559149
 10
1942.3253862884058
 20
5117.4551186123699
 10
1941.9796104905756
 20
5117.5519727796545
 42
0.0096774349022983
 10
1940.3603139691372
 20
5117.9719276383858
 10
1940.0692142600694
 20
5118.0414389311018
 42
0.0079777458745165
 10
1937.8517347967386
 20
5118.5336889392202
 10
1937.5169450651395
 20
5118.6024221285879
 42
0.0066739939321796
 10
1934.6146151932323
 20
5119.1580132986528
 10
1934.2359549852065
 20
5119.225273534762
 42
0.0056566859922525
 10
1930.5619891894698
 20
5119.835076915735
 10
1930.1393705875037
 20
5119.900319073764
 42
0.0048500573850779
 10
1925.6069170858475
 20
5120.5550741456682
 10
1925.140304555069
 20
5120.6178663738247
 42
0.0042010473956209
 10
1919.6624741788571
 20
5121.3082134862852
 10
1919.151861884767
 20
5121.368209911845
 42
0.0036719012779384
 10
1912.6417445195068
 20
5122.0847141518925
 10
1912.0871432695487
 20
5122.1416346828555
 42
0.0032353050684533
 10
1904.4578173690738
 20
5122.8748034134314
 10
1903.8592469833022
 20
5122.9284187875937
 42
0.0028711759553767
 10
1895.0237851384518
 20
5123.6687146067889
 10
1894.3812699498087
 20
5123.7188352588764
 42
0.0025645203342275
 10
1884.2527421639204
 20
5124.456685660195
 10
1883.5663083571246
 20
5124.5031533597266
 42
0.0023039834360259
 10
1872.057783966532
 20
5125.2289580068727
 10
1871.3274580136206
 20
5125.271639514769
 42
0.0020808518339214
 10
1858.3520067965358
 20
5125.97577578032
 10
1857.5778145547542
 20
5126.0145579874707
 42
0.0018883572736224
 10
1843.0485073495167
 20
5126.6873852090266
 10
1842.2304735621769
 20
5126.7221713714307
 42
0.0017211816494469
 10
1826.060382589036
 20
5127.3540341836324
 10
1825.1985306319416
 20
5127.38474098185
 42
0.0015751077843629
 10
1807.3007296298324
 20
5127.9659718266348
 10
1806.395081407984
 20
5127.9925270294598
 42
0.0014467381515856
 10
1786.6826456777424
 20
5128.5134486236038
 10
1785.7332216147893
 20
5128.5357892908405
 42
0.0013333972585583
 10
1764.1192279543059
 20
5128.986714452144
 10
1763.1260470009415
 20
5129.0047852180551
 42
0.0012326101088658
 10
1739.5235737143246
 20
5129.3760263461745
 10
1738.4866536246268
 20
5129.3897791932231
 42
0.0011687364212071
 10
1712.8087692105464
 20
5129.6703191932484
 10
1712.2793346089043
 20
5129.6748657973576
 42
0.0019318165933385
 10
1656.1523916221381
 20
5129.9400013490031
 42
0.0019318165933385
  0
LWPOLYLINE
  5
197
100
AcDbEntity
  8
AAA70-1103
370
              15
390
0
  6
Continuous
 62
               7
100
AcDbPolyline
 90
       43
 70
             128
 10
1451.5340227946915
 20
4800.9600388054641
 42
-0.00323445224412
 10
1449.7960466504132
 20
4801.1420523123588
 10
1447.6384949479559
 20
4801.38212661135
 42
-0.0193993342614167
 10
1441.6217938753553
 20
4802.2890595105637
 10
1439.4800762623343
 20
4802.6974094081379
 42
-0.0128724896083519
 10
1432.766431900254
 20
4804.157503815627
 10
1432.748660310283
 20
4804.1618507580824
 42
-0.0128107605872293
 10
1426.1541090993012
 20
4805.9551127275809
 10
1426.1393143365085
 20
4805.959545898897
 42
-0.012752702836526
 10
1419.6743432915907
 20
4808.0778502232743
 10
1419.6622545958419
 20
4808.0821555532339
 42
-0.0126965161519749
 10
1413.3373462096231
 20
4810.5174022452893
 10
1413.3277108616189
 20
4810.5213958551494
 42
-0.0126444789910209
 10
1407.1533270217385
 20
4813.2654585271712
 10
1407.145912080086
 20
4813.2689810698421
 42
-0.0125985328497518
 10
1401.1324941675055
 20
4816.3137118985405
 10
1401.1270968567501
 20
4816.3166177768726
 42
-0.0125604641953589
 10
1395.2850519322008
 20
4819.6538621378468
 10
1395.2814678359937
 20
4819.6560307126874
 42
-0.0125312005131896
 10
1389.6212184955955
 20
4823.2776003917925
 42
-0.012517057439488
 10
1384.1511553039461
 20
4827.1766730654954
 42
-0.0125048844918767
 10
1378.8850758802653
 20
4831.3427852176828
 42
-0.012504619380099
 10
1373.8332678275044
 20
4835.7675834304473
 42
-0.0125146092746088
 10
1369.0059253233364
 20
4840.4427982741036
 42
-0.0125447724139555
 10
1364.4166516003038
 20
4845.3563228024932
 10
1364.4132375143315
 20
4845.3601670604003
 42
-0.0125785276182038
 10
1360.0699031724846
 20
4850.5058238090305
 10
1360.0654269884269
 20
4850.5114058769386
 42
-0.0126207744960156
 10
1355.9781610974792
 20
4855.8806949119844
 10
1355.9727169320611
 20
4855.8882341841436
 42
-0.0126700096423896
 10
1352.1516448583952
 20
4861.4726287074391
 10
1352.145334766027
 20
4861.4823715334187
 42
-0.0127244103132253
 10
1348.6005705147156
 20
4867.2733179725337
 10
1348.5935119203466
 20
4867.2855370803436
 42
-0.0127818492374316
 10
1345.3351510310899
 20
4873.2744557790256
 10
1345.327483862791
 20
4873.2894487715439
 42
-0.012839931634776
 10
1342.3655963038636
 20
4879.4677362305702
 10
1342.3574898192071
 20
4879.4858229925967
 42
-0.012895971513631
 10
1339.7021121303696
 20
4885.8448561267933
 10
1339.6937740049841
 20
4885.8663680830414
 42
-0.0129435144831408
 10
1337.3548586208544
 20
4892.3974815873653
 10
1337.3510961168147
 20
4892.4089116765508
 42
-0.0032378475946815
 10
1336.8154436931297
 20
4894.0723570563323
 42
-0.0032378475946815
  0
LWPOLYLINE
  5
198
100
AcDbEntity
  8
AAA70-1103
370
              15
390
0
  6
Continuous
 62
               7
100
AcDbPolyline
 90
       50
 70
             128
 10
1367.3024716879197
 20
5116.4598163662276
 42
-0.0214931219970146
 10
1367.3809469065473
 20
5116.5072530570633
 10
1367.4407900797621
 20
5116.5400020749239
 42
-0.0211370607997053
 10
1367.6452595929552
 20
5116.6409142549164
 10
1367.78807233765
 20
5116.7040392801591
 42
-0.0163899363265638
 10
1368.2890614140133
 20
5116.906127107176
 10
1368.3243454873934
 20
5116.9190323106286
 42
-0.0073449848235328
 10
1368.9055101546403
 20
5117.1219660217803
 10
1369.0665130775039
 20
5117.1755456440233
 42
-0.0120382505571417
 10
1369.9793969558693
 20
5117.4551186123699
 10
1370.3251727537006
 20
5117.5519727796536
 42
-0.009677434900977
 10
1371.944469275139
 20
5117.9719276383839
 10
1372.2355689842068
 20
5118.0414389310999
 42
-0.0079777458752377
 10
1374.4530484475372
 20
5118.5336889392202
 10
1374.7878381791368
 20
5118.602422128587
 42
-0.006673993931722
 10
1377.690168051045
 20
5119.1580132986528
 10
1378.0688282590697
 20
5119.225273534762
 42
-0.0056566859926046
 10
1381.7427940548123
 20
5119.8350769157369
 10
1382.1654126567726
 20
5119.9003190737649
 42
-0.0048500573849449
 10
1386.6978661584249
 20
5120.5550741456682
 10
1387.1644786892073
 20
5120.6178663738247
 42
-0.0042010473956192
 10
1392.6423090654155
 20
5121.3082134862861
 10
1393.1529213595093
 20
5121.368209911846
 42
-0.0036719012780216
 10
1399.6630387247742
 20
5122.0847141518934
 10
1400.2176399747266
 20
5122.1416346828564
 42
-0.003235305068404
 10
1407.846965875194
 20
5122.8748034134305
 10
1408.4455362609731
 20
5122.9284187875937
 42
-0.0028711759553501
 10
1417.2809981058392
 20
5123.6687146067907
 10
1417.9235132944675
 20
5123.7188352588773
 42
-0.002564520334279
 10
1428.0520410803592
 20
5124.4566856601959
 10
1428.7384748871516
 20
5124.5031533597266
 42
-0.0023039834359386
 10
1440.2469992777508
 20
5125.2289580068737
 10
1440.9773252306557
 20
5125.271639514769
 42
-0.0020808518340181
 10
1453.9527764477307
 20
5125.97577578032
 10
1454.7269686895222
 20
5126.0145579874707
 42
-0.0018883572735415
 10
1469.2562758947556
 20
5126.6873852090266
 10
1470.0743096820995
 20
5126.7221713714307
 42
-0.0017211816494711
 10
1486.244400655246
 20
5127.3540341836333
 10
1487.1062526123349
 20
5127.3847409818509
 42
-0.0015751077843585
 10
1505.0040536144447
 20
5127.9659718266357
 10
1505.9097018362925
 20
5127.9925270294607
 42
-0.001446738151648
 10
1525.6221375665377
 20
5128.513448623602
 10
1526.5715616294872
 20
5128.5357892908387
 42
-0.0013333972584177
 10
1548.1855552899628
 20
5128.9867144521431
 10
1549.1787362433349
 20
5129.0047852180542
 42
-0.0012326101089728
 10
1572.7812095299969
 20
5129.3760263461782
 10
1573.8181296196497
 20
5129.3897791932259
 42
-0.0011687364211596
 10
1599.4960140336843
 20
5129.6703191932502
 10
1600.025448635372
 20
5129.6748657973603
 42
-0.001931815729114
 10
1656.1523916221381
 20
5129.9400013490031
 42
-0.001931815729114
  0
LWPOLYLINE
  5
199
100
AcDbEntity
  8
AAA70-1103
370
              15
390
0
  6
Continuous
 62
               7
100
AcDbPolyline
 90
       31
 70
             128
 10
1336.8154436931297
 20
4894.0723570563323
 42
-0.0021224323877146
 10
1336.1620438855068
 20
4896.1786780621405
 10
1336.0005829285444
 20
4896.7070849625261
 42
-0.0041055452456608
 10
1335.0592617616614
 20
4899.8807227789894
 10
1334.5969801686695
 20
4901.4875719520951
 42
-0.0075543106456392
 10
1332.8541792956676
 20
4907.9089703394684
 10
1332.573555930431
 20
4909.0083806387629
 42
-0.0068081324996253
 10
1330.4846588613082
 20
4917.6833767403177
 10
1330.4777863269971
 20
4917.7137276570202
 42
-0.0061133710729754
 10
1328.6007122532396
 20
4926.5008212448938
 10
1328.5955228736136
 20
4926.5266563643054
 42
-0.0054555910533931
 10
1326.9124066431655
 20
4935.4067368837741
 10
1326.9087665869345
 20
4935.4271570142519
 42
-0.0048310871357214
 10
1325.4017809550148
 20
4944.3810042266605
 10
1325.3995286251654
 20
4944.395224741008
 42
-0.0042356522240536
 10
1324.0508671895968
 20
4953.4034992063816
 10
1324.0498304362989
 20
4953.4108487692383
 42
-0.0036646005396484
 10
1322.8417000997713
 20
4962.4540122818516
 10
1322.8406917063385
 20
4962.4620063209186
 42
-0.0031133926580806
 10
1321.7571769747572
 20
4971.5046934293268
 10
1321.7553273156727
 20
4971.5209884532715
 42
-0.0025751144392949
 10
1320.778284353634
 20
4980.5428644210533
 10
1320.7757153640177
 20
4980.5677844543106
 42
-0.0020521832554587
 10
1319.8871357166106
 20
4989.5484994557382
 10
1319.8839295184418
 20
4989.5823200391897
 42
-0.0015221040694228
 10
1319.0657745677943
 20
4998.501531585307
 10
1318.9648753466577
 20
4999.6395713362526
 42
-0.0009734861604162
 10
1318.3886118777061
 20
5006.2863159902108
 10
1318.2937071574547
 20
5007.4063032123449
 42
-0.000282446582611
 10
1317.9226842758969
 20
5011.8144049803886
 42
-0.0000888208044488
 10
1317.7392609674359
 20
5014.0131841505163
 42
-0.0000888208044488
  0
LWPOLYLINE
  5
19A
100
AcDbEntity
  8
AAA70-1103
370
              15
390
0
  6
Continuous
 62
               7
100
AcDbPolyline
 90
       61
 70
             128
 10
1317.7392609674359
 20
5014.0131841505163
 42
-0.0007827547312538
 10
1317.6637560975294
 20
5014.9377385492844
 10
1317.5703967274901
 20
5016.1034123325744
 42
-0.0054118041796103
 10
1317.3448898561421
 20
5019.3618733711273
 10
1317.3033800317887
 20
5020.0734020785949
 42
-0.0039432617468117
 10
1317.0670782782483
 20
5024.7592250299367
 10
1317.0456683693126
 20
5025.2626852378344
 42
-0.0090730534172964
 10
1316.9068913836852
 20
5030.9598107026059
 10
1316.900934557405
 20
5031.919230689532
 42
-0.0051095377184629
 10
1316.916309554849
 20
5035.7530990333944
 42
-0.0054685766139539
 10
1317.0128594397754
 20
5039.5873622888003
 42
-0.0058956478855304
 10
1317.1965291517697
 20
5043.4190485427662
 10
1317.1967261330869
 20
5043.422344754088
 42
-0.0063442080853722
 10
1317.4735784909078
 20
5047.2407965907496
 10
1317.4740350484274
 20
5047.2461507727285
 42
-0.0068228482664838
 10
1317.850270075787
 20
5051.0452470580976
 10
1317.8510713831101
 20
5051.0523488577992
 42
-0.0073315741331802
 10
1318.3328700605005
 20
5054.8250422505444
 10
1318.3340824583008
 20
5054.8335420814674
 42
-0.0078713525020927
 10
1318.9276489647643
 20
5058.5728258257541
 10
1318.9293118860965
 20
5058.582332642025
 42
-0.0084424209397602
 10
1319.6408825933938
 20
5062.2812422170746
 10
1319.6429988482969
 20
5062.2913224474823
 42
-0.0090440288865708
 10
1320.4788529959521
 20
5065.9429357315685
 10
1320.4813773720298
 20
5065.953113991769
 42
-0.0096741285098688
 10
1321.4478493791901
 20
5069.5505492415705
 10
1321.4506756848655
 20
5069.5603115866234
 42
-0.0103290238622272
 10
1322.5541688356577
 20
5073.0967224007827
 10
1322.5571157726913
 20
5073.1055229949434
 42
-0.0110029991292695
 10
1323.8041166950022
 20
5076.574089351514
 10
1323.8069133078134
 20
5076.5813614725976
 42
-0.011687963702899
 10
1325.2040062497961
 20
5079.9752759590338
 10
1325.2062781523764
 20
5079.9804481556839
 42
-0.012373172499728
 10
1326.7601575735505
 20
5083.2928967195148
 10
1326.7614156566724
 20
5083.2954146268457
 42
-0.0130451011464269
 10
1328.4788951619428
 20
5086.5195516374715
 42
-0.0136847879281144
 10
1330.3665442209774
 20
5089.6478235376644
 42
-0.0142822161645338
 10
1332.4264657832027
 20
5092.6661948469782
 10
1332.4294256226383
 20
5092.670276421446
 42
-0.0148093643369203
 10
1334.6674565492654
 20
5095.57165621281
 10
1334.6738498488437
 20
5095.5794555320272
 42
-0.0152493265103987
 10
1337.095329984179
 20
5098.3562627297351
 10
1337.1061106018158
 20
5098.367889684404
 42
-0.0155840151972018
 10
1339.7163143231396
 20
5101.0127070596509
 10
1339.7324790731889
 20
5101.0280960984173
 42
-0.015798689935672
 10
1342.5366560394027
 20
5103.5336901135497
 10
1342.559200001461
 20
5103.5525874717896
 42
-0.0158835524175582
 10
1345.5626227917548
 20
5105.9119153140045
 10
1345.5924904940391
 20
5105.9338804606587
 42
-0.0158348891517724
 10
1348.8005040519943
 20
5108.1400819133369
 10
1348.8385421208084
 20
5108.1645042851369
 42
-0.0156555227714827
 10
1352.2566090734376
 20
5110.210878434661
 10
1352.3035260981194
 20
5110.2370080287383
 42
-0.0153544642443613
 10
1355.93726238198
 20
5112.1169774171904
 10
1355.9936003954842
 20
5112.1439653885955
 42
-0.014945595784757
 10
1359.8487958848673
 20
5113.8510341248839
 10
1360.3790164437091
 20
5114.0671012518806
 42
-0.0144021244468019
 10
1363.5231545806107
 20
5115.243950998286
 10
1364.0333791636344
 20
5115.4183475542923
 42
-0.0069814360678611
 10
1366.2008485726626
 20
5116.1255552889579
 42
-0.0034144195828855
 10
1367.3024716879197
 20
5116.4598163662276
 42
-0.0034144195828855
  0
LWPOLYLINE
  5
19B
100
AcDbEntity
  8
AAA70-1103
370
              15
390
0
  6
Continuous
 62
               7
100
AcDbPolyline
 90
       48
 70
             128
 10
1867.2053763235201
 20
4775.0120960755648
 42
0.0032146330950667
 10
1869.2721477290904
 20
4775.2253127721242
 10
1870.812988898457
 20
4775.3942909873758
 42
0.0128673508365241
 10
1875.9421451221053
 20
4776.090771238767
 10
1877.4860103441924
 20
4776.3410224595618
 42
0.0128210526449882
 10
1885.527026166563
 20
4777.8569468644946
 10
1885.5525325030071
 20
4777.8624361047478
 42
0.0127658988926586
 10
1893.4548084845849
 20
4779.7753967003673
 10
1893.4764247254291
 20
4779.7812174723022
 42
0.0127067440190729
 10
1901.2281548815256
 20
4782.0813590365397
 10
1901.2462286553041
 20
4782.0872256371558
 42
0.0126461908926683
 10
1908.8356179647874
 20
4784.7646487498005
 10
1908.8504822023899
 20
4784.7703192474264
 42
0.0125867974792879
 10
1916.2657539670483
 20
4787.8150844261845
 10
1916.2777210449403
 20
4787.8203539757133
 42
0.012530887029621
 10
1923.507121900044
 20
4791.2224887465036
 10
1923.516478587956
 20
4791.22718186768
 42
0.0124805256038102
 10
1930.5482829230452
 20
4794.9766890332576
 10
1930.5552896781455
 20
4794.9806528728386
 42
0.0124374369225181
 10
1937.3777983435677
 20
4799.0675162300913
 10
1937.3826789449763
 20
4799.0706073294004
 42
0.0124031800364086
 10
1943.9842333319823
 20
4803.4848095184971
 42
0.0123728078220058
 10
1950.3561372878296
 20
4808.218396986179
 42
0.0123629584110611
 10
1956.4821207257066
 20
4813.2581744015379
 42
0.0123625782714593
 10
1962.3507368274688
 20
4818.5939858981628
 42
0.0123744651859832
 10
1967.950457422605
 20
4824.2156024983742
 42
0.0123896014072091
 10
1973.2667981985592
 20
4830.1093354327622
 10
1973.2698556805738
 20
4830.1128986505601
 42
0.0124191588932185
 10
1978.2932837706719
 20
4836.2703056822866
 10
1978.2975098750887
 20
4836.2757567496856
 42
0.0124580208940173
 10
1983.0166728102683
 20
4842.6864597798221
 10
1983.0219612794247
 20
4842.6940319753949
 42
0.0125049490015151
 10
1987.425515176403
 20
4849.3476301678666
 10
1987.43175015368
 20
4849.3575831061025
 42
0.0125583352832244
 10
1991.5083599669617
 20
4856.2436438498789
 10
1991.5154118391085
 20
4856.2562684611466
 42
0.0126162701159809
 10
1995.2537602331461
 20
4863.3643284868222
 10
1995.2614770882476
 20
4863.3799453569318
 42
0.0126765580236881
 10
1998.650272568703
 20
4870.6995124993518
 10
1998.6584721259626
 20
4870.7184691538414
 42
0.0127367503249782
 10
2001.686457071524
 20
4878.2390258303612
 10
2001.6949189220143
 20
4878.2616922738007
 42
0.0127941690686769
 10
2004.3508773927151
 20
4885.9727004185834
 10
2004.6635652458938
 20
4886.9620352782476
 42
0.0128422726489396
 10
2006.3777521188952
 20
4892.9134260597157
 10
2006.6358847142901
 20
4893.9046590363532
 42
0.0064374814468035
 10
2007.6290889094455
 20
4897.930407234533
 42
0.0032180039058072
 10
2008.0877330943551
 20
4899.9569243633259
 42
0.0032180039058072
  0
LWPOLYLINE
  5
19C
100
AcDbEntity
  8
AAA70-1103
370
              15
390
0
  6
Continuous
 62
               7
100
AcDbPolyline
 90
       18
 70
             128
 10
2008.0877330943551
 20
4899.9569243633259
 42
0.0016656584917726
 10
2009.180110735369
 20
4905.0125275937007
 10
2010.5235847670731
 20
4911.3321320072246
 42
0.0099838631661804
 10
2013.9312765979546
 20
4929.0986337719532
 10
2015.021860500497
 20
4935.4696504784824
 42
0.0066497732371602
 10
2018.2343610544069
 20
4955.8638661815003
 42
0.0066436467401824
 10
2020.9028779430512
 20
4976.3308856177173
 42
0.0066412717757009
 10
2023.0256449216997
 20
4996.8525890613855
 42
0.006640068593613
 10
2024.6021140847963
 20
5017.4180399616498
 42
0.0066400650405583
 10
2025.6317377612133
 20
5038.0163050405627
 42
0.0066412696441056
 10
2026.1139678089005
 20
5058.6364507308781
 42
0.0066436780332632
 10
2026.0482556850241
 20
5079.2675434928296
 42
0.0066472718572593
 10
2025.4340524470301
 20
5099.8986496779153
 42
0.0066500668784619
 10
2024.2712997294618
 20
5120.5115636892251
 10
2024.0907938471066
 20
5123.0990162224398
 42
0.0099841163983979
 10
2021.7791049894656
 20
5148.8252049064713
 10
2021.4959423581352
 20
5151.3988239258842
 42
0.0016654420906864
 10
2020.9131345700482
 20
5156.5383344110687
 42
0.0016654420906864
  0
LWPOLYLINE
  5
19D
100
AcDbEntity
  8
AAA70-1103
370
              15
390
0
  6
Continuous
 62
               7
100
AcDbPolyline
 90
       20
 70
             128
 10
1656.1523916221381
 20
4764.9400013490031
 42
-0.0001205637869445
 10
1660.5557924656896
 20
4764.9388219526509
 10
1663.8560490245904
 20
4764.9371422368486
 42
0.0000591263027377
 10
1674.8599632099163
 20
4764.9328428690415
 10
1678.1616603187399
 20
4764.9319432887414
 42
0.0006572648113743
 10
1695.7681716394222
 20
4764.950290503285
 42
0.0012481976905134
 10
1713.3728039019438
 20
4765.0357283643298
 42
0.0018402393424391
 10
1730.9749022725987
 20
4765.2298913148952
 42
0.0024324611194203
 10
1748.5737223780193
 20
4765.5744484070574
 42
0.0030244239916455
 10
1766.1685169316856
 20
4766.1110754849342
 42
0.0036154375210828
 10
1783.7585370914271
 20
4766.8814597657638
 42
0.0042037758067548
 10
1801.3430319967169
 20
4767.9272898288409
 42
0.0047867583306035
 10
1818.911535278
 20
4769.2894594725394
 10
1818.9212441251052
 20
4769.2903058238298
 42
0.0053577857441505
 10
1836.4776906858281
 20
4771.0104971415903
 10
1838.6774093348727
 20
4771.2498501408118
 42
0.0059478821946333
 10
1851.8559445964306
 20
4772.8426522980499
 10
1854.0441569013701
 20
4773.133576680958
 42
0.0031875028459604
 10
1862.8195182931745
 20
4774.3572479163158
 42
0.0016442813754779
 10
1867.2053763235201
 20
4775.0120960755648
 42
0.0016442813754779
  0
LINE
  5
19E
100
AcDbEntity
  8
AAA70-1103
370
              15
390
0
  6
Continuous
 62
               7
100
AcDbLine
 10
2571.6081744291873
 20
3897.0669510147768
 30
0.0
 11
2617.1149697602264
 21
3897.0669510147777
 31
0.0
  0
LINE
  5
19F
100
AcDbEntity
  8
AAA70-1103
370
              15
390
0
  6
Continuous
 62
               7
100
AcDbLine
 10
2553.0038265412018
 20
3911.1183608479009
 30
0.0
 11
2635.7193176482065
 21
3911.1183608479009
 31
0.0
  0
LINE
  5
1A0
100
AcDbEntity
  8
AAA70-1103
370
              15
390
0
  6
Continuous
 62
               7
100
AcDbLine
 10
2570.8615720947068
 20
3876.1183608479009
 30
0.0
 11
2617.8615720947014
 21
3876.1183608479009
 31
0.0
  0
LINE
  5
1A1
100
AcDbEntity
  8
AAA70-1103
370
              15
390
0
  6
Continuous
 62
               7
100
AcDbLine
 10
2764.8615720947018
 20
4056.1183608592737
 30
0.0
 11
2803.8615720946982
 21
4056.1183608477959
 31
0.0
  0
LINE
  5
1A2
100
AcDbEntity
  8
AAA70-1103
370
              15
390
0
  6
Continuous
 62
               7
100
AcDbLine
 10
2803.8615720947091
 20
4044.1183608592737
 30
0.0
 11
2764.8615720947073
 21
4044.1183608592737
 31
0.0
  0
LINE
  5
1A3
100
AcDbEntity
  8
AAA70-1103
370
              15
390
0
  6
Continuous
 62
               7
100
AcDbLine
 10
2853.3615720947055
 20
4036.11836084791
 30
0.0
 11
2853.3615721302194
 21
4036.1183608874167
 31
0.0
  0
LWPOLYLINE
  5
1A4
100
AcDbEntity
  8
AAA70-1103
370
              15
390
0
  6
Continuous
 62
               7
100
AcDbPolyline
 90
       15
 70
             129
 10
2821.6059838600449
 20
3954.8507262158837
 10
2818.926447515058
 20
4040.2499633565299
 42
0.4046079684884063
 10
2814.9286130033506
 20
4044.1183608593278
 10
2803.8615720947091
 20
4044.1183608592737
 42
-0.4142135623733614
 10
2802.8615720947091
 20
4045.1183608592728
 10
2802.8615720946982
 20
4055.1183608477959
 42
-0.4142135623731117
 10
2803.8615720946982
 20
4056.1183608477959
 10
2850.3615720946964
 20
4056.1183608479
 42
-0.4142135623736944
 10
2854.3615720947037
 20
4052.1183608479009
 10
2854.3615720947037
 20
4037.11836084791
 42
-0.4142135623725622
 10
2853.3615720947018
 20
4036.11836084791
 42
0.414213562373095
 10
2852.3615720947018
 20
4035.11836084791
 10
2852.3615720947055
 20
3954.9628749624908
 42
-0.414213562373095
 10
2848.3615720947055
 20
3950.9628749624908
 10
2825.6055005472808
 20
3950.9129055412968
 42
-0.4096676982738309
  0
LWPOLYLINE
  5
1A5
100
AcDbEntity
  8
AAA70-1103
370
              15
390
0
  6
Continuous
 62
               7
100
AcDbPolyline
 90
       12
 70
             129
 10
2831.1987402069135
 20
3964.9006956370777
 10
2828.8591177565013
 20
4036.3359884982829
 42
0.1277007750670618
 10
2826.9851650099517
 20
4043.1183608492879
 42
-0.5773502689140038
 10
2828.7172158183457
 20
4046.1183608478527
 10
2842.3615720946982
 20
4046.1183608478809
 42
-0.4142135623740108
 10
2844.3615720947055
 20
4044.11836084788
 10
2844.3615720947018
 20
4037.1183608479109
 42
-0.4142135623732282
 10
2843.3615720947018
 20
4036.1183608479109
 42
0.4142135623749597
 10
2842.3615720947073
 20
4035.11836084791
 10
2842.3615720947037
 20
3964.9628749624908
 42
-0.414213562373095
 10
2838.3615720947037
 20
3960.9628749624908
 10
2835.1982568941507
 20
3960.9628749624917
 42
-0.409667698273563
  0
LWPOLYLINE
  5
1A6
100
AcDbEntity
  8
AAA70-1103
370
              15
390
0
  6
Continuous
 62
               7
100
AcDbPolyline
 90
        6
 70
             128
 10
2852.3615720946909
 20
3954.9628749625217
 10
2852.2988172791738
 20
3873.116827364056
 42
-0.4139890066637819
 10
2850.2988178670676
 20
3871.1183608479309
 10
2826.2975695990258
 20
3871.1183608479309
 42
-0.4046079684857656
 10
2824.2986523431882
 20
3873.0525595993468
 10
2821.6059838600286
 20
3954.8507262159137
  0
LINE
  5
1A7
100
AcDbEntity
  8
AAA70-1103
370
              15
390
0
  6
Continuous
 62
               7
100
AcDbLine
 10
2397.4182816799271
 20
4056.118360850764
 30
0.0
 11
2743.1393837645064
 21
4056.1183608593278
 31
0.0
  0
LWPOLYLINE
  5
1A8
100
AcDbEntity
  8
AAA70-1103
370
              15
390
0
  6
Continuous
 62
               7
100
AcDbPolyline
 90
       22
 70
             129
 10
2627.8615720946941
 20
3876.1183608479009
 42
0.4142135623735612
 10
2628.8615720946927
 20
3877.1183608479009
 10
2628.8615720946946
 20
3887.3581570553188
 42
-0.3987181330749059
 10
2640.2235570464959
 20
3899.34118408517
 10
2723.0587081008016
 20
3903.7515949738968
 42
0.3822610097071322
 10
2743.8531360254656
 20
3924.4645571337551
 10
2750.2506197881185
 20
4040.3467100826656
 42
-0.3975812287954254
 10
2754.2440965480782
 20
4044.1183608593378
 10
2764.8615720947073
 20
4044.1183608592737
 42
0.4142135623728286
 10
2765.8615720947073
 20
4045.1183608592728
 10
2765.8615720947018
 20
4055.1183608592737
 42
0.4142135623731283
 10
2764.8615720947018
 20
4056.1183608592737
 10
2743.1393837645046
 20
4056.1183608593278
 42
0.3975812287961317
 10
2739.145907004553
 20
4052.3467100826388
 10
2731.8727057456326
 20
3925.1496048036888
 42
-0.3822610097071505
 10
2722.4206930526034
 20
3915.734622003753
 10
2635.7193176481919
 20
3911.1183608479009
 42
0.1660613428259467
 10
2633.2886202781624
 20
3910.2366350537027
 10
2617.8109523799012
 20
3897.7944115671107
 42
0.2600653575287845
 10
2616.8615720947014
 20
3896.0925895391438
 10
2616.8615720946941
 20
3877.1183608479009
 42
0.4142135623725622
 10
2617.8615720946923
 20
3876.1183608479009
  0
LWPOLYLINE
  5
1A9
100
AcDbEntity
  8
AAA70-1103
370
              15
390
0
  6
Continuous
 62
               7
100
AcDbPolyline
 90
       27
 70
             128
 10
2401.3690343298545
 20
4052.7441032091169
 42
0.0310670015762006
 10
2422.4059585591835
 20
3960.5142136055656
 42
0.3204991886119659
 10
2476.2845595635113
 20
3916.2106632710111
 10
2553.0038265412018
 20
3911.1183608479009
 42
-0.166061342826159
 10
2555.4345239112422
 20
3910.236635053705
 10
2570.9121918095075
 20
3897.7944115671107
 42
-0.2600653575287005
 10
2571.8615720947068
 20
3896.0925895391438
 10
2571.8615720947068
 20
3877.1183608479009
 42
-0.414213562373095
 10
2570.8615720947068
 20
3876.1183608479009
 10
2560.8615720947068
 20
3876.1183608479009
 42
-0.4142135623730617
 10
2559.8615720947068
 20
3877.1183608479009
 10
2559.8615720947068
 20
3887.412523210111
 42
0.3944715067516774
 10
2548.6753972126839
 20
3899.3848951003147
 10
2474.3953712591233
 20
3904.336385538018
 42
0.4136874131644635
 10
2465.8949108727716
 20
3896.8857350160747
 10
2464.3003519098379
 20
3872.9852237823188
 42
-0.3948335622961292
 10
2462.3047881997531
 20
3871.1183608507649
 10
2456.3003519098379
 20
3871.1183608507649
 42
-0.414213562373095
 10
2454.3003519098379
 20
3873.1183608507649
 10
2454.3003519098415
 20
3873.5210052198736
 42
0.3036331800271363
 10
2452.4454931968025
 20
3876.2938469811179
 10
2430.1566664118254
 20
3883.8158280541666
 42
-0.257973189775896
 10
2390.99762003259
 20
3926.6691515188772
 42
-0.0515463468806935
 10
2374.3003519393014
 20
4052.001157400231
 42
-0.4228230956749244
 10
2378.2986344894953
 20
4056.1183608507631
 10
2397.4182816799271
 20
4056.118360850764
 42
-0.36891915373611
 10
2401.3690343298781
 20
4052.7441032090101
 42
-0.36891915373611
  0
LWPOLYLINE
  5
1AA
100
AcDbEntity
  8
AAA70-1103
370
              15
390
0
  6
Continuous
 62
               7
100
AcDbPolyline
 90
       12
 70
             129
 10
2433.3542628135501
 20
3893.290814980367
 42
-0.2579731897758531
 10
2400.7217241641843
 20
3929.0019178676393
 42
-0.0481201737959784
 10
2384.5959303334812
 20
4044.032160372748
 42
-0.4268983650276187
 10
2386.5940718393808
 20
4046.118360850764
 10
2390.6506392431252
 20
4046.1183608507631
 42
-0.3649977871760968
 10
2392.6215018462535
 20
4044.458508759174
 42
0.0288366558272865
 10
2412.7804165164339
 20
3957.8008680154044
 42
0.2509272974381621
 10
2458.114276573991
 20
3909.6992697805149
 42
-0.5007598046287584
 10
2459.1186949815756
 20
3906.6579206867673
 42
0.1365686533019601
 10
2455.9170923223533
 20
3897.5514203583048
 10
2455.315255409268
 20
3888.5306125761031
 42
-0.4922315797199861
 10
2452.6801724188404
 20
3886.7687522593087
  0
LWPOLYLINE
  5
1AB
100
AcDbEntity
  8
AAA70-1103
370
              15
390
0
  6
Continuous
 62
               7
100
AcDbPolyline
 90
        4
 70
             128
 10
2854.3615720947037
 20
4037.11836084791
 10
2854.3615720947018
 20
3873.118360847915
 42
-0.4142135623708307
 10
2852.3615720946873
 20
3871.1183608479159
 10
2462.304788199755
 20
3871.1183608507649
  0
LWPOLYLINE
  5
1AC
100
AcDbEntity
  8
AAA70-1103
370
               5
390
0
  6
STYLE_12
 62
               7
100
AcDbPolyline
 90
       18
 70
             128
 10
2974.4761950416696
 20
4899.9464392181362
 42
0.0016656584917976
 10
2975.5685726826805
 20
4905.0020424484965
 10
2976.9120467143875
 20
4911.3216468620349
 42
0.0099838631661679
 10
2980.3197385452681
 20
4929.0881486267572
 10
2981.4103224478122
 20
4935.4591653332945
 42
0.0066497732371634
 10
2984.6228230017214
 20
4955.8533810363106
 42
0.0066436467401803
 10
2987.2913398903656
 20
4976.3204004725276
 42
0.006641271775704
 10
2989.4141068690142
 20
4996.8421039161976
 42
0.0066400685936099
 10
2990.9905760321108
 20
5017.407554816461
 42
0.0066400650405593
 10
2992.0201997085278
 20
5038.005819895373
 42
0.0066412696441056
 10
2992.502429756215
 20
5058.6259655856884
 42
0.0066436780332653
 10
2992.4367176323385
 20
5079.2570583476409
 42
0.0066472718572593
 10
2991.8225143943446
 20
5099.8881645327265
 42
0.0066500668784431
 10
2990.6597616767776
 20
5120.501078544029
 10
2990.479255794422
 20
5123.0885310772501
 42
0.0099841163984389
 10
2988.167566936781
 20
5148.8147197612798
 10
2987.8844043054496
 20
5151.3883387806954
 42
0.001665442090678
 10
2987.3015965173627
 20
5156.527849265879
 42
0.001665442090678
  0
LWPOLYLINE
  5
1AD
100
AcDbEntity
  8
AAA70-1103
370
               5
390
0
  6
STYLE_12
 62
               7
100
AcDbPolyline
 90
       20
 70
             128
 10
2622.5408535694532
 20
4764.9295162038134
 42
-0.000120563787002
 10
2626.9442544131857
 20
4764.9283368074621
 10
2630.2445109719065
 20
4764.9266570916607
 42
0.0000591263027377
 10
2641.2484251574069
 20
4764.9223577238527
 10
2644.5501222660555
 20
4764.9214581435526
 42
0.0006572648114693
 10
2662.1566335867365
 20
4764.9398053580953
 42
0.0012481976904356
 10
2679.7612658492581
 20
4765.0252432191401
 42
0.0018402393425183
 10
2697.3633642199129
 20
4765.2194061697064
 42
0.002432461119349
 10
2714.9621843253335
 20
4765.5639632618686
 42
0.0030244239916776
 10
2732.5569788789999
 20
4766.1005903397454
 42
0.0036154375210674
 10
2750.1469990387404
 20
4766.870974620575
 42
0.0042037758067449
 10
2767.7314939440303
 20
4767.9168046836512
 42
0.0047867583306441
 10
2785.2999972253128
 20
4769.2789743273488
 10
2785.3097060724194
 20
4769.2798206786401
 42
0.0053577857441246
 10
2802.8661526331402
 20
4771.0000119964016
 10
2805.0658712821883
 20
4771.239364995623
 42
0.0059478821946158
 10
2818.2444065437448
 20
4772.8321671528602
 10
2820.4326188486884
 20
4773.1230915357692
 42
0.00318750284603
 10
2829.2079802404887
 20
4774.346762771127
 42
0.0016442813753724
 10
2833.5938382708346
 20
4775.001610930376
 42
0.0016442813753724
  0
LWPOLYLINE
  5
1AE
100
AcDbEntity
  8
AAA70-1103
370
               5
390
0
  6
STYLE_12
 62
               7
100
AcDbPolyline
 90
       51
 70
             128
 10
2987.3015965173627
 20
5156.527849265879
 42
0.0035856279531681
 10
2987.1219486121054
 20
5157.9760605559641
 10
2986.9804342692805
 20
5159.0535564631937
 42
0.0143812723273344
 10
2986.404227269104
 20
5162.6388946420948
 10
2986.1985881646615
 20
5163.7191551973656
 42
0.0143354739548525
 10
2984.968784677716
 20
5169.3030853223408
 10
2984.9629342563421
 20
5169.3264404185111
 42
0.0142703611375299
 10
2983.4288905356752
 20
5174.7846018382252
 10
2983.4227763141103
 20
5174.8041920694832
 42
0.0141940235264613
 10
2981.5940019301224
 20
5180.12745559826
 10
2981.5879128598308
 20
5180.1436671196007
 42
0.0141108628649661
 10
2979.4739728018139
 20
5185.3229108929372
 10
2979.4681425470776
 20
5185.3361173588592
 42
0.0140253351677392
 10
2977.0786529185698
 20
5190.3622373090902
 10
2977.0732675023928
 20
5190.3727912208224
 42
0.0139415826467422
 10
2974.4178871566173
 20
5195.2367085713531
 10
2974.4130941564395
 20
5195.2449341466727
 42
0.0138633583447898
 10
2971.5015147646809
 20
5199.9376014882664
 10
2971.4974319345101
 20
5199.9437919726661
 42
0.013793878902957
 10
2968.3393701923733
 20
5204.4561938673442
 10
2968.336100314651
 20
5204.4606020149095
 42
0.0137360414995958
 10
2964.9412788325626
 20
5208.7837667741096
 10
2964.9388975235242
 20
5208.7866335297085
 42
0.0136915232621614
 10
2961.3170748736775
 20
5212.9115892271257
 42
0.0136585254034039
 10
2957.4765289975103
 20
5216.8309757381512
 42
0.0136489330912884
 10
2953.4294583184364
 20
5220.5331965653741
 42
0.0136575774869695
 10
2949.1857465479461
 20
5224.00945893894
 42
0.0136753152820415
 10
2944.757538807788
 20
5227.24941756099
 10
2944.755181181903
 20
5227.2510454725425
 42
0.0137121140795299
 10
2940.1514537474577
 20
5230.246845574914
 10
2940.1475417868569
 20
5230.249241157142
 42
0.0137634496351491
 10
2935.3782967070297
 20
5232.9922476066813
 10
2935.372633240454
 20
5232.9953006479882
 42
0.0138274729663491
 10
2930.4478992130257
 20
5235.4768864790803
 10
2930.4402572815652
 20
5235.4804758608734
 42
0.0139017114626257
 10
2925.370097592614
 20
5237.6920261148052
 10
2925.3602166189021
 20
5237.6960129534982
 42
0.0139831592754566
 10
2920.1547271447917
 20
5239.6289349951539
 10
2920.1423157795862
 20
5239.6331526550503
 42
0.0140683065574811
 10
2914.811621766481
 20
5241.2788858032227
 10
2914.7963623441365
 20
5241.2831304977717
 42
0.0141531992666181
 10
2909.3506129684802
 20
5242.6331552324464
 10
2909.3321681488787
 20
5242.637177341765
 42
0.0142335200790021
 10
2903.7815289600085
 20
5243.6830235716152
 10
2903.7595504794481
 20
5243.6865201885194
 42
0.0143046648677082
 10
2898.1141939437784
 20
5244.4197744431385
 10
2897.3896104821215
 20
5244.4928820696459
 42
0.0143553274772762
 10
2893.0600537202454
 20
5244.8044844835213
 10
2892.3446958257723
 20
5244.8353630418387
 42
0.0071923665517735
 10
2889.4357030951114
 20
5244.9190310586246
 42
0.0035922960117223
 10
2887.9763930668423
 20
5244.9295162038134
 42
0.0035922960117223
  0
LWPOLYLINE
  5
1AF
100
AcDbEntity
  8
AAA70-1103
370
               5
390
0
  6
STYLE_12
 62
               7
100
AcDbPolyline
 90
       20
 70
             128
 10
2622.5408535694532
 20
4764.9295162038134
 42
0.000120563787002
 10
2618.1374527259986
 20
4764.9283368074621
 10
2614.8371961670005
 20
4764.9266570916607
 42
-0.0000591263026203
 10
2603.833281981741
 20
4764.9223577238527
 10
2600.5315848728515
 20
4764.9214581435526
 42
-0.0006573225624908
 10
2582.9250735521705
 20
4764.9398053580944
 42
-0.0012483208055858
 10
2565.3204412896494
 20
4765.0252432191392
 42
-0.0018403936125598
 10
2547.7183429189945
 20
4765.2194061697064
 42
-0.0024325024663894
 10
2530.1195228135739
 20
4765.5639632618686
 42
-0.0030240643844309
 10
2512.5247282599075
 20
4766.1005903397436
 42
-0.0036142065859577
 10
2494.934708100167
 20
4766.8709746205741
 42
-0.0042009848165343
 10
2477.3502131948771
 20
4767.9168046836521
 42
-0.0047867583305963
 10
2459.7817099135973
 20
4769.2789743273497
 10
2459.772001066488
 20
4769.279820678641
 42
-0.005357785744144
 10
2442.215554505764
 20
4771.0000119964016
 10
2440.0158358567196
 20
4771.2393649956221
 42
-0.0059478821946508
 10
2426.8373005951626
 20
4772.8321671528611
 10
2424.6490882902222
 20
4773.1230915357692
 42
-0.0031875028459538
 10
2415.8737268984187
 20
4774.346762771127
 42
-0.0016435675647472
 10
2411.4878688680728
 20
4775.001610930376
 42
-0.0016435675647472
  0
LINE
  5
1B0
100
AcDbEntity
  8
AAA70-1103
370
               5
390
0
  6
STYLE_12
 62
               7
100
AcDbLine
 10
2357.1053140720646
 20
5244.9295162038134
 30
0.0
 11
2887.9763930668423
 21
5244.9295162038134
 31
0.0
  0
LWPOLYLINE
  5
1B1
100
AcDbEntity
  8
AAA70-1103
370
               5
390
0
  6
STYLE_12
 62
               7
100
AcDbPolyline
 90
       48
 70
             128
 10
2411.4878688680728
 20
4775.001610930376
 42
-0.0032146330950559
 10
2409.4210974624971
 20
4775.2148276269363
 10
2407.880256293136
 20
4775.383805842187
 42
-0.0128673508364567
 10
2402.7511000694876
 20
4776.0802860935783
 10
2401.207234847398
 20
4776.3305373143721
 42
-0.0128210526450624
 10
2393.1662190250286
 20
4777.846461719304
 10
2393.1407126885829
 20
4777.8519509595571
 42
-0.0127658988927005
 10
2385.2384367070076
 20
4779.7649115551776
 10
2385.2168204661648
 20
4779.7707323271125
 42
-0.0127067440189931
 10
2377.4650903100669
 20
4782.0708738913499
 10
2377.4470165362868
 20
4782.076740491967
 42
-0.0126461908926661
 10
2369.8576272268051
 20
4784.7541636046099
 10
2369.8427629892039
 20
4784.7598341022358
 42
-0.0125867974793293
 10
2362.4274912245442
 20
4787.8045992809948
 10
2362.415524146651
 20
4787.8098688305236
 42
-0.0125308870296154
 10
2355.1861232915485
 20
4791.2120036013139
 10
2355.1767666036376
 20
4791.2166967224894
 42
-0.0124805256038241
 10
2348.1449622685473
 20
4794.9662038880679
 10
2348.1379555134467
 20
4794.9701677276498
 42
-0.0124374369224751
 10
2341.3154468480247
 20
4799.0570310849025
 10
2341.310566246616
 20
4799.0601221842117
 42
-0.0124031800364528
 10
2334.7090118596102
 20
4803.4743243733074
 42
-0.0123841729286658
 10
2328.3371079037629
 20
4808.2079118409911
 42
-0.0123675269846193
 10
2322.2111244658859
 20
4813.2476892563491
 42
-0.0123610590825414
 10
2316.3425083641237
 20
4818.5835007529731
 42
-0.0123665570644311
 10
2310.7427877689875
 20
4824.2051173531845
 42
-0.012389601407167
 10
2305.426446993034
 20
4830.0988502875716
 10
2305.4233895110187
 20
4830.1024135053713
 42
-0.0124191588931911
 10
2300.3999614209192
 20
4836.2598205370959
 10
2300.3957353165029
 20
4836.2652716044959
 42
-0.0124580208941305
 10
2295.6765723813223
 20
4842.6759746346324
 10
2295.6712839121669
 20
4842.6835468302052
 42
-0.0125049490015118
 10
2291.2677300151904
 20
4849.3371450226759
 10
2291.2614950379125
 20
4849.3470979609147
 42
-0.0125583352831293
 10
2287.1848852246294
 20
4856.233158704692
 10
2287.177833352484
 20
4856.2457833159588
 42
-0.012616270115977
 10
2283.4394849584455
 20
4863.3538433416315
 10
2283.431768103344
 20
4863.3694602117421
 42
-0.0126765580238058
 10
2280.042972622889
 20
4870.6890273541603
 10
2280.034773065629
 20
4870.7079840086517
 42
-0.0127367503248909
 10
2277.006788120068
 20
4878.2285406851715
 10
2276.9983262695782
 20
4878.2512071286101
 42
-0.0127941690687252
 10
2274.3423677988781
 20
4885.9622152733909
 10
2274.0296799456974
 20
4886.9515501330607
 42
-0.0128422726488401
 10
2272.3154930726964
 20
4892.902940914526
 10
2272.0573604773026
 20
4893.8941738911581
 42
-0.0064374814471118
 10
2271.064156282147
 20
4897.9199220893433
 42
-0.0032181269351509
 10
2270.6055120972374
 20
4899.9464392181362
 42
-0.0032181269351509
  0
LWPOLYLINE
  5
1B2
100
AcDbEntity
  8
AAA70-1103
370
               5
390
0
  6
STYLE_12
 62
               7
100
AcDbPolyline
 90
       51
 70
             128
 10
2257.7801106215443
 20
5156.527849265879
 42
-0.0035856279531874
 10
2257.9597585268034
 20
5157.9760605559777
 10
2258.1012728696264
 20
5159.0535564631937
 42
-0.0143812723272668
 10
2258.6774798698025
 20
5162.6388946420948
 10
2258.883118974245
 20
5163.7191551973692
 42
-0.01433547395504
 10
2260.11292246119
 20
5169.3030853223418
 10
2260.1187728825635
 20
5169.3264404185102
 42
-0.0142703611373576
 10
2261.6528166032308
 20
5174.7846018382261
 10
2261.6589308247953
 20
5174.8041920694823
 42
-0.014194023526612
 10
2263.4877052087836
 20
5180.1274555982591
 10
2263.4937942790766
 20
5180.1436671196043
 42
-0.0141108628648957
 10
2265.607734337093
 20
5185.3229108929363
 10
2265.6135645918271
 20
5185.3361173588528
 42
-0.0140253351676986
 10
2268.0030542203372
 20
5190.3622373090893
 10
2268.0084396365169
 20
5190.372791220826
 42
-0.0139415826466909
 10
2270.6638199822887
 20
5195.236708571354
 10
2270.6686129824661
 20
5195.2449341466727
 42
-0.0138633583449406
 10
2273.5801923742251
 20
5199.9376014882673
 10
2273.5842752043977
 20
5199.9437919726697
 42
-0.0137938789029061
 10
2276.7423369465337
 20
5204.4561938673442
 10
2276.7456068242536
 20
5204.4606020149076
 42
-0.0137360414995857
 10
2280.1404283063443
 20
5208.7837667741105
 10
2280.1428096153827
 20
5208.7866335297085
 42
-0.0136915232621507
 10
2283.7646322652295
 20
5212.9115892271257
 42
-0.013668314160599
 10
2287.6051781413967
 20
5216.8309757381512
 42
-0.0136510420824339
 10
2291.6522488204705
 20
5220.5331965653731
 42
-0.0136517072360482
 10
2295.8959605909608
 20
5224.00945893894
 42
-0.0136753152820725
 10
2300.3241683311198
 20
5227.2494175609918
 10
2300.326525957003
 20
5227.2510454725425
 42
-0.0137121140795775
 10
2304.9302533914488
 20
5230.2468455749149
 10
2304.9341653520491
 20
5230.2492411571429
 42
-0.0137634496352248
 10
2309.7034104318782
 20
5232.9922476066813
 10
2309.709073898453
 20
5232.9953006479882
 42
-0.0138274729662703
 10
2314.6338079258808
 20
5235.4768864790794
 10
2314.6414498573417
 20
5235.4804758608725
 42
-0.0139017114625688
 10
2319.7116095462916
 20
5237.6920261148043
 10
2319.7214905200049
 20
5237.6960129534982
 42
-0.0139831592755951
 10
2324.9269799941189
 20
5239.6289349951549
 10
2324.9393913593208
 20
5239.6331526550493
 42
-0.0140683065572777
 10
2330.2700853724245
 20
5241.2788858032218
 10
2330.2853447947705
 20
5241.2831304977717
 42
-0.0141531992667889
 10
2335.7310941704259
 20
5242.6331552324464
 10
2335.7495389900273
 20
5242.637177341765
 42
-0.0142335200789455
 10
2341.3001781788944
 20
5243.6830235716143
 10
2341.322156659458
 20
5243.6865201885184
 42
-0.0143046648677052
 10
2346.9675131951294
 20
5244.4197744431385
 10
2347.6920966567895
 20
5244.4928820696459
 42
-0.0143553274773144
 10
2352.0216534186607
 20
5244.8044844835213
 10
2352.7370113131328
 20
5244.8353630418378
 42
-0.0071923665516712
 10
2355.6460040437955
 20
5244.9190310586237
 42
-0.0035924545395235
 10
2357.1053140720646
 20
5244.9295162038134
 42
-0.0035924545395235
  0
LWPOLYLINE
  5
1B3
100
AcDbEntity
  8
AAA70-1103
370
               5
390
0
  6
STYLE_12
 62
               7
100
AcDbPolyline
 90
       18
 70
             128
 10
2270.6055120972374
 20
4899.9464392181362
 42
-0.0016656584919851
 10
2269.5131344562178
 20
4905.0020424485301
 10
2268.1696604245185
 20
4911.3216468620367
 42
-0.0099838631661227
 10
2264.761968593637
 20
4929.0881486267672
 10
2263.6713846910943
 20
4935.4591653332918
 42
-0.0066497732372145
 10
2260.4588841371847
 20
4955.8533810363115
 42
-0.0066471473663967
 10
2257.7903672485404
 20
4976.3204004725285
 42
-0.0066435987958708
 10
2255.667600269891
 20
4996.8421039161967
 42
-0.0066412296430721
 10
2254.0911311067953
 20
5017.4075548164601
 42
-0.0066400653328838
 10
2253.0615074303792
 20
5038.005819895373
 42
-0.0066401091070515
 10
2252.5792773826911
 20
5058.6259655856893
 42
-0.0066413515998015
 10
2252.6449895065675
 20
5079.2570583476409
 42
-0.0066437694998407
 10
2253.2591927445615
 20
5099.8881645327265
 42
-0.0066500668784807
 10
2254.4219454621289
 20
5120.5010785440354
 10
2254.6024513444841
 20
5123.088531077251
 42
-0.0099841163984208
 10
2256.9141402021264
 20
5148.8147197612816
 10
2257.1973028334573
 20
5151.3883387806954
 42
-0.0016655559363265
 10
2257.7801106215443
 20
5156.527849265879
 42
-0.0016655559363265
  0
LINE
  5
1B4
100
AcDbEntity
  8
AAA70-1103
370
              15
390
0
  6
STYLE_01
 62
               7
100
AcDbLine
 10
2819.8718742747587
 20
4010.1183608493398
 30
0.0
 11
2829.7177878590119
 21
4010.1183608493398
 31
0.0
  0
LINE
  5
1B5
100
AcDbEntity
  8
AAA70-1103
370
              15
390
0
  6
STYLE_01
 62
               7
100
AcDbLine
 10
2842.3615720947055
 20
4010.1183608493398
 30
0.0
 11
2852.3615720947018
 21
4010.1183608493398
 31
0.0
  0
LINE
  5
1B6
100
AcDbEntity
  8
AAA70-1103
370
              15
390
0
  6
STYLE_01
 62
               7
100
AcDbLine
 10
2819.4953552657316
 20
4022.1183608493398
 30
0.0
 11
2829.3247682705078
 21
4022.1183608493398
 31
0.0
  0
LINE
  5
1B7
100
AcDbEntity
  8
AAA70-1103
370
              15
390
0
  6
STYLE_01
 62
               7
100
AcDbLine
 10
2842.3615720947055
 20
4022.1183608493398
 30
0.0
 11
2852.3615720947018
 21
4022.1183608493398
 31
0.0
  0
CIRCLE
  5
1B8
100
AcDbEntity
  8
AAA70-1103
370
               5
390
0
  6
STYLE_12
 62
               7
100
AcDbCircle
 10
2622.5408535694532
 20
5174.9400013490031
 30
0.0
 40
18.500000000000114
  0
POLYLINE
  5
1B9
100
AcDbEntity
  8
AAA70-1103
370
              15
390
0
  6
Continuous
 62
               7
100
AcDb2dPolyline
 66
               1
 10
0.0
 20
0.0
 30
0.0
 70
               1
 75
               5
  0
VERTEX
  5
1BA
100
AcDbEntity
  8
AAA70-1103
370
              15
390
0
  6
Continuous
 62
               7
100
AcDbVertex
100
AcDb2dVertex
 10
2497.5408535694537
 20
5214.8882671739875
 30
0.0
  0
VERTEX
  5
1BB
100
AcDbEntity
  8
AAA70-1103
370
              15
390
0
  6
Continuous
 62
               7
100
AcDbVertex
100
AcDb2dVertex
 10
2747.5408535694537
 20
5214.8882671739875
 30
0.0
  0
VERTEX
  5
1BC
100
AcDbEntity
  8
AAA70-1103
370
              15
390
0
  6
Continuous
 62
               7
100
AcDbVertex
100
AcDb2dVertex
 10
2747.5408535694537
 20
4914.8882671739848
 30
0.0
  0
VERTEX
  5
1BD
100
AcDbEntity
  8
AAA70-1103
370
              15
390
0
  6
Continuous
 62
               7
100
AcDbVertex
100
AcDb2dVertex
 10
2497.5408535694537
 20
4914.8882671739848
 30
0.0
  0
SEQEND
  5
1BE
100
AcDbEntity
  8
AAA70-1103
370
              15
390
0
  6
Continuous
 62
               7
  0
LINE
  5
1BF
100
AcDbEntity
  8
AAA70-1103
370
               5
390
0
  6
Continuous
 62
               7
100
AcDbLine
 10
1481.3763521718436
 20
3871.118360855035
 30
0.0
 11
1831.9534507189251
 21
3871.118360855035
 31
0.0
  0
ENDSEC
  0
SECTION
  2
OBJECTS
  0
DICTIONARY
  5
19
100
AcDbDictionary
280
               0
281
               1
  3
ACAD_GROUP
350
1A
  3
ACAD_MLINESTYLE
350
1B
  3
ACAD_LAYOUT
350
1E
  3
ACAD_PLOTSETTINGS
350
22
  3
ACAD_PLOTSTYLENAME
350
1F
  0
DICTIONARY
  5
1A
102
{ACAD_REACTORS
330
19
102
}
100
AcDbDictionary
280
               0
281
               1
  0
DICTIONARY
  5
1B
102
{ACAD_REACTORS
330
19
102
}
100
AcDbDictionary
280
               0
281
               1
  3
Standard
350
1C
  0
MLINESTYLE
  5
1C
102
{ACAD_REACTORS
330
1B
102
}
100
AcDbMlineStyle
  2
Standard
 70
               0
  3

 62
               0
 51
90.0
 52
90.0
 71
               2
 49
0.5
 62
             256
  6
ByLayer
 49
-0.5
 62
             256
  6
ByLayer
  0
ACDBDICTIONARYWDFLT
  5
1F
102
{ACAD_REACTORS
330
19
102
}
100
AcDbDictionary
281
               1
  3
Normal
350
1D
100
AcDbDictionaryWithDefault
340
1D
  0
ACDBPLACEHOLDER
  5
1D
102
{ACAD_REACTORS
330
1F
102
}
  0
LAYOUT
  5
20
102
{ACAD_REACTORS
330
1E
102
}
100
AcDbPlotSettings
  1

  2

  4

  6

 40
0.0
 41
0.0
 42
0.0
 43
0.0
 44
0.0
 45
0.0
 46
0.0
 47
0.0
 48
0.0
 49
0.0
140
0.0
141
0.0
142
1.0
143
1.0
 70
            1024
 72
               0
 73
               0
 74
               0
  7

 75
               0
147
1.0
148
0.0
149
0.0
100
AcDbLayout
  1
Model
 70
               0
 71
               0
 10
0.0
 20
0.0
 11
0.0
 21
0.0
 12
0.0
 22
0.0
 32
0.0
 14
0.0
 24
0.0
 34
0.0
 15
0.0
 25
0.0
 35
0.0
146
0.0
 13
0.0
 23
0.0
 33
0.0
 16
0.0
 26
0.0
 36
0.0
 17
0.0
 27
0.0
 37
0.0
 76
               0
330
A
331
0
345
0
346
0
  0
LAYOUT
  5
21
102
{ACAD_REACTORS
330
1E
102
}
100
AcDbPlotSettings
  1

  2

  4

  6

 40
0.0
 41
0.0
 42
0.0
 43
0.0
 44
0.0
 45
0.0
 46
0.0
 47
0.0
 48
0.0
 49
0.0
140
0.0
141
0.0
142
1.0
143
1.0
 70
               0
 72
               0
 73
               0
 74
               0
  7

 75
               0
147
1.0
148
0.0
149
0.0
100
AcDbLayout
  1
Layout1
 70
               0
 71
               0
 10
0.0
 20
0.0
 11
0.0
 21
0.0
 12
0.0
 22
0.0
 32
0.0
 14
0.0
 24
0.0
 34
0.0
 15
0.0
 25
0.0
 35
0.0
146
0.0
 13
0.0
 23
0.0
 33
0.0
 16
0.0
 26
0.0
 36
0.0
 17
0.0
 27
0.0
 37
0.0
 76
               0
330
B
331
0
345
0
346
0
  0
DICTIONARY
  5
1E
102
{ACAD_REACTORS
330
19
102
}
100
AcDbDictionary
280
               0
281
               1
  3
Layout1
350
21
  3
Model
350
20
  0
DICTIONARY
  5
22
102
{ACAD_REACTORS
330
19
102
}
100
AcDbDictionary
280
               0
281
               1
  0
ENDSEC
  0
EOF
