  0
SECTION
  2
HEADER
  9
$ACADVER
  1
AC1015
  9
$ACADMAINTVER
 70
               6
  9
$DWGCODEPAGE
  3
ANSI_932
  9
$INSBASE
 10
0.0
 20
0.0
 30
0.0
  9
$EXTMIN
 10
1050.0000000000002
 20
0.0
 30
-14.851944444444445
  9
$EXTMAX
 10
3150.0
 20
2970.0
 30
14.851944444444445
  9
$LIMMIN
 10
0.0
 20
0.0
  9
$LIMMAX
 10
0.0
 20
0.0
  9
$ORTHOMODE
 70
               0
  9
$REGENMODE
 70
               1
  9
$FILLMODE
 70
               1
  9
$QTEXTMODE
 70
               0
  9
$MIRRTEXT
 70
               1
  9
$LTSCALE
 40
50.799999999999997
  9
$ATTMODE
 70
               1
  9
$TEXTSIZE
 40
0.2
  9
$TRACEWID
 40
1.0
  9
$TEXTSTYLE
  7
Standard
  9
$CLAYER
  8
AAA70-1104
  9
$CELTYPE
  6
Continuous
  9
$CECOLOR
 62
             256
  9
$CELTSCALE
 40
1.0
  9
$DISPSILH
 70
               0
  9
$DIMSCALE
 40
1.0
  9
$DIMASZ
 40
31.75
  9
$DIMEXO
 40
0.0
  9
$DIMDLI
 40
6.9999999999999396
  9
$DIMRND
 40
0.0
  9
$DIMDLE
 40
0.0
  9
$DIMEXE
 40
19.999999999996199
  9
$DIMTP
 40
0.0
  9
$DIMTM
 40
0.0
  9
$DIMTXT
 40
24.432617187500004
  9
$DIMCEN
 40
0.0
  9
$DIMTSZ
 40
0.0
  9
$DIMTOL
 70
               0
  9
$DIMLIM
 70
               0
  9
$DIMTIH
 70
               0
  9
$DIMTOH
 70
               0
  9
$DIMSE1
 70
               0
  9
$DIMSE2
 70
               0
  9
$DIMTAD
 70
               1
  9
$DIMZIN
 70
              11
  9
$DIMBLK
  1
VW_FILLEDARROW
  9
$DIMASO
 70
               1
  9
$DIMSHO
 70
               1
  9
$DIMPOST
  1
<>
  9
$DIMAPOST
  1
[]
  9
$DIMALT
 70
               0
  9
$DIMALTD
 70
               3
  9
$DIMALTF
 40
0.0393700787401575
  9
$DIMLFAC
 40
1.0
  9
$DIMTOFL
 70
               0
  9
$DIMTVP
 40
0.0
  9
$DIMTIX
 70
               1
  9
$DIMSOXD
 70
               0
  9
$DIMSAH
 70
               0
  9
$DIMBLK1
  1

  9
$DIMBLK2
  1

  9
$DIMSTYLE
  2
JIS
  9
$DIMCLRD
 70
               0
  9
$DIMCLRE
 70
               0
  9
$DIMCLRT
 70
               0
  9
$DIMTFAC
 40
1.0
  9
$DIMGAP
 40
1.00000000000108
  9
$DIMJUST
 70
               0
  9
$DIMSD1
 70
               0
  9
$DIMSD2
 70
               0
  9
$DIMTOLJ
 70
               1
  9
$DIMTZIN
 70
              11
  9
$DIMALTZ
 70
              15
  9
$DIMALTTZ
 70
              15
  9
$DIMUPT
 70
               0
  9
$DIMDEC
 70
               1
  9
$DIMTDEC
 70
               1
  9
$DIMALTU
 70
               4
  9
$DIMALTTD
 70
               2
  9
$DIMTXSTY
  7
ＭＳ ゴシック
  9
$DIMAUNIT
 70
               0
  9
$DIMADEC
 70
               2
  9
$DIMALTRND
 40
0.0
  9
$DIMAZIN
 70
               0
  9
$DIMDSEP
 70
              46
  9
$DIMATFIT
 70
               0
  9
$DIMFRAC
 70
               2
  9
$DIMLDRBLK
  1

  9
$DIMLUNIT
 70
               2
  9
$DIMLWD
 70
              -2
  9
$DIMLWE
 70
              -2
  9
$DIMTMOVE
 70
               0
  9
$LUNITS
 70
               2
  9
$LUPREC
 70
               4
  9
$SKETCHINC
 40
0.1
  9
$FILLETRAD
 40
0.0
  9
$AUNITS
 70
               0
  9
$AUPREC
 70
               0
  9
$MENU
  1
acad
  9
$ELEVATION
 40
0.0
  9
$PELEVATION
 40
0.0
  9
$THICKNESS
 40
0.0
  9
$LIMCHECK
 70
               0
  9
$CHAMFERA
 40
0.0
  9
$CHAMFERB
 40
0.0
  9
$CHAMFERC
 40
0.0
  9
$CHAMFERD
 40
0.0
  9
$SKPOLY
 70
               0
  9
$TDCREATE
 40
2455965.488148148
  9
$TDUCREATE
 40
0.000000000
  9
$TDUPDATE
 40
2455965.488148148
  9
$TDUUPDATE
 40
0.000000000
  9
$TDINDWG
 40
0.0000000000
  9
$TDUSRTIMER
 40
0.0000000000
  9
$USRTIMER
 70
               1
  9
$ANGBASE
 50
0.0
  9
$ANGDIR
 70
               0
  9
$PDMODE
 70
               1
  9
$PDSIZE
 40
-2.0
  9
$PLINEWID
 40
0.0
  9
$SPLFRAME
 70
               0
  9
$SPLINETYPE
 70
               6
  9
$SPLINESEGS
 70
               8
  9
$HANDSEED
  5
228
  9
$SURFTAB1
 70
               6
  9
$SURFTAB2
 70
               6
  9
$SURFTYPE
 70
               6
  9
$SURFU
 70
               6
  9
$SURFV
 70
               6
  9
$UCSBASE
  2

  9
$UCSNAME
  2

  9
$UCSORG
 10
0.0
 20
0.0
 30
0.0
  9
$UCSXDIR
 10
1.0
 20
0.0
 30
0.0
  9
$UCSYDIR
 10
0.0
 20
1.0
 30
0.0
  9
$UCSORTHOREF
  2

  9
$UCSORTHOVIEW
 70
               0
  9
$UCSORGTOP
 10
0.0
 20
0.0
 30
0.0
  9
$UCSORGBOTTOM
 10
0.0
 20
0.0
 30
0.0
  9
$UCSORGLEFT
 10
0.0
 20
0.0
 30
0.0
  9
$UCSORGRIGHT
 10
0.0
 20
0.0
 30
0.0
  9
$UCSORGFRONT
 10
0.0
 20
0.0
 30
0.0
  9
$UCSORGBACK
 10
0.0
 20
0.0
 30
0.0
  9
$PUCSBASE
  2

  9
$PUCSNAME
  2

  9
$PUCSORG
 10
0.0
 20
0.0
 30
0.0
  9
$PUCSXDIR
 10
1.0
 20
0.0
 30
0.0
  9
$PUCSYDIR
 10
0.0
 20
1.0
 30
0.0
  9
$PUCSORTHOREF
  2

  9
$PUCSORTHOVIEW
 70
               0
  9
$PUCSORGTOP
 10
0.0
 20
0.0
 30
0.0
  9
$PUCSORGBOTTOM
 10
0.0
 20
0.0
 30
0.0
  9
$PUCSORGLEFT
 10
0.0
 20
0.0
 30
0.0
  9
$PUCSORGRIGHT
 10
0.0
 20
0.0
 30
0.0
  9
$PUCSORGFRONT
 10
0.0
 20
0.0
 30
0.0
  9
$PUCSORGBACK
 10
0.0
 20
0.0
 30
0.0
  9
$USERI1
 70
               0
  9
$USERI2
 70
               0
  9
$USERI3
 70
               0
  9
$USERI4
 70
               0
  9
$USERI5
 70
               0
  9
$USERR1
 40
0.0
  9
$USERR2
 40
0.0
  9
$USERR3
 40
0.0
  9
$USERR4
 40
0.0
  9
$USERR5
 40
0.0
  9
$WORLDVIEW
 70
               1
  9
$SHADEDGE
 70
               3
  9
$SHADEDIF
 70
              70
  9
$TILEMODE
 70
               1
  9
$MAXACTVP
 70
              64
  9
$PINSBASE
 10
0.0
 20
0.0
 30
0.0
  9
$PLIMCHECK
 70
               0
  9
$PEXTMIN
 10
1.0000000000000000E+20
 20
1.0000000000000000E+20
 30
1.0000000000000000E+20
  9
$PEXTMAX
 10
-1.0000000000000000E+20
 20
-1.0000000000000000E+20
 30
-1.0000000000000000E+20
  9
$PLIMMIN
 10
0.0
 20
0.0
  9
$PLIMMAX
 10
12.0
 20
9.0
  9
$UNITMODE
 70
               0
  9
$VISRETAIN
 70
               0
  9
$PLINEGEN
 70
               1
  9
$PSLTSCALE
 70
               0
  9
$TREEDEPTH
 70
            3020
  9
$CMLSTYLE
  2
Standard
  9
$CMLJUST
 70
               0
  9
$CMLSCALE
 40
1.0
  9
$PROXYGRAPHICS
 70
               0
  9
$MEASUREMENT
 70
               1
  9
$CELWEIGHT
370
               0
  9
$ENDCAPS
280
               0
  9
$JOINSTYLE
280
               0
  9
$LWDISPLAY
290
               1
  9
$INSUNITS
 70
               4
  9
$HYPERLINKBASE
  1

  9
$STYLESHEET
  1

  9
$XEDIT
290
               1
  9
$CEPSNTYPE
380
               0
  9
$PSTYLEMODE
290
               1
  9
$FINGERPRINTGUID
  2

  9
$VERSIONGUID
  2

  9
$EXTNAMES
290
               1
  9
$PSVPSCALE
 40
0.0
  0
ENDSEC
  0
SECTION
  2
CLASSES
  0
CLASS
  1
LWPOLYLINE
  2
AcDbPolyline
  3
AutoCAD 2000
 90
        0
280
               0
281
               1
  0
CLASS
  1
IMAGE
  2
AcDbRasterImage
  3
ISM
 90
      127
280
               0
281
               1
  0
CLASS
  1
OLE2FRAME
  2
AcDbOle2Frame
  3
AutoCAD 2000
 90
        0
280
               0
281
               1
  0
CLASS
  1
HATCH
  2
AcDbHatch
  3
AutoCAD 2000
 90
        0
280
               0
281
               1
  0
CLASS
  1
DICTIONARYVAR
  2
AcDbDictionaryVar
  3
AutoCAD 2000
 90
        0
280
               0
281
               0
  0
CLASS
  1
RASTERVARIABLES
  2
AcDbRasterVariables
  3
ISM
 90
        0
280
               0
281
               0
  0
CLASS
  1
IMAGEDEF
  2
AcDbRasterImageDef
  3
ISM
 90
        0
280
               0
281
               0
  0
CLASS
  1
IMAGEDEF_REACTOR
  2
AcDbRasterImageDefReactor
  3
ISM
 90
        1
280
               0
281
               0
  0
CLASS
  1
IDBUFFER
  2
AcDbIdBuffer
  3
AutoCAD 2000
 90
        0
280
               0
281
               0
  0
CLASS
  1
SPATIAL_FILTER
  2
AcDbSpatialFilter
  3
AutoCAD 2000
 90
        0
280
               0
281
               0
  0
CLASS
  1
XRECORD
  2
AcDbXrecord
  3
AutoCAD 2000
 90
        0
280
               0
281
               0
  0
CLASS
  1
SORTENTSTABLE
  2
AcDbSortentsTable
  3
AutoCAD 2000
 90
        0
280
               0
281
               0
  0
CLASS
  1
LAYER_INDEX
  2
AcDbLayerIndex
  3
AutoCAD 2000
 90
        0
280
               0
281
               0
  0
CLASS
  1
SPATIAL_INDEX
  2
AcDbSpatialIndex
  3
AutoCAD 2000
 90
        0
280
               0
281
               0
  0
CLASS
  1
OBJECT_PTR
  2
CAseDLPNTableRecord
  3
"ASE-LPNTableRecord"
 90
        1
280
               0
281
               0
  0
CLASS
  1
LAYOUT
  2
AcDbLayout
  3
AutoCAD 2000
 90
        0
280
               0
281
               0
  0
CLASS
  1
PLOTSETTINGS
  2
AcDbPlotSettings
  3
AutoCAD 2000
 90
        0
280
               0
281
               0
  0
CLASS
  1
ACDBDICTIONARYWDFLT
  2
AcDbDictionaryWithDefault
  3
AutoCAD 2000
 90
        0
280
               0
281
               0
  0
CLASS
  1
ACDBPLACEHOLDER
  2
AcDbPlaceHolder
  3
AutoCAD 2000
 90
        0
280
               0
281
               0
  0
ENDSEC
  0
SECTION
  2
TABLES
  0
TABLE
  2
VPORT
  5
7
100
AcDbSymbolTable
 70
               1
  0
VPORT
  5
15
100
AcDbSymbolTableRecord
100
AcDbViewportTableRecord
  2
*ACTIVE
 70
               0
 10
0.0
 20
0.0
 11
1.0
 21
1.0
 12
2100.0
 22
1485.0
 13
0.0
 23
0.0
 14
1.0
 24
1.0
 15
0.0
 25
0.0
 16
0.0
 26
0.0
 36
1.0
 17
0.0
 27
0.0
 37
0.0
 40
2970.0
 41
0.688564
 42
50.0
 43
0.0
 44
0.0
 50
0.0
 51
0.0
 71
               0
 72
            2000
 73
               1
 74
               1
 75
               0
 76
               0
 77
               0
 78
               0
281
               0
 65
               0
110
0.0
120
0.0
130
0.0
111
1.0
121
0.0
131
0.0
112
0.0
122
1.0
132
0.0
345
0
346
0
 79
               0
146
0.0
  0
ENDTAB
  0
TABLE
  2
LTYPE
  5
4
100
AcDbSymbolTable
 70
              15
  0
LTYPE
  5
11
100
AcDbSymbolTableRecord
100
AcDbLinetypeTableRecord
  2
ByBlock
 70
              64
  3

 72
              65
 73
               0
 40
0.0
  0
LTYPE
  5
12
100
AcDbSymbolTableRecord
100
AcDbLinetypeTableRecord
  2
ByLayer
 70
              64
  3

 72
              65
 73
               0
 40
0.0
  0
LTYPE
  5
13
100
AcDbSymbolTableRecord
100
AcDbLinetypeTableRecord
  2
Continuous
 70
              64
  3
Solid line
 72
              65
 73
               0
 40
0.0
  0
LTYPE
  5
3F
100
AcDbSymbolTableRecord
100
AcDbLinetypeTableRecord
  2
STYLE_01
 70
               0
  3

 72
              65
 73
               2
 40
0.0375
 49
0.025
 74
               0
 49
-0.0125
 74
               0
  0
LTYPE
  5
40
100
AcDbSymbolTableRecord
100
AcDbLinetypeTableRecord
  2
STYLE_02
 70
               0
  3

 72
              65
 73
               2
 40
0.6944250000000001
 49
0.48607
 74
               0
 49
-0.2083550000000001
 74
               0
  0
LTYPE
  5
41
100
AcDbSymbolTableRecord
100
AcDbLinetypeTableRecord
  2
STYLE_03
 70
               0
  3

 72
              65
 73
               2
 40
1.25
 49
1.0416400000000001
 74
               0
 49
-0.2083599999999999
 74
               0
  0
LTYPE
  5
42
100
AcDbSymbolTableRecord
100
AcDbLinetypeTableRecord
  2
STYLE_04
 70
               0
  3

 72
              65
 73
               2
 40
1.5277099999999999
 49
1.3194249999999998
 74
               0
 49
-0.208285
 74
               0
  0
LTYPE
  5
43
100
AcDbSymbolTableRecord
100
AcDbLinetypeTableRecord
  2
STYLE_05
 70
               0
  3

 72
              65
 73
               2
 40
0.20828
 49
0.069425
 74
               0
 49
-0.138855
 74
               0
  0
LTYPE
  5
44
100
AcDbSymbolTableRecord
100
AcDbLinetypeTableRecord
  2
STYLE_06
 70
               0
  3

 72
              65
 73
               4
 40
1.0416400000000001
 49
0.625
 74
               0
 49
-0.20828
 74
               0
 49
0.06943
 74
               0
 49
-0.13893
 74
               0
  0
LTYPE
  5
45
100
AcDbSymbolTableRecord
100
AcDbLinetypeTableRecord
  2
STYLE_07
 70
               0
  3

 72
              65
 73
               6
 40
1.875
 49
0.625
 74
               0
 49
-0.20828
 74
               0
 49
0.6250000000000001
 74
               0
 49
-0.2083599999999999
 74
               0
 49
0.06943
 74
               0
 49
-0.1389299999999999
 74
               0
  0
LTYPE
  5
46
100
AcDbSymbolTableRecord
100
AcDbLinetypeTableRecord
  2
STYLE_08
 70
               0
  3

 72
              65
 73
               6
 40
1.25
 49
0.625
 74
               0
 49
-0.20828
 74
               0
 49
0.06943
 74
               0
 49
-0.13893
 74
               0
 49
0.0694299999999999
 74
               0
 49
-0.13893
 74
               0
  0
LTYPE
  5
47
100
AcDbSymbolTableRecord
100
AcDbLinetypeTableRecord
  2
STYLE_09
 70
               0
  3

 72
              65
 73
               4
 40
5.0
 49
3.75
 74
               0
 49
-0.2777849999999998
 74
               0
 49
0.6944300000000003
 74
               0
 49
-0.2777849999999998
 74
               0
  0
LTYPE
  5
48
100
AcDbSymbolTableRecord
100
AcDbLinetypeTableRecord
  2
STYLE_10
 70
               0
  3

 72
              65
 73
               6
 40
5.9375
 49
3.75
 74
               0
 49
-0.2777849999999998
 74
               0
 49
0.6944300000000003
 74
               0
 49
-0.2777849999999998
 74
               0
 49
0.625
 74
               0
 49
-0.3125
 74
               0
  0
LTYPE
  5
49
100
AcDbSymbolTableRecord
100
AcDbLinetypeTableRecord
  2
STYLE_11
 70
               0
  3

 72
              65
 73
               2
 40
0.516732283464567
 49
0.344488188976378
 74
               0
 49
-0.172244094488189
 74
               0
  0
LTYPE
  5
4A
100
AcDbSymbolTableRecord
100
AcDbLinetypeTableRecord
  2
STYLE_12
 70
               0
  3

 72
              65
 73
               2
 40
0.3937007874015748
 49
0.1968503937007874
 74
               0
 49
-0.1968503937007874
 74
               0
  0
ENDTAB
  0
TABLE
  2
LAYER
  5
2
100
AcDbSymbolTable
 70
               5
  0
LAYER
  5
14
100
AcDbSymbolTableRecord
100
AcDbLayerTableRecord
  2
0
 70
               0
 62
               7
  6
Continuous
290
               1
370
              -3
390
1D
  0
LAYER
  5
4B
100
AcDbSymbolTableRecord
100
AcDbLayerTableRecord
  2
Defpoints
 70
               0
 62
               7
  6
Continuous
290
               0
370
              -3
390
1D
  0
LAYER
  5
4C
100
AcDbSymbolTableRecord
100
AcDbLayerTableRecord
  2
template
 70
               0
 62
               7
  6
Continuous
290
               1
370
              -3
390
1D
  0
LAYER
  5
4D
100
AcDbSymbolTableRecord
100
AcDbLayerTableRecord
  2
notes
 70
               0
 62
               7
  6
Continuous
290
               1
370
              -3
390
1D
  0
LAYER
  5
4E
100
AcDbSymbolTableRecord
100
AcDbLayerTableRecord
  2
AAA70-1104
 70
               0
 62
               7
  6
Continuous
290
               1
370
              -3
390
1D
  0
ENDTAB
  0
TABLE
  2
STYLE
  5
3
100
AcDbSymbolTable
 70
               2
  0
STYLE
  5
17
100
AcDbSymbolTableRecord
100
AcDbTextStyleTableRecord
  2
Standard
 70
               0
 40
0.0
 41
1.0
 50
0.0
 71
               0
 42
0.0
  3
txt
  4
BIGFONT.SHX
  0
STYLE
  5
3E
100
AcDbSymbolTableRecord
100
AcDbTextStyleTableRecord
  2
ＭＳ ゴシック
 70
               0
 40
0.0
 41
1.0
 50
0.0
 71
               0
 42
0.0
  3

  4
ＭＳ ゴシック
1001
ACAD
1000
ＭＳ ゴシック
1071
        0
  0
ENDTAB
  0
TABLE
  2
VIEW
  5
5
100
AcDbSymbolTable
 70
               0
  0
ENDTAB
  0
TABLE
  2
UCS
  5
6
100
AcDbSymbolTable
 70
               0
  0
ENDTAB
  0
TABLE
  2
APPID
  5
8
100
AcDbSymbolTable
 70
               1
  0
APPID
  5
16
100
AcDbSymbolTableRecord
100
AcDbRegAppTableRecord
  2
ACAD
 70
               0
  0
ENDTAB
  0
TABLE
  2
DIMSTYLE
  5
9
100
AcDbSymbolTable
 70
               3
100
AcDbDimStyleTable
 71
               0
  0
DIMSTYLE
105
18
100
AcDbSymbolTableRecord
100
AcDbDimStyleTableRecord
  2
Standard
 70
               0
  3

  4

 40
1.0
 41
0.18
 42
0.0625
 43
0.38
 44
0.18
 45
0.0
 46
0.0
 47
0.0
 48
0.0
 71
               0
 72
               0
 73
               1
 74
               1
 75
               0
 76
               0
 77
               0
 78
               0
 79
               0
140
0.18
141
0.09
142
0.0
143
25.399999999999999
144
1.0
145
0.0
146
1.0
147
0.09
148
0.0
170
               0
171
               2
172
               0
173
               0
174
               0
175
               0
176
               0
177
               0
178
               0
179
               0
271
               4
272
               4
273
               2
274
               2
275
               0
276
               0
277
               2
278
              46
279
               0
280
               0
281
               0
282
               0
283
               1
284
               0
285
               0
286
               0
288
               0
289
               3
340
17
341
0
342
0
343
0
344
0
371
              -2
372
              -2
  0
DIMSTYLE
105
57
100
AcDbSymbolTableRecord
100
AcDbDimStyleTableRecord
  2
tfrom線あり
 70
               0
  3
<>
  4
[]
 40
1.0
 41
3.999755859375
 42
24.999999999999996
 43
0.9999999999999999
 44
0.0
 45
0.0
 46
0.0
 47
0.0
 48
0.0
 71
               0
 72
               0
 73
               0
 74
               0
 75
               0
 76
               0
 77
               1
 78
              11
 79
               0
140
24.432617187500004
141
0.0
142
0.0
143
0.0393700787401575
144
1.0
145
0.0
146
1.0
147
0.4999999999999999
148
0.0
170
               0
171
               3
172
               0
173
               0
174
               1
175
               0
176
               0
177
               0
178
               0
179
               2
271
               1
272
               1
273
               4
274
               2
275
               0
276
               2
277
               2
278
              46
279
               0
280
               0
281
               0
282
               0
283
               1
284
              11
285
              15
286
              15
288
               0
289
               0
340
3E
341
4F
342
4F
343
0
344
0
371
              -2
372
              -2
  0
DIMSTYLE
105
5C
100
AcDbSymbolTableRecord
100
AcDbDimStyleTableRecord
  2
JIS
 70
               0
  3
<>
  4
[]
 40
1.0
 41
31.75
 42
0.0
 43
6.9999999999999396
 44
19.999999999996199
 45
0.0
 46
0.0
 47
0.0
 48
0.0
 71
               0
 72
               0
 73
               0
 74
               0
 75
               0
 76
               0
 77
               1
 78
              11
 79
               0
140
24.432617187500004
141
0.0
142
0.0
143
0.0393700787401575
144
1.0
145
0.0
146
1.0
147
1.00000000000108
148
0.0
170
               0
171
               3
172
               0
173
               0
174
               1
175
               0
176
               0
177
               0
178
               0
179
               2
271
               1
272
               1
273
               4
274
               2
275
               0
276
               2
277
               2
278
              46
279
               0
280
               0
281
               0
282
               0
283
               1
284
              11
285
              15
286
              15
288
               0
289
               0
340
3E
341
58
342
58
343
0
344
0
371
              -2
372
              -2
  0
ENDTAB
  0
TABLE
  2
BLOCK_RECORD
  5
1
100
AcDbSymbolTable
 70
              29
  0
BLOCK_RECORD
  5
A
100
AcDbSymbolTableRecord
100
AcDbBlockTableRecord
  2
*MODEL_SPACE
340
20
  0
BLOCK_RECORD
  5
B
100
AcDbSymbolTableRecord
100
AcDbBlockTableRecord
  2
*PAPER_SPACE
340
21
  0
BLOCK_RECORD
  5
4F
100
AcDbSymbolTableRecord
100
AcDbBlockTableRecord
  2
_DOT
340
0
  0
BLOCK_RECORD
  5
58
100
AcDbSymbolTableRecord
100
AcDbBlockTableRecord
  2
VW_FILLEDARROW
340
0
  0
BLOCK_RECORD
  5
23
100
AcDbSymbolTableRecord
100
AcDbBlockTableRecord
  2
グループ
340
0
102
{BLKREFS
331
1B6
102
}
  0
BLOCK_RECORD
  5
24
100
AcDbSymbolTableRecord
100
AcDbBlockTableRecord
  2
*D3
340
0
  0
BLOCK_RECORD
  5
25
100
AcDbSymbolTableRecord
100
AcDbBlockTableRecord
  2
*D4
340
0
  0
BLOCK_RECORD
  5
26
100
AcDbSymbolTableRecord
100
AcDbBlockTableRecord
  2
*D5
340
0
  0
BLOCK_RECORD
  5
27
100
AcDbSymbolTableRecord
100
AcDbBlockTableRecord
  2
*D6
340
0
  0
BLOCK_RECORD
  5
28
100
AcDbSymbolTableRecord
100
AcDbBlockTableRecord
  2
*D7
340
0
  0
BLOCK_RECORD
  5
29
100
AcDbSymbolTableRecord
100
AcDbBlockTableRecord
  2
*D8
340
0
  0
BLOCK_RECORD
  5
2A
100
AcDbSymbolTableRecord
100
AcDbBlockTableRecord
  2
*D9
340
0
  0
BLOCK_RECORD
  5
2B
100
AcDbSymbolTableRecord
100
AcDbBlockTableRecord
  2
*D10
340
0
  0
BLOCK_RECORD
  5
2C
100
AcDbSymbolTableRecord
100
AcDbBlockTableRecord
  2
*D11
340
0
  0
BLOCK_RECORD
  5
2D
100
AcDbSymbolTableRecord
100
AcDbBlockTableRecord
  2
*D12
340
0
  0
BLOCK_RECORD
  5
2E
100
AcDbSymbolTableRecord
100
AcDbBlockTableRecord
  2
*D13
340
0
  0
BLOCK_RECORD
  5
2F
100
AcDbSymbolTableRecord
100
AcDbBlockTableRecord
  2
*D14
340
0
  0
BLOCK_RECORD
  5
30
100
AcDbSymbolTableRecord
100
AcDbBlockTableRecord
  2
*D15
340
0
  0
BLOCK_RECORD
  5
31
100
AcDbSymbolTableRecord
100
AcDbBlockTableRecord
  2
*D16
340
0
  0
BLOCK_RECORD
  5
32
100
AcDbSymbolTableRecord
100
AcDbBlockTableRecord
  2
*D17
340
0
  0
BLOCK_RECORD
  5
33
100
AcDbSymbolTableRecord
100
AcDbBlockTableRecord
  2
*D18
340
0
  0
BLOCK_RECORD
  5
34
100
AcDbSymbolTableRecord
100
AcDbBlockTableRecord
  2
*D19
340
0
  0
BLOCK_RECORD
  5
35
100
AcDbSymbolTableRecord
100
AcDbBlockTableRecord
  2
*D20
340
0
  0
BLOCK_RECORD
  5
36
100
AcDbSymbolTableRecord
100
AcDbBlockTableRecord
  2
*D21
340
0
  0
BLOCK_RECORD
  5
37
100
AcDbSymbolTableRecord
100
AcDbBlockTableRecord
  2
*D22
340
0
  0
BLOCK_RECORD
  5
38
100
AcDbSymbolTableRecord
100
AcDbBlockTableRecord
  2
*D23
340
0
  0
BLOCK_RECORD
  5
39
100
AcDbSymbolTableRecord
100
AcDbBlockTableRecord
  2
*D24
340
0
  0
BLOCK_RECORD
  5
3A
100
AcDbSymbolTableRecord
100
AcDbBlockTableRecord
  2
*D25
340
0
  0
BLOCK_RECORD
  5
3B
100
AcDbSymbolTableRecord
100
AcDbBlockTableRecord
  2
グループ-1
340
0
102
{BLKREFS
331
220
102
}
  0
BLOCK_RECORD
  5
3C
100
AcDbSymbolTableRecord
100
AcDbBlockTableRecord
  2
グループ-2
340
0
102
{BLKREFS
331
1AA
102
}
  0
BLOCK_RECORD
  5
3D
100
AcDbSymbolTableRecord
100
AcDbBlockTableRecord
  2
グループ-3
340
0
102
{BLKREFS
331
221
102
}
  0
ENDTAB
  0
ENDSEC
  0
SECTION
  2
BLOCKS
  0
BLOCK
  5
D
100
AcDbEntity
  8
0
390
0
100
AcDbBlockBegin
  2
*MODEL_SPACE
 70
               0
 10
0.0
 20
0.0
 30
0.0
  3
*MODEL_SPACE
  1

  0
ENDBLK
  5
E
100
AcDbEntity
  8
0
390
0
100
AcDbBlockEnd
  0
BLOCK
  5
F
100
AcDbEntity
 67
               1
  8
0
390
0
100
AcDbBlockBegin
  2
*PAPER_SPACE
 70
               0
 10
0.0
 20
0.0
 30
0.0
  3
*PAPER_SPACE
  1

  0
ENDBLK
  5
10
100
AcDbEntity
 67
               1
  8
0
390
0
100
AcDbBlockEnd
  0
BLOCK
  5
50
100
AcDbEntity
  8
0
390
0
100
AcDbBlockBegin
  2
_DOT
 70
               0
 10
0.0
 20
0.0
 30
0.0
  3
_DOT
  1

  0
POLYLINE
  5
51
100
AcDbEntity
  8
0
370
              -2
390
0
  6
ByBlock
 62
               0
100
AcDb2dPolyline
 66
               1
 10
0.0
 20
0.0
 30
0.0
 70
               1
 40
0.5
 41
0.5
  0
VERTEX
  5
52
100
AcDbEntity
  8
0
370
              -2
390
0
  6
ByBlock
 62
               0
100
AcDbVertex
100
AcDb2dVertex
 10
-0.25
 20
0.0
 30
0.0
 42
1.0
  0
VERTEX
  5
53
100
AcDbEntity
  8
0
370
              -2
390
0
  6
ByBlock
 62
               0
100
AcDbVertex
100
AcDb2dVertex
 10
0.25
 20
0.0
 30
0.0
 42
1.0
  0
SEQEND
  5
54
100
AcDbEntity
  8
0
390
0
  0
LINE
  5
55
100
AcDbEntity
  8
0
370
              -2
390
0
  6
ByBlock
 62
               0
100
AcDbLine
 10
-0.5
 20
0.0
 30
0.0
 11
-1.0
 21
0.0
 31
0.0
  0
ENDBLK
  5
56
100
AcDbEntity
  8
0
390
0
100
AcDbBlockEnd
  0
BLOCK
  5
59
100
AcDbEntity
  8
0
370
              -2
390
0
  6
ByBlock
 62
               0
100
AcDbBlockBegin
  2
VW_FILLEDARROW
 70
               0
 10
0.0
 20
0.0
 30
0.0
  3
VW_FILLEDARROW
  1

  0
SOLID
  5
5A
100
AcDbEntity
  8
0
370
              -2
390
0
 62
               0
100
AcDbTrace
 10
0.0
 20
0.0
 30
0.0
 11
-0.9921874999999999
 21
-0.2658558393652545
 31
0.0
 12
-0.9921874999999999
 22
0.2658558393652548
 32
0.0
 13
-0.9921874999999999
 23
0.2658558393652548
 33
0.0
  0
ENDBLK
  5
5B
100
AcDbEntity
  8
0
390
0
100
AcDbBlockEnd
  0
BLOCK
  5
5D
100
AcDbEntity
  8
template
390
0
100
AcDbBlockBegin
  2
グループ
 70
               0
 10
0.0
 20
0.0
 30
0.0
  3
グループ
  1

  0
LWPOLYLINE
  5
5E
100
AcDbEntity
  8
0
370
              15
390
0
  6
Continuous
 62
               7
100
AcDbPolyline
 90
        8
 70
             129
 10
887.42850780307481
 20
-1321.7256061087792
 10
887.42850780307481
 20
-1327.7229948023551
 10
877.92731088507151
 20
-1327.7229948023551
 10
877.92731088507151
 20
-1352.1739580658641
 10
869.57193362328871
 20
-1352.1739580658641
 10
869.57193362328871
 20
-1327.7229948023551
 10
860.23897667697929
 20
-1327.7229948023551
 10
860.23897667697929
 20
-1321.7256061087792
  0
LWPOLYLINE
  5
5F
100
AcDbEntity
  8
0
370
              15
390
0
  6
Continuous
 62
               7
100
AcDbPolyline
 90
      101
 70
             128
 10
900.15679963363175
 20
-1322.4538546017156
 10
900.17214966241681
 20
-1322.4494938450305
 42
-0.0222221607812452
 10
900.46215423908779
 20
-1322.380869379786
 10
900.47794800307383
 20
-1322.3778659566904
 42
-0.0146883565588934
 10
900.74065070830557
 20
-1322.3358627697396
 42
-0.0127458844187232
 10
901.00528967545358
 20
-1322.3083258016675
 10
901.06774475377142
 20
-1322.3034323790789
 42
-0.0198099018564203
 10
901.45859386324787
 20
-1322.2883472216822
 10
901.51040533269202
 20
-1322.2884009973473
 42
-0.0147617382767081
 10
902.00502879366388
 20
-1322.3035210225921
 10
902.07772024854728
 20
-1322.3078936294803
 42
-0.0162624548994798
 10
902.46787387800578
 20
-1322.3441265047522
 10
902.58940626926324
 20
-1322.3594130637484
 42
-0.0080020874677846
 10
902.73498530035658
 20
-1322.3800959110172
 10
902.7733047709329
 20
-1322.3861671888253
 42
-0.0053821929673327
 10
902.84178887626638
 20
-1322.3977747126501
 10
902.11538317706777
 20
-1324.578703168364
 42
0.010866775739458
 10
902.04806610693299
 20
-1324.5655160531433
 10
902.01059808374748
 20
-1324.5590183105496
 42
0.017066320330555
 10
901.86738129683056
 20
-1324.5391887132575
 10
901.79950596414892
 20
-1324.5321415426702
 42
0.0220162375278403
 10
901.5191265562944
 20
-1324.5154591818998
 10
901.44127098924127
 20
-1324.5142598146333
 42
0.0282606915787519
 10
901.10563466566362
 20
-1324.5280630916025
 10
901.06172139189118
 20
-1324.5323630816063
 42
0.0169677213689199
 10
900.8157968969324
 20
-1324.5649001311583
 42
0.0190576269859945
 10
900.57288893435577
 20
-1324.615047003264
 10
900.56662974624146
 20
-1324.6165899773741
 42
0.0213685642844021
 10
900.3162452617612
 20
-1324.6897902624796
 10
900.3107553668475
 20
-1324.6916532585378
 42
0.0237595297595475
 10
900.05726048195015
 20
-1324.7913377804327
 10
900.05215840791914
 20
-1324.7936295559116
 42
0.0261857468810989
 10
899.79998763168908
 20
-1324.9231658932861
 10
899.78956144260201
 20
-1324.9292313677547
 42
0.0272553062022719
 10
899.55313166736369
 20
-1325.0846035736986
 10
899.51836865385417
 20
-1325.1102647217908
 42
0.0325996893183754
 10
899.36821331020269
 20
-1325.2370125947623
 10
899.34450388108132
 20
-1325.2598306232735
 42
0.0138050960622077
 10
899.25262072486953
 20
-1325.353280284827
 42
0.0125280103811061
 10
899.16577819203553
 20
-1325.4514436114275
 10
899.14209774712765
 20
-1325.4796021096142
 42
0.0205218024740018
 10
899.01699767161551
 20
-1325.6413954238412
 10
898.99453133112684
 20
-1325.6730551536702
 42
0.0163110129586428
 10
898.83882095187516
 20
-1325.9083855887409
 10
898.83609705582455
 20
-1325.9128093507256
 42
0.0131897341900631
 10
898.68929653491591
 20
-1326.1659414430953
 10
898.68759643955218
 20
-1326.1690596822259
 42
0.0107895576062599
 10
898.54981973733982
 20
-1326.4352748918641
 10
898.5490868478164
 20
-1326.4367691245075
 42
0.0091371507225028
 10
898.42060689916593
 20
-1326.7112943222689
 10
898.3908612677576
 20
-1326.7780008294258
 42
0.0135418326351088
 10
898.21914732868436
 20
-1327.1929386146987
 10
898.1855425202524
 20
-1327.280804756974
 42
0.0092834542409608
 10
898.01431346033087
 20
-1327.7547032552811
 10
897.98869633261347
 20
-1327.8299443250737
 42
0.0054261043585329
 10
897.88105818432018
 20
-1328.1577082981398
 10
897.86353219816351
 20
-1328.2130964603045
 42
0.0008225090811953
 10
897.79486214631277
 20
-1328.4313652185192
 10
896.8101730143793
 20
-1331.4562565117758
 10
900.04279685445317
 20
-1331.4562565117758
 10
899.53860442459973
 20
-1333.3607348101277
 10
896.28254814261641
 20
-1333.3607348101277
 10
890.45339911026258
 20
-1352.1739578761326
 10
888.62830149995227
 20
-1352.1739578761326
 10
894.4629795354532
 20
-1333.3607348101277
 10
892.05786316641286
 20
-1333.3607348101277
 10
892.5620555962663
 20
-1331.4562565117758
 10
894.99060440721632
 20
-1331.4562565117758
 10
895.85075932540497
 20
-1328.8198435110767
 42
-0.00058635606447
 10
895.88749400353106
 20
-1328.7030170910302
 10
895.96358183726886
 20
-1328.4620247913995
 42
-0.0087522378926788
 10
896.16304998072587
 20
-1327.8667487042526
 10
896.25531425614099
 20
-1327.6066085357349
 42
-0.0077400953830428
 10
896.51324791527031
 20
-1326.9136038581919
 10
896.52901288684689
 20
-1326.8731729748117
 42
-0.0082369946330518
 10
896.77609735746114
 20
-1326.2690939086101
 42
-0.0085725238362489
 10
897.04334345346786
 20
-1325.6736678693146
 10
897.14497305447071
 20
-1325.4572467673395
 42
-0.0168109410597172
 10
897.43191748320146
 20
-1324.8960392412334
 10
897.55776087369225
 20
-1324.6690752081788
 42
-0.0007817726868056
 10
897.61204522371713
 20
-1324.5715309632051
 10
897.6121735297196
 20
-1324.5713012544952
 42
-0.0036626142161405
 10
897.6670613937556
 20
-1324.4747033745002
 42
-0.0080221150696845
 10
897.72418564915722
 20
-1324.3794241397557
 10
897.75488560052349
 20
-1324.330033190625
 42
-0.0202139325569975
 10
897.88254134033389
 20
-1324.1420515899385
 10
897.93660880551784
 20
-1324.0689727257027
 42
-0.0249323791802378
 10
898.19577159923324
 20
-1323.7529274835524
 10
898.219911413364
 20
-1323.7263132106357
 42
-0.0242132121537746
 10
898.5595921549118
 20
-1323.3864297244265
 10
898.60750372765222
 20
-1323.3429205882496
 42
-0.0251017527863961
 10
898.8914854282973
 20
-1323.1099278424811
 10
898.89293090510876
 20
-1323.1088585849038
 42
-0.0130868069033684
 10
899.19119155506837
 20
-1322.9000781163595
 10
899.19275337420959
 20
-1322.8990446760854
 42
-0.029032952639383
 10
899.50386451560439
 20
-1322.718219174455
 10
899.53371007759426
 20
-1322.7031167916136
 42
-0.0160250190047949
 10
899.79961449135521
 20
-1322.5791006814025
 42
-0.0267600374781006
 10
900.07489056882639
 20
-1322.4783523608533
 10
900.10162648834478
 20
-1322.4701598020283
 42
-0.0049981587650879
 10
900.15679963363175
 20
-1322.4538546017156
 42
-0.0049981587650879
  0
LWPOLYLINE
  5
60
100
AcDbEntity
  8
0
370
              15
390
0
  6
Continuous
 62
               7
100
AcDbPolyline
 90
      118
 70
             128
 10
919.97116719807866
 20
-1331.5302398396029
 10
921.84628912257813
 20
-1331.5302398396029
 10
921.00825021697824
 20
-1334.2118063660027
 42
-0.0010587229241178
 10
921.039706032548
 20
-1334.1749018326502
 10
921.09790012318217
 20
-1334.1069195764719
 42
-0.0071874740413046
 10
921.24827534127098
 20
-1333.936278884453
 10
921.38999811454244
 20
-1333.7800427431296
 42
-0.0148118053513141
 10
921.84012740725871
 20
-1333.312428897113
 10
921.92734974215819
 20
-1333.2270315762619
 42
-0.0086273358692324
 10
922.26289854316542
 20
-1332.9096559422467
 10
922.30673225939165
 20
-1332.8696062979134
 42
-0.0103138323115429
 10
922.56475596162477
 20
-1332.6434431605753
 10
922.61053036796045
 20
-1332.6049611133078
 42
-0.0060206748564274
 10
922.78337843206407
 20
-1332.4631664625608
 10
922.78540956294921
 20
-1332.4615407569302
 42
-0.0067069027288388
 10
922.95770237761258
 20
-1332.3273901231346
 10
922.96025114354586
 20
-1332.3254599532538
 42
-0.0076184352049488
 10
923.13115640940987
 20
-1332.2000850780155
 42
-0.0089652861668954
 10
923.30611737213997
 20
-1332.0804518176858
 10
923.34246909228648
 20
-1332.0565406042017
 42
-0.0156916245939346
 10
923.5384285894495
 20
-1331.9362781177254
 42
-0.002329901107008
 10
923.73869063339816
 20
-1331.8231001782019
 10
923.75407476580915
 20
-1331.8145001831199
 42
-0.010766934147845
 10
923.9883115909139
 20
-1331.6901000497687
 10
924.0105763919853
 20
-1331.6788832998204
 42
-0.0078058045899749
 10
924.29416650994472
 20
-1331.5415218441788
 10
924.30407359764718
 20
-1331.5369127163135
 42
-0.0181829330469362
 10
924.6143830022595
 20
-1331.4060489752194
 10
924.66843844483174
 20
-1331.3855338552737
 42
-0.0208411536025736
 10
925.01752341227984
 20
-1331.2694433927813
 10
925.03187951240784
 20
-1331.2653249478276
 42
-0.022279981713889
 10
925.3605993063245
 20
-1331.1866833816875
 10
925.36948826956541
 20
-1331.1849713711017
 42
-0.0215509523877046
 10
925.68595923784142
 20
-1331.1380556825682
 10
925.72844119889146
 20
-1331.1336181557772
 42
-0.0182545924873453
 10
925.96254997819551
 20
-1331.1177743303863
 10
926.00195099454572
 20
-1331.1165497853069
 42
-0.0072962856529092
 10
926.15787387423256
 20
-1331.1139804567849
 10
926.18697354479764
 20
-1331.1139256213812
 42
-0.0059227516312301
 10
926.2847230439495
 20
-1331.1148993331715
 10
926.31396526148501
 20
-1331.115537099776
 42
-0.0011833111943547
 10
926.35321654515383
 20
-1331.1164861040852
 10
925.55782994954666
 20
-1333.6552200491842
 42
0.0143932051622683
 10
925.53142856719535
 20
-1333.6450210791386
 10
925.52415659477879
 20
-1333.6424498602814
 42
0.0234388603487501
 10
925.48232572884456
 20
-1333.6298306245656
 10
925.47364406593397
 20
-1333.627649662561
 42
0.0199162742993094
 10
925.41335523185478
 20
-1333.6150329272257
 10
925.39254129404776
 20
-1333.6115357277972
 42
0.0293643550681769
 10
925.2894664352873
 20
-1333.6003856821442
 10
925.26478125456833
 20
-1333.5991740651257
 42
0.0214606686855263
 10
925.11164033861553
 20
-1333.5982355047083
 10
925.10226842779787
 20
-1333.5985804162526
 42
0.0167564054188611
 10
924.93074823669042
 20
-1333.6106574586206
 10
924.92228844393048
 20
-1333.6115387990478
 42
0.0137677553235924
 10
924.73493513066603
 20
-1333.6362881075911
 10
924.72758339115785
 20
-1333.6374660275592
 42
0.0118497261494734
 10
924.52708562705209
 20
-1333.6744833777491
 10
924.52093561980928
 20
-1333.6757702404684
 42
0.010642114387476
 10
924.31005473252446
 20
-1333.7246026160431
 10
924.30514592413522
 20
-1333.7258499587283
 42
0.0099746379708861
 10
924.08668745497539
 20
-1333.7860244870421
 10
924.02513941480242
 20
-1333.8043063656737
 42
0.0191613675857488
 10
923.68915495228566
 20
-1333.9182837459614
 10
923.60109517953936
 20
-1333.9519706562858
 42
0.0205274080147246
 10
923.21578840764073
 20
-1334.1177990641113
 10
923.15813912566023
 20
-1334.145467028683
 42
0.0181256912192269
 10
922.89986218499178
 20
-1334.2811508476614
 10
922.8469068016725
 20
-1334.3114684608793
 42
0.0140709242421627
 10
922.7019518670495
 20
-1334.3999631343104
 10
922.67570299843123
 20
-1334.4170199530256
 42
0.0086667884412557
 10
922.58677683688848
 20
-1334.4770226209089
 42
0.003640819201061
 10
922.49934359886356
 20
-1334.5392034786953
 10
922.46411672438649
 20
-1334.564644424614
 42
0.0052260781284684
 10
922.30788802698169
 20
-1334.6799768112585
 10
922.29168117073573
 20
-1334.6922049218663
 42
0.0050024435887732
 10
922.10567782768851
 20
-1334.8354874901195
 10
922.09035967116176
 20
-1334.8475335125743
 42
0.0136138710288885
 10
921.87991840283269
 20
-1335.022500017491
 10
921.84625052704291
 20
-1335.0520789902018
 42
0.0172815186914376
 10
921.58184698538139
 20
-1335.3010756628241
 10
921.57928463953772
 20
-1335.3036614799723
 42
0.0189403857994063
 10
921.32870284095759
 20
-1335.5764667447779
 10
921.29607134742253
 20
-1335.6148106762739
 42
0.0185044199506342
 10
921.10411490844263
 20
-1335.8580592573967
 42
0.0088565243898951
 10
920.9256548018152
 20
-1336.1115756775455
 10
920.91647682216569
 20
-1336.1251170573069
 42
0.0157195347234652
 10
920.73325621582853
 20
-1336.4146392666275
 10
920.68717327389959
 20
-1336.4927914636451
 42
0.009545187978228
 10
920.52208772376309
 20
-1336.7853861059998
 10
920.51093980483915
 20
-1336.8060567781213
 42
0.0100351706251944
 10
920.3788960556742
 20
-1337.0631123386227
 42
0.0086935915418291
 10
920.25656490388019
 20
-1337.3249454840268
 10
920.25324416246565
 20
-1337.3323878069989
 42
0.0072580174866602
 10
920.13289771052291
 20
-1337.6129797985766
 10
920.1296360772144
 20
-1337.6208998245997
 42
0.006000512261394
 10
920.0104354088727
 20
-1337.9205094952024
 10
920.00722443053007
 20
-1337.9288710231097
 42
0.0049017786984264
 10
919.88832427166869
 20
-1338.2478000037249
 10
919.88515846528219
 20
-1338.2565529409446
 42
0.003941516760848
 10
919.76572218722015
 20
-1338.5950950033737
 10
919.76259108457339
 20
-1338.6041982042339
 42
0.0031035838769905
 10
919.64178629888124
 20
-1338.9626380660045
 10
919.63867625434989
 20
-1338.9720586873821
 42
0.00250707471534
 10
919.51577490304044
 20
-1339.3507059043077
 10
919.47848100660917
 20
-1339.4675975695791
 42
0.0029081910284024
 10
919.28646270879415
 20
-1340.081761227884
 10
919.24565954028128
 20
-1340.2149844701466
 42
0.0009266453730843
 10
918.97724216599499
 20
-1341.097208929976
 10
918.95635469338356
 20
-1341.1663208091154
 42
-0.0005809993667144
 10
918.67901801273479
 20
-1342.0801289159449
 10
918.61273621446253
 20
-1342.2976138481019
 42
-0.0012018708168205
 10
918.46575190503268
 20
-1342.7757765126253
 10
918.41343205347721
 20
-1342.9445356534577
 42
-0.0002691059607424
 10
918.36986257229853
 20
-1343.0848032738331
 10
915.53690667400929
 20
-1352.1739578761326
 10
913.71891778203076
 20
-1352.1739578761326
 10
919.97116719807866
 20
-1331.5302398396029
  0
SPLINE
  5
61
100
AcDbEntity
  8
0
370
              15
390
0
  6
Continuous
 62
               7
100
AcDbSpline
210
0.0
220
0.0
230
1.0
 70
              13
 71
               2
 72
             782
 73
             779
 74
               0
 42
0.000001
 43
0.000001
 40
0.0
 40
0.0
 40
0.0
 40
1.0
 40
1.0
 40
2.0
 40
2.0
 40
3.0
 40
3.0
 40
4.0
 40
4.0
 40
5.0
 40
5.0
 40
6.0
 40
6.0
 40
7.0
 40
7.0
 40
8.0
 40
8.0
 40
9.0
 40
9.0
 40
10.0
 40
10.0
 40
11.0
 40
11.0
 40
12.0
 40
12.0
 40
13.0
 40
13.0
 40
14.0
 40
14.0
 40
15.0
 40
15.0
 40
16.0
 40
16.0
 40
17.0
 40
17.0
 40
18.0
 40
18.0
 40
19.0
 40
19.0
 40
20.0
 40
20.0
 40
21.0
 40
21.0
 40
22.0
 40
22.0
 40
23.0
 40
23.0
 40
24.0
 40
24.0
 40
25.0
 40
25.0
 40
26.0
 40
26.0
 40
27.0
 40
27.0
 40
28.0
 40
28.0
 40
29.0
 40
29.0
 40
30.0
 40
30.0
 40
31.0
 40
31.0
 40
32.0
 40
32.0
 40
33.0
 40
33.0
 40
34.0
 40
34.0
 40
35.0
 40
35.0
 40
36.0
 40
36.0
 40
37.0
 40
37.0
 40
38.0
 40
38.0
 40
39.0
 40
39.0
 40
40.0
 40
40.0
 40
41.0
 40
41.0
 40
42.0
 40
42.0
 40
43.0
 40
43.0
 40
44.0
 40
44.0
 40
45.0
 40
45.0
 40
46.0
 40
46.0
 40
47.0
 40
47.0
 40
48.0
 40
48.0
 40
49.0
 40
49.0
 40
50.0
 40
50.0
 40
51.0
 40
51.0
 40
52.0
 40
52.0
 40
53.0
 40
53.0
 40
54.0
 40
54.0
 40
55.0
 40
55.0
 40
56.0
 40
56.0
 40
57.0
 40
57.0
 40
58.0
 40
58.0
 40
59.0
 40
59.0
 40
60.0
 40
60.0
 40
61.0
 40
61.0
 40
62.0
 40
62.0
 40
63.0
 40
63.0
 40
64.0
 40
64.0
 40
65.0
 40
65.0
 40
66.0
 40
66.0
 40
67.0
 40
67.0
 40
68.0
 40
68.0
 40
69.0
 40
69.0
 40
70.0
 40
70.0
 40
71.0
 40
71.0
 40
72.0
 40
72.0
 40
73.0
 40
73.0
 40
74.0
 40
74.0
 40
75.0
 40
75.0
 40
76.0
 40
76.0
 40
77.0
 40
77.0
 40
78.0
 40
78.0
 40
79.0
 40
79.0
 40
80.0
 40
80.0
 40
81.0
 40
81.0
 40
82.0
 40
82.0
 40
83.0
 40
83.0
 40
84.0
 40
84.0
 40
85.0
 40
85.0
 40
86.0
 40
86.0
 40
87.0
 40
87.0
 40
88.0
 40
88.0
 40
89.0
 40
89.0
 40
90.0
 40
90.0
 40
91.0
 40
91.0
 40
92.0
 40
92.0
 40
93.0
 40
93.0
 40
94.0
 40
94.0
 40
95.0
 40
95.0
 40
96.0
 40
96.0
 40
97.0
 40
97.0
 40
98.0
 40
98.0
 40
99.0
 40
99.0
 40
100.0
 40
100.0
 40
101.0
 40
101.0
 40
102.0
 40
102.0
 40
103.0
 40
103.0
 40
104.0
 40
104.0
 40
105.0
 40
105.0
 40
106.0
 40
106.0
 40
107.0
 40
107.0
 40
108.0
 40
108.0
 40
109.0
 40
109.0
 40
110.0
 40
110.0
 40
111.0
 40
111.0
 40
112.0
 40
112.0
 40
113.0
 40
113.0
 40
114.0
 40
114.0
 40
115.0
 40
115.0
 40
116.0
 40
116.0
 40
117.0
 40
117.0
 40
118.0
 40
118.0
 40
119.0
 40
119.0
 40
120.0
 40
120.0
 40
121.0
 40
121.0
 40
122.0
 40
122.0
 40
123.0
 40
123.0
 40
124.0
 40
124.0
 40
125.0
 40
125.0
 40
126.0
 40
126.0
 40
127.0
 40
127.0
 40
128.0
 40
128.0
 40
129.0
 40
129.0
 40
130.0
 40
130.0
 40
131.0
 40
131.0
 40
132.0
 40
132.0
 40
133.0
 40
133.0
 40
134.0
 40
134.0
 40
135.0
 40
135.0
 40
136.0
 40
136.0
 40
137.0
 40
137.0
 40
138.0
 40
138.0
 40
139.0
 40
139.0
 40
140.0
 40
140.0
 40
141.0
 40
141.0
 40
142.0
 40
142.0
 40
143.0
 40
143.0
 40
144.0
 40
144.0
 40
145.0
 40
145.0
 40
146.0
 40
146.0
 40
147.0
 40
147.0
 40
148.0
 40
148.0
 40
149.0
 40
149.0
 40
150.0
 40
150.0
 40
151.0
 40
151.0
 40
152.0
 40
152.0
 40
153.0
 40
153.0
 40
154.0
 40
154.0
 40
155.0
 40
155.0
 40
156.0
 40
156.0
 40
157.0
 40
157.0
 40
158.0
 40
158.0
 40
159.0
 40
159.0
 40
160.0
 40
160.0
 40
161.0
 40
161.0
 40
162.0
 40
162.0
 40
163.0
 40
163.0
 40
164.0
 40
164.0
 40
165.0
 40
165.0
 40
166.0
 40
166.0
 40
167.0
 40
167.0
 40
168.0
 40
168.0
 40
169.0
 40
169.0
 40
170.0
 40
170.0
 40
171.0
 40
171.0
 40
172.0
 40
172.0
 40
173.0
 40
173.0
 40
174.0
 40
174.0
 40
175.0
 40
175.0
 40
176.0
 40
176.0
 40
177.0
 40
177.0
 40
178.0
 40
178.0
 40
179.0
 40
179.0
 40
180.0
 40
180.0
 40
181.0
 40
181.0
 40
182.0
 40
182.0
 40
183.0
 40
183.0
 40
184.0
 40
184.0
 40
185.0
 40
185.0
 40
186.0
 40
186.0
 40
187.0
 40
187.0
 40
188.0
 40
188.0
 40
189.0
 40
189.0
 40
190.0
 40
190.0
 40
191.0
 40
191.0
 40
192.0
 40
192.0
 40
193.0
 40
193.0
 40
194.0
 40
194.0
 40
195.0
 40
195.0
 40
196.0
 40
196.0
 40
197.0
 40
197.0
 40
198.0
 40
198.0
 40
199.0
 40
199.0
 40
200.0
 40
200.0
 40
201.0
 40
201.0
 40
202.0
 40
202.0
 40
203.0
 40
203.0
 40
204.0
 40
204.0
 40
205.0
 40
205.0
 40
206.0
 40
206.0
 40
207.0
 40
207.0
 40
208.0
 40
208.0
 40
209.0
 40
209.0
 40
210.0
 40
210.0
 40
211.0
 40
211.0
 40
212.0
 40
212.0
 40
213.0
 40
213.0
 40
214.0
 40
214.0
 40
215.0
 40
215.0
 40
216.0
 40
216.0
 40
217.0
 40
217.0
 40
218.0
 40
218.0
 40
219.0
 40
219.0
 40
220.0
 40
220.0
 40
221.0
 40
221.0
 40
222.0
 40
222.0
 40
223.0
 40
223.0
 40
224.0
 40
224.0
 40
225.0
 40
225.0
 40
226.0
 40
226.0
 40
227.0
 40
227.0
 40
228.0
 40
228.0
 40
229.0
 40
229.0
 40
230.0
 40
230.0
 40
231.0
 40
231.0
 40
232.0
 40
232.0
 40
233.0
 40
233.0
 40
234.0
 40
234.0
 40
235.0
 40
235.0
 40
236.0
 40
236.0
 40
237.0
 40
237.0
 40
238.0
 40
238.0
 40
239.0
 40
239.0
 40
240.0
 40
240.0
 40
241.0
 40
241.0
 40
242.0
 40
242.0
 40
243.0
 40
243.0
 40
244.0
 40
244.0
 40
245.0
 40
245.0
 40
246.0
 40
246.0
 40
247.0
 40
247.0
 40
248.0
 40
248.0
 40
249.0
 40
249.0
 40
250.0
 40
250.0
 40
251.0
 40
251.0
 40
252.0
 40
252.0
 40
253.0
 40
253.0
 40
254.0
 40
254.0
 40
255.0
 40
255.0
 40
256.0
 40
256.0
 40
257.0
 40
257.0
 40
258.0
 40
258.0
 40
259.0
 40
259.0
 40
260.0
 40
260.0
 40
261.0
 40
261.0
 40
262.0
 40
262.0
 40
263.0
 40
263.0
 40
264.0
 40
264.0
 40
265.0
 40
265.0
 40
266.0
 40
266.0
 40
267.0
 40
267.0
 40
268.0
 40
268.0
 40
269.0
 40
269.0
 40
270.0
 40
270.0
 40
271.0
 40
271.0
 40
272.0
 40
272.0
 40
273.0
 40
273.0
 40
274.0
 40
274.0
 40
275.0
 40
275.0
 40
276.0
 40
276.0
 40
277.0
 40
277.0
 40
278.0
 40
278.0
 40
279.0
 40
279.0
 40
280.0
 40
280.0
 40
281.0
 40
281.0
 40
282.0
 40
282.0
 40
283.0
 40
283.0
 40
284.0
 40
284.0
 40
285.0
 40
285.0
 40
286.0
 40
286.0
 40
287.0
 40
287.0
 40
288.0
 40
288.0
 40
289.0
 40
289.0
 40
290.0
 40
290.0
 40
291.0
 40
291.0
 40
292.0
 40
292.0
 40
293.0
 40
293.0
 40
294.0
 40
294.0
 40
295.0
 40
295.0
 40
296.0
 40
296.0
 40
297.0
 40
297.0
 40
298.0
 40
298.0
 40
299.0
 40
299.0
 40
300.0
 40
300.0
 40
301.0
 40
301.0
 40
302.0
 40
302.0
 40
303.0
 40
303.0
 40
304.0
 40
304.0
 40
305.0
 40
305.0
 40
306.0
 40
306.0
 40
307.0
 40
307.0
 40
308.0
 40
308.0
 40
309.0
 40
309.0
 40
310.0
 40
310.0
 40
311.0
 40
311.0
 40
312.0
 40
312.0
 40
313.0
 40
313.0
 40
314.0
 40
314.0
 40
315.0
 40
315.0
 40
316.0
 40
316.0
 40
317.0
 40
317.0
 40
318.0
 40
318.0
 40
319.0
 40
319.0
 40
320.0
 40
320.0
 40
321.0
 40
321.0
 40
322.0
 40
322.0
 40
323.0
 40
323.0
 40
324.0
 40
324.0
 40
325.0
 40
325.0
 40
326.0
 40
326.0
 40
327.0
 40
327.0
 40
328.0
 40
328.0
 40
329.0
 40
329.0
 40
330.0
 40
330.0
 40
331.0
 40
331.0
 40
332.0
 40
332.0
 40
333.0
 40
333.0
 40
334.0
 40
334.0
 40
335.0
 40
335.0
 40
336.0
 40
336.0
 40
337.0
 40
337.0
 40
338.0
 40
338.0
 40
339.0
 40
339.0
 40
340.0
 40
340.0
 40
341.0
 40
341.0
 40
342.0
 40
342.0
 40
343.0
 40
343.0
 40
344.0
 40
344.0
 40
345.0
 40
345.0
 40
346.0
 40
346.0
 40
347.0
 40
347.0
 40
348.0
 40
348.0
 40
349.0
 40
349.0
 40
350.0
 40
350.0
 40
351.0
 40
351.0
 40
352.0
 40
352.0
 40
353.0
 40
353.0
 40
354.0
 40
354.0
 40
355.0
 40
355.0
 40
356.0
 40
356.0
 40
357.0
 40
357.0
 40
358.0
 40
358.0
 40
359.0
 40
359.0
 40
360.0
 40
360.0
 40
361.0
 40
361.0
 40
362.0
 40
362.0
 40
363.0
 40
363.0
 40
364.0
 40
364.0
 40
365.0
 40
365.0
 40
366.0
 40
366.0
 40
367.0
 40
367.0
 40
368.0
 40
368.0
 40
369.0
 40
369.0
 40
370.0
 40
370.0
 40
371.0
 40
371.0
 40
372.0
 40
372.0
 40
373.0
 40
373.0
 40
374.0
 40
374.0
 40
375.0
 40
375.0
 40
376.0
 40
376.0
 40
377.0
 40
377.0
 40
378.0
 40
378.0
 40
379.0
 40
379.0
 40
380.0
 40
380.0
 40
381.0
 40
381.0
 40
382.0
 40
382.0
 40
383.0
 40
383.0
 40
384.0
 40
384.0
 40
385.0
 40
385.0
 40
386.0
 40
386.0
 40
387.0
 40
387.0
 40
388.0
 40
388.0
 40
389.0
 40
389.0
 40
389.0
 10
930.29987164881129
 20
-1331.5193134762403
 30
0.0
 41
1.0
 10
931.11829575753177
 20
-1331.5193134762403
 30
0.0
 41
1.0
 10
931.93671986625225
 20
-1331.5193134762403
 30
0.0
 41
1.0
 10
931.52296613073554
 20
-1332.86193974049
 30
0.0
 41
1.0
 10
931.10921239521872
 20
-1334.2045660047397
 30
0.0
 41
1.0
 10
931.12755189037102
 20
-1334.1758652318526
 30
0.0
 41
0.9999957264380115
 10
931.14605888718779
 20
-1334.1472721817238
 30
0.0
 41
1.0
 10
931.17648821133992
 20
-1334.1002593033249
 30
0.0
 41
1.0
 10
931.20691753549204
 20
-1334.0532464249261
 30
0.0
 41
1.0
 10
931.28628318059964
 20
-1333.9306276180207
 30
0.0
 41
0.9995394069080855
 10
931.37294157215149
 20
-1333.8130495562791
 30
0.0
 41
1.0
 10
931.40869843441249
 20
-1333.7645346636839
 30
0.0
 41
1.0
 10
931.44445529667348
 20
-1333.7160197710887
 30
0.0
 41
1.0
 10
931.57818196448875
 20
-1333.5345794959662
 30
0.0
 41
0.9994460617143479
 10
931.72368244577569
 20
-1333.3624370983177
 30
0.0
 41
1.0
 10
931.7280706267502
 20
-1333.3572454179357
 30
0.0
 41
1.0
 10
931.73245880772458
 20
-1333.3520537375539
 30
0.0
 41
1.0
 10
931.86918292706412
 20
-1333.1902947006677
 30
0.0
 41
0.9994359394934401
 10
932.01645715741506
 20
-1333.0380784995036
 30
0.0
 41
1.0
 10
932.01884051136688
 20
-1333.0356151691321
 30
0.0
 41
1.0
 10
932.02122386531869
 20
-1333.0331518387604
 30
0.0
 41
1.0
 10
932.16373138776441
 20
-1332.885862298341
 30
0.0
 41
0.999529368856773
 10
932.31500306874864
 20
-1332.7475890861747
 30
0.0
 41
1.0
 10
932.33429682801261
 20
-1332.7299532005229
 30
0.0
 41
1.0
 10
932.35359058727659
 20
-1332.7123173148711
 30
0.0
 41
1.0
 10
932.46627474973218
 20
-1332.6093158740093
 30
0.0
 41
0.999708761480295
 10
932.58379763868584
 20
-1332.5118715932126
 30
0.0
 41
1.0
 10
932.60296371186837
 20
-1332.4959800146989
 30
0.0
 41
1.0
 10
932.62212978505079
 20
-1332.4800884361853
 30
0.0
 41
1.0
 10
932.70132052765098
 20
-1332.4144273124066
 30
0.0
 41
0.9999595338700135
 10
932.78167979849604
 20
-1332.3502015817598
 30
0.0
 41
1.0
 10
932.86203906936078
 20
-1332.2859758510976
 30
0.0
 41
0.9999749417497325
 10
932.94329960370794
 20
-1332.2228942971483
 30
0.0
 41
1.0
 10
932.96428574987453
 20
-1332.2066030098435
 30
0.0
 41
1.0
 10
932.98527189604101
 20
-1332.1903117225386
 30
0.0
 41
1.0
 10
933.06983978133303
 20
-1332.1246627127055
 30
0.0
 41
0.9999792037124936
 10
933.15524738109707
 20
-1332.0601099310659
 30
0.0
 41
1.0
 10
933.17607220694708
 20
-1332.0443701088548
 30
0.0
 41
1.0
 10
933.19689703279698
 20
-1332.0286302866434
 30
0.0
 41
1.0
 10
933.24065498078096
 20
-1331.9955571494866
 30
0.0
 41
0.9999993374092212
 10
933.28433666700971
 20
-1331.9623833539981
 30
0.0
 41
1.0
 10
933.32801835315377
 20
-1331.9292095585736
 30
0.0
 41
0.9999160953816474
 10
933.37254476407429
 20
-1331.8971784933744
 30
0.0
 41
1.0
 10
933.40536665149284
 20
-1331.8735673377903
 30
0.0
 41
1.0
 10
933.4381885389115
 20
-1331.8499561822061
 30
0.0
 41
1.0
 10
933.54835872466901
 20
-1331.7707028058389
 30
0.0
 41
0.9980964527231609
 10
933.66744771816752
 20
-1331.7056153329841
 30
0.0
 41
1.0
 10
933.70448032509694
 20
-1331.6853753533901
 30
0.0
 41
1.0
 10
933.74151293202624
 20
-1331.6651353737964
 30
0.0
 41
1.0
 10
933.92083994529992
 20
-1331.5671251230947
 30
0.0
 41
0.998457281057227
 10
934.10992851165884
 20
-1331.4896028617484
 30
0.0
 41
1.0
 10
934.1135747810539
 20
-1331.4881079694107
 30
0.0
 41
1.0
 10
934.11722105044896
 20
-1331.4866130770731
 30
0.0
 41
1.0
 10
934.29901707801707
 20
-1331.4120806004023
 30
0.0
 41
0.998783852803421
 10
934.48726973657699
 20
-1331.3558149602363
 30
0.0
 41
1.0
 10
934.49150768577351
 20
-1331.3545483065468
 30
0.0
 41
1.0
 10
934.49574563497004
 20
-1331.3532816528573
 30
0.0
 41
1.0
 10
934.67552239513407
 20
-1331.299549320071
 30
0.0
 41
0.9990652816207445
 10
934.85926832685209
 20
-1331.2615456405283
 30
0.0
 41
1.0
 10
934.86445672788386
 20
-1331.2604725374217
 30
0.0
 41
1.0
 10
934.86964512891552
 20
-1331.2593994343151
 30
0.0
 41
1.0
 10
935.04301425856818
 20
-1331.223541960986
 30
0.0
 41
0.9992909934269767
 10
935.21859002502629
 20
-1331.2008315285198
 30
0.0
 41
1.0
 10
935.39416579148542
 20
-1331.1781210960535
 30
0.0
 41
0.9994553539449393
 10
935.57085722457964
 20
-1331.1670417918469
 30
0.0
 41
1.0
 10
935.60629163237377
 20
-1331.1648199037991
 30
0.0
 41
1.0
 10
935.64172604016801
 20
-1331.1625980157514
 30
0.0
 41
1.0
 10
935.80795180673783
 20
-1331.1521749533395
 30
0.0
 41
0.9990928098292499
 10
935.97446159864103
 20
-1331.1559345945741
 30
0.0
 41
1.0
 10
936.01302343391262
 20
-1331.1568052861071
 30
0.0
 41
1.0
 10
936.05158526918422
 20
-1331.1576759776401
 30
0.0
 41
1.0
 10
936.14097139054343
 20
-1331.1596942358087
 30
0.0
 41
0.9998382089204567
 10
936.23022707332984
 20
-1331.1649263623369
 30
0.0
 41
1.0
 10
936.23065697954735
 20
-1331.1649515632389
 30
0.0
 41
1.0
 10
936.23108688576485
 20
-1331.1649767641411
 30
0.0
 41
1.0
 10
936.31948275611376
 20
-1331.1701584888649
 30
0.0
 41
0.9997558016758416
 10
936.40756333331683
 20
-1331.1792410042315
 30
0.0
 41
1.0
 10
936.40803947174948
 20
-1331.1792901017143
 30
0.0
 41
1.0
 10
936.40851561018212
 20
-1331.1793391991973
 30
0.0
 41
1.0
 10
936.4956439105207
 20
-1331.1883235195983
 30
0.0
 41
0.9996565144182174
 10
936.58218176385981
 20
-1331.2018608262867
 30
0.0
 41
1.0
 10
936.58264768923925
 20
-1331.2019337120184
 30
0.0
 41
1.0
 10
936.5831136146187
 20
-1331.2020065977501
 30
0.0
 41
1.0
 10
936.66871961720346
 20
-1331.2153981329759
 30
0.0
 41
0.9995321806866752
 10
936.75334669752976
 20
-1331.2339986214051
 30
0.0
 41
1.0
 10
936.75373589210085
 20
-1331.2340841638709
 30
0.0
 41
1.0
 10
936.75412508667205
 20
-1331.2341697063366
 30
0.0
 41
1.0
 10
936.83797377785697
 20
-1331.2525991098344
 30
0.0
 41
0.9993819199220022
 10
936.92032031205395
 20
-1331.2768744930952
 30
0.0
 41
1.0
 10
936.92055874555172
 20
-1331.2769447822045
 30
0.0
 41
1.0
 10
936.92079717904949
 20
-1331.2770150713138
 30
0.0
 41
1.0
 10
937.00266684625024
 20
-1331.3011498763558
 30
0.0
 41
0.9992088568505112
 10
937.0823593652384
 20
-1331.3317151121503
 30
0.0
 41
1.0
 10
937.16204035611747
 20
-1331.3622747128836
 30
0.0
 41
0.9990226101773911
 10
937.23871102602459
 20
-1331.3997521444981
 30
0.0
 41
1.0
 10
937.31537016782215
 20
-1331.4372239410509
 30
0.0
 41
0.9988424273972117
 10
937.38807379503419
 20
-1331.4818887163037
 30
0.0
 41
1.0
 10
937.38834150341393
 20
-1331.4820531803762
 30
0.0
 41
1.0
 10
937.38860921179366
 20
-1331.4822176444486
 30
0.0
 41
1.0
 10
937.46184825576483
 20
-1331.5272113478461
 30
0.0
 41
0.9986928844490697
 10
937.53011112247441
 20
-1331.5794470821256
 30
0.0
 41
1.0
 10
937.53069241469711
 20
-1331.5798918953535
 30
0.0
 41
1.0
 10
937.53127370691982
 20
-1331.5803367085814
 30
0.0
 41
1.0
 10
937.60069915807503
 20
-1331.6334620693169
 30
0.0
 41
0.998600726227902
 10
937.66412532784193
 20
-1331.6936228390105
 30
0.0
 41
1.0
 10
937.66501974329913
 20
-1331.6944712068455
 30
0.0
 41
1.0
 10
937.66591415875632
 20
-1331.6953195746805
 30
0.0
 41
1.0
 10
937.73112915943818
 20
-1331.7571770800448
 30
0.0
 41
0.9985581491381195
 10
937.78933677113935
 20
-1331.825669570316
 30
0.0
 41
1.0
 10
937.79859522473498
 20
-1331.8365639280178
 30
0.0
 41
1.0
 10
937.80785367833073
 20
-1331.8474582857193
 30
0.0
 41
1.0
 10
937.8845781972235
 20
-1331.9377394913938
 30
0.0
 41
0.9970460233520153
 10
937.94657009838295
 20
-1332.0387065755756
 30
0.0
 41
1.0
 10
937.96103946346307
 20
-1332.0622730346577
 30
0.0
 41
1.0
 10
937.9755088285433
 20
-1332.08583949374
 30
0.0
 41
1.0
 10
938.01524552855506
 20
-1332.1505592177712
 30
0.0
 41
0.9988468816637008
 10
938.0485918993063
 20
-1332.2187916701982
 30
0.0
 41
1.0
 10
938.05562792179944
 20
-1332.2331885913391
 30
0.0
 41
1.0
 10
938.06266394429247
 20
-1332.2475855124799
 30
0.0
 41
1.0
 10
938.081938270058
 20
-1332.2870241226262
 30
0.0
 41
0.999843118999852
 10
938.09980359755286
 20
-1332.3271206770664
 30
0.0
 41
1.0
 10
938.11766892507671
 20
-1332.3672172315714
 30
0.0
 41
0.9999989990011805
 10
938.13564764850173
 20
-1332.4072630691619
 30
0.0
 41
1.0
 10
938.14181996008006
 20
-1332.4210112859391
 30
0.0
 41
1.0
 10
938.14799227165827
 20
-1332.4347595027161
 30
0.0
 41
1.0
 10
938.17831561826858
 20
-1332.5023017739247
 30
0.0
 41
0.9998790356321278
 10
938.20652349840657
 20
-1332.5707545258624
 30
0.0
 41
1.0
 10
938.21335867969105
 20
-1332.5873416272902
 30
0.0
 41
1.0
 10
938.22019386097566
 20
-1332.6039287287183
 30
0.0
 41
1.0
 10
938.2437515233546
 20
-1332.6610966836006
 30
0.0
 41
0.9998227574561576
 10
938.26514027174494
 20
-1332.7191109918801
 30
0.0
 41
1.0
 10
938.28652902013425
 20
-1332.7771253001576
 30
0.0
 41
0.9996797971041902
 10
938.30495530509347
 20
-1332.8361474192757
 30
0.0
 41
1.0
 10
938.30885910781899
 20
-1332.8486518774446
 30
0.0
 41
1.0
 10
938.31276291054451
 20
-1332.8611563356135
 30
0.0
 41
1.0
 10
938.33899680095487
 20
-1332.9451873710696
 30
0.0
 41
0.9979274938734355
 10
938.35422132443409
 20
-1333.03189172973
 30
0.0
 41
1.0
 10
938.35644501169486
 20
-1333.0445557305493
 30
0.0
 41
1.0
 10
938.35866869895574
 20
-1333.0572197313684
 30
0.0
 41
1.0
 10
938.36959863865468
 20
-1333.1194662386622
 30
0.0
 41
0.9994985982137418
 10
938.37656680383157
 20
-1333.1822797398045
 30
0.0
 41
1.0
 10
938.38353496900834
 20
-1333.2450932409417
 30
0.0
 41
0.9996372611201243
 10
938.38711083477608
 20
-1333.3081908196241
 30
0.0
 41
1.0
 10
938.38727941226557
 20
-1333.3111654367085
 30
0.0
 41
1.0
 10
938.38744798975495
 20
-1333.3141400537929
 30
0.0
 41
1.0
 10
938.39136101050144
 20
-1333.3831868666384
 30
0.0
 41
0.9997730630736228
 10
938.39232932398932
 20
-1333.4523376906716
 30
0.0
 41
1.0
 10
938.39238643040744
 20
-1333.4564158698145
 30
0.0
 41
1.0
 10
938.39244353682557
 20
-1333.4604940489571
 30
0.0
 41
1.0
 10
938.39352606314992
 20
-1333.5378012312724
 30
0.0
 41
0.9998772614070446
 10
938.3921859764182
 20
-1333.6151043778336
 30
0.0
 41
1.0
 10
938.39209671321942
 20
-1333.6202535416714
 30
0.0
 41
1.0
 10
938.39200745002063
 20
-1333.6254027055093
 30
0.0
 41
1.0
 10
938.39048883689168
 20
-1333.7130041797375
 30
0.0
 41
0.9999415567321696
 10
938.3870765266455
 20
-1333.8005523414167
 30
0.0
 41
1.0
 10
938.3868352059701
 20
-1333.8067438011549
 30
0.0
 41
1.0
 10
938.38659388529481
 20
-1333.812935260893
 30
0.0
 41
1.0
 10
938.38269893369886
 20
-1333.912866342034
 30
0.0
 41
0.9999716810429059
 10
938.37730035057996
 20
-1334.0127274802674
 30
0.0
 41
1.0
 10
938.37408755179115
 20
-1334.0721567299254
 30
0.0
 41
1.0
 10
938.37087475300234
 20
-1334.1315859795834
 30
0.0
 41
1.0
 10
938.36280084384907
 20
-1334.2809343808749
 30
0.0
 41
0.999981912991207
 10
938.35293105223286
 20
-1334.430174858579
 30
0.0
 41
1.0
 10
938.34306126061631
 20
-1334.5794153362904
 30
0.0
 41
1.0
 10
938.34062194005242
 20
-1334.6166083821395
 30
0.0
 41
1.0
 10
938.3633201739176
 20
-1334.5778673847526
 30
0.0
 41
0.9999982128058216
 10
938.38616473271577
 20
-1334.5392124907216
 30
0.0
 41
1.0
 10
938.41307429256221
 20
-1334.4936792767317
 30
0.0
 41
1.0
 10
938.43998385240855
 20
-1334.4481460627417
 30
0.0
 41
1.0
 10
938.51664753093155
 20
-1334.3184247406764
 30
0.0
 41
0.9998609190058746
 10
938.59759484379163
 20
-1334.1913323587496
 30
0.0
 41
1.0
 10
938.6272431652767
 20
-1334.1447826257872
 30
0.0
 41
1.0
 10
938.65689148676188
 20
-1334.0982328928246
 30
0.0
 41
1.0
 10
938.7391637069984
 20
-1333.9690603228305
 30
0.0
 41
0.99990676097348
 10
938.82493271646081
 20
-1333.8421826333915
 30
0.0
 41
1.0
 10
938.82733741965831
 20
-1333.8386253673418
 30
0.0
 41
1.0
 10
938.82974212285569
 20
-1333.8350681012921
 30
0.0
 41
1.0
 10
938.91070172592049
 20
-1333.7153049439562
 30
0.0
 41
0.9998784952149136
 10
938.99535533560618
 20
-1333.5981237272415
 30
0.0
 41
1.0
 10
939.08000894528891
 20
-1333.4809425105311
 30
0.0
 41
0.9998532968281754
 10
939.16862656611272
 20
-1333.3667296020592
 30
0.0
 41
1.0
 10
939.18858835510309
 20
-1333.3410022810399
 30
0.0
 41
1.0
 10
939.20855014409358
 20
-1333.3152749600206
 30
0.0
 41
1.0
 10
939.32703419385189
 20
-1333.162569349053
 30
0.0
 41
0.9991551975795396
 10
939.45765864347482
 20
-1333.0201097869701
 30
0.0
 41
1.0
 10
939.46116825945319
 20
-1333.0162821853473
 30
0.0
 41
1.0
 10
939.46467787543156
 20
-1333.0124545837245
 30
0.0
 41
1.0
 10
939.58828309309649
 20
-1332.8776502248884
 30
0.0
 41
0.9997418144181018
 10
939.71788523279884
 20
-1332.7486008142741
 30
0.0
 41
1.0
 10
939.84748737249879
 20
-1332.6195514036622
 30
0.0
 41
0.9989238204633436
 10
939.98848992074886
 20
-1332.503066441624
 30
0.0
 41
1.0
 10
940.03373759889155
 20
-1332.4656864500125
 30
0.0
 41
1.0
 10
940.07898527703435
 20
-1332.4283064584013
 30
0.0
 41
1.0
 10
940.21922533425413
 20
-1332.3124514051119
 30
0.0
 41
0.9990825084096954
 10
940.36886526685498
 20
-1332.2090224072813
 30
0.0
 41
1.0
 10
940.37891063090854
 20
-1332.2020791942041
 30
0.0
 41
1.0
 10
940.38895599496209
 20
-1332.1951359811269
 30
0.0
 41
1.0
 10
940.51850519945401
 20
-1332.1055934094516
 30
0.0
 41
0.9998164899825488
 10
940.65138940283521
 20
-1332.0210791679319
 30
0.0
 41
1.0
 10
940.66323496335917
 20
-1332.0135454014076
 30
0.0
 41
1.0
 10
940.67508052388314
 20
-1332.0060116348832
 30
0.0
 41
1.0
 10
940.78427360621083
 20
-1331.9365649264157
 30
0.0
 41
0.9997473449130689
 10
940.89647756346085
 20
-1331.8720959685998
 30
0.0
 41
1.0
 10
941.00868152070495
 20
-1331.807627010787
 30
0.0
 41
0.999932786114679
 10
941.12235013146881
 20
-1331.7457770191054
 30
0.0
 41
1.0
 10
941.12290213403207
 20
-1331.7454766604249
 30
0.0
 41
1.0
 10
941.12345413659523
 20
-1331.7451763017443
 30
0.0
 41
1.0
 10
941.23822675248164
 20
-1331.6827255927039
 30
0.0
 41
0.9996956420484265
 10
941.35594007832333
 20
-1331.6260121257285
 30
0.0
 41
1.0
 10
941.38638048321343
 20
-1331.6113461489999
 30
0.0
 41
1.0
 10
941.41682088810353
 20
-1331.5966801722711
 30
0.0
 41
1.0
 10
941.51979799484729
 20
-1331.5470665138275
 30
0.0
 41
0.9998070570175864
 10
941.6246443837905
 20
-1331.5015359269255
 30
0.0
 41
1.0
 10
941.72949077273188
 20
-1331.4560053400241
 30
0.0
 41
0.999782743614707
 10
941.83614370934231
 20
-1331.4148841687124
 30
0.0
 41
1.0
 10
941.85536655897317
 20
-1331.4074725950802
 30
0.0
 41
1.0
 10
941.87458940860415
 20
-1331.400061021448
 30
0.0
 41
1.0
 10
942.01968804447586
 20
-1331.3441167028718
 30
0.0
 41
0.9988031841976732
 10
942.16955840707885
 20
-1331.3026166387044
 30
0.0
 41
1.0
 10
942.19447565544442
 20
-1331.295716892897
 30
0.0
 41
1.0
 10
942.2193929038101
 20
-1331.2888171470893
 30
0.0
 41
1.0
 10
942.38666292945641
 20
-1331.2424990046827
 30
0.0
 41
0.9984748040550027
 10
942.55801983810409
 20
-1331.2149047724181
 30
0.0
 41
1.0
 10
942.56275897435319
 20
-1331.2141416119048
 30
0.0
 41
1.0
 10
942.56749811060229
 20
-1331.2133784513912
 30
0.0
 41
1.0
 10
942.72937674675313
 20
-1331.1873105401532
 30
0.0
 41
0.9984436495479933
 10
942.89315149047775
 20
-1331.1794325863345
 30
0.0
 41
1.0
 10
942.91484869860903
 20
-1331.1783888991349
 30
0.0
 41
1.0
 10
942.93654590674032
 20
-1331.1773452119353
 30
0.0
 41
1.0
 10
943.05692623420248
 20
-1331.1715546325158
 30
0.0
 41
0.9987954789335164
 10
943.17729447911233
 20
-1331.1775911602581
 30
0.0
 41
1.0
 10
943.19725927160812
 20
-1331.1785924045967
 30
0.0
 41
1.0
 10
943.21722406410402
 20
-1331.1795936489355
 30
0.0
 41
1.0
 10
943.29766272402367
 20
-1331.1836276880006
 30
0.0
 41
0.9997941595877944
 10
943.37787150211659
 20
-1331.1909217539214
 30
0.0
 41
1.0
 10
943.45808028021474
 20
-1331.198215819843
 30
0.0
 41
0.9998589466237378
 10
943.53799882707324
 20
-1331.2081996742936
 30
0.0
 41
1.0
 10
943.57040502887787
 20
-1331.2122480312123
 30
0.0
 41
1.0
 10
943.60281123068251
 20
-1331.216296388131
 30
0.0
 41
1.0
 10
943.74754218115311
 20
-1331.2343769564193
 30
0.0
 41
0.9993495063249657
 10
943.89059342491794
 20
-1331.2628426661609
 30
0.0
 41
1.0
 10
943.92352712206821
 20
-1331.2693961293753
 30
0.0
 41
1.0
 10
943.95646081921859
 20
-1331.2759495925895
 30
0.0
 41
1.0
 10
944.06575464242633
 20
-1331.2976979267255
 30
0.0
 41
0.9996788715561102
 10
944.17380621438463
 20
-1331.3249557260892
 30
0.0
 41
1.0
 10
944.17586921692509
 20
-1331.3254761526625
 30
0.0
 41
1.0
 10
944.17793221946545
 20
-1331.3259965792358
 30
0.0
 41
1.0
 10
944.28185778634236
 20
-1331.352213525453
 30
0.0
 41
0.9995480654492928
 10
944.38402002157045
 20
-1331.3846284820768
 30
0.0
 41
1.0
 10
944.38570966369957
 20
-1331.3851645869909
 30
0.0
 41
1.0
 10
944.38739930582869
 20
-1331.3857006919047
 30
0.0
 41
1.0
 10
944.48618225680059
 20
-1331.4170434387013
 30
0.0
 41
0.9993867959456221
 10
944.58252941524245
 20
-1331.4552228079908
 30
0.0
 41
1.0
 10
944.58377236432659
 20
-1331.4557153498868
 30
0.0
 41
1.0
 10
944.58501531341074
 20
-1331.4562078917827
 30
0.0
 41
1.0
 10
944.67887657368453
 20
-1331.4934021772804
 30
0.0
 41
0.9992050256521701
 10
944.76947624871832
 20
-1331.5379560765193
 30
0.0
 41
1.0
 10
944.77021093143162
 20
-1331.5383173689806
 30
0.0
 41
1.0
 10
944.77094561414503
 20
-1331.538678661442
 30
0.0
 41
1.0
 10
944.8600759237529
 20
-1331.582509975759
 30
0.0
 41
0.9990222350742198
 10
944.94498598514542
 20
-1331.6340432434565
 30
0.0
 41
1.0
 10
944.94516987042789
 20
-1331.6341548463611
 30
0.0
 41
1.0
 10
944.94535375571047
 20
-1331.6342664492659
 30
0.0
 41
1.0
 10
945.02989604653942
 20
-1331.6855765111552
 30
0.0
 41
0.998864274380613
 10
945.10917058115797
 20
-1331.7447006986799
 30
0.0
 41
1.0
 10
945.18844511577663
 20
-1331.8038248862047
 30
0.0
 41
0.9987681233309949
 10
945.26146890005396
 20
-1331.8705155776065
 30
0.0
 41
1.0
 10
945.26179782801933
 20
-1331.8708159788202
 30
0.0
 41
1.0
 10
945.26212675598481
 20
-1331.8711163800342
 30
0.0
 41
1.0
 10
945.33580839619219
 20
-1331.9384078738631
 30
0.0
 41
0.9987496570898798
 10
945.40240220151941
 20
-1332.0127206879499
 30
0.0
 41
1.0
 10
945.40317437127999
 20
-1332.013582361308
 30
0.0
 41
1.0
 10
945.40394654104057
 20
-1332.014444034666
 30
0.0
 41
1.0
 10
945.47208468588769
 20
-1332.0904801954671
 30
0.0
 41
0.9988147669826568
 10
945.53250694011274
 20
-1332.1727812023096
 30
0.0
 41
1.0
 10
945.53362626619094
 20
-1332.1743058336629
 30
0.0
 41
1.0
 10
945.53474559226913
 20
-1332.1758304650159
 30
0.0
 41
1.0
 10
945.59740649864955
 20
-1332.2611807345634
 30
0.0
 41
0.9989452636216355
 10
945.65197341161104
 20
-1332.3519194237213
 30
0.0
 41
1.0
 10
945.6533221376967
 20
-1332.3541622047474
 30
0.0
 41
1.0
 10
945.65467086378226
 20
-1332.3564049857735
 30
0.0
 41
1.0
 10
945.71193522891497
 20
-1332.4516292369838
 30
0.0
 41
0.999104643607108
 10
945.76094444223668
 20
-1332.5513536700091
 30
0.0
 41
1.0
 10
945.76240830382665
 20
-1332.5543323500815
 30
0.0
 41
1.0
 10
945.76387216541661
 20
-1332.5573110301541
 30
0.0
 41
1.0
 10
945.81580910191872
 20
-1332.6629928233256
 30
0.0
 41
0.999276383110127
 10
945.85956223047424
 20
-1332.7723168852824
 30
0.0
 41
1.0
 10
945.86104150013716
 20
-1332.7760130728152
 30
0.0
 41
1.0
 10
945.86252076980008
 20
-1332.7797092603478
 30
0.0
 41
1.0
 10
945.90923243768202
 20
-1332.8964256973713
 30
0.0
 41
0.9994163472883417
 10
945.94786546887065
 20
-1333.0160592858322
 30
0.0
 41
1.0
 10
945.94910362111762
 20
-1333.0198934296156
 30
0.0
 41
1.0
 10
945.95034177336458
 20
-1333.0237275733991
 30
0.0
 41
1.0
 10
945.99022533438279
 20
-1333.1472336348804
 30
0.0
 41
0.9997268055890305
 10
946.02429339029436
 20
-1333.2724686668296
 30
0.0
 41
1.0
 10
946.02522357056341
 20
-1333.2758880329361
 30
0.0
 41
1.0
 10
946.02615375083235
 20
-1333.2793073990429
 30
0.0
 41
1.0
 10
946.05836144620537
 20
-1333.3977036987758
 30
0.0
 41
0.9996701319000043
 10
946.08444706297678
 20
-1333.5175976520438
 30
0.0
 41
1.0
 10
946.11053267974762
 20
-1333.6374916053092
 30
0.0
 41
0.9995785451109317
 10
946.12961625708715
 20
-1333.7586973663394
 30
0.0
 41
1.0
 10
946.13383603926059
 20
-1333.7854985211025
 30
0.0
 41
1.0
 10
946.13805582143402
 20
-1333.8122996758657
 30
0.0
 41
1.0
 10
946.16463079737298
 20
-1333.9810856495706
 30
0.0
 41
0.9979925101216784
 10
946.16965638329941
 20
-1334.1518769776635
 30
0.0
 41
1.0
 10
946.17048119572405
 20
-1334.179907701141
 30
0.0
 41
1.0
 10
946.17130600814858
 20
-1334.2079384246183
 30
0.0
 41
1.0
 10
946.17468196922584
 20
-1334.3226683057492
 30
0.0
 41
0.999531490226334
 10
946.17103177708725
 20
-1334.4373897895073
 30
0.0
 41
1.0
 10
946.16738158494888
 20
-1334.5521112732586
 30
0.0
 41
0.999624548694436
 10
946.15745248981796
 20
-1334.6664605443827
 30
0.0
 41
1.0
 10
946.15728944182365
 20
-1334.6683383005181
 30
0.0
 41
1.0
 10
946.15712639382946
 20
-1334.6702160566535
 30
0.0
 41
1.0
 10
946.14687120271014
 20
-1334.7883208400476
 30
0.0
 41
0.9997286095000849
 10
946.13112587913827
 20
-1334.9058197489453
 30
0.0
 41
1.0
 10
946.13073238648803
 20
-1334.908756173646
 30
0.0
 41
1.0
 10
946.13033889383792
 20
-1334.9116925983465
 30
0.0
 41
1.0
 10
946.11380658496569
 20
-1335.0350643566464
 30
0.0
 41
0.9998265533969455
 10
946.09269112623269
 20
-1335.1577348314358
 30
0.0
 41
1.0
 10
946.09201458409575
 20
-1335.1616652099419
 30
0.0
 41
1.0
 10
946.09133804195881
 20
-1335.1655955884482
 30
0.0
 41
1.0
 10
946.06886949895102
 20
-1335.2961268202562
 30
0.0
 41
0.9999022530851781
 10
946.04276003434052
 20
-1335.4259787888973
 30
0.0
 41
1.0
 10
946.04178139317582
 20
-1335.4308459312811
 30
0.0
 41
1.0
 10
946.04080275201125
 20
-1335.4357130736648
 30
0.0
 41
1.0
 10
946.01273600507011
 20
-1335.5752993270794
 30
0.0
 41
0.9999524761933322
 10
945.98195303623527
 20
-1335.714311820245
 30
0.0
 41
1.0
 10
945.98067692906011
 20
-1335.7200745795462
 30
0.0
 41
1.0
 10
945.97940082188484
 20
-1335.7258373388474
 30
0.0
 41
1.0
 10
945.9460656387007
 20
-1335.87637535061
 30
0.0
 41
0.9999813588734339
 10
945.91089463790604
 20
-1336.0264950632611
 30
0.0
 41
1.0
 10
945.90934071244817
 20
-1336.033127653689
 30
0.0
 41
1.0
 10
945.9077867869903
 20
-1336.0397602441171
 30
0.0
 41
1.0
 10
945.86950793528536
 20
-1336.2031451376006
 30
0.0
 41
0.9999955237628675
 10
945.83025205729962
 20
-1336.3662980412296
 30
0.0
 41
1.0
 10
945.8179704216659
 20
-1336.4173422317499
 30
0.0
 41
1.0
 10
945.80568878603208
 20
-1336.4683864222704
 30
0.0
 41
1.0
 10
945.74186963675652
 20
-1336.7336277070312
 30
0.0
 41
0.999999360428612
 10
945.67745068958686
 20
-1336.9987239577222
 30
0.0
 41
1.0
 10
945.67273185405384
 20
-1337.0181428657049
 30
0.0
 41
1.0
 10
945.66801301852081
 20
-1337.0375617736877
 30
0.0
 41
1.0
 10
945.5941564002577
 20
-1337.3414958404569
 30
0.0
 41
0.9999659914736995
 10
945.51529680437352
 20
-1337.6441703870119
 30
0.0
 41
1.0
 10
945.51034411544367
 20
-1337.6631795241913
 30
0.0
 41
1.0
 10
945.50539142651382
 20
-1337.6821886613707
 30
0.0
 41
1.0
 10
945.41662645276892
 20
-1338.0228814822883
 30
0.0
 41
0.9999441976026204
 10
945.32068341980801
 20
-1338.3616229075781
 30
0.0
 41
1.0
 10
945.303982901381
 20
-1338.4205866201112
 30
0.0
 41
1.0
 10
945.28728238295389
 20
-1338.4795503326443
 30
0.0
 41
1.0
 10
945.15793831314068
 20
-1338.9362191829941
 30
0.0
 41
0.9999625120730799
 10
945.0207055458186
 20
-1339.3905797169855
 30
0.0
 41
1.0
 10
944.98491560273385
 20
-1339.5090757436183
 30
0.0
 41
1.0
 10
944.9491256596491
 20
-1339.6275717702513
 30
0.0
 41
1.0
 10
944.87460545560907
 20
-1339.8742988483505
 30
0.0
 41
0.9999793386305091
 10
944.79691943247121
 20
-1340.120047487587
 30
0.0
 41
1.0
 10
944.7192334093337
 20
-1340.3657961268232
 30
0.0
 41
1.0
 10
944.708453850463
 20
-1340.3998140311978
 30
0.0
 41
1.0
 10
942.85808079719391
 20
-1346.2868859536652
 30
0.0
 41
1.0
 10
941.0077077439247
 20
-1352.1739578761326
 30
0.0
 41
1.0
 10
940.04645105390114
 20
-1352.1739578761326
 30
0.0
 41
1.0
 10
939.08519436387758
 20
-1352.1739578761326
 30
0.0
 41
1.0
 10
940.70413914255596
 20
-1347.0259293743434
 30
0.0
 41
1.0
 10
942.32308392123446
 20
-1341.8779008725542
 30
0.0
 41
1.0
 10
942.36824974440833
 20
-1341.7338696502857
 30
0.0
 41
1.0
 10
942.41341556758221
 20
-1341.5898384280169
 30
0.0
 41
1.0
 10
942.5837199849459
 20
-1341.046747398851
 30
0.0
 41
0.9999911657917133
 10
942.74945279662597
 20
-1340.502243867488
 30
0.0
 41
1.0
 10
942.77914874012708
 20
-1340.4046799274354
 30
0.0
 41
1.0
 10
942.80884468362819
 20
-1340.3071159873828
 30
0.0
 41
1.0
 10
942.91518560830661
 20
-1339.9577403361232
 30
0.0
 41
0.9999952428160223
 10
943.01936919763125
 20
-1339.6077153117749
 30
0.0
 41
1.0
 10
943.02442866796969
 20
-1339.5907170374799
 30
0.0
 41
1.0
 10
943.02948813830801
 20
-1339.5737187631848
 30
0.0
 41
1.0
 10
943.12355278696805
 20
-1339.2576902873857
 30
0.0
 41
0.9999931687501528
 10
943.21527862482981
 20
-1338.9409750741547
 30
0.0
 41
1.0
 10
943.22021388928954
 20
-1338.9239343648828
 30
0.0
 41
1.0
 10
943.22514915374927
 20
-1338.9068936556112
 30
0.0
 41
1.0
 10
943.30700446270703
 20
-1338.624259860871
 30
0.0
 41
0.9999893840802843
 10
943.3862516891603
 20
-1338.3408837316374
 30
0.0
 41
1.0
 10
943.46549891561517
 20
-1338.0575076023981
 30
0.0
 41
0.9999833980091085
 10
943.54147515635339
 20
-1337.7732370193833
 30
0.0
 41
1.0
 10
943.55047909307996
 20
-1337.7395481408889
 30
0.0
 41
1.0
 10
943.55948302980642
 20
-1337.7058592623946
 30
0.0
 41
1.0
 10
943.62844757867265
 20
-1337.4478234300982
 30
0.0
 41
0.9999233658068563
 10
943.69100254989064
 20
-1337.1881592713844
 30
0.0
 41
1.0
 10
943.75355752111091
 20
-1336.9284951126619
 30
0.0
 41
1.0
 10
943.79304093996848
 20
-1336.764688448236
 30
0.0
 41
1.0
 10
943.79801954394088
 20
-1336.7440334863863
 30
0.0
 41
1.0
 10
943.80299814791317
 20
-1336.7233785245364
 30
0.0
 41
1.0
 10
943.83252435882162
 20
-1336.6008817838281
 30
0.0
 41
0.9999868670876481
 10
943.86079344282223
 20
-1336.4780888381647
 30
0.0
 41
1.0
 10
943.86469092998141
 20
-1336.4611592507413
 30
0.0
 41
1.0
 10
943.86858841714059
 20
-1336.4442296633179
 30
0.0
 41
1.0
 10
943.88906252682102
 20
-1336.3552958925075
 30
0.0
 41
0.9999778173351187
 10
943.9083501249338
 20
-1336.2660972752888
 30
0.0
 41
1.0
 10
943.92763772304568
 20
-1336.1768986580755
 30
0.0
 41
0.9999602692861467
 10
943.94533208167684
 20
-1336.0873703696484
 30
0.0
 41
1.0
 10
943.94853591375613
 20
-1336.0711599147544
 30
0.0
 41
1.0
 10
943.95173974583531
 20
-1336.0549494598604
 30
0.0
 41
1.0
 10
943.97584176862131
 20
-1335.9330002616621
 30
0.0
 41
0.9995617985320676
 10
943.99268511583944
 20
-1335.8098385139604
 30
0.0
 41
1.0
 10
943.99514960574584
 20
-1335.7918176965939
 30
0.0
 41
1.0
 10
943.99761409565224
 20
-1335.7737968792273
 30
0.0
 41
1.0
 10
944.01789735670093
 20
-1335.6254818295245
 30
0.0
 41
0.9991121410639366
 10
944.0256227102891
 20
-1335.4759857307179
 30
0.0
 41
1.0
 10
944.02654150031344
 20
-1335.458205894146
 30
0.0
 41
1.0
 10
944.02746029033779
 20
-1335.4404260575741
 30
0.0
 41
1.0
 10
944.03334806387716
 20
-1335.3264896319158
 30
0.0
 41
0.9989792494906268
 10
944.02892897176002
 20
-1335.2124867960133
 30
0.0
 41
1.0
 10
944.02828099989142
 20
-1335.1957705500881
 30
0.0
 41
1.0
 10
944.02763302802293
 20
-1335.1790543041629
 30
0.0
 41
1.0
 10
944.02450987964255
 20
-1335.0984839601142
 30
0.0
 41
0.9997820295393982
 10
944.01802588226701
 20
-1335.018114238371
 30
0.0
 41
1.0
 10
944.01154188489124
 20
-1334.9377445166256
 30
0.0
 41
0.9998335105973163
 10
944.00212968937922
 20
-1334.8576649001739
 30
0.0
 41
1.0
 10
944.00053476470305
 20
-1334.8440951696925
 30
0.0
 41
1.0
 10
943.99893984002688
 20
-1334.830525439211
 30
0.0
 41
1.0
 10
943.98633779516263
 20
-1334.7233063617971
 30
0.0
 41
0.9996876457879571
 10
943.96839388236424
 20
-1334.6168509340791
 30
0.0
 41
1.0
 10
943.96616221921863
 20
-1334.6036111988351
 30
0.0
 41
1.0
 10
943.96393055607291
 20
-1334.5903714635913
 30
0.0
 41
1.0
 10
943.95013473465235
 20
-1334.5085253196346
 30
0.0
 41
0.9995547496493974
 10
943.93148141275992
 20
-1334.4276478224456
 30
0.0
 41
1.0
 10
943.93110745588842
 20
-1334.4260264117393
 30
0.0
 41
1.0
 10
943.93073349901681
 20
-1334.4244050010327
 30
0.0
 41
1.0
 10
943.9128280908667
 20
-1334.346770325252
 30
0.0
 41
0.9994899427175199
 10
943.89000318218791
 20
-1334.2704370424201
 30
0.0
 41
1.0
 10
943.8895446554468
 20
-1334.2689035926305
 30
0.0
 41
1.0
 10
943.88908612870569
 20
-1334.2673701428407
 30
0.0
 41
1.0
 10
943.86717827350844
 20
-1334.1941037595848
 30
0.0
 41
0.9993784877590453
 10
943.84016263840203
 20
-1334.1225630544266
 30
0.0
 41
1.0
 10
943.83963094742512
 20
-1334.121155071706
 30
0.0
 41
1.0
 10
943.83909925644821
 20
-1334.1197470889854
 30
0.0
 41
1.0
 10
943.81314700329528
 20
-1334.051022349267
 30
0.0
 41
0.9992430832254525
 10
943.78193046813612
 20
-1333.9845231971992
 30
0.0
 41
1.0
 10
943.7813483520797
 20
-1333.9832831420822
 30
0.0
 41
1.0
 10
943.78076623602328
 20
-1333.9820430869654
 30
0.0
 41
1.0
 10
943.75071393297708
 20
-1333.9180240451315
 30
0.0
 41
0.9990789632797902
 10
943.71528330620004
 20
-1333.8568174333814
 30
0.0
 41
1.0
 10
943.71468760001767
 20
-1333.8557883475216
 30
0.0
 41
1.0
 10
943.71409189383542
 20
-1333.8547592616619
 30
0.0
 41
1.0
 10
943.6798526794222
 20
-1333.7956108216299
 30
0.0
 41
0.9988874801120301
 10
943.64019340339132
 20
-1333.7399511092137
 30
0.0
 41
1.0
 10
943.63963787732689
 20
-1333.7391714575388
 30
0.0
 41
1.0
 10
943.63908235126246
 20
-1333.7383918058638
 30
0.0
 41
1.0
 10
943.60053412735908
 20
-1333.6842913967957
 30
0.0
 41
0.9986762060692415
 10
943.55663165608303
 20
-1333.6344376823567
 30
0.0
 41
1.0
 10
943.55618769575119
 20
-1333.6339335405405
 30
0.0
 41
1.0
 10
943.55574373541936
 20
-1333.6334293987243
 30
0.0
 41
1.0
 10
943.5127291848072
 20
-1333.5845839679182
 30
0.0
 41
0.9984621642489411
 10
943.46457162802903
 20
-1333.5408006674465
 30
0.0
 41
1.0
 10
943.46432499351238
 20
-1333.5405764352831
 30
0.0
 41
1.0
 10
943.46407835899572
 20
-1333.5403522031195
 30
0.0
 41
1.0
 10
943.41641407125121
 20
-1333.4970173669753
 30
0.0
 41
0.9982724693850277
 10
943.36399543940979
 20
-1333.4595730164579
 30
0.0
 41
1.0
 10
943.31157680756803
 20
-1333.4221286659399
 30
0.0
 41
0.9981399180159398
 10
943.25499074417496
 20
-1333.3913421464965
 30
0.0
 41
1.0
 10
943.25494508209658
 20
-1333.3913173033393
 30
0.0
 41
1.0
 10
943.25489942001809
 20
-1333.3912924601823
 30
0.0
 41
1.0
 10
943.19822203246815
 20
-1333.3604562544244
 30
0.0
 41
0.998092708683597
 10
943.138176681402
 20
-1333.336839445572
 30
0.0
 41
1.0
 10
943.13773651169004
 20
-1333.3366663196969
 30
0.0
 41
1.0
 10
943.13729634197807
 20
-1333.3364931938218
 30
0.0
 41
1.0
 10
943.07637065148731
 20
-1333.3125301332188
 30
0.0
 41
0.9981411356559654
 10
943.01298213008738
 20
-1333.2961574917135
 30
0.0
 41
1.0
 10
943.01210001338677
 20
-1333.2959296495083
 30
0.0
 41
1.0
 10
943.01121789668605
 20
-1333.295701807303
 30
0.0
 41
1.0
 10
942.94606514188285
 20
-1333.2788734813864
 30
0.0
 41
0.9983031812935552
 10
942.87939771288723
 20
-1333.2697341202102
 30
0.0
 41
1.0
 10
942.87052668748538
 20
-1333.2685180015392
 30
0.0
 41
1.0
 10
942.86165566208342
 20
-1333.2673018828682
 30
0.0
 41
1.0
 10
942.80730601957839
 20
-1333.259851152877
 30
0.0
 41
0.9983887708264193
 10
942.75246217028428
 20
-1333.2586064792433
 30
0.0
 41
1.0
 10
942.74439876507051
 20
-1333.2584234813685
 30
0.0
 41
1.0
 10
942.73633535985675
 20
-1333.2582404834936
 30
0.0
 41
1.0
 10
942.69761832099516
 20
-1333.2573618056099
 30
0.0
 41
0.9998869563079209
 10
942.65889236778878
 20
-1333.2576476749696
 30
0.0
 41
1.0
 10
942.62016641454159
 20
-1333.2579335443295
 30
0.0
 41
0.999997232018938
 10
942.58144223528654
 20
-1333.2584016438593
 30
0.0
 41
1.0
 10
942.562089218751
 20
-1333.2586355839483
 30
0.0
 41
1.0
 10
942.54273620221534
 20
-1333.2588695240372
 30
0.0
 41
1.0
 10
942.46530598984748
 20
-1333.2598055037452
 30
0.0
 41
0.9997304945088436
 10
942.38800268361274
 20
-1333.2643345975307
 30
0.0
 41
1.0
 10
942.37895304190556
 20
-1333.2648648035208
 30
0.0
 41
1.0
 10
942.3699034001985
 20
-1333.2653950095109
 30
0.0
 41
1.0
 10
942.27450081055349
 20
-1333.2709845152767
 30
0.0
 41
0.9997888306415056
 10
942.1794084747122
 20
-1333.2804894797655
 30
0.0
 41
1.0
 10
942.17068741313824
 20
-1333.2813611943977
 30
0.0
 41
1.0
 10
942.16196635156427
 20
-1333.28223290903
 30
0.0
 41
1.0
 10
942.0494318925754
 20
-1333.2934813027832
 30
0.0
 41
0.998417023819027
 10
941.93887274522331
 20
-1333.3172973847193
 30
0.0
 41
1.0
 10
941.90249161423731
 20
-1333.3251344205253
 30
0.0
 41
1.0
 10
941.86611048325142
 20
-1333.3329714563313
 30
0.0
 41
1.0
 10
941.75091941483038
 20
-1333.3577853228408
 30
0.0
 41
0.9976592854198687
 10
941.64019124842548
 20
-1333.3980839999881
 30
0.0
 41
1.0
 10
941.52946308202092
 20
-1333.4383826771352
 30
0.0
 41
0.9993255074352395
 10
941.42199128323045
 20
-1333.4866995756274
 30
0.0
 41
1.0
 10
941.41736610430678
 20
-1333.4887789518273
 30
0.0
 41
1.0
 10
941.4127409253831
 20
-1333.4908583280271
 30
0.0
 41
1.0
 10
941.29601876874517
 20
-1333.5433339789192
 30
0.0
 41
0.9976475078274283
 10
941.1875714244353
 20
-1333.6112819685775
 30
0.0
 41
1.0
 10
941.16922903029922
 20
-1333.6227744473929
 30
0.0
 41
1.0
 10
941.15088663616302
 20
-1333.6342669262083
 30
0.0
 41
1.0
 10
941.06668444461206
 20
-1333.6870240469759
 30
0.0
 41
0.9995131336406542
 10
940.98593672965615
 20
-1333.7449302589282
 30
0.0
 41
1.0
 10
940.9051890147008
 20
-1333.80283647088
 30
0.0
 41
0.9995810107606381
 10
940.82792736697183
 20
-1333.8653181533459
 30
0.0
 41
1.0
 10
940.82495733576081
 20
-1333.8677200248112
 30
0.0
 41
1.0
 10
940.82198730454979
 20
-1333.8701218962765
 30
0.0
 41
1.0
 10
940.73878559439891
 20
-1333.9374073216732
 30
0.0
 41
0.9996617837954929
 10
940.65919490726128
 20
-1334.0089277772352
 30
0.0
 41
1.0
 10
940.64706415638443
 20
-1334.0198285102256
 30
0.0
 41
1.0
 10
940.63493340550758
 20
-1334.0307292432162
 30
0.0
 41
1.0
 10
940.56665787811176
 20
-1334.0920818586878
 30
0.0
 41
0.999726775005193
 10
940.5013243698304
 20
-1334.1565583952111
 30
0.0
 41
1.0
 10
940.43599086154472
 20
-1334.2210349317384
 30
0.0
 41
0.9999667288956335
 10
940.37171791838898
 20
-1334.286568738642
 30
0.0
 41
1.0
 10
940.30289047061933
 20
-1334.3567463973948
 30
0.0
 41
1.0
 10
940.2340630228498
 20
-1334.4269240561475
 30
0.0
 41
1.0
 10
940.03213518415248
 20
-1334.632813180559
 30
0.0
 41
0.9988205335174978
 10
939.85112956717217
 20
-1334.8573174126207
 30
0.0
 41
1.0
 10
939.82048960226814
 20
-1334.8953206630499
 30
0.0
 41
1.0
 10
939.78984963736411
 20
-1334.9333239134789
 30
0.0
 41
1.0
 10
939.54756409057563
 20
-1335.2338346463989
 30
0.0
 41
0.9997077826755412
 10
939.32008613947335
 20
-1335.545704440611
 30
0.0
 41
1.0
 10
939.31836272434111
 20
-1335.5480672239928
 30
0.0
 41
1.0
 10
939.31663930920899
 20
-1335.5504300073749
 30
0.0
 41
1.0
 10
939.08571452784133
 20
-1335.8670253683524
 30
0.0
 41
0.998914756707892
 10
938.88525102495748
 20
-1336.203734829538
 30
0.0
 41
1.0
 10
938.86050987965041
 20
-1336.2452914100904
 30
0.0
 41
1.0
 10
938.83576873434345
 20
-1336.2868479906431
 30
0.0
 41
1.0
 10
938.68055743570676
 20
-1336.5475493750946
 30
0.0
 41
0.9997476598182001
 10
938.53721244819849
 20
-1336.8149591236747
 30
0.0
 41
1.0
 10
938.39386746068988
 20
-1337.0823688722553
 30
0.0
 41
0.9996258967110135
 10
938.26535920876051
 20
-1337.3572168088742
 30
0.0
 41
1.0
 10
938.25215929930687
 20
-1337.3854482089785
 30
0.0
 41
1.0
 10
938.23895938985322
 20
-1337.4136796090827
 30
0.0
 41
1.0
 10
938.09875066885456
 20
-1337.7135520070335
 30
0.0
 41
0.9998735413945222
 10
937.96814932213738
 20
-1338.017731606494
 30
0.0
 41
1.0
 10
937.96470649407297
 20
-1338.0257501919677
 30
0.0
 41
1.0
 10
937.96126366600856
 20
-1338.0337687774415
 30
0.0
 41
1.0
 10
937.83754797541349
 20
-1338.3219112059696
 30
0.0
 41
0.9999377418861857
 10
937.72029317324223
 20
-1338.6127426736364
 30
0.0
 41
1.0
 10
937.60303837106585
 20
-1338.9035741413156
 30
0.0
 41
0.9999508299506575
 10
937.49157442768467
 20
-1339.1966738181472
 30
0.0
 41
1.0
 10
937.4884936590247
 20
-1339.2047748441043
 30
0.0
 41
1.0
 10
937.48541289036484
 20
-1339.2128758700615
 30
0.0
 41
1.0
 10
937.3677874096627
 20
-1339.5221775988098
 30
0.0
 41
0.999960922843368
 10
937.2556488067878
 20
-1339.8335106148279
 30
0.0
 41
1.0
 10
937.25269279643851
 20
-1339.8417174552364
 30
0.0
 41
1.0
 10
937.24973678608922
 20
-1339.849924295645
 30
0.0
 41
1.0
 10
937.13168616251278
 20
-1340.1776709924884
 30
0.0
 41
0.9999674607402643
 10
937.01893863644489
 20
-1340.507279612483
 30
0.0
 41
1.0
 10
936.96754024588495
 20
-1340.6575388081674
 30
0.0
 41
1.0
 10
936.91614185532501
 20
-1340.8077980038518
 30
0.0
 41
1.0
 10
936.80013124856725
 20
-1341.1469459863542
 30
0.0
 41
0.9999287532305647
 10
936.69224984459424
 20
-1341.4887667253372
 30
0.0
 41
1.0
 10
936.64577258844679
 20
-1341.6360292697345
 30
0.0
 41
1.0
 10
936.59929533229945
 20
-1341.7832918141316
 30
0.0
 41
1.0
 10
936.58436844058474
 20
-1341.8305874644357
 30
0.0
 41
0.9999998224285235
 10
936.56949793189301
 20
-1341.8779008725542
 30
0.0
 41
1.0
 10
934.94884179509756
 20
-1347.0259293743434
 30
0.0
 41
1.0
 10
933.32818565830212
 20
-1352.1739578761326
 30
0.0
 41
1.0
 10
932.42287721441119
 20
-1352.1739578761326
 30
0.0
 41
1.0
 10
931.51756877052026
 20
-1352.1739578761326
 30
0.0
 41
1.0
 10
933.3696531819063
 20
-1346.2868859536652
 30
0.0
 41
1.0
 10
935.22173759329235
 20
-1340.3998140311978
 30
0.0
 41
1.0
 10
935.23185935159506
 20
-1340.3677708177484
 30
0.0
 41
1.0
 10
935.3044670204448
 20
-1340.1374712759225
 30
0.0
 41
1.0
 10
935.37707468928988
 20
-1339.9071717341112
 30
0.0
 41
0.9999825681963102
 10
935.4469577284973
 20
-1339.6760308390606
 30
0.0
 41
1.0
 10
935.49524879066257
 20
-1339.5163062555494
 30
0.0
 41
1.0
 10
935.54353985282796
 20
-1339.3565816720384
 30
0.0
 41
1.0
 10
935.64069220614408
 20
-1339.0352464502666
 30
0.0
 41
0.9999672528959805
 10
935.7326310117669
 20
-1338.7123809046816
 30
0.0
 41
1.0
 10
935.73541989543696
 20
-1338.7025870592906
 30
0.0
 41
1.0
 10
935.73820877910691
 20
-1338.6927932138999
 30
0.0
 41
1.0
 10
935.82456981739438
 20
-1338.3895153590806
 30
0.0
 41
0.9999899749168832
 10
935.90821142692494
 20
-1338.0854762706429
 30
0.0
 41
1.0
 10
935.91831734594257
 20
-1338.0487410329642
 30
0.0
 41
1.0
 10
935.92842326496009
 20
-1338.0120057952856
 30
0.0
 41
1.0
 10
935.99185303645788
 20
-1337.7814371821967
 30
0.0
 41
0.9999214200503497
 10
936.04948246483741
 20
-1337.5493508399811
 30
0.0
 41
1.0
 10
936.06224831701729
 20
-1337.4979399545878
 30
0.0
 41
1.0
 10
936.07501416919729
 20
-1337.4465290691942
 30
0.0
 41
1.0
 10
936.10711189321387
 20
-1337.3172644977763
 30
0.0
 41
0.9999828681653704
 10
936.1376941452105
 20
-1337.1876330233044
 30
0.0
 41
1.0
 10
936.16827639720543
 20
-1337.0580015488385
 30
0.0
 41
0.9999389844480446
 10
936.1959873859945
 20
-1336.9277260929398
 30
0.0
 41
1.0
 10
936.20312512971509
 20
-1336.8941699891009
 30
0.0
 41
1.0
 10
936.21026287343557
 20
-1336.860613885262
 30
0.0
 41
1.0
 10
936.25224934966468
 20
-1336.6632262216892
 30
0.0
 41
0.9998933699440634
 10
936.28845361406809
 20
-1336.4646966139251
 30
0.0
 41
1.0
 10
936.28982643928407
 20
-1336.4571685932301
 30
0.0
 41
1.0
 10
936.29119926450016
 20
-1336.4496405725351
 30
0.0
 41
1.0
 10
936.33014917933474
 20
-1336.2360549233858
 30
0.0
 41
0.9996850305193779
 10
936.35833285559386
 20
-1336.020783917947
 30
0.0
 41
1.0
 10
936.36032788896296
 20
-1336.0055455638262
 30
0.0
 41
1.0
 10
936.36232292233205
 20
-1335.9903072097056
 30
0.0
 41
1.0
 10
936.38973078479171
 20
-1335.7809619825478
 30
0.0
 41
0.9994697936706802
 10
936.40345534401104
 20
-1335.5702767872176
 30
0.0
 41
1.0
 10
936.40393241326069
 20
-1335.5629533150063
 30
0.0
 41
1.0
 10
936.40440948251046
 20
-1335.5556298427953
 30
0.0
 41
1.0
 10
936.41717990323082
 20
-1335.3595915918854
 30
0.0
 41
0.9991804893136589
 10
936.41405158695784
 20
-1335.1631627419133
 30
0.0
 41
1.0
 10
936.41396770813571
 20
-1335.1578959405006
 30
0.0
 41
1.0
 10
936.41388382931359
 20
-1335.1526291390876
 30
0.0
 41
1.0
 10
936.41092327068509
 20
-1334.9667338919396
 30
0.0
 41
0.9988448329321524
 10
936.39013172506134
 20
-1334.7819813021065
 30
0.0
 41
1.0
 10
936.38853765135821
 20
-1334.7678164463343
 30
0.0
 41
1.0
 10
936.38694357765507
 20
-1334.7536515905622
 30
0.0
 41
1.0
 10
936.36934017943747
 20
-1334.5972287122725
 30
0.0
 41
0.998550320945869
 10
936.33502390713807
 20
-1334.4436045281839
 30
0.0
 41
1.0
 10
936.32743791506732
 20
-1334.4096442007854
 30
0.0
 41
1.0
 10
936.31985192299646
 20
-1334.3756838733871
 30
0.0
 41
1.0
 10
936.30070763483911
 20
-1334.2899803440976
 30
0.0
 41
0.999103678137127
 10
936.2743827731872
 20
-1334.2062032567696
 30
0.0
 41
1.0
 10
936.27040054773101
 20
-1334.1935300942584
 30
0.0
 41
1.0
 10
936.26641832227483
 20
-1334.1808569317473
 30
0.0
 41
1.0
 10
936.24805791153585
 20
-1334.122426169444
 30
0.0
 41
0.9998874504367591
 10
936.22795270385768
 20
-1334.0645725672214
 30
0.0
 41
1.0
 10
936.2078474961794
 20
-1334.0067189649983
 30
0.0
 41
0.9994041637543277
 10
936.18379888324512
 20
-1333.9503902611089
 30
0.0
 41
1.0
 10
936.17960209902117
 20
-1333.9405601966268
 30
0.0
 41
1.0
 10
936.17540531479722
 20
-1333.9307301321451
 30
0.0
 41
1.0
 10
936.14752648380193
 20
-1333.8654299661762
 30
0.0
 41
0.9991846840701917
 10
936.11447012710926
 20
-1333.802591934897
 30
0.0
 41
1.0
 10
936.11333352071381
 20
-1333.8004313184415
 30
0.0
 41
1.0
 10
936.11219691431836
 20
-1333.798270701986
 30
0.0
 41
1.0
 10
936.08141377041636
 20
-1333.7397539036169
 30
0.0
 41
0.9989253167922398
 10
936.04534434636116
 20
-1333.6843389752264
 30
0.0
 41
1.0
 10
936.04429022168711
 20
-1333.6827194804646
 30
0.0
 41
1.0
 10
936.04323609701316
 20
-1333.6810999857025
 30
0.0
 41
1.0
 10
936.00927492230721
 20
-1333.6289240468375
 30
0.0
 41
0.9986467172836678
 10
935.97007776966893
 20
-1333.5805580132067
 30
0.0
 41
1.0
 10
935.96920364096786
 20
-1333.5794794109279
 30
0.0
 41
1.0
 10
935.96832951226679
 20
-1333.5784008086493
 30
0.0
 41
1.0
 10
935.93088061703111
 20
-1333.5321919795765
 30
0.0
 41
0.9984001104266106
 10
935.8884538865143
 20
-1333.4905068722082
 30
0.0
 41
1.0
 10
935.8878667484048
 20
-1333.489929997327
 30
0.0
 41
1.0
 10
935.88727961029542
 20
-1333.4893531224457
 30
0.0
 41
1.0
 10
935.84602715599658
 20
-1333.4488217648391
 30
0.0
 41
0.9982442159082056
 10
935.80027105466161
 20
-1333.4134532035794
 30
0.0
 41
1.0
 10
935.80005625919978
 20
-1333.4132871709362
 30
0.0
 41
1.0
 10
935.79984146373795
 20
-1333.4131211382928
 30
0.0
 41
1.0
 10
935.75451495332584
 20
-1333.3780846423192
 30
0.0
 41
0.9982450060836938
 10
935.70536397425417
 20
-1333.3486528592855
 30
0.0
 41
1.0
 10
935.65621299518307
 20
-1333.3192210762522
 30
0.0
 41
0.9983922639634258
 10
935.60404668901799
 20
-1333.2955414415981
 30
0.0
 41
1.0
 10
935.60381981169326
 20
-1333.2954384561167
 30
0.0
 41
1.0
 10
935.60359293436863
 20
-1333.2953354706351
 30
0.0
 41
1.0
 10
935.55097287355466
 20
-1333.2714498650184
 30
0.0
 41
0.9986517147151848
 10
935.49615990068673
 20
-1333.2531487458964
 30
0.0
 41
1.0
 10
935.49548197925901
 20
-1333.252922399465
 30
0.0
 41
1.0
 10
935.49480405783129
 20
-1333.2526960530336
 30
0.0
 41
1.0
 10
935.43863524210758
 20
-1333.2339422410487
 30
0.0
 41
0.9989435598955134
 10
935.38098185495539
 20
-1333.2204245388141
 30
0.0
 41
1.0
 10
935.37990173537401
 20
-1333.2201712885612
 30
0.0
 41
1.0
 10
935.37882161579273
 20
-1333.2199180383082
 30
0.0
 41
1.0
 10
935.319007989478
 20
-1333.2058938355676
 30
0.0
 41
0.9992249241239745
 10
935.25827648058089
 20
-1333.1966184928526
 30
0.0
 41
1.0
 10
935.25686279228967
 20
-1333.1964025844447
 30
0.0
 41
1.0
 10
935.25544910399856
 20
-1333.1961866760369
 30
0.0
 41
1.0
 10
935.19189021851855
 20
-1333.1864795165061
 30
0.0
 41
0.9994396597833948
 10
935.12782428198057
 20
-1333.1810465941603
 30
0.0
 41
1.0
 10
935.10868361450355
 20
-1333.1794234264416
 30
0.0
 41
1.0
 10
935.08954294702653
 20
-1333.1778002587232
 30
0.0
 41
1.0
 10
934.98719567553519
 20
-1333.1691210009403
 30
0.0
 41
0.9987693403122404
 10
934.88449205194945
 20
-1333.1706240643928
 30
0.0
 41
1.0
 10
934.87423771772205
 20
-1333.170774136167
 30
0.0
 41
1.0
 10
934.86398338349477
 20
-1333.1709242079412
 30
0.0
 41
1.0
 10
934.75442761731483
 20
-1333.1725275522285
 30
0.0
 41
0.9989753644966589
 10
934.64546561729708
 20
-1333.1840305591536
 30
0.0
 41
1.0
 10
934.5365036172791
 20
-1333.1955335660789
 30
0.0
 41
0.9983190067304677
 10
934.42960480631291
 20
-1333.2195685578663
 30
0.0
 41
1.0
 10
934.42070385470754
 20
-1333.2215698364287
 30
0.0
 41
1.0
 10
934.41180290310217
 20
-1333.223571114991
 30
0.0
 41
1.0
 10
934.28710218892525
 20
-1333.251608663903
 30
0.0
 41
0.9985539388304173
 10
934.16613243524898
 20
-1333.2928723399477
 30
0.0
 41
1.0
 10
934.16378700428709
 20
-1333.2936723837643
 30
0.0
 41
1.0
 10
934.16144157332519
 20
-1333.2944724275806
 30
0.0
 41
1.0
 10
934.03578095772548
 20
-1333.3373361912581
 30
0.0
 41
0.9988468746493665
 10
933.91481061542413
 20
-1333.392054276321
 30
0.0
 41
1.0
 10
933.91162779343654
 20
-1333.3934939508804
 30
0.0
 41
1.0
 10
933.90844497144894
 20
-1333.39493362544
 30
0.0
 41
1.0
 10
933.78110898517195
 20
-1333.4525310596218
 30
0.0
 41
0.9991322885919013
 10
933.65900840111522
 20
-1333.5205263918037
 30
0.0
 41
1.0
 10
933.64140639006951
 20
-1333.5303285937946
 30
0.0
 41
1.0
 10
933.6238043790238
 20
-1333.5401307957854
 30
0.0
 41
1.0
 10
933.52162769796894
 20
-1333.5970309115651
 30
0.0
 41
0.9993860037849588
 10
933.423686693896
 20
-1333.660946927153
 30
0.0
 41
1.0
 10
933.41806838104526
 20
-1333.6646134218468
 30
0.0
 41
1.0
 10
933.41245006819463
 20
-1333.6682799165405
 30
0.0
 41
1.0
 10
933.32574568982398
 20
-1333.7248629427404
 30
0.0
 41
0.9998821494954122
 10
933.24081931400974
 20
-1333.7840811728181
 30
0.0
 41
1.0
 10
933.1558929381988
 20
-1333.8432994028938
 30
0.0
 41
0.9997976482744074
 10
933.07341730779888
 20
-1333.9058858109327
 30
0.0
 41
1.0
 10
933.0587810429912
 20
-1333.9169925007145
 30
0.0
 41
1.0
 10
933.04414477818352
 20
-1333.9280991904964
 30
0.0
 41
1.0
 10
932.93239661816938
 20
-1334.0128989780983
 30
0.0
 41
0.999809163080035
 10
932.82404634014154
 20
-1334.1019993288
 30
0.0
 41
1.0
 10
932.81104058766459
 20
-1334.1126944292457
 30
0.0
 41
1.0
 10
932.79803483518776
 20
-1334.1233895296914
 30
0.0
 41
1.0
 10
932.66367305220217
 20
-1334.2338800812879
 30
0.0
 41
0.999503511231748
 10
932.53653717443706
 20
-1334.3526138983045
 30
0.0
 41
1.0
 10
932.52688986405224
 20
-1334.36162364446
 30
0.0
 41
1.0
 10
932.5172425536673
 20
-1334.3706333906157
 30
0.0
 41
1.0
 10
932.39381949090239
 20
-1334.4858997623712
 30
0.0
 41
0.9994630424299179
 10
932.2782110851183
 20
-1334.6090025056064
 30
0.0
 41
1.0
 10
932.27452824634543
 20
-1334.612924085121
 30
0.0
 41
1.0
 10
932.27084540757244
 20
-1334.6168456646358
 30
0.0
 41
1.0
 10
932.16260267933308
 20
-1334.732105248843
 30
0.0
 41
0.9995160693750003
 10
932.06173664980236
 20
-1334.8538726667143
 30
0.0
 41
1.0
 10
932.05980292972163
 20
-1334.8562070909225
 30
0.0
 41
1.0
 10
932.05786920964101
 20
-1334.8585415151306
 30
0.0
 41
1.0
 10
931.96087062027095
 20
-1334.9756400845863
 30
0.0
 41
0.9996561470514485
 10
931.87014440160453
 20
-1335.0976628470362
 30
0.0
 41
1.0
 10
931.86398673570466
 20
-1335.1059446360755
 30
0.0
 41
1.0
 10
931.85782906980489
 20
-1335.114226425115
 30
0.0
 41
1.0
 10
931.7794181829405
 20
-1335.2196856094829
 30
0.0
 41
0.9998349055175018
 10
931.70489090100637
 20
-1335.3279241931486
 30
0.0
 41
1.0
 10
931.63036361908121
 20
-1335.4361627768019
 30
0.0
 41
0.9999728109567746
 10
931.55744072317952
 20
-1335.5454887023438
 30
0.0
 41
1.0
 10
931.55612550776004
 20
-1335.5474604718579
 30
0.0
 41
1.0
 10
931.55481029234056
 20
-1335.5494322413722
 30
0.0
 41
1.0
 10
931.47925696558605
 20
-1335.6627017059636
 30
0.0
 41
0.9999972147356913
 10
931.40423915519227
 20
-1335.7763265488295
 30
0.0
 41
1.0
 10
931.39926761259017
 20
-1335.7838566372711
 30
0.0
 41
1.0
 10
931.39429606998817
 20
-1335.7913867257128
 30
0.0
 41
1.0
 10
931.30933517436961
 20
-1335.9200717454928
 30
0.0
 41
0.9999371979003704
 10
931.22727982496701
 20
-1336.0506286592674
 30
0.0
 41
1.0
 10
931.22377094060403
 20
-1336.0562115873345
 30
0.0
 41
1.0
 10
931.22026205624115
 20
-1336.0617945154013
 30
0.0
 41
1.0
 10
931.13118893811065
 20
-1336.203517285313
 30
0.0
 41
0.9998272025610834
 10
931.04744554722652
 20
-1336.3484531620591
 30
0.0
 41
1.0
 10
931.03223037520445
 20
-1336.3747862765124
 30
0.0
 41
1.0
 10
931.01701520318238
 20
-1336.4011193909657
 30
0.0
 41
1.0
 10
930.90284146825365
 20
-1336.598721496619
 30
0.0
 41
0.9995217214838131
 10
930.80110177869938
 20
-1336.8030038244781
 30
0.0
 41
1.0
 10
930.79345821606262
 20
-1336.8183512741848
 30
0.0
 41
1.0
 10
930.78581465342575
 20
-1336.8336987238913
 30
0.0
 41
1.0
 10
930.69890936083539
 20
-1337.0081951819741
 30
0.0
 41
0.9998269762607489
 10
930.6185548945648
 20
-1337.1858034686945
 30
0.0
 41
1.0
 10
930.53820042829489
 20
-1337.3634117554136
 30
0.0
 41
0.9998944747388798
 10
930.4630396337318
 20
-1337.5432794810383
 30
0.0
 41
1.0
 10
930.45808596413724
 20
-1337.5551341359637
 30
0.0
 41
1.0
 10
930.45313229454268
 20
-1337.5669887908891
 30
0.0
 41
1.0
 10
930.37248523399137
 20
-1337.7599857309042
 30
0.0
 41
0.9999506734410262
 10
930.29568770508899
 20
-1337.9545465357576
 30
0.0
 41
1.0
 10
930.28108773981626
 20
-1337.9915344575682
 30
0.0
 41
1.0
 10
930.26648777454363
 20
-1338.0285223793787
 30
0.0
 41
1.0
 10
930.21889017617639
 20
-1338.1491073406364
 30
0.0
 41
0.9999912393934113
 10
930.17230373216285
 20
-1338.2700865433094
 30
0.0
 41
1.0
 10
930.1257172881426
 20
-1338.3910657459992
 30
0.0
 41
0.9999927113991453
 10
930.0800559937511
 20
-1338.512397153494
 30
0.0
 41
1.0
 10
930.06608756235096
 20
-1338.5495141354995
 30
0.0
 41
1.0
 10
930.05211913095081
 20
-1338.586631117505
 30
0.0
 41
1.0
 10
929.9785209737579
 20
-1338.7821964890136
 30
0.0
 41
0.9999487550948938
 10
929.90889734878726
 20
-1338.9792118541934
 30
0.0
 41
1.0
 10
929.88530373885123
 20
-1339.0459751644835
 30
0.0
 41
1.0
 10
929.86171012891532
 20
-1339.1127384747738
 30
0.0
 41
1.0
 10
929.76702449454547
 20
-1339.3806723095968
 30
0.0
 41
0.9999808436946469
 10
929.67566290590366
 20
-1339.6497577408622
 30
0.0
 41
1.0
 10
929.58430131727164
 20
-1339.9188431720991
 30
0.0
 41
0.9999873932927033
 10
929.49564660855606
 20
-1340.1888325271045
 30
0.0
 41
1.0
 10
929.47555425168071
 20
-1340.2500218598752
 30
0.0
 41
1.0
 10
929.45546189480547
 20
-1340.3112111926462
 30
0.0
 41
1.0
 10
929.32662247234055
 20
-1340.7035792131896
 30
0.0
 41
0.9999794883037185
 10
929.20281968737834
 20
-1341.0975654194815
 30
0.0
 41
1.0
 10
929.1916674279687
 20
-1341.1330560296301
 30
0.0
 41
1.0
 10
929.18051516855894
 20
-1341.1685466397789
 30
0.0
 41
1.0
 10
929.03795700464639
 20
-1341.6222193919134
 30
0.0
 41
0.9999982761731662
 10
928.89708456460289
 20
-1342.0764184141262
 30
0.0
 41
1.0
 10
927.30894423203029
 20
-1347.1251881451294
 30
0.0
 41
1.0
 10
925.72080389945768
 20
-1352.1739578761326
 30
0.0
 41
1.0
 10
924.77205328798129
 20
-1352.1739578761326
 30
0.0
 41
1.0
 10
923.82330267650491
 20
-1352.1739578761326
 30
0.0
 41
1.0
 10
927.06158716265804
 20
-1341.8466356761865
 30
0.0
 41
1.0
 10
930.29987164881129
 20
-1331.5193134762403
 30
0.0
 41
1.0
  0
LWPOLYLINE
  5
62
100
AcDbEntity
  8
0
370
              15
390
0
  6
Continuous
 62
               7
100
AcDbPolyline
 90
      232
 70
             128
 10
904.59632587498425
 20
-1332.603656307756
 42
0.0004370800697991
 10
904.5434487010408
 20
-1332.6723229468444
 10
904.50416446978477
 20
-1332.7234300599084
 42
0.0030481992175739
 10
904.37382575265565
 20
-1332.895151752266
 10
904.33531408091517
 20
-1332.9465385360409
 42
0.0042058245754892
 10
904.13132903024484
 20
-1333.2235442811152
 10
904.07892390774464
 20
-1333.2959771278952
 42
0.0120948898746028
 10
903.78287999098131
 20
-1333.7267267324471
 10
903.68668749186179
 20
-1333.8742074676684
 42
0.0141601263947513
 10
903.38304344493929
 20
-1334.3698768044046
 10
903.34350617751534
 20
-1334.438720771833
 42
0.0071131081299427
 10
903.13823385427486
 20
-1334.8082235706745
 42
0.0068458791003174
 10
902.94335432742503
 20
-1335.1833151341639
 10
902.93654246497408
 20
-1335.1968768478741
 42
0.0064120880289223
 10
902.73840021493447
 20
-1335.6043013227829
 10
902.73086552941277
 20
-1335.6203131795141
 42
0.0058857236448083
 10
902.52811013754467
 20
-1336.0646892905411
 10
902.51993521124712
 20
-1336.0831794441833
 42
0.0053189741890886
 10
902.31123089857783
 20
-1336.5691429181054
 10
902.30248309289823
 20
-1336.5901247962975
 42
0.0047503650418229
 10
902.08650936674837
 20
-1337.1223242295048
 10
902.07724111839934
 20
-1337.145800605615
 42
0.0042071762169229
 10
901.85269373467156
 20
-1337.7288941996851
 10
901.84294433232299
 20
-1337.7548603745545
 42
0.0036680086484977
 10
901.60848968900757
 20
-1338.3934957590948
 10
901.59828190916312
 20
-1338.42194429343
 42
0.0032573142627999
 10
901.35264962319297
 20
-1339.1207969531933
 10
901.28399910235566
 20
-1339.3202600372365
 42
0.0026133366648819
 10
900.93555390359779
 20
-1340.3501233209083
 10
900.87229711611872
 20
-1340.5403541562362
 42
0.0020592950737172
 10
900.65843404712996
 20
-1341.1924578089145
 10
900.65538225597174
 20
-1341.2018942973089
 42
0.0025609928536041
 10
900.45356175448103
 20
-1341.8370395196901
 10
900.4509703873639
 20
-1341.8453418606
 42
0.0031362356241646
 10
900.26147960167737
 20
-1342.4661047168102
 10
900.25934855875039
 20
-1342.4732460230198
 42
0.0037229918028203
 10
900.08254817182365
 20
-1343.0822313249953
 10
900.08086958261526
 20
-1343.0881782151764
 42
0.0043077623706413
 10
899.91712878055216
 20
-1343.6879969469387
 42
0.0047654161822263
 10
899.76430005804048
 20
-1344.2906830358238
 10
899.72983544919703
 20
-1344.432244812991
 42
0.011296936844503
 10
899.53397109105208
 20
-1345.3239369736225
 10
899.50596470195683
 20
-1345.466765019713
 42
0.0130056762572353
 10
899.30512745831015
 20
-1346.6537060913579
 10
899.28458770816349
 20
-1346.7977842048324
 42
0.0138721532145957
 10
899.18088470362522
 20
-1347.7046136906606
 10
899.1615892157173
 20
-1347.9281114125872
 42
0.0071254697013998
 10
899.12824256979479
 20
-1348.3912984214328
 10
899.12328159563219
 20
-1348.4773024159801
 42
0.002888179920178
 10
899.10814330234166
 20
-1348.7690441258358
 42
0.006029729713426
 10
899.09821110256621
 20
-1349.0609930619462
 10
899.09714882089895
 20
-1349.1093854338842
 42
0.0229523164149889
 10
899.10487984868473
 20
-1349.4321402801672
 10
899.10910562220499
 20
-1349.4925438141822
 42
0.0123673300662717
 10
899.12818426872343
 20
-1349.6936645393582
 42
0.012857767448102
 10
899.15737965913002
 20
-1349.8935623892867
 10
899.16450553251673
 20
-1349.934891203882
 42
0.0285717853770663
 10
899.22899953421199
 20
-1350.2130073551937
 10
899.24266805787863
 20
-1350.2596621246714
 42
0.031628309915651
 10
899.35847863779304
 20
-1350.5786766264982
 10
899.36152732954861
 20
-1350.5856629988239
 42
0.0338984824238197
 10
899.51095904051579
 20
-1350.8732289630129
 10
899.51326776988617
 20
-1350.8770199922897
 42
0.0350228718357741
 10
899.69562806055922
 20
-1351.1340719769657
 10
899.69651331233399
 20
-1351.1351510547295
 42
0.0347476747526579
 10
899.91093799957434
 20
-1351.3623361019497
 42
0.0331337701911539
 10
900.15418132532079
 20
-1351.5584647640271
 10
900.15528142383687
 20
-1351.5592374671996
 42
0.0305233319079946
 10
900.42382611940991
 20
-1351.7243656372909
 10
900.4270561639114
 20
-1351.7260896491539
 42
0.0273744481160284
 10
900.71960987548709
 20
-1351.8622277930447
 10
900.72471441062328
 20
-1351.8642713775139
 42
0.0240964406194028
 10
901.04019148627106
 20
-1351.9732551037957
 10
901.04677481547901
 20
-1351.9751798434702
 42
0.0209636179815163
 10
901.38417496813292
 20
-1352.0586479914027
 10
901.39180742858025
 20
-1352.0601999044038
 42
0.0181388704692253
 10
901.75012982057876
 20
-1352.1196159976178
 10
901.75841066895691
 20
-1352.1206821814349
 42
0.0156086547586117
 10
902.13659803314579
 20
-1352.1574183680116
 10
902.17979328547779
 20
-1352.1602568704907
 42
0.0137148329024585
 10
902.50746643077161
 20
-1352.172777125742
 10
902.55340262071343
 20
-1352.1732715588571
 42
0.0051057823891939
 10
902.78954820728984
 20
-1352.1734018132663
 42
0.0052256693311645
 10
903.02564549107444
 20
-1352.1686529888018
 10
903.09587227481791
 20
-1352.1665060227879
 42
0.0161507179048212
 10
903.47160935291924
 20
-1352.1428556524613
 10
903.49162231329228
 20
-1352.1409454571738
 42
0.0101216737832246
 10
903.90564953478167
 20
-1352.0929525268084
 10
903.93970282420969
 20
-1352.0883048299986
 42
0.0245291776401665
 10
904.41649247976341
 20
-1351.9992297519216
 10
904.50131579528625
 20
-1351.9790338315761
 42
0.0143509212555683
 10
904.85794689922443
 20
-1351.8832291977976
 42
0.0156557857041786
 10
905.20816296395083
 20
-1351.7662179819793
 10
905.21566417844633
 20
-1351.7634478202247
 42
0.0170137333626193
 10
905.57226017412518
 20
-1351.6177902053546
 10
905.57936409653519
 20
-1351.6146023697897
 42
0.0183105364409703
 10
905.93871376470281
 20
-1351.4372673279647
 10
905.94566052934022
 20
-1351.4335168930934
 42
0.0194899958151807
 10
906.30414127031997
 20
-1351.2215379112054
 10
906.31115514966086
 20
-1351.2170125689076
 42
0.0204869852950445
 10
906.66516945175624
 20
-1350.9674925538206
 10
906.67243506034185
 20
-1350.9619124884734
 42
0.0212516938556666
 10
907.018424991448
 20
-1350.6720084915808
 10
907.06494168552433
 20
-1350.6295411814865
 42
0.0215248918251471
 10
907.32496785441322
 20
-1350.3707769024907
 10
907.36999758879085
 20
-1350.3219327811441
 42
0.0114578554945069
 10
907.52478974247106
 20
-1350.1461098476825
 10
907.53598427846237
 20
-1350.1327910841314
 42
0.0061531305135825
 10
907.66245892445215
 20
-1349.9785015508314
 42
0.0006325587120629
 10
907.78683740858332
 20
-1349.8224981751814
 10
907.80987754365538
 20
-1349.7935246544962
 42
0.0041897761554223
 10
907.97833294762052
 20
-1349.5780052784442
 10
908.0367950675203
 20
-1349.5019039314493
 42
0.0092993880040216
 10
908.31340699475095
 20
-1349.1276251675558
 10
908.39580148794062
 20
-1349.0116881640001
 42
0.0159321727083017
 10
908.7424079705853
 20
-1348.4895139432408
 10
908.78676410597836
 20
-1348.4178343789843
 42
0.0085547317021975
 10
909.02127587130008
 20
-1348.0239594297661
 42
0.0084601156888836
 10
909.24225204873653
 20
-1347.6223325807448
 10
909.25036752257256
 20
-1347.606972898461
 42
0.0081429654288137
 10
909.47361679301696
 20
-1347.1672513859062
 10
909.48247695719408
 20
-1347.149072543901
 42
0.007657458133204
 10
909.70888446776189
 20
-1346.6658896686458
 10
909.71836410848448
 20
-1346.6448251903448
 42
0.0070682724198872
 10
909.94880901629028
 20
-1346.1127878855659
 10
909.95879930027297
 20
-1346.0887986965517
 42
0.0064559514449016
 10
910.19413250845537
 20
-1345.5024864300308
 10
910.20454186661959
 20
-1345.4755515045906
 42
0.0058311413905863
 10
910.44558860338464
 20
-1344.8295194102011
 10
910.45634368076992
 20
-1344.7996350690466
 42
0.0052312425820078
 10
910.70392495881674
 20
-1344.0884326551943
 10
910.71496879519054
 20
-1344.0556059431424
 42
0.0046680544796336
 10
910.9698972229213
 20
-1343.2737796273993
 10
911.01188937297275
 20
-1343.1407963900824
 42
0.004166685644544
 10
911.21517538536364
 20
-1342.4778276150901
 10
911.25283782604561
 20
-1342.3512465073752
 42
0.0015170975161345
 10
911.37402440444043
 20
-1341.9393781559424
 42
-0.0004887993115892
 10
911.49436417760171
 20
-1341.5272597437702
 10
911.57084143505858
 20
-1341.2663023579594
 42
0.0002583378929194
 10
911.84405600521154
 20
-1340.3322456544768
 10
911.92582885467436
 20
-1340.0521463952834
 42
0.000663616967142
 10
912.11969661471085
 20
-1339.3847934716102
 10
912.12479326907157
 20
-1339.3671618886829
 42
0.0010589131324638
 10
912.30624196997451
 20
-1338.7344305456813
 10
912.31122404044822
 20
-1338.7169176386851
 42
0.0015655524460597
 10
912.47949424763783
 20
-1338.1183009594604
 10
912.48432444805633
 20
-1338.1009088005119
 42
0.002164044047703
 10
912.63861442003872
 20
-1337.5358817825065
 10
912.64324863947445
 20
-1337.518617052491
 42
0.0028763871854535
 10
912.78276435752173
 20
-1336.9866491016655
 10
912.78715022168501
 20
-1336.9695251235264
 42
0.0037310511942125
 10
912.91110691352583
 20
-1336.4700775294871
 10
912.91518213381778
 20
-1336.4531172582292
 42
0.0047652197773197
 10
913.02280603432325
 20
-1335.9856394899366
 10
913.02649663364775
 20
-1335.9688799347814
 42
0.0060276699299018
 10
913.11702673280024
 20
-1335.5328041396424
 10
913.1202454230887
 20
-1335.5163029253367
 42
0.0075824337758629
 10
913.19293473250491
 20
-1335.111035760907
 10
913.19558010988533
 20
-1335.0948808134553
 42
0.0095130624610486
 10
913.24969534551633
 20
-1334.7197914603848
 10
913.25668156939776
 20
-1334.6638579022783
 42
0.0121054653227063
 10
913.28327289997685
 20
-1334.3989620737943
 10
913.28413938973665
 20
-1334.3875586308611
 42
0.0069050827389133
 10
913.29922820777415
 20
-1334.1446174040209
 10
913.3003635074424
 20
-1334.121091146983
 42
0.0169063976686008
 10
913.30319078642287
 20
-1333.9248984196754
 10
913.30202013489156
 20
-1333.8645626583202
 42
0.0052007732902867
 10
913.29976668629865
 20
-1333.7889692681742
 42
0.0054038123306267
 10
913.27980317445883
 20
-1333.6689509721591
 10
913.27471731858941
 20
-1333.6402924855831
 42
0.0112050460468246
 10
913.23933295653046
 20
-1333.4639660472421
 10
913.22150799449014
 20
-1333.3844244605232
 42
0.0240764468009701
 10
913.13061062834379
 20
-1333.0541874250214
 10
913.1120518655307
 20
-1332.9975672600287
 42
0.0256812331833848
 10
912.968688945341
 20
-1332.625843053771
 10
912.96327951951935
 20
-1332.6137117187807
 42
0.026836050121424
 10
912.79385227866976
 20
-1332.28271858476
 10
912.78831587103537
 20
-1332.2731989144488
 42
0.0274670231731511
 10
912.59611489462145
 20
-1331.9809115395306
 10
912.59073359465924
 20
-1331.9736323919897
 42
0.0275035967098132
 10
912.37916071509699
 20
-1331.7181165016852
 10
912.37409121413066
 20
-1331.7126374140551
 42
0.0269557673521437
 10
912.14668767069088
 20
-1331.4919951280924
 10
912.14194461290833
 20
-1331.4878651736317
 42
0.025912480220992
 10
911.9023897814775
 20
-1331.3001746464793
 10
911.89785893629551
 20
-1331.2969891441489
 42
0.0245162153005956
 10
911.64994258320075
 20
-1331.1402561350387
 10
911.64541603687599
 20
-1331.1376959378376
 42
0.0229282588837823
 10
911.39299648004919
 20
-1331.009827745339
 10
911.38821598621303
 20
-1331.0076754455772
 42
0.0212984135700765
 10
911.13517803375066
 20
-1330.9064765283347
 10
911.12987374878207
 20
-1330.9046129655751
 42
0.0197555462340629
 10
910.88009541105816
 20
-1330.8277975476099
 42
0.0183511896789339
 10
910.62516668559556
 20
-1330.7702146406443
 10
910.53880148887163
 20
-1330.7540118502591
 42
0.0338057877144022
 10
910.25329413961174
 20
-1330.7202034451188
 10
910.16228873456828
 20
-1330.7156237898573
 42
0.0091990524513203
 10
910.0564416259358
 20
-1330.7122479339355
 42
0.002833398075789
 10
909.95052770996767
 20
-1330.7114198264189
 10
909.94961225689349
 20
-1330.7114178565948
 42
-0.002361982780501
 10
909.84186624179608
 20
-1330.7106770155162
 10
909.80546107161172
 20
-1330.7102547090531
 42
0.0008824598485298
 10
909.62490508169446
 20
-1330.7084789308142
 10
909.58104364935593
 20
-1330.7081249692892
 42
0.0038132665763906
 10
909.31276075348512
 20
-1330.7080060332225
 10
909.29622709868363
 20
-1330.7081247993663
 42
0.0060665569335522
 10
908.9949466070974
 20
-1330.713945098787
 10
908.98069627506698
 20
-1330.7143934067547
 42
0.0080356953336722
 10
908.65123755872389
 20
-1330.7300611288217
 10
908.6391675436405
 20
-1330.730829711762
 42
0.0098996399105945
 10
908.28640445898736
 20
-1330.7603149409604
 10
908.27635874961493
 20
-1330.7613552371583
 42
0.0117740981366489
 10
907.90520189126732
 20
-1330.808647484688
 10
907.89697919478363
 20
-1330.809892601259
 42
0.0137435215135065
 10
907.51239037529808
 20
-1330.8789895748207
 10
907.50573333617513
 20
-1330.8803754710541
 42
0.0158359869387155
 10
907.11273624237162
 20
-1330.975267559535
 10
907.1073230555055
 20
-1330.9767575004053
 42
0.0180554124029828
 10
906.71100801089278
 20
-1331.1013955166443
 10
906.70645122280973
 20
-1331.1030115529104
 42
0.0203657431284668
 10
906.3119737049991
 20
-1331.261271894426
 10
906.30783016599105
 20
-1331.2631335158683
 42
0.0226819684651565
 10
905.92039410978634
 20
-1331.4587760945399
 10
905.91619431876927
 20
-1331.4611416864591
 42
0.024863498460645
 10
905.54101237758812
 20
-1331.697768332406
 10
905.49281744880625
 20
-1331.7316253742301
 42
0.0267044190887879
 10
905.21852475188757
 20
-1331.9470657500999
 42
0.0139303002195357
 10
904.96235758595037
 20
-1332.1843045910105
 10
904.95750420022785
 20
-1332.1890572538721
 42
0.0283460963445129
 10
904.71343160600031
 20
-1332.4567879143176
 10
904.6737631008441
 20
-1332.5055894917905
 42
0.0070695364826285
 10
904.59632587498425
 20
-1332.603656307756
 42
0.0070695364826285
  0
LWPOLYLINE
  5
63
100
AcDbEntity
  8
0
370
              15
390
0
  6
Continuous
 62
               7
100
AcDbPolyline
 90
      226
 70
             128
 10
901.06750543773785
 20
-1348.3252451139397
 42
-0.002627763661857
 10
901.06742755393782
 20
-1348.2584731881891
 10
901.06764491216984
 20
-1348.2053179707534
 42
-0.0088680296718044
 10
901.07142152846291
 20
-1348.0323021883496
 10
901.07376788757529
 20
-1347.9730221628968
 42
-0.0077381705617038
 10
901.08981399833829
 20
-1347.6817616671019
 10
901.09068190951155
 20
-1347.6694734334135
 42
-0.0068872530537659
 10
901.11731398925883
 20
-1347.3542516813536
 10
901.11851821344578
 20
-1347.342010702326
 42
-0.0062130021489666
 10
901.15611193027405
 20
-1347.0031410110839
 10
901.15761583380868
 20
-1346.9909671391711
 42
-0.0056726929665583
 10
901.20653769331068
 20
-1346.6287719170593
 10
901.20831113895542
 20
-1346.6166781168122
 42
-0.0052341884495975
 10
901.26892172521445
 20
-1346.2314848612996
 10
901.27093971399199
 20
-1346.2194799313017
 42
-0.0049768450174071
 10
901.34367839541767
 20
-1345.8116353638736
 10
901.36792741014017
 20
-1345.6830873808633
 42
-0.0089029805625281
 10
901.50500826193343
 20
-1345.0213119334478
 10
901.53775363725345
 20
-1344.8762805029173
 42
-0.0080318257099082
 10
901.76730225159429
 20
-1343.9305708710629
 10
901.77928717804241
 20
-1343.8844402358734
 42
-0.0074265721318132
 10
902.06329871689161
 20
-1342.8543756574959
 10
902.08317826000632
 20
-1342.7862415969132
 42
-0.0069711922704744
 10
902.41048283851569
 20
-1341.7199738565757
 10
902.47043478562284
 20
-1341.5339524982001
 42
-0.0052070422893824
 10
902.69986001088046
 20
-1340.8466804211739
 10
902.71714120304352
 20
-1340.7966531405832
 42
-0.0009167004447409
 10
902.92023309034221
 20
-1340.2121972924026
 42
-0.0025162726944069
 10
903.12733072059632
 20
-1339.6291560282632
 10
903.16455533241515
 20
-1339.5260064823206
 42
-0.0028212681459968
 10
903.41273125137332
 20
-1338.8502758501634
 10
903.42256201412101
 20
-1338.8239684054945
 42
-0.0031964916822978
 10
903.65885427178625
 20
-1338.2037636433597
 10
903.66848872578646
 20
-1338.1789536532133
 42
-0.003628183645229
 10
903.89359468688644
 20
-1337.6115129723232
 10
903.90303309705018
 20
-1337.5882155408051
 42
-0.0041269166833405
 10
904.11765079370309
 20
-1337.070774644842
 10
904.15028375012582
 20
-1336.9938961984762
 42
-0.0047472213058377
 10
904.30732855567749
 20
-1336.6334747305978
 10
904.31422263687898
 20
-1336.6180541332808
 42
-0.0025651659996234
 10
904.46258067073586
 20
-1336.2907260775173
 42
-0.0057144634996202
 10
904.61633036450985
 20
-1335.9659164041493
 10
904.64436106990411
 20
-1335.9084080217692
 42
-0.0065388068374359
 10
904.82782809764819
 20
-1335.5441755250959
 10
904.83628655341988
 20
-1335.5279159457396
 42
-0.0074510843028616
 10
905.01246879930454
 20
-1335.2012276646035
 10
905.02064846984456
 20
-1335.1865868873188
 42
-0.0084648979856583
 10
905.19028232293567
 20
-1334.8946778763734
 10
905.19813844942382
 20
-1334.8816708847226
 42
-0.0095638542805224
 10
905.36197389701795
 20
-1334.621782012744
 10
905.36944884069158
 20
-1334.6104126512857
 42
-0.0107191626803515
 10
905.52825042107725
 20
-1334.3798014167444
 10
905.53526715480371
 20
-1334.3700653243861
 42
-0.0118458573910902
 10
905.68981525332083
 20
-1334.1659931290692
 42
-0.012918451818619
 10
905.8542678769237
 20
-1333.9698326128976
 10
905.88441264928258
 20
-1333.9357065340025
 42
-0.0217742579642932
 10
906.06102497162078
 20
-1333.752499763749
 10
906.07177051607766
 20
-1333.7422829305494
 42
-0.0097266568655337
 10
906.23782813493699
 20
-1333.5904353561086
 42
-0.0187720905728109
 10
906.41217571082154
 20
-1333.4483665027233
 10
906.44288170149798
 20
-1333.4252074203253
 42
-0.017942820752072
 10
906.67530242149678
 20
-1333.2626552432116
 10
906.67895474841396
 20
-1333.2602913083231
 42
-0.0170047877699502
 10
906.91471838594293
 20
-1333.1188307941725
 10
906.91850137469044
 20
-1333.1167324891358
 42
-0.0160190788363567
 10
907.15540992232479
 20
-1332.9950811871481
 42
-0.0151102861495054
 10
907.39944170477384
 20
-1332.8883984110926
 10
907.45182820698324
 20
-1332.8673582781989
 42
-0.0271945441881808
 10
907.81049076604029
 20
-1332.7454934674934
 10
907.87955556652742
 20
-1332.7261439262272
 42
-0.023759659402726
 10
908.29535241355211
 20
-1332.630693214245
 10
908.36341526728256
 20
-1332.6184385261183
 42
-0.0213715440554118
 10
908.64929019872784
 20
-1332.5794914946084
 10
908.70943736494382
 20
-1332.5739017799076
 42
-0.0101465655820695
 10
908.87692989693994
 20
-1332.5617582366435
 10
908.88627028313556
 20
-1332.5612713216465
 42
-0.010037591087991
 10
909.03542438370073
 20
-1332.5564955037212
 10
909.04568365337718
 20
-1332.5563730647068
 42
-0.0103625633384436
 10
909.17439164803591
 20
-1332.5575044982334
 10
909.19665729930318
 20
-1332.5581618566982
 42
-0.0115689250225736
 10
909.28070803683079
 20
-1332.5625913629433
 42
-0.0072438037434797
 10
909.36454631627225
 20
-1332.5701805626927
 10
909.38134682574275
 20
-1332.5719471054167
 42
-0.0217917313139367
 10
909.49791658905451
 20
-1332.5893669981374
 10
909.56351667962497
 20
-1332.6021136065524
 42
-0.0332943556758809
 10
909.7679088446514
 20
-1332.6561538978592
 10
909.79808141320382
 20
-1332.6663219749785
 42
-0.0184824084793735
 10
909.93658646966696
 20
-1332.7187729903642
 42
-0.0198002050692993
 10
910.07066081016603
 20
-1332.7816570505634
 10
910.07254744754323
 20
-1332.7826348374433
 42
-0.0212242342982324
 10
910.20468638994589
 20
-1332.8583975762369
 10
910.20650168548855
 20
-1332.8595433784449
 42
-0.0226090605795186
 10
910.33500558671119
 20
-1332.9490230220101
 10
910.33685002844777
 20
-1332.9504352749968
 42
-0.0238457052245872
 10
910.4600321097405
 20
-1333.0544311708591
 10
910.46198483829971
 20
-1333.0562460486253
 42
-0.0248160564147562
 10
910.57818634559999
 20
-1333.1755206498337
 10
910.58028997900237
 20
-1333.1779059835385
 42
-0.0254109591459934
 10
910.68789519686845
 20
-1333.313194369503
 10
910.6901432187824
 20
-1333.3163359179034
 42
-0.0255528488295252
 10
910.78758989757898
 20
-1333.4683629721369
 10
910.78992099749576
 20
-1333.4724445837455
 42
-0.0252146793206938
 10
910.87570202350537
 20
-1333.6419468297436
 10
910.87800426266244
 20
-1333.6471289116553
 42
-0.0244265635948048
 10
910.95065895642313
 20
-1333.8348754836993
 10
910.95990535789247
 20
-1333.8627409020398
 42
-0.0231319612896142
 10
911.00582813688436
 20
-1334.0260419488413
 42
-0.0112130424360246
 10
911.04046415942298
 20
-1334.1922455490317
 10
911.04166668453513
 20
-1334.1987421359174
 42
-0.0210527881227358
 10
911.06735315990591
 20
-1334.3797977813585
 10
911.07086375472772
 20
-1334.415203329906
 42
-0.0190029892425727
 10
911.08630522827229
 20
-1334.6687391761759
 10
911.08711520471638
 20
-1334.7042147905472
 42
-0.0137974553659721
 10
911.08556635188074
 20
-1335.0292461972836
 10
911.08472089692555
 20
-1335.0553649418641
 42
-0.0081336634218494
 10
911.06986156170274
 20
-1335.3607124094729
 42
-0.0073526923578256
 10
911.0455530283283
 20
-1335.6654606537559
 10
911.04429160454538
 20
-1335.678797328424
 42
-0.0066886138698002
 10
911.00855601849833
 20
-1336.0093833719252
 10
911.00689892902892
 20
-1336.0230049909126
 42
-0.0061359187359396
 10
910.95904832698022
 20
-1336.3797689709977
 10
910.95701082590517
 20
-1336.3936637738418
 42
-0.0056698610064979
 10
910.89636049513729
 20
-1336.7769423426853
 10
910.89395506181518
 20
-1336.7911014619106
 42
-0.0052721077277576
 10
910.81982286101743
 20
-1337.2012288015781
 10
910.81705971217377
 20
-1337.2156454369745
 42
-0.0049289272178544
 10
910.72876559407393
 20
-1337.652953948096
 10
910.72565309939114
 20
-1337.6676228009128
 42
-0.0047415956709917
 10
910.62241510785759
 20
-1338.1324195583288
 10
910.5876468974991
 20
-1338.2822266537064
 42
-0.0084404470903388
 10
910.39763045392726
 20
-1339.0424506782372
 10
910.39150376594159
 20
-1339.0653148023907
 42
-0.0039635940257975
 10
910.1700500816587
 20
-1339.8663036666342
 10
910.15667328647805
 20
-1339.9132352832301
 42
-0.0072475040838171
 10
909.88922639861858
 20
-1340.8024549996089
 10
909.81901407179259
 20
-1341.024195349577
 42
-0.0051345458829883
 10
909.5322546997287
 20
-1341.8985205374038
 10
909.51072843295651
 20
-1341.9619468045478
 42
-0.0019150016601091
 10
909.2551950260945
 20
-1342.7054959247598
 10
909.24872742169816
 20
-1342.7240833896813
 42
-0.0021524362753526
 10
909.00024937063449
 20
-1343.4284092113892
 10
908.99103894992845
 20
-1343.4541627897174
 42
-0.0024331286820841
 10
908.75478369090206
 20
-1344.1047620978086
 10
908.74573573835096
 20
-1344.1293054041644
 42
-0.0027449721784658
 10
908.52112116751607
 20
-1344.7284352830875
 10
908.51223116012522
 20
-1344.7517578729362
 42
-0.0031083229769963
 10
908.29868867351388
 20
-1345.3016819105196
 10
908.2899525418328
 20
-1345.3237716263914
 42
-0.0035311343282895
 10
908.08691135624645
 20
-1345.8267547521073
 10
908.0783260171022
 20
-1345.8475974756093
 42
-0.0040245640949912
 10
907.88521421330438
 20
-1346.3059067982099
 10
907.87677809970262
 20
-1346.325486166279
 42
-0.0046015135852397
 10
907.69302180653756
 20
-1346.7413911959243
 10
907.68473562870508
 20
-1346.7596883353858
 42
-0.0052768638270867
 10
907.50975810975365
 20
-1347.1354612196467
 10
907.50162589913009
 20
-1347.1524545581829
 42
-0.0060672675643335
 10
907.33484628636074
 20
-1347.4903701813041
 10
907.32687680588185
 20
-1347.5060354402963
 42
-0.0069904648866937
 10
907.16770841187781
 20
-1347.808371246965
 10
907.15991701226608
 20
-1347.822681796194
 42
-0.0080637022763247
 10
907.00776515192115
 20
-1348.0917170993453
 10
907.00017611929286
 20
-1348.1046449649411
 42
-0.0093006455671446
 10
906.85443544275836
 20
-1348.3426593634492
 10
906.84708477601635
 20
-1348.3541773326199
 42
-0.0107060778050952
 10
906.7071362325762
 20
-1348.5634476500015
 10
906.70007446429338
 20
-1348.5735331925721
 42
-0.0122723111405004
 10
906.56528074609855
 20
-1348.7563265220565
 10
906.56495452255001
 20
-1348.756746909859
 42
-0.0141836319641338
 10
906.42137291957033
 20
-1348.9313166676957
 10
906.41442516391783
 20
-1348.939291667961
 42
-0.0175957477207675
 10
906.27451899588368
 20
-1349.0889125563651
 42
-0.0080466359667425
 10
906.12705523084094
 20
-1349.2312350845282
 10
906.08102068633605
 20
-1349.2742555226075
 42
-0.0269600260398421
 10
905.82774044035625
 20
-1349.4865787811143
 10
905.76117330406089
 20
-1349.536530195737
 42
-0.0178362839758901
 10
905.52122881440027
 20
-1349.703548121993
 10
905.51398384339655
 20
-1349.7082166342
 42
-0.0174650732648243
 10
905.2776476459585
 20
-1349.849077599157
 42
-0.0169240130160951
 10
905.03218140009892
 20
-1349.9733698589355
 10
904.98619524454307
 20
-1349.9947318145016
 42
-0.0318883036841081
 10
904.63584438892201
 20
-1350.131070124012
 10
904.56747885375717
 20
-1350.1527707444875
 42
-0.0284435909899725
 10
904.19142872746727
 20
-1350.248988179962
 10
904.15627056696906
 20
-1350.2558817757904
 42
-0.0243909341019005
 10
903.84282710604975
 20
-1350.3016028068205
 10
903.79254637927966
 20
-1350.3064483537219
 42
-0.0196639292930407
 10
903.57695080175131
 20
-1350.3186966392354
 10
903.52512673058277
 20
-1350.3195998999722
 42
-0.0100501510670947
 10
903.41270344892359
 20
-1350.3192995016193
 10
903.38104358762007
 20
-1350.318578429735
 42
-0.0019752031166231
 10
903.33195125089821
 20
-1350.3172662695245
 10
903.32919094767999
 20
-1350.3171815776982
 42
0.0065378751991807
 10
903.28561437292137
 20
-1350.3164146864831
 42
-0.0167974694634621
 10
903.24208354998916
 20
-1350.3147547879571
 10
903.23800421072747
 20
-1350.3144617770622
 42
-0.0081283276280933
 10
903.18644441298738
 20
-1350.3099147834243
 10
903.17470483911029
 20
-1350.3086868658461
 42
-0.0126703440184251
 10
903.09998654331741
 20
-1350.2989520747747
 10
903.07719867564015
 20
-1350.2953938188593
 42
-0.0117852088426261
 10
902.95765968980265
 20
-1350.2738308237012
 10
902.90227923804468
 20
-1350.2624872834676
 42
-0.0251774592297392
 10
902.67543519903836
 20
-1350.2039892740349
 10
902.63071600918363
 20
-1350.1900224546985
 42
-0.0146525199882727
 10
902.44432302164728
 20
-1350.1257559275011
 42
-0.016692943586721
 10
902.26234536552317
 20
-1350.0499487944478
 10
902.25768873424749
 20
-1350.0478238938326
 42
-0.0191684358439037
 10
902.07250510299923
 20
-1349.9545878100432
 10
902.06917251724121
 20
-1349.9527465624892
 42
-0.0221181781806163
 10
901.8858622133373
 20
-1349.8406130641172
 10
901.88351240933059
 20
-1349.8390287661273
 42
-0.0254984685376553
 10
901.70722225894531
 20
-1349.7066176161579
 10
901.6847401112434
 20
-1349.6878653072217
 42
-0.0292492648804158
 10
901.55997117240031
 20
-1349.5707725075786
 42
-0.0159048957500434
 10
901.44613117494987
 20
-1349.442752515979
 10
901.44481238437083
 20
-1349.4411709029594
 42
-0.0343813379557752
 10
901.34217512274461
 20
-1349.2992995771897
 10
901.31068359138339
 20
-1349.2487961850952
 42
-0.0369117275705544
 10
901.22479108948653
 20
-1349.0853189441473
 42
-0.0191751379916413
 10
901.15759770393061
 20
-1348.9129143381444
 10
901.15583438017006
 20
-1348.9078209934664
 42
-0.0378178042221968
 10
901.10603966138581
 20
-1348.7188802173855
 10
901.10004436565544
 20
-1348.6863195991875
 42
-0.0184846046474589
 10
901.07932716636105
 20
-1348.544566778643
 42
-0.0179866351323981
 10
901.06899416128738
 20
-1348.4016759655599
 10
901.06893771884165
 20
-1348.4001182789498
 42
-0.0085497186139518
 10
901.06750543773785
 20
-1348.3252451139397
 42
-0.0085497186139518
  0
ENDBLK
  5
64
100
AcDbEntity
  8
template
390
0
100
AcDbBlockEnd
  0
BLOCK
  5
65
100
AcDbEntity
  8
notes
390
0
100
AcDbBlockBegin
  2
*D3
 70
               1
 10
0.0
 20
0.0
 30
0.0
  3
*D3
  1

  0
LINE
  5
66
100
AcDbEntity
  8
0
370
              -2
390
0
  6
Continuous
 62
               0
100
AcDbLine
 10
1455.4575594079311
 20
941.34009210039846
 30
0.0
 11
1327.9575594079311
 21
941.34009210039846
 31
0.0
  0
LINE
  5
67
100
AcDbEntity
  8
0
370
              -2
390
0
  6
Continuous
 62
               0
100
AcDbLine
 10
1454.4575594079311
 20
1041.3400921003984
 30
0.0
 11
1327.9575594079311
 21
1041.3400921003984
 31
0.0
  0
LINE
  5
68
100
AcDbEntity
  8
0
370
              -2
390
0
  6
Continuous
 62
               0
100
AcDbLine
 10
1327.9575594079311
 20
941.34009210039846
 30
0.0
 11
1327.9575594079311
 21
1041.3400921003984
 31
0.0
  0
CIRCLE
  5
69
102
{ACAD_REACTORS
330
6A
102
}
100
AcDbEntity
  8
0
370
              -2
390
0
  6
Continuous
 62
               0
100
AcDbCircle
 10
1327.9575594079311
 20
941.34009210039846
 30
0.0
 40
1.9998779296875
  0
HATCH
  5
6A
100
AcDbEntity
  8
0
370
              -2
390
0
  6
Continuous
 62
               0
100
AcDbHatch
 10
0.0
 20
0.0
 30
0.0
210
0.0
220
0.0
230
1.0
  2
SOLID
 70
               1
 71
               1
 91
        1
 92
        1
 93
        1
 72
               2
 10
1327.9575594079311
 20
941.34009210039846
 40
1.9998779296875
 50
0.0
 51
360.0
 73
               0
 97
        1
330
69
 75
               0
 76
               1
 98
        1
 10
0.0
 20
0.0
  0
CIRCLE
  5
6B
102
{ACAD_REACTORS
330
6C
102
}
100
AcDbEntity
  8
0
370
              -2
390
0
  6
Continuous
 62
               0
100
AcDbCircle
 10
1327.9575594079311
 20
1041.3400921003984
 30
0.0
 40
1.9998779296875
  0
HATCH
  5
6C
100
AcDbEntity
  8
0
370
              -2
390
0
  6
Continuous
 62
               0
100
AcDbHatch
 10
0.0
 20
0.0
 30
0.0
210
0.0
220
0.0
230
1.0
  2
SOLID
 70
               1
 71
               1
 91
        1
 92
        1
 93
        1
 72
               2
 10
1327.9575594079311
 20
1041.3400921003984
 40
1.9998779296875
 50
0.0
 51
360.0
 73
               0
 97
        1
330
6B
 75
               0
 76
               1
 98
        1
 10
0.0
 20
0.0
  0
MTEXT
  5
6D
100
AcDbEntity
  8
0
390
0
 62
               0
100
AcDbMText
 10
1294.0799422204309
 20
967.52759041822299
 30
0.0
 40
24.432617187500004
 41
0.0
 71
               1
 72
               1
  1
100
  7
ＭＳ ゴシック
 11
0.0
 21
1.0
 31
0.0
 73
               1
 44
0.7828267384257843
  0
POINT
  5
6E
100
AcDbEntity
  8
Defpoints
370
               0
390
0
 62
               0
100
AcDbPoint
 10
1479.4575594079311
 20
1041.3400921003984
 30
0.0
  0
POINT
  5
6F
100
AcDbEntity
  8
Defpoints
370
               0
390
0
 62
               0
100
AcDbPoint
 10
1480.4575594079311
 20
941.34009210039846
 30
0.0
  0
POINT
  5
70
100
AcDbEntity
  8
Defpoints
370
               0
390
0
 62
               0
100
AcDbPoint
 10
1327.9575594079311
 20
941.34009210039846
 30
0.0
  0
ENDBLK
  5
71
100
AcDbEntity
  8
notes
390
0
100
AcDbBlockEnd
  0
BLOCK
  5
72
100
AcDbEntity
  8
notes
390
0
100
AcDbBlockBegin
  2
*D4
 70
               1
 10
0.0
 20
0.0
 30
0.0
  3
*D4
  1

  0
LINE
  5
73
100
AcDbEntity
  8
0
370
              -2
390
0
  6
Continuous
 62
               0
100
AcDbLine
 10
1454.4575594079311
 20
1041.3400921003984
 30
0.0
 11
1327.9575594079311
 21
1041.3400921003984
 31
0.0
  0
LINE
  5
74
100
AcDbEntity
  8
0
370
              -2
390
0
  6
Continuous
 62
               0
100
AcDbLine
 10
1455.4575594079311
 20
1141.3400921003984
 30
0.0
 11
1327.9575594079311
 21
1141.3400921003984
 31
0.0
  0
LINE
  5
75
100
AcDbEntity
  8
0
370
              -2
390
0
  6
Continuous
 62
               0
100
AcDbLine
 10
1327.9575594079311
 20
1041.3400921003984
 30
0.0
 11
1327.9575594079311
 21
1141.3400921003984
 31
0.0
  0
CIRCLE
  5
76
102
{ACAD_REACTORS
330
77
102
}
100
AcDbEntity
  8
0
370
              -2
390
0
  6
Continuous
 62
               0
100
AcDbCircle
 10
1327.9575594079311
 20
1041.3400921003984
 30
0.0
 40
1.9998779296875
  0
HATCH
  5
77
100
AcDbEntity
  8
0
370
              -2
390
0
  6
Continuous
 62
               0
100
AcDbHatch
 10
0.0
 20
0.0
 30
0.0
210
0.0
220
0.0
230
1.0
  2
SOLID
 70
               1
 71
               1
 91
        1
 92
        1
 93
        1
 72
               2
 10
1327.9575594079311
 20
1041.3400921003984
 40
1.9998779296875
 50
0.0
 51
360.0
 73
               0
 97
        1
330
76
 75
               0
 76
               1
 98
        1
 10
0.0
 20
0.0
  0
CIRCLE
  5
78
102
{ACAD_REACTORS
330
79
102
}
100
AcDbEntity
  8
0
370
              -2
390
0
  6
Continuous
 62
               0
100
AcDbCircle
 10
1327.9575594079311
 20
1141.3400921003984
 30
0.0
 40
1.9998779296875
  0
HATCH
  5
79
100
AcDbEntity
  8
0
370
              -2
390
0
  6
Continuous
 62
               0
100
AcDbHatch
 10
0.0
 20
0.0
 30
0.0
210
0.0
220
0.0
230
1.0
  2
SOLID
 70
               1
 71
               1
 91
        1
 92
        1
 93
        1
 72
               2
 10
1327.9575594079311
 20
1141.3400921003984
 40
1.9998779296875
 50
0.0
 51
360.0
 73
               0
 97
        1
330
78
 75
               0
 76
               1
 98
        1
 10
0.0
 20
0.0
  0
MTEXT
  5
7A
100
AcDbEntity
  8
0
390
0
 62
               0
100
AcDbMText
 10
1294.0799422204309
 20
1067.5275904182229
 30
0.0
 40
24.432617187500004
 41
0.0
 71
               1
 72
               1
  1
100
  7
ＭＳ ゴシック
 11
0.0
 21
1.0
 31
0.0
 73
               1
 44
0.7828267384257843
  0
POINT
  5
7B
100
AcDbEntity
  8
Defpoints
370
               0
390
0
 62
               0
100
AcDbPoint
 10
1480.4575594079311
 20
1141.3400921003984
 30
0.0
  0
POINT
  5
7C
100
AcDbEntity
  8
Defpoints
370
               0
390
0
 62
               0
100
AcDbPoint
 10
1479.4575594079311
 20
1041.3400921003984
 30
0.0
  0
POINT
  5
7D
100
AcDbEntity
  8
Defpoints
370
               0
390
0
 62
               0
100
AcDbPoint
 10
1327.9575594079311
 20
1041.3400921003984
 30
0.0
  0
ENDBLK
  5
7E
100
AcDbEntity
  8
notes
390
0
100
AcDbBlockEnd
  0
BLOCK
  5
7F
100
AcDbEntity
  8
notes
390
0
100
AcDbBlockBegin
  2
*D5
 70
               1
 10
0.0
 20
0.0
 30
0.0
  3
*D5
  1

  0
LINE
  5
80
100
AcDbEntity
  8
0
370
              -2
390
0
  6
Continuous
 62
               0
100
AcDbLine
 10
1826.9564690546367
 20
571.34009210039835
 30
0.0
 11
2008.2876517251823
 21
571.34009210039835
 31
0.0
  0
LINE
  5
81
100
AcDbEntity
  8
0
370
              -2
390
0
  6
Continuous
 62
               0
100
AcDbLine
 10
1826.9564690546367
 20
1511.3400921003984
 30
0.0
 11
2008.2876517251823
 21
1511.3400921003984
 31
0.0
  0
LINE
  5
82
100
AcDbEntity
  8
0
370
              -2
390
0
  6
Continuous
 62
               0
100
AcDbLine
 10
2008.2876517251823
 20
571.34009210039835
 30
0.0
 11
2008.2876517251823
 21
1511.3400921003984
 31
0.0
  0
CIRCLE
  5
83
102
{ACAD_REACTORS
330
84
102
}
100
AcDbEntity
  8
0
370
              -2
390
0
  6
Continuous
 62
               0
100
AcDbCircle
 10
2008.2876517251823
 20
571.34009210039835
 30
0.0
 40
1.9998779296875
  0
HATCH
  5
84
100
AcDbEntity
  8
0
370
              -2
390
0
  6
Continuous
 62
               0
100
AcDbHatch
 10
0.0
 20
0.0
 30
0.0
210
0.0
220
0.0
230
1.0
  2
SOLID
 70
               1
 71
               1
 91
        1
 92
        1
 93
        1
 72
               2
 10
2008.2876517251823
 20
571.34009210039835
 40
1.9998779296875
 50
0.0
 51
360.0
 73
               0
 97
        1
330
83
 75
               0
 76
               1
 98
        1
 10
0.0
 20
0.0
  0
CIRCLE
  5
85
102
{ACAD_REACTORS
330
86
102
}
100
AcDbEntity
  8
0
370
              -2
390
0
  6
Continuous
 62
               0
100
AcDbCircle
 10
2008.2876517251823
 20
1511.3400921003984
 30
0.0
 40
1.9998779296875
  0
HATCH
  5
86
100
AcDbEntity
  8
0
370
              -2
390
0
  6
Continuous
 62
               0
100
AcDbHatch
 10
0.0
 20
0.0
 30
0.0
210
0.0
220
0.0
230
1.0
  2
SOLID
 70
               1
 71
               1
 91
        1
 92
        1
 93
        1
 72
               2
 10
2008.2876517251823
 20
1511.3400921003984
 40
1.9998779296875
 50
0.0
 51
360.0
 73
               0
 97
        1
330
85
 75
               0
 76
               1
 98
        1
 10
0.0
 20
0.0
  0
MTEXT
  5
87
100
AcDbEntity
  8
0
390
0
 62
               0
100
AcDbMText
 10
1974.4100345376821
 20
1017.5275904182228
 30
0.0
 40
24.432617187500004
 41
0.0
 71
               1
 72
               1
  1
940
  7
ＭＳ ゴシック
 11
0.0
 21
1.0
 31
0.0
 73
               1
 44
0.7828267384257843
  0
POINT
  5
88
100
AcDbEntity
  8
Defpoints
370
               0
390
0
 62
               0
100
AcDbPoint
 10
1801.9564690546367
 20
1511.3400921003984
 30
0.0
  0
POINT
  5
89
100
AcDbEntity
  8
Defpoints
370
               0
390
0
 62
               0
100
AcDbPoint
 10
1801.9564690546367
 20
571.34009210039835
 30
0.0
  0
POINT
  5
8A
100
AcDbEntity
  8
Defpoints
370
               0
390
0
 62
               0
100
AcDbPoint
 10
2008.2876517251823
 20
571.34009210039835
 30
0.0
  0
ENDBLK
  5
8B
100
AcDbEntity
  8
notes
390
0
100
AcDbBlockEnd
  0
BLOCK
  5
8C
100
AcDbEntity
  8
notes
390
0
100
AcDbBlockBegin
  2
*D6
 70
               1
 10
0.0
 20
0.0
 30
0.0
  3
*D6
  1

  0
LINE
  5
8D
100
AcDbEntity
  8
0
370
              -2
390
0
  6
Continuous
 62
               0
100
AcDbLine
 10
1490.2565208797714
 20
541.34009210039835
 30
0.0
 11
1277.9575594079311
 21
541.34009210039835
 31
0.0
  0
LINE
  5
8E
100
AcDbEntity
  8
0
370
              -2
390
0
  6
Continuous
 62
               0
100
AcDbLine
 10
1490.2565208797914
 20
1541.3400921003981
 30
0.0
 11
1277.9575594079311
 21
1541.3400921003981
 31
0.0
  0
LINE
  5
8F
100
AcDbEntity
  8
0
370
              -2
390
0
  6
Continuous
 62
               0
100
AcDbLine
 10
1277.9575594079311
 20
541.34009210039835
 30
0.0
 11
1277.9575594079311
 21
1541.3400921003981
 31
0.0
  0
CIRCLE
  5
90
102
{ACAD_REACTORS
330
91
102
}
100
AcDbEntity
  8
0
370
              -2
390
0
  6
Continuous
 62
               0
100
AcDbCircle
 10
1277.9575594079311
 20
541.34009210039835
 30
0.0
 40
1.9998779296875
  0
HATCH
  5
91
100
AcDbEntity
  8
0
370
              -2
390
0
  6
Continuous
 62
               0
100
AcDbHatch
 10
0.0
 20
0.0
 30
0.0
210
0.0
220
0.0
230
1.0
  2
SOLID
 70
               1
 71
               1
 91
        1
 92
        1
 93
        1
 72
               2
 10
1277.9575594079311
 20
541.34009210039835
 40
1.9998779296875
 50
0.0
 51
360.0
 73
               0
 97
        1
330
90
 75
               0
 76
               1
 98
        1
 10
0.0
 20
0.0
  0
CIRCLE
  5
92
102
{ACAD_REACTORS
330
93
102
}
100
AcDbEntity
  8
0
370
              -2
390
0
  6
Continuous
 62
               0
100
AcDbCircle
 10
1277.9575594079311
 20
1541.3400921003981
 30
0.0
 40
1.9998779296875
  0
HATCH
  5
93
100
AcDbEntity
  8
0
370
              -2
390
0
  6
Continuous
 62
               0
100
AcDbHatch
 10
0.0
 20
0.0
 30
0.0
210
0.0
220
0.0
230
1.0
  2
SOLID
 70
               1
 71
               1
 91
        1
 92
        1
 93
        1
 72
               2
 10
1277.9575594079311
 20
1541.3400921003981
 40
1.9998779296875
 50
0.0
 51
360.0
 73
               0
 97
        1
330
92
 75
               0
 76
               1
 98
        1
 10
0.0
 20
0.0
  0
MTEXT
  5
94
100
AcDbEntity
  8
0
390
0
 62
               0
100
AcDbMText
 10
1244.0799422204309
 20
1009.5900921003984
 30
0.0
 40
24.432617187500004
 41
0.0
 71
               1
 72
               1
  1
1000
  7
ＭＳ ゴシック
 11
0.0
 21
1.0
 31
0.0
 73
               1
 44
0.7828267384257843
  0
POINT
  5
95
100
AcDbEntity
  8
Defpoints
370
               0
390
0
 62
               0
100
AcDbPoint
 10
1515.2565208797914
 20
1541.3400921003981
 30
0.0
  0
POINT
  5
96
100
AcDbEntity
  8
Defpoints
370
               0
390
0
 62
               0
100
AcDbPoint
 10
1515.2565208797714
 20
541.34009210039835
 30
0.0
  0
POINT
  5
97
100
AcDbEntity
  8
Defpoints
370
               0
390
0
 62
               0
100
AcDbPoint
 10
1277.9575594079311
 20
541.34009210039835
 30
0.0
  0
ENDBLK
  5
98
100
AcDbEntity
  8
notes
390
0
100
AcDbBlockEnd
  0
BLOCK
  5
99
100
AcDbEntity
  8
notes
390
0
100
AcDbBlockBegin
  2
*D7
 70
               1
 10
0.0
 20
0.0
 30
0.0
  3
*D7
  1

  0
LINE
  5
9A
100
AcDbEntity
  8
0
370
              -2
390
0
  6
Continuous
 62
               0
100
AcDbLine
 10
1428.0825911282245
 20
615.82089194960531
 30
0.0
 11
1428.0825911282245
 21
441.34009210039835
 31
0.0
  0
LINE
  5
9B
100
AcDbEntity
  8
0
370
              -2
390
0
  6
Continuous
 62
               0
100
AcDbLine
 10
1542.9575594079311
 20
518.91539841567351
 30
0.0
 11
1542.9575594079311
 21
441.34009210039835
 31
0.0
  0
LINE
  5
9C
100
AcDbEntity
  8
0
370
              -2
390
0
  6
Continuous
 62
               0
100
AcDbLine
 10
1428.0825911282245
 20
441.34009210039835
 30
0.0
 11
1542.9575594079311
 21
441.34009210039835
 31
0.0
  0
CIRCLE
  5
9D
102
{ACAD_REACTORS
330
9E
102
}
100
AcDbEntity
  8
0
370
              -2
390
0
  6
Continuous
 62
               0
100
AcDbCircle
 10
1428.0825911282245
 20
441.34009210039835
 30
0.0
 40
1.9998779296875
  0
HATCH
  5
9E
100
AcDbEntity
  8
0
370
              -2
390
0
  6
Continuous
 62
               0
100
AcDbHatch
 10
0.0
 20
0.0
 30
0.0
210
0.0
220
0.0
230
1.0
  2
SOLID
 70
               1
 71
               1
 91
        1
 92
        1
 93
        1
 72
               2
 10
1428.0825911282245
 20
441.34009210039835
 40
1.9998779296875
 50
0.0
 51
360.0
 73
               0
 97
        1
330
9D
 75
               0
 76
               1
 98
        1
 10
0.0
 20
0.0
  0
CIRCLE
  5
9F
102
{ACAD_REACTORS
330
A0
102
}
100
AcDbEntity
  8
0
370
              -2
390
0
  6
Continuous
 62
               0
100
AcDbCircle
 10
1542.9575594079311
 20
441.34009210039835
 30
0.0
 40
1.9998779296875
  0
HATCH
  5
A0
100
AcDbEntity
  8
0
370
              -2
390
0
  6
Continuous
 62
               0
100
AcDbHatch
 10
0.0
 20
0.0
 30
0.0
210
0.0
220
0.0
230
1.0
  2
SOLID
 70
               1
 71
               1
 91
        1
 92
        1
 93
        1
 72
               2
 10
1542.9575594079311
 20
441.34009210039835
 40
1.9998779296875
 50
0.0
 51
360.0
 73
               0
 97
        1
330
9F
 75
               0
 76
               1
 98
        1
 10
0.0
 20
0.0
  0
MTEXT
  5
A1
100
AcDbEntity
  8
0
390
0
 62
               0
100
AcDbMText
 10
1461.7075735859023
 20
475.2177092878984
 30
0.0
 40
24.432617187500004
 41
0.0
 71
               1
 72
               1
  1
115
  7
ＭＳ ゴシック
 73
               1
 44
0.7828267384257843
  0
POINT
  5
A2
100
AcDbEntity
  8
Defpoints
370
               0
390
0
 62
               0
100
AcDbPoint
 10
1542.9575594079311
 20
543.91539841567351
 30
0.0
  0
POINT
  5
A3
100
AcDbEntity
  8
Defpoints
370
               0
390
0
 62
               0
100
AcDbPoint
 10
1428.0825911282245
 20
640.82089194960531
 30
0.0
  0
POINT
  5
A4
100
AcDbEntity
  8
Defpoints
370
               0
390
0
 62
               0
100
AcDbPoint
 10
1428.0825911282245
 20
441.34009210039835
 30
0.0
  0
ENDBLK
  5
A5
100
AcDbEntity
  8
notes
390
0
100
AcDbBlockEnd
  0
BLOCK
  5
A6
100
AcDbEntity
  8
notes
390
0
100
AcDbBlockBegin
  2
*D8
 70
               1
 10
0.0
 20
0.0
 30
0.0
  3
*D8
  1

  0
LINE
  5
A7
100
AcDbEntity
  8
0
370
              -2
390
0
  6
Continuous
 62
               0
100
AcDbLine
 10
1542.9575594079311
 20
518.91539841567351
 30
0.0
 11
1542.9575594079311
 21
441.34009210039835
 31
0.0
  0
LINE
  5
A8
100
AcDbEntity
  8
0
370
              -2
390
0
  6
Continuous
 62
               0
100
AcDbLine
 10
1883.0850221707781
 20
621.86881705508563
 30
0.0
 11
1883.0850221707781
 21
441.34009210039835
 31
0.0
  0
LINE
  5
A9
100
AcDbEntity
  8
0
370
              -2
390
0
  6
Continuous
 62
               0
100
AcDbLine
 10
1542.9575594079311
 20
441.34009210039835
 30
0.0
 11
1883.0850221707781
 21
441.34009210039835
 31
0.0
  0
CIRCLE
  5
AA
102
{ACAD_REACTORS
330
AB
102
}
100
AcDbEntity
  8
0
370
              -2
390
0
  6
Continuous
 62
               0
100
AcDbCircle
 10
1542.9575594079311
 20
441.34009210039835
 30
0.0
 40
1.9998779296875
  0
HATCH
  5
AB
100
AcDbEntity
  8
0
370
              -2
390
0
  6
Continuous
 62
               0
100
AcDbHatch
 10
0.0
 20
0.0
 30
0.0
210
0.0
220
0.0
230
1.0
  2
SOLID
 70
               1
 71
               1
 91
        1
 92
        1
 93
        1
 72
               2
 10
1542.9575594079311
 20
441.34009210039835
 40
1.9998779296875
 50
0.0
 51
360.0
 73
               0
 97
        1
330
AA
 75
               0
 76
               1
 98
        1
 10
0.0
 20
0.0
  0
CIRCLE
  5
AC
102
{ACAD_REACTORS
330
AD
102
}
100
AcDbEntity
  8
0
370
              -2
390
0
  6
Continuous
 62
               0
100
AcDbCircle
 10
1883.0850221707781
 20
441.34009210039835
 30
0.0
 40
1.9998779296875
  0
HATCH
  5
AD
100
AcDbEntity
  8
0
370
              -2
390
0
  6
Continuous
 62
               0
100
AcDbHatch
 10
0.0
 20
0.0
 30
0.0
210
0.0
220
0.0
230
1.0
  2
SOLID
 70
               1
 71
               1
 91
        1
 92
        1
 93
        1
 72
               2
 10
1883.0850221707781
 20
441.34009210039835
 40
1.9998779296875
 50
0.0
 51
360.0
 73
               0
 97
        1
330
AC
 75
               0
 76
               1
 98
        1
 10
0.0
 20
0.0
  0
MTEXT
  5
AE
100
AcDbEntity
  8
0
390
0
 62
               0
100
AcDbMText
 10
1689.208789107179
 20
475.2177092878984
 30
0.0
 40
24.432617187500004
 41
0.0
 71
               1
 72
               1
  1
340
  7
ＭＳ ゴシック
 73
               1
 44
0.7828267384257843
  0
POINT
  5
AF
100
AcDbEntity
  8
Defpoints
370
               0
390
0
 62
               0
100
AcDbPoint
 10
1883.0850221707781
 20
646.86881705508563
 30
0.0
  0
POINT
  5
B0
100
AcDbEntity
  8
Defpoints
370
               0
390
0
 62
               0
100
AcDbPoint
 10
1542.9575594079311
 20
543.91539841567351
 30
0.0
  0
POINT
  5
B1
100
AcDbEntity
  8
Defpoints
370
               0
390
0
 62
               0
100
AcDbPoint
 10
1542.9575594079311
 20
441.34009210039835
 30
0.0
  0
ENDBLK
  5
B2
100
AcDbEntity
  8
notes
390
0
100
AcDbBlockEnd
  0
BLOCK
  5
B3
100
AcDbEntity
  8
notes
390
0
100
AcDbBlockBegin
  2
*D9
 70
               1
 10
0.0
 20
0.0
 30
0.0
  3
*D9
  1

  0
LINE
  5
B4
100
AcDbEntity
  8
0
370
              -2
390
0
  6
Continuous
 62
               0
100
AcDbLine
 10
1428.3589366243862
 20
1498.8798240600743
 30
0.0
 11
1428.3589366243862
 21
1641.3378511586202
 31
0.0
  0
LINE
  5
B5
100
AcDbEntity
  8
0
370
              -2
390
0
  6
Continuous
 62
               0
100
AcDbLine
 10
1908.2876517251823
 20
1331.5731316060271
 30
0.0
 11
1908.2876517251823
 21
1641.3378511586202
 31
0.0
  0
LINE
  5
B6
100
AcDbEntity
  8
0
370
              -2
390
0
  6
Continuous
 62
               0
100
AcDbLine
 10
1428.3589366243862
 20
1641.3378511586202
 30
0.0
 11
1908.2876517251823
 21
1641.3378511586202
 31
0.0
  0
CIRCLE
  5
B7
102
{ACAD_REACTORS
330
B8
102
}
100
AcDbEntity
  8
0
370
              -2
390
0
  6
Continuous
 62
               0
100
AcDbCircle
 10
1428.3589366243862
 20
1641.3378511586202
 30
0.0
 40
1.9998779296875
  0
HATCH
  5
B8
100
AcDbEntity
  8
0
370
              -2
390
0
  6
Continuous
 62
               0
100
AcDbHatch
 10
0.0
 20
0.0
 30
0.0
210
0.0
220
0.0
230
1.0
  2
SOLID
 70
               1
 71
               1
 91
        1
 92
        1
 93
        1
 72
               2
 10
1428.3589366243862
 20
1641.3378511586202
 40
1.9998779296875
 50
0.0
 51
360.0
 73
               0
 97
        1
330
B7
 75
               0
 76
               1
 98
        1
 10
0.0
 20
0.0
  0
CIRCLE
  5
B9
102
{ACAD_REACTORS
330
BA
102
}
100
AcDbEntity
  8
0
370
              -2
390
0
  6
Continuous
 62
               0
100
AcDbCircle
 10
1908.2876517251823
 20
1641.3378511586202
 30
0.0
 40
1.9998779296875
  0
HATCH
  5
BA
100
AcDbEntity
  8
0
370
              -2
390
0
  6
Continuous
 62
               0
100
AcDbHatch
 10
0.0
 20
0.0
 30
0.0
210
0.0
220
0.0
230
1.0
  2
SOLID
 70
               1
 71
               1
 91
        1
 92
        1
 93
        1
 72
               2
 10
1908.2876517251823
 20
1641.3378511586202
 40
1.9998779296875
 50
0.0
 51
360.0
 73
               0
 97
        1
330
B9
 75
               0
 76
               1
 98
        1
 10
0.0
 20
0.0
  0
MTEXT
  5
BB
100
AcDbEntity
  8
0
390
0
 62
               0
100
AcDbMText
 10
1644.5107924926087
 20
1675.2154683461201
 30
0.0
 40
24.432617187500004
 41
0.0
 71
               1
 72
               1
  1
480
  7
ＭＳ ゴシック
 73
               1
 44
0.7828267384257843
  0
POINT
  5
BC
100
AcDbEntity
  8
Defpoints
370
               0
390
0
 62
               0
100
AcDbPoint
 10
1908.2876517251823
 20
1306.5731316060271
 30
0.0
  0
POINT
  5
BD
100
AcDbEntity
  8
Defpoints
370
               0
390
0
 62
               0
100
AcDbPoint
 10
1428.3589366243862
 20
1473.8798240600743
 30
0.0
  0
POINT
  5
BE
100
AcDbEntity
  8
Defpoints
370
               0
390
0
 62
               0
100
AcDbPoint
 10
1428.3589366243862
 20
1641.3378511586202
 30
0.0
  0
ENDBLK
  5
BF
100
AcDbEntity
  8
notes
390
0
100
AcDbBlockEnd
  0
BLOCK
  5
C0
100
AcDbEntity
  8
notes
390
0
100
AcDbBlockBegin
  2
*D10
 70
               1
 10
0.0
 20
0.0
 30
0.0
  3
*D10
  1

  0
LINE
  5
C1
100
AcDbEntity
  8
0
370
              -2
390
0
  6
Continuous
 62
               0
100
AcDbLine
 10
2584.1732755169423
 20
901.34009210039846
 30
0.0
 11
2469.0031220596443
 21
901.34009210039846
 31
0.0
  0
LINE
  5
C2
100
AcDbEntity
  8
0
370
              -2
390
0
  6
Continuous
 62
               0
100
AcDbLine
 10
2584.1732755169423
 20
1181.3400921003984
 30
0.0
 11
2469.0031220596443
 21
1181.3400921003984
 31
0.0
  0
LINE
  5
C3
100
AcDbEntity
  8
0
370
              -2
390
0
  6
Continuous
 62
               0
100
AcDbLine
 10
2469.0031220596443
 20
901.34009210039846
 30
0.0
 11
2469.0031220596443
 21
1181.3400921003984
 31
0.0
  0
CIRCLE
  5
C4
102
{ACAD_REACTORS
330
C5
102
}
100
AcDbEntity
  8
0
370
              -2
390
0
  6
Continuous
 62
               0
100
AcDbCircle
 10
2469.0031220596443
 20
901.34009210039846
 30
0.0
 40
1.9998779296875
  0
HATCH
  5
C5
100
AcDbEntity
  8
0
370
              -2
390
0
  6
Continuous
 62
               0
100
AcDbHatch
 10
0.0
 20
0.0
 30
0.0
210
0.0
220
0.0
230
1.0
  2
SOLID
 70
               1
 71
               1
 91
        1
 92
        1
 93
        1
 72
               2
 10
2469.0031220596443
 20
901.34009210039846
 40
1.9998779296875
 50
0.0
 51
360.0
 73
               0
 97
        1
330
C4
 75
               0
 76
               1
 98
        1
 10
0.0
 20
0.0
  0
CIRCLE
  5
C6
102
{ACAD_REACTORS
330
C7
102
}
100
AcDbEntity
  8
0
370
              -2
390
0
  6
Continuous
 62
               0
100
AcDbCircle
 10
2469.0031220596443
 20
1181.3400921003984
 30
0.0
 40
1.9998779296875
  0
HATCH
  5
C7
100
AcDbEntity
  8
0
370
              -2
390
0
  6
Continuous
 62
               0
100
AcDbHatch
 10
0.0
 20
0.0
 30
0.0
210
0.0
220
0.0
230
1.0
  2
SOLID
 70
               1
 71
               1
 91
        1
 92
        1
 93
        1
 72
               2
 10
2469.0031220596443
 20
1181.3400921003984
 40
1.9998779296875
 50
0.0
 51
360.0
 73
               0
 97
        1
330
C6
 75
               0
 76
               1
 98
        1
 10
0.0
 20
0.0
  0
MTEXT
  5
C8
100
AcDbEntity
  8
0
390
0
 62
               0
100
AcDbMText
 10
2435.1255048721441
 20
1017.5275904182229
 30
0.0
 40
24.432617187500004
 41
0.0
 71
               1
 72
               1
  1
280
  7
ＭＳ ゴシック
 11
0.0
 21
1.0
 31
0.0
 73
               1
 44
0.7828267384257843
  0
POINT
  5
C9
100
AcDbEntity
  8
Defpoints
370
               0
390
0
 62
               0
100
AcDbPoint
 10
2609.1732755169423
 20
1181.3400921003984
 30
0.0
  0
POINT
  5
CA
100
AcDbEntity
  8
Defpoints
370
               0
390
0
 62
               0
100
AcDbPoint
 10
2609.1732755169423
 20
901.34009210039846
 30
0.0
  0
POINT
  5
CB
100
AcDbEntity
  8
Defpoints
370
               0
390
0
 62
               0
100
AcDbPoint
 10
2469.0031220596443
 20
901.34009210039846
 30
0.0
  0
ENDBLK
  5
CC
100
AcDbEntity
  8
notes
390
0
100
AcDbBlockEnd
  0
BLOCK
  5
CD
100
AcDbEntity
  8
notes
390
0
100
AcDbBlockBegin
  2
*D11
 70
               1
 10
0.0
 20
0.0
 30
0.0
  3
*D11
  1

  0
LINE
  5
CE
100
AcDbEntity
  8
0
370
              -2
390
0
  6
Continuous
 62
               0
100
AcDbLine
 10
1455.4575594079311
 20
1141.3400921003984
 30
0.0
 11
1327.9575594079311
 21
1141.3400921003984
 31
0.0
  0
LINE
  5
CF
100
AcDbEntity
  8
0
370
              -2
390
0
  6
Continuous
 62
               0
100
AcDbLine
 10
1454.4575594079311
 20
1241.3400921003984
 30
0.0
 11
1327.9575594079311
 21
1241.3400921003984
 31
0.0
  0
LINE
  5
D0
100
AcDbEntity
  8
0
370
              -2
390
0
  6
Continuous
 62
               0
100
AcDbLine
 10
1327.9575594079311
 20
1141.3400921003984
 30
0.0
 11
1327.9575594079311
 21
1241.3400921003984
 31
0.0
  0
CIRCLE
  5
D1
102
{ACAD_REACTORS
330
D2
102
}
100
AcDbEntity
  8
0
370
              -2
390
0
  6
Continuous
 62
               0
100
AcDbCircle
 10
1327.9575594079311
 20
1141.3400921003984
 30
0.0
 40
1.9998779296875
  0
HATCH
  5
D2
100
AcDbEntity
  8
0
370
              -2
390
0
  6
Continuous
 62
               0
100
AcDbHatch
 10
0.0
 20
0.0
 30
0.0
210
0.0
220
0.0
230
1.0
  2
SOLID
 70
               1
 71
               1
 91
        1
 92
        1
 93
        1
 72
               2
 10
1327.9575594079311
 20
1141.3400921003984
 40
1.9998779296875
 50
0.0
 51
360.0
 73
               0
 97
        1
330
D1
 75
               0
 76
               1
 98
        1
 10
0.0
 20
0.0
  0
CIRCLE
  5
D3
102
{ACAD_REACTORS
330
D4
102
}
100
AcDbEntity
  8
0
370
              -2
390
0
  6
Continuous
 62
               0
100
AcDbCircle
 10
1327.9575594079311
 20
1241.3400921003984
 30
0.0
 40
1.9998779296875
  0
HATCH
  5
D4
100
AcDbEntity
  8
0
370
              -2
390
0
  6
Continuous
 62
               0
100
AcDbHatch
 10
0.0
 20
0.0
 30
0.0
210
0.0
220
0.0
230
1.0
  2
SOLID
 70
               1
 71
               1
 91
        1
 92
        1
 93
        1
 72
               2
 10
1327.9575594079311
 20
1241.3400921003984
 40
1.9998779296875
 50
0.0
 51
360.0
 73
               0
 97
        1
330
D3
 75
               0
 76
               1
 98
        1
 10
0.0
 20
0.0
  0
MTEXT
  5
D5
100
AcDbEntity
  8
0
390
0
 62
               0
100
AcDbMText
 10
1294.0799422204309
 20
1167.5275904182229
 30
0.0
 40
24.432617187500004
 41
0.0
 71
               1
 72
               1
  1
100
  7
ＭＳ ゴシック
 11
0.0
 21
1.0
 31
0.0
 73
               1
 44
0.7828267384257843
  0
POINT
  5
D6
100
AcDbEntity
  8
Defpoints
370
               0
390
0
 62
               0
100
AcDbPoint
 10
1479.4575594079311
 20
1241.3400921003984
 30
0.0
  0
POINT
  5
D7
100
AcDbEntity
  8
Defpoints
370
               0
390
0
 62
               0
100
AcDbPoint
 10
1480.4575594079311
 20
1141.3400921003984
 30
0.0
  0
POINT
  5
D8
100
AcDbEntity
  8
Defpoints
370
               0
390
0
 62
               0
100
AcDbPoint
 10
1327.9575594079311
 20
1141.3400921003984
 30
0.0
  0
ENDBLK
  5
D9
100
AcDbEntity
  8
notes
390
0
100
AcDbBlockEnd
  0
BLOCK
  5
DA
100
AcDbEntity
  8
notes
390
0
100
AcDbBlockBegin
  2
*D12
 70
               1
 10
0.0
 20
0.0
 30
0.0
  3
*D12
  1

  0
LINE
  5
DB
100
AcDbEntity
  8
0
370
              -2
390
0
  6
Continuous
 62
               0
100
AcDbLine
 10
1454.4575594079311
 20
1241.3400921003984
 30
0.0
 11
1327.9575594079311
 21
1241.3400921003984
 31
0.0
  0
LINE
  5
DC
100
AcDbEntity
  8
0
370
              -2
390
0
  6
Continuous
 62
               0
100
AcDbLine
 10
1455.4575594079311
 20
1341.3400921003984
 30
0.0
 11
1327.9575594079311
 21
1341.3400921003984
 31
0.0
  0
LINE
  5
DD
100
AcDbEntity
  8
0
370
              -2
390
0
  6
Continuous
 62
               0
100
AcDbLine
 10
1327.9575594079311
 20
1241.3400921003984
 30
0.0
 11
1327.9575594079311
 21
1341.3400921003984
 31
0.0
  0
CIRCLE
  5
DE
102
{ACAD_REACTORS
330
DF
102
}
100
AcDbEntity
  8
0
370
              -2
390
0
  6
Continuous
 62
               0
100
AcDbCircle
 10
1327.9575594079311
 20
1241.3400921003984
 30
0.0
 40
1.9998779296875
  0
HATCH
  5
DF
100
AcDbEntity
  8
0
370
              -2
390
0
  6
Continuous
 62
               0
100
AcDbHatch
 10
0.0
 20
0.0
 30
0.0
210
0.0
220
0.0
230
1.0
  2
SOLID
 70
               1
 71
               1
 91
        1
 92
        1
 93
        1
 72
               2
 10
1327.9575594079311
 20
1241.3400921003984
 40
1.9998779296875
 50
0.0
 51
360.0
 73
               0
 97
        1
330
DE
 75
               0
 76
               1
 98
        1
 10
0.0
 20
0.0
  0
CIRCLE
  5
E0
102
{ACAD_REACTORS
330
E1
102
}
100
AcDbEntity
  8
0
370
              -2
390
0
  6
Continuous
 62
               0
100
AcDbCircle
 10
1327.9575594079311
 20
1341.3400921003984
 30
0.0
 40
1.9998779296875
  0
HATCH
  5
E1
100
AcDbEntity
  8
0
370
              -2
390
0
  6
Continuous
 62
               0
100
AcDbHatch
 10
0.0
 20
0.0
 30
0.0
210
0.0
220
0.0
230
1.0
  2
SOLID
 70
               1
 71
               1
 91
        1
 92
        1
 93
        1
 72
               2
 10
1327.9575594079311
 20
1341.3400921003984
 40
1.9998779296875
 50
0.0
 51
360.0
 73
               0
 97
        1
330
E0
 75
               0
 76
               1
 98
        1
 10
0.0
 20
0.0
  0
MTEXT
  5
E2
100
AcDbEntity
  8
0
390
0
 62
               0
100
AcDbMText
 10
1294.0799422204309
 20
1267.5275904182229
 30
0.0
 40
24.432617187500004
 41
0.0
 71
               1
 72
               1
  1
100
  7
ＭＳ ゴシック
 11
0.0
 21
1.0
 31
0.0
 73
               1
 44
0.7828267384257843
  0
POINT
  5
E3
100
AcDbEntity
  8
Defpoints
370
               0
390
0
 62
               0
100
AcDbPoint
 10
1480.4575594079311
 20
1341.3400921003984
 30
0.0
  0
POINT
  5
E4
100
AcDbEntity
  8
Defpoints
370
               0
390
0
 62
               0
100
AcDbPoint
 10
1479.4575594079311
 20
1241.3400921003984
 30
0.0
  0
POINT
  5
E5
100
AcDbEntity
  8
Defpoints
370
               0
390
0
 62
               0
100
AcDbPoint
 10
1327.9575594079311
 20
1241.3400921003984
 30
0.0
  0
ENDBLK
  5
E6
100
AcDbEntity
  8
notes
390
0
100
AcDbBlockEnd
  0
BLOCK
  5
E7
100
AcDbEntity
  8
notes
390
0
100
AcDbBlockBegin
  2
*D13
 70
               1
 10
0.0
 20
0.0
 30
0.0
  3
*D13
  1

  0
LINE
  5
E8
100
AcDbEntity
  8
0
370
              -2
390
0
  6
Continuous
 62
               0
100
AcDbLine
 10
1455.4575594079311
 20
741.34009210039835
 30
0.0
 11
1327.9575594079311
 21
741.34009210039835
 31
0.0
  0
LINE
  5
E9
100
AcDbEntity
  8
0
370
              -2
390
0
  6
Continuous
 62
               0
100
AcDbLine
 10
1454.4575594079311
 20
841.34009210039835
 30
0.0
 11
1327.9575594079311
 21
841.34009210039835
 31
0.0
  0
LINE
  5
EA
100
AcDbEntity
  8
0
370
              -2
390
0
  6
Continuous
 62
               0
100
AcDbLine
 10
1327.9575594079311
 20
741.34009210039835
 30
0.0
 11
1327.9575594079311
 21
841.34009210039835
 31
0.0
  0
CIRCLE
  5
EB
102
{ACAD_REACTORS
330
EC
102
}
100
AcDbEntity
  8
0
370
              -2
390
0
  6
Continuous
 62
               0
100
AcDbCircle
 10
1327.9575594079311
 20
741.34009210039835
 30
0.0
 40
1.9998779296875
  0
HATCH
  5
EC
100
AcDbEntity
  8
0
370
              -2
390
0
  6
Continuous
 62
               0
100
AcDbHatch
 10
0.0
 20
0.0
 30
0.0
210
0.0
220
0.0
230
1.0
  2
SOLID
 70
               1
 71
               1
 91
        1
 92
        1
 93
        1
 72
               2
 10
1327.9575594079311
 20
741.34009210039835
 40
1.9998779296875
 50
0.0
 51
360.0
 73
               0
 97
        1
330
EB
 75
               0
 76
               1
 98
        1
 10
0.0
 20
0.0
  0
CIRCLE
  5
ED
102
{ACAD_REACTORS
330
EE
102
}
100
AcDbEntity
  8
0
370
              -2
390
0
  6
Continuous
 62
               0
100
AcDbCircle
 10
1327.9575594079311
 20
841.34009210039835
 30
0.0
 40
1.9998779296875
  0
HATCH
  5
EE
100
AcDbEntity
  8
0
370
              -2
390
0
  6
Continuous
 62
               0
100
AcDbHatch
 10
0.0
 20
0.0
 30
0.0
210
0.0
220
0.0
230
1.0
  2
SOLID
 70
               1
 71
               1
 91
        1
 92
        1
 93
        1
 72
               2
 10
1327.9575594079311
 20
841.34009210039835
 40
1.9998779296875
 50
0.0
 51
360.0
 73
               0
 97
        1
330
ED
 75
               0
 76
               1
 98
        1
 10
0.0
 20
0.0
  0
MTEXT
  5
EF
100
AcDbEntity
  8
0
390
0
 62
               0
100
AcDbMText
 10
1294.0799422204309
 20
767.52759041822287
 30
0.0
 40
24.432617187500004
 41
0.0
 71
               1
 72
               1
  1
100
  7
ＭＳ ゴシック
 11
0.0
 21
1.0
 31
0.0
 73
               1
 44
0.7828267384257843
  0
POINT
  5
F0
100
AcDbEntity
  8
Defpoints
370
               0
390
0
 62
               0
100
AcDbPoint
 10
1479.4575594079311
 20
841.34009210039835
 30
0.0
  0
POINT
  5
F1
100
AcDbEntity
  8
Defpoints
370
               0
390
0
 62
               0
100
AcDbPoint
 10
1480.4575594079311
 20
741.34009210039835
 30
0.0
  0
POINT
  5
F2
100
AcDbEntity
  8
Defpoints
370
               0
390
0
 62
               0
100
AcDbPoint
 10
1327.9575594079311
 20
741.34009210039835
 30
0.0
  0
ENDBLK
  5
F3
100
AcDbEntity
  8
notes
390
0
100
AcDbBlockEnd
  0
BLOCK
  5
F4
100
AcDbEntity
  8
notes
390
0
100
AcDbBlockBegin
  2
*D14
 70
               1
 10
0.0
 20
0.0
 30
0.0
  3
*D14
  1

  0
LINE
  5
F5
100
AcDbEntity
  8
0
370
              -2
390
0
  6
Continuous
 62
               0
100
AcDbLine
 10
1454.4575594079311
 20
841.34009210039835
 30
0.0
 11
1327.9575594079311
 21
841.34009210039835
 31
0.0
  0
LINE
  5
F6
100
AcDbEntity
  8
0
370
              -2
390
0
  6
Continuous
 62
               0
100
AcDbLine
 10
1455.4575594079311
 20
941.34009210039846
 30
0.0
 11
1327.9575594079311
 21
941.34009210039846
 31
0.0
  0
LINE
  5
F7
100
AcDbEntity
  8
0
370
              -2
390
0
  6
Continuous
 62
               0
100
AcDbLine
 10
1327.9575594079311
 20
841.34009210039835
 30
0.0
 11
1327.9575594079311
 21
941.34009210039846
 31
0.0
  0
CIRCLE
  5
F8
102
{ACAD_REACTORS
330
F9
102
}
100
AcDbEntity
  8
0
370
              -2
390
0
  6
Continuous
 62
               0
100
AcDbCircle
 10
1327.9575594079311
 20
841.34009210039835
 30
0.0
 40
1.9998779296875
  0
HATCH
  5
F9
100
AcDbEntity
  8
0
370
              -2
390
0
  6
Continuous
 62
               0
100
AcDbHatch
 10
0.0
 20
0.0
 30
0.0
210
0.0
220
0.0
230
1.0
  2
SOLID
 70
               1
 71
               1
 91
        1
 92
        1
 93
        1
 72
               2
 10
1327.9575594079311
 20
841.34009210039835
 40
1.9998779296875
 50
0.0
 51
360.0
 73
               0
 97
        1
330
F8
 75
               0
 76
               1
 98
        1
 10
0.0
 20
0.0
  0
CIRCLE
  5
FA
102
{ACAD_REACTORS
330
FB
102
}
100
AcDbEntity
  8
0
370
              -2
390
0
  6
Continuous
 62
               0
100
AcDbCircle
 10
1327.9575594079311
 20
941.34009210039846
 30
0.0
 40
1.9998779296875
  0
HATCH
  5
FB
100
AcDbEntity
  8
0
370
              -2
390
0
  6
Continuous
 62
               0
100
AcDbHatch
 10
0.0
 20
0.0
 30
0.0
210
0.0
220
0.0
230
1.0
  2
SOLID
 70
               1
 71
               1
 91
        1
 92
        1
 93
        1
 72
               2
 10
1327.9575594079311
 20
941.34009210039846
 40
1.9998779296875
 50
0.0
 51
360.0
 73
               0
 97
        1
330
FA
 75
               0
 76
               1
 98
        1
 10
0.0
 20
0.0
  0
MTEXT
  5
FC
100
AcDbEntity
  8
0
390
0
 62
               0
100
AcDbMText
 10
1294.0799422204309
 20
867.52759041822287
 30
0.0
 40
24.432617187500004
 41
0.0
 71
               1
 72
               1
  1
100
  7
ＭＳ ゴシック
 11
0.0
 21
1.0
 31
0.0
 73
               1
 44
0.7828267384257843
  0
POINT
  5
FD
100
AcDbEntity
  8
Defpoints
370
               0
390
0
 62
               0
100
AcDbPoint
 10
1480.4575594079311
 20
941.34009210039846
 30
0.0
  0
POINT
  5
FE
100
AcDbEntity
  8
Defpoints
370
               0
390
0
 62
               0
100
AcDbPoint
 10
1479.4575594079311
 20
841.34009210039835
 30
0.0
  0
POINT
  5
FF
100
AcDbEntity
  8
Defpoints
370
               0
390
0
 62
               0
100
AcDbPoint
 10
1327.9575594079311
 20
841.34009210039835
 30
0.0
  0
ENDBLK
  5
100
100
AcDbEntity
  8
notes
390
0
100
AcDbBlockEnd
  0
BLOCK
  5
101
100
AcDbEntity
  8
notes
390
0
100
AcDbBlockBegin
  2
*D15
 70
               1
 10
0.0
 20
0.0
 30
0.0
  3
*D15
  1

  0
LINE
  5
102
100
AcDbEntity
  8
0
370
              -2
390
0
  6
Continuous
 62
               0
100
AcDbLine
 10
2584.1732755169423
 20
771.34009210039835
 30
0.0
 11
2469.0031220596443
 21
771.34009210039835
 31
0.0
  0
LINE
  5
103
100
AcDbEntity
  8
0
370
              -2
390
0
  6
Continuous
 62
               0
100
AcDbLine
 10
2584.1732755169423
 20
901.34009210039846
 30
0.0
 11
2469.0031220596443
 21
901.34009210039846
 31
0.0
  0
LINE
  5
104
100
AcDbEntity
  8
0
370
              -2
390
0
  6
Continuous
 62
               0
100
AcDbLine
 10
2469.0031220596443
 20
771.34009210039835
 30
0.0
 11
2469.0031220596443
 21
901.34009210039846
 31
0.0
  0
CIRCLE
  5
105
102
{ACAD_REACTORS
330
106
102
}
100
AcDbEntity
  8
0
370
              -2
390
0
  6
Continuous
 62
               0
100
AcDbCircle
 10
2469.0031220596443
 20
771.34009210039835
 30
0.0
 40
1.9998779296875
  0
HATCH
  5
106
100
AcDbEntity
  8
0
370
              -2
390
0
  6
Continuous
 62
               0
100
AcDbHatch
 10
0.0
 20
0.0
 30
0.0
210
0.0
220
0.0
230
1.0
  2
SOLID
 70
               1
 71
               1
 91
        1
 92
        1
 93
        1
 72
               2
 10
2469.0031220596443
 20
771.34009210039835
 40
1.9998779296875
 50
0.0
 51
360.0
 73
               0
 97
        1
330
105
 75
               0
 76
               1
 98
        1
 10
0.0
 20
0.0
  0
CIRCLE
  5
107
102
{ACAD_REACTORS
330
108
102
}
100
AcDbEntity
  8
0
370
              -2
390
0
  6
Continuous
 62
               0
100
AcDbCircle
 10
2469.0031220596443
 20
901.34009210039846
 30
0.0
 40
1.9998779296875
  0
HATCH
  5
108
100
AcDbEntity
  8
0
370
              -2
390
0
  6
Continuous
 62
               0
100
AcDbHatch
 10
0.0
 20
0.0
 30
0.0
210
0.0
220
0.0
230
1.0
  2
SOLID
 70
               1
 71
               1
 91
        1
 92
        1
 93
        1
 72
               2
 10
2469.0031220596443
 20
901.34009210039846
 40
1.9998779296875
 50
0.0
 51
360.0
 73
               0
 97
        1
330
107
 75
               0
 76
               1
 98
        1
 10
0.0
 20
0.0
  0
MTEXT
  5
109
100
AcDbEntity
  8
0
390
0
 62
               0
100
AcDbMText
 10
2435.1255048721441
 20
812.52759041822287
 30
0.0
 40
24.432617187500004
 41
0.0
 71
               1
 72
               1
  1
130
  7
ＭＳ ゴシック
 11
0.0
 21
1.0
 31
0.0
 73
               1
 44
0.7828267384257843
  0
POINT
  5
10A
100
AcDbEntity
  8
Defpoints
370
               0
390
0
 62
               0
100
AcDbPoint
 10
2609.1732755169423
 20
901.34009210039846
 30
0.0
  0
POINT
  5
10B
100
AcDbEntity
  8
Defpoints
370
               0
390
0
 62
               0
100
AcDbPoint
 10
2609.1732755169423
 20
771.34009210039835
 30
0.0
  0
POINT
  5
10C
100
AcDbEntity
  8
Defpoints
370
               0
390
0
 62
               0
100
AcDbPoint
 10
2469.0031220596443
 20
771.34009210039835
 30
0.0
  0
ENDBLK
  5
10D
100
AcDbEntity
  8
notes
390
0
100
AcDbBlockEnd
  0
BLOCK
  5
10E
100
AcDbEntity
  8
notes
390
0
100
AcDbBlockBegin
  2
*D16
 70
               1
 10
0.0
 20
0.0
 30
0.0
  3
*D16
  1

  0
LINE
  5
10F
100
AcDbEntity
  8
0
370
              -2
390
0
  6
Continuous
 62
               0
100
AcDbLine
 10
2584.1732755169423
 20
1181.3400921003984
 30
0.0
 11
2469.0031220596443
 21
1181.3400921003984
 31
0.0
  0
LINE
  5
110
100
AcDbEntity
  8
0
370
              -2
390
0
  6
Continuous
 62
               0
100
AcDbLine
 10
2584.1732755169423
 20
1311.3400921003984
 30
0.0
 11
2469.0031220596443
 21
1311.3400921003984
 31
0.0
  0
LINE
  5
111
100
AcDbEntity
  8
0
370
              -2
390
0
  6
Continuous
 62
               0
100
AcDbLine
 10
2469.0031220596443
 20
1181.3400921003984
 30
0.0
 11
2469.0031220596443
 21
1311.3400921003984
 31
0.0
  0
CIRCLE
  5
112
102
{ACAD_REACTORS
330
113
102
}
100
AcDbEntity
  8
0
370
              -2
390
0
  6
Continuous
 62
               0
100
AcDbCircle
 10
2469.0031220596443
 20
1181.3400921003984
 30
0.0
 40
1.9998779296875
  0
HATCH
  5
113
100
AcDbEntity
  8
0
370
              -2
390
0
  6
Continuous
 62
               0
100
AcDbHatch
 10
0.0
 20
0.0
 30
0.0
210
0.0
220
0.0
230
1.0
  2
SOLID
 70
               1
 71
               1
 91
        1
 92
        1
 93
        1
 72
               2
 10
2469.0031220596443
 20
1181.3400921003984
 40
1.9998779296875
 50
0.0
 51
360.0
 73
               0
 97
        1
330
112
 75
               0
 76
               1
 98
        1
 10
0.0
 20
0.0
  0
CIRCLE
  5
114
102
{ACAD_REACTORS
330
115
102
}
100
AcDbEntity
  8
0
370
              -2
390
0
  6
Continuous
 62
               0
100
AcDbCircle
 10
2469.0031220596443
 20
1311.3400921003984
 30
0.0
 40
1.9998779296875
  0
HATCH
  5
115
100
AcDbEntity
  8
0
370
              -2
390
0
  6
Continuous
 62
               0
100
AcDbHatch
 10
0.0
 20
0.0
 30
0.0
210
0.0
220
0.0
230
1.0
  2
SOLID
 70
               1
 71
               1
 91
        1
 92
        1
 93
        1
 72
               2
 10
2469.0031220596443
 20
1311.3400921003984
 40
1.9998779296875
 50
0.0
 51
360.0
 73
               0
 97
        1
330
114
 75
               0
 76
               1
 98
        1
 10
0.0
 20
0.0
  0
MTEXT
  5
116
100
AcDbEntity
  8
0
390
0
 62
               0
100
AcDbMText
 10
2435.1255048721441
 20
1222.5275904182229
 30
0.0
 40
24.432617187500004
 41
0.0
 71
               1
 72
               1
  1
130
  7
ＭＳ ゴシック
 11
0.0
 21
1.0
 31
0.0
 73
               1
 44
0.7828267384257843
  0
POINT
  5
117
100
AcDbEntity
  8
Defpoints
370
               0
390
0
 62
               0
100
AcDbPoint
 10
2609.1732755169423
 20
1311.3400921003984
 30
0.0
  0
POINT
  5
118
100
AcDbEntity
  8
Defpoints
370
               0
390
0
 62
               0
100
AcDbPoint
 10
2609.1732755169423
 20
1181.3400921003984
 30
0.0
  0
POINT
  5
119
100
AcDbEntity
  8
Defpoints
370
               0
390
0
 62
               0
100
AcDbPoint
 10
2469.0031220596443
 20
1181.3400921003984
 30
0.0
  0
ENDBLK
  5
11A
100
AcDbEntity
  8
notes
390
0
100
AcDbBlockEnd
  0
BLOCK
  5
11B
100
AcDbEntity
  8
notes
390
0
100
AcDbBlockBegin
  2
*D17
 70
               1
 10
0.0
 20
0.0
 30
0.0
  3
*D17
  1

  0
LINE
  5
11C
100
AcDbEntity
  8
0
370
              -2
390
0
  6
Continuous
 62
               0
100
AcDbLine
 10
2569.0031220524993
 20
2226.1775021758576
 30
0.0
 11
2569.0031220524993
 21
2201.7719437483938
 31
0.0
  0
LINE
  5
11D
100
AcDbEntity
  8
0
370
              -2
390
0
  6
Continuous
 62
               0
100
AcDbLine
 10
2714.0031220596425
 20
2200.2602415483443
 30
0.0
 11
2714.0031220596425
 21
2201.7719437483938
 31
0.0
  0
LINE
  5
11E
100
AcDbEntity
  8
0
370
              -2
390
0
  6
Continuous
 62
               0
100
AcDbLine
 10
2569.0031220524993
 20
2201.7719437483938
 30
0.0
 11
2409.7225636250355
 21
2201.7719437483938
 31
0.0
  0
LINE
  5
11F
100
AcDbEntity
  8
0
370
              -2
390
0
  6
Continuous
 62
               0
100
AcDbLine
 10
2569.0031220524993
 20
2201.7719437483938
 30
0.0
 11
2714.0031220596425
 21
2201.7719437483938
 31
0.0
  0
CIRCLE
  5
120
102
{ACAD_REACTORS
330
121
102
}
100
AcDbEntity
  8
0
370
              -2
390
0
  6
Continuous
 62
               0
100
AcDbCircle
 10
2569.0031220524993
 20
2201.7719437483938
 30
0.0
 40
1.9998779296875
  0
HATCH
  5
121
100
AcDbEntity
  8
0
370
              -2
390
0
  6
Continuous
 62
               0
100
AcDbHatch
 10
0.0
 20
0.0
 30
0.0
210
0.0
220
0.0
230
1.0
  2
SOLID
 70
               1
 71
               1
 91
        1
 92
        1
 93
        1
 72
               2
 10
2569.0031220524993
 20
2201.7719437483938
 40
1.9998779296875
 50
0.0
 51
360.0
 73
               0
 97
        1
330
120
 75
               0
 76
               1
 98
        1
 10
0.0
 20
0.0
  0
CIRCLE
  5
122
102
{ACAD_REACTORS
330
123
102
}
100
AcDbEntity
  8
0
370
              -2
390
0
  6
Continuous
 62
               0
100
AcDbCircle
 10
2714.0031220596425
 20
2201.7719437483938
 30
0.0
 40
1.9998779296875
  0
HATCH
  5
123
100
AcDbEntity
  8
0
370
              -2
390
0
  6
Continuous
 62
               0
100
AcDbHatch
 10
0.0
 20
0.0
 30
0.0
210
0.0
220
0.0
230
1.0
  2
SOLID
 70
               1
 71
               1
 91
        1
 92
        1
 93
        1
 72
               2
 10
2714.0031220596425
 20
2201.7719437483938
 40
1.9998779296875
 50
0.0
 51
360.0
 73
               0
 97
        1
330
122
 75
               0
 76
               1
 98
        1
 10
0.0
 20
0.0
  0
MTEXT
  5
124
100
AcDbEntity
  8
0
390
0
 62
               0
100
AcDbMText
 10
2409.7225636250355
 20
2235.649560935894
 30
0.0
 40
24.432617187500004
 41
0.0
 71
               1
 72
               1
  1
145(深さ)
  7
ＭＳ ゴシック
 73
               1
 44
0.7828267384257843
  0
POINT
  5
125
100
AcDbEntity
  8
Defpoints
370
               0
390
0
 62
               0
100
AcDbPoint
 10
2714.0031220596425
 20
2225.2602415483443
 30
0.0
  0
POINT
  5
126
100
AcDbEntity
  8
Defpoints
370
               0
390
0
 62
               0
100
AcDbPoint
 10
2569.0031220524993
 20
2201.1775021758576
 30
0.0
  0
POINT
  5
127
100
AcDbEntity
  8
Defpoints
370
               0
390
0
 62
               0
100
AcDbPoint
 10
2569.0031220524993
 20
2201.7719437483938
 30
0.0
  0
ENDBLK
  5
128
100
AcDbEntity
  8
notes
390
0
100
AcDbBlockEnd
  0
BLOCK
  5
129
100
AcDbEntity
  8
notes
390
0
100
AcDbBlockBegin
  2
*D18
 70
               1
 10
0.0
 20
0.0
 30
0.0
  3
*D18
  1

  0
LINE
  5
12A
100
AcDbEntity
  8
0
370
              -2
390
0
  6
Continuous
 62
               0
100
AcDbLine
 10
2569.0031220525093
 20
1562.4459454873181
 30
0.0
 11
2569.0031220525093
 21
1641.3378511586202
 31
0.0
  0
LINE
  5
12B
100
AcDbEntity
  8
0
370
              -2
390
0
  6
Continuous
 62
               0
100
AcDbLine
 10
2754.003122052507
 20
1497.5731316060271
 30
0.0
 11
2754.003122052507
 21
1641.3378511586202
 31
0.0
  0
LINE
  5
12C
100
AcDbEntity
  8
0
370
              -2
390
0
  6
Continuous
 62
               0
100
AcDbLine
 10
2569.0031220525093
 20
1641.3378511586202
 30
0.0
 11
2754.003122052507
 21
1641.3378511586202
 31
0.0
  0
CIRCLE
  5
12D
102
{ACAD_REACTORS
330
12E
102
}
100
AcDbEntity
  8
0
370
              -2
390
0
  6
Continuous
 62
               0
100
AcDbCircle
 10
2569.0031220525093
 20
1641.3378511586202
 30
0.0
 40
1.9998779296875
  0
HATCH
  5
12E
100
AcDbEntity
  8
0
370
              -2
390
0
  6
Continuous
 62
               0
100
AcDbHatch
 10
0.0
 20
0.0
 30
0.0
210
0.0
220
0.0
230
1.0
  2
SOLID
 70
               1
 71
               1
 91
        1
 92
        1
 93
        1
 72
               2
 10
2569.0031220525093
 20
1641.3378511586202
 40
1.9998779296875
 50
0.0
 51
360.0
 73
               0
 97
        1
330
12D
 75
               0
 76
               1
 98
        1
 10
0.0
 20
0.0
  0
CIRCLE
  5
12F
102
{ACAD_REACTORS
330
130
102
}
100
AcDbEntity
  8
0
370
              -2
390
0
  6
Continuous
 62
               0
100
AcDbCircle
 10
2754.003122052507
 20
1641.3378511586202
 30
0.0
 40
1.9998779296875
  0
HATCH
  5
130
100
AcDbEntity
  8
0
370
              -2
390
0
  6
Continuous
 62
               0
100
AcDbHatch
 10
0.0
 20
0.0
 30
0.0
210
0.0
220
0.0
230
1.0
  2
SOLID
 70
               1
 71
               1
 91
        1
 92
        1
 93
        1
 72
               2
 10
2754.003122052507
 20
1641.3378511586202
 40
1.9998779296875
 50
0.0
 51
360.0
 73
               0
 97
        1
330
12F
 75
               0
 76
               1
 98
        1
 10
0.0
 20
0.0
  0
MTEXT
  5
131
100
AcDbEntity
  8
0
390
0
 62
               0
100
AcDbMText
 10
2637.6906203703325
 20
1675.2154683461201
 30
0.0
 40
24.432617187500004
 41
0.0
 71
               1
 72
               1
  1
185
  7
ＭＳ ゴシック
 73
               1
 44
0.7828267384257843
  0
POINT
  5
132
100
AcDbEntity
  8
Defpoints
370
               0
390
0
 62
               0
100
AcDbPoint
 10
2754.003122052507
 20
1472.5731316060271
 30
0.0
  0
POINT
  5
133
100
AcDbEntity
  8
Defpoints
370
               0
390
0
 62
               0
100
AcDbPoint
 10
2569.0031220525093
 20
1537.4459454873183
 30
0.0
  0
POINT
  5
134
100
AcDbEntity
  8
Defpoints
370
               0
390
0
 62
               0
100
AcDbPoint
 10
2569.0031220525093
 20
1641.3378511586202
 30
0.0
  0
ENDBLK
  5
135
100
AcDbEntity
  8
notes
390
0
100
AcDbBlockEnd
  0
BLOCK
  5
136
100
AcDbEntity
  8
notes
390
0
100
AcDbBlockBegin
  2
*D19
 70
               1
 10
0.0
 20
0.0
 30
0.0
  3
*D19
  1

  0
LINE
  5
137
100
AcDbEntity
  8
0
370
              -2
390
0
  6
Continuous
 62
               0
100
AcDbLine
 10
2774.003122059642
 20
2225.2602415483443
 30
0.0
 11
2854.0031220576416
 21
2225.2602415483443
 31
0.0
  0
LINE
  5
138
100
AcDbEntity
  8
0
370
              -2
390
0
  6
Continuous
 62
               0
100
AcDbLine
 10
2774.003122059642
 20
2485.2602415483443
 30
0.0
 11
2854.0031220576416
 21
2485.2602415483443
 31
0.0
  0
LINE
  5
139
100
AcDbEntity
  8
0
370
              -2
390
0
  6
Continuous
 62
               0
100
AcDbLine
 10
2854.0031220576416
 20
2225.2602415483443
 30
0.0
 11
2854.0031220576416
 21
2485.2602415483443
 31
0.0
  0
CIRCLE
  5
13A
102
{ACAD_REACTORS
330
13B
102
}
100
AcDbEntity
  8
0
370
              -2
390
0
  6
Continuous
 62
               0
100
AcDbCircle
 10
2854.0031220576416
 20
2225.2602415483443
 30
0.0
 40
1.9998779296875
  0
HATCH
  5
13B
100
AcDbEntity
  8
0
370
              -2
390
0
  6
Continuous
 62
               0
100
AcDbHatch
 10
0.0
 20
0.0
 30
0.0
210
0.0
220
0.0
230
1.0
  2
SOLID
 70
               1
 71
               1
 91
        1
 92
        1
 93
        1
 72
               2
 10
2854.0031220576416
 20
2225.2602415483443
 40
1.9998779296875
 50
0.0
 51
360.0
 73
               0
 97
        1
330
13A
 75
               0
 76
               1
 98
        1
 10
0.0
 20
0.0
  0
CIRCLE
  5
13C
102
{ACAD_REACTORS
330
13D
102
}
100
AcDbEntity
  8
0
370
              -2
390
0
  6
Continuous
 62
               0
100
AcDbCircle
 10
2854.0031220576416
 20
2485.2602415483443
 30
0.0
 40
1.9998779296875
  0
HATCH
  5
13D
100
AcDbEntity
  8
0
370
              -2
390
0
  6
Continuous
 62
               0
100
AcDbHatch
 10
0.0
 20
0.0
 30
0.0
210
0.0
220
0.0
230
1.0
  2
SOLID
 70
               1
 71
               1
 91
        1
 92
        1
 93
        1
 72
               2
 10
2854.0031220576416
 20
2485.2602415483443
 40
1.9998779296875
 50
0.0
 51
360.0
 73
               0
 97
        1
330
13C
 75
               0
 76
               1
 98
        1
 10
0.0
 20
0.0
  0
MTEXT
  5
13E
100
AcDbEntity
  8
0
390
0
 62
               0
100
AcDbMText
 10
2820.1255048701414
 20
2331.4477398661684
 30
0.0
 40
24.432617187500004
 41
0.0
 71
               1
 72
               1
  1
260
  7
ＭＳ ゴシック
 11
0.0
 21
1.0
 31
0.0
 73
               1
 44
0.7828267384257843
  0
POINT
  5
13F
100
AcDbEntity
  8
Defpoints
370
               0
390
0
 62
               0
100
AcDbPoint
 10
2749.003122059642
 20
2485.2602415483443
 30
0.0
  0
POINT
  5
140
100
AcDbEntity
  8
Defpoints
370
               0
390
0
 62
               0
100
AcDbPoint
 10
2749.003122059642
 20
2225.2602415483443
 30
0.0
  0
POINT
  5
141
100
AcDbEntity
  8
Defpoints
370
               0
390
0
 62
               0
100
AcDbPoint
 10
2854.0031220576416
 20
2225.2602415483443
 30
0.0
  0
ENDBLK
  5
142
100
AcDbEntity
  8
notes
390
0
100
AcDbBlockEnd
  0
BLOCK
  5
143
100
AcDbEntity
  8
notes
390
0
100
AcDbBlockBegin
  2
*D20
 70
               1
 10
0.0
 20
0.0
 30
0.0
  3
*D20
  1

  0
LINE
  5
144
100
AcDbEntity
  8
0
370
              -2
390
0
  6
Continuous
 62
               0
100
AcDbLine
 10
2776.8017998722239
 20
2085.1990213634799
 30
0.0
 11
2904.0031220576416
 21
2085.1990213634799
 31
0.0
  0
LINE
  5
145
100
AcDbEntity
  8
0
370
              -2
390
0
  6
Continuous
 62
               0
100
AcDbLine
 10
2777.0031220596279
 20
2485.2602415483416
 30
0.0
 11
2904.0031220576416
 21
2485.2602415483416
 31
0.0
  0
LINE
  5
146
100
AcDbEntity
  8
0
370
              -2
390
0
  6
Continuous
 62
               0
100
AcDbLine
 10
2904.0031220576416
 20
2085.1990213634799
 30
0.0
 11
2904.0031220576416
 21
2485.2602415483416
 31
0.0
  0
CIRCLE
  5
147
102
{ACAD_REACTORS
330
148
102
}
100
AcDbEntity
  8
0
370
              -2
390
0
  6
Continuous
 62
               0
100
AcDbCircle
 10
2904.0031220576416
 20
2085.1990213634799
 30
0.0
 40
1.9998779296875
  0
HATCH
  5
148
100
AcDbEntity
  8
0
370
              -2
390
0
  6
Continuous
 62
               0
100
AcDbHatch
 10
0.0
 20
0.0
 30
0.0
210
0.0
220
0.0
230
1.0
  2
SOLID
 70
               1
 71
               1
 91
        1
 92
        1
 93
        1
 72
               2
 10
2904.0031220576416
 20
2085.1990213634799
 40
1.9998779296875
 50
0.0
 51
360.0
 73
               0
 97
        1
330
147
 75
               0
 76
               1
 98
        1
 10
0.0
 20
0.0
  0
CIRCLE
  5
149
102
{ACAD_REACTORS
330
14A
102
}
100
AcDbEntity
  8
0
370
              -2
390
0
  6
Continuous
 62
               0
100
AcDbCircle
 10
2904.0031220576416
 20
2485.2602415483416
 30
0.0
 40
1.9998779296875
  0
HATCH
  5
14A
100
AcDbEntity
  8
0
370
              -2
390
0
  6
Continuous
 62
               0
100
AcDbHatch
 10
0.0
 20
0.0
 30
0.0
210
0.0
220
0.0
230
1.0
  2
SOLID
 70
               1
 71
               1
 91
        1
 92
        1
 93
        1
 72
               2
 10
2904.0031220576416
 20
2485.2602415483416
 40
1.9998779296875
 50
0.0
 51
360.0
 73
               0
 97
        1
330
149
 75
               0
 76
               1
 98
        1
 10
0.0
 20
0.0
  0
MTEXT
  5
14B
100
AcDbEntity
  8
0
390
0
 62
               0
100
AcDbMText
 10
2870.1255048701414
 20
2261.4171297737353
 30
0.0
 40
24.432617187500004
 41
0.0
 71
               1
 72
               1
  1
400
  7
ＭＳ ゴシック
 11
0.0
 21
1.0
 31
0.0
 73
               1
 44
0.7828267384257843
  0
POINT
  5
14C
100
AcDbEntity
  8
Defpoints
370
               0
390
0
 62
               0
100
AcDbPoint
 10
2752.0031220596279
 20
2485.2602415483416
 30
0.0
  0
POINT
  5
14D
100
AcDbEntity
  8
Defpoints
370
               0
390
0
 62
               0
100
AcDbPoint
 10
2751.8017998722239
 20
2085.1990213634799
 30
0.0
  0
POINT
  5
14E
100
AcDbEntity
  8
Defpoints
370
               0
390
0
 62
               0
100
AcDbPoint
 10
2904.0031220576416
 20
2085.1990213634799
 30
0.0
  0
ENDBLK
  5
14F
100
AcDbEntity
  8
notes
390
0
100
AcDbBlockEnd
  0
BLOCK
  5
150
100
AcDbEntity
  8
notes
390
0
100
AcDbBlockBegin
  2
*D21
 70
               1
 10
0.0
 20
0.0
 30
0.0
  3
*D21
  1

  0
LINE
  5
151
100
AcDbEntity
  8
0
370
              -2
390
0
  6
Continuous
 62
               0
100
AcDbLine
 10
2608.9902375458232
 20
726.34009210039835
 30
0.0
 11
2608.9902375458232
 21
441.34009210039835
 31
0.0
  0
LINE
  5
152
100
AcDbEntity
  8
0
370
              -2
390
0
  6
Continuous
 62
               0
100
AcDbLine
 10
2569.0031220540095
 20
546.42091664229497
 30
0.0
 11
2569.0031220540095
 21
441.34009210039835
 31
0.0
  0
LINE
  5
153
100
AcDbEntity
  8
0
370
              -2
390
0
  6
Continuous
 62
               0
100
AcDbLine
 10
2608.9902375458232
 20
441.34009210039835
 30
0.0
 11
2569.0031220540095
 21
441.34009210039835
 31
0.0
  0
CIRCLE
  5
154
102
{ACAD_REACTORS
330
155
102
}
100
AcDbEntity
  8
0
370
              -2
390
0
  6
Continuous
 62
               0
100
AcDbCircle
 10
2608.9902375458232
 20
441.34009210039835
 30
0.0
 40
1.9998779296875
  0
HATCH
  5
155
100
AcDbEntity
  8
0
370
              -2
390
0
  6
Continuous
 62
               0
100
AcDbHatch
 10
0.0
 20
0.0
 30
0.0
210
0.0
220
0.0
230
1.0
  2
SOLID
 70
               1
 71
               1
 91
        1
 92
        1
 93
        1
 72
               2
 10
2608.9902375458232
 20
441.34009210039835
 40
1.9998779296875
 50
0.0
 51
360.0
 73
               0
 97
        1
330
154
 75
               0
 76
               1
 98
        1
 10
0.0
 20
0.0
  0
CIRCLE
  5
156
102
{ACAD_REACTORS
330
157
102
}
100
AcDbEntity
  8
0
370
              -2
390
0
  6
Continuous
 62
               0
100
AcDbCircle
 10
2569.0031220540095
 20
441.34009210039835
 30
0.0
 40
1.9998779296875
  0
HATCH
  5
157
100
AcDbEntity
  8
0
370
              -2
390
0
  6
Continuous
 62
               0
100
AcDbHatch
 10
0.0
 20
0.0
 30
0.0
210
0.0
220
0.0
230
1.0
  2
SOLID
 70
               1
 71
               1
 91
        1
 92
        1
 93
        1
 72
               2
 10
2569.0031220540095
 20
441.34009210039835
 40
1.9998779296875
 50
0.0
 51
360.0
 73
               0
 97
        1
330
156
 75
               0
 76
               1
 98
        1
 10
0.0
 20
0.0
  0
MTEXT
  5
158
100
AcDbEntity
  8
0
390
0
 62
               0
100
AcDbMText
 10
2573.1216797999164
 20
475.2177092878984
 30
0.0
 40
24.432617187500004
 41
0.0
 71
               1
 72
               1
  1
40
  7
ＭＳ ゴシック
 73
               1
 44
0.7828267384257843
  0
POINT
  5
159
100
AcDbEntity
  8
Defpoints
370
               0
390
0
 62
               0
100
AcDbPoint
 10
2569.0031220540095
 20
571.42091664229497
 30
0.0
  0
POINT
  5
15A
100
AcDbEntity
  8
Defpoints
370
               0
390
0
 62
               0
100
AcDbPoint
 10
2608.9902375458232
 20
751.34009210039835
 30
0.0
  0
POINT
  5
15B
100
AcDbEntity
  8
Defpoints
370
               0
390
0
 62
               0
100
AcDbPoint
 10
2608.9902375458232
 20
441.34009210039835
 30
0.0
  0
ENDBLK
  5
15C
100
AcDbEntity
  8
notes
390
0
100
AcDbBlockEnd
  0
BLOCK
  5
15D
100
AcDbEntity
  8
notes
390
0
100
AcDbBlockBegin
  2
*D22
 70
               1
 10
0.0
 20
0.0
 30
0.0
  3
*D22
  1

  0
LINE
  5
15E
100
AcDbEntity
  8
0
370
              -2
390
0
  6
Continuous
 62
               0
100
AcDbLine
 10
1427.9575594079311
 20
2329.0297747710206
 30
0.0
 11
1427.9575594079311
 21
2451.4784232795309
 31
0.0
  0
LINE
  5
15F
100
AcDbEntity
  8
0
370
              -2
390
0
  6
Continuous
 62
               0
100
AcDbLine
 10
1457.9575594079311
 20
2329.0297747710206
 30
0.0
 11
1457.9575594079311
 21
2451.4784232795309
 31
0.0
  0
LINE
  5
160
100
AcDbEntity
  8
0
370
              -2
390
0
  6
Continuous
 62
               0
100
AcDbLine
 10
1427.9575594079311
 20
2451.4784232795309
 30
0.0
 11
1333.2252783765914
 21
2451.4784232795309
 31
0.0
  0
LINE
  5
161
100
AcDbEntity
  8
0
370
              -2
390
0
  6
Continuous
 62
               0
100
AcDbLine
 10
1427.9575594079311
 20
2451.4784232795309
 30
0.0
 11
1457.9575594079311
 21
2451.4784232795309
 31
0.0
  0
CIRCLE
  5
162
102
{ACAD_REACTORS
330
163
102
}
100
AcDbEntity
  8
0
370
              -2
390
0
  6
Continuous
 62
               0
100
AcDbCircle
 10
1427.9575594079311
 20
2451.4784232795309
 30
0.0
 40
1.9998779296875
  0
HATCH
  5
163
100
AcDbEntity
  8
0
370
              -2
390
0
  6
Continuous
 62
               0
100
AcDbHatch
 10
0.0
 20
0.0
 30
0.0
210
0.0
220
0.0
230
1.0
  2
SOLID
 70
               1
 71
               1
 91
        1
 92
        1
 93
        1
 72
               2
 10
1427.9575594079311
 20
2451.4784232795309
 40
1.9998779296875
 50
0.0
 51
360.0
 73
               0
 97
        1
330
162
 75
               0
 76
               1
 98
        1
 10
0.0
 20
0.0
  0
CIRCLE
  5
164
102
{ACAD_REACTORS
330
165
102
}
100
AcDbEntity
  8
0
370
              -2
390
0
  6
Continuous
 62
               0
100
AcDbCircle
 10
1457.9575594079311
 20
2451.4784232795309
 30
0.0
 40
1.9998779296875
  0
HATCH
  5
165
100
AcDbEntity
  8
0
370
              -2
390
0
  6
Continuous
 62
               0
100
AcDbHatch
 10
0.0
 20
0.0
 30
0.0
210
0.0
220
0.0
230
1.0
  2
SOLID
 70
               1
 71
               1
 91
        1
 92
        1
 93
        1
 72
               2
 10
1457.9575594079311
 20
2451.4784232795309
 40
1.9998779296875
 50
0.0
 51
360.0
 73
               0
 97
        1
330
164
 75
               0
 76
               1
 98
        1
 10
0.0
 20
0.0
  0
MTEXT
  5
166
100
AcDbEntity
  8
0
390
0
 62
               0
100
AcDbMText
 10
1333.2252783765914
 20
2485.3560404670311
 30
0.0
 40
24.432617187500004
 41
0.0
 71
               1
 72
               1
  1
30
  7
ＭＳ ゴシック
 73
               1
 44
0.7828267384257843
  0
POINT
  5
167
100
AcDbEntity
  8
Defpoints
370
               0
390
0
 62
               0
100
AcDbPoint
 10
1457.9575594079311
 20
2304.0297747710206
 30
0.0
  0
POINT
  5
168
100
AcDbEntity
  8
Defpoints
370
               0
390
0
 62
               0
100
AcDbPoint
 10
1427.9575594079311
 20
2304.0297747710206
 30
0.0
  0
POINT
  5
169
100
AcDbEntity
  8
Defpoints
370
               0
390
0
 62
               0
100
AcDbPoint
 10
1427.9575594079311
 20
2451.4784232795309
 30
0.0
  0
ENDBLK
  5
16A
100
AcDbEntity
  8
notes
390
0
100
AcDbBlockEnd
  0
BLOCK
  5
16B
100
AcDbEntity
  8
notes
390
0
100
AcDbBlockBegin
  2
*D23
 70
               1
 10
0.0
 20
0.0
 30
0.0
  3
*D23
  1

  0
LINE
  5
16C
100
AcDbEntity
  8
0
370
              -2
390
0
  6
Continuous
 62
               0
100
AcDbLine
 10
1457.9575594079311
 20
2325.2569529829525
 30
0.0
 11
1457.9575594079311
 21
2451.4784232795309
 31
0.0
  0
LINE
  5
16D
100
AcDbEntity
  8
0
370
              -2
390
0
  6
Continuous
 62
               0
100
AcDbLine
 10
1757.9575594079311
 20
2325.2569529829525
 30
0.0
 11
1757.9575594079311
 21
2451.4784232795309
 31
0.0
  0
LINE
  5
16E
100
AcDbEntity
  8
0
370
              -2
390
0
  6
Continuous
 62
               0
100
AcDbLine
 10
1457.9575594079311
 20
2451.4784232795309
 30
0.0
 11
1757.9575594079311
 21
2451.4784232795309
 31
0.0
  0
CIRCLE
  5
16F
102
{ACAD_REACTORS
330
170
102
}
100
AcDbEntity
  8
0
370
              -2
390
0
  6
Continuous
 62
               0
100
AcDbCircle
 10
1457.9575594079311
 20
2451.4784232795309
 30
0.0
 40
1.9998779296875
  0
HATCH
  5
170
100
AcDbEntity
  8
0
370
              -2
390
0
  6
Continuous
 62
               0
100
AcDbHatch
 10
0.0
 20
0.0
 30
0.0
210
0.0
220
0.0
230
1.0
  2
SOLID
 70
               1
 71
               1
 91
        1
 92
        1
 93
        1
 72
               2
 10
1457.9575594079311
 20
2451.4784232795309
 40
1.9998779296875
 50
0.0
 51
360.0
 73
               0
 97
        1
330
16F
 75
               0
 76
               1
 98
        1
 10
0.0
 20
0.0
  0
CIRCLE
  5
171
102
{ACAD_REACTORS
330
172
102
}
100
AcDbEntity
  8
0
370
              -2
390
0
  6
Continuous
 62
               0
100
AcDbCircle
 10
1757.9575594079311
 20
2451.4784232795309
 30
0.0
 40
1.9998779296875
  0
HATCH
  5
172
100
AcDbEntity
  8
0
370
              -2
390
0
  6
Continuous
 62
               0
100
AcDbHatch
 10
0.0
 20
0.0
 30
0.0
210
0.0
220
0.0
230
1.0
  2
SOLID
 70
               1
 71
               1
 91
        1
 92
        1
 93
        1
 72
               2
 10
1757.9575594079311
 20
2451.4784232795309
 40
1.9998779296875
 50
0.0
 51
360.0
 73
               0
 97
        1
330
171
 75
               0
 76
               1
 98
        1
 10
0.0
 20
0.0
  0
MTEXT
  5
173
100
AcDbEntity
  8
0
390
0
 62
               0
100
AcDbMText
 10
1601.1874983178245
 20
2485.3560404670311
 30
0.0
 40
24.432617187500004
 41
0.0
 71
               1
 72
               1
  1
300
  7
ＭＳ ゴシック
 73
               1
 44
0.7828267384257843
  0
POINT
  5
174
100
AcDbEntity
  8
Defpoints
370
               0
390
0
 62
               0
100
AcDbPoint
 10
1757.9575594079311
 20
2300.2569529829525
 30
0.0
  0
POINT
  5
175
100
AcDbEntity
  8
Defpoints
370
               0
390
0
 62
               0
100
AcDbPoint
 10
1457.9575594079311
 20
2300.2569529829525
 30
0.0
  0
POINT
  5
176
100
AcDbEntity
  8
Defpoints
370
               0
390
0
 62
               0
100
AcDbPoint
 10
1457.9575594079311
 20
2451.4784232795309
 30
0.0
  0
ENDBLK
  5
177
100
AcDbEntity
  8
notes
390
0
100
AcDbBlockEnd
  0
BLOCK
  5
178
100
AcDbEntity
  8
notes
390
0
100
AcDbBlockBegin
  2
*D24
 70
               1
 10
0.0
 20
0.0
 30
0.0
  3
*D24
  1

  0
LINE
  5
179
100
AcDbEntity
  8
0
370
              -2
390
0
  6
Continuous
 62
               0
100
AcDbLine
 10
1728.3299371060029
 20
2211.4784232795328
 30
0.0
 11
1857.9575594079311
 21
2211.4784232795328
 31
0.0
  0
LINE
  5
17A
100
AcDbEntity
  8
0
370
              -2
390
0
  6
Continuous
 62
               0
100
AcDbLine
 10
1728.3299371060029
 20
2351.4784232795309
 30
0.0
 11
1857.9575594079311
 21
2351.4784232795309
 31
0.0
  0
LINE
  5
17B
100
AcDbEntity
  8
0
370
              -2
390
0
  6
Continuous
 62
               0
100
AcDbLine
 10
1857.9575594079311
 20
2211.4784232795328
 30
0.0
 11
1857.9575594079311
 21
2351.4784232795309
 31
0.0
  0
CIRCLE
  5
17C
102
{ACAD_REACTORS
330
17D
102
}
100
AcDbEntity
  8
0
370
              -2
390
0
  6
Continuous
 62
               0
100
AcDbCircle
 10
1857.9575594079311
 20
2211.4784232795328
 30
0.0
 40
1.9998779296875
  0
HATCH
  5
17D
100
AcDbEntity
  8
0
370
              -2
390
0
  6
Continuous
 62
               0
100
AcDbHatch
 10
0.0
 20
0.0
 30
0.0
210
0.0
220
0.0
230
1.0
  2
SOLID
 70
               1
 71
               1
 91
        1
 92
        1
 93
        1
 72
               2
 10
1857.9575594079311
 20
2211.4784232795328
 40
1.9998779296875
 50
0.0
 51
360.0
 73
               0
 97
        1
330
17C
 75
               0
 76
               1
 98
        1
 10
0.0
 20
0.0
  0
CIRCLE
  5
17E
102
{ACAD_REACTORS
330
17F
102
}
100
AcDbEntity
  8
0
370
              -2
390
0
  6
Continuous
 62
               0
100
AcDbCircle
 10
1857.9575594079311
 20
2351.4784232795309
 30
0.0
 40
1.9998779296875
  0
HATCH
  5
17F
100
AcDbEntity
  8
0
370
              -2
390
0
  6
Continuous
 62
               0
100
AcDbHatch
 10
0.0
 20
0.0
 30
0.0
210
0.0
220
0.0
230
1.0
  2
SOLID
 70
               1
 71
               1
 91
        1
 92
        1
 93
        1
 72
               2
 10
1857.9575594079311
 20
2351.4784232795309
 40
1.9998779296875
 50
0.0
 51
360.0
 73
               0
 97
        1
330
17E
 75
               0
 76
               1
 98
        1
 10
0.0
 20
0.0
  0
MTEXT
  5
180
100
AcDbEntity
  8
0
390
0
 62
               0
100
AcDbMText
 10
1824.0799422204311
 20
2257.6659215973568
 30
0.0
 40
24.432617187500004
 41
0.0
 71
               1
 72
               1
  1
140
  7
ＭＳ ゴシック
 11
0.0
 21
1.0
 31
0.0
 73
               1
 44
0.7828267384257843
  0
POINT
  5
181
100
AcDbEntity
  8
Defpoints
370
               0
390
0
 62
               0
100
AcDbPoint
 10
1703.3299371060029
 20
2351.4784232795309
 30
0.0
  0
POINT
  5
182
100
AcDbEntity
  8
Defpoints
370
               0
390
0
 62
               0
100
AcDbPoint
 10
1703.3299371060029
 20
2211.4784232795328
 30
0.0
  0
POINT
  5
183
100
AcDbEntity
  8
Defpoints
370
               0
390
0
 62
               0
100
AcDbPoint
 10
1857.9575594079311
 20
2211.4784232795328
 30
0.0
  0
ENDBLK
  5
184
100
AcDbEntity
  8
notes
390
0
100
AcDbBlockEnd
  0
BLOCK
  5
185
100
AcDbEntity
  8
notes
390
0
100
AcDbBlockBegin
  2
*D25
 70
               1
 10
0.0
 20
0.0
 30
0.0
  3
*D25
  1

  0
LINE
  5
186
100
AcDbEntity
  8
0
370
              -2
390
0
  6
Continuous
 62
               0
100
AcDbLine
 10
2544.0031220540095
 20
2415.2602415483389
 30
0.0
 11
2469.0031220596443
 21
2415.2602415483389
 31
0.0
  0
LINE
  5
187
100
AcDbEntity
  8
0
370
              -2
390
0
  6
Continuous
 62
               0
100
AcDbLine
 10
2548.0031220596434
 20
2485.2602415483443
 30
0.0
 11
2469.0031220596443
 21
2485.2602415483443
 31
0.0
  0
LINE
  5
188
100
AcDbEntity
  8
0
370
              -2
390
0
  6
Continuous
 62
               0
100
AcDbLine
 10
2469.0031220596443
 20
2415.2602415483389
 30
0.0
 11
2469.0031220596443
 21
2485.2602415483443
 31
0.0
  0
CIRCLE
  5
189
102
{ACAD_REACTORS
330
18A
102
}
100
AcDbEntity
  8
0
370
              -2
390
0
  6
Continuous
 62
               0
100
AcDbCircle
 10
2469.0031220596443
 20
2415.2602415483389
 30
0.0
 40
1.9998779296875
  0
HATCH
  5
18A
100
AcDbEntity
  8
0
370
              -2
390
0
  6
Continuous
 62
               0
100
AcDbHatch
 10
0.0
 20
0.0
 30
0.0
210
0.0
220
0.0
230
1.0
  2
SOLID
 70
               1
 71
               1
 91
        1
 92
        1
 93
        1
 72
               2
 10
2469.0031220596443
 20
2415.2602415483389
 40
1.9998779296875
 50
0.0
 51
360.0
 73
               0
 97
        1
330
189
 75
               0
 76
               1
 98
        1
 10
0.0
 20
0.0
  0
CIRCLE
  5
18B
102
{ACAD_REACTORS
330
18C
102
}
100
AcDbEntity
  8
0
370
              -2
390
0
  6
Continuous
 62
               0
100
AcDbCircle
 10
2469.0031220596443
 20
2485.2602415483443
 30
0.0
 40
1.9998779296875
  0
HATCH
  5
18C
100
AcDbEntity
  8
0
370
              -2
390
0
  6
Continuous
 62
               0
100
AcDbHatch
 10
0.0
 20
0.0
 30
0.0
210
0.0
220
0.0
230
1.0
  2
SOLID
 70
               1
 71
               1
 91
        1
 92
        1
 93
        1
 72
               2
 10
2469.0031220596443
 20
2485.2602415483443
 40
1.9998779296875
 50
0.0
 51
360.0
 73
               0
 97
        1
330
18B
 75
               0
 76
               1
 98
        1
 10
0.0
 20
0.0
  0
MTEXT
  5
18D
100
AcDbEntity
  8
0
390
0
 62
               0
100
AcDbMText
 10
2435.1255048721441
 20
2434.3852415483416
 30
0.0
 40
24.432617187500004
 41
0.0
 71
               1
 72
               1
  1
70
  7
ＭＳ ゴシック
 11
0.0
 21
1.0
 31
0.0
 73
               1
 44
0.7828267384257843
  0
POINT
  5
18E
100
AcDbEntity
  8
Defpoints
370
               0
390
0
 62
               0
100
AcDbPoint
 10
2573.0031220596434
 20
2485.2602415483443
 30
0.0
  0
POINT
  5
18F
100
AcDbEntity
  8
Defpoints
370
               0
390
0
 62
               0
100
AcDbPoint
 10
2569.0031220540095
 20
2415.2602415483389
 30
0.0
  0
POINT
  5
190
100
AcDbEntity
  8
Defpoints
370
               0
390
0
 62
               0
100
AcDbPoint
 10
2469.0031220596443
 20
2415.2602415483389
 30
0.0
  0
ENDBLK
  5
191
100
AcDbEntity
  8
notes
390
0
100
AcDbBlockEnd
  0
BLOCK
  5
192
100
AcDbEntity
  8
AAA70-1104
390
0
100
AcDbBlockBegin
  2
グループ-1
 70
               0
 10
0.0
 20
0.0
 30
0.0
  3
グループ-1
  1

  0
LWPOLYLINE
  5
193
100
AcDbEntity
  8
0
370
               5
390
0
  6
STYLE_12
 62
               7
100
AcDbPolyline
 90
       43
 70
             128
 10
-228.06247804853004
 20
1131.0967921069778
 42
0.003234452244017
 10
-228.24449155542405
 20
1132.8347682512599
 10
-228.4845658544148
 20
1134.9923199537138
 42
0.0193993342615679
 10
-229.39149875362759
 20
1141.0090210263124
 10
-229.79984865120261
 20
1143.1507386393364
 42
0.0128724896082295
 10
-231.25994305869156
 20
1149.8643830014153
 10
-231.26429000114695
 20
1149.8821545913856
 42
0.0128107605873703
 10
-233.05755197064607
 20
1156.4767058023681
 10
-233.06198514196197
 20
1156.491500565161
 42
0.0127527028363801
 10
-235.18028946633947
 20
1162.9564716100792
 10
-235.18459479629905
 20
1162.9685603058285
 42
0.0126965161522133
 10
-237.61984148835612
 20
1169.293468692046
 10
-237.62383509821589
 20
1169.3031040400508
 42
0.012644478990736
 10
-240.36789777023776
 20
1175.4774878799294
 10
-240.37142031290784
 20
1175.4849028215797
 42
0.012598532849915
 10
-243.41615114160689
 20
1181.4983207341634
 10
-243.41905701994062
 20
1181.5037180449233
 42
0.0125604641952749
 10
-246.7563013809129
 20
1187.3457629694683
 10
-246.75846995575222
 20
1187.3493470656738
 42
0.0125312005132561
 10
-250.38003963485906
 20
1193.0095964060733
 42
0.0125087613242233
 10
-254.27911230856171
 20
1198.4796595977225
 42
0.0125031055309727
 10
-258.44522446074939
 20
1203.7457390214038
 42
0.0125095986458473
 10
-262.87002267351318
 20
1208.797547074164
 42
0.0125266416357761
 10
-267.54523751716806
 20
1213.6248895783317
 42
0.0125447724140739
 10
-272.45876204555827
 20
1218.214163301365
 10
-272.46260630346569
 20
1218.2175773873371
 42
0.0125785276181177
 10
-277.60826305209838
 20
1222.5609117291854
 10
-277.61384512000404
 20
1222.5653879132415
 42
0.0126207744961041
 10
-282.98313415504896
 20
1226.6526538041876
 10
-282.99067342721037
 20
1226.6580979696075
 42
0.0126700096423008
 10
-288.57506795051273
 20
1230.4791700432766
 10
-288.58481077648617
 20
1230.485480135641
 42
0.0127244103131554
 10
-294.37575721559188
 20
1234.0302443869484
 10
-294.38797632340993
 20
1234.037302981322
 42
0.0127818492374995
 10
-300.37689502209383
 20
1237.2956638705812
 10
-300.39188801461
 20
1237.3033310388787
 42
0.0128399316348425
 10
-306.57017547363944
 20
1240.2652185978072
 10
-306.58826223566348
 20
1240.2733250824624
 42
0.0128959715135616
 10
-312.94729536985801
 20
1242.9287027712994
 10
-312.96880732610634
 20
1242.9370408966849
 42
0.0129435144832336
 10
-319.49992083042923
 20
1245.2759562808142
 10
-319.51135091961532
 20
1245.2797187848537
 42
0.0032375612011345
 10
-321.17479629939771
 20
1245.8153712085386
 42
0.0032375612011345
  0
LWPOLYLINE
  5
194
100
AcDbEntity
  8
0
370
               5
390
0
  6
STYLE_12
 62
               7
100
AcDbPolyline
 90
       31
 70
             128
 10
-321.17479629939771
 20
1245.8153712085386
 42
0.0021224323876035
 10
-323.28111730524012
 20
1246.4687710161713
 10
-323.80952420559242
 20
1246.6302319731235
 42
0.0041055452456405
 10
-326.98316202204319
 20
1247.5715531400028
 10
-328.59001119516097
 20
1248.0338347329982
 42
0.0075543106455942
 10
-335.01140958252944
 20
1249.7766356059992
 10
-336.11081988182832
 20
1250.0572589712372
 42
0.0068081324996651
 10
-344.78581598338377
 20
1252.1461560403609
 10
-344.81616690008627
 20
1252.1530285746719
 42
0.0061133710730015
 10
-353.60326048796702
 20
1254.0301026484306
 10
-353.62909560737103
 20
1254.035292028055
 42
0.0054555910533562
 10
-362.50917612683708
 20
1255.7184082585027
 10
-362.52959625731773
 20
1255.7220483147341
 42
0.004831087135743
 10
-371.4834434696985
 20
1257.2290339466499
 10
-371.49766398407428
 20
1257.2312862765039
 42
0.0042356522241027
 10
-380.50593844944166
 20
1258.5799477120711
 10
-380.51328801230375
 20
1258.5809844653697
 42
0.003664527708573
 10
-389.55645152491797
 20
1259.7891148018969
 10
-389.56444556402801
 20
1259.7901231953351
 42
0.0031133926580605
 10
-398.60713267239367
 20
1260.8736379269117
 10
-398.62342769629265
 20
1260.8754875859911
 42
0.002575114439373
 10
-407.64530366411884
 20
1261.8525305480341
 10
-407.67022369739948
 20
1261.8550995376527
 42
0.0020521832553437
 10
-416.65093869880559
 20
1262.743679185058
 10
-416.684759282333
 20
1262.746885383234
 42
0.0015221040695231
 10
-425.60397082837437
 20
1263.5650403338752
 10
-426.7420105792861
 20
1263.6659395550087
 42
0.0009734861603948
 10
-433.38875523327681
 20
1264.2422030239625
 10
-434.50874245541831
 20
1264.3371077442143
 42
0.0002824465824636
 10
-438.91684422345463
 20
1264.7081306257719
 42
0.000088885554002
 10
-441.11562339358272
 20
1264.8915539342324
 42
0.000088885554002
  0
LWPOLYLINE
  5
195
100
AcDbEntity
  8
0
370
               5
390
0
  6
STYLE_12
 62
               7
100
AcDbPolyline
 90
       34
 70
             128
 10
-217.04244059206897
 20
666.47842327952981
 42
-0.0000206512740399
 10
-217.05926324609152
 20
672.08781766262769
 10
-217.11677178139306
 20
691.53141023131161
 42
-0.0000464368545199
 10
-217.24424726018739
 20
736.02800228767273
 10
-217.32574697062677
 20
765.42945048604895
 42
0.0001676481738884
 10
-217.48598784605136
 20
816.99925407627825
 10
-217.49939781008482
 20
820.89459871553754
 42
0.0001641075441346
 10
-217.66447885556207
 20
864.67360511705328
 10
-217.67176361915537
 20
866.45080968311606
 42
0.0006998490917124
 10
-217.89294588241594
 20
906.67504318194756
 10
-217.95058158034348
 20
915.02987906915826
 42
0.0005652953247202
 10
-218.1393790226455
 20
938.54391775232716
 10
-218.14849505785295
 20
939.53913859979741
 42
0.0007249538145529
 10
-218.37685164483585
 20
961.06219103921217
 42
0.0009267030944968
 10
-218.67630403669602
 20
982.58435737510501
 10
-218.69411321618523
 20
983.71384482434246
 42
0.0015491526837186
 10
-219.0719640488451
 20
1003.7412151518452
 10
-219.11508200201988
 20
1005.7041272382489
 42
0.0015865325618538
 10
-219.51983157947441
 20
1021.8032183928691
 10
-219.53885462197582
 20
1022.4750195772868
 42
0.001943197293657
 10
-220.01397540834094
 20
1037.2273775492508
 10
-220.03546453413077
 20
1037.8226877661973
 42
0.0023485709440683
 10
-220.58862164850873
 20
1051.3799805186557
 10
-220.61222236949064
 20
1051.8985941026194
 42
0.0027839805186041
 10
-221.25153641086357
 20
1064.4125017120991
 10
-221.27656946032945
 20
1064.8542166608681
 42
0.0032268538871128
 10
-222.0105018361069
 20
1076.4763980351511
 10
-222.0358913476434
 20
1076.8410251960397
 42
0.0036430720971654
 10
-222.87334116234254
 20
1087.7231137530509
 42
0.0039613688902997
 10
-223.87618648827984
 20
1098.5911550437347
 10
-224.38804238374362
 20
1103.6958865500069
 42
0.0135011171747019
 10
-227.06777981842041
 20
1124.6930733577976
 10
-227.87933771868896
 20
1129.9233422958482
 42
0.000441507771957
 10
-228.06247804853004
 20
1131.0967921069778
 42
0.000441507771957
  0
LWPOLYLINE
  5
196
100
AcDbEntity
  8
0
370
               5
390
0
  6
STYLE_12
 62
               7
100
AcDbPolyline
 90
       61
 70
             128
 10
-441.11562339358272
 20
1264.8915539342324
 42
0.0007827547315109
 10
-442.04017779238643
 20
1264.9670588041424
 10
-443.20585157564108
 20
1265.0604181741785
 42
0.0054118041796398
 10
-446.46431261418735
 20
1265.2859250455253
 10
-447.17584132166155
 20
1265.3274348698792
 42
0.0039432617466832
 10
-451.86166427300685
 20
1265.56373662342
 10
-452.36512448090082
 20
1265.5851465323558
 42
0.0090730534174104
 10
-458.06224994567134
 20
1265.7239235179836
 10
-459.02166993259829
 20
1265.7298803442636
 42
0.0051095377184398
 10
-462.85553827646038
 20
1265.7145053468194
 42
0.0054731664458637
 10
-466.68980153186624
 20
1265.617955461893
 42
0.0058926829208505
 10
-470.52148778583125
 20
1265.434285749898
 10
-470.52478399714141
 20
1265.4340887685814
 42
0.0063442080851666
 10
-474.34323583381513
 20
1265.1572364107599
 10
-474.34859001580412
 20
1265.1567798532394
 42
0.0068228482666577
 10
-478.14768630116293
 20
1264.780544825881
 10
-478.15478810085949
 20
1264.7797435185585
 42
0.0073315741330779
 10
-481.92748149361034
 20
1264.297944841167
 10
-481.93598132454281
 20
1264.2967324433653
 42
0.007871352502053
 10
-485.67526506882029
 20
1263.7031659369036
 10
-485.68477188508882
 20
1263.7015030155719
 42
0.0084424209397832
 10
-489.38368146014011
 20
1262.9899323082745
 10
-489.3937616905493
 20
1262.987816053371
 42
0.0090440288865708
 10
-493.04537497463559
 20
1262.1519619057162
 10
-493.05555323483861
 20
1262.1494375296381
 42
0.0096741285099829
 10
-496.6529884846376
 20
1261.1829655224781
 10
-496.66275082968372
 20
1261.1801392168045
 42
0.0103290238620551
 10
-500.1991616438487
 20
1260.0766460660107
 10
-500.20796223800539
 20
1260.0736991289782
 42
0.0110029991294992
 10
-503.67652859457905
 20
1258.8266982066662
 10
-503.683800715666
 20
1258.8239015938536
 42
0.0116879637026721
 10
-507.07771520210065
 20
1257.4268086518716
 10
-507.08288739875508
 20
1257.4245367492895
 42
0.0123731724999542
 10
-510.39533596258264
 20
1255.870657328117
 10
-510.39785386991207
 20
1255.869399244996
 42
0.0130451011462529
 10
-513.62199088053819
 20
1254.1519197397256
 42
0.0136903535477194
 10
-516.75026278073062
 20
1252.2642706806914
 42
0.0142822161644837
 10
-519.76863409003681
 20
1250.2043491184706
 10
-519.77271566451202
 20
1250.2013892790303
 42
0.0148093643366731
 10
-522.67409545587702
 20
1247.9633583524048
 10
-522.68189477509497
 20
1247.9569650528258
 42
0.015249326510764
 10
-525.45870197280499
 20
1245.5354849174894
 10
-525.47032892747313
 20
1245.5247042998537
 42
0.0155840151973212
 10
-528.11514630272109
 20
1242.9145005785244
 10
-528.13053534148401
 20
1242.898335828479
 42
0.0157986899354012
 10
-530.63612935661433
 20
1240.0941588622654
 10
-530.6550267148549
 20
1240.0716149002067
 42
0.0158835524175215
 10
-533.0143545570686
 20
1237.0681921099156
 10
-533.03631970372419
 20
1237.0383244076299
 42
0.0158348891519009
 10
-535.24252115640218
 20
1233.8303108496755
 10
-535.26694352820243
 20
1233.7922727808611
 42
0.01565552277137
 10
-537.31331767772792
 20
1230.3742058282312
 10
-537.33944727180472
 20
1230.3272888035494
 42
0.015354464244445
 10
-539.21941666025839
 20
1226.6935525196875
 10
-539.24640463166304
 20
1226.6372145061846
 42
0.0149455957845539
 10
-540.95347336795271
 20
1222.782019016802
 10
-541.1695404949495
 20
1222.2517984579617
 42
0.0144021244473603
 10
-542.34639024135424
 20
1219.1076603210577
 10
-542.52078679736064
 20
1218.5974357380296
 42
0.0069814360675072
 10
-543.2279945320239
 20
1216.4299663290067
 42
0.0034160291595991
 10
-543.56225560929408
 20
1215.3283432137487
 42
0.0034160291595991
  0
LWPOLYLINE
  5
197
100
AcDbEntity
  8
0
370
               5
390
0
  6
STYLE_12
 62
               7
100
AcDbPolyline
 90
       20
 70
             128
 10
-217.04244059206897
 20
666.47842327953708
 42
0.0002817673355026
 10
-217.10243924306562
 20
662.20907261105071
 10
-217.14559633581123
 20
659.00981044415289
 42
0.0005219990698589
 10
-217.2783658202838
 20
648.34176301934735
 10
-217.31486363014099
 20
645.14058870567396
 42
-0.0001463736909547
 10
-217.51448079813534
 20
628.07075165124911
 42
-0.000806645844703
 10
-217.74661420684473
 20
611.00259062525743
 42
-0.001467996092746
 10
-218.05636997513423
 20
593.93677306211248
 42
-0.0021293494942448
 10
-218.48888916208082
 20
576.87407513841072
 42
-0.0027901614250598
 10
-219.08931969211474
 20
559.81527646567247
 42
-0.0034495692693354
 10
-219.90282193459714
 20
542.76115808342638
 42
-0.0041054842414124
 10
-220.97455822098144
 20
525.71250381715095
 42
-0.0047603672794574
 10
-222.34886729984794
 20
508.67986275964131
 10
-222.34974847570314
 20
508.6701019680479
 42
-0.0053991494670183
 10
-224.07178444935136
 20
491.64961965710626
 10
-224.31084763592114
 20
489.51694383421238
 42
-0.0060595480255642
 10
-225.90006997558956
 20
476.7401951306374
 10
-226.19006164511262
 20
474.6189707306221
 42
-0.0032686739818128
 10
-227.40976321814153
 20
466.11190517125692
 42
-0.0016900822716168
 10
-228.06247804853004
 20
461.86005445208934
 42
-0.0016900822716168
  0
LWPOLYLINE
  5
198
100
AcDbEntity
  8
0
370
               5
390
0
  6
STYLE_12
 62
               7
100
AcDbPolyline
 90
       38
 70
             128
 10
-543.56225560929408
 20
1215.3283432137487
 42
0.0438929529543871
 10
-543.72669196647382
 20
1214.9536972313788
 10
-543.75073910355798
 20
1214.8825331221481
 42
0.0153824087100939
 10
-543.91380975768277
 20
1214.3460778360736
 10
-543.9655455265821
 20
1214.1549410788732
 42
0.012376169744244
 10
-544.1925723286945
 20
1213.2255739468008
 10
-544.25192037691306
 20
1212.9535914019418
 42
0.0091093342511217
 10
-544.54759080359804
 20
1211.4692517062956
 10
-544.60788563311701
 20
1211.1348723165147
 42
0.0069730460652151
 10
-544.96692704038412
 20
1208.9713792047601
 10
-545.02713406737178
 20
1208.5743837367233
 42
0.0054971049968635
 10
-545.44379418327571
 20
1205.6073112336235
 10
-545.50319962519927
 20
1205.1476375724317
 42
0.0044389157929115
 10
-545.97146778201807
 20
1201.2524794719407
 10
-546.02956476554311
 20
1200.7301246289339
 42
0.0036562675642746
 10
-546.54326434018219
 20
1195.7823430582764
 10
-546.59968225992645
 20
1195.1973277864065
 42
0.0032527919785176
 10
-547.1501882645565
 20
1189.0721777746962
 10
-547.40380829904518
 20
1186.0283218861873
 42
0.0047201862418568
 10
-548.30629549585433
 20
1173.8033586914034
 10
-548.37787940293686
 20
1172.6907341695314
 42
0.0019619157971163
 10
-549.25137633875966
 20
1158.2285744577789
 10
-549.39287720762024
 20
1155.72242929555
 42
0.0031966277348
 10
-550.36806040399188
 20
1136.2383171322374
 10
-550.63511962677956
 20
1130.1191248169182
 42
0.0025142884336464
 10
-551.86027073525702
 20
1098.3842325584951
 10
-552.00182742972618
 20
1094.1675562234611
 42
0.0020425073656409
 10
-553.18637608218557
 20
1053.9883115706227
 10
-553.30613412276819
 20
1049.2722241455313
 42
0.0016916341809788
 10
-554.39818726736621
 20
999.65227100420464
 10
-554.49531566777785
 20
994.43695432043137
 42
0.0014235093832904
 10
-555.44276382348949
 20
934.37997568397418
 10
-555.51664076189547
 20
928.66558024980009
 42
0.0012150731283036
 10
-556.26712698385506
 20
857.17528954285433
 10
-556.31725245009272
 20
850.96193873646803
 42
0.0010454664667274
 10
-556.81878648483416
 20
767.04207394758737
 10
-556.83134167474111
 20
763.81066499844223
 42
0.0008582481652271
 10
-557.04244059206906
 20
666.47842327953344
 42
0.0008582481652271
  0
LWPOLYLINE
  5
199
100
AcDbEntity
  8
0
370
               5
390
0
  6
STYLE_12
 62
               7
100
AcDbPolyline
 90
       43
 70
             128
 10
-228.06247804853004
 20
461.86005445208934
 42
-0.0032344522440492
 10
-228.24449155542328
 20
460.12207830781398
 10
-228.4845658544148
 20
457.96452660535329
 42
-0.019399334261588
 10
-229.39149875362796
 20
451.94782553275417
 10
-229.79984865120309
 20
449.80610791973072
 42
-0.0128724896082381
 10
-231.25994305869293
 20
443.09246355765168
 10
-231.2642900011484
 20
443.07469196768091
 42
-0.012810760587257
 10
-233.05755197064676
 20
436.48014075669931
 10
-233.0619851419622
 20
436.46534599390787
 42
-0.0127527028364591
 10
-235.18028946633902
 20
430.00037494898839
 10
-235.18459479629939
 20
429.98828625323682
 42
-0.0126965161521898
 10
-237.61984148835543
 20
423.66337786702167
 10
-237.62383509821416
 20
423.65374251901937
 42
-0.0126444789908244
 10
-240.36789777023799
 20
417.47935867913822
 10
-240.37142031290966
 20
417.47194373748459
 42
-0.0125985328497844
 10
-243.41615114160734
 20
411.45852582490426
 10
-243.4190570199396
 20
411.45312851414718
 42
-0.0125604641952804
 10
-246.75630138091154
 20
405.61108358959933
 10
-246.75846995575009
 20
405.60749949339521
 42
-0.0125312005133686
 10
-250.38003963485747
 20
399.94725015299429
 42
-0.0125170574394403
 10
-254.27911230856193
 20
394.4771869613449
 42
-0.0125048844918262
 10
-258.44522446074984
 20
389.21110753766408
 42
-0.0125046193801212
 10
-262.8700226735134
 20
384.15929948490412
 42
-0.0125146092745051
 10
-267.54523751716806
 20
379.33195698073615
 42
-0.0125447724141553
 10
-272.45876204555736
 20
374.74268325770396
 10
-272.46260630346546
 20
374.73926917173122
 42
-0.0125785276180095
 10
-277.60826305209912
 20
370.39593482988198
 10
-277.61384512000382
 20
370.39145864582662
 42
-0.012620774496158
 10
-282.98313415504953
 20
366.30419275487878
 10
-282.990673427209
 20
366.29874858946033
 42
-0.0126700096423447
 10
-288.57506795050705
 20
362.47767651579471
 10
-288.58481077648457
 20
362.47136642342758
 42
-0.0127244103131532
 10
-294.37575721559551
 20
358.92660217211801
 10
-294.38797632340948
 20
358.91954357774677
 42
-0.0127818492374593
 10
-300.37689502209423
 20
355.66118268848709
 10
-300.39188801460978
 20
355.65351552018984
 42
-0.0128399316348268
 10
-306.57017547363318
 20
352.69162796126324
 10
-306.58826223566211
 20
352.6835214766059
 42
-0.0128959715135788
 10
-312.9472953698554
 20
350.02814378776884
 10
-312.96880732610498
 20
350.01980566238291
 42
-0.012943514483358
 10
-319.49992083043122
 20
347.68089027825425
 10
-319.51135091961532
 20
347.67712777421531
 42
-0.0032378475946815
 10
-321.17479629939771
 20
347.14147535053036
 42
-0.0032378475946815
  0
LWPOLYLINE
  5
19A
100
AcDbEntity
  8
0
370
               5
390
0
  6
STYLE_12
 62
               7
100
AcDbPolyline
 90
       50
 70
             128
 10
-543.56225560929408
 20
377.62850334531851
 42
-0.021493121971206
 10
-543.60969230012734
 20
377.70697856394719
 10
-543.64244131799035
 20
377.76682173716227
 42
-0.0211370608079787
 10
-543.74335349798605
 20
377.97129125035775
 10
-543.80647852322602
 20
378.11410399504922
 42
-0.0163899363242739
 10
-544.00856635024115
 20
378.61509307141165
 10
-544.02147155369391
 20
378.65037714479223
 42
-0.0073449848243407
 10
-544.22440526484434
 20
379.23154181203307
 10
-544.27798488708947
 20
379.3925447349032
 42
-0.0120382505568204
 10
-544.55755785543693
 20
380.30542861327245
 10
-544.65441202271938
 20
380.65120441109985
 42
-0.0096774349010939
 10
-545.07436688144901
 20
382.27050093253325
 10
-545.14387817416662
 20
382.5616006416065
 42
-0.0079777458752142
 10
-545.63612818228705
 20
384.7790801049394
 10
-545.70486137165392
 20
385.11386983653648
 42
-0.0066739939318198
 10
-546.26045254171891
 20
388.01619970844342
 10
-546.32771277782797
 20
388.39485991646944
 42
-0.0056566859924611
 10
-546.93751615880251
 20
392.06882571220956
 10
-547.00275831683132
 20
392.49144431417227
 42
-0.0048500573850808
 10
-547.65751338873474
 20
397.02389781582724
 10
-547.72030561689064
 20
397.49051034660607
 42
-0.0042010473955482
 10
-548.41065272935055
 20
402.96834072280882
 10
-548.47064915491103
 20
403.47895301690806
 42
-0.0036719012779025
 10
-549.18715339496043
 20
409.98907038217686
 10
-549.24407392592332
 20
410.54367163212561
 42
-0.0032353050686892
 10
-549.97724265649686
 20
418.17299753259755
 10
-550.03085803065926
 20
418.77156791837189
 42
-0.0028711759550794
 10
-550.77115384985404
 20
427.6070297632341
 10
-550.82127450194128
 20
428.24954495186586
 42
-0.0025645203344007
 10
-551.55912490326136
 20
438.37807273776087
 10
-551.60559260279217
 20
439.06450654454994
 42
-0.0023039834359777
 10
-552.33139724993748
 20
450.57303093514901
 10
-552.37407875783299
 20
451.30335688805371
 42
-0.0020808518338814
 10
-553.07821502338618
 20
464.27880810516211
 10
-553.11699723053528
 20
465.05300034691959
 42
-0.0018883572736481
 10
-553.78982445209203
 20
479.58230755213719
 10
-553.82461061449646
 20
480.40034133949666
 42
-0.001721181649455
 10
-554.45647342669815
 20
496.57043231263737
 10
-554.48718022491573
 20
497.43228426973178
 42
-0.0015751077843629
 10
-555.06841106970001
 20
515.33008527183404
 10
-555.09496627252531
 20
516.23573349368894
 42
-0.0014467381516096
 10
-555.61588786666914
 20
535.94816922395319
 10
-555.63822853390514
 20
536.89759328688365
 42
-0.0013333972585114
 10
-556.08915369520946
 20
558.51158694740241
 10
-556.10722446111993
 20
559.50476790073094
 42
-0.0012326101088715
 10
-556.47846558924198
 20
583.10724118734049
 10
-556.49221843629073
 20
584.14416127704521
 42
-0.0011687364212486
 10
-556.77275843631605
 20
609.82204569113014
 10
-556.77730504042586
 20
610.35148029276775
 42
-0.0019318157290278
 10
-557.04244059206906
 20
666.47842327953344
 42
-0.0019318157290278
  0
LWPOLYLINE
  5
19B
100
AcDbEntity
  8
0
370
               5
390
0
  6
STYLE_12
 62
               7
100
AcDbPolyline
 90
       31
 70
             128
 10
-321.17479629939771
 20
347.14147535053036
 42
-0.0021224323877081
 10
-323.28111730522198
 20
346.48807554290289
 10
-323.80952420559288
 20
346.32661458594504
 42
-0.0041055452456016
 10
-326.98316202205154
 20
345.38529341906332
 10
-328.59001119516165
 20
344.92301182607008
 42
-0.0075543106456107
 10
-335.01140958253092
 20
343.18021095306852
 10
-336.11081988182764
 20
342.89958758783115
 42
-0.006808132499658
 10
-344.78581598337911
 20
340.81069051870816
 10
-344.81616690008514
 20
340.8038179843964
 42
-0.0061133710730152
 10
-353.60326048796901
 20
338.92674391063724
 10
-353.6290956073708
 20
338.92155453101333
 42
-0.0054555910533155
 10
-362.50917612682764
 20
337.23843830056711
 10
-362.52959625731683
 20
337.23479824433417
 42
-0.0048310871358019
 10
-371.4834434697126
 20
335.72781261241624
 10
-371.4976639840736
 20
335.72556028256469
 42
-0.0042356522240585
 10
-380.50593844943188
 20
334.37689884699921
 10
-380.51328801230443
 20
334.37586209369903
 42
-0.0036646005396295
 10
-389.5564515249182
 20
333.16773175717191
 10
-389.56444556400243
 20
333.16672336373699
 42
-0.0031133926580472
 10
-398.60713267239345
 20
332.08320863215732
 10
-398.62342769632352
 20
332.08135897307437
 42
-0.0025751144393622
 10
-407.64530366411975
 20
331.1043160110342
 10
-407.6702236973822
 20
331.10174702141745
 42
-0.002052183255408
 10
-416.65093869880513
 20
330.21316737401077
 10
-416.68475928230117
 20
330.20996117583769
 42
-0.0015221040694638
 10
-425.6039708283721
 20
329.39180622519444
 10
-426.74201057937063
 20
329.29090700405334
 42
-0.0009734861604091
 10
-433.3887552332759
 20
328.71464353510675
 10
-434.50874245538205
 20
328.61973881485784
 42
-0.0002824465824882
 10
-438.91684422345463
 20
328.24871593329664
 42
-0.0000888208044488
 10
-441.11562339358272
 20
328.06529262483656
 42
-0.0000888208044488
  0
LWPOLYLINE
  5
19C
100
AcDbEntity
  8
0
370
               5
390
0
  6
STYLE_12
 62
               7
100
AcDbPolyline
 90
       61
 70
             128
 10
-441.11562339358272
 20
328.06529262483656
 42
-0.0007827547312804
 10
-442.04017779234863
 20
327.98978775493015
 10
-443.20585157564153
 20
327.89642838489073
 42
-0.0054118041796129
 10
-446.4643126141936
 20
327.67092151354291
 10
-447.17584132166201
 20
327.62941168918934
 42
-0.0039432617467782
 10
-451.86166427300554
 20
327.39310993564857
 10
-452.36512448090082
 20
327.37170002671274
 42
-0.0090730534173783
 10
-458.06224994567157
 20
327.23292304108537
 10
-459.02166993259226
 20
327.22696621480537
 42
-0.0051095377184222
 10
-462.85553827646083
 20
327.24234121224964
 42
-0.0054685766139577
 10
-466.68980153186646
 20
327.33889109717603
 42
-0.0058956478855269
 10
-470.52148778583216
 20
327.52256080917033
 10
-470.52478399714738
 20
327.52275779048722
 42
-0.0063442080853886
 10
-474.34323583381558
 20
327.79961014830843
 10
-474.34859001579616
 20
327.8000667058281
 42
-0.0068228482664451
 10
-478.14768630116316
 20
328.17630173318759
 10
-478.15478810086762
 20
328.17710304051093
 42
-0.0073315741332436
 10
-481.92748149361103
 20
328.65890171790153
 10
-481.93598132453673
 20
328.6601141157023
 42
-0.0078713525019816
 10
-485.67526506881961
 20
329.2536806221654
 10
-485.6847718850932
 20
329.25534354349793
 42
-0.0084424209397528
 10
-489.38368146013988
 20
329.96691425079445
 10
-489.39376169054282
 20
329.96903050569654
 42
-0.0090440288865831
 10
-493.04537497463605
 20
330.80488465335276
 10
-493.05555323483537
 20
330.80740902943
 42
-0.0096741285099434
 10
-496.6529884846376
 20
331.77388103659069
 10
-496.66275082968946
 20
331.77670734226598
 42
-0.0103290238621062
 10
-500.1991616438487
 20
332.88020049305788
 10
-500.20796223800772
 20
332.88314743009101
 42
-0.011002999129479
 10
-503.67652859457905
 20
334.13014835240239
 10
-503.68380071566207
 20
334.13294496521331
 42
-0.011687963702665
 10
-507.07771520210088
 20
335.53003790719714
 10
-507.08288739875388
 20
335.53230980977867
 42
-0.0123731724999166
 10
-510.39533596258241
 20
337.08618923095156
 10
-510.39785386991167
 20
337.08744731407245
 42
-0.0130451011462955
 10
-513.62199088053683
 20
338.80492681934248
 42
-0.0136847879282052
 10
-516.75026278072994
 20
340.69257587837711
 42
-0.0142822161645805
 10
-519.76863409003874
 20
342.75249744060005
 10
-519.77271566451179
 20
342.75545728003891
 42
-0.014809364336638
 10
-522.67409545587805
 20
344.99348820666643
 10
-522.68189477509361
 20
344.99988150624341
 42
-0.0152493265107854
 10
-525.45870197279919
 20
347.42136164157642
 10
-525.47032892747109
 20
347.43214225921548
 42
-0.0155840151969683
 10
-528.11514630272052
 20
350.04234598054381
 10
-528.13053534148378
 20
350.05851073058949
 42
-0.0157986899357872
 10
-530.63612935661649
 20
352.86268769680379
 10
-530.65502671485626
 20
352.88523165886164
 42
-0.0158835524173378
 10
-533.01435455706928
 20
355.88865444915228
 10
-533.03631970372555
 20
355.91852215143882
 42
-0.0158348891520654
 10
-535.24252115640252
 20
359.12653570939227
 10
-535.26694352820311
 20
359.16457377820717
 42
-0.015655522771315
 10
-537.31331767772849
 20
362.58264073083939
 10
-537.33944727180403
 20
362.6295577555191
 42
-0.0153544642442957
 10
-539.21941666025748
 20
366.26329403937967
 10
-539.24640463166281
 20
366.31963205288395
 42
-0.0149455957847691
 10
-540.95347336795237
 20
370.1748275422666
 10
-541.16954049494973
 20
370.70504810110941
 42
-0.0144021244471746
 10
-542.34639024135288
 20
373.84918623800996
 10
-542.5207867973586
 20
374.35941082103517
 42
-0.0069814360674615
 10
-543.22799453202344
 20
376.52688023006141
 42
-0.0034144195832635
 10
-543.56225560929408
 20
377.62850334531851
 42
-0.0034144195832635
  0
ENDBLK
  5
19D
100
AcDbEntity
  8
AAA70-1104
390
0
100
AcDbBlockEnd
  0
BLOCK
  5
19E
100
AcDbEntity
  8
AAA70-1104
390
0
100
AcDbBlockBegin
  2
グループ-2
 70
               0
 10
0.0
 20
0.0
 30
0.0
  3
グループ-2
  1

  0
LWPOLYLINE
  5
19F
100
AcDbEntity
  8
0
370
               5
390
0
  6
STYLE_12
 62
               7
100
AcDbPolyline
 90
       48
 70
             128
 10
-202.11453531863165
 20
1137.5314079809123
 42
0.0032146330951617
 10
-202.32775201519161
 20
1139.598179386486
 10
-202.49673023044286
 20
1141.13902055585
 42
0.0128673508363946
 10
-203.19321048183477
 20
1146.2681767795009
 10
-203.44346170262813
 20
1147.8120420015848
 42
0.0128210526450326
 10
-204.95938610756005
 20
1155.8530578239556
 10
-204.96487534781249
 20
1155.8785641604002
 42
0.0127658988926695
 10
-206.87783594343185
 20
1163.7808401419777
 10
-206.88365671536693
 20
1163.8024563828221
 42
0.0127067440191466
 10
-209.1837982796051
 20
1171.5541865389184
 10
-209.18966488022127
 20
1171.5722603126972
 42
0.0126461908925382
 10
-211.86708799286592
 20
1179.16164962218
 10
-211.87275849049186
 20
1179.1765138597827
 42
0.0125867974793701
 10
-214.9175236692495
 20
1186.5917856244407
 10
-214.92279321877706
 20
1186.6037527023307
 42
0.0125308870296631
 10
-218.32492798956926
 20
1193.8331535574359
 10
-218.32962111074585
 20
1193.8425102453486
 42
0.0124805256037246
 10
-222.0791282763237
 20
1200.8743145804372
 10
-222.08309211590543
 20
1200.8813213355379
 42
0.0124374369225767
 10
-226.16995547315767
 20
1207.7038300009594
 10
-226.17304657246723
 20
1207.7087106023694
 42
0.0124031800363884
 10
-230.58724876156364
 20
1214.3102649893742
 42
0.0123728078219884
 10
-235.320836229246
 20
1220.6821689452217
 42
0.0123629584110735
 10
-240.36061364460468
 20
1226.8081523830988
 42
0.0123625782714149
 10
-245.69642514122827
 20
1232.6767684848605
 42
0.012374465186069
 10
-251.3180417414392
 20
1238.2764890799967
 42
0.0123896014071485
 10
-257.21177467583112
 20
1243.5928298559541
 10
-257.21533789362593
 20
1243.5958873379657
 42
0.0124191588931821
 10
-263.37274492534971
 20
1248.6193154280641
 10
-263.37819599274985
 20
1248.6235415324811
 42
0.0124580208941411
 10
-269.78889902288773
 20
1253.3427044676619
 10
-269.79647121845915
 20
1253.347992936817
 42
0.012504949001484
 10
-276.45006941092993
 20
1257.7515468337936
 10
-276.46002234916841
 20
1257.7577818110717
 42
0.0125583352831879
 10
-283.34608309294634
 20
1261.8343916243543
 10
-283.35870770421252
 20
1261.8414434965
 42
0.0126162701159231
 10
-290.46676772988332
 20
1265.5797918905369
 10
-290.48238459999698
 20
1265.5875087456402
 42
0.0126765580238272
 10
-297.80195174241618
 20
1268.9763042260954
 10
-297.82090839690659
 20
1268.9845037833552
 42
0.0127367503248664
 10
-305.34146507342308
 20
1272.0124887289148
 10
-305.3641315168652
 20
1272.0209505794062
 42
0.012794169068729
 10
-313.07513966165067
 20
1274.6769090501082
 10
-314.06447452131221
 20
1274.9895969032864
 42
0.012842272648859
 10
-320.01586530278109
 20
1276.7037837762884
 10
-321.00709827942347
 20
1276.961916371685
 42
0.0064374814470946
 10
-325.03284647759892
 20
1277.9551205668381
 42
0.0032180039061263
 10
-327.0593636063918
 20
1278.4137647517473
 42
0.0032180039061263
  0
LWPOLYLINE
  5
1A0
100
AcDbEntity
  8
0
370
               5
390
0
  6
STYLE_12
 62
               7
100
AcDbPolyline
 90
       18
 70
             128
 10
-327.0593636063918
 20
1278.4137647517473
 42
0.0016656584919143
 10
-332.11496683677609
 20
1279.5061423927648
 10
-338.43457125029158
 20
1280.8496164244664
 42
0.0099838631661561
 10
-356.20107301502401
 20
1284.2573082553481
 10
-362.572089721547
 20
1285.3478921578899
 42
0.006649773237179
 10
-382.96630542456614
 20
1288.5603927117995
 42
0.0066436467401646
 10
-403.43332486078276
 20
1291.2289096004436
 42
0.0066412717757134
 10
-423.95502830445241
 20
1293.3516765790921
 42
0.0066400685936005
 10
-444.5204792047158
 20
1294.9281457421885
 42
0.0066400650405656
 10
-465.11874428362796
 20
1295.9577694186053
 42
0.0066412696440826
 10
-485.73888997394431
 20
1296.4399994662929
 42
0.0066436780332977
 10
-506.36998273589609
 20
1296.3742873424164
 42
0.0066472718572321
 10
-527.00108892098217
 20
1295.7600841044223
 42
0.0066500668784671
 10
-547.61400293228382
 20
1294.5973313868551
 10
-550.20145546550577
 20
1294.4168255044995
 42
0.0099841163984132
 10
-575.92764414953888
 20
1292.1051366468578
 10
-578.50126316895069
 20
1291.8219740155273
 42
0.0016654420908572
 10
-583.6407736541347
 20
1291.2391662274404
 42
0.0016654420908572
  0
LWPOLYLINE
  5
1A1
100
AcDbEntity
  8
0
370
               5
390
0
  6
STYLE_12
 62
               7
100
AcDbPolyline
 90
       51
 70
             128
 10
-583.6407736541347
 20
1291.2391662274404
 42
0.003585627953139
 10
-585.08898494425807
 20
1291.0595183221781
 10
-586.16648085144982
 20
1290.9180039793587
 42
0.0143812723274305
 10
-589.75181903035082
 20
1290.3417969791822
 10
-590.83207958561763
 20
1290.1361578747403
 42
0.0143354739548031
 10
-596.41600971059631
 20
1288.9063543877937
 10
-596.43936480676939
 20
1288.9005039664191
 42
0.0142703611374919
 10
-601.89752622648155
 20
1287.3664602457532
 10
-601.91711645773864
 20
1287.3603460241882
 42
0.0141940235265875
 10
-607.24037998651499
 20
1285.5315716401999
 10
-607.25659150785452
 20
1285.5254825699087
 42
0.0141108628648165
 10
-612.43583528119177
 20
1283.411542511891
 10
-612.44904174711007
 20
1283.4057122571562
 42
0.0140253351677694
 10
-617.47516169734615
 20
1281.016222628647
 10
-617.48571560908113
 20
1281.010837212468
 42
0.0139415826467492
 10
-622.34963295960972
 20
1278.355456866695
 10
-622.35785853492951
 20
1278.3506638665169
 42
0.0138633583448424
 10
-627.05052587652256
 20
1275.4390844747588
 10
-627.05671636092768
 20
1275.4350016445844
 42
0.0137938789029696
 10
-631.56911825559939
 20
1272.2769399024512
 10
-631.57352640316435
 20
1272.2736700247294
 42
0.0137360414995189
 10
-635.89669116236598
 20
1268.8788485426405
 10
-635.89955791796228
 20
1268.8764672336038
 42
0.0136915232622725
 10
-640.02451361538135
 20
1265.254644583755
 42
0.0136585254033205
 10
-643.94390012640667
 20
1261.4140987075873
 42
0.0136489330913032
 10
-647.64612095362941
 20
1257.3670280285132
 42
0.013657577486939
 10
-651.12238332719494
 20
1253.1233162580229
 42
0.013675315282039
 10
-654.36234194924782
 20
1248.6951085178619
 10
-654.36396986079717
 20
1248.6927508919807
 42
0.0137121140795369
 10
-657.35976996316595
 20
1244.0890234575415
 10
-657.36216554539737
 20
1244.0851114969355
 42
0.0137634496352354
 10
-660.10517199493734
 20
1239.3158664171046
 10
-660.10822503624286
 20
1239.3102029505317
 42
0.0138274729662959
 10
-662.58981086733695
 20
1234.3854689230993
 10
-662.59340024912854
 20
1234.3778269916425
 42
0.0139017114625114
 10
-664.80495050306206
 20
1229.3076673026892
 10
-664.8089373417547
 20
1229.2977863289798
 42
0.013983159275764
 10
-666.7418593834102
 20
1224.0922968548682
 10
-666.74607704330606
 20
1224.0798854896639
 42
0.0140683065572308
 10
-668.39181019147532
 20
1218.7491914765653
 10
-668.39605488602638
 20
1218.7339320542142
 42
0.0141531992666829
 10
-669.74607962070104
 20
1213.2881826785581
 10
-669.75010173001965
 20
1213.2697378589569
 42
0.0142335200789909
 10
-670.79594795987077
 20
1207.7190986700832
 10
-670.79944457677402
 20
1207.6971201895262
 42
0.0143046648677616
 10
-671.53269883139308
 20
1202.051763653853
 10
-671.60580645790071
 20
1201.3271801921953
 42
0.0143553274772133
 10
-671.91740887177571
 20
1196.9976234303233
 10
-671.94828743009271
 20
1196.2822655358498
 42
0.0071923665517117
 10
-672.03195544687924
 20
1193.37327280519
 42
0.003592296011871
 10
-672.04244059206894
 20
1191.91396277692
 42
0.003592296011871
  0
LWPOLYLINE
  5
1A2
100
AcDbEntity
  8
0
370
               5
390
0
  6
STYLE_12
 62
               7
100
AcDbPolyline
 90
       20
 70
             128
 10
-192.04244059206897
 20
666.47842327953344
 42
0.000120563787002
 10
-192.04126119571762
 20
662.07502243590613
 10
-192.03958147991605
 20
658.77476587708065
 42
-0.0000591263027377
 10
-192.03528211210832
 20
647.77085169154952
 10
-192.03438253180846
 20
644.46915458293142
 42
-0.0006573225625014
 10
-192.05272974635025
 20
626.86264326225
 42
-0.0012483208055803
 10
-192.13816760739499
 20
609.25801099972819
 42
-0.0018403936125335
 10
-192.33233055796134
 20
591.65591262907355
 42
-0.0024325024664636
 10
-192.67688765012375
 20
574.05709252365318
 42
-0.0030240643843575
 10
-193.21351472799986
 20
556.46229796998682
 42
-0.0036142065860172
 10
-193.98389900883015
 20
538.87227781024626
 42
-0.0042009848164947
 10
-195.02972907190795
 20
521.28778290495598
 42
-0.004786758330605
 10
-196.39189871560529
 20
503.71927962367278
 10
-196.39274506689597
 20
503.70957077656749
 42
-0.0053577857441376
 10
-198.11293638465497
 20
486.15312421585213
 10
-198.35228938387678
 20
483.95340556679815
 42
-0.0059478821946659
 10
-199.94509154111486
 20
470.77487030524298
 10
-200.23601592402383
 20
468.58665800029689
 42
-0.0031875028460039
 10
-201.45968715938264
 20
459.81129660849979
 42
-0.0016435675647514
 10
-202.11453531863165
 20
455.42543857815394
 42
-0.0016435675647514
  0
LINE
  5
1A3
100
AcDbEntity
  8
0
370
               5
390
0
  6
STYLE_12
 62
               7
100
AcDbLine
 10
-672.04244059206894
 20
401.04288378214716
 30
0.0
 11
-672.04244059206894
 21
1191.91396277692
 31
0.0
  0
LWPOLYLINE
  5
1A4
100
AcDbEntity
  8
0
370
               5
390
0
  6
STYLE_12
 62
               7
100
AcDbPolyline
 90
       48
 70
             128
 10
-202.11453531863165
 20
455.42543857815394
 42
-0.0032146330951034
 10
-202.32775201519124
 20
453.3586671725829
 10
-202.49673023044264
 20
451.81782600321662
 42
-0.0128673508364027
 10
-203.19321048183403
 20
446.68866977956674
 10
-203.44346170262727
 20
445.14480455748281
 42
-0.0128210526450992
 10
-204.95938610756005
 20
437.1037887351111
 10
-204.96487534781298
 20
437.07828239866444
 42
-0.012765898892608
 10
-206.87783594343253
 20
429.17600641708947
 10
-206.88365671536766
 20
429.15439017624493
 42
-0.0127067440190821
 10
-209.18379827960442
 20
421.40266002014897
 10
-209.1896648802205
 20
421.38458624637042
 42
-0.0126461908926782
 10
-211.86708799286524
 20
413.79519693688741
 10
-211.87275849049132
 20
413.7803326992842
 42
-0.0125867974792995
 10
-214.91752366925019
 20
406.36506093462646
 10
-214.92279321877828
 20
406.35309385673531
 42
-0.0125308870296016
 10
-218.32492798956881
 20
399.12369300163147
 10
-218.32962111074448
 20
399.11433631372051
 42
-0.0124805256038586
 10
-222.07912827632347
 20
392.0825319786307
 10
-222.08309211590577
 20
392.07552522352893
 42
-0.0124374369224377
 10
-226.1699554731579
 20
385.25301655810819
 10
-226.17304657246623
 20
385.24813595670025
 42
-0.0124031800364477
 10
-230.58724876156296
 20
378.64658156969318
 42
-0.0123841729286927
 10
-235.32083622924623
 20
372.27467761384543
 42
-0.0123675269846199
 10
-240.36061364460514
 20
366.14869417596839
 42
-0.0123610590825105
 10
-245.69642514122827
 20
360.2800780742071
 42
-0.0123665570644906
 10
-251.3180417414392
 20
354.6803574790718
 42
-0.0123896014071228
 10
-257.21177467582771
 20
349.36401670311767
 10
-257.21533789362661
 20
349.36095922110263
 42
-0.0124191588931793
 10
-263.37274492535329
 20
344.33753113100175
 10
-263.37819599275076
 20
344.33330502658674
 42
-0.0124580208941344
 10
-269.78889902288483
 20
339.61414209140838
 10
-269.79647121845892
 20
339.60885362225127
 42
-0.0125049490015523
 10
-276.45006941092885
 20
335.20529972527606
 10
-276.46002234916909
 20
335.19906474799683
 42
-0.0125583352830751
 10
-283.34608309294771
 20
331.12245493471363
 10
-283.35870770421343
 20
331.1154030625683
 42
-0.0126162701160293
 10
-290.46676772988553
 20
327.37705466853077
 10
-290.48238459999743
 20
327.36933781342833
 42
-0.0126765580237467
 10
-297.80195174241925
 20
323.98054233297228
 10
-297.82090839690773
 20
323.97234277571334
 42
-0.0127367503249138
 10
-305.34146507342427
 20
320.94435783015331
 10
-305.36413151686611
 20
320.93589597966212
 42
-0.0127941690687182
 10
-313.07513966165078
 20
318.2799375089607
 10
-314.06447452131266
 20
317.9672496557825
 42
-0.0128422726488552
 10
-320.01586530278087
 20
316.25306278278077
 10
-321.00709827941444
 20
315.99493018738644
 42
-0.0064374814470967
 10
-325.03284647759892
 20
315.00172599223134
 42
-0.0032181269355714
 10
-327.0593636063918
 20
314.5430818073217
 42
-0.0032181269355714
  0
LWPOLYLINE
  5
1A5
100
AcDbEntity
  8
0
370
               5
390
0
  6
STYLE_12
 62
               7
100
AcDbPolyline
 90
       51
 70
             128
 10
-583.6407736541347
 20
301.71768033162863
 42
-0.0035856279531835
 10
-585.08898494423329
 20
301.89732823688803
 10
-586.16648085144936
 20
302.03884257971077
 42
-0.0143812723273353
 10
-589.75181903035104
 20
302.61504957988774
 10
-590.83207958562252
 20
302.82068868433021
 42
-0.014335473954867
 10
-596.41600971059586
 20
304.05049217127527
 10
-596.43936480676359
 20
304.0563425926486
 42
-0.0142703611374973
 10
-601.89752622648109
 20
305.59038631331606
 10
-601.91711645773842
 20
305.59650053488116
 42
-0.0141940235264985
 10
-607.24037998651522
 20
307.42527491886887
 10
-607.25659150785975
 20
307.43136398916187
 42
-0.014110862864942
 10
-612.435835281192
 20
309.54530404717735
 10
-612.44904174710894
 20
309.55113430191153
 42
-0.0140253351677169
 10
-617.47516169734592
 20
311.94062393042151
 10
-617.48571560908226
 20
311.9460093466011
 42
-0.0139415826467223
 10
-622.34963295961018
 20
314.60138969237352
 10
-622.35785853492837
 20
314.6061826925507
 42
-0.0138633583448915
 10
-627.05052587652324
 20
317.51776208430994
 10
-627.05671636092609
 20
317.52184491448287
 42
-0.0137938789029751
 10
-631.56911825559939
 20
320.67990665661802
 10
-631.57352640316117
 20
320.68317653433741
 42
-0.0137360414994881
 10
-635.89669116236507
 20
324.07799801642869
 10
-635.89955791796319
 20
324.08037932546699
 42
-0.0136915232621487
 10
-640.02451361538181
 20
327.70220197531381
 42
-0.0136683141606574
 10
-643.94390012640736
 20
331.54274785148101
 42
-0.0136510420824746
 10
-647.64612095362872
 20
335.58981853055485
 42
-0.0136517072360507
 10
-651.12238332719426
 20
339.83353030104519
 42
-0.0136753152819146
 10
-654.36234194924737
 20
344.26173804120481
 10
-654.36396986079762
 20
344.26409566708736
 42
-0.013712114079701
 10
-657.3597699631722
 20
348.86782310153455
 10
-657.36216554539897
 20
348.87173506213304
 42
-0.0137634496352001
 10
-660.1051719949354
 20
353.64098014195861
 10
-660.10822503624377
 20
353.64664360853686
 42
-0.0138274729662908
 10
-662.58981086733684
 20
358.5713776359683
 10
-662.59340024912854
 20
358.57901956742563
 42
-0.0139017114624534
 10
-664.8049505030607
 20
363.64917925637633
 10
-664.80893734175424
 20
363.65906023008785
 42
-0.0139831592757297
 10
-666.74185938341054
 20
368.86454970419919
 10
-666.74607704330629
 20
368.87696106940331
 42
-0.014068306557291
 10
-668.39181019147748
 20
374.20765508250656
 10
-668.39605488602729
 20
374.22291450485301
 42
-0.0141531992667393
 10
-669.74607962070058
 20
379.66866388050545
 10
-669.75010173002011
 20
379.68710870011074
 42
-0.0142335200789992
 10
-670.79594795986952
 20
385.23774788898106
 10
-670.79944457677334
 20
385.25972636954185
 42
-0.0143046648675742
 10
-671.53269883139274
 20
390.90508290521063
 10
-671.60580645790128
 20
391.62966636687435
 42
-0.0143553274774692
 10
-671.91740887177593
 20
395.95922312874364
 10
-671.94828743009305
 20
396.67458102322774
 42
-0.0071923665514782
 10
-672.03195544687878
 20
399.58357375387806
 42
-0.0035924545396799
 10
-672.04244059206894
 20
401.04288378214716
 42
-0.0035924545396799
  0
LWPOLYLINE
  5
1A6
100
AcDbEntity
  8
0
370
               5
390
0
  6
STYLE_12
 62
               7
100
AcDbPolyline
 90
       18
 70
             128
 10
-327.0593636063918
 20
314.5430818073217
 42
-0.0016656584919893
 10
-332.11496683677143
 20
313.45070416630512
 10
-338.43457125029113
 20
312.10723013460284
 42
-0.009983863166122
 10
-356.20107301502298
 20
308.69953830372117
 10
-362.57208972155058
 20
307.60895440117821
 42
-0.0066497732372082
 10
-382.96630542456569
 20
304.39645384726902
 42
-0.0066471473664259
 10
-403.43332486078367
 20
301.72793695862566
 42
-0.0066435987958458
 10
-423.95502830445446
 20
299.60516997997712
 42
-0.0066412296430523
 10
-444.52047920471762
 20
298.02870081688053
 42
-0.0066400653329047
 10
-465.11874428362819
 20
296.9990771404635
 42
-0.0066401091070755
 10
-485.7388899739434
 20
296.51684709277635
 42
-0.0066413515997556
 10
-506.36998273589541
 20
296.58255921665278
 42
-0.0066437694998867
 10
-527.00108892098194
 20
297.19676245464672
 42
-0.0066500668784431
 10
-547.61400293229326
 20
298.3595151722144
 10
-550.20145546550646
 20
298.54002105456931
 42
-0.0099841163984431
 10
-575.92764414953683
 20
300.85170991221077
 10
-578.50126316895114
 20
301.13487254354169
 42
-0.0016655559361474
 10
-583.6407736541347
 20
301.71768033162863
 42
-0.0016655559361474
  0
ENDBLK
  5
1A7
100
AcDbEntity
  8
AAA70-1104
390
0
100
AcDbBlockEnd
  0
BLOCK
  5
1A8
100
AcDbEntity
  8
AAA70-1104
390
0
100
AcDbBlockBegin
  2
グループ-3
 70
               0
 10
0.0
 20
0.0
 30
0.0
  3
グループ-3
  1

  0
LWPOLYLINE
  5
1A9
100
AcDbEntity
  8
0
370
               5
390
0
  6
STYLE_12
 62
               7
100
AcDbPolyline
 90
       34
 70
             128
 10
-192.04244059206897
 20
666.47842327953344
 42
-0.0000197002868354
 10
-192.04218597488756
 20
672.12480750160091
 10
-192.04053135586312
 20
691.70739096078137
 42
-0.0000109117810026
 10
-192.03576708223903
 20
736.51894198623381
 10
-192.03197224998721
 20
766.13332142464617
 42
0.0002103865827149
 10
-192.0471931780626
 20
818.14727589136919
 10
-192.04997228369103
 20
822.0428275426932
 42
0.0001873688783438
 10
-192.09809304121248
 20
866.26565426941534
 10
-192.10069304393664
 20
868.04297050094544
 42
0.0007520106048067
 10
-192.22135132073575
 20
908.71096525910639
 10
-192.25903669904895
 20
917.1399036491373
 42
0.0005931744463221
 10
-192.39373649264738
 20
940.94968035348188
 10
-192.40054806455049
 20
941.94498195115239
 42
0.0007526426954791
 10
-192.58271487492428
 20
963.76372144591232
 42
0.0009535508335078
 10
-192.83933426972146
 20
985.58169732773069
 10
-192.85502599923393
 20
986.72965622889353
 42
0.001578636168613
 10
-193.19762761666701
 20
1007.0895856910136
 10
-193.23722862492062
 20
1009.0710635869854
 42
0.0016042296305737
 10
-193.61751200023858
 20
1025.4657354409965
 10
-193.63525348438796
 20
1026.1376091832458
 42
0.0019523521034282
 10
-194.09141357598904
 20
1041.1855322488739
 10
-194.11178913220655
 20
1041.7809154117992
 42
0.0023453916424787
 10
-194.65093708220732
 20
1055.6337619344549
 10
-194.67356161171432
 20
1056.1524539890058
 42
0.0027644131656089
 10
-195.30326333688507
 20
1068.9619058243757
 10
-195.32743143266865
 20
1069.4037124394447
 42
0.0031871159657096
 10
-196.05558579703418
 20
1081.3214280346456
 10
-196.08020555492809
 20
1081.6861702161648
 42
0.0035807630451751
 10
-196.91513723262122
 20
1092.8637805147171
 42
0.0038831842669801
 10
-197.9168225750598
 20
1104.0276317767721
 10
-198.43099779594084
 20
1109.2979665521761
 42
0.0131401746748462
 10
-201.11617870103234
 20
1130.9241281113673
 10
-201.93078567477008
 20
1136.3209832444936
 42
0.0004227500659661
 10
-202.11453531863165
 20
1137.5314079809123
 42
0.0004227500659661
  0
INSERT
  5
1AA
100
AcDbEntity
  8
0
390
0
 62
               7
100
AcDbBlockReference
  2
グループ-2
 10
0.0
 20
0.0
 30
0.0
  0
ENDBLK
  5
1AB
100
AcDbEntity
  8
AAA70-1104
390
0
100
AcDbBlockEnd
  0
ENDSEC
  0
SECTION
  2
ENTITIES
  0
MTEXT
  5
1AC
100
AcDbEntity
  8
template
390
0
 62
               7
100
AcDbMText
 10
1132.0000000002408
 20
350.3464856812061
 30
0.0
 40
16.288411458333332
 41
0.0
 71
               1
 72
               1
  1
品名
  7
ＭＳ ゴシック
 73
               1
 44
0.7828267384257843
  0
MTEXT
  5
1AD
100
AcDbEntity
  8
template
390
0
 62
               7
100
AcDbMText
 10
1132.0000000002408
 20
265.3464856812061
 30
0.0
 40
16.288411458333332
 41
0.0
 71
               1
 72
               1
  1
仕様
  7
ＭＳ ゴシック
 73
               1
 44
0.7828267384257843
  0
MTEXT
  5
1AE
100
AcDbEntity
  8
template
390
0
 62
               7
100
AcDbMText
 10
1185.0000000002408
 20
321.76402474370593
 30
0.0
 40
24.432617187500004
 41
0.0
 71
               1
 72
               1
  1
洗面器 -FLAMINIA,Mono- 
  7
ＭＳ ゴシック
 73
               1
 44
0.7828267384257843
  0
LINE
  5
1AF
100
AcDbEntity
  8
template
370
               5
390
0
  6
Continuous
 62
               7
100
AcDbLine
 10
3074.999999999759
 20
273.761407556206
 30
0.0
 11
1124.9999999997588
 21
273.761407556206
 31
0.0
  0
LWPOLYLINE
  5
1B0
100
AcDbEntity
  8
template
370
               5
390
0
  6
Continuous
 62
               7
100
AcDbPolyline
 90
        5
 70
             128
 10
3075.000000000241
 20
2903.761407556206
 10
1125.0000000002408
 20
2903.761407556206
 10
1125.0000000002408
 20
103.761407556206
 10
3075.000000000241
 20
103.761407556206
 10
3075.000000000241
 20
2903.761407556206
  0
LINE
  5
1B1
100
AcDbEntity
  8
template
370
               5
390
0
  6
Continuous
 62
               7
100
AcDbLine
 10
3074.999999999759
 20
358.761407556206
 30
0.0
 11
1124.9999999997588
 21
358.761407556206
 31
0.0
  0
LINE
  5
1B2
100
AcDbEntity
  8
template
370
               5
390
0
  6
Continuous
 62
               7
100
AcDbLine
 10
3075.000000000241
 20
188.761407556206
 30
0.0
 11
2322.000000000241
 21
188.761407556206
 31
0.0
  0
MTEXT
  5
1B3
100
AcDbEntity
  8
template
390
0
 62
               7
100
AcDbMText
 10
1185.0000000002408
 20
236.76402474370593
 30
0.0
 40
24.432617187500004
 41
0.0
 71
               1
 72
               1
  1
壁付,カウンタ ー置き兼用/オーバーフロー無/壁取付ボルト付属/\P陶器/ホワイト
  7
ＭＳ ゴシック
 73
               1
 44
1.1307497332816883
  0
MTEXT
  5
1B4
100
AcDbEntity
  8
template
390
0
 62
               7
100
AcDbMText
 10
1125.0000000004441
 20
91.907585499349125
 30
0.0
 40
21.717881944444446
 41
0.0
 71
               1
 72
               1
  1
120124S
  7
ＭＳ ゴシック
 73
               1
 44
0.7828267384257843
  0
MTEXT
  5
1B5
100
AcDbEntity
  8
template
390
0
 62
               7
100
AcDbMText
 10
2351.8714062525009
 20
158.85101308289836
 30
0.0
 40
24.432617187500004
 41
0.0
 71
               1
 72
               1
  1
大洋金物株式会社 ティーフォルム事業部
  7
ＭＳ ゴシック
 73
               1
 44
0.7828267384257843
  0
INSERT
  5
1B6
100
AcDbEntity
  8
template
390
0
 62
               7
100
AcDbBlockReference
  2
グループ
 10
2100.0
 20
1485.0
 30
0.0
  0
MTEXT
  5
1B7
100
AcDbEntity
  8
template
390
0
 62
               7
100
AcDbMText
 10
2884.0000000005002
 20
236.76402474370593
 30
0.0
 40
24.432617187500004
 41
0.0
 71
               1
 72
               1
  1
1:10
  7
ＭＳ ゴシック
 73
               1
 44
0.7828267384257843
  0
MTEXT
  5
1B8
100
AcDbEntity
  8
template
390
0
 62
               7
100
AcDbMText
 10
2831.0000000005002
 20
265.3464856812061
 30
0.0
 40
16.288411458333332
 41
0.0
 71
               1
 72
               1
  1
縮尺
  7
ＭＳ ゴシック
 73
               1
 44
0.7828267384257843
  0
LINE
  5
1B9
100
AcDbEntity
  8
template
370
               5
390
0
  6
Continuous
 62
               7
100
AcDbLine
 10
2824.0000000005002
 20
188.761407556206
 30
0.0
 11
2824.0000000005002
 21
273.761407556206
 31
0.0
  0
MTEXT
  5
1BA
100
AcDbEntity
  8
template
390
0
 62
               7
100
AcDbMText
 10
2580.0000000005002
 20
265.3464856812061
 30
0.0
 40
16.288411458333332
 41
0.0
 71
               1
 72
               1
  1
容量
  7
ＭＳ ゴシック
 73
               1
 44
0.7828267384257843
  0
MTEXT
  5
1BB
100
AcDbEntity
  8
template
390
0
 62
               7
100
AcDbMText
 10
2633.0000000005002
 20
236.76402474370593
 30
0.0
 40
24.432617187500004
 41
0.0
 71
               1
 72
               1
  1
34L
  7
ＭＳ ゴシック
 73
               1
 44
0.7828267384257843
  0
LINE
  5
1BC
100
AcDbEntity
  8
template
370
               5
390
0
  6
Continuous
 62
               7
100
AcDbLine
 10
2573.0000000005002
 20
188.761407556206
 30
0.0
 11
2573.0000000005002
 21
273.761407556206
 31
0.0
  0
MTEXT
  5
1BD
100
AcDbEntity
  8
template
390
0
 62
               7
100
AcDbMText
 10
2329.0000000005002
 20
350.3464856812061
 30
0.0
 40
16.288411458333332
 41
0.0
 71
               1
 72
               1
  1
品番
  7
ＭＳ ゴシック
 73
               1
 44
0.7828267384257843
  0
MTEXT
  5
1BE
100
AcDbEntity
  8
template
390
0
 62
               7
100
AcDbMText
 10
2329.0000000005002
 20
265.3464856812061
 30
0.0
 40
16.288411458333332
 41
0.0
 71
               1
 72
               1
  1
重量
  7
ＭＳ ゴシック
 73
               1
 44
0.7828267384257843
  0
MTEXT
  5
1BF
100
AcDbEntity
  8
template
390
0
 62
               7
100
AcDbMText
 10
2382.0000000005002
 20
321.76402474370593
 30
0.0
 40
24.432617187500004
 41
0.0
 71
               1
 72
               1
  1
AAA70-1104
  7
ＭＳ ゴシック
 73
               1
 44
0.7828267384257843
  0
MTEXT
  5
1C0
100
AcDbEntity
  8
template
390
0
 62
               7
100
AcDbMText
 10
2382.0000000005002
 20
236.76402474370593
 30
0.0
 40
24.432617187500004
 41
0.0
 71
               1
 72
               1
  1
33kg
  7
ＭＳ ゴシック
 73
               1
 44
0.7828267384257843
  0
LINE
  5
1C1
100
AcDbEntity
  8
template
370
               5
390
0
  6
Continuous
 62
               7
100
AcDbLine
 10
2322.0000000005002
 20
103.761407556206
 30
0.0
 11
2322.0000000005002
 21
358.761407556206
 31
0.0
  0
MTEXT
  5
1C2
100
AcDbEntity
  8
notes
390
0
 62
               7
100
AcDbMText
 10
2058.1457013721783
 20
695.65823685281316
 30
0.0
 40
24.432617187500004
 41
833.92979864183906
 71
               1
 72
               1
  1
＝φ30もしくはφ35の水栓取付用穴あけ加工を承ります。\P  必要な場合、ご注文の際にご指示ください。
  7
ＭＳ ゴシック
 11
0.0
 21
1.0
 31
0.0
 73
               1
 44
1.0437689845677123
  0
CIRCLE
  5
1C3
100
AcDbEntity
  8
notes
370
               5
390
0
  6
STYLE_12
 62
               7
100
AcDbCircle
 10
2070.3403155793185
 20
673.00681270399105
 30
0.0
 40
17.5
  0
MTEXT
  5
1C4
100
AcDbEntity
  8
notes
390
0
 62
               7
100
AcDbMText
 10
1264.1757464553602
 20
2132.6763984529443
 30
0.0
 40
24.432617187500004
 41
0.0
 71
               1
 72
               1
  1
カウンター切込寸法
  7
ＭＳ ゴシック
 11
0.0
 21
1.0
 31
0.0
 73
               1
 44
0.7828267384257843
  0
MTEXT
  5
1C5
100
AcDbEntity
  8
notes
390
0
 62
               7
100
AcDbMText
 10
2489.814296531978
 20
1423.3125
 30
0.0
 40
24.432617187500004
 41
0.0
 71
               1
 72
               1
  1
壁取付ボルト穴(4ヶ所)
  7
ＭＳ ゴシック
 11
0.0
 21
1.0
 31
0.0
 73
               1
 44
0.7828267384257843
  0
LINE
  5
1C6
100
AcDbEntity
  8
notes
370
               5
390
0
  6
Continuous
 62
               7
100
AcDbLine
 10
2602.3613935092385
 20
1317.9036518162673
 30
0.0
 11
2507.0224339297183
 21
1413.2426113957868
 31
0.0
  0
DIMENSION
  5
1C7
100
AcDbEntity
  8
notes
370
               5
390
0
  6
Continuous
 62
               7
100
AcDbDimension
  2
*D3
 10
1327.9575594079311
 20
941.34009210039846
 30
0.0
 11
1327.9575594079311
 21
991.34009210039846
 31
0.0
 71
               5
 72
               1
 41
1.0
 42
0.0
  3
tfrom線あり
100
AcDbAlignedDimension
 13
1479.4575594079311
 23
1041.3400921003984
 33
0.0
 14
1480.4575594079311
 24
941.34009210039846
 34
0.0
 50
90.0
100
AcDbRotatedDimension
1001
ACAD
1000
DSTYLE
1002
{
1070
             271
1070
               0
1070
             279
1070
               2
1070
             340
1005
3E
1070
             147
1040
5.0
1002
}
  0
DIMENSION
  5
1C8
100
AcDbEntity
  8
notes
370
               5
390
0
  6
Continuous
 62
               7
100
AcDbDimension
  2
*D4
 10
1327.9575594079311
 20
1041.3400921003984
 30
0.0
 11
1327.9575594079311
 21
1091.3400921003984
 31
0.0
 71
               5
 72
               1
 41
1.0
 42
0.0
  3
tfrom線あり
100
AcDbAlignedDimension
 13
1480.4575594079311
 23
1141.3400921003984
 33
0.0
 14
1479.4575594079311
 24
1041.3400921003984
 34
0.0
 50
90.0
100
AcDbRotatedDimension
1001
ACAD
1000
DSTYLE
1002
{
1070
             271
1070
               0
1070
             279
1070
               2
1070
             340
1005
3E
1070
             147
1040
5.0
1002
}
  0
DIMENSION
  5
1C9
100
AcDbEntity
  8
notes
370
               5
390
0
  6
Continuous
 62
               7
100
AcDbDimension
  2
*D5
 10
2008.2876517251823
 20
571.34009210039835
 30
0.0
 11
2008.2876517251823
 21
1041.3400921003984
 31
0.0
 71
               5
 72
               1
 41
1.0
 42
0.0
  3
tfrom線あり
100
AcDbAlignedDimension
 13
1801.9564690546367
 23
1511.3400921003984
 33
0.0
 14
1801.9564690546367
 24
571.34009210039835
 34
0.0
 50
90.0
100
AcDbRotatedDimension
1001
ACAD
1000
DSTYLE
1002
{
1070
             271
1070
               0
1070
             279
1070
               2
1070
             340
1005
3E
1070
             147
1040
5.0
1002
}
  0
DIMENSION
  5
1CA
100
AcDbEntity
  8
notes
370
               5
390
0
  6
Continuous
 62
               7
100
AcDbDimension
  2
*D6
 10
1277.9575594079311
 20
541.34009210039835
 30
0.0
 11
1272.9575594079311
 21
1041.3400921003984
 31
0.0
 70
             128
 71
               5
 72
               1
 41
1.0
 42
0.0
  3
tfrom線あり
100
AcDbAlignedDimension
 13
1515.2565208797914
 23
1541.3400921003981
 33
0.0
 14
1515.2565208797714
 24
541.34009210039835
 34
0.0
 50
90.0
100
AcDbRotatedDimension
1001
ACAD
1000
DSTYLE
1002
{
1070
             271
1070
               0
1070
             279
1070
               2
1070
             340
1005
3E
1070
             147
1040
5.0
1002
}
  0
DIMENSION
  5
1CB
100
AcDbEntity
  8
notes
370
               5
390
0
  6
Continuous
 62
               7
100
AcDbDimension
  2
*D7
 10
1428.0825911282245
 20
441.34009210039835
 30
0.0
 11
1485.5200752680778
 21
441.34009210039835
 31
0.0
 71
               5
 72
               1
 41
1.0
 42
0.0
  3
tfrom線あり
100
AcDbAlignedDimension
 13
1542.9575594079311
 23
543.91539841567351
 33
0.0
 14
1428.0825911282245
 24
640.82089194960531
 34
0.0
100
AcDbRotatedDimension
1001
ACAD
1000
DSTYLE
1002
{
1070
             271
1070
               0
1070
             279
1070
               2
1070
             340
1005
3E
1070
             147
1040
5.0
1002
}
  0
DIMENSION
  5
1CC
100
AcDbEntity
  8
notes
370
               5
390
0
  6
Continuous
 62
               7
100
AcDbDimension
  2
*D8
 10
1542.9575594079311
 20
441.34009210039835
 30
0.0
 11
1713.0212907893547
 21
441.34009210039835
 31
0.0
 71
               5
 72
               1
 41
1.0
 42
0.0
  3
tfrom線あり
100
AcDbAlignedDimension
 13
1883.0850221707781
 23
646.86881705508563
 33
0.0
 14
1542.9575594079311
 24
543.91539841567351
 34
0.0
100
AcDbRotatedDimension
1001
ACAD
1000
DSTYLE
1002
{
1070
             271
1070
               0
1070
             279
1070
               2
1070
             340
1005
3E
1070
             147
1040
5.0
1002
}
  0
DIMENSION
  5
1CD
100
AcDbEntity
  8
notes
370
               5
390
0
  6
Continuous
 62
               7
100
AcDbDimension
  2
*D9
 10
1428.3589366243862
 20
1641.3378511586202
 30
0.0
 11
1668.3232941747842
 21
1641.3378511586202
 31
0.0
 71
               5
 72
               1
 41
1.0
 42
0.0
  3
tfrom線あり
100
AcDbAlignedDimension
 13
1908.2876517251823
 23
1306.5731316060271
 33
0.0
 14
1428.3589366243862
 24
1473.8798240600743
 34
0.0
100
AcDbRotatedDimension
1001
ACAD
1000
DSTYLE
1002
{
1070
             271
1070
               0
1070
             279
1070
               2
1070
             340
1005
3E
1070
             147
1040
5.0
1002
}
  0
DIMENSION
  5
1CE
100
AcDbEntity
  8
notes
370
               5
390
0
  6
Continuous
 62
               7
100
AcDbDimension
  2
*D10
 10
2469.0031220596443
 20
901.34009210039846
 30
0.0
 11
2469.0031220596443
 21
1041.3400921003986
 31
0.0
 71
               5
 72
               1
 41
1.0
 42
0.0
  3
tfrom線あり
100
AcDbAlignedDimension
 13
2609.1732755169423
 23
1181.3400921003984
 33
0.0
 14
2609.1732755169423
 24
901.34009210039846
 34
0.0
 50
90.0
100
AcDbRotatedDimension
1001
ACAD
1000
DSTYLE
1002
{
1070
             271
1070
               0
1070
             279
1070
               2
1070
             340
1005
3E
1070
             147
1040
5.0
1002
}
  0
DIMENSION
  5
1CF
100
AcDbEntity
  8
notes
370
               5
390
0
  6
Continuous
 62
               7
100
AcDbDimension
  2
*D11
 10
1327.9575594079311
 20
1141.3400921003984
 30
0.0
 11
1327.9575594079311
 21
1191.3400921003984
 31
0.0
 71
               5
 72
               1
 41
1.0
 42
0.0
  3
tfrom線あり
100
AcDbAlignedDimension
 13
1479.4575594079311
 23
1241.3400921003984
 33
0.0
 14
1480.4575594079311
 24
1141.3400921003984
 34
0.0
 50
90.0
100
AcDbRotatedDimension
1001
ACAD
1000
DSTYLE
1002
{
1070
             271
1070
               0
1070
             279
1070
               2
1070
             340
1005
3E
1070
             147
1040
5.0
1002
}
  0
DIMENSION
  5
1D0
100
AcDbEntity
  8
notes
370
               5
390
0
  6
Continuous
 62
               7
100
AcDbDimension
  2
*D12
 10
1327.9575594079311
 20
1241.3400921003984
 30
0.0
 11
1327.9575594079311
 21
1291.3400921003984
 31
0.0
 71
               5
 72
               1
 41
1.0
 42
0.0
  3
tfrom線あり
100
AcDbAlignedDimension
 13
1480.4575594079311
 23
1341.3400921003984
 33
0.0
 14
1479.4575594079311
 24
1241.3400921003984
 34
0.0
 50
90.0
100
AcDbRotatedDimension
1001
ACAD
1000
DSTYLE
1002
{
1070
             271
1070
               0
1070
             279
1070
               2
1070
             340
1005
3E
1070
             147
1040
5.0
1002
}
  0
DIMENSION
  5
1D1
100
AcDbEntity
  8
notes
370
               5
390
0
  6
Continuous
 62
               7
100
AcDbDimension
  2
*D13
 10
1327.9575594079311
 20
741.34009210039835
 30
0.0
 11
1327.9575594079311
 21
791.34009210039835
 31
0.0
 71
               5
 72
               1
 41
1.0
 42
0.0
  3
tfrom線あり
100
AcDbAlignedDimension
 13
1479.4575594079311
 23
841.34009210039835
 33
0.0
 14
1480.4575594079311
 24
741.34009210039835
 34
0.0
 50
90.0
100
AcDbRotatedDimension
1001
ACAD
1000
DSTYLE
1002
{
1070
             271
1070
               0
1070
             279
1070
               2
1070
             340
1005
3E
1070
             147
1040
5.0
1002
}
  0
DIMENSION
  5
1D2
100
AcDbEntity
  8
notes
370
               5
390
0
  6
Continuous
 62
               7
100
AcDbDimension
  2
*D14
 10
1327.9575594079311
 20
841.34009210039835
 30
0.0
 11
1327.9575594079311
 21
891.34009210039835
 31
0.0
 71
               5
 72
               1
 41
1.0
 42
0.0
  3
tfrom線あり
100
AcDbAlignedDimension
 13
1480.4575594079311
 23
941.34009210039846
 33
0.0
 14
1479.4575594079311
 24
841.34009210039835
 34
0.0
 50
90.0
100
AcDbRotatedDimension
1001
ACAD
1000
DSTYLE
1002
{
1070
             271
1070
               0
1070
             279
1070
               2
1070
             340
1005
3E
1070
             147
1040
5.0
1002
}
  0
DIMENSION
  5
1D3
100
AcDbEntity
  8
notes
370
               5
390
0
  6
Continuous
 62
               7
100
AcDbDimension
  2
*D15
 10
2469.0031220596443
 20
771.34009210039835
 30
0.0
 11
2469.0031220596443
 21
836.34009210039835
 31
0.0
 71
               5
 72
               1
 41
1.0
 42
0.0
  3
tfrom線あり
100
AcDbAlignedDimension
 13
2609.1732755169423
 23
901.34009210039846
 33
0.0
 14
2609.1732755169423
 24
771.34009210039835
 34
0.0
 50
90.0
100
AcDbRotatedDimension
1001
ACAD
1000
DSTYLE
1002
{
1070
             271
1070
               0
1070
             279
1070
               2
1070
             340
1005
3E
1070
             147
1040
5.0
1002
}
  0
DIMENSION
  5
1D4
100
AcDbEntity
  8
notes
370
               5
390
0
  6
Continuous
 62
               7
100
AcDbDimension
  2
*D16
 10
2469.0031220596443
 20
1181.3400921003984
 30
0.0
 11
2469.0031220596443
 21
1246.3400921003984
 31
0.0
 71
               5
 72
               1
 41
1.0
 42
0.0
  3
tfrom線あり
100
AcDbAlignedDimension
 13
2609.1732755169423
 23
1311.3400921003984
 33
0.0
 14
2609.1732755169423
 24
1181.3400921003984
 34
0.0
 50
90.0
100
AcDbRotatedDimension
1001
ACAD
1000
DSTYLE
1002
{
1070
             271
1070
               0
1070
             279
1070
               2
1070
             340
1005
3E
1070
             147
1040
5.0
1002
}
  0
DIMENSION
  5
1D5
100
AcDbEntity
  8
notes
370
               5
390
0
  6
Continuous
 62
               7
100
AcDbDimension
  2
*D17
 10
2569.0031220524993
 20
2201.7719437483938
 30
0.0
 11
2552.5975636250355
 21
2206.7719437483938
 31
0.0
 70
             128
 71
               5
 72
               1
 41
1.0
 42
0.0
  3
tfrom線あり
100
AcDbAlignedDimension
 13
2714.0031220596425
 23
2225.2602415483443
 33
0.0
 14
2569.0031220524993
 24
2201.1775021758576
 34
0.0
100
AcDbRotatedDimension
1001
ACAD
1000
DSTYLE
1002
{
1070
             271
1070
               0
1070
             279
1070
               2
1070
             340
1005
3E
1070
               3
1000
<>(深さ)
1070
             174
1070
               0
1070
             147
1040
5.0
1002
}
  0
DIMENSION
  5
1D6
100
AcDbEntity
  8
notes
370
               5
390
0
  6
Continuous
 62
               7
100
AcDbDimension
  2
*D18
 10
2569.0031220525093
 20
1641.3378511586202
 30
0.0
 11
2661.5031220525079
 21
1641.3378511586202
 31
0.0
 71
               5
 72
               1
 41
1.0
 42
0.0
  3
tfrom線あり
100
AcDbAlignedDimension
 13
2754.003122052507
 23
1472.5731316060271
 33
0.0
 14
2569.0031220525093
 24
1537.4459454873183
 34
0.0
100
AcDbRotatedDimension
1001
ACAD
1000
DSTYLE
1002
{
1070
             271
1070
               0
1070
             279
1070
               2
1070
             340
1005
3E
1070
             147
1040
5.0
1002
}
  0
DIMENSION
  5
1D7
100
AcDbEntity
  8
notes
370
               5
390
0
  6
Continuous
 62
               7
100
AcDbDimension
  2
*D19
 10
2854.0031220576416
 20
2225.2602415483443
 30
0.0
 11
2854.0031220576416
 21
2355.2602415483443
 31
0.0
 71
               5
 72
               1
 41
1.0
 42
0.0
  3
tfrom線あり
100
AcDbAlignedDimension
 13
2749.003122059642
 23
2485.2602415483443
 33
0.0
 14
2749.003122059642
 24
2225.2602415483443
 34
0.0
 50
90.0
100
AcDbRotatedDimension
1001
ACAD
1000
DSTYLE
1002
{
1070
             271
1070
               0
1070
             279
1070
               2
1070
             340
1005
3E
1070
             147
1040
5.0
1002
}
  0
DIMENSION
  5
1D8
100
AcDbEntity
  8
notes
370
               5
390
0
  6
Continuous
 62
               7
100
AcDbDimension
  2
*D20
 10
2904.0031220576416
 20
2085.1990213634799
 30
0.0
 11
2904.0031220576416
 21
2285.2296314559107
 31
0.0
 71
               5
 72
               1
 41
1.0
 42
0.0
  3
tfrom線あり
100
AcDbAlignedDimension
 13
2752.0031220596279
 23
2485.2602415483416
 33
0.0
 14
2751.8017998722239
 24
2085.1990213634799
 34
0.0
 50
90.0
100
AcDbRotatedDimension
1001
ACAD
1000
DSTYLE
1002
{
1070
             271
1070
               0
1070
             279
1070
               2
1070
             340
1005
3E
1070
             147
1040
5.0
1002
}
  0
DIMENSION
  5
1D9
100
AcDbEntity
  8
notes
370
               5
390
0
  6
Continuous
 62
               7
100
AcDbDimension
  2
*D21
 10
2608.9902375458232
 20
441.34009210039835
 30
0.0
 11
2588.9966797999164
 21
441.34009210039835
 31
0.0
 71
               5
 72
               1
 41
1.0
 42
0.0
  3
tfrom線あり
100
AcDbAlignedDimension
 13
2569.0031220540095
 23
571.42091664229497
 33
0.0
 14
2608.9902375458232
 24
751.34009210039835
 34
0.0
100
AcDbRotatedDimension
1001
ACAD
1000
DSTYLE
1002
{
1070
             271
1070
               0
1070
             279
1070
               2
1070
             340
1005
3E
1070
             147
1040
5.0
1002
}
  0
DIMENSION
  5
1DA
100
AcDbEntity
  8
notes
370
               5
390
0
  6
Continuous
 62
               7
100
AcDbDimension
  2
*D22
 10
1427.9575594079311
 20
2451.4784232795309
 30
0.0
 11
1364.9752783765914
 21
2456.4784232795309
 31
0.0
 70
             128
 71
               5
 72
               1
 41
1.0
 42
0.0
  3
tfrom線あり
100
AcDbAlignedDimension
 13
1457.9575594079311
 23
2304.0297747710206
 33
0.0
 14
1427.9575594079311
 24
2304.0297747710206
 34
0.0
100
AcDbRotatedDimension
1001
ACAD
1000
DSTYLE
1002
{
1070
             271
1070
               0
1070
             279
1070
               2
1070
             340
1005
3E
1070
             174
1070
               0
1070
             147
1040
5.0
1002
}
  0
DIMENSION
  5
1DB
100
AcDbEntity
  8
notes
370
               5
390
0
  6
Continuous
 62
               7
100
AcDbDimension
  2
*D23
 10
1457.9575594079311
 20
2451.4784232795309
 30
0.0
 11
1625.0
 21
2456.4784232795309
 31
0.0
 70
             128
 71
               5
 72
               1
 41
1.0
 42
0.0
  3
tfrom線あり
100
AcDbAlignedDimension
 13
1757.9575594079311
 23
2300.2569529829525
 33
0.0
 14
1457.9575594079311
 24
2300.2569529829525
 34
0.0
100
AcDbRotatedDimension
1001
ACAD
1000
DSTYLE
1002
{
1070
             271
1070
               0
1070
             279
1070
               2
1070
             340
1005
3E
1070
             147
1040
5.0
1002
}
  0
DIMENSION
  5
1DC
100
AcDbEntity
  8
notes
370
               5
390
0
  6
Continuous
 62
               7
100
AcDbDimension
  2
*D24
 10
1857.9575594079311
 20
2211.4784232795328
 30
0.0
 11
1857.9575594079311
 21
2281.4784232795319
 31
0.0
 71
               5
 72
               1
 41
1.0
 42
0.0
  3
tfrom線あり
100
AcDbAlignedDimension
 13
1703.3299371060029
 23
2351.4784232795309
 33
0.0
 14
1703.3299371060029
 24
2211.4784232795328
 34
0.0
 50
90.0
100
AcDbRotatedDimension
1001
ACAD
1000
DSTYLE
1002
{
1070
             271
1070
               0
1070
             279
1070
               2
1070
             340
1005
3E
1070
             147
1040
5.0
1002
}
  0
MTEXT
  5
1DD
100
AcDbEntity
  8
notes
390
0
 62
               7
100
AcDbMText
 10
2055.7126983918188
 20
1817.2602146335373
 30
0.0
 40
24.432617187500004
 41
891.40041570715573
 71
               1
 72
               1
  1
※陶器製品には寸法公差があります。\P　必ず現物をあわせてカウンターに切込を行ってください。
  7
ＭＳ ゴシック
 11
0.0
 21
1.0
 31
0.0
 73
               1
 44
1.1742401076386764
  0
DIMENSION
  5
1DE
100
AcDbEntity
  8
notes
370
               5
390
0
  6
Continuous
 62
               7
100
AcDbDimension
  2
*D25
 10
2469.0031220596443
 20
2415.2602415483389
 30
0.0
 11
2469.0031220596443
 21
2450.2602415483416
 31
0.0
 71
               5
 72
               1
 41
1.0
 42
0.0
  3
tfrom線あり
100
AcDbAlignedDimension
 13
2573.0031220596434
 23
2485.2602415483443
 33
0.0
 14
2569.0031220540095
 24
2415.2602415483389
 34
0.0
 50
90.0
100
AcDbRotatedDimension
1001
ACAD
1000
DSTYLE
1002
{
1070
             279
1070
               2
1070
             340
1005
3E
1070
             147
1040
5.0
1002
}
  0
CIRCLE
  5
1DF
100
AcDbEntity
  8
AAA70-1104
370
              15
390
0
  6
Continuous
 62
               7
100
AcDbCircle
 10
1687.9575594079311
 20
1041.3400921003984
 30
0.0
 40
22.5
  0
CIRCLE
  5
1E0
100
AcDbEntity
  8
AAA70-1104
370
              15
390
0
  6
Continuous
 62
               7
100
AcDbCircle
 10
1687.9575594079311
 20
1041.3400921003984
 30
0.0
 40
35.0
  0
LWPOLYLINE
  5
1E1
100
AcDbEntity
  8
AAA70-1104
370
              15
390
0
  6
Continuous
 62
               7
100
AcDbPolyline
 90
       51
 70
             128
 10
1516.3592263458654
 20
1536.1008350483087
 42
0.0035856279531932
 10
1514.9110150557633
 20
1535.9211871430487
 10
1513.8335191485512
 20
1535.7796728002265
 42
0.0143812723273006
 10
1510.2481809696512
 20
1535.20346580005
 10
1509.1679204143752
 20
1534.9978266956066
 42
0.014335473954883
 10
1503.5839902894027
 20
1533.768023208662
 10
1503.5606351932342
 20
1533.7621727872884
 42
0.0142703611375197
 10
1498.1024737735188
 20
1532.2281290666212
 10
1498.0828835422628
 20
1532.2220148450565
 42
0.0141940235264642
 10
1492.7596200134858
 20
1530.3932404610684
 10
1492.7434084921408
 20
1530.3871513907752
 42
0.0141108628649134
 10
1487.5641647188081
 20
1528.27321133276
 10
1487.55095825289
 20
1528.2673810780252
 42
0.0140253351678214
 10
1482.5248383026551
 20
1525.8778914495158
 10
1482.51428439092
 20
1525.8725060333368
 42
0.0139415826466595
 10
1477.6503670403922
 20
1523.2171256875633
 10
1477.6421414650729
 20
1523.2123326873855
 42
0.0138633583448044
 10
1472.949474123478
 20
1520.3007532956269
 10
1472.9432836390752
 20
1520.2966704654539
 42
0.0137938789030446
 10
1468.4308817444012
 20
1517.1386087233193
 10
1468.4264735968382
 20
1517.1353388455989
 42
0.0137360414993875
 10
1464.1033088376348
 20
1513.7405173635095
 10
1464.1004420820395
 20
1513.7381360544737
 42
0.0136915232624332
 10
1459.9754863846183
 20
1510.1163134046235
 42
0.0136585254033525
 10
1456.0560998735937
 20
1506.2757675284545
 42
0.0136489330912406
 10
1452.3538790463726
 20
1502.2286968493806
 42
0.0136575774867895
 10
1448.8776166728062
 20
1497.9849850788912
 42
0.0136753152821797
 10
1445.6376580507529
 20
1493.5567773387318
 10
1445.6360301392024
 20
1493.554419712849
 42
0.0137121140795552
 10
1442.6402300368286
 20
1488.9506922784014
 10
1442.6378344546019
 20
1488.9467803178029
 42
0.0137634496351945
 10
1439.8948280050647
 20
1484.1775352379768
 10
1439.8917749637571
 20
1484.1718717714
 42
0.0138274729662637
 10
1437.4101891326641
 20
1479.2471377439701
 10
1437.4065997508715
 20
1479.2394958125112
 42
0.0139017114625763
 10
1435.1950494969383
 20
1474.1693361235582
 10
1435.1910626582453
 20
1474.1594551498481
 42
0.0139831592756438
 10
1433.2581406165878
 20
1468.953965675732
 10
1433.2539229566933
 20
1468.9415543105322
 42
0.0140683065574105
 10
1431.608189808524
 20
1463.6108602974346
 10
1431.6039451139727
 20
1463.5956008750825
 42
0.0141531992666098
 10
1430.2539203792994
 20
1458.149851499428
 10
1430.2498982699803
 20
1458.1314066798247
 42
0.0142335200789065
 10
1429.2040520401281
 20
1452.580767490949
 10
1429.2005554232251
 20
1452.5587890103932
 42
0.0143046648679213
 10
1428.4673011686064
 20
1446.9134324747229
 10
1428.3941935420994
 20
1446.1888490130673
 42
0.014355327477148
 10
1428.082591128225
 20
1441.8592922511905
 10
1428.0517125699082
 20
1441.1439343567213
 42
0.0071923665516654
 10
1427.9680445531217
 20
1438.2349416260574
 42
0.0035922960121878
 10
1427.9575594079311
 20
1436.7756315977883
 42
0.0035922960121878
  0
LWPOLYLINE
  5
1E2
100
AcDbEntity
  8
AAA70-1104
370
              15
390
0
  6
Continuous
 62
               7
100
AcDbPolyline
 90
       32
 70
             128
 10
1907.9575594079311
 20
1041.3400921003984
 42
0.000029941885172
 10
1907.9578584519725
 20
1037.022994458227
 10
1907.9592997225591
 20
1025.8636302164584
 42
0.0000086060882136
 10
1907.9631982923718
 20
999.22780417433887
 10
1907.9651148129701
 20
987.51154210282868
 42
-0.0001496008352346
 10
1907.9612460320532
 20
958.98572695009523
 10
1907.9607791870192
 20
957.91208940069851
 42
-0.0002990687292322
 10
1907.9335311405534
 20
931.53356680243439
 10
1907.9319037190444
 20
930.53582315323388
 42
-0.0004913032058213
 10
1907.8681736766607
 20
906.15286677296979
 10
1907.8648586038516
 20
905.23107313129162
 42
-0.000725831075934
 10
1907.7510806164173
 20
882.69193182320737
 42
-0.0009885113234842
 10
1907.5600240303288
 20
860.1533334059576
 10
1907.5474462449622
 20
858.95018521724239
 42
-0.0017356880361178
 10
1907.247714111948
 20
837.42690989171638
 10
1907.2135652653869
 20
835.46412733334682
 42
-0.0018247925564768
 10
1906.8431993928511
 20
817.86880929692757
 10
1906.8284429079708
 20
817.27139550765889
 42
-0.0022603265655327
 10
1906.3492487768626
 20
800.87442301757596
 10
1906.3316843176631
 20
800.35398972975929
 42
-0.0027375613360964
 10
1905.7294464217534
 20
785.00334744789848
 10
1905.7096320430364
 20
784.56023995312682
 42
-0.0032314331687427
 10
1904.9695452123292
 20
770.1038931440869
 10
1904.9484683296873
 20
769.73846109815224
 42
-0.0037127509605179
 10
1904.0552696165569
 20
756.02439405337441
 10
1904.0344029916323
 20
755.73693864038057
 42
-0.0041440335455939
 10
1902.972330145365
 20
742.61321764395484
 42
-0.004463906321222
 10
1901.6844979361681
 20
729.5097970834928
 10
1901.2939662270023
 20
725.87031794309291
 42
-0.0105634945927204
 10
1898.6788274971857
 20
705.55469302917493
 10
1898.1166144318317
 20
701.81317937970448
 42
-0.0005883733714943
 10
1897.8854646813693
 20
700.28710739901612
 42
-0.0005883733714943
  0
LINE
  5
1E3
100
AcDbEntity
  8
AAA70-1104
370
              15
390
0
  6
Continuous
 62
               7
100
AcDbLine
 10
1427.9575594079311
 20
645.90455260300837
 30
0.0
 11
1427.9575594079311
 21
1436.7756315977883
 31
0.0
  0
LWPOLYLINE
  5
1E4
100
AcDbEntity
  8
AAA70-1104
370
              15
390
0
  6
Continuous
 62
               7
100
AcDbPolyline
 90
       48
 70
             128
 10
1897.8854646813693
 20
700.28710739901612
 42
-0.0032146330951034
 10
1897.6722479848099
 20
698.22033599344604
 10
1897.5032697695588
 20
696.67949482407835
 42
-0.0128673508365096
 10
1896.8067895181671
 20
691.55033860042727
 10
1896.5565382973734
 20
690.00647337834221
 42
-0.0128210526449947
 10
1895.0406138924409
 20
681.96545755597231
 10
1895.0351246521882
 20
681.9399512195273
 42
-0.0127658988927032
 10
1893.1221640565686
 20
674.03767523795136
 10
1893.1163432846336
 20
674.01605899710739
 42
-0.0127067440190674
 10
1890.8162017203954
 20
666.26432884101064
 10
1890.810335119779
 20
666.24625506723135
 42
-0.0126461908926112
 10
1888.1329120071346
 20
658.65686575774885
 10
1888.1272415095088
 20
658.64200152014655
 42
-0.0125867974793398
 10
1885.0824763307501
 20
651.2267297554879
 10
1885.0772067812218
 20
651.21476267759658
 42
-0.0125308870295955
 10
1881.675072010431
 20
643.98536182249222
 10
1881.6703788892551
 20
643.97600513458087
 42
-0.012480525603813
 10
1877.920871723677
 20
636.944200799491
 10
1877.9169078840946
 20
636.93719404438889
 42
-0.0124374369225488
 10
1873.8300445268424
 20
630.11468537896849
 10
1873.8269534275341
 20
630.10980477756073
 42
-0.0124031800363604
 10
1869.4127512384371
 20
623.50825039055394
 42
-0.0123841729286394
 10
1864.6791637707556
 20
617.13634643470573
 42
-0.0123675269848023
 10
1859.6393863553963
 20
611.01036299682869
 42
-0.012361059082406
 10
1854.3035748587708
 20
605.1417468950674
 42
-0.0123665570644507
 10
1848.6819582585599
 20
599.54202629993119
 42
-0.0123896014071693
 10
1842.7882253241692
 20
594.22568552397468
 10
1842.7846621063736
 20
594.22262804196248
 42
-0.0124191588931301
 10
1836.6272550746512
 20
589.19919995186422
 10
1836.6218040072504
 20
589.19497384744659
 42
-0.0124580208942492
 10
1830.2111009771143
 20
584.47581091226709
 10
1830.2035287815411
 20
584.47052244311067
 42
-0.0125049490014252
 10
1823.5499305890676
 20
580.06696854613335
 10
1823.5399776508307
 20
580.06073356885622
 42
-0.0125583352831436
 10
1816.6539169070543
 20
575.98412375557359
 10
1816.6412922957875
 20
575.9770718834277
 42
-0.012616270115998
 10
1809.5332322701151
 20
572.23872348938994
 10
1809.5176154000037
 20
572.23100663428772
 42
-0.0126765580237806
 10
1802.1980482575864
 20
568.84221115383343
 10
1802.1790916030936
 20
568.83401159657274
 42
-0.0127367503248899
 10
1794.658534926572
 20
565.80602665101094
 10
1794.6358684831339
 20
565.79756480052106
 42
-0.0127941690687578
 10
1786.9248603383496
 20
563.14160632982009
 10
1785.9355254786865
 20
562.82891847664155
 42
-0.0128422726488174
 10
1779.9841346972189
 20
561.11473160364017
 10
1778.9929017205814
 20
560.85659900824476
 42
-0.0064374814471226
 10
1774.9671535224011
 20
559.86339481309074
 42
-0.0032181269360026
 10
1772.9406363936082
 20
559.40475062818109
 42
-0.0032181269360026
  0
LWPOLYLINE
  5
1E5
100
AcDbEntity
  8
AAA70-1104
370
              15
390
0
  6
Continuous
 62
               7
100
AcDbPolyline
 90
       51
 70
             128
 10
1516.3592263458654
 20
546.57934915248802
 42
-0.0035856279531023
 10
1514.9110150557649
 20
546.75899705774737
 10
1513.8335191485517
 20
546.90051140056926
 42
-0.0143812723273962
 10
1510.2481809696487
 20
547.47671840074543
 10
1509.1679204143747
 20
547.68235750518829
 42
-0.0143354739549945
 10
1503.5839902894036
 20
548.91216099213375
 10
1503.5606351932347
 20
548.91801141350732
 42
-0.0142703611373338
 10
1498.1024737735202
 20
550.45205513417454
 10
1498.082883542264
 20
550.4581693557393
 42
-0.0141940235266174
 10
1492.7596200134863
 20
552.28694373972735
 10
1492.7434084921404
 20
552.2930328100208
 42
-0.0141108628648416
 10
1487.5641647188081
 20
554.40697286803675
 10
1487.5509582528921
 20
554.41280312277036
 42
-0.0140253351677878
 10
1482.5248383026542
 20
556.8022927512809
 10
1482.5142843909182
 20
556.80767816746027
 42
-0.0139415826467402
 10
1477.6503670403913
 20
559.46305851323336
 10
1477.6421414650717
 20
559.46785151341123
 42
-0.0138633583446912
 10
1472.949474123478
 20
562.37943090516887
 10
1472.9432836390786
 20
562.38351373533942
 42
-0.0137938789031317
 10
1468.4308817444003
 20
565.5415754774765
 10
1468.4264735968352
 20
565.54484535519828
 42
-0.0137360414994178
 10
1464.1033088376339
 20
568.93966683728718
 10
1464.1004420820407
 20
568.94204814632133
 42
-0.0136915232623283
 10
1459.9754863846183
 20
572.5638707961723
 42
-0.0136683141605411
 10
1456.0560998735937
 20
576.4044166723404
 42
-0.01365104208241
 10
1452.3538790463713
 20
580.45148735141424
 42
-0.0136517072361153
 10
1448.8776166728048
 20
584.69519912190458
 42
-0.0136753152820156
 10
1445.6376580507526
 20
589.12340686206471
 10
1445.6360301392028
 20
589.12576448794675
 42
-0.0137121140795714
 10
1442.6402300368286
 20
593.72949192239514
 10
1442.6378344546024
 20
593.73340388299289
 42
-0.0137634496351547
 10
1439.8948280050638
 20
598.50264896282067
 10
1439.8917749637567
 20
598.50831242939671
 42
-0.0138274729663235
 10
1437.4101891326623
 20
603.4330464568294
 10
1437.406599750871
 20
603.44068838828548
 42
-0.0139017114625348
 10
1435.1950494969387
 20
608.51084807723714
 10
1435.1910626582453
 20
608.5207290509486
 42
-0.0139831592756835
 10
1433.2581406165903
 20
613.72621852505802
 10
1433.2539229566937
 20
613.73862989026452
 42
-0.0140683065572891
 10
1431.608189808522
 20
619.06932390336976
 10
1431.6039451139727
 20
619.08458332571422
 42
-0.0141531992667496
 10
1430.2539203793001
 20
624.53033270136359
 10
1430.2498982699799
 20
624.54877752097195
 42
-0.0142335200789601
 10
1429.2040520401297
 20
630.09941670984608
 10
1429.2005554232264
 20
630.12139519040261
 42
-0.0143046648677349
 10
1428.4673011686082
 20
635.76675172607167
 10
1428.3941935421008
 20
636.49133518772862
 42
-0.0143553274770928
 10
1428.0825911282245
 20
640.8208919496044
 10
1428.0517125699071
 20
641.53624984408009
 42
-0.0071923665520022
 10
1427.9680445531208
 20
644.44524257473927
 42
-0.0035924545395235
 10
1427.9575594079311
 20
645.90455260300837
 42
-0.0035924545395235
  0
LWPOLYLINE
  5
1E6
100
AcDbEntity
  8
AAA70-1104
370
              15
390
0
  6
Continuous
 62
               7
100
AcDbPolyline
 90
       18
 70
             128
 10
1772.9406363936082
 20
559.40475062818109
 42
-0.0016656584919518
 10
1767.8850331632539
 20
558.31237298716962
 10
1761.5654287497096
 20
556.96889895546133
 42
-0.009983863166179
 10
1743.7989269849804
 20
553.56120712457994
 10
1737.4279102784515
 20
552.47062322203726
 42
-0.0066497732371853
 10
1717.0336945754329
 20
549.25812266812841
 42
-0.006647147366428
 10
1696.5666751392159
 20
546.58960577948505
 42
-0.0066435987958228
 10
1676.0449716955468
 20
544.4668388008356
 42
-0.0066412296430961
 10
1655.4795207952839
 20
542.89036963773901
 42
-0.0066400653328828
 10
1634.881255716371
 20
541.86074596132289
 42
-0.0066401091070515
 10
1614.2611100260565
 20
541.37851591363483
 42
-0.0066413515998005
 10
1593.6300172641058
 20
541.44422803751127
 42
-0.0066437694998417
 10
1572.9989110790198
 20
542.0584312755052
 42
-0.0066500668784817
 10
1552.3859970677163
 20
543.22118399307215
 10
1549.7985445344952
 20
543.40168987542779
 42
-0.009984116398425
 10
1524.0723558504601
 20
545.7133787330705
 10
1521.4987368310499
 20
545.99654136440108
 42
-0.0016655559363265
 10
1516.3592263458654
 20
546.57934915248802
 42
-0.0016655559363265
  0
CIRCLE
  5
1E7
100
AcDbEntity
  8
AAA70-1104
370
              15
390
0
  6
STYLE_12
 62
               7
100
AcDbCircle
 10
1497.9575594079311
 20
1041.3400921003984
 30
0.0
 40
18.5
  0
CIRCLE
  5
1E8
100
AcDbEntity
  8
AAA70-1104
370
              15
390
0
  6
STYLE_12
 62
               7
100
AcDbCircle
 10
1497.9575594079311
 20
1141.3400921003986
 30
0.0
 40
17.5
  0
CIRCLE
  5
1E9
100
AcDbEntity
  8
AAA70-1104
370
              15
390
0
  6
STYLE_12
 62
               7
100
AcDbCircle
 10
1497.9575594079311
 20
941.34009210039846
 30
0.0
 40
17.5
  0
CIRCLE
  5
1EA
100
AcDbEntity
  8
AAA70-1104
370
               5
390
0
  6
STYLE_12
 62
               7
100
AcDbCircle
 10
1687.9575594079311
 20
2281.4784232795319
 30
0.0
 40
22.499999999999545
  0
LINE
  5
1EB
100
AcDbEntity
  8
AAA70-1104
370
              15
390
0
  6
Continuous
 62
               7
100
AcDbLine
 10
2728.0545318856334
 20
1018.6916890969067
 30
0.0
 11
2728.0545318856325
 21
1064.1984844279457
 31
0.0
  0
LINE
  5
1EC
100
AcDbEntity
  8
AAA70-1104
370
              15
390
0
  6
Continuous
 62
               7
100
AcDbLine
 10
2714.0031220525075
 20
1000.0873412089229
 30
0.0
 11
2714.0031220525075
 21
1082.8028323159258
 31
0.0
  0
LINE
  5
1ED
100
AcDbEntity
  8
AAA70-1104
370
              15
390
0
  6
Continuous
 62
               7
100
AcDbLine
 10
2749.0031220525079
 20
1017.9449341005118
 30
0.0
 11
2749.0031220525079
 21
1064.9452394243369
 31
0.0
  0
LWPOLYLINE
  5
1EE
100
AcDbEntity
  8
AAA70-1104
370
              15
390
0
  6
Continuous
 62
               7
100
AcDbPolyline
 90
       29
 70
             129
 10
2752.136259120954
 20
1433.4393768216967
 10
2716.649531742456
 20
1431.071825824431
 42
0.5008264314084249
 10
2709.6755154868374
 20
1420.3234384914945
 42
-0.0808097992374445
 10
2717.7970785909824
 20
1379.5454156605761
 10
2725.8186211795846
 20
1087.4408433051856
 42
0.4019516866445799
 10
2737.8080158496659
 20
1075.9452394243369
 10
2748.0031220525102
 20
1075.9452394243369
 42
-0.4142135623730617
 10
2749.0031220525102
 20
1074.9452394243369
 10
2749.0031220525079
 20
1064.9452394243369
 42
-0.414213562373095
 10
2748.0031220525079
 20
1063.9452394243369
 10
2729.0288933612674
 20
1063.9452394243369
 42
-0.2600653575290107
 10
2727.3270713332995
 20
1064.8946197095381
 10
2714.8848478467066
 20
1080.3722876077979
 42
-0.1660613428258563
 10
2714.0031220525075
 20
1082.802984977842
 10
2707.0059163659125
 20
1379.1250855612839
 42
0.2603930634769504
 10
2643.1173941867746
 20
1482.9758506477635
 10
2643.1173941867733
 20
1482.9758506477642
 42
0.0972174872493492
 10
2572.4569922777723
 20
1507.2408753573643
 42
-0.3746445708054798
 10
2569.0031220525125
 20
1511.2034177570501
 10
2569.0031220525125
 20
1533.1549431232077
 42
-0.4228230956720796
 10
2573.1203255030055
 20
1537.1532256734015
 42
-0.0509615164870165
 10
2697.0569335183309
 20
1520.7889858257572
 42
-0.2802168442800463
 10
2741.4128845679907
 20
1476.9621416471944
 10
2741.4128845679911
 20
1476.9621416471934
 10
2748.2745797291432
 20
1445.7117699465873
 42
0.3441507314088581
 10
2751.1850072295792
 20
1443.4393768216967
 10
2752.0031220525088
 20
1443.4393768216967
 42
-0.414213562373095
 10
2754.0031220525088
 20
1441.4393768216967
 10
2754.0031220525088
 20
1435.4349405317796
 42
-0.3948335622960341
  0
LWPOLYLINE
  5
1EF
100
AcDbEntity
  8
AAA70-1104
370
              15
390
0
  6
Continuous
 62
               7
100
AcDbPolyline
 90
       12
 70
             129
 10
2704.7784163867768
 20
1436.1336933603841
 42
-0.175163732028073
 10
2715.9838464002473
 20
1441.049644374855
 10
2736.4081560380382
 20
1442.4122832605306
 42
0.4587179162902578
 10
2738.2284833367589
 20
1444.8367723326617
 10
2731.6778960543952
 20
1474.6702584644979
 42
0.2794782773166512
 10
2694.7475414011101
 20
1511.0593039941148
 42
0.0471011589101527
 10
2582.1376221459368
 20
1526.8115122676052
 42
0.4274111994190651
 10
2579.0031220525116
 20
1523.8145288300645
 10
2579.0031220525116
 20
1518.8971478426781
 42
0.3638444513077868
 10
2581.4808649368215
 20
1515.9429563280489
 42
-0.087541143507787
 10
2648.0625123771015
 20
1491.6678555108181
 42
-0.1451938607043081
 10
2701.6296644824756
 20
1436.6529369107345
 42
0.4977360510495349
  0
LWPOLYLINE
  5
1F0
100
AcDbEntity
  8
AAA70-1104
370
              15
390
0
  6
Continuous
 62
               7
100
AcDbPolyline
 90
       27
 70
             129
 10
2752.136259120954
 20
649.45079670315204
 10
2716.6495317424565
 20
651.81834770041576
 42
-0.5008264314084138
 10
2709.6755154868374
 20
662.56673503335401
 42
0.0808097992374488
 10
2717.7970785909824
 20
703.3447578642706
 10
2725.8186211795846
 20
995.44933021966324
 42
-0.4019516866446756
 10
2737.8080158496659
 20
1006.9449341005118
 10
2748.0031220525102
 20
1006.9449341005118
 42
0.414213562373095
 10
2749.0031220525102
 20
1007.9449341005118
 10
2749.0031220525079
 20
1017.9449341005118
 42
0.4142135623730617
 10
2748.0031220525079
 20
1018.9449341005118
 10
2729.0288933612669
 20
1018.9449341005118
 42
0.2600653575290179
 10
2727.3270713332995
 20
1017.9955538153106
 10
2714.8848478467062
 20
1002.5178859170505
 42
0.1660613428258793
 10
2714.0031220525075
 20
1000.0871885470067
 10
2707.0059163659125
 20
703.76508796356291
 42
-0.2603930634769452
 10
2643.1173941867701
 20
599.91432287707926
 42
-0.0972174872493395
 10
2572.4569922777614
 20
575.64929816748111
 42
0.3746445708054738
 10
2569.0031220525125
 20
571.68675576779674
 10
2569.0031220525125
 20
549.73523040164287
 42
0.4228230956719944
 10
2573.1203255030055
 20
545.73694785144721
 42
0.0509615164870228
 10
2697.0569335183309
 20
562.10118769908968
 42
0.2802168442800433
 10
2741.4128845679911
 20
605.92803187765344
 10
2748.2745797291432
 20
637.17840357826151
 42
-0.3441507314088568
 10
2751.1850072295792
 20
639.45079670315204
 10
2752.0031220525088
 20
639.45079670315204
 42
0.414213562373095
 10
2754.0031220525088
 20
641.45079670315204
 10
2754.0031220525088
 20
647.4552329930691
 42
0.3948335622965214
  0
LWPOLYLINE
  5
1F1
100
AcDbEntity
  8
AAA70-1104
370
              15
390
0
  6
Continuous
 62
               7
100
AcDbPolyline
 90
       12
 70
             129
 10
2704.7784163867764
 20
646.7564801644628
 42
0.1751637320280756
 10
2715.9838464002473
 20
641.84052914999188
 10
2736.4081560380369
 20
640.47789026431451
 42
-0.4587179162905746
 10
2738.2284833367589
 20
638.05340119218704
 10
2731.6778960543952
 20
608.21991506034976
 42
-0.2794782773166566
 10
2694.7475414011101
 20
571.83086953073393
 42
-0.04710115891016
 10
2582.1376221459373
 20
556.07866125724172
 42
-0.4274111994187825
 10
2579.0031220525116
 20
559.07564469478052
 10
2579.0031220525116
 20
563.99302568217036
 42
-0.363844451307653
 10
2581.4808649368215
 20
566.94721719679978
 42
0.0875411435077875
 10
2648.0625123771015
 20
591.22231801403075
 42
0.14519386070431
 10
2701.6296644824756
 20
646.23723661411054
 42
-0.4977360510494705
  0
LWPOLYLINE
  5
1F2
100
AcDbEntity
  8
AAA70-1104
370
              15
390
0
  6
Continuous
 62
               7
100
AcDbPolyline
 90
       23
 70
             128
 10
2719.8965025684397
 20
1337.1646125266659
 10
2748.7473304600421
 20
1340.7709660130902
 42
0.3782424518882438
 10
2754.0031220525079
 20
1346.7246332733728
 10
2754.0031220525079
 20
1445.7303791858092
 42
0.414213562373095
 10
2752.0031220525079
 20
1447.7303791858092
 10
2751.1850072295779
 20
1447.7303791858092
 42
-0.3441507314089609
 10
2748.2745797291423
 20
1450.0027723107003
 10
2741.4128845679902
 20
1481.2531440113059
 10
2741.4128845679902
 20
1481.2531440113066
 42
0.2802168442800443
 10
2697.0569335183291
 20
1525.0799881898699
 42
0.0509615164870169
 10
2573.1203255030032
 20
1541.444228037514
 42
0.4228230956722852
 10
2569.0031220525102
 20
1537.4459454873183
 10
2569.0031220524866
 20
545.44251058770783
 42
0.4228230956720487
 10
2573.1203255029804
 20
541.44422803751218
 42
0.0509614248357752
 10
2697.0569335183291
 20
557.81018533496422
 42
0.2802168442800797
 10
2741.4128845679879
 20
601.6370295135282
 10
2748.2745797291423
 20
632.88740121414844
 42
-0.3441507314089622
 10
2751.1850072295779
 20
635.15979433903954
 10
2752.0031220525079
 20
635.15979433903954
 42
0.414213562373095
 10
2754.0031220525079
 20
637.15979433903954
 10
2754.0031220525079
 20
736.14753472629377
 42
0.3782424518881978
 10
2748.747330460043
 20
742.10120198657455
 10
2719.8933681840394
 20
745.70794727108
  0
LWPOLYLINE
  5
1F3
100
AcDbEntity
  8
AAA70-1104
370
              15
390
0
  6
Continuous
 62
               7
100
AcDbPolyline
 90
       43
 70
             128
 10
1871.93752195147
 20
1375.958460927845
 42
0.0032344522440385
 10
1871.7555084445767
 20
1377.696437072118
 10
1871.5154341455845
 20
1379.8539887745806
 42
0.0193993342615077
 10
1870.6085012463709
 20
1385.8706898471808
 10
1870.2001513487965
 20
1388.0124074602033
 42
0.0128724896082349
 10
1868.7400569413076
 20
1394.7260518222824
 10
1868.7357099988521
 20
1394.7438234122526
 42
0.0128107605873188
 10
1866.9424480293537
 20
1401.3383746232353
 10
1866.9380148580376
 20
1401.3531693860289
 42
0.0127527028364313
 10
1864.8197105336612
 20
1407.8181404309457
 10
1864.8154052037019
 20
1407.8302291266943
 42
0.0126965161521253
 10
1862.3801585116457
 20
1414.1551375129125
 10
1862.3761649017856
 20
1414.164772860918
 42
0.01264447899096
 10
1859.6321022297629
 20
1420.3391567007961
 10
1859.6285796870918
 20
1420.3465716424487
 42
0.0125985328496686
 10
1856.5838488583931
 20
1426.3599895550303
 10
1856.5809429800613
 20
1426.3653868657866
 42
0.012560464195417
 10
1853.2436986190878
 20
1432.2074317903359
 10
1853.2415300442474
 20
1432.2110158865432
 42
0.0125312005132422
 10
1849.6199603651407
 20
1437.8712652269412
 42
0.0125087613241977
 10
1845.7208876914378
 20
1443.3413284185906
 42
0.0125031055309472
 10
1841.5547755392513
 20
1448.6074078422714
 42
0.0125095986459611
 10
1837.1299773264868
 20
1453.6592158950314
 42
0.0125266416356348
 10
1832.4547624828315
 20
1458.4865583991993
 42
0.012544772414163
 10
1827.5412379544441
 20
1463.0758321222304
 10
1827.5373936965348
 20
1463.0792462082043
 42
0.0125785276179918
 10
1822.3917369479027
 20
1467.4225805500528
 10
1822.3861548799973
 20
1467.4270567341089
 42
0.0126207744961822
 10
1817.0168658449522
 20
1471.5143226250568
 10
1817.0093265727924
 20
1471.5197667904756
 42
0.0126700096423118
 10
1811.4249320494939
 20
1475.3408388641421
 10
1811.4151892235172
 20
1475.3471489565088
 42
0.0127244103132558
 10
1805.6242427844065
 20
1478.8919132078177
 10
1805.6120236765905
 20
1478.8989718021901
 42
0.0127818492374012
 10
1799.6231049779008
 20
1482.1573326914511
 10
1799.6081119853889
 20
1482.1649998597466
 42
0.0128399316348765
 10
1793.4298245263683
 20
1485.1268874186705
 10
1793.4117377643356
 20
1485.1349939033296
 42
0.0128959715134647
 10
1787.0527046301393
 20
1487.7903715921675
 10
1787.0311926738923
 20
1487.7987097175526
 42
0.012943514483291
 10
1780.50007916957
 20
1490.1376251016823
 10
1780.4886490803833
 20
1490.141387605722
 42
0.0032375612006394
 10
1778.8252037006018
 20
1490.677040029407
 42
0.0032375612006394
  0
LWPOLYLINE
  5
1F4
100
AcDbEntity
  8
AAA70-1104
370
              15
390
0
  6
Continuous
 62
               7
100
AcDbPolyline
 90
       31
 70
             128
 10
1778.8252037006018
 20
1490.677040029407
 42
0.0021224323877408
 10
1776.7188826947854
 20
1491.3304398370321
 10
1776.1904757944071
 20
1491.4919007939923
 42
0.0041055452456084
 10
1773.0168379779459
 20
1492.4332219608746
 10
1771.4099888048381
 20
1492.8955035538672
 42
0.0075543106456328
 10
1764.9885904174675
 20
1494.6383044268687
 10
1763.8891801181717
 20
1494.9189277921057
 42
0.0068081324996447
 10
1755.2141840166203
 20
1497.0078248612278
 10
1755.1838330999149
 20
1497.0146973955395
 42
0.0061133710729675
 10
1746.3967395120344
 20
1498.8917714692984
 10
1746.3709043926292
 20
1498.8969608489231
 42
0.005455591053402
 10
1737.4908238731675
 20
1500.5800770793699
 10
1737.4704037426823
 20
1500.5837171356022
 42
0.0048310871357243
 10
1728.5165565302887
 20
1502.0907027675194
 10
1728.5023360159262
 20
1502.0929550973713
 42
0.0042356522240585
 10
1719.4940615505668
 20
1503.4416165329378
 10
1719.4867119876967
 20
1503.4426532862378
 42
0.003664527708628
 10
1710.4435484750834
 20
1504.6507836227654
 10
1710.4355544360062
 20
1504.6517920161994
 42
0.0031133926580717
 10
1701.3928673276073
 20
1505.7353067477795
 10
1701.3765723036674
 20
1505.7371564068635
 42
0.0025751144393488
 10
1692.3546963358813
 20
1506.7141993689017
 10
1692.3297763026271
 20
1506.7167683585176
 42
0.0020521832553201
 10
1683.3490613011954
 20
1507.6053480059261
 10
1683.3152407176945
 20
1507.6085542040996
 42
0.0015221040695504
 10
1674.3960291716276
 20
1508.4267091547433
 10
1673.2579894206465
 20
1508.5276083758827
 42
0.0009734861603806
 10
1666.6112447667247
 20
1509.1038718448306
 10
1665.4912575445874
 20
1509.198776565082
 42
0.0002824465825619
 10
1661.0831557765455
 20
1509.5697994466398
 42
0.0000888855538459
 10
1658.8843766064178
 20
1509.7532227551008
 42
0.0000888855538459
  0
LWPOLYLINE
  5
1F5
100
AcDbEntity
  8
AAA70-1104
370
              15
390
0
  6
Continuous
 62
               7
100
AcDbPolyline
 90
       32
 70
             128
 10
1882.9575594079311
 20
1041.3400921003947
 42
-0.0000544400908572
 10
1882.9365283577417
 20
1045.6105642810744
 10
1882.8654430149641
 20
1060.3711864150243
 42
-0.0000618195977691
 10
1882.7068842323786
 20
1094.162924757055
 10
1882.6369904649553
 20
1109.4616748780304
 42
0.0001668612818301
 10
1882.5043339573931
 20
1136.5216009475114
 10
1882.4989116512279
 20
1137.5571719429659
 42
0.0003220864495501
 10
1882.351972238182
 20
1162.5458170967138
 10
1882.3457111169073
 20
1163.5054575412198
 42
0.0005318997773623
 10
1882.1706560491707
 20
1186.574540928076
 10
1882.1630106198409
 20
1187.458184199794
 42
0.000788382929907
 10
1881.9451183916467
 20
1208.7594512544299
 10
1881.9220277692709
 20
1210.7152840554631
 42
0.0011039527646185
 10
1881.6783369568184
 20
1228.1040038958124
 10
1881.6678210321268
 20
1228.7522261556387
 42
0.0010496433972349
 10
1881.3729894621365
 20
1244.843344492652
 42
0.0017539473657969
 10
1880.9879387691847
 20
1260.932493171483
 10
1880.9559962287281
 20
1262.0964725277217
 42
0.0022136458847064
 10
1880.4452423898756
 20
1278.1207669755993
 10
1880.4263511227678
 20
1278.6410993358777
 42
0.0027095082081416
 10
1879.8012687222063
 20
1293.619080439197
 10
1879.7803749024231
 20
1294.0620920366066
 42
0.0032267533930408
 10
1879.0250234470786
 20
1308.1457878719464
 10
1879.0030645655941
 20
1308.5111151662311
 42
0.0037359673432836
 10
1878.1010530401772
 20
1321.852541831229
 10
1878.0794694152928
 20
1322.1398644945693
 42
0.004197662210824
 10
1877.0138860107168
 20
1334.8909598915986
 42
0.0045421767275219
 10
1875.7256008815721
 20
1347.6214057336906
 10
1875.3366660066167
 20
1351.1449029857947
 42
0.0108313462613134
 10
1872.7278560819918
 20
1370.85411937505
 10
1872.1679082458336
 20
1374.4790061303415
 42
0.0006106047384997
 10
1871.93752195147
 20
1375.958460927845
 42
0.0006106047384997
  0
LWPOLYLINE
  5
1F6
100
AcDbEntity
  8
AAA70-1104
370
              15
390
0
  6
Continuous
 62
               7
100
AcDbPolyline
 90
       61
 70
             128
 10
1658.8843766064178
 20
1509.7532227551008
 42
0.0007827547312715
 10
1657.9598222076461
 20
1509.8287276250076
 10
1656.7941484243584
 20
1509.9220869950466
 42
0.0054118041796899
 10
1653.5356873858057
 20
1510.1475938663939
 10
1652.8241586783392
 20
1510.1891036907471
 42
0.0039432617465811
 10
1648.1383357269995
 20
1510.4254054442879
 10
1647.6348755191002
 20
1510.4468153532241
 42
0.0090730534175244
 10
1641.9377500543242
 20
1510.5855923388524
 10
1640.9783300674096
 20
1510.5915491651322
 42
0.0051095377183855
 10
1637.1444617235406
 20
1510.5761741676877
 42
0.0054731664458662
 10
1633.3101984681343
 20
1510.4796242827613
 42
0.005892682920761
 10
1629.4785122141684
 20
1510.295954570767
 10
1629.4752160028506
 20
1510.2957575894497
 42
0.0063442080853755
 10
1625.6567641661845
 20
1510.0189052316289
 10
1625.6514099842036
 20
1510.0184486741091
 42
0.0068228482666262
 10
1621.8523136988388
 20
1509.6422136467488
 10
1621.8452118991363
 20
1509.6414123394256
 42
0.0073315741329889
 10
1618.0725185063925
 20
1509.1596136620344
 10
1618.064018675469
 20
1509.158401264234
 42
0.007871352501956
 10
1614.3247349311805
 20
1508.5648347577715
 10
1614.3152281149039
 20
1508.5631718364384
 42
0.0084424209399099
 10
1610.6163185398595
 20
1507.8516011291429
 10
1610.6062383094563
 20
1507.8494848742407
 42
0.0090440288865547
 10
1606.9546250253652
 20
1507.0136307265846
 10
1606.9444467651672
 20
1507.0111063505076
 42
0.0096741285099155
 10
1603.3470115153636
 20
1506.0446343433466
 10
1603.3372491703121
 20
1506.0418080376714
 42
0.01032902386217
 10
1599.8008383561523
 20
1504.938314886879
 10
1599.7920377619935
 20
1504.9353679498458
 42
0.0110029991293402
 10
1596.3234714054215
 20
1503.6883670275345
 10
1596.3161992843377
 20
1503.6855704147233
 42
0.0116879637027006
 10
1592.9222847978995
 20
1502.2884774727406
 10
1592.917112601247
 20
1502.2862055701594
 42
0.0123731725001663
 10
1589.6046640374188
 20
1500.7323261489853
 10
1589.6021461300888
 20
1500.7310680658641
 42
0.0130451011460102
 10
1586.378009119464
 20
1499.013588560593
 42
0.0136903535476616
 10
1583.2497372192702
 20
1497.1259395015593
 42
0.0142822161645358
 10
1580.2313659099614
 20
1495.0660179393381
 10
1580.2272843354872
 20
1495.0630580998984
 42
0.0148093643369358
 10
1577.3259045441191
 20
1492.8250271732693
 10
1577.3181052249047
 20
1492.818633873693
 42
0.015249326510615
 10
1574.5412980272001
 20
1490.3971537383591
 10
1574.5296710725293
 20
1490.3863731207209
 42
0.0155840151971385
 10
1571.8848536972832
 20
1487.7761693993939
 10
1571.8694646585186
 20
1487.7600046493469
 42
0.0157986899353854
 10
1569.3638706433851
 20
1484.9558276831324
 10
1569.3449732851454
 20
1484.9332837210748
 42
0.0158835524177331
 10
1566.9856454429323
 20
1481.9298609307848
 10
1566.9636802962755
 20
1481.8999932284976
 42
0.015834889151686
 10
1564.7574788435977
 20
1478.6919796705436
 10
1564.7330564717968
 20
1478.6539416017283
 42
0.0156555227716584
 10
1562.6866823222699
 20
1475.235874649095
 10
1562.6605527281949
 20
1475.1889576244164
 42
0.0153544642443219
 10
1560.7805833397438
 20
1471.5552213405554
 10
1560.7535953683387
 20
1471.4988833270515
 42
0.0149455957845191
 10
1559.0465266320496
 20
1467.6436878376694
 10
1558.8304595050515
 20
1467.1134672788257
 42
0.0144021244471336
 10
1557.6536097586468
 20
1463.969329141926
 10
1557.4792132026409
 20
1463.4591045589018
 42
0.0069814360679028
 10
1556.7720054679762
 20
1461.2916351498741
 42
0.0034160291592944
 10
1556.4377443907065
 20
1460.190012034617
 42
0.0034160291592944
  0
LWPOLYLINE
  5
1F7
100
AcDbEntity
  8
AAA70-1104
370
              15
390
0
  6
Continuous
 62
               7
100
AcDbPolyline
 90
       32
 70
             128
 10
1882.9575594079311
 20
1041.340092100402
 42
0.0000544400909846
 10
1882.9365283577404
 20
1037.0696199194358
 10
1882.8654430149645
 20
1022.3089977857724
 42
0.0000618195977691
 10
1882.7068842323799
 20
988.51725944399345
 10
1882.6369904649555
 20
973.21850932293069
 42
-0.0001668612817885
 10
1882.5043339573931
 20
946.15858325328543
 10
1882.4989116512286
 20
945.12301225792339
 42
-0.0003220864495501
 10
1882.3519722381834
 20
920.13436710408212
 10
1882.3457111169089
 20
919.17472665961873
 42
-0.0005318997774014
 10
1882.1706560491721
 20
896.10564327271982
 10
1882.1630106198422
 20
895.2220000009853
 42
-0.0007883829299158
 10
1881.9451183916472
 20
873.9207329463668
 10
1881.9220277692707
 20
871.96490014529434
 42
-0.001103952764631
 10
1881.6783369568175
 20
854.57618030498429
 10
1881.6678210321254
 20
853.92795804513423
 42
-0.0010496433971622
 10
1881.372989462136
 20
837.83683970814377
 42
-0.0017539473658246
 10
1880.9879387691858
 20
821.7476910293027
 10
1880.9559962287299
 20
820.58371167308678
 42
-0.0022136458847346
 10
1880.445242389877
 20
804.55941722519742
 10
1880.4263511227689
 20
804.03908486491162
 42
-0.0027095082081365
 10
1879.8012687222067
 20
789.06110376159882
 10
1879.7803749024235
 20
788.61809216419272
 42
-0.0032267533930429
 10
1879.0250234470782
 20
774.53439632884943
 10
1879.0030645655938
 20
774.1690690345672
 42
-0.0037359673432093
 10
1878.1010530401777
 20
760.82764236956677
 10
1878.0794694152933
 20
760.54031970622339
 42
-0.00419766221091
 10
1877.0138860107177
 20
747.78922430919624
 42
-0.0045421767274546
 10
1875.7256008815725
 20
735.05877846710212
 10
1875.3366660066181
 20
731.53528121500108
 42
-0.0108313462614063
 10
1872.7278560819923
 20
711.82606482574852
 10
1872.1679082458327
 20
708.20117807045312
 42
-0.0006105542854726
 10
1871.93752195147
 20
706.72172327295152
 42
-0.0006105542854726
  0
LWPOLYLINE
  5
1F8
100
AcDbEntity
  8
AAA70-1104
370
              15
390
0
  6
Continuous
 62
               7
100
AcDbPolyline
 90
       44
 70
             128
 10
1556.4377443907065
 20
1460.190012034617
 42
0.0272105683348217
 10
1556.3969339152534
 20
1460.1187398780812
 10
1556.3676308858694
 20
1460.0604218790147
 42
0.0257323373461442
 10
1556.2821142389521
 20
1459.8658871236983
 10
1556.1807599570579
 20
1459.5988177615143
 42
0.0229991363648039
 10
1555.9368079022745
 20
1458.8545129673403
 10
1555.8635001911739
 20
1458.5903876988348
 42
0.0110280845479135
 10
1555.5356658615851
 20
1457.2993734067884
 10
1555.4886810716312
 20
1457.0956099766452
 42
0.0087567227732559
 10
1555.1253431655198
 20
1455.3834733887923
 10
1555.0611109394781
 20
1455.0523408263605
 42
0.0069625681947674
 10
1554.6325334964217
 20
1452.665607038361
 10
1554.568863364972
 20
1452.2802588218353
 42
0.0056574809767413
 10
1554.0820400744415
 20
1449.1113517487836
 10
1554.0195834387523
 20
1448.6717104325678
 42
0.004681978412112
 10
1553.4817107398972
 20
1444.6129754366177
 10
1553.4209518967282
 20
1444.1190229656474
 42
0.0039353942268878
 10
1552.8393654880947
 20
1439.0627686861269
 10
1552.7806720101648
 20
1438.5145150693804
 42
0.0033521912349219
 10
1552.1628053631784
 20
1432.3530334810114
 10
1552.106461640507
 20
1431.7505014526021
 42
0.0028884367524752
 10
1551.4598184099195
 20
1424.3760777392404
 10
1551.4060483382791
 20
1423.7192950793712
 42
0.0025138872557459
 10
1550.7381836234226
 20
1415.0242125445561
 10
1550.6871662487756
 20
1414.3132082114585
 42
0.0022072200939735
 10
1550.0056735906774
 20
1404.189750692821
 10
1549.9575541103209
 20
1403.4245529058694
 42
0.0019530776573659
 10
1549.270056282149
 20
1391.7650059065754
 10
1549.2249539283221
 20
1390.9456412477343
 42
0.0018170040728459
 10
1548.5411405613227
 20
1377.6421944556671
 10
1548.2861536662267
 20
1372.3030802306444
 42
0.0029222865675668
 10
1547.2809242165683
 20
1348.3130448097636
 10
1547.2292974845395
 20
1346.8808985915891
 42
0.0012909108456125
 10
1546.3303816471703
 20
1320.0183747028691
 10
1546.2344262808738
 20
1316.910918420557
 42
0.0021925607807279
 10
1545.3580303802985
 20
1283.8273180018668
 10
1545.3209994952504
 20
1282.1519118881095
 42
0.0009819806265437
 10
1544.5871843534323
 20
1245.7122149348877
 10
1544.5218722889449
 20
1242.1183306829651
 42
0.0017246726020216
 10
1543.8794984905719
 20
1198.4872082643924
 10
1543.7534537488486
 20
1187.3059977967457
 42
0.0014690173716798
 10
1543.2033927173952
 20
1121.3086225654074
 10
1543.1890056702491
 20
1118.6425852571381
 42
0.0012011701990658
 10
1542.9575594079311
 20
1041.3400921003984
 42
0.0012011701990658
  0
LWPOLYLINE
  5
1F9
100
AcDbEntity
  8
AAA70-1104
370
              15
390
0
  6
Continuous
 62
               7
100
AcDbPolyline
 90
       43
 70
             128
 10
1871.93752195147
 20
706.72172327295152
 42
-0.0032344522441222
 10
1871.7555084445748
 20
704.98374712866212
 10
1871.5154341455841
 20
702.82619542621501
 42
-0.0193993342614006
 10
1870.6085012463709
 20
696.8094943536164
 10
1870.2001513487965
 20
694.66777674059165
 42
-0.0128724896084145
 10
1868.7400569413071
 20
687.95413237851312
 10
1868.7357099988517
 20
687.93636078854297
 42
-0.0128107605870803
 10
1866.9424480293537
 20
681.34180957756121
 10
1866.9380148580378
 20
681.3270148147684
 42
-0.0127527028366006
 10
1864.8197105336621
 20
674.86204376984983
 10
1864.815405203703
 20
674.84995507410156
 42
-0.0126965161521789
 10
1862.3801585116444
 20
668.5250466878822
 10
1862.376164901784
 20
668.51541133987621
 42
-0.0126444789907414
 10
1859.632102229762
 20
662.34102749999852
 10
1859.6285796870916
 20
662.33361255834734
 42
-0.0125985328498825
 10
1856.5838488583931
 20
656.32019464576547
 10
1856.5809429800613
 20
656.31479733500919
 42
-0.012560464195297
 10
1853.2436986190874
 20
650.47275241046077
 10
1853.2415300442472
 20
650.46916831425381
 42
-0.0125312005132688
 10
1849.6199603651407
 20
644.8089189738555
 42
-0.0125170574394591
 10
1845.7208876914369
 20
639.33885578220611
 42
-0.0125048844917828
 10
1841.5547755392495
 20
634.07277635852438
 42
-0.0125046193801667
 10
1837.1299773264864
 20
629.02096830576352
 42
-0.0125146092745162
 10
1832.4547624828319
 20
624.19362580159554
 42
-0.0125447724141315
 10
1827.5412379544412
 20
619.60435207856187
 10
1827.5373936965348
 20
619.60093799259062
 42
-0.0125785276180553
 10
1822.3917369479027
 20
615.25760365074291
 10
1822.386154879996
 20
615.25312746668601
 42
-0.012620774496059
 10
1817.0168658449488
 20
611.16586157573647
 10
1817.009326572791
 20
611.16041741031927
 42
-0.0126700096424104
 10
1811.4249320494932
 20
607.33934533665274
 10
1811.4151892235163
 20
607.33303524428607
 42
-0.0127244103132111
 10
1805.6242427844063
 20
603.78827099297803
 10
1805.6120236765905
 20
603.7812123986057
 42
-0.0127818492374876
 10
1799.6231049779026
 20
600.52285150934665
 10
1799.6081119853884
 20
600.51518434105014
 42
-0.0128399316346575
 10
1793.4298245263669
 20
597.55329678212445
 10
1793.4117377643361
 20
597.54519029746621
 42
-0.0128959715137312
 10
1787.0527046301404
 20
594.88981260862806
 10
1787.0311926738937
 20
594.88147448324321
 42
-0.0129435144831638
 10
1780.5000791695709
 20
592.54255909911478
 10
1780.4886490803833
 20
592.5387965950747
 42
-0.0032378475946794
 10
1778.8252037006018
 20
592.00314417138975
 42
-0.0032378475946794
  0
LWPOLYLINE
  5
1FA
100
AcDbEntity
  8
AAA70-1104
370
              15
390
0
  6
Continuous
 62
               7
100
AcDbPolyline
 90
       44
 70
             128
 10
1556.4377443907065
 20
622.49017216617972
 42
-0.0272105683354701
 10
1556.3969339152559
 20
622.56144432271014
 10
1556.3676308858694
 20
622.61976232178108
 42
-0.0257323373478307
 10
1556.2821142389516
 20
622.81429707709833
 10
1556.1807599570579
 20
623.08136643928242
 42
-0.0229991363639081
 10
1555.9368079022747
 20
623.82567123345632
 10
1555.8635001911739
 20
624.08979650196102
 42
-0.0110280845484171
 10
1555.5356658615831
 20
625.3808107940132
 10
1555.4886810716307
 20
625.58457422414972
 42
-0.0087567227733034
 10
1555.1253431655216
 20
627.29671081199524
 10
1555.0611109394786
 20
627.62784337443532
 42
-0.0069625681944882
 10
1554.6325334964213
 20
630.01457716244113
 10
1554.568863364972
 20
630.39992537896137
 42
-0.0056574809768714
 10
1554.0820400744408
 20
633.5688324520105
 10
1554.0195834387514
 20
634.0084737682289
 42
-0.0046819784122024
 10
1553.4817107398974
 20
638.06720876417626
 10
1553.4209518967282
 20
638.56116123514835
 42
-0.0039353942268191
 10
1552.839365488097
 20
643.61741551465718
 10
1552.7806720101657
 20
644.16566913141537
 42
-0.0033521912348598
 10
1552.162805363178
 20
650.32715071979271
 10
1552.106461640507
 20
650.92968274819464
 42
-0.0028884367525352
 10
1551.4598184099182
 20
658.30410646155917
 10
1551.4060483382782
 20
658.96088912142545
 42
-0.002513887255837
 10
1550.7381836234226
 20
667.65597165624899
 10
1550.6871662487765
 20
668.36697598933802
 42
-0.0022072200938635
 10
1550.0056735906785
 20
678.49043350799673
 10
1549.9575541103231
 20
679.25563129492707
 42
-0.0019530776572877
 10
1549.2700562821474
 20
690.91517829424788
 10
1549.2249539283216
 20
691.73454295306215
 42
-0.0018170040729337
 10
1548.5411405613213
 20
705.03798974510539
 10
1548.2861536662244
 20
710.37710397015121
 42
-0.002922286567581
 10
1547.2809242165672
 20
734.36713939104607
 10
1547.2292974845391
 20
735.79928560920666
 42
-0.0012909108456125
 10
1546.330381647173
 20
762.66180949788929
 10
1546.2344262808756
 20
765.76926578023972
 42
-0.0021925607806804
 10
1545.3580303802994
 20
798.85286619891963
 10
1545.3209994952508
 20
800.52827231268634
 42
-0.0009819806265507
 10
1544.5871843534305
 20
836.96796926586353
 10
1544.5218722889422
 20
840.56185351783074
 42
-0.0017246726020458
 10
1543.8794984905696
 20
884.19297593641716
 10
1543.7534537488473
 20
895.37418640405099
 42
-0.0014690173716514
 10
1543.2033927173954
 20
961.37156163534996
 10
1543.1890056702491
 20
964.03759894365874
 42
-0.001201170697541
 10
1542.9575594079311
 20
1041.3400921003984
 42
-0.001201170697541
  0
LWPOLYLINE
  5
1FB
100
AcDbEntity
  8
AAA70-1104
370
              15
390
0
  6
Continuous
 62
               7
100
AcDbPolyline
 90
       31
 70
             128
 10
1778.8252037006018
 20
592.00314417138975
 42
-0.0021224323876754
 10
1776.7188826947695
 20
591.34974436375944
 10
1776.190475794408
 20
591.18828340680443
 42
-0.0041055452456659
 10
1773.0168379779584
 20
590.24696223992521
 10
1771.409988804839
 20
589.78468064692947
 42
-0.0075543106456181
 10
1764.9885904174657
 20
588.04187977392758
 10
1763.8891801181717
 20
587.761256408691
 42
-0.0068081324995886
 10
1755.2141840166219
 20
585.67235933956806
 10
1755.1838330999153
 20
585.66548680525625
 42
-0.0061133710730708
 10
1746.396739512028
 20
583.78841273149601
 10
1746.3709043926297
 20
583.78322335187272
 42
-0.0054555910532926
 10
1737.4908238731759
 20
582.10010712142707
 10
1737.4704037426832
 20
582.09646706519356
 42
-0.0048310871358407
 10
1728.5165565302875
 20
580.58948143327609
 10
1728.5023360159266
 20
580.58722910342453
 42
-0.0042356522239979
 10
1719.4940615505582
 20
579.23856766785775
 10
1719.4867119876953
 20
579.23753091455887
 42
-0.0036646005396446
 10
1710.4435484750834
 20
578.0294005780313
 10
1710.4355544360014
 20
578.02839218459667
 42
-0.003113392658036
 10
1701.3928673276087
 20
576.94487745301626
 10
1701.3765723036649
 20
576.94302779393172
 42
-0.0025751144393946
 10
1692.3546963358813
 20
575.96598483189314
 10
1692.3297763026226
 20
575.96341584227673
 42
-0.0020521832553573
 10
1683.3490613011959
 20
575.0748361948697
 10
1683.3152407177215
 20
575.07162999669868
 42
-0.0015221040695231
 10
1674.396029171628
 20
574.25347504605338
 10
1673.2579894206451
 20
574.15257582491381
 42
-0.0009734861603806
 10
1666.6112447667242
 20
573.57631235596614
 10
1665.4912575445287
 20
573.48140763570962
 42
-0.0002824465823899
 10
1661.0831557765455
 20
573.11038475415512
 42
-0.0000888208046832
 10
1658.8843766064178
 20
572.92696144569595
 42
-0.0000888208046832
  0
LWPOLYLINE
  5
1FC
100
AcDbEntity
  8
AAA70-1104
370
              15
390
0
  6
Continuous
 62
               7
100
AcDbPolyline
 90
       61
 70
             128
 10
1658.8843766064178
 20
572.92696144569595
 42
-0.0007827547312715
 10
1657.9598222076759
 20
572.85145657579142
 10
1656.7941484243606
 20
572.75809720575012
 42
-0.005411804179636
 10
1653.5356873858066
 20
572.53259033440213
 10
1652.8241586783411
 20
572.49108051004873
 42
-0.0039432617467342
 10
1648.1383357269929
 20
572.25477875650745
 10
1647.6348755190998
 20
572.23336884757168
 42
-0.009073053417451
 10
1641.9377500543249
 20
572.09459186194431
 10
1640.9783300674164
 20
572.08863503566454
 42
-0.0051095377183936
 10
1637.1444617235402
 20
572.10401003310903
 42
-0.0054685766139641
 10
1633.3101984681348
 20
572.20055991803542
 42
-0.0058956478855033
 10
1629.4785122141679
 20
572.38422963002972
 10
1629.4752160028477
 20
572.38442661134695
 42
-0.0063442080854204
 10
1625.6567641661841
 20
572.66127896916782
 10
1625.6514099842075
 20
572.66173552668715
 42
-0.006822848266435
 10
1621.8523136988379
 20
573.03797055404698
 10
1621.8452118991313
 20
573.03877186137061
 42
-0.0073315741331726
 10
1618.0725185063893
 20
573.52057053876047
 10
1618.0640186754611
 20
573.52178293656152
 42
-0.0078713525020883
 10
1614.3247349311796
 20
574.11534944302434
 10
1614.3152281149096
 20
574.11701236435624
 42
-0.0084424209397364
 10
1610.6163185398595
 20
574.82858307165384
 10
1610.6062383094495
 20
574.83069932655746
 42
-0.0090440288865762
 10
1606.9546250253647
 20
575.66655347421215
 10
1606.9444467651695
 20
575.66907785028832
 42
-0.009674128509909
 10
1603.3470115153636
 20
576.63554985745009
 10
1603.3372491703124
 20
576.63837616312514
 42
-0.010329023862166
 10
1599.8008383561523
 20
577.74186931391773
 10
1599.7920377619971
 20
577.7448162509495
 42
-0.0110029991293275
 10
1596.3234714054211
 20
578.99181717326223
 10
1596.3161992843338
 20
578.99461378607475
 42
-0.0116879637027665
 10
1592.9222847978995
 20
580.39170672805608
 10
1592.9171126012498
 20
580.39397863063607
 42
-0.0123731724998661
 10
1589.6046640374175
 20
581.9478580518105
 10
1589.6021461300807
 20
581.94911613493514
 42
-0.0130451011463977
 10
1586.3780091194626
 20
583.66659564020188
 42
-0.0136847879280561
 10
1583.2497372192697
 20
585.55424469923651
 42
-0.0142822161646695
 10
1580.2313659099595
 20
587.61416626145979
 10
1580.2272843354872
 20
587.6171261008983
 42
-0.0148093643367575
 10
1577.325904544123
 20
589.85515702752548
 10
1577.318105224906
 20
589.86155032710371
 42
-0.0152493265105832
 10
1574.5412980272017
 20
592.28303046243605
 10
1574.5296710725293
 20
592.29381108007578
 42
-0.0155840151971002
 10
1571.8848536972805
 20
594.90401480140315
 10
1571.8694646585172
 20
594.92017955144888
 42
-0.0157986899356769
 10
1569.3638706433849
 20
597.72435651766239
 10
1569.3449732851445
 20
597.74690047972103
 42
-0.0158835524174987
 10
1566.9856454429305
 20
600.75032327001338
 10
1566.9636802962755
 20
600.78019097229821
 42
-0.0158348891519702
 10
1564.7574788436007
 20
603.98820453024939
 10
1564.7330564717981
 20
604.02624259906747
 42
-0.0156555227712502
 10
1562.6866823222704
 20
607.44430955170208
 10
1562.6605527281963
 20
607.4912265763794
 42
-0.015354464244374
 10
1560.7805833397433
 20
611.12496286023759
 10
1560.7535953683373
 20
611.18130087374334
 42
-0.0149455957848346
 10
1559.0465266320487
 20
615.03649636312502
 10
1558.8304595050506
 20
615.56671692196994
 42
-0.0144021244470623
 10
1557.6536097586477
 20
618.71085505887072
 10
1557.4792132026441
 20
619.22107964188945
 42
-0.0069814360673283
 10
1556.7720054679762
 20
621.3885490509208
 42
-0.003414419583105
 10
1556.4377443907065
 20
622.49017216617972
 42
-0.003414419583105
  0
LWPOLYLINE
  5
1FD
100
AcDbEntity
  8
AAA70-1104
370
              15
390
0
  6
Continuous
 62
               7
100
AcDbPolyline
 90
       48
 70
             128
 10
1897.8854646813693
 20
1382.3930768017785
 42
0.0032146330951142
 10
1897.6722479848092
 20
1384.4598482073563
 10
1897.5032697695588
 20
1386.0006893767172
 42
0.0128673508364939
 10
1896.8067895181673
 20
1391.1298456003665
 10
1896.5565382973732
 20
1392.6737108224531
 42
0.012821052644986
 10
1895.0406138924409
 20
1400.7147266448233
 10
1895.0351246521882
 20
1400.7402329812683
 42
0.0127658988927396
 10
1893.1221640565682
 20
1408.6425089628451
 10
1893.1163432846333
 20
1408.6641252036889
 42
0.0127067440190433
 10
1890.8162017203945
 20
1416.4158553597858
 10
1890.8103351197781
 20
1416.4339291335655
 42
0.0126461908925607
 10
1888.1329120071346
 20
1424.0233184430479
 10
1888.1272415095088
 20
1424.0381826806499
 42
0.0125867974794192
 10
1885.0824763307505
 20
1431.4534544453088
 10
1885.077206781222
 20
1431.4654215232008
 42
0.0125308870296204
 10
1881.6750720104305
 20
1438.6948223783036
 10
1881.6703788892555
 20
1438.7041790662129
 42
0.0124805256036789
 10
1877.920871723677
 20
1445.7359834013048
 10
1877.9169078840937
 20
1445.7429901564083
 42
0.012437436922656
 10
1873.8300445268433
 20
1452.5654988218273
 10
1873.826953427536
 20
1452.5703794232336
 42
0.012403180036366
 10
1869.4127512384366
 20
1459.1719338102419
 42
0.0123728078219435
 10
1864.6791637707543
 20
1465.5438377660901
 42
0.0123629584111661
 10
1859.6393863553958
 20
1471.6698212039662
 42
0.0123625782713217
 10
1854.3035748587713
 20
1477.5384373057284
 42
0.0123744651860841
 10
1848.6819582585608
 20
1483.1381579008655
 42
0.0123896014071872
 10
1842.7882253241712
 20
1488.4544986768205
 10
1842.7846621063741
 20
1488.4575561588342
 42
0.0124191588931872
 10
1836.627255074648
 20
1493.4809842489333
 10
1836.6218040072495
 20
1493.4852103533492
 42
0.0124580208940675
 10
1830.2111009771147
 20
1498.2043732885279
 10
1830.2035287815406
 20
1498.2096617576851
 42
0.0125049490015751
 10
1823.5499305890689
 20
1502.6132156546621
 10
1823.5399776508316
 20
1502.6194506319396
 42
0.0125583352831055
 10
1816.6539169070543
 20
1506.6960604452215
 10
1816.6412922957879
 20
1506.7031123173672
 42
0.0126162701159837
 10
1809.5332322701147
 20
1510.4414607114052
 10
1809.5176154000037
 20
1510.4491775665072
 42
0.0126765580237127
 10
1802.1980482575839
 20
1513.8379730469635
 10
1802.1790916030941
 20
1513.8461726042231
 42
0.0127367503250092
 10
1794.6585349265758
 20
1516.8741575497838
 10
1794.6358684831348
 20
1516.8826194002747
 42
0.0127941690686428
 10
1786.9248603383498
 20
1519.538577870976
 10
1785.935525478689
 20
1519.851265724154
 42
0.0128422726489142
 10
1779.9841346972189
 20
1521.5654525971565
 10
1778.9929017205818
 20
1521.8235851925515
 42
0.0064374814470321
 10
1774.9671535224011
 20
1522.816789387706
 42
0.0032180039066633
 10
1772.9406363936082
 20
1523.2754335726156
 42
0.0032180039066633
  0
LWPOLYLINE
  5
1FE
100
AcDbEntity
  8
AAA70-1104
370
              15
390
0
  6
Continuous
 62
               7
100
AcDbPolyline
 90
       18
 70
             128
 10
1772.9406363936082
 20
1523.2754335726156
 42
0.0016656584919726
 10
1767.8850331632334
 20
1524.3678112136311
 10
1761.5654287497086
 20
1525.7112852453345
 42
0.0099838631661422
 10
1743.7989269849777
 20
1529.1189770762153
 10
1737.4279102784517
 20
1530.2095609787575
 42
0.0066497732371748
 10
1717.0336945754334
 20
1533.4220615326674
 42
0.0066436467401709
 10
1696.5666751392173
 20
1536.0905784213116
 42
0.0066412717757103
 10
1676.0449716955491
 20
1538.21334539996
 42
0.0066400685936078
 10
1655.4795207952843
 20
1539.7898145630566
 42
0.0066400650405583
 10
1634.8812557163728
 20
1540.8194382394736
 42
0.0066412696441056
 10
1614.2611100260574
 20
1541.3016682871607
 42
0.0066436780332653
 10
1593.6300172641049
 20
1541.2359561632843
 42
0.0066472718572614
 10
1572.9989110790189
 20
1540.6217529252904
 42
0.006650066878441
 10
1552.3859970677092
 20
1539.459000207723
 10
1549.7985445344943
 20
1539.2784943253678
 42
0.0099841163984438
 10
1524.0723558504633
 20
1536.9668054677263
 10
1521.4987368310499
 20
1536.6836428363956
 42
0.0016654420910322
 10
1516.3592263458654
 20
1536.1008350483087
 42
0.0016654420910322
  0
LWPOLYLINE
  5
1FF
100
AcDbEntity
  8
AAA70-1104
370
              15
390
0
  6
Continuous
 62
               7
100
AcDbPolyline
 90
       32
 70
             128
 10
1907.9575594079311
 20
1041.3400921003984
 42
-0.000029941885172
 10
1907.9578584519725
 20
1045.6571897431852
 10
1907.9592997225582
 20
1056.8165539843383
 42
-0.0000086060874073
 10
1907.9631982923704
 20
1083.452380026142
 10
1907.9651148129694
 20
1095.168642097886
 42
0.0001496008353274
 10
1907.9612460320532
 20
1123.6944572507007
 10
1907.9607791870192
 20
1124.7680948000152
 42
0.0002990687292554
 10
1907.933531140553
 20
1151.1466173983624
 10
1907.9319037190439
 20
1152.1443610475681
 42
0.0004913032057789
 10
1907.8681736766616
 20
1176.5273174278261
 10
1907.8648586038526
 20
1177.449111069496
 42
0.0007258310759914
 10
1907.7510806164196
 20
1199.9882523775884
 42
0.0009885113235053
 10
1907.5600240303297
 20
1222.5268507948444
 10
1907.5474462449631
 20
1223.7299989835524
 42
0.0017356880361258
 10
1907.2477141119466
 20
1245.2532743090794
 10
1907.2135652653851
 20
1247.216056867459
 42
0.0018247925563666
 10
1906.8431993928511
 20
1264.8113749038682
 10
1906.8284429079711
 20
1265.4087886931377
 42
0.0022603265656248
 10
1906.3492487768649
 20
1281.8057611832198
 10
1906.3316843176653
 20
1282.3261944710337
 42
0.0027375613361091
 10
1905.7294464217543
 20
1297.6768367528973
 10
1905.7096320430373
 20
1298.119944247667
 42
0.0032314331687105
 10
1904.9695452123292
 20
1312.5762910567089
 10
1904.9484683296873
 20
1312.9417231026457
 42
0.0037127509605179
 10
1904.0552696165569
 20
1326.6557901474205
 10
1904.0344029916321
 20
1326.9432455604176
 42
0.0041440335455571
 10
1902.972330145366
 20
1340.06696655684
 42
0.004463906321295
 10
1901.6844979361686
 20
1353.1703871173033
 10
1901.2939662270023
 20
1356.8098662577017
 42
0.0105634945926488
 10
1898.6788274971855
 20
1377.1254911716187
 10
1898.1166144318317
 20
1380.8670048210902
 42
0.0005884078028513
 10
1897.8854646813693
 20
1382.3930768017785
 42
0.0005884078028513
  0
LINE
  5
200
100
AcDbEntity
  8
AAA70-1104
370
              15
390
0
  6
Continuous
 62
               7
100
AcDbLine
 10
2728.0545318927666
 20
2202.5068438828266
 30
0.0
 11
2728.0545318927657
 21
2248.0136392138647
 31
0.0
  0
LINE
  5
201
100
AcDbEntity
  8
AAA70-1104
370
              15
390
0
  6
Continuous
 62
               7
100
AcDbLine
 10
2714.0031220596425
 20
2183.9024959948429
 30
0.0
 11
2714.0031220596425
 21
2266.6179871018448
 31
0.0
  0
LINE
  5
202
100
AcDbEntity
  8
AAA70-1104
370
              15
390
0
  6
Continuous
 62
               7
100
AcDbLine
 10
2749.003122059642
 20
2201.7602415483479
 30
0.0
 11
2749.003122059642
 21
2248.7602415483398
 31
0.0
  0
LINE
  5
203
100
AcDbEntity
  8
AAA70-1104
370
              15
390
0
  6
Continuous
 62
               7
100
AcDbLine
 10
2569.0031220482706
 20
2395.7602415483398
 30
0.0
 11
2569.0031220597484
 21
2434.7602415483379
 31
0.0
  0
LINE
  5
204
100
AcDbEntity
  8
AAA70-1104
370
              15
390
0
  6
Continuous
 62
               7
100
AcDbLine
 10
2581.0031220482706
 20
2434.7602415483489
 30
0.0
 11
2581.0031220482706
 21
2395.760241548347
 31
0.0
  0
LINE
  5
205
100
AcDbEntity
  8
AAA70-1104
370
              15
390
0
  6
Continuous
 62
               7
100
AcDbLine
 10
2589.0031220596343
 20
2484.2602415483443
 30
0.0
 11
2589.0031220201276
 21
2484.2602415853798
 31
0.0
  0
LWPOLYLINE
  5
206
100
AcDbEntity
  8
AAA70-1104
370
              15
390
0
  6
Continuous
 62
               7
100
AcDbPolyline
 90
       15
 70
             129
 10
2670.2707566916606
 20
2452.5046533136829
 10
2584.871519551014
 20
2449.8251169686987
 42
0.4046079684884281
 10
2581.0031220482165
 20
2445.8272824569885
 10
2581.0031220482706
 20
2434.7602415483489
 42
-0.4142135623731283
 10
2580.0031220482715
 20
2433.7602415483498
 10
2570.0031220597484
 20
2433.7602415483379
 42
-0.4142135623731117
 10
2569.0031220597484
 20
2434.7602415483379
 10
2569.0031220596443
 20
2481.260241548337
 42
-0.4142135623737027
 10
2573.0031220596434
 20
2485.2602415483443
 10
2588.0031220596343
 20
2485.2602415483443
 42
-0.4142135623724291
 10
2589.0031220596343
 20
2484.2602415483416
 42
0.4142135623733614
 10
2590.0031220596343
 20
2483.2602415483425
 10
2670.1586079450535
 20
2483.2602415483443
 42
-0.4142135623730784
 10
2674.1586079450531
 20
2479.2602415483443
 10
2674.208577366247
 20
2456.5041700009206
 42
-0.4096676982737166
  0
LWPOLYLINE
  5
207
100
AcDbEntity
  8
AAA70-1104
370
              15
390
0
  6
Continuous
 62
               7
100
AcDbPolyline
 90
       12
 70
             129
 10
2660.2207872704666
 20
2462.0974096605541
 10
2588.785494409261
 20
2459.757787210141
 42
0.1277007750669088
 10
2582.0031220582564
 20
2457.8838344635915
 42
-0.577350268914012
 10
2579.0031220596916
 20
2459.6158852719855
 10
2579.0031220596634
 20
2473.2602415483389
 42
-0.414213562373711
 10
2581.0031220596643
 20
2475.2602415483443
 10
2588.0031220596334
 20
2475.2602415483416
 42
-0.414213562373095
 10
2589.0031220596334
 20
2474.2602415483416
 42
0.4142135623745601
 10
2590.0031220596343
 20
2473.2602415483461
 10
2660.1586079450535
 20
2473.2602415483443
 42
-0.414213562373095
 10
2664.1586079450535
 20
2469.2602415483443
 10
2664.1586079450526
 20
2466.0969263477909
 42
-0.4096676982737074
  0
LWPOLYLINE
  5
208
100
AcDbEntity
  8
AAA70-1104
370
              15
390
0
  6
Continuous
 62
               7
100
AcDbPolyline
 90
        6
 70
             128
 10
2670.1586079450226
 20
2483.2602415483298
 10
2752.004655543486
 20
2483.1974867328117
 42
-0.4139890066639151
 10
2754.003122059612
 20
2481.1974873207055
 10
2754.003122059612
 20
2457.196239052666
 42
-0.4046079684856521
 10
2752.0689233081962
 20
2455.197321796828
 10
2670.2707566916306
 20
2452.5046533136692
  0
LINE
  5
209
100
AcDbEntity
  8
AAA70-1104
370
              15
390
0
  6
Continuous
 62
               7
100
AcDbLine
 10
2569.0031220567803
 20
2028.316951133568
 30
0.0
 11
2569.0031220482165
 21
2374.0380532181462
 31
0.0
  0
LWPOLYLINE
  5
20A
100
AcDbEntity
  8
AAA70-1104
370
              15
390
0
  6
Continuous
 62
               7
100
AcDbPolyline
 90
       22
 70
             129
 10
2749.003122059642
 20
2258.7602415483325
 42
0.414213562373095
 10
2748.003122059642
 20
2259.7602415483325
 10
2737.7633258522242
 20
2259.7602415483343
 42
-0.3987181330749038
 10
2725.7802988223734
 20
2271.122226500137
 10
2721.3698879336466
 20
2353.9573775544422
 42
0.3822610097071321
 10
2700.6569257737883
 20
2374.7518054791062
 10
2584.7747728248792
 20
2381.1492892417591
 42
-0.3975812287954873
 10
2581.0031220482065
 20
2385.142766001718
 10
2581.0031220482706
 20
2395.760241548347
 42
0.4142135623725622
 10
2580.0031220482715
 20
2396.7602415483479
 10
2570.0031220482706
 20
2396.7602415483398
 42
0.4142135623730617
 10
2569.0031220482706
 20
2395.7602415483398
 10
2569.0031220482165
 20
2374.0380532181352
 42
0.397581228796714
 10
2572.7747728249055
 20
2370.0445764581918
 10
2699.9718781038546
 20
2362.7713751992733
 42
-0.3822610097071536
 10
2709.3868609037904
 20
2353.319362506244
 10
2714.0031220596425
 20
2266.6179871018312
 42
0.16606134282581
 10
2714.8848478538407
 20
2264.1872897318008
 10
2727.3270713404327
 20
2248.709621833541
 42
0.2600653575290843
 10
2729.0288933683992
 20
2247.7602415483407
 10
2748.003122059642
 20
2247.7602415483325
 42
0.4142135623731283
 10
2749.003122059642
 20
2248.7602415483325
  0
LWPOLYLINE
  5
20B
100
AcDbEntity
  8
AAA70-1104
370
              15
390
0
  6
Continuous
 62
               7
100
AcDbPolyline
 90
       27
 70
             128
 10
2572.3773796984274
 20
2032.2677037834949
 42
0.0310670015762009
 10
2664.6072693019782
 20
2053.3046280128237
 42
0.3204991886119728
 10
2708.9108196365323
 20
2107.1832290171496
 10
2714.0031220596425
 20
2183.9024959948429
 42
-0.166061342825894
 10
2714.8848478538384
 20
2186.3331933648833
 10
2727.3270713404327
 20
2201.8108612631468
 42
-0.260065357528846
 10
2729.0288933683992
 20
2202.760241548347
 10
2748.003122059642
 20
2202.760241548347
 42
-0.4142135623733614
 10
2749.003122059642
 20
2201.7602415483479
 10
2749.003122059642
 20
2191.760241548347
 42
-0.4142135623731283
 10
2748.003122059642
 20
2190.760241548347
 10
2737.708959697432
 20
2190.760241548347
 42
0.3944715067516839
 10
2725.7365878072287
 20
2179.5740666663241
 10
2720.7850973695254
 20
2105.2940407127653
 42
0.4136874131645238
 10
2728.2357478914687
 20
2096.7935803264118
 10
2752.1362591252241
 20
2095.199021363479
 42
-0.3948335622961292
 10
2754.003122056778
 20
2093.2034576533943
 10
2754.003122056778
 20
2087.1990213634781
 42
-0.4142135623729785
 10
2752.003122056778
 20
2085.199021363479
 10
2751.600477687668
 20
2085.1990213634799
 42
0.3036331800270178
 10
2748.827635926425
 20
2083.3441626504427
 10
2741.3056548533768
 20
2061.055335865467
 42
-0.2579731897759121
 10
2698.4523313886675
 20
2021.8962894862307
 42
-0.0515463468806945
 10
2573.1203255073133
 20
2005.1990213929428
 42
-0.4228230956749891
 10
2569.0031220567812
 20
2009.1973039431357
 10
2569.0031220567803
 20
2028.316951133568
 42
-0.3689191537359663
 10
2572.3773796985342
 20
2032.2677037835181
 42
-0.3689191537359663
  0
LWPOLYLINE
  5
20C
100
AcDbEntity
  8
AAA70-1104
370
              15
390
0
  6
Continuous
 62
               7
100
AcDbPolyline
 90
       12
 70
             129
 10
2731.8306679271759
 20
2064.2529322671908
 42
-0.2579731897758656
 10
2696.119565039915
 20
2031.6203936178281
 42
-0.0481201737959879
 10
2581.0893225347977
 20
2015.4945997871218
 42
-0.4268983650277563
 10
2579.0031220567803
 20
2017.4927412930217
 10
2579.0031220567812
 20
2021.5493086967649
 42
-0.3649977871759371
 10
2580.6629741483675
 20
2023.5201712998917
 42
0.0288366558272875
 10
2667.3206148921395
 20
2043.6790859700739
 42
0.2509272974381659
 10
2715.4222131270285
 20
2089.0129460276312
 42
-0.5007598046285737
 10
2718.4635622207757
 20
2090.0173644352167
 42
0.1365686533019661
 10
2727.5700625492386
 20
2086.8157617759916
 10
2736.5908703314399
 20
2086.2139248629092
 42
-0.4922315797197541
 10
2738.3527306482342
 20
2083.5788418724787
  0
LWPOLYLINE
  5
20D
100
AcDbEntity
  8
AAA70-1104
370
              15
390
0
  6
Continuous
 62
               7
100
AcDbPolyline
 90
        4
 70
             128
 10
2588.0031220596343
 20
2485.2602415483443
 10
2752.0031220596279
 20
2485.2602415483416
 42
-0.4142135623707642
 10
2754.003122059627
 20
2483.260241548327
 10
2754.003122056778
 20
2093.2034576533961
  0
LINE
  5
20E
100
AcDbEntity
  8
AAA70-1104
370
              15
390
0
  6
Continuous
 62
               7
100
AcDbLine
 10
1527.9575594079311
 20
2211.4784232795328
 30
0.0
 11
1687.9575594079311
 21
2211.4784232795328
 31
0.0
  0
LINE
  5
20F
100
AcDbEntity
  8
AAA70-1104
370
              15
390
0
  6
Continuous
 62
               7
100
AcDbLine
 10
1527.9575594079311
 20
2351.4784232795309
 30
0.0
 11
1687.9575594079311
 21
2351.4784232795309
 31
0.0
  0
ARC
  5
210
100
AcDbEntity
  8
AAA70-1104
370
              15
390
0
  6
Continuous
 62
               7
100
AcDbCircle
 10
1687.9575594079311
 20
2281.4784232795319
 30
0.0
 40
69.999999999999091
100
AcDbArc
 50
270.0
 51
90.0
  0
ARC
  5
211
100
AcDbEntity
  8
AAA70-1104
370
              15
390
0
  6
Continuous
 62
               7
100
AcDbCircle
 10
1527.9575594079311
 20
2281.4784232795319
 30
0.0
 40
69.999999999999091
100
AcDbArc
 50
90.0
 51
270.0
  0
LINE
  5
212
100
AcDbEntity
  8
AAA70-1104
370
              15
390
0
  6
STYLE_01
 62
               7
100
AcDbLine
 10
2615.0031220582046
 20
2450.7705437283976
 30
0.0
 11
2615.0031220582046
 21
2460.6164573126516
 31
0.0
  0
LINE
  5
213
100
AcDbEntity
  8
AAA70-1104
370
              15
390
0
  6
STYLE_01
 62
               7
100
AcDbLine
 10
2615.0031220582046
 20
2473.2602415483452
 30
0.0
 11
2615.0031220582046
 21
2483.2602415483425
 31
0.0
  0
LINE
  5
214
100
AcDbEntity
  8
AAA70-1104
370
              15
390
0
  6
STYLE_01
 62
               7
100
AcDbLine
 10
2603.0031220582046
 20
2450.3940247193705
 30
0.0
 11
2603.0031220582046
 21
2460.2234377241475
 31
0.0
  0
LINE
  5
215
100
AcDbEntity
  8
AAA70-1104
370
              15
390
0
  6
STYLE_01
 62
               7
100
AcDbLine
 10
2603.0031220582046
 20
2473.2602415483452
 30
0.0
 11
2603.0031220582046
 21
2483.2602415483425
 31
0.0
  0
CIRCLE
  5
216
100
AcDbEntity
  8
AAA70-1104
370
              15
390
0
  6
STYLE_12
 62
               7
100
AcDbCircle
 10
1497.9575594079311
 20
1241.3400921003986
 30
0.0
 40
18.5
  0
CIRCLE
  5
217
100
AcDbEntity
  8
AAA70-1104
370
              15
390
0
  6
STYLE_12
 62
               7
100
AcDbCircle
 10
1497.9575594079311
 20
1341.3400921003984
 30
0.0
 40
17.499999999999858
  0
CIRCLE
  5
218
100
AcDbEntity
  8
AAA70-1104
370
              15
390
0
  6
STYLE_12
 62
               7
100
AcDbCircle
 10
1497.9575594079311
 20
841.34009210039835
 30
0.0
 40
18.5
  0
CIRCLE
  5
219
100
AcDbEntity
  8
AAA70-1104
370
              15
390
0
  6
STYLE_12
 62
               7
100
AcDbCircle
 10
1497.9575594079311
 20
741.34009210039835
 30
0.0
 40
17.5
  0
LINE
  5
21A
100
AcDbEntity
  8
AAA70-1104
370
              15
390
0
  6
STYLE_12
 62
               7
100
AcDbLine
 10
2608.9902375458232
 20
751.34009210039835
 30
0.0
 11
2608.9902375458232
 21
791.34009210039835
 31
0.0
  0
CIRCLE
  5
21B
100
AcDbEntity
  8
AAA70-1104
370
              15
390
0
  6
STYLE_12
 62
               7
100
AcDbCircle
 10
2608.9902375458232
 20
771.34009210039835
 30
0.0
 40
10.0
  0
LINE
  5
21C
100
AcDbEntity
  8
AAA70-1104
370
              15
390
0
  6
STYLE_12
 62
               7
100
AcDbLine
 10
2592.05432919127
 20
771.34009210039835
 30
0.0
 11
2632.05432919127
 21
771.34009210039835
 31
0.0
  0
LINE
  5
21D
100
AcDbEntity
  8
AAA70-1104
370
              15
390
0
  6
STYLE_12
 62
               7
100
AcDbLine
 10
2589.0031220525102
 20
1311.3400921003984
 30
0.0
 11
2629.0031220525102
 21
1311.3400921003984
 31
0.0
  0
LINE
  5
21E
100
AcDbEntity
  8
AAA70-1104
370
              15
390
0
  6
STYLE_12
 62
               7
100
AcDbLine
 10
2609.0031220525102
 20
1291.3400921003984
 30
0.0
 11
2609.0031220525102
 21
1331.3400921003984
 31
0.0
  0
CIRCLE
  5
21F
100
AcDbEntity
  8
AAA70-1104
370
              15
390
0
  6
STYLE_12
 62
               7
100
AcDbCircle
 10
2609.0031220525102
 20
1311.3400921003984
 30
0.0
 40
10.0
  0
INSERT
  5
220
100
AcDbEntity
  8
AAA70-1104
390
0
 62
               7
100
AcDbBlockReference
  2
グループ-1
 10
2100.0
 20
1485.0
 30
0.0
  0
INSERT
  5
221
100
AcDbEntity
  8
AAA70-1104
390
0
 62
               7
100
AcDbBlockReference
  2
グループ-3
 10
2100.0
 20
1485.0
 30
0.0
  0
LINE
  5
222
100
AcDbEntity
  8
AAA70-1104
370
              15
390
0
  6
STYLE_12
 62
               7
100
AcDbLine
 10
2589.0031220525102
 20
1181.3400921003984
 30
0.0
 11
2629.0031220525102
 21
1181.3400921003984
 31
0.0
  0
LINE
  5
223
100
AcDbEntity
  8
AAA70-1104
370
              15
390
0
  6
STYLE_12
 62
               7
100
AcDbLine
 10
2608.9902375458232
 20
881.34009210039835
 30
0.0
 11
2608.9902375458232
 21
921.34009210039846
 31
0.0
  0
CIRCLE
  5
224
100
AcDbEntity
  8
AAA70-1104
370
              15
390
0
  6
STYLE_12
 62
               7
100
AcDbCircle
 10
2608.9902375458232
 20
901.34009210039846
 30
0.0
 40
10.0
  0
LINE
  5
225
100
AcDbEntity
  8
AAA70-1104
370
              15
390
0
  6
STYLE_12
 62
               7
100
AcDbLine
 10
2609.0031220525102
 20
1161.3400921003984
 30
0.0
 11
2609.0031220525102
 21
1201.3400921003984
 31
0.0
  0
CIRCLE
  5
226
100
AcDbEntity
  8
AAA70-1104
370
              15
390
0
  6
STYLE_12
 62
               7
100
AcDbCircle
 10
2609.0031220525102
 20
1181.3400921003984
 30
0.0
 40
10.0
  0
LINE
  5
227
100
AcDbEntity
  8
AAA70-1104
370
              15
390
0
  6
STYLE_12
 62
               7
100
AcDbLine
 10
2592.05432919127
 20
901.34009210039846
 30
0.0
 11
2632.05432919127
 21
901.34009210039846
 31
0.0
  0
ENDSEC
  0
SECTION
  2
OBJECTS
  0
DICTIONARY
  5
19
100
AcDbDictionary
280
               0
281
               1
  3
ACAD_GROUP
350
1A
  3
ACAD_MLINESTYLE
350
1B
  3
ACAD_LAYOUT
350
1E
  3
ACAD_PLOTSETTINGS
350
22
  3
ACAD_PLOTSTYLENAME
350
1F
  0
DICTIONARY
  5
1A
102
{ACAD_REACTORS
330
19
102
}
100
AcDbDictionary
280
               0
281
               1
  0
DICTIONARY
  5
1B
102
{ACAD_REACTORS
330
19
102
}
100
AcDbDictionary
280
               0
281
               1
  3
Standard
350
1C
  0
MLINESTYLE
  5
1C
102
{ACAD_REACTORS
330
1B
102
}
100
AcDbMlineStyle
  2
Standard
 70
               0
  3

 62
               0
 51
90.0
 52
90.0
 71
               2
 49
0.5
 62
             256
  6
ByLayer
 49
-0.5
 62
             256
  6
ByLayer
  0
ACDBDICTIONARYWDFLT
  5
1F
102
{ACAD_REACTORS
330
19
102
}
100
AcDbDictionary
281
               1
  3
Normal
350
1D
100
AcDbDictionaryWithDefault
340
1D
  0
ACDBPLACEHOLDER
  5
1D
102
{ACAD_REACTORS
330
1F
102
}
  0
LAYOUT
  5
20
102
{ACAD_REACTORS
330
1E
102
}
100
AcDbPlotSettings
  1

  2

  4

  6

 40
0.0
 41
0.0
 42
0.0
 43
0.0
 44
0.0
 45
0.0
 46
0.0
 47
0.0
 48
0.0
 49
0.0
140
0.0
141
0.0
142
1.0
143
1.0
 70
            1024
 72
               0
 73
               0
 74
               0
  7

 75
               0
147
1.0
148
0.0
149
0.0
100
AcDbLayout
  1
Model
 70
               0
 71
               0
 10
0.0
 20
0.0
 11
0.0
 21
0.0
 12
0.0
 22
0.0
 32
0.0
 14
0.0
 24
0.0
 34
0.0
 15
0.0
 25
0.0
 35
0.0
146
0.0
 13
0.0
 23
0.0
 33
0.0
 16
0.0
 26
0.0
 36
0.0
 17
0.0
 27
0.0
 37
0.0
 76
               0
330
A
331
0
345
0
346
0
  0
LAYOUT
  5
21
102
{ACAD_REACTORS
330
1E
102
}
100
AcDbPlotSettings
  1

  2

  4

  6

 40
0.0
 41
0.0
 42
0.0
 43
0.0
 44
0.0
 45
0.0
 46
0.0
 47
0.0
 48
0.0
 49
0.0
140
0.0
141
0.0
142
1.0
143
1.0
 70
               0
 72
               0
 73
               0
 74
               0
  7

 75
               0
147
1.0
148
0.0
149
0.0
100
AcDbLayout
  1
Layout1
 70
               0
 71
               0
 10
0.0
 20
0.0
 11
0.0
 21
0.0
 12
0.0
 22
0.0
 32
0.0
 14
0.0
 24
0.0
 34
0.0
 15
0.0
 25
0.0
 35
0.0
146
0.0
 13
0.0
 23
0.0
 33
0.0
 16
0.0
 26
0.0
 36
0.0
 17
0.0
 27
0.0
 37
0.0
 76
               0
330
B
331
0
345
0
346
0
  0
DICTIONARY
  5
1E
102
{ACAD_REACTORS
330
19
102
}
100
AcDbDictionary
280
               0
281
               1
  3
Layout1
350
21
  3
Model
350
20
  0
DICTIONARY
  5
22
102
{ACAD_REACTORS
330
19
102
}
100
AcDbDictionary
280
               0
281
               1
  0
ENDSEC
  0
EOF
