  0
SECTION
  2
HEADER
  9
$ACADVER
  1
AC1015
  9
$ACADMAINTVER
 70
               6
  9
$DWGCODEPAGE
  3
ANSI_932
  9
$INSBASE
 10
0.0
 20
0.0
 30
0.0
  9
$EXTMIN
 10
-975.00000000072396
 20
-1423.8112335829219
 30
-14.834305555555554
  9
$EXTMAX
 10
974.99999999975853
 20
1413.7115815294892
 30
14.834305555555554
  9
$LIMMIN
 10
0.0
 20
0.0
  9
$LIMMAX
 10
0.0
 20
0.0
  9
$ORTHOMODE
 70
               0
  9
$REGENMODE
 70
               1
  9
$FILLMODE
 70
               1
  9
$QTEXTMODE
 70
               0
  9
$MIRRTEXT
 70
               1
  9
$LTSCALE
 40
50.799999999999997
  9
$ATTMODE
 70
               1
  9
$TEXTSIZE
 40
0.2
  9
$TRACEWID
 40
1.0
  9
$TEXTSTYLE
  7
Standard
  9
$CLAYER
  8
ABA70-0001
  9
$CELTYPE
  6
Continuous
  9
$CECOLOR
 62
             256
  9
$CELTSCALE
 40
1.0
  9
$DISPSILH
 70
               0
  9
$DIMSCALE
 40
1.0
  9
$DIMASZ
 40
31.75
  9
$DIMEXO
 40
0.0
  9
$DIMDLI
 40
6.9999999999999396
  9
$DIMRND
 40
0.0
  9
$DIMDLE
 40
0.0
  9
$DIMEXE
 40
19.999999999996199
  9
$DIMTP
 40
0.0
  9
$DIMTM
 40
0.0
  9
$DIMTXT
 40
24.432617187500004
  9
$DIMCEN
 40
0.0
  9
$DIMTSZ
 40
0.0
  9
$DIMTOL
 70
               0
  9
$DIMLIM
 70
               0
  9
$DIMTIH
 70
               0
  9
$DIMTOH
 70
               0
  9
$DIMSE1
 70
               0
  9
$DIMSE2
 70
               0
  9
$DIMTAD
 70
               1
  9
$DIMZIN
 70
              11
  9
$DIMBLK
  1
VW_FILLEDARROW
  9
$DIMASO
 70
               1
  9
$DIMSHO
 70
               1
  9
$DIMPOST
  1
<>
  9
$DIMAPOST
  1
[]
  9
$DIMALT
 70
               0
  9
$DIMALTD
 70
               1
  9
$DIMALTF
 40
1.0
  9
$DIMLFAC
 40
1.0
  9
$DIMTOFL
 70
               0
  9
$DIMTVP
 40
0.0
  9
$DIMTIX
 70
               1
  9
$DIMSOXD
 70
               0
  9
$DIMSAH
 70
               0
  9
$DIMBLK1
  1

  9
$DIMBLK2
  1

  9
$DIMSTYLE
  2
JIS
  9
$DIMCLRD
 70
               0
  9
$DIMCLRE
 70
               0
  9
$DIMCLRT
 70
               0
  9
$DIMTFAC
 40
1.0
  9
$DIMGAP
 40
1.00000000000108
  9
$DIMJUST
 70
               0
  9
$DIMSD1
 70
               0
  9
$DIMSD2
 70
               0
  9
$DIMTOLJ
 70
               1
  9
$DIMTZIN
 70
              11
  9
$DIMALTZ
 70
              11
  9
$DIMALTTZ
 70
              11
  9
$DIMUPT
 70
               0
  9
$DIMDEC
 70
               1
  9
$DIMTDEC
 70
               1
  9
$DIMALTU
 70
               2
  9
$DIMALTTD
 70
               2
  9
$DIMTXSTY
  7
ＭＳ ゴシック
  9
$DIMAUNIT
 70
               0
  9
$DIMADEC
 70
               2
  9
$DIMALTRND
 40
0.0
  9
$DIMAZIN
 70
               0
  9
$DIMDSEP
 70
              46
  9
$DIMATFIT
 70
               0
  9
$DIMFRAC
 70
               2
  9
$DIMLDRBLK
  1

  9
$DIMLUNIT
 70
               2
  9
$DIMLWD
 70
              -2
  9
$DIMLWE
 70
              -2
  9
$DIMTMOVE
 70
               0
  9
$LUNITS
 70
               2
  9
$LUPREC
 70
               4
  9
$SKETCHINC
 40
0.1
  9
$FILLETRAD
 40
0.0
  9
$AUNITS
 70
               0
  9
$AUPREC
 70
               0
  9
$MENU
  1
acad
  9
$ELEVATION
 40
0.0
  9
$PELEVATION
 40
0.0
  9
$THICKNESS
 40
0.0
  9
$LIMCHECK
 70
               0
  9
$CHAMFERA
 40
0.0
  9
$CHAMFERB
 40
0.0
  9
$CHAMFERC
 40
0.0
  9
$CHAMFERD
 40
0.0
  9
$SKPOLY
 70
               0
  9
$TDCREATE
 40
2455979.472997685
  9
$TDUCREATE
 40
0.000000000
  9
$TDUPDATE
 40
2455979.472997685
  9
$TDUUPDATE
 40
0.000000000
  9
$TDINDWG
 40
0.0000000000
  9
$TDUSRTIMER
 40
0.0000000000
  9
$USRTIMER
 70
               1
  9
$ANGBASE
 50
0.0
  9
$ANGDIR
 70
               0
  9
$PDMODE
 70
               1
  9
$PDSIZE
 40
-2.0
  9
$PLINEWID
 40
0.0
  9
$SPLFRAME
 70
               0
  9
$SPLINETYPE
 70
               6
  9
$SPLINESEGS
 70
               8
  9
$HANDSEED
  5
1C5
  9
$SURFTAB1
 70
               6
  9
$SURFTAB2
 70
               6
  9
$SURFTYPE
 70
               6
  9
$SURFU
 70
               6
  9
$SURFV
 70
               6
  9
$UCSBASE
  2

  9
$UCSNAME
  2

  9
$UCSORG
 10
0.0
 20
0.0
 30
0.0
  9
$UCSXDIR
 10
1.0
 20
0.0
 30
0.0
  9
$UCSYDIR
 10
0.0
 20
1.0
 30
0.0
  9
$UCSORTHOREF
  2

  9
$UCSORTHOVIEW
 70
               0
  9
$UCSORGTOP
 10
0.0
 20
0.0
 30
0.0
  9
$UCSORGBOTTOM
 10
0.0
 20
0.0
 30
0.0
  9
$UCSORGLEFT
 10
0.0
 20
0.0
 30
0.0
  9
$UCSORGRIGHT
 10
0.0
 20
0.0
 30
0.0
  9
$UCSORGFRONT
 10
0.0
 20
0.0
 30
0.0
  9
$UCSORGBACK
 10
0.0
 20
0.0
 30
0.0
  9
$PUCSBASE
  2

  9
$PUCSNAME
  2

  9
$PUCSORG
 10
0.0
 20
0.0
 30
0.0
  9
$PUCSXDIR
 10
1.0
 20
0.0
 30
0.0
  9
$PUCSYDIR
 10
0.0
 20
1.0
 30
0.0
  9
$PUCSORTHOREF
  2

  9
$PUCSORTHOVIEW
 70
               0
  9
$PUCSORGTOP
 10
0.0
 20
0.0
 30
0.0
  9
$PUCSORGBOTTOM
 10
0.0
 20
0.0
 30
0.0
  9
$PUCSORGLEFT
 10
0.0
 20
0.0
 30
0.0
  9
$PUCSORGRIGHT
 10
0.0
 20
0.0
 30
0.0
  9
$PUCSORGFRONT
 10
0.0
 20
0.0
 30
0.0
  9
$PUCSORGBACK
 10
0.0
 20
0.0
 30
0.0
  9
$USERI1
 70
               0
  9
$USERI2
 70
               0
  9
$USERI3
 70
               0
  9
$USERI4
 70
               0
  9
$USERI5
 70
               0
  9
$USERR1
 40
0.0
  9
$USERR2
 40
0.0
  9
$USERR3
 40
0.0
  9
$USERR4
 40
0.0
  9
$USERR5
 40
0.0
  9
$WORLDVIEW
 70
               1
  9
$SHADEDGE
 70
               3
  9
$SHADEDIF
 70
              70
  9
$TILEMODE
 70
               1
  9
$MAXACTVP
 70
              64
  9
$PINSBASE
 10
0.0
 20
0.0
 30
0.0
  9
$PLIMCHECK
 70
               0
  9
$PEXTMIN
 10
1.0000000000000000E+20
 20
1.0000000000000000E+20
 30
1.0000000000000000E+20
  9
$PEXTMAX
 10
-1.0000000000000000E+20
 20
-1.0000000000000000E+20
 30
-1.0000000000000000E+20
  9
$PLIMMIN
 10
0.0
 20
0.0
  9
$PLIMMAX
 10
12.0
 20
9.0
  9
$UNITMODE
 70
               0
  9
$VISRETAIN
 70
               0
  9
$PLINEGEN
 70
               1
  9
$PSLTSCALE
 70
               0
  9
$TREEDEPTH
 70
            3020
  9
$CMLSTYLE
  2
Standard
  9
$CMLJUST
 70
               0
  9
$CMLSCALE
 40
1.0
  9
$PROXYGRAPHICS
 70
               0
  9
$MEASUREMENT
 70
               1
  9
$CELWEIGHT
370
               0
  9
$ENDCAPS
280
               0
  9
$JOINSTYLE
280
               0
  9
$LWDISPLAY
290
               1
  9
$INSUNITS
 70
               4
  9
$HYPERLINKBASE
  1

  9
$STYLESHEET
  1

  9
$XEDIT
290
               1
  9
$CEPSNTYPE
380
               0
  9
$PSTYLEMODE
290
               1
  9
$FINGERPRINTGUID
  2

  9
$VERSIONGUID
  2

  9
$EXTNAMES
290
               1
  9
$PSVPSCALE
 40
0.0
  0
ENDSEC
  0
SECTION
  2
CLASSES
  0
CLASS
  1
LWPOLYLINE
  2
AcDbPolyline
  3
AutoCAD 2000
 90
        0
280
               0
281
               1
  0
CLASS
  1
IMAGE
  2
AcDbRasterImage
  3
ISM
 90
      127
280
               0
281
               1
  0
CLASS
  1
OLE2FRAME
  2
AcDbOle2Frame
  3
AutoCAD 2000
 90
        0
280
               0
281
               1
  0
CLASS
  1
HATCH
  2
AcDbHatch
  3
AutoCAD 2000
 90
        0
280
               0
281
               1
  0
CLASS
  1
DICTIONARYVAR
  2
AcDbDictionaryVar
  3
AutoCAD 2000
 90
        0
280
               0
281
               0
  0
CLASS
  1
RASTERVARIABLES
  2
AcDbRasterVariables
  3
ISM
 90
        0
280
               0
281
               0
  0
CLASS
  1
IMAGEDEF
  2
AcDbRasterImageDef
  3
ISM
 90
        0
280
               0
281
               0
  0
CLASS
  1
IMAGEDEF_REACTOR
  2
AcDbRasterImageDefReactor
  3
ISM
 90
        1
280
               0
281
               0
  0
CLASS
  1
IDBUFFER
  2
AcDbIdBuffer
  3
AutoCAD 2000
 90
        0
280
               0
281
               0
  0
CLASS
  1
SPATIAL_FILTER
  2
AcDbSpatialFilter
  3
AutoCAD 2000
 90
        0
280
               0
281
               0
  0
CLASS
  1
XRECORD
  2
AcDbXrecord
  3
AutoCAD 2000
 90
        0
280
               0
281
               0
  0
CLASS
  1
SORTENTSTABLE
  2
AcDbSortentsTable
  3
AutoCAD 2000
 90
        0
280
               0
281
               0
  0
CLASS
  1
LAYER_INDEX
  2
AcDbLayerIndex
  3
AutoCAD 2000
 90
        0
280
               0
281
               0
  0
CLASS
  1
SPATIAL_INDEX
  2
AcDbSpatialIndex
  3
AutoCAD 2000
 90
        0
280
               0
281
               0
  0
CLASS
  1
OBJECT_PTR
  2
CAseDLPNTableRecord
  3
"ASE-LPNTableRecord"
 90
        1
280
               0
281
               0
  0
CLASS
  1
LAYOUT
  2
AcDbLayout
  3
AutoCAD 2000
 90
        0
280
               0
281
               0
  0
CLASS
  1
PLOTSETTINGS
  2
AcDbPlotSettings
  3
AutoCAD 2000
 90
        0
280
               0
281
               0
  0
CLASS
  1
ACDBDICTIONARYWDFLT
  2
AcDbDictionaryWithDefault
  3
AutoCAD 2000
 90
        0
280
               0
281
               0
  0
CLASS
  1
ACDBPLACEHOLDER
  2
AcDbPlaceHolder
  3
AutoCAD 2000
 90
        0
280
               0
281
               0
  0
ENDSEC
  0
SECTION
  2
TABLES
  0
TABLE
  2
VPORT
  5
7
100
AcDbSymbolTable
 70
               1
  0
VPORT
  5
15
100
AcDbSymbolTableRecord
100
AcDbViewportTableRecord
  2
*ACTIVE
 70
               0
 10
0.0
 20
0.0
 11
1.0
 21
1.0
 12
-0.0000000004827143
 22
-5.049826026716346
 13
0.0
 23
0.0
 14
1.0
 24
1.0
 15
0.0
 25
0.0
 16
0.0
 26
0.0
 36
1.0
 17
0.0
 27
0.0
 37
0.0
 40
2837.5228151124111
 41
0.688564
 42
50.0
 43
0.0
 44
0.0
 50
0.0
 51
0.0
 71
               0
 72
            2000
 73
               1
 74
               1
 75
               0
 76
               0
 77
               0
 78
               0
281
               0
 65
               0
110
0.0
120
0.0
130
0.0
111
1.0
121
0.0
131
0.0
112
0.0
122
1.0
132
0.0
345
0
346
0
 79
               0
146
0.0
  0
ENDTAB
  0
TABLE
  2
LTYPE
  5
4
100
AcDbSymbolTable
 70
              17
  0
LTYPE
  5
11
100
AcDbSymbolTableRecord
100
AcDbLinetypeTableRecord
  2
ByBlock
 70
              64
  3

 72
              65
 73
               0
 40
0.0
  0
LTYPE
  5
12
100
AcDbSymbolTableRecord
100
AcDbLinetypeTableRecord
  2
ByLayer
 70
              64
  3

 72
              65
 73
               0
 40
0.0
  0
LTYPE
  5
13
100
AcDbSymbolTableRecord
100
AcDbLinetypeTableRecord
  2
Continuous
 70
              64
  3
Solid line
 72
              65
 73
               0
 40
0.0
  0
LTYPE
  5
36
100
AcDbSymbolTableRecord
100
AcDbLinetypeTableRecord
  2
STYLE_01
 70
               0
  3

 72
              65
 73
               2
 40
0.1968503937007875
 49
0.0984251968503937
 74
               0
 49
-0.0984251968503937
 74
               0
  0
LTYPE
  5
37
100
AcDbSymbolTableRecord
100
AcDbLinetypeTableRecord
  2
STYLE_02
 70
               0
  3

 72
              65
 73
               2
 40
0.6944250000000001
 49
0.48607
 74
               0
 49
-0.2083550000000001
 74
               0
  0
LTYPE
  5
38
100
AcDbSymbolTableRecord
100
AcDbLinetypeTableRecord
  2
STYLE_03
 70
               0
  3

 72
              65
 73
               2
 40
1.25
 49
1.0416400000000001
 74
               0
 49
-0.2083599999999999
 74
               0
  0
LTYPE
  5
39
100
AcDbSymbolTableRecord
100
AcDbLinetypeTableRecord
  2
STYLE_04
 70
               0
  3

 72
              65
 73
               2
 40
1.5277099999999999
 49
1.3194249999999998
 74
               0
 49
-0.208285
 74
               0
  0
LTYPE
  5
3A
100
AcDbSymbolTableRecord
100
AcDbLinetypeTableRecord
  2
STYLE_05
 70
               0
  3

 72
              65
 73
               2
 40
0.20828
 49
0.069425
 74
               0
 49
-0.138855
 74
               0
  0
LTYPE
  5
3B
100
AcDbSymbolTableRecord
100
AcDbLinetypeTableRecord
  2
STYLE_06
 70
               0
  3

 72
              65
 73
               4
 40
1.0416400000000001
 49
0.625
 74
               0
 49
-0.20828
 74
               0
 49
0.06943
 74
               0
 49
-0.13893
 74
               0
  0
LTYPE
  5
3C
100
AcDbSymbolTableRecord
100
AcDbLinetypeTableRecord
  2
STYLE_07
 70
               0
  3

 72
              65
 73
               6
 40
1.875
 49
0.625
 74
               0
 49
-0.20828
 74
               0
 49
0.6250000000000001
 74
               0
 49
-0.2083599999999999
 74
               0
 49
0.06943
 74
               0
 49
-0.1389299999999999
 74
               0
  0
LTYPE
  5
3D
100
AcDbSymbolTableRecord
100
AcDbLinetypeTableRecord
  2
STYLE_08
 70
               0
  3

 72
              65
 73
               6
 40
1.25
 49
0.625
 74
               0
 49
-0.20828
 74
               0
 49
0.06943
 74
               0
 49
-0.13893
 74
               0
 49
0.0694299999999999
 74
               0
 49
-0.13893
 74
               0
  0
LTYPE
  5
3E
100
AcDbSymbolTableRecord
100
AcDbLinetypeTableRecord
  2
STYLE_09
 70
               0
  3

 72
              65
 73
               4
 40
5.0
 49
3.75
 74
               0
 49
-0.2777849999999998
 74
               0
 49
0.6944300000000003
 74
               0
 49
-0.2777849999999998
 74
               0
  0
LTYPE
  5
3F
100
AcDbSymbolTableRecord
100
AcDbLinetypeTableRecord
  2
STYLE_10
 70
               0
  3

 72
              65
 73
               6
 40
5.9375
 49
3.75
 74
               0
 49
-0.2777849999999998
 74
               0
 49
0.6944300000000003
 74
               0
 49
-0.2777849999999998
 74
               0
 49
0.625
 74
               0
 49
-0.3125
 74
               0
  0
LTYPE
  5
40
100
AcDbSymbolTableRecord
100
AcDbLinetypeTableRecord
  2
STYLE_11
 70
               0
  3

 72
              65
 73
               2
 40
0.0694444881889764
 49
0.0347222440944882
 74
               0
 49
-0.0347222440944882
 74
               0
  0
LTYPE
  5
41
100
AcDbSymbolTableRecord
100
AcDbLinetypeTableRecord
  2
STYLE_12
 70
               0
  3

 72
              65
 73
               2
 40
0.3937007874015748
 49
0.1968503937007874
 74
               0
 49
-0.1968503937007874
 74
               0
  0
LTYPE
  5
42
100
AcDbSymbolTableRecord
100
AcDbLinetypeTableRecord
  2
STYLE_13
 70
               0
  3

 72
              65
 73
               2
 40
0.5905511811023622
 49
0.2952755905511811
 74
               0
 49
-0.2952755905511811
 74
               0
  0
LTYPE
  5
43
100
AcDbSymbolTableRecord
100
AcDbLinetypeTableRecord
  2
STYLE_14
 70
               0
  3

 72
              65
 73
               2
 40
1.9685039370078738
 49
0.9842519685039369
 74
               0
 49
-0.9842519685039369
 74
               0
  0
ENDTAB
  0
TABLE
  2
LAYER
  5
2
100
AcDbSymbolTable
 70
               6
  0
LAYER
  5
14
100
AcDbSymbolTableRecord
100
AcDbLayerTableRecord
  2
0
 70
               0
 62
               7
  6
Continuous
290
               1
370
              -3
390
1D
  0
LAYER
  5
44
100
AcDbSymbolTableRecord
100
AcDbLayerTableRecord
  2
Defpoints
 70
               0
 62
               7
  6
Continuous
290
               0
370
              -3
390
1D
  0
LAYER
  5
45
100
AcDbSymbolTableRecord
100
AcDbLayerTableRecord
  2
template
 70
               0
 62
               7
  6
Continuous
290
               1
370
              -3
390
1D
  0
LAYER
  5
46
100
AcDbSymbolTableRecord
100
AcDbLayerTableRecord
  2
notes
 70
               0
 62
               7
  6
Continuous
290
               1
370
              -3
390
1D
  0
LAYER
  5
47
100
AcDbSymbolTableRecord
100
AcDbLayerTableRecord
  2
AAA70-0101
 70
               0
 62
               7
  6
Continuous
290
               1
370
              -3
390
1D
  0
LAYER
  5
48
100
AcDbSymbolTableRecord
100
AcDbLayerTableRecord
  2
ABA70-0001
 70
               0
 62
               7
  6
Continuous
290
               1
370
              -3
390
1D
  0
ENDTAB
  0
TABLE
  2
STYLE
  5
3
100
AcDbSymbolTable
 70
               2
  0
STYLE
  5
17
100
AcDbSymbolTableRecord
100
AcDbTextStyleTableRecord
  2
Standard
 70
               0
 40
0.0
 41
1.0
 50
0.0
 71
               0
 42
0.0
  3
txt
  4
BIGFONT.SHX
  0
STYLE
  5
35
100
AcDbSymbolTableRecord
100
AcDbTextStyleTableRecord
  2
ＭＳ ゴシック
 70
               0
 40
0.0
 41
1.0
 50
0.0
 71
               0
 42
0.0
  3

  4
ＭＳ ゴシック
1001
ACAD
1000
ＭＳ ゴシック
1071
        0
  0
ENDTAB
  0
TABLE
  2
VIEW
  5
5
100
AcDbSymbolTable
 70
               0
  0
ENDTAB
  0
TABLE
  2
UCS
  5
6
100
AcDbSymbolTable
 70
               0
  0
ENDTAB
  0
TABLE
  2
APPID
  5
8
100
AcDbSymbolTable
 70
               1
  0
APPID
  5
16
100
AcDbSymbolTableRecord
100
AcDbRegAppTableRecord
  2
ACAD
 70
               0
  0
ENDTAB
  0
TABLE
  2
DIMSTYLE
  5
9
100
AcDbSymbolTable
 70
               3
100
AcDbDimStyleTable
 71
               0
  0
DIMSTYLE
105
18
100
AcDbSymbolTableRecord
100
AcDbDimStyleTableRecord
  2
Standard
 70
               0
  3

  4

 40
1.0
 41
0.18
 42
0.0625
 43
0.38
 44
0.18
 45
0.0
 46
0.0
 47
0.0
 48
0.0
 71
               0
 72
               0
 73
               1
 74
               1
 75
               0
 76
               0
 77
               0
 78
               0
 79
               0
140
0.18
141
0.09
142
0.0
143
25.399999999999999
144
1.0
145
0.0
146
1.0
147
0.09
148
0.0
170
               0
171
               2
172
               0
173
               0
174
               0
175
               0
176
               0
177
               0
178
               0
179
               0
271
               4
272
               4
273
               2
274
               2
275
               0
276
               0
277
               2
278
              46
279
               0
280
               0
281
               0
282
               0
283
               1
284
               0
285
               0
286
               0
288
               0
289
               3
340
17
341
0
342
0
343
0
344
0
371
              -2
372
              -2
  0
DIMSTYLE
105
51
100
AcDbSymbolTableRecord
100
AcDbDimStyleTableRecord
  2
tfrom線あり
 70
               0
  3
<>
  4
[]
 40
1.0
 41
3.999755859375
 42
24.999999999999996
 43
0.9999999999999999
 44
0.0
 45
0.0
 46
0.0
 47
0.0
 48
0.0
 71
               0
 72
               0
 73
               0
 74
               0
 75
               0
 76
               0
 77
               1
 78
              11
 79
               0
140
24.432617187500004
141
0.0
142
0.0
143
1.0
144
1.0
145
0.0
146
1.0
147
0.4999999999999999
148
0.0
170
               0
171
               1
172
               0
173
               0
174
               1
175
               0
176
               0
177
               0
178
               0
179
               2
271
               1
272
               1
273
               2
274
               2
275
               0
276
               2
277
               2
278
              46
279
               0
280
               0
281
               0
282
               0
283
               1
284
              11
285
              11
286
              11
288
               0
289
               0
340
35
341
49
342
49
343
0
344
0
371
              -2
372
              -2
  0
DIMSTYLE
105
56
100
AcDbSymbolTableRecord
100
AcDbDimStyleTableRecord
  2
JIS
 70
               0
  3
<>
  4
[]
 40
1.0
 41
31.75
 42
0.0
 43
6.9999999999999396
 44
19.999999999996199
 45
0.0
 46
0.0
 47
0.0
 48
0.0
 71
               0
 72
               0
 73
               0
 74
               0
 75
               0
 76
               0
 77
               1
 78
              11
 79
               0
140
24.432617187500004
141
0.0
142
0.0
143
1.0
144
1.0
145
0.0
146
1.0
147
1.00000000000108
148
0.0
170
               0
171
               1
172
               0
173
               0
174
               1
175
               0
176
               0
177
               0
178
               0
179
               2
271
               1
272
               1
273
               2
274
               2
275
               0
276
               2
277
               2
278
              46
279
               0
280
               0
281
               0
282
               0
283
               1
284
              11
285
              11
286
              11
288
               0
289
               0
340
35
341
52
342
52
343
0
344
0
371
              -2
372
              -2
  0
ENDTAB
  0
TABLE
  2
BLOCK_RECORD
  5
1
100
AcDbSymbolTable
 70
              20
  0
BLOCK_RECORD
  5
A
100
AcDbSymbolTableRecord
100
AcDbBlockTableRecord
  2
*MODEL_SPACE
340
20
  0
BLOCK_RECORD
  5
B
100
AcDbSymbolTableRecord
100
AcDbBlockTableRecord
  2
*PAPER_SPACE
340
21
  0
BLOCK_RECORD
  5
49
100
AcDbSymbolTableRecord
100
AcDbBlockTableRecord
  2
_DOT
340
0
  0
BLOCK_RECORD
  5
52
100
AcDbSymbolTableRecord
100
AcDbBlockTableRecord
  2
VW_FILLEDARROW
340
0
  0
BLOCK_RECORD
  5
23
100
AcDbSymbolTableRecord
100
AcDbBlockTableRecord
  2
*D2
340
0
  0
BLOCK_RECORD
  5
24
100
AcDbSymbolTableRecord
100
AcDbBlockTableRecord
  2
*D3
340
0
  0
BLOCK_RECORD
  5
25
100
AcDbSymbolTableRecord
100
AcDbBlockTableRecord
  2
*D4
340
0
  0
BLOCK_RECORD
  5
26
100
AcDbSymbolTableRecord
100
AcDbBlockTableRecord
  2
*D5
340
0
  0
BLOCK_RECORD
  5
27
100
AcDbSymbolTableRecord
100
AcDbBlockTableRecord
  2
*D6
340
0
  0
BLOCK_RECORD
  5
28
100
AcDbSymbolTableRecord
100
AcDbBlockTableRecord
  2
*D7
340
0
  0
BLOCK_RECORD
  5
29
100
AcDbSymbolTableRecord
100
AcDbBlockTableRecord
  2
*D8
340
0
  0
BLOCK_RECORD
  5
2A
100
AcDbSymbolTableRecord
100
AcDbBlockTableRecord
  2
*D9
340
0
  0
BLOCK_RECORD
  5
2B
100
AcDbSymbolTableRecord
100
AcDbBlockTableRecord
  2
*D10
340
0
  0
BLOCK_RECORD
  5
2C
100
AcDbSymbolTableRecord
100
AcDbBlockTableRecord
  2
*D11
340
0
  0
BLOCK_RECORD
  5
2D
100
AcDbSymbolTableRecord
100
AcDbBlockTableRecord
  2
*D12
340
0
  0
BLOCK_RECORD
  5
2E
100
AcDbSymbolTableRecord
100
AcDbBlockTableRecord
  2
*D13
340
0
  0
BLOCK_RECORD
  5
2F
100
AcDbSymbolTableRecord
100
AcDbBlockTableRecord
  2
*D14
340
0
  0
BLOCK_RECORD
  5
30
100
AcDbSymbolTableRecord
100
AcDbBlockTableRecord
  2
*D15
340
0
  0
BLOCK_RECORD
  5
31
100
AcDbSymbolTableRecord
100
AcDbBlockTableRecord
  2
*D16
340
0
  0
BLOCK_RECORD
  5
32
100
AcDbSymbolTableRecord
100
AcDbBlockTableRecord
  2
*D17
340
0
  0
BLOCK_RECORD
  5
33
100
AcDbSymbolTableRecord
100
AcDbBlockTableRecord
  2
グループ
340
0
102
{BLKREFS
331
1BD
102
}
  0
BLOCK_RECORD
  5
34
100
AcDbSymbolTableRecord
100
AcDbBlockTableRecord
  2
*D19
340
0
  0
ENDTAB
  0
ENDSEC
  0
SECTION
  2
BLOCKS
  0
BLOCK
  5
D
100
AcDbEntity
  8
0
390
0
100
AcDbBlockBegin
  2
*MODEL_SPACE
 70
               0
 10
0.0
 20
0.0
 30
0.0
  3
*MODEL_SPACE
  1

  0
ENDBLK
  5
E
100
AcDbEntity
  8
0
390
0
100
AcDbBlockEnd
  0
BLOCK
  5
F
100
AcDbEntity
 67
               1
  8
0
390
0
100
AcDbBlockBegin
  2
*PAPER_SPACE
 70
               0
 10
0.0
 20
0.0
 30
0.0
  3
*PAPER_SPACE
  1

  0
ENDBLK
  5
10
100
AcDbEntity
 67
               1
  8
0
390
0
100
AcDbBlockEnd
  0
BLOCK
  5
4A
100
AcDbEntity
  8
0
390
0
100
AcDbBlockBegin
  2
_DOT
 70
               0
 10
0.0
 20
0.0
 30
0.0
  3
_DOT
  1

  0
POLYLINE
  5
4B
100
AcDbEntity
  8
0
370
              -2
390
0
  6
ByBlock
 62
               0
100
AcDb2dPolyline
 66
               1
 10
0.0
 20
0.0
 30
0.0
 70
               1
 40
0.5
 41
0.5
  0
VERTEX
  5
4C
100
AcDbEntity
  8
0
370
              -2
390
0
  6
ByBlock
 62
               0
100
AcDbVertex
100
AcDb2dVertex
 10
-0.25
 20
0.0
 30
0.0
 42
1.0
  0
VERTEX
  5
4D
100
AcDbEntity
  8
0
370
              -2
390
0
  6
ByBlock
 62
               0
100
AcDbVertex
100
AcDb2dVertex
 10
0.25
 20
0.0
 30
0.0
 42
1.0
  0
SEQEND
  5
4E
100
AcDbEntity
  8
0
390
0
  0
LINE
  5
4F
100
AcDbEntity
  8
0
370
              -2
390
0
  6
ByBlock
 62
               0
100
AcDbLine
 10
-0.5
 20
0.0
 30
0.0
 11
-1.0
 21
0.0
 31
0.0
  0
ENDBLK
  5
50
100
AcDbEntity
  8
0
390
0
100
AcDbBlockEnd
  0
BLOCK
  5
53
100
AcDbEntity
  8
0
370
              -2
390
0
  6
ByBlock
 62
               0
100
AcDbBlockBegin
  2
VW_FILLEDARROW
 70
               0
 10
0.0
 20
0.0
 30
0.0
  3
VW_FILLEDARROW
  1

  0
SOLID
  5
54
100
AcDbEntity
  8
0
370
              -2
390
0
 62
               0
100
AcDbTrace
 10
0.0
 20
0.0
 30
0.0
 11
-0.9921874999999999
 21
-0.2658558393652545
 31
0.0
 12
-0.9921874999999999
 22
0.2658558393652548
 32
0.0
 13
-0.9921874999999999
 23
0.2658558393652548
 33
0.0
  0
ENDBLK
  5
55
100
AcDbEntity
  8
0
390
0
100
AcDbBlockEnd
  0
BLOCK
  5
57
100
AcDbEntity
  8
ABA70-0001
390
0
100
AcDbBlockBegin
  2
*D2
 70
               1
 10
0.0
 20
0.0
 30
0.0
  3
*D2
  1

  0
LINE
  5
58
100
AcDbEntity
  8
0
370
              -2
390
0
  6
Continuous
 62
               0
100
AcDbLine
 10
-600.15663898748471
 20
-869.56463240675112
 30
0.0
 11
-801.38189924349399
 21
-869.56463240675112
 31
0.0
  0
LINE
  5
59
100
AcDbEntity
  8
0
370
              -2
390
0
  6
Continuous
 62
               0
100
AcDbLine
 10
-600.15663898749381
 20
130.43531921369322
 30
0.0
 11
-801.38189924349399
 21
130.43531921369322
 31
0.0
  0
LINE
  5
5A
100
AcDbEntity
  8
0
370
              -2
390
0
  6
Continuous
 62
               0
100
AcDbLine
 10
-801.38189924349399
 20
-869.56463240675112
 30
0.0
 11
-801.38189924349399
 21
130.43531921369322
 31
0.0
  0
CIRCLE
  5
5B
102
{ACAD_REACTORS
330
5C
102
}
100
AcDbEntity
  8
0
370
              -2
390
0
  6
Continuous
 62
               0
100
AcDbCircle
 10
-801.38189924349399
 20
-869.56463240675112
 30
0.0
 40
1.9998779296875
  0
HATCH
  5
5C
100
AcDbEntity
  8
0
370
              -2
390
0
  6
Continuous
 62
               0
100
AcDbHatch
 10
0.0
 20
0.0
 30
0.0
210
0.0
220
0.0
230
1.0
  2
SOLID
 70
               1
 71
               1
 91
        1
 92
        1
 93
        1
 72
               2
 10
-801.38189924349399
 20
-869.56463240675112
 40
1.9998779296875
 50
0.0
 51
360.0
 73
               0
 97
        1
330
5B
 75
               0
 76
               1
 98
        1
 10
0.0
 20
0.0
  0
CIRCLE
  5
5D
102
{ACAD_REACTORS
330
5E
102
}
100
AcDbEntity
  8
0
370
              -2
390
0
  6
Continuous
 62
               0
100
AcDbCircle
 10
-801.38189924349399
 20
130.43531921369322
 30
0.0
 40
1.9998779296875
  0
HATCH
  5
5E
100
AcDbEntity
  8
0
370
              -2
390
0
  6
Continuous
 62
               0
100
AcDbHatch
 10
0.0
 20
0.0
 30
0.0
210
0.0
220
0.0
230
1.0
  2
SOLID
 70
               1
 71
               1
 91
        1
 92
        1
 93
        1
 72
               2
 10
-801.38189924349399
 20
130.43531921369322
 40
1.9998779296875
 50
0.0
 51
360.0
 73
               0
 97
        1
330
5D
 75
               0
 76
               1
 98
        1
 10
0.0
 20
0.0
  0
MTEXT
  5
5F
100
AcDbEntity
  8
0
390
0
 62
               0
100
AcDbMText
 10
-835.25951643099404
 20
-401.31465659652895
 30
0.0
 40
24.432617187500004
 41
0.0
 71
               1
 72
               1
  1
1000
  7
ＭＳ ゴシック
 11
0.0
 21
1.0
 31
0.0
 73
               1
 44
0.7828267384257844
  0
POINT
  5
60
100
AcDbEntity
  8
Defpoints
370
               0
390
0
 62
               0
100
AcDbPoint
 10
-575.15663898749381
 20
130.43531921369322
 30
0.0
  0
POINT
  5
61
100
AcDbEntity
  8
Defpoints
370
               0
390
0
 62
               0
100
AcDbPoint
 10
-575.15663898748471
 20
-869.56463240675112
 30
0.0
  0
POINT
  5
62
100
AcDbEntity
  8
Defpoints
370
               0
390
0
 62
               0
100
AcDbPoint
 10
-801.38189924349399
 20
-869.56463240675112
 30
0.0
  0
ENDBLK
  5
63
100
AcDbEntity
  8
ABA70-0001
390
0
100
AcDbBlockEnd
  0
BLOCK
  5
64
100
AcDbEntity
  8
ABA70-0001
390
0
100
AcDbBlockBegin
  2
*D3
 70
               1
 10
0.0
 20
0.0
 30
0.0
  3
*D3
  1

  0
LINE
  5
65
100
AcDbEntity
  8
0
370
              -2
390
0
  6
Continuous
 62
               0
100
AcDbLine
 10
-611.85981440200385
 20
-366.51568561240128
 30
0.0
 11
-751.38189924300468
 21
-366.51568561240128
 31
0.0
  0
LINE
  5
66
100
AcDbEntity
  8
0
370
              -2
390
0
  6
Continuous
 62
               0
100
AcDbLine
 10
-611.85981440200385
 20
-466.51568561240128
 30
0.0
 11
-751.38189924300468
 21
-466.51568561240128
 31
0.0
  0
LINE
  5
67
100
AcDbEntity
  8
0
370
              -2
390
0
  6
Continuous
 62
               0
100
AcDbLine
 10
-751.38189924300468
 20
-366.51568561240128
 30
0.0
 11
-751.38189924300468
 21
-466.51568561240128
 31
0.0
  0
CIRCLE
  5
68
102
{ACAD_REACTORS
330
69
102
}
100
AcDbEntity
  8
0
370
              -2
390
0
  6
Continuous
 62
               0
100
AcDbCircle
 10
-751.38189924300468
 20
-366.51568561240128
 30
0.0
 40
1.9998779296875
  0
HATCH
  5
69
100
AcDbEntity
  8
0
370
              -2
390
0
  6
Continuous
 62
               0
100
AcDbHatch
 10
0.0
 20
0.0
 30
0.0
210
0.0
220
0.0
230
1.0
  2
SOLID
 70
               1
 71
               1
 91
        1
 92
        1
 93
        1
 72
               2
 10
-751.38189924300468
 20
-366.51568561240128
 40
1.9998779296875
 50
0.0
 51
360.0
 73
               0
 97
        1
330
68
 75
               0
 76
               1
 98
        1
 10
0.0
 20
0.0
  0
CIRCLE
  5
6A
102
{ACAD_REACTORS
330
6B
102
}
100
AcDbEntity
  8
0
370
              -2
390
0
  6
Continuous
 62
               0
100
AcDbCircle
 10
-751.38189924300468
 20
-466.51568561240128
 30
0.0
 40
1.9998779296875
  0
HATCH
  5
6B
100
AcDbEntity
  8
0
370
              -2
390
0
  6
Continuous
 62
               0
100
AcDbHatch
 10
0.0
 20
0.0
 30
0.0
210
0.0
220
0.0
230
1.0
  2
SOLID
 70
               1
 71
               1
 91
        1
 92
        1
 93
        1
 72
               2
 10
-751.38189924300468
 20
-466.51568561240128
 40
1.9998779296875
 50
0.0
 51
360.0
 73
               0
 97
        1
330
6A
 75
               0
 76
               1
 98
        1
 10
0.0
 20
0.0
  0
MTEXT
  5
6C
100
AcDbEntity
  8
0
390
0
 62
               0
100
AcDbMText
 10
-785.25951643050473
 20
-440.32818729457682
 30
0.0
 40
24.432617187500004
 41
0.0
 71
               1
 72
               1
  1
100
  7
ＭＳ ゴシック
 11
0.0
 21
1.0
 31
0.0
 73
               1
 44
0.7828267384257844
  0
POINT
  5
6D
100
AcDbEntity
  8
Defpoints
370
               0
390
0
 62
               0
100
AcDbPoint
 10
-586.85981440200385
 20
-466.51568561240128
 30
0.0
  0
POINT
  5
6E
100
AcDbEntity
  8
Defpoints
370
               0
390
0
 62
               0
100
AcDbPoint
 10
-586.85981440200385
 20
-366.51568561240128
 30
0.0
  0
POINT
  5
6F
100
AcDbEntity
  8
Defpoints
370
               0
390
0
 62
               0
100
AcDbPoint
 10
-751.38189924300468
 20
-366.51568561240128
 30
0.0
  0
ENDBLK
  5
70
100
AcDbEntity
  8
ABA70-0001
390
0
100
AcDbBlockEnd
  0
BLOCK
  5
71
100
AcDbEntity
  8
ABA70-0001
390
0
100
AcDbBlockBegin
  2
*D4
 70
               1
 10
0.0
 20
0.0
 30
0.0
  3
*D4
  1

  0
LINE
  5
72
100
AcDbEntity
  8
0
370
              -2
390
0
  6
Continuous
 62
               0
100
AcDbLine
 10
-611.85981440200385
 20
-266.51568561240128
 30
0.0
 11
-751.38189924300468
 21
-266.51568561240128
 31
0.0
  0
LINE
  5
73
100
AcDbEntity
  8
0
370
              -2
390
0
  6
Continuous
 62
               0
100
AcDbLine
 10
-611.85981440200385
 20
-366.51568561240128
 30
0.0
 11
-751.38189924300468
 21
-366.51568561240128
 31
0.0
  0
LINE
  5
74
100
AcDbEntity
  8
0
370
              -2
390
0
  6
Continuous
 62
               0
100
AcDbLine
 10
-751.38189924300468
 20
-266.51568561240128
 30
0.0
 11
-751.38189924300468
 21
-366.51568561240128
 31
0.0
  0
CIRCLE
  5
75
102
{ACAD_REACTORS
330
76
102
}
100
AcDbEntity
  8
0
370
              -2
390
0
  6
Continuous
 62
               0
100
AcDbCircle
 10
-751.38189924300468
 20
-266.51568561240128
 30
0.0
 40
1.9998779296875
  0
HATCH
  5
76
100
AcDbEntity
  8
0
370
              -2
390
0
  6
Continuous
 62
               0
100
AcDbHatch
 10
0.0
 20
0.0
 30
0.0
210
0.0
220
0.0
230
1.0
  2
SOLID
 70
               1
 71
               1
 91
        1
 92
        1
 93
        1
 72
               2
 10
-751.38189924300468
 20
-266.51568561240128
 40
1.9998779296875
 50
0.0
 51
360.0
 73
               0
 97
        1
330
75
 75
               0
 76
               1
 98
        1
 10
0.0
 20
0.0
  0
CIRCLE
  5
77
102
{ACAD_REACTORS
330
78
102
}
100
AcDbEntity
  8
0
370
              -2
390
0
  6
Continuous
 62
               0
100
AcDbCircle
 10
-751.38189924300468
 20
-366.51568561240128
 30
0.0
 40
1.9998779296875
  0
HATCH
  5
78
100
AcDbEntity
  8
0
370
              -2
390
0
  6
Continuous
 62
               0
100
AcDbHatch
 10
0.0
 20
0.0
 30
0.0
210
0.0
220
0.0
230
1.0
  2
SOLID
 70
               1
 71
               1
 91
        1
 92
        1
 93
        1
 72
               2
 10
-751.38189924300468
 20
-366.51568561240128
 40
1.9998779296875
 50
0.0
 51
360.0
 73
               0
 97
        1
330
77
 75
               0
 76
               1
 98
        1
 10
0.0
 20
0.0
  0
MTEXT
  5
79
100
AcDbEntity
  8
0
390
0
 62
               0
100
AcDbMText
 10
-785.25951643050473
 20
-340.32818729457682
 30
0.0
 40
24.432617187500004
 41
0.0
 71
               1
 72
               1
  1
100
  7
ＭＳ ゴシック
 11
0.0
 21
1.0
 31
0.0
 73
               1
 44
0.7828267384257844
  0
POINT
  5
7A
100
AcDbEntity
  8
Defpoints
370
               0
390
0
 62
               0
100
AcDbPoint
 10
-586.85981440200385
 20
-366.51568561240128
 30
0.0
  0
POINT
  5
7B
100
AcDbEntity
  8
Defpoints
370
               0
390
0
 62
               0
100
AcDbPoint
 10
-586.85981440200385
 20
-266.51568561240128
 30
0.0
  0
POINT
  5
7C
100
AcDbEntity
  8
Defpoints
370
               0
390
0
 62
               0
100
AcDbPoint
 10
-751.38189924300468
 20
-266.51568561240128
 30
0.0
  0
ENDBLK
  5
7D
100
AcDbEntity
  8
ABA70-0001
390
0
100
AcDbBlockEnd
  0
BLOCK
  5
7E
100
AcDbEntity
  8
ABA70-0001
390
0
100
AcDbBlockBegin
  2
*D5
 70
               1
 10
0.0
 20
0.0
 30
0.0
  3
*D5
  1

  0
LINE
  5
7F
100
AcDbEntity
  8
0
370
              -2
390
0
  6
Continuous
 62
               0
100
AcDbLine
 10
483.10922391532597
 20
-229.56465659652895
 30
0.0
 11
348.10922391532597
 21
-229.56465659652895
 31
0.0
  0
LINE
  5
80
100
AcDbEntity
  8
0
370
              -2
390
0
  6
Continuous
 62
               0
100
AcDbLine
 10
483.10922391532597
 20
-509.56465659652895
 30
0.0
 11
348.10922391532597
 21
-509.56465659652895
 31
0.0
  0
LINE
  5
81
100
AcDbEntity
  8
0
370
              -2
390
0
  6
Continuous
 62
               0
100
AcDbLine
 10
348.10922391532597
 20
-229.56465659652895
 30
0.0
 11
348.10922391532597
 21
-509.56465659652895
 31
0.0
  0
CIRCLE
  5
82
102
{ACAD_REACTORS
330
83
102
}
100
AcDbEntity
  8
0
370
              -2
390
0
  6
Continuous
 62
               0
100
AcDbCircle
 10
348.10922391532597
 20
-229.56465659652895
 30
0.0
 40
1.9998779296875
  0
HATCH
  5
83
100
AcDbEntity
  8
0
370
              -2
390
0
  6
Continuous
 62
               0
100
AcDbHatch
 10
0.0
 20
0.0
 30
0.0
210
0.0
220
0.0
230
1.0
  2
SOLID
 70
               1
 71
               1
 91
        1
 92
        1
 93
        1
 72
               2
 10
348.10922391532597
 20
-229.56465659652895
 40
1.9998779296875
 50
0.0
 51
360.0
 73
               0
 97
        1
330
82
 75
               0
 76
               1
 98
        1
 10
0.0
 20
0.0
  0
CIRCLE
  5
84
102
{ACAD_REACTORS
330
85
102
}
100
AcDbEntity
  8
0
370
              -2
390
0
  6
Continuous
 62
               0
100
AcDbCircle
 10
348.10922391532597
 20
-509.56465659652895
 30
0.0
 40
1.9998779296875
  0
HATCH
  5
85
100
AcDbEntity
  8
0
370
              -2
390
0
  6
Continuous
 62
               0
100
AcDbHatch
 10
0.0
 20
0.0
 30
0.0
210
0.0
220
0.0
230
1.0
  2
SOLID
 70
               1
 71
               1
 91
        1
 92
        1
 93
        1
 72
               2
 10
348.10922391532597
 20
-509.56465659652895
 40
1.9998779296875
 50
0.0
 51
360.0
 73
               0
 97
        1
330
84
 75
               0
 76
               1
 98
        1
 10
0.0
 20
0.0
  0
MTEXT
  5
86
100
AcDbEntity
  8
0
390
0
 62
               0
100
AcDbMText
 10
314.23160672782598
 20
-393.37715827870448
 30
0.0
 40
24.432617187500004
 41
0.0
 71
               1
 72
               1
  1
280
  7
ＭＳ ゴシック
 11
0.0
 21
1.0
 31
0.0
 73
               1
 44
0.7828267384257844
  0
POINT
  5
87
100
AcDbEntity
  8
Defpoints
370
               0
390
0
 62
               0
100
AcDbPoint
 10
508.10922391532597
 20
-509.56465659652895
 30
0.0
  0
POINT
  5
88
100
AcDbEntity
  8
Defpoints
370
               0
390
0
 62
               0
100
AcDbPoint
 10
508.10922391532597
 20
-229.56465659652895
 30
0.0
  0
POINT
  5
89
100
AcDbEntity
  8
Defpoints
370
               0
390
0
 62
               0
100
AcDbPoint
 10
348.10922391532597
 20
-229.56465659652895
 30
0.0
  0
ENDBLK
  5
8A
100
AcDbEntity
  8
ABA70-0001
390
0
100
AcDbBlockEnd
  0
BLOCK
  5
8B
100
AcDbEntity
  8
ABA70-0001
390
0
100
AcDbBlockBegin
  2
*D6
 70
               1
 10
0.0
 20
0.0
 30
0.0
  3
*D6
  1

  0
LINE
  5
8C
100
AcDbEntity
  8
0
370
              -2
390
0
  6
Continuous
 62
               0
100
AcDbLine
 10
-77.057480097766984
 20
-629.56465659653077
 30
0.0
 11
-1.3818992431265542
 21
-629.56465659653077
 31
0.0
  0
LINE
  5
8D
100
AcDbEntity
  8
0
370
              -2
390
0
  6
Continuous
 62
               0
100
AcDbLine
 10
-77.057501102126935
 20
-109.56465659653077
 30
0.0
 11
-1.3818992431265542
 21
-109.56465659653077
 31
0.0
  0
LINE
  5
8E
100
AcDbEntity
  8
0
370
              -2
390
0
  6
Continuous
 62
               0
100
AcDbLine
 10
-1.3818992431265542
 20
-629.56465659653077
 30
0.0
 11
-1.3818992431265542
 21
-109.56465659653077
 31
0.0
  0
CIRCLE
  5
8F
102
{ACAD_REACTORS
330
90
102
}
100
AcDbEntity
  8
0
370
              -2
390
0
  6
Continuous
 62
               0
100
AcDbCircle
 10
-1.3818992431265542
 20
-629.56465659653077
 30
0.0
 40
1.9998779296875
  0
HATCH
  5
90
100
AcDbEntity
  8
0
370
              -2
390
0
  6
Continuous
 62
               0
100
AcDbHatch
 10
0.0
 20
0.0
 30
0.0
210
0.0
220
0.0
230
1.0
  2
SOLID
 70
               1
 71
               1
 91
        1
 92
        1
 93
        1
 72
               2
 10
-1.3818992431265542
 20
-629.56465659653077
 40
1.9998779296875
 50
0.0
 51
360.0
 73
               0
 97
        1
330
8F
 75
               0
 76
               1
 98
        1
 10
0.0
 20
0.0
  0
CIRCLE
  5
91
102
{ACAD_REACTORS
330
92
102
}
100
AcDbEntity
  8
0
370
              -2
390
0
  6
Continuous
 62
               0
100
AcDbCircle
 10
-1.3818992431265542
 20
-109.56465659653077
 30
0.0
 40
1.9998779296875
  0
HATCH
  5
92
100
AcDbEntity
  8
0
370
              -2
390
0
  6
Continuous
 62
               0
100
AcDbHatch
 10
0.0
 20
0.0
 30
0.0
210
0.0
220
0.0
230
1.0
  2
SOLID
 70
               1
 71
               1
 91
        1
 92
        1
 93
        1
 72
               2
 10
-1.3818992431265542
 20
-109.56465659653077
 40
1.9998779296875
 50
0.0
 51
360.0
 73
               0
 97
        1
330
91
 75
               0
 76
               1
 98
        1
 10
0.0
 20
0.0
  0
MTEXT
  5
93
100
AcDbEntity
  8
0
390
0
 62
               0
100
AcDbMText
 10
-35.259516430626562
 20
-393.3771582787063
 30
0.0
 40
24.432617187500004
 41
0.0
 71
               1
 72
               1
  1
520
  7
ＭＳ ゴシック
 11
0.0
 21
1.0
 31
0.0
 73
               1
 44
0.7828267384257844
  0
POINT
  5
94
100
AcDbEntity
  8
Defpoints
370
               0
390
0
 62
               0
100
AcDbPoint
 10
-102.05750110212693
 20
-109.56465659653077
 30
0.0
  0
POINT
  5
95
100
AcDbEntity
  8
Defpoints
370
               0
390
0
 62
               0
100
AcDbPoint
 10
-102.05748009776698
 20
-629.56465659653077
 30
0.0
  0
POINT
  5
96
100
AcDbEntity
  8
Defpoints
370
               0
390
0
 62
               0
100
AcDbPoint
 10
-1.3818992431265542
 20
-629.56465659653077
 30
0.0
  0
ENDBLK
  5
97
100
AcDbEntity
  8
ABA70-0001
390
0
100
AcDbBlockEnd
  0
BLOCK
  5
98
100
AcDbEntity
  8
ABA70-0001
390
0
100
AcDbBlockBegin
  2
*D7
 70
               1
 10
0.0
 20
0.0
 30
0.0
  3
*D7
  1

  0
LINE
  5
99
100
AcDbEntity
  8
0
370
              -2
390
0
  6
Continuous
 62
               0
100
AcDbLine
 10
-101.38189924346307
 20
88.406672666202212
 30
0.0
 11
-101.38189924346307
 21
230.43531921418617
 31
0.0
  0
LINE
  5
9A
100
AcDbEntity
  8
0
370
              -2
390
0
  6
Continuous
 62
               0
100
AcDbLine
 10
-651.38189924346307
 20
88.406672666185841
 30
0.0
 11
-651.38189924346307
 21
230.43531921418617
 31
0.0
  0
LINE
  5
9B
100
AcDbEntity
  8
0
370
              -2
390
0
  6
Continuous
 62
               0
100
AcDbLine
 10
-101.38189924346307
 20
230.43531921418617
 30
0.0
 11
-651.38189924346307
 21
230.43531921418617
 31
0.0
  0
CIRCLE
  5
9C
102
{ACAD_REACTORS
330
9D
102
}
100
AcDbEntity
  8
0
370
              -2
390
0
  6
Continuous
 62
               0
100
AcDbCircle
 10
-101.38189924346307
 20
230.43531921418617
 30
0.0
 40
1.9998779296875
  0
HATCH
  5
9D
100
AcDbEntity
  8
0
370
              -2
390
0
  6
Continuous
 62
               0
100
AcDbHatch
 10
0.0
 20
0.0
 30
0.0
210
0.0
220
0.0
230
1.0
  2
SOLID
 70
               1
 71
               1
 91
        1
 92
        1
 93
        1
 72
               2
 10
-101.38189924346307
 20
230.43531921418617
 40
1.9998779296875
 50
0.0
 51
360.0
 73
               0
 97
        1
330
9C
 75
               0
 76
               1
 98
        1
 10
0.0
 20
0.0
  0
CIRCLE
  5
9E
102
{ACAD_REACTORS
330
9F
102
}
100
AcDbEntity
  8
0
370
              -2
390
0
  6
Continuous
 62
               0
100
AcDbCircle
 10
-651.38189924346307
 20
230.43531921418617
 30
0.0
 40
1.9998779296875
  0
HATCH
  5
9F
100
AcDbEntity
  8
0
370
              -2
390
0
  6
Continuous
 62
               0
100
AcDbHatch
 10
0.0
 20
0.0
 30
0.0
210
0.0
220
0.0
230
1.0
  2
SOLID
 70
               1
 71
               1
 91
        1
 92
        1
 93
        1
 72
               2
 10
-651.38189924346307
 20
230.43531921418617
 40
1.9998779296875
 50
0.0
 51
360.0
 73
               0
 97
        1
330
9E
 75
               0
 76
               1
 98
        1
 10
0.0
 20
0.0
  0
MTEXT
  5
A0
100
AcDbEntity
  8
0
390
0
 62
               0
100
AcDbMText
 10
-400.1944009256386
 20
264.31293640168616
 30
0.0
 40
24.432617187500004
 41
0.0
 71
               1
 72
               1
  1
550
  7
ＭＳ ゴシック
 73
               1
 44
0.7828267384257844
  0
POINT
  5
A1
100
AcDbEntity
  8
Defpoints
370
               0
390
0
 62
               0
100
AcDbPoint
 10
-651.38189924346307
 20
63.406672666185841
 30
0.0
  0
POINT
  5
A2
100
AcDbEntity
  8
Defpoints
370
               0
390
0
 62
               0
100
AcDbPoint
 10
-101.38189924346307
 20
63.406672666202212
 30
0.0
  0
POINT
  5
A3
100
AcDbEntity
  8
Defpoints
370
               0
390
0
 62
               0
100
AcDbPoint
 10
-101.38189924346307
 20
230.43531921418617
 30
0.0
  0
ENDBLK
  5
A4
100
AcDbEntity
  8
ABA70-0001
390
0
100
AcDbBlockEnd
  0
BLOCK
  5
A5
100
AcDbEntity
  8
ABA70-0001
390
0
100
AcDbBlockBegin
  2
*D8
 70
               1
 10
0.0
 20
0.0
 30
0.0
  3
*D8
  1

  0
LINE
  5
A6
100
AcDbEntity
  8
0
370
              -2
390
0
  6
Continuous
 62
               0
100
AcDbLine
 10
678.11204737364471
 20
888.42889015630863
 30
0.0
 11
678.11204737364471
 21
540.03259695915585
 31
0.0
  0
LINE
  5
A7
100
AcDbEntity
  8
0
370
              -2
390
0
  6
Continuous
 62
               0
100
AcDbLine
 10
533.12659665200238
 20
644.50317638110573
 30
0.0
 11
533.12659665200238
 21
540.03259695915585
 31
0.0
  0
LINE
  5
A8
100
AcDbEntity
  8
0
370
              -2
390
0
  6
Continuous
 62
               0
100
AcDbLine
 10
678.11204737364471
 20
540.03259695915585
 30
0.0
 11
533.12659665200238
 21
540.03259695915585
 31
0.0
  0
CIRCLE
  5
A9
102
{ACAD_REACTORS
330
AA
102
}
100
AcDbEntity
  8
0
370
              -2
390
0
  6
Continuous
 62
               0
100
AcDbCircle
 10
678.11204737364471
 20
540.03259695915585
 30
0.0
 40
1.9998779296875
  0
HATCH
  5
AA
100
AcDbEntity
  8
0
370
              -2
390
0
  6
Continuous
 62
               0
100
AcDbHatch
 10
0.0
 20
0.0
 30
0.0
210
0.0
220
0.0
230
1.0
  2
SOLID
 70
               1
 71
               1
 91
        1
 92
        1
 93
        1
 72
               2
 10
678.11204737364471
 20
540.03259695915585
 40
1.9998779296875
 50
0.0
 51
360.0
 73
               0
 97
        1
330
A9
 75
               0
 76
               1
 98
        1
 10
0.0
 20
0.0
  0
CIRCLE
  5
AB
102
{ACAD_REACTORS
330
AC
102
}
100
AcDbEntity
  8
0
370
              -2
390
0
  6
Continuous
 62
               0
100
AcDbCircle
 10
533.12659665200238
 20
540.03259695915585
 30
0.0
 40
1.9998779296875
  0
HATCH
  5
AC
100
AcDbEntity
  8
0
370
              -2
390
0
  6
Continuous
 62
               0
100
AcDbHatch
 10
0.0
 20
0.0
 30
0.0
210
0.0
220
0.0
230
1.0
  2
SOLID
 70
               1
 71
               1
 91
        1
 92
        1
 93
        1
 72
               2
 10
533.12659665200238
 20
540.03259695915585
 40
1.9998779296875
 50
0.0
 51
360.0
 73
               0
 97
        1
330
AB
 75
               0
 76
               1
 98
        1
 10
0.0
 20
0.0
  0
MTEXT
  5
AD
100
AcDbEntity
  8
0
390
0
 62
               0
100
AcDbMText
 10
581.80682033064807
 20
573.9102141466559
 30
0.0
 40
24.432617187500004
 41
0.0
 71
               1
 72
               1
  1
145
  7
ＭＳ ゴシック
 73
               1
 44
0.7828267384257844
  0
POINT
  5
AE
100
AcDbEntity
  8
Defpoints
370
               0
390
0
 62
               0
100
AcDbPoint
 10
533.12659665200238
 20
669.50317638110573
 30
0.0
  0
POINT
  5
AF
100
AcDbEntity
  8
Defpoints
370
               0
390
0
 62
               0
100
AcDbPoint
 10
678.11204737364471
 20
913.42889015630863
 30
0.0
  0
POINT
  5
B0
100
AcDbEntity
  8
Defpoints
370
               0
390
0
 62
               0
100
AcDbPoint
 10
678.11204737364471
 20
540.03259695915585
 30
0.0
  0
ENDBLK
  5
B1
100
AcDbEntity
  8
ABA70-0001
390
0
100
AcDbBlockEnd
  0
BLOCK
  5
B2
100
AcDbEntity
  8
ABA70-0001
390
0
100
AcDbBlockBegin
  2
*D9
 70
               1
 10
0.0
 20
0.0
 30
0.0
  3
*D9
  1

  0
LINE
  5
B3
100
AcDbEntity
  8
0
370
              -2
390
0
  6
Continuous
 62
               0
100
AcDbLine
 10
533.11526346093353
 20
644.48566040699188
 30
0.0
 11
533.11526346093353
 21
540.03259695915585
 31
0.0
  0
LINE
  5
B4
100
AcDbEntity
  8
0
370
              -2
390
0
  6
Continuous
 62
               0
100
AcDbLine
 10
448.10818219349505
 20
596.53492579257727
 30
0.0
 11
448.10818219349505
 21
540.03259695915585
 31
0.0
  0
LINE
  5
B5
100
AcDbEntity
  8
0
370
              -2
390
0
  6
Continuous
 62
               0
100
AcDbLine
 10
533.11526346093353
 20
540.03259695915585
 30
0.0
 11
448.10818219349505
 21
540.03259695915585
 31
0.0
  0
CIRCLE
  5
B6
102
{ACAD_REACTORS
330
B7
102
}
100
AcDbEntity
  8
0
370
              -2
390
0
  6
Continuous
 62
               0
100
AcDbCircle
 10
533.11526346093353
 20
540.03259695915585
 30
0.0
 40
1.9998779296875
  0
HATCH
  5
B7
100
AcDbEntity
  8
0
370
              -2
390
0
  6
Continuous
 62
               0
100
AcDbHatch
 10
0.0
 20
0.0
 30
0.0
210
0.0
220
0.0
230
1.0
  2
SOLID
 70
               1
 71
               1
 91
        1
 92
        1
 93
        1
 72
               2
 10
533.11526346093353
 20
540.03259695915585
 40
1.9998779296875
 50
0.0
 51
360.0
 73
               0
 97
        1
330
B6
 75
               0
 76
               1
 98
        1
 10
0.0
 20
0.0
  0
CIRCLE
  5
B8
102
{ACAD_REACTORS
330
B9
102
}
100
AcDbEntity
  8
0
370
              -2
390
0
  6
Continuous
 62
               0
100
AcDbCircle
 10
448.10818219349505
 20
540.03259695915585
 30
0.0
 40
1.9998779296875
  0
HATCH
  5
B9
100
AcDbEntity
  8
0
370
              -2
390
0
  6
Continuous
 62
               0
100
AcDbHatch
 10
0.0
 20
0.0
 30
0.0
210
0.0
220
0.0
230
1.0
  2
SOLID
 70
               1
 71
               1
 91
        1
 92
        1
 93
        1
 72
               2
 10
448.10818219349505
 20
540.03259695915585
 40
1.9998779296875
 50
0.0
 51
360.0
 73
               0
 97
        1
330
B8
 75
               0
 76
               1
 98
        1
 10
0.0
 20
0.0
  0
MTEXT
  5
BA
100
AcDbEntity
  8
0
390
0
 62
               0
100
AcDbMText
 10
474.73672282721429
 20
573.9102141466559
 30
0.0
 40
24.432617187500004
 41
0.0
 71
               1
 72
               1
  1
85
  7
ＭＳ ゴシック
 73
               1
 44
0.7828267384257844
  0
POINT
  5
BB
100
AcDbEntity
  8
Defpoints
370
               0
390
0
 62
               0
100
AcDbPoint
 10
448.10818219349505
 20
621.53492579257727
 30
0.0
  0
POINT
  5
BC
100
AcDbEntity
  8
Defpoints
370
               0
390
0
 62
               0
100
AcDbPoint
 10
533.11526346093353
 20
669.48566040699188
 30
0.0
  0
POINT
  5
BD
100
AcDbEntity
  8
Defpoints
370
               0
390
0
 62
               0
100
AcDbPoint
 10
533.11526346093353
 20
540.03259695915585
 30
0.0
  0
ENDBLK
  5
BE
100
AcDbEntity
  8
ABA70-0001
390
0
100
AcDbBlockEnd
  0
BLOCK
  5
BF
100
AcDbEntity
  8
ABA70-0001
390
0
100
AcDbBlockBegin
  2
*D10
 70
               1
 10
0.0
 20
0.0
 30
0.0
  3
*D10
  1

  0
LINE
  5
C0
100
AcDbEntity
  8
0
370
              -2
390
0
  6
Continuous
 62
               0
100
AcDbLine
 10
678.10929927219524
 20
-312.06351984769026
 30
0.0
 11
678.10929927219524
 21
230.43531921418617
 31
0.0
  0
LINE
  5
C1
100
AcDbEntity
  8
0
370
              -2
390
0
  6
Continuous
 62
               0
100
AcDbLine
 10
448.10922391532597
 20
149.37938780170407
 30
0.0
 11
448.10922391532597
 21
230.43531921418617
 31
0.0
  0
LINE
  5
C2
100
AcDbEntity
  8
0
370
              -2
390
0
  6
Continuous
 62
               0
100
AcDbLine
 10
678.10929927219524
 20
230.43531921418617
 30
0.0
 11
448.10922391532597
 21
230.43531921418617
 31
0.0
  0
CIRCLE
  5
C3
102
{ACAD_REACTORS
330
C4
102
}
100
AcDbEntity
  8
0
370
              -2
390
0
  6
Continuous
 62
               0
100
AcDbCircle
 10
678.10929927219524
 20
230.43531921418617
 30
0.0
 40
1.9998779296875
  0
HATCH
  5
C4
100
AcDbEntity
  8
0
370
              -2
390
0
  6
Continuous
 62
               0
100
AcDbHatch
 10
0.0
 20
0.0
 30
0.0
210
0.0
220
0.0
230
1.0
  2
SOLID
 70
               1
 71
               1
 91
        1
 92
        1
 93
        1
 72
               2
 10
678.10929927219524
 20
230.43531921418617
 40
1.9998779296875
 50
0.0
 51
360.0
 73
               0
 97
        1
330
C3
 75
               0
 76
               1
 98
        1
 10
0.0
 20
0.0
  0
CIRCLE
  5
C5
102
{ACAD_REACTORS
330
C6
102
}
100
AcDbEntity
  8
0
370
              -2
390
0
  6
Continuous
 62
               0
100
AcDbCircle
 10
448.10922391532597
 20
230.43531921418617
 30
0.0
 40
1.9998779296875
  0
HATCH
  5
C6
100
AcDbEntity
  8
0
370
              -2
390
0
  6
Continuous
 62
               0
100
AcDbHatch
 10
0.0
 20
0.0
 30
0.0
210
0.0
220
0.0
230
1.0
  2
SOLID
 70
               1
 71
               1
 91
        1
 92
        1
 93
        1
 72
               2
 10
448.10922391532597
 20
230.43531921418617
 40
1.9998779296875
 50
0.0
 51
360.0
 73
               0
 97
        1
330
C5
 75
               0
 76
               1
 98
        1
 10
0.0
 20
0.0
  0
MTEXT
  5
C7
100
AcDbEntity
  8
0
390
0
 62
               0
100
AcDbMText
 10
539.29675991158513
 20
264.31293640168616
 30
0.0
 40
24.432617187500004
 41
0.0
 71
               1
 72
               1
  1
230
  7
ＭＳ ゴシック
 73
               1
 44
0.7828267384257844
  0
POINT
  5
C8
100
AcDbEntity
  8
Defpoints
370
               0
390
0
 62
               0
100
AcDbPoint
 10
448.10922391532597
 20
124.37938780170407
 30
0.0
  0
POINT
  5
C9
100
AcDbEntity
  8
Defpoints
370
               0
390
0
 62
               0
100
AcDbPoint
 10
678.10929927219524
 20
-337.06351984769026
 30
0.0
  0
POINT
  5
CA
100
AcDbEntity
  8
Defpoints
370
               0
390
0
 62
               0
100
AcDbPoint
 10
678.10929927219524
 20
230.43531921418617
 30
0.0
  0
ENDBLK
  5
CB
100
AcDbEntity
  8
ABA70-0001
390
0
100
AcDbBlockEnd
  0
BLOCK
  5
CC
100
AcDbEntity
  8
ABA70-0001
390
0
100
AcDbBlockBegin
  2
*D11
 70
               1
 10
0.0
 20
0.0
 30
0.0
  3
*D11
  1

  0
LINE
  5
CD
100
AcDbEntity
  8
0
370
              -2
390
0
  6
Continuous
 62
               0
100
AcDbLine
 10
675.22795800365395
 20
1190.5078190595414
 30
0.0
 11
778.1289661926877
 21
1190.5078190595414
 31
0.0
  0
LINE
  5
CE
100
AcDbEntity
  8
0
370
              -2
390
0
  6
Continuous
 62
               0
100
AcDbLine
 10
702.87754249368857
 20
945.50781905954136
 30
0.0
 11
778.1289661926877
 21
945.50781905954136
 31
0.0
  0
LINE
  5
CF
100
AcDbEntity
  8
0
370
              -2
390
0
  6
Continuous
 62
               0
100
AcDbLine
 10
778.1289661926877
 20
1190.5078190595414
 30
0.0
 11
778.1289661926877
 21
945.50781905954136
 31
0.0
  0
CIRCLE
  5
D0
102
{ACAD_REACTORS
330
D1
102
}
100
AcDbEntity
  8
0
370
              -2
390
0
  6
Continuous
 62
               0
100
AcDbCircle
 10
778.1289661926877
 20
1190.5078190595414
 30
0.0
 40
1.9998779296875
  0
HATCH
  5
D1
100
AcDbEntity
  8
0
370
              -2
390
0
  6
Continuous
 62
               0
100
AcDbHatch
 10
0.0
 20
0.0
 30
0.0
210
0.0
220
0.0
230
1.0
  2
SOLID
 70
               1
 71
               1
 91
        1
 92
        1
 93
        1
 72
               2
 10
778.1289661926877
 20
1190.5078190595414
 40
1.9998779296875
 50
0.0
 51
360.0
 73
               0
 97
        1
330
D0
 75
               0
 76
               1
 98
        1
 10
0.0
 20
0.0
  0
CIRCLE
  5
D2
102
{ACAD_REACTORS
330
D3
102
}
100
AcDbEntity
  8
0
370
              -2
390
0
  6
Continuous
 62
               0
100
AcDbCircle
 10
778.1289661926877
 20
945.50781905954136
 30
0.0
 40
1.9998779296875
  0
HATCH
  5
D3
100
AcDbEntity
  8
0
370
              -2
390
0
  6
Continuous
 62
               0
100
AcDbHatch
 10
0.0
 20
0.0
 30
0.0
210
0.0
220
0.0
230
1.0
  2
SOLID
 70
               1
 71
               1
 91
        1
 92
        1
 93
        1
 72
               2
 10
778.1289661926877
 20
945.50781905954136
 40
1.9998779296875
 50
0.0
 51
360.0
 73
               0
 97
        1
330
D2
 75
               0
 76
               1
 98
        1
 10
0.0
 20
0.0
  0
MTEXT
  5
D4
100
AcDbEntity
  8
0
390
0
 62
               0
100
AcDbMText
 10
744.25134900518765
 20
1044.1953173773659
 30
0.0
 40
24.432617187500004
 41
0.0
 71
               1
 72
               1
  1
245
  7
ＭＳ ゴシック
 11
0.0
 21
1.0
 31
0.0
 73
               1
 44
0.7828267384257844
  0
POINT
  5
D5
100
AcDbEntity
  8
Defpoints
370
               0
390
0
 62
               0
100
AcDbPoint
 10
677.87754249368857
 20
945.50781905954136
 30
0.0
  0
POINT
  5
D6
100
AcDbEntity
  8
Defpoints
370
               0
390
0
 62
               0
100
AcDbPoint
 10
650.22795800365395
 20
1190.5078190595414
 30
0.0
  0
POINT
  5
D7
100
AcDbEntity
  8
Defpoints
370
               0
390
0
 62
               0
100
AcDbPoint
 10
778.1289661926877
 20
1190.5078190595414
 30
0.0
  0
ENDBLK
  5
D8
100
AcDbEntity
  8
ABA70-0001
390
0
100
AcDbBlockEnd
  0
BLOCK
  5
D9
100
AcDbEntity
  8
ABA70-0001
390
0
100
AcDbBlockBegin
  2
*D12
 70
               1
 10
0.0
 20
0.0
 30
0.0
  3
*D12
  1

  0
LINE
  5
DA
100
AcDbEntity
  8
0
370
              -2
390
0
  6
Continuous
 62
               0
100
AcDbLine
 10
441.5612707116544
 20
1105.4862860618941
 30
0.0
 11
348.11350577877067
 21
1105.4862860618941
 31
0.0
  0
LINE
  5
DB
100
AcDbEntity
  8
0
370
              -2
390
0
  6
Continuous
 62
               0
100
AcDbLine
 10
423.11350577877067
 20
1190.4862860618941
 30
0.0
 11
348.11350577877067
 21
1190.4862860618941
 31
0.0
  0
LINE
  5
DC
100
AcDbEntity
  8
0
370
              -2
390
0
  6
Continuous
 62
               0
100
AcDbLine
 10
348.11350577877067
 20
1105.4862860618941
 30
0.0
 11
348.11350577877067
 21
1190.4862860618941
 31
0.0
  0
CIRCLE
  5
DD
102
{ACAD_REACTORS
330
DE
102
}
100
AcDbEntity
  8
0
370
              -2
390
0
  6
Continuous
 62
               0
100
AcDbCircle
 10
348.11350577877067
 20
1105.4862860618941
 30
0.0
 40
1.9998779296875
  0
HATCH
  5
DE
100
AcDbEntity
  8
0
370
              -2
390
0
  6
Continuous
 62
               0
100
AcDbHatch
 10
0.0
 20
0.0
 30
0.0
210
0.0
220
0.0
230
1.0
  2
SOLID
 70
               1
 71
               1
 91
        1
 92
        1
 93
        1
 72
               2
 10
348.11350577877067
 20
1105.4862860618941
 40
1.9998779296875
 50
0.0
 51
360.0
 73
               0
 97
        1
330
DD
 75
               0
 76
               1
 98
        1
 10
0.0
 20
0.0
  0
CIRCLE
  5
DF
102
{ACAD_REACTORS
330
E0
102
}
100
AcDbEntity
  8
0
370
              -2
390
0
  6
Continuous
 62
               0
100
AcDbCircle
 10
348.11350577877067
 20
1190.4862860618941
 30
0.0
 40
1.9998779296875
  0
HATCH
  5
E0
100
AcDbEntity
  8
0
370
              -2
390
0
  6
Continuous
 62
               0
100
AcDbHatch
 10
0.0
 20
0.0
 30
0.0
210
0.0
220
0.0
230
1.0
  2
SOLID
 70
               1
 71
               1
 91
        1
 92
        1
 93
        1
 72
               2
 10
348.11350577877067
 20
1190.4862860618941
 40
1.9998779296875
 50
0.0
 51
360.0
 73
               0
 97
        1
330
DF
 75
               0
 76
               1
 98
        1
 10
0.0
 20
0.0
  0
MTEXT
  5
E1
100
AcDbEntity
  8
0
390
0
 62
               0
100
AcDbMText
 10
314.23588859127068
 20
1132.1112860618941
 30
0.0
 40
24.432617187500004
 41
0.0
 71
               1
 72
               1
  1
85
  7
ＭＳ ゴシック
 11
0.0
 21
1.0
 31
0.0
 73
               1
 44
0.7828267384257844
  0
POINT
  5
E2
100
AcDbEntity
  8
Defpoints
370
               0
390
0
 62
               0
100
AcDbPoint
 10
448.11350577877067
 20
1190.4862860618941
 30
0.0
  0
POINT
  5
E3
100
AcDbEntity
  8
Defpoints
370
               0
390
0
 62
               0
100
AcDbPoint
 10
466.5612707116544
 20
1105.4862860618941
 30
0.0
  0
POINT
  5
E4
100
AcDbEntity
  8
Defpoints
370
               0
390
0
 62
               0
100
AcDbPoint
 10
348.11350577877067
 20
1105.4862860618941
 30
0.0
  0
ENDBLK
  5
E5
100
AcDbEntity
  8
ABA70-0001
390
0
100
AcDbBlockEnd
  0
BLOCK
  5
E6
100
AcDbEntity
  8
ABA70-0001
390
0
100
AcDbBlockBegin
  2
*D13
 70
               1
 10
0.0
 20
0.0
 30
0.0
  3
*D13
  1

  0
LINE
  5
E7
100
AcDbEntity
  8
0
370
              -2
390
0
  6
Continuous
 62
               0
100
AcDbLine
 10
-506.38189924346307
 20
-894.56463385132156
 30
0.0
 11
-506.38189924346307
 21
-969.56463324234937
 31
0.0
  0
LINE
  5
E8
100
AcDbEntity
  8
0
370
              -2
390
0
  6
Continuous
 62
               0
100
AcDbLine
 10
-651.38189924346307
 20
-827.57879763634992
 30
0.0
 11
-651.38189924346307
 21
-969.56463324234937
 31
0.0
  0
LINE
  5
E9
100
AcDbEntity
  8
0
370
              -2
390
0
  6
Continuous
 62
               0
100
AcDbLine
 10
-506.38189924346307
 20
-969.56463324234937
 30
0.0
 11
-651.38189924346307
 21
-969.56463324234937
 31
0.0
  0
CIRCLE
  5
EA
102
{ACAD_REACTORS
330
EB
102
}
100
AcDbEntity
  8
0
370
              -2
390
0
  6
Continuous
 62
               0
100
AcDbCircle
 10
-506.38189924346307
 20
-969.56463324234937
 30
0.0
 40
1.9998779296875
  0
HATCH
  5
EB
100
AcDbEntity
  8
0
370
              -2
390
0
  6
Continuous
 62
               0
100
AcDbHatch
 10
0.0
 20
0.0
 30
0.0
210
0.0
220
0.0
230
1.0
  2
SOLID
 70
               1
 71
               1
 91
        1
 92
        1
 93
        1
 72
               2
 10
-506.38189924346307
 20
-969.56463324234937
 40
1.9998779296875
 50
0.0
 51
360.0
 73
               0
 97
        1
330
EA
 75
               0
 76
               1
 98
        1
 10
0.0
 20
0.0
  0
CIRCLE
  5
EC
102
{ACAD_REACTORS
330
ED
102
}
100
AcDbEntity
  8
0
370
              -2
390
0
  6
Continuous
 62
               0
100
AcDbCircle
 10
-651.38189924346307
 20
-969.56463324234937
 30
0.0
 40
1.9998779296875
  0
HATCH
  5
ED
100
AcDbEntity
  8
0
370
              -2
390
0
  6
Continuous
 62
               0
100
AcDbHatch
 10
0.0
 20
0.0
 30
0.0
210
0.0
220
0.0
230
1.0
  2
SOLID
 70
               1
 71
               1
 91
        1
 92
        1
 93
        1
 72
               2
 10
-651.38189924346307
 20
-969.56463324234937
 40
1.9998779296875
 50
0.0
 51
360.0
 73
               0
 97
        1
330
EC
 75
               0
 76
               1
 98
        1
 10
0.0
 20
0.0
  0
MTEXT
  5
EE
100
AcDbEntity
  8
0
390
0
 62
               0
100
AcDbMText
 10
-602.69440092563855
 20
-935.68701605484932
 30
0.0
 40
24.432617187500004
 41
0.0
 71
               1
 72
               1
  1
145
  7
ＭＳ ゴシック
 73
               1
 44
0.7828267384257844
  0
POINT
  5
EF
100
AcDbEntity
  8
Defpoints
370
               0
390
0
 62
               0
100
AcDbPoint
 10
-651.38189924346307
 20
-802.57879763634992
 30
0.0
  0
POINT
  5
F0
100
AcDbEntity
  8
Defpoints
370
               0
390
0
 62
               0
100
AcDbPoint
 10
-506.38189924346307
 20
-869.56463385132156
 30
0.0
  0
POINT
  5
F1
100
AcDbEntity
  8
Defpoints
370
               0
390
0
 62
               0
100
AcDbPoint
 10
-506.38189924346307
 20
-969.56463324234937
 30
0.0
  0
ENDBLK
  5
F2
100
AcDbEntity
  8
ABA70-0001
390
0
100
AcDbBlockEnd
  0
BLOCK
  5
F3
100
AcDbEntity
  8
ABA70-0001
390
0
100
AcDbBlockBegin
  2
*D14
 70
               1
 10
0.0
 20
0.0
 30
0.0
  3
*D14
  1

  0
LINE
  5
F4
100
AcDbEntity
  8
0
370
              -2
390
0
  6
Continuous
 62
               0
100
AcDbLine
 10
-181.38189924346307
 20
-894.4560339852851
 30
0.0
 11
-181.38189924346307
 21
-969.56463324234937
 31
0.0
  0
LINE
  5
F5
100
AcDbEntity
  8
0
370
              -2
390
0
  6
Continuous
 62
               0
100
AcDbLine
 10
-506.38189924346307
 20
-894.56463385132156
 30
0.0
 11
-506.38189924346307
 21
-969.56463324234937
 31
0.0
  0
LINE
  5
F6
100
AcDbEntity
  8
0
370
              -2
390
0
  6
Continuous
 62
               0
100
AcDbLine
 10
-181.38189924346307
 20
-969.56463324234937
 30
0.0
 11
-506.38189924346307
 21
-969.56463324234937
 31
0.0
  0
CIRCLE
  5
F7
102
{ACAD_REACTORS
330
F8
102
}
100
AcDbEntity
  8
0
370
              -2
390
0
  6
Continuous
 62
               0
100
AcDbCircle
 10
-181.38189924346307
 20
-969.56463324234937
 30
0.0
 40
1.9998779296875
  0
HATCH
  5
F8
100
AcDbEntity
  8
0
370
              -2
390
0
  6
Continuous
 62
               0
100
AcDbHatch
 10
0.0
 20
0.0
 30
0.0
210
0.0
220
0.0
230
1.0
  2
SOLID
 70
               1
 71
               1
 91
        1
 92
        1
 93
        1
 72
               2
 10
-181.38189924346307
 20
-969.56463324234937
 40
1.9998779296875
 50
0.0
 51
360.0
 73
               0
 97
        1
330
F7
 75
               0
 76
               1
 98
        1
 10
0.0
 20
0.0
  0
CIRCLE
  5
F9
102
{ACAD_REACTORS
330
FA
102
}
100
AcDbEntity
  8
0
370
              -2
390
0
  6
Continuous
 62
               0
100
AcDbCircle
 10
-506.38189924346307
 20
-969.56463324234937
 30
0.0
 40
1.9998779296875
  0
HATCH
  5
FA
100
AcDbEntity
  8
0
370
              -2
390
0
  6
Continuous
 62
               0
100
AcDbHatch
 10
0.0
 20
0.0
 30
0.0
210
0.0
220
0.0
230
1.0
  2
SOLID
 70
               1
 71
               1
 91
        1
 92
        1
 93
        1
 72
               2
 10
-506.38189924346307
 20
-969.56463324234937
 40
1.9998779296875
 50
0.0
 51
360.0
 73
               0
 97
        1
330
F9
 75
               0
 76
               1
 98
        1
 10
0.0
 20
0.0
  0
MTEXT
  5
FB
100
AcDbEntity
  8
0
390
0
 62
               0
100
AcDbMText
 10
-367.6944009256386
 20
-935.68701605484932
 30
0.0
 40
24.432617187500004
 41
0.0
 71
               1
 72
               1
  1
325
  7
ＭＳ ゴシック
 73
               1
 44
0.7828267384257844
  0
POINT
  5
FC
100
AcDbEntity
  8
Defpoints
370
               0
390
0
 62
               0
100
AcDbPoint
 10
-506.38189924346307
 20
-869.56463385132156
 30
0.0
  0
POINT
  5
FD
100
AcDbEntity
  8
Defpoints
370
               0
390
0
 62
               0
100
AcDbPoint
 10
-181.38189924346307
 20
-869.4560339852851
 30
0.0
  0
POINT
  5
FE
100
AcDbEntity
  8
Defpoints
370
               0
390
0
 62
               0
100
AcDbPoint
 10
-181.38189924346307
 20
-969.56463324234937
 30
0.0
  0
ENDBLK
  5
FF
100
AcDbEntity
  8
ABA70-0001
390
0
100
AcDbBlockEnd
  0
BLOCK
  5
100
100
AcDbEntity
  8
ABA70-0001
390
0
100
AcDbBlockBegin
  2
*D15
 70
               1
 10
0.0
 20
0.0
 30
0.0
  3
*D15
  1

  0
LINE
  5
101
100
AcDbEntity
  8
0
370
              -2
390
0
  6
Continuous
 62
               0
100
AcDbLine
 10
448.10922391532597
 20
-888.50870099476379
 30
0.0
 11
448.10922391532597
 21
-969.56463324234937
 31
0.0
  0
LINE
  5
102
100
AcDbEntity
  8
0
370
              -2
390
0
  6
Continuous
 62
               0
100
AcDbLine
 10
528.10922391532597
 20
-554.56465659652895
 30
0.0
 11
528.10922391532597
 21
-969.56463324234937
 31
0.0
  0
LINE
  5
103
100
AcDbEntity
  8
0
370
              -2
390
0
  6
Continuous
 62
               0
100
AcDbLine
 10
448.10922391532597
 20
-969.56463324234937
 30
0.0
 11
528.10922391532597
 21
-969.56463324234937
 31
0.0
  0
CIRCLE
  5
104
102
{ACAD_REACTORS
330
105
102
}
100
AcDbEntity
  8
0
370
              -2
390
0
  6
Continuous
 62
               0
100
AcDbCircle
 10
448.10922391532597
 20
-969.56463324234937
 30
0.0
 40
1.9998779296875
  0
HATCH
  5
105
100
AcDbEntity
  8
0
370
              -2
390
0
  6
Continuous
 62
               0
100
AcDbHatch
 10
0.0
 20
0.0
 30
0.0
210
0.0
220
0.0
230
1.0
  2
SOLID
 70
               1
 71
               1
 91
        1
 92
        1
 93
        1
 72
               2
 10
448.10922391532597
 20
-969.56463324234937
 40
1.9998779296875
 50
0.0
 51
360.0
 73
               0
 97
        1
330
104
 75
               0
 76
               1
 98
        1
 10
0.0
 20
0.0
  0
CIRCLE
  5
106
102
{ACAD_REACTORS
330
107
102
}
100
AcDbEntity
  8
0
370
              -2
390
0
  6
Continuous
 62
               0
100
AcDbCircle
 10
528.10922391532597
 20
-969.56463324234937
 30
0.0
 40
1.9998779296875
  0
HATCH
  5
107
100
AcDbEntity
  8
0
370
              -2
390
0
  6
Continuous
 62
               0
100
AcDbHatch
 10
0.0
 20
0.0
 30
0.0
210
0.0
220
0.0
230
1.0
  2
SOLID
 70
               1
 71
               1
 91
        1
 92
        1
 93
        1
 72
               2
 10
528.10922391532597
 20
-969.56463324234937
 40
1.9998779296875
 50
0.0
 51
360.0
 73
               0
 97
        1
330
106
 75
               0
 76
               1
 98
        1
 10
0.0
 20
0.0
  0
MTEXT
  5
108
100
AcDbEntity
  8
0
390
0
 62
               0
100
AcDbMText
 10
472.23422391532597
 20
-935.68701605484932
 30
0.0
 40
24.432617187500004
 41
0.0
 71
               1
 72
               1
  1
80
  7
ＭＳ ゴシック
 73
               1
 44
0.7828267384257844
  0
POINT
  5
109
100
AcDbEntity
  8
Defpoints
370
               0
390
0
 62
               0
100
AcDbPoint
 10
528.10922391532597
 20
-529.56465659652895
 30
0.0
  0
POINT
  5
10A
100
AcDbEntity
  8
Defpoints
370
               0
390
0
 62
               0
100
AcDbPoint
 10
448.10922391532597
 20
-863.50870099476379
 30
0.0
  0
POINT
  5
10B
100
AcDbEntity
  8
Defpoints
370
               0
390
0
 62
               0
100
AcDbPoint
 10
448.10922391532597
 20
-969.56463324234937
 30
0.0
  0
ENDBLK
  5
10C
100
AcDbEntity
  8
ABA70-0001
390
0
100
AcDbBlockEnd
  0
BLOCK
  5
10D
100
AcDbEntity
  8
ABA70-0001
390
0
100
AcDbBlockBegin
  2
*D16
 70
               1
 10
0.0
 20
0.0
 30
0.0
  3
*D16
  1

  0
LINE
  5
10E
100
AcDbEntity
  8
0
370
              -2
390
0
  6
Continuous
 62
               0
100
AcDbLine
 10
448.10922391532597
 20
-592.13342423956055
 30
0.0
 11
448.10922391532597
 21
-574.0
 31
0.0
  0
LINE
  5
10F
100
AcDbEntity
  8
0
370
              -2
390
0
  6
Continuous
 62
               0
100
AcDbLine
 10
469.06009835945054
 20
-613.0842986836833
 30
0.0
 11
469.06009835945054
 21
-574.0
 31
0.0
  0
LINE
  5
110
100
AcDbEntity
  8
0
370
              -2
390
0
  6
Continuous
 62
               0
100
AcDbLine
 10
448.10922391532597
 20
-574.0
 30
0.0
 11
415.97216494378029
 21
-574.0
 31
0.0
  0
LINE
  5
111
100
AcDbEntity
  8
0
370
              -2
390
0
  6
Continuous
 62
               0
100
AcDbLine
 10
448.10922391532597
 20
-574.0
 30
0.0
 11
469.06009835945054
 21
-574.0
 31
0.0
  0
CIRCLE
  5
112
102
{ACAD_REACTORS
330
113
102
}
100
AcDbEntity
  8
0
370
              -2
390
0
  6
Continuous
 62
               0
100
AcDbCircle
 10
448.10922391532597
 20
-574.0
 30
0.0
 40
1.9998779296875
  0
HATCH
  5
113
100
AcDbEntity
  8
0
370
              -2
390
0
  6
Continuous
 62
               0
100
AcDbHatch
 10
0.0
 20
0.0
 30
0.0
210
0.0
220
0.0
230
1.0
  2
SOLID
 70
               1
 71
               1
 91
        1
 92
        1
 93
        1
 72
               2
 10
448.10922391532597
 20
-574.0
 40
1.9998779296875
 50
0.0
 51
360.0
 73
               0
 97
        1
330
112
 75
               0
 76
               1
 98
        1
 10
0.0
 20
0.0
  0
CIRCLE
  5
114
102
{ACAD_REACTORS
330
115
102
}
100
AcDbEntity
  8
0
370
              -2
390
0
  6
Continuous
 62
               0
100
AcDbCircle
 10
469.06009835945054
 20
-574.0
 30
0.0
 40
1.9998779296875
  0
HATCH
  5
115
100
AcDbEntity
  8
0
370
              -2
390
0
  6
Continuous
 62
               0
100
AcDbHatch
 10
0.0
 20
0.0
 30
0.0
210
0.0
220
0.0
230
1.0
  2
SOLID
 70
               1
 71
               1
 91
        1
 92
        1
 93
        1
 72
               2
 10
469.06009835945054
 20
-574.0
 40
1.9998779296875
 50
0.0
 51
360.0
 73
               0
 97
        1
330
114
 75
               0
 76
               1
 98
        1
 10
0.0
 20
0.0
  0
MTEXT
  5
116
100
AcDbEntity
  8
0
390
0
 62
               0
100
AcDbMText
 10
415.97216494378029
 20
-540.12238281249995
 30
0.0
 40
24.432617187500004
 41
0.0
 71
               1
 72
               1
  1
17
  7
ＭＳ ゴシック
 73
               1
 44
0.7828267384257844
  0
POINT
  5
117
100
AcDbEntity
  8
Defpoints
370
               0
390
0
 62
               0
100
AcDbPoint
 10
469.06009835945054
 20
-638.0842986836833
 30
0.0
  0
POINT
  5
118
100
AcDbEntity
  8
Defpoints
370
               0
390
0
 62
               0
100
AcDbPoint
 10
448.10922391532597
 20
-617.13342423956055
 30
0.0
  0
POINT
  5
119
100
AcDbEntity
  8
Defpoints
370
               0
390
0
 62
               0
100
AcDbPoint
 10
448.10922391532597
 20
-574.0
 30
0.0
  0
ENDBLK
  5
11A
100
AcDbEntity
  8
ABA70-0001
390
0
100
AcDbBlockEnd
  0
BLOCK
  5
11B
100
AcDbEntity
  8
ABA70-0001
390
0
100
AcDbBlockBegin
  2
*D17
 70
               1
 10
0.0
 20
0.0
 30
0.0
  3
*D17
  1

  0
LINE
  5
11C
100
AcDbEntity
  8
0
370
              -2
390
0
  6
Continuous
 62
               0
100
AcDbLine
 10
-572.83153386855736
 20
-349.17635998530807
 30
0.0
 11
-651.38189924346295
 21
-137.99999999999997
 31
0.0
  0
CIRCLE
  5
11D
102
{ACAD_REACTORS
330
11E
102
}
100
AcDbEntity
  8
0
370
              -2
390
0
  6
Continuous
 62
               0
100
AcDbCircle
 10
-572.83153386855736
 20
-349.17635998530807
 30
0.0
 40
1.9998779296875
  0
HATCH
  5
11E
100
AcDbEntity
  8
0
370
              -2
390
0
  6
Continuous
 62
               0
100
AcDbHatch
 10
0.0
 20
0.0
 30
0.0
210
0.0
220
0.0
230
1.0
  2
SOLID
 70
               1
 71
               1
 91
        1
 92
        1
 93
        1
 72
               2
 10
-572.83153386855736
 20
-349.17635998530807
 40
1.9998779296875
 50
0.0
 51
360.0
 73
               0
 97
        1
330
11D
 75
               0
 76
               1
 98
        1
 10
0.0
 20
0.0
  0
LINE
  5
11F
100
AcDbEntity
  8
0
370
              -2
390
0
  6
Continuous
 62
               0
100
AcDbLine
 10
-651.38189924346295
 20
-137.99999999999997
 30
0.0
 11
-774.88189924346295
 21
-137.99999999999997
 31
0.0
  0
MTEXT
  5
120
100
AcDbEntity
  8
0
390
0
 62
               0
100
AcDbMText
 10
-774.88189924346295
 20
-104.12238281249996
 30
0.0
 40
24.432617187500004
 41
0.0
 71
               1
 72
               1
  1
φ37
  7
ＭＳ ゴシック
 73
               1
 44
0.7828267384257843
  0
POINT
  5
121
100
AcDbEntity
  8
Defpoints
370
               0
390
0
 62
               0
100
AcDbPoint
 10
-559.93226461836889
 20
-383.85501123949382
 30
0.0
  0
POINT
  5
122
100
AcDbEntity
  8
Defpoints
370
               0
390
0
 62
               0
100
AcDbPoint
 10
-572.83153386855736
 20
-349.17635998530807
 30
0.0
  0
ENDBLK
  5
123
100
AcDbEntity
  8
ABA70-0001
390
0
100
AcDbBlockEnd
  0
BLOCK
  5
124
100
AcDbEntity
  8
ABA70-0001
390
0
100
AcDbBlockBegin
  2
グループ
 70
               0
 10
0.0
 20
0.0
 30
0.0
  3
グループ
  1

  0
LWPOLYLINE
  5
125
100
AcDbEntity
  8
0
370
              15
390
0
  6
Continuous
 62
               7
100
AcDbPolyline
 90
        8
 70
             129
 10
881.16965300760796
 20
-1323.2803245764478
 10
881.16965300760796
 20
-1329.2777132700237
 10
871.66845608960466
 20
-1329.2777132700237
 10
871.66845608960466
 20
-1353.7286765335325
 10
863.31307882782187
 20
-1353.7286765335325
 10
863.31307882782187
 20
-1329.2777132700237
 10
853.98012188151245
 20
-1329.2777132700237
 10
853.98012188151245
 20
-1323.2803245764478
  0
LWPOLYLINE
  5
126
100
AcDbEntity
  8
0
370
              15
390
0
  6
Continuous
 62
               7
100
AcDbPolyline
 90
      101
 70
             128
 10
893.8979448381649
 20
-1324.0085730693843
 10
893.91329486695088
 20
-1324.0042123126989
 42
-0.0222221607812931
 10
894.20329944362106
 20
-1323.9355878474546
 10
894.21909320760778
 20
-1323.932584424359
 42
-0.0146883565592267
 10
894.48179591283883
 20
-1323.8905812374082
 42
-0.0127458844184666
 10
894.74643487999231
 20
-1323.8630442693357
 10
894.80888995830458
 20
-1323.8581508467475
 42
-0.01980990185689
 10
895.19973906777761
 20
-1323.8430656893511
 10
895.25155053722528
 20
-1323.8431194650161
 42
-0.0147617382762108
 10
895.74617399820488
 20
-1323.8582394902612
 10
895.81886545308066
 20
-1323.8626120971489
 42
-0.0162624549000684
 10
896.20901908253893
 20
-1323.8988449724209
 10
896.3305514737873
 20
-1323.9141315314159
 42
-0.0080020874667715
 10
896.47613050488962
 20
-1323.9348143786858
 10
896.51444997548151
 20
-1323.9408856564964
 42
-0.005382192968109
 10
896.58293408079953
 20
-1323.9524931803185
 10
895.85652838160092
 20
-1326.1334216360324
 42
0.010866775739817
 10
895.78921131146922
 20
-1326.1202345208123
 10
895.75174328828052
 20
-1326.113736778218
 42
0.0170663203306539
 10
895.60852650137053
 20
-1326.0939071809269
 10
895.54065116868207
 20
-1326.0868600103388
 42
0.0220162375278043
 10
895.26027176082448
 20
-1326.0701776495687
 10
895.18241619377443
 20
-1326.0689782823022
 42
0.0282606915783708
 10
894.84677987019677
 20
-1326.0827815592711
 10
894.80286659642081
 20
-1326.0870815492751
 42
0.0169677213689478
 10
894.55694210146544
 20
-1326.1196185988269
 42
0.0190576269868722
 10
894.31403413888518
 20
-1326.1697654709333
 10
894.30777495077461
 20
-1326.1713084450425
 42
0.0213685642845283
 10
894.05739046629458
 20
-1326.244508730148
 10
894.05190057138066
 20
-1326.2463717262062
 42
0.0237595297586609
 10
893.79840568648478
 20
-1326.3460562481005
 10
893.79330361245229
 20
-1326.34834802358
 42
0.0261857468812785
 10
893.54113283622155
 20
-1326.4778843609549
 10
893.53070664713209
 20
-1326.4839498354247
 42
0.0272553062021734
 10
893.29427687189695
 20
-1326.6393220413674
 10
893.25951385838914
 20
-1326.6649831894583
 42
0.0325996893175725
 10
893.10935851473596
 20
-1326.7917310624309
 10
893.08564908561027
 20
-1326.8145490909462
 42
0.0138050960644999
 10
892.99376592940268
 20
-1326.9079987524956
 42
0.0125280103813456
 10
892.90692339656425
 20
-1327.0061620791014
 10
892.8832429516608
 20
-1327.0343205772829
 42
0.0205218024732364
 10
892.75814287614878
 20
-1327.1961138915096
 10
892.73567653565999
 20
-1327.2277736213389
 42
0.0163110129583472
 10
892.57996615641036
 20
-1327.4631040564061
 10
892.57724226035771
 20
-1327.4675278183943
 42
0.0131897341901279
 10
892.43044173945009
 20
-1327.7206599107617
 10
892.42874164408533
 20
-1327.7237781498943
 42
0.0107895576060733
 10
892.29096494187638
 20
-1327.9899933595257
 10
892.29023205234944
 20
-1327.9914875921761
 42
0.0091371507215289
 10
892.16175210370113
 20
-1328.2660127899333
 10
892.13200647229087
 20
-1328.3327192970946
 42
0.0135418326354831
 10
891.96029253321922
 20
-1328.747657082363
 10
891.92668772478521
 20
-1328.8355232246436
 42
0.0092834542410131
 10
891.75545866486391
 20
-1329.30942172295
 10
891.72984153714822
 20
-1329.3846627927376
 42
0.0054261043576785
 10
891.62220338885345
 20
-1329.7124267658082
 10
891.60467740267029
 20
-1329.7678149280564
 42
0.0008225090820305
 10
891.53600735084592
 20
-1329.9860836861876
 10
890.55131821891246
 20
-1333.0109749794442
 10
893.78394205898633
 20
-1333.0109749794442
 10
893.27974962913288
 20
-1334.9154532777966
 10
890.02369334714956
 20
-1334.9154532777966
 10
884.19454431479573
 20
-1353.7286763438015
 10
882.36944670448543
 20
-1353.7286763438015
 10
888.20412473998636
 20
-1334.9154532777966
 10
885.79900837094601
 20
-1334.9154532777966
 10
886.30320080079946
 20
-1333.0109749794442
 10
888.73174961174948
 20
-1333.0109749794442
 10
889.59190452993812
 20
-1330.3745619787453
 42
-0.0005863560633813
 10
889.62863920813675
 20
-1330.2577355584692
 10
889.70472704180202
 20
-1330.0167432590681
 42
-0.0087522378925471
 10
889.90419518525914
 20
-1329.4214671719208
 10
889.99645946067494
 20
-1329.1613270034013
 42
-0.0077400953828832
 10
890.25439311980347
 20
-1328.4683223258603
 10
890.27015809138004
 20
-1328.4278914424801
 42
-0.0082369946330535
 10
890.51724256199429
 20
-1327.8238123762785
 42
-0.0085725238365598
 10
890.7844886579943
 20
-1327.2283863369978
 10
890.88611825900728
 20
-1327.0119652350008
 42
-0.0168109410596619
 10
891.1730626877345
 20
-1326.4507577089021
 10
891.29890607822097
 20
-1326.2237936758554
 42
-0.0007817726858293
 10
891.35319042825017
 20
-1326.1262494308735
 10
891.35331873426105
 20
-1326.1260197221486
 42
-0.0036626142156972
 10
891.40820659828876
 20
-1326.0294218421686
 42
-0.0080221150683728
 10
891.4653308536914
 20
-1325.9341426074225
 10
891.49603080505665
 20
-1325.8847516582937
 42
-0.0202139325566736
 10
891.62368654486716
 20
-1325.696770057607
 10
891.67775401005099
 20
-1325.6236911933713
 42
-0.0249323791802345
 10
891.93691680376639
 20
-1325.307645951221
 10
891.96105661789716
 20
-1325.2810316783043
 42
-0.0242132121536776
 10
892.30073735943813
 20
-1324.9411481921013
 10
892.34864893219356
 20
-1324.897639055911
 42
-0.0251017527859704
 10
892.63263063283057
 20
-1324.6646463101497
 10
892.63407610964634
 20
-1324.6635770525693
 42
-0.013086806903873
 10
892.93233675960164
 20
-1324.4547965840281
 10
892.93389857874422
 20
-1324.4537631437531
 42
-0.0290329526392233
 10
893.24500972013766
 20
-1324.2729376421239
 10
893.27485528212628
 20
-1324.257835259283
 42
-0.0160250190046709
 10
893.54075969588826
 20
-1324.1338191490709
 42
-0.0267600374780434
 10
893.81603577335625
 20
-1324.0330708285226
 10
893.84277169287793
 20
-1324.0248782696967
 42
-0.0049981587669942
 10
893.8979448381649
 20
-1324.0085730693843
 42
-0.0049981587669942
  0
LWPOLYLINE
  5
127
100
AcDbEntity
  8
0
370
              15
390
0
  6
Continuous
 62
               7
100
AcDbPolyline
 90
      118
 70
             128
 10
913.71231240261181
 20
-1333.0849583072716
 10
915.58743432711128
 20
-1333.0849583072716
 10
914.74939542151139
 20
-1335.7665248336716
 42
-0.001058722920382
 10
914.780851237153
 20
-1335.7296203002345
 10
914.83904532771521
 20
-1335.6616380441405
 42
-0.0071874740412293
 10
914.98942054580664
 20
-1335.4909973521189
 10
915.13114331907559
 20
-1335.3347612107982
 42
-0.0148118053509925
 10
915.58127261178765
 20
-1334.8671473647858
 10
915.66849494669191
 20
-1334.7817500439298
 42
-0.0086273358688711
 10
916.00404374769846
 20
-1334.4643744099153
 10
916.04787746391514
 20
-1334.4243247655907
 42
-0.0103138323113996
 10
916.30590116615792
 20
-1334.198161628244
 10
916.35167557248371
 20
-1334.1596795809849
 42
-0.006020674856387
 10
916.52452363659722
 20
-1334.0178849302292
 10
916.52655476749158
 20
-1334.0162592245913
 42
-0.0067069027284746
 10
916.69884758214562
 20
-1333.882108590803
 10
916.70139634807242
 20
-1333.880178420927
 42
-0.0076184352039504
 10
916.87230161394302
 20
-1333.7548035456839
 42
-0.0089652861671889
 10
917.04726257668005
 20
-1333.6351702853499
 10
917.08361429682316
 20
-1333.6112590718681
 42
-0.0156916245933725
 10
917.27957379398254
 20
-1333.490996585394
 42
-0.0023299011060103
 10
917.47983583794917
 20
-1333.3778186458605
 10
917.4952199703423
 20
-1333.3692186507885
 42
-0.0107669341484195
 10
917.72945679544193
 20
-1333.2448185174399
 10
917.75172159651856
 20
-1333.2336017674891
 42
-0.007805804589717
 10
918.03531171447059
 20
-1333.0962403118508
 10
918.04521880218044
 20
-1333.0916311839821
 42
-0.0181829330471043
 10
918.35552820679595
 20
-1332.9607674428864
 10
918.40958364936262
 20
-1332.940252322943
 42
-0.020841153602777
 10
918.758668616813
 20
-1332.8241618604497
 10
918.77302471693827
 20
-1332.8200434154969
 42
-0.0222799817136565
 10
919.10174451085777
 20
-1332.741401849356
 10
919.11063347409777
 20
-1332.7396898387703
 42
-0.0215509523882616
 10
919.42710444237446
 20
-1332.6927741502368
 10
919.46958640342677
 20
-1332.6883366234456
 42
-0.0182545924871645
 10
919.70369518272878
 20
-1332.6724927980549
 10
919.74309619907103
 20
-1332.6712682529758
 42
-0.0072962856532422
 10
919.8990190787656
 20
-1332.6686989244536
 10
919.92811874933966
 20
-1332.6686440890498
 42
-0.0059227516308165
 10
920.02586824848265
 20
-1332.6696178008401
 10
920.05511046597007
 20
-1332.670255567444
 42
-0.0011833111918332
 10
920.09436174968698
 20
-1332.6712045717536
 10
919.29897515407981
 20
-1335.2099385168526
 42
0.0143932051544099
 10
919.272573771726
 20
-1335.1997395468061
 10
919.26530179931194
 20
-1335.1971683279498
 42
0.0234388603523887
 10
919.22347093337828
 20
-1335.1845490922344
 10
919.21478927046712
 20
-1335.1823681302296
 42
0.0199162742986188
 10
919.15450043638464
 20
-1335.1697513948941
 10
919.13368649858091
 20
-1335.1662541954661
 42
0.0293643550668272
 10
919.0306116398209
 20
-1335.1551041498128
 10
919.00592645910137
 20
-1335.1538925327943
 42
0.0214606686870471
 10
918.85278554314675
 20
-1335.152953972377
 10
918.84341363233102
 20
-1335.1532988839213
 42
0.0167564054191849
 10
918.67189344121903
 20
-1335.1653759262897
 10
918.66343364846352
 20
-1335.1662572667165
 42
0.0137677553247786
 10
918.47608033519771
 20
-1335.19100657526
 10
918.46872859569112
 20
-1335.1921844952278
 42
0.0118497261487562
 10
918.2682308315882
 20
-1335.2292018454173
 10
918.26208082434255
 20
-1335.230488708137
 42
0.0106421143891799
 10
918.05119993705557
 20
-1335.2793210837124
 10
918.04629112866837
 20
-1335.2805684263969
 42
0.0099746379701262
 10
917.82783265950798
 20
-1335.340742954711
 10
917.76628461933569
 20
-1335.3590248333423
 42
0.0191613675864349
 10
917.43030015681722
 20
-1335.4730022136305
 10
917.34224038407422
 20
-1335.5066891239535
 42
0.0205274080145956
 10
916.956933612174
 20
-1335.6725175317799
 10
916.89928433019077
 20
-1335.7001854963528
 42
0.018125691219481
 10
916.64100738952493
 20
-1335.83586931533
 10
916.58805200620952
 20
-1335.8661869285456
 42
0.0140709242410374
 10
916.44309707158254
 20
-1335.9546816019792
 10
916.41684820297519
 20
-1335.9717384206874
 42
0.0086667884383526
 10
916.32792204142152
 20
-1336.0317410885775
 42
0.003640819202258
 10
916.24048880340024
 20
-1336.0939219463612
 10
916.20526192891953
 20
-1336.1193628922827
 42
0.0052260781275362
 10
916.0490332315336
 20
-1336.234695278913
 10
916.032826375269
 20
-1336.2469233895349
 42
0.0050024435889563
 10
915.84682303222974
 20
-1336.3902059577817
 10
915.83150487569492
 20
-1336.4022519802429
 42
0.0136138710269109
 10
915.62106360737607
 20
-1336.5772184851505
 10
915.58739573157595
 20
-1336.6067974578705
 42
0.0172815186912965
 10
915.32299218991363
 20
-1336.8557941304939
 10
915.32042984407099
 20
-1336.858379947641
 42
0.018940385799676
 10
915.0698480454887
 20
-1337.1311852124491
 10
915.03721655195727
 20
-1337.1695291439407
 42
0.0185044199503083
 10
914.84526011297578
 20
-1337.4127777250656
 42
0.0088565243900229
 10
914.66680000634813
 20
-1337.6662941452144
 10
914.65762202669885
 20
-1337.6798355249755
 42
0.0157195347226663
 10
914.47440142036362
 20
-1337.969357734293
 10
914.42831847844025
 20
-1338.0475099313012
 42
0.0095451879781015
 10
914.26323292829625
 20
-1338.3401045736687
 10
914.25208500936219
 20
-1338.3607752458088
 42
0.0100351706255223
 10
914.12004126020724
 20
-1338.6178308062913
 42
0.0086935915415017
 10
913.99771010841994
 20
-1338.8796639516809
 10
913.9943893669988
 20
-1338.8871062746675
 42
0.007258017486468
 10
913.87404291505391
 20
-1339.1676982662502
 10
913.87078128174744
 20
-1339.1756182922686
 42
0.0060005122618126
 10
913.75158061340085
 20
-1339.475227962884
 10
913.74836963506323
 20
-1339.4835894907783
 42
0.0049017786978926
 10
913.62946947620401
 20
-1339.8025184713877
 10
913.62630366981534
 20
-1339.8112714086133
 42
0.0039415167603427
 10
913.50686739175615
 20
-1340.1498134710337
 10
913.50373628910643
 20
-1340.1589166719025
 42
0.0031035838761432
 10
913.38293150341997
 20
-1340.5173565336561
 10
913.37982145888304
 20
-1340.5267771550507
 42
0.0025070747154839
 10
913.25692010756677
 20
-1340.9054243719977
 10
913.21962621114221
 20
-1341.0223160372477
 42
0.0029081910284596
 10
913.0276079133364
 20
-1341.6364796955231
 10
912.98680474481444
 20
-1341.7697029378153
 42
0.0009266453734512
 10
912.71838737048665
 20
-1342.6519273977815
 10
912.69749989786601
 20
-1342.7210392769516
 42
-0.0005809993665352
 10
912.42016321726794
 20
-1343.6348473836138
 10
912.35388141900944
 20
-1343.8523323157262
 42
-0.0012018708169591
 10
912.20689710956572
 20
-1344.3304949802941
 10
912.15457725796898
 20
-1344.4992541212605
 42
-0.0002691059617996
 10
912.11100777683168
 20
-1344.6395217415018
 10
909.27805187854244
 20
-1353.7286763438015
 10
907.46006298656391
 20
-1353.7286763438015
 10
913.71231240261181
 20
-1333.0849583072716
  0
SPLINE
  5
128
100
AcDbEntity
  8
0
370
              15
390
0
  6
Continuous
 62
               7
100
AcDbSpline
210
0.0
220
0.0
230
1.0
 70
              13
 71
               2
 72
             782
 73
             779
 74
               0
 42
0.000001
 43
0.000001
 40
0.0
 40
0.0
 40
0.0
 40
1.0
 40
1.0
 40
2.0
 40
2.0
 40
3.0
 40
3.0
 40
4.0
 40
4.0
 40
5.0
 40
5.0
 40
6.0
 40
6.0
 40
7.0
 40
7.0
 40
8.0
 40
8.0
 40
9.0
 40
9.0
 40
10.0
 40
10.0
 40
11.0
 40
11.0
 40
12.0
 40
12.0
 40
13.0
 40
13.0
 40
14.0
 40
14.0
 40
15.0
 40
15.0
 40
16.0
 40
16.0
 40
17.0
 40
17.0
 40
18.0
 40
18.0
 40
19.0
 40
19.0
 40
20.0
 40
20.0
 40
21.0
 40
21.0
 40
22.0
 40
22.0
 40
23.0
 40
23.0
 40
24.0
 40
24.0
 40
25.0
 40
25.0
 40
26.0
 40
26.0
 40
27.0
 40
27.0
 40
28.0
 40
28.0
 40
29.0
 40
29.0
 40
30.0
 40
30.0
 40
31.0
 40
31.0
 40
32.0
 40
32.0
 40
33.0
 40
33.0
 40
34.0
 40
34.0
 40
35.0
 40
35.0
 40
36.0
 40
36.0
 40
37.0
 40
37.0
 40
38.0
 40
38.0
 40
39.0
 40
39.0
 40
40.0
 40
40.0
 40
41.0
 40
41.0
 40
42.0
 40
42.0
 40
43.0
 40
43.0
 40
44.0
 40
44.0
 40
45.0
 40
45.0
 40
46.0
 40
46.0
 40
47.0
 40
47.0
 40
48.0
 40
48.0
 40
49.0
 40
49.0
 40
50.0
 40
50.0
 40
51.0
 40
51.0
 40
52.0
 40
52.0
 40
53.0
 40
53.0
 40
54.0
 40
54.0
 40
55.0
 40
55.0
 40
56.0
 40
56.0
 40
57.0
 40
57.0
 40
58.0
 40
58.0
 40
59.0
 40
59.0
 40
60.0
 40
60.0
 40
61.0
 40
61.0
 40
62.0
 40
62.0
 40
63.0
 40
63.0
 40
64.0
 40
64.0
 40
65.0
 40
65.0
 40
66.0
 40
66.0
 40
67.0
 40
67.0
 40
68.0
 40
68.0
 40
69.0
 40
69.0
 40
70.0
 40
70.0
 40
71.0
 40
71.0
 40
72.0
 40
72.0
 40
73.0
 40
73.0
 40
74.0
 40
74.0
 40
75.0
 40
75.0
 40
76.0
 40
76.0
 40
77.0
 40
77.0
 40
78.0
 40
78.0
 40
79.0
 40
79.0
 40
80.0
 40
80.0
 40
81.0
 40
81.0
 40
82.0
 40
82.0
 40
83.0
 40
83.0
 40
84.0
 40
84.0
 40
85.0
 40
85.0
 40
86.0
 40
86.0
 40
87.0
 40
87.0
 40
88.0
 40
88.0
 40
89.0
 40
89.0
 40
90.0
 40
90.0
 40
91.0
 40
91.0
 40
92.0
 40
92.0
 40
93.0
 40
93.0
 40
94.0
 40
94.0
 40
95.0
 40
95.0
 40
96.0
 40
96.0
 40
97.0
 40
97.0
 40
98.0
 40
98.0
 40
99.0
 40
99.0
 40
100.0
 40
100.0
 40
101.0
 40
101.0
 40
102.0
 40
102.0
 40
103.0
 40
103.0
 40
104.0
 40
104.0
 40
105.0
 40
105.0
 40
106.0
 40
106.0
 40
107.0
 40
107.0
 40
108.0
 40
108.0
 40
109.0
 40
109.0
 40
110.0
 40
110.0
 40
111.0
 40
111.0
 40
112.0
 40
112.0
 40
113.0
 40
113.0
 40
114.0
 40
114.0
 40
115.0
 40
115.0
 40
116.0
 40
116.0
 40
117.0
 40
117.0
 40
118.0
 40
118.0
 40
119.0
 40
119.0
 40
120.0
 40
120.0
 40
121.0
 40
121.0
 40
122.0
 40
122.0
 40
123.0
 40
123.0
 40
124.0
 40
124.0
 40
125.0
 40
125.0
 40
126.0
 40
126.0
 40
127.0
 40
127.0
 40
128.0
 40
128.0
 40
129.0
 40
129.0
 40
130.0
 40
130.0
 40
131.0
 40
131.0
 40
132.0
 40
132.0
 40
133.0
 40
133.0
 40
134.0
 40
134.0
 40
135.0
 40
135.0
 40
136.0
 40
136.0
 40
137.0
 40
137.0
 40
138.0
 40
138.0
 40
139.0
 40
139.0
 40
140.0
 40
140.0
 40
141.0
 40
141.0
 40
142.0
 40
142.0
 40
143.0
 40
143.0
 40
144.0
 40
144.0
 40
145.0
 40
145.0
 40
146.0
 40
146.0
 40
147.0
 40
147.0
 40
148.0
 40
148.0
 40
149.0
 40
149.0
 40
150.0
 40
150.0
 40
151.0
 40
151.0
 40
152.0
 40
152.0
 40
153.0
 40
153.0
 40
154.0
 40
154.0
 40
155.0
 40
155.0
 40
156.0
 40
156.0
 40
157.0
 40
157.0
 40
158.0
 40
158.0
 40
159.0
 40
159.0
 40
160.0
 40
160.0
 40
161.0
 40
161.0
 40
162.0
 40
162.0
 40
163.0
 40
163.0
 40
164.0
 40
164.0
 40
165.0
 40
165.0
 40
166.0
 40
166.0
 40
167.0
 40
167.0
 40
168.0
 40
168.0
 40
169.0
 40
169.0
 40
170.0
 40
170.0
 40
171.0
 40
171.0
 40
172.0
 40
172.0
 40
173.0
 40
173.0
 40
174.0
 40
174.0
 40
175.0
 40
175.0
 40
176.0
 40
176.0
 40
177.0
 40
177.0
 40
178.0
 40
178.0
 40
179.0
 40
179.0
 40
180.0
 40
180.0
 40
181.0
 40
181.0
 40
182.0
 40
182.0
 40
183.0
 40
183.0
 40
184.0
 40
184.0
 40
185.0
 40
185.0
 40
186.0
 40
186.0
 40
187.0
 40
187.0
 40
188.0
 40
188.0
 40
189.0
 40
189.0
 40
190.0
 40
190.0
 40
191.0
 40
191.0
 40
192.0
 40
192.0
 40
193.0
 40
193.0
 40
194.0
 40
194.0
 40
195.0
 40
195.0
 40
196.0
 40
196.0
 40
197.0
 40
197.0
 40
198.0
 40
198.0
 40
199.0
 40
199.0
 40
200.0
 40
200.0
 40
201.0
 40
201.0
 40
202.0
 40
202.0
 40
203.0
 40
203.0
 40
204.0
 40
204.0
 40
205.0
 40
205.0
 40
206.0
 40
206.0
 40
207.0
 40
207.0
 40
208.0
 40
208.0
 40
209.0
 40
209.0
 40
210.0
 40
210.0
 40
211.0
 40
211.0
 40
212.0
 40
212.0
 40
213.0
 40
213.0
 40
214.0
 40
214.0
 40
215.0
 40
215.0
 40
216.0
 40
216.0
 40
217.0
 40
217.0
 40
218.0
 40
218.0
 40
219.0
 40
219.0
 40
220.0
 40
220.0
 40
221.0
 40
221.0
 40
222.0
 40
222.0
 40
223.0
 40
223.0
 40
224.0
 40
224.0
 40
225.0
 40
225.0
 40
226.0
 40
226.0
 40
227.0
 40
227.0
 40
228.0
 40
228.0
 40
229.0
 40
229.0
 40
230.0
 40
230.0
 40
231.0
 40
231.0
 40
232.0
 40
232.0
 40
233.0
 40
233.0
 40
234.0
 40
234.0
 40
235.0
 40
235.0
 40
236.0
 40
236.0
 40
237.0
 40
237.0
 40
238.0
 40
238.0
 40
239.0
 40
239.0
 40
240.0
 40
240.0
 40
241.0
 40
241.0
 40
242.0
 40
242.0
 40
243.0
 40
243.0
 40
244.0
 40
244.0
 40
245.0
 40
245.0
 40
246.0
 40
246.0
 40
247.0
 40
247.0
 40
248.0
 40
248.0
 40
249.0
 40
249.0
 40
250.0
 40
250.0
 40
251.0
 40
251.0
 40
252.0
 40
252.0
 40
253.0
 40
253.0
 40
254.0
 40
254.0
 40
255.0
 40
255.0
 40
256.0
 40
256.0
 40
257.0
 40
257.0
 40
258.0
 40
258.0
 40
259.0
 40
259.0
 40
260.0
 40
260.0
 40
261.0
 40
261.0
 40
262.0
 40
262.0
 40
263.0
 40
263.0
 40
264.0
 40
264.0
 40
265.0
 40
265.0
 40
266.0
 40
266.0
 40
267.0
 40
267.0
 40
268.0
 40
268.0
 40
269.0
 40
269.0
 40
270.0
 40
270.0
 40
271.0
 40
271.0
 40
272.0
 40
272.0
 40
273.0
 40
273.0
 40
274.0
 40
274.0
 40
275.0
 40
275.0
 40
276.0
 40
276.0
 40
277.0
 40
277.0
 40
278.0
 40
278.0
 40
279.0
 40
279.0
 40
280.0
 40
280.0
 40
281.0
 40
281.0
 40
282.0
 40
282.0
 40
283.0
 40
283.0
 40
284.0
 40
284.0
 40
285.0
 40
285.0
 40
286.0
 40
286.0
 40
287.0
 40
287.0
 40
288.0
 40
288.0
 40
289.0
 40
289.0
 40
290.0
 40
290.0
 40
291.0
 40
291.0
 40
292.0
 40
292.0
 40
293.0
 40
293.0
 40
294.0
 40
294.0
 40
295.0
 40
295.0
 40
296.0
 40
296.0
 40
297.0
 40
297.0
 40
298.0
 40
298.0
 40
299.0
 40
299.0
 40
300.0
 40
300.0
 40
301.0
 40
301.0
 40
302.0
 40
302.0
 40
303.0
 40
303.0
 40
304.0
 40
304.0
 40
305.0
 40
305.0
 40
306.0
 40
306.0
 40
307.0
 40
307.0
 40
308.0
 40
308.0
 40
309.0
 40
309.0
 40
310.0
 40
310.0
 40
311.0
 40
311.0
 40
312.0
 40
312.0
 40
313.0
 40
313.0
 40
314.0
 40
314.0
 40
315.0
 40
315.0
 40
316.0
 40
316.0
 40
317.0
 40
317.0
 40
318.0
 40
318.0
 40
319.0
 40
319.0
 40
320.0
 40
320.0
 40
321.0
 40
321.0
 40
322.0
 40
322.0
 40
323.0
 40
323.0
 40
324.0
 40
324.0
 40
325.0
 40
325.0
 40
326.0
 40
326.0
 40
327.0
 40
327.0
 40
328.0
 40
328.0
 40
329.0
 40
329.0
 40
330.0
 40
330.0
 40
331.0
 40
331.0
 40
332.0
 40
332.0
 40
333.0
 40
333.0
 40
334.0
 40
334.0
 40
335.0
 40
335.0
 40
336.0
 40
336.0
 40
337.0
 40
337.0
 40
338.0
 40
338.0
 40
339.0
 40
339.0
 40
340.0
 40
340.0
 40
341.0
 40
341.0
 40
342.0
 40
342.0
 40
343.0
 40
343.0
 40
344.0
 40
344.0
 40
345.0
 40
345.0
 40
346.0
 40
346.0
 40
347.0
 40
347.0
 40
348.0
 40
348.0
 40
349.0
 40
349.0
 40
350.0
 40
350.0
 40
351.0
 40
351.0
 40
352.0
 40
352.0
 40
353.0
 40
353.0
 40
354.0
 40
354.0
 40
355.0
 40
355.0
 40
356.0
 40
356.0
 40
357.0
 40
357.0
 40
358.0
 40
358.0
 40
359.0
 40
359.0
 40
360.0
 40
360.0
 40
361.0
 40
361.0
 40
362.0
 40
362.0
 40
363.0
 40
363.0
 40
364.0
 40
364.0
 40
365.0
 40
365.0
 40
366.0
 40
366.0
 40
367.0
 40
367.0
 40
368.0
 40
368.0
 40
369.0
 40
369.0
 40
370.0
 40
370.0
 40
371.0
 40
371.0
 40
372.0
 40
372.0
 40
373.0
 40
373.0
 40
374.0
 40
374.0
 40
375.0
 40
375.0
 40
376.0
 40
376.0
 40
377.0
 40
377.0
 40
378.0
 40
378.0
 40
379.0
 40
379.0
 40
380.0
 40
380.0
 40
381.0
 40
381.0
 40
382.0
 40
382.0
 40
383.0
 40
383.0
 40
384.0
 40
384.0
 40
385.0
 40
385.0
 40
386.0
 40
386.0
 40
387.0
 40
387.0
 40
388.0
 40
388.0
 40
389.0
 40
389.0
 40
389.0
 10
924.04101685334444
 20
-1333.0740319439092
 30
0.0
 41
1.0
 10
924.85944096206492
 20
-1333.0740319439092
 30
0.0
 41
1.0
 10
925.6778650707854
 20
-1333.0740319439092
 30
0.0
 41
1.0
 10
925.26411133526858
 20
-1334.4166582081589
 30
0.0
 41
1.0
 10
924.85035759975187
 20
-1335.7592844724086
 30
0.0
 41
1.0
 10
924.86869709490952
 20
-1335.7305836995129
 30
0.0
 41
0.9999957264344712
 10
924.88720409173141
 20
-1335.7019906493761
 30
0.0
 41
1.0
 10
924.9176334158783
 20
-1335.6549777709854
 30
0.0
 41
1.0
 10
924.94806274002508
 20
-1335.6079648925947
 30
0.0
 41
1.0
 10
925.02742838513223
 20
-1335.48534608569
 30
0.0
 41
0.9995394069081438
 10
925.11408677668555
 20
-1335.3677680239464
 30
0.0
 41
1.0
 10
925.14984363894439
 20
-1335.3192531313543
 30
0.0
 41
1.0
 10
925.18560050120323
 20
-1335.2707382387621
 30
0.0
 41
1.0
 10
925.31932716902168
 20
-1335.0892979636349
 30
0.0
 41
0.9994460617143249
 10
925.46482765030885
 20
-1334.9171555659864
 30
0.0
 41
1.0
 10
925.46921583128255
 20
-1334.9119638856055
 30
0.0
 41
1.0
 10
925.47360401225615
 20
-1334.9067722052243
 30
0.0
 41
1.0
 10
925.61032813159534
 20
-1334.7450131683381
 30
0.0
 41
0.9994359394934509
 10
925.7576023619481
 20
-1334.592796967172
 30
0.0
 41
1.0
 10
925.75998571590208
 20
-1334.5903336367983
 30
0.0
 41
1.0
 10
925.76236906985594
 20
-1334.5878703064245
 30
0.0
 41
1.0
 10
925.90487659229973
 20
-1334.4405807660073
 30
0.0
 41
0.9995293688568286
 10
926.05614827328179
 20
-1334.3023075538431
 30
0.0
 41
1.0
 10
926.07544203253997
 20
-1334.2846716681966
 30
0.0
 41
1.0
 10
926.09473579179803
 20
-1334.2670357825502
 30
0.0
 41
1.0
 10
926.20741995425931
 20
-1334.164034341683
 30
0.0
 41
0.9997087614802969
 10
926.32494284321888
 20
-1334.0665900608813
 30
0.0
 41
1.0
 10
926.34410891641028
 20
-1334.0506984823601
 30
0.0
 41
1.0
 10
926.36327498960179
 20
-1334.0348069038391
 30
0.0
 41
1.0
 10
926.44246573218697
 20
-1333.9691457800727
 30
0.0
 41
0.999959533869677
 10
926.52282500302908
 20
-1333.9049200494283
 30
0.0
 41
1.0
 10
926.60318427388438
 20
-1333.8406943187733
 30
0.0
 41
0.9999749417504023
 10
926.6844448082295
 20
-1333.7776127648256
 30
0.0
 41
1.0
 10
926.705430954402
 20
-1333.761321477516
 30
0.0
 41
1.0
 10
926.72641710057451
 20
-1333.7450301902068
 30
0.0
 41
1.0
 10
926.8109849858663
 20
-1333.6793811803736
 30
0.0
 41
0.9999792037120698
 10
926.89639258563011
 20
-1333.6148283987345
 30
0.0
 41
1.0
 10
926.91721741154231
 20
-1333.5990885764763
 30
0.0
 41
1.0
 10
926.93804223745451
 20
-1333.5833487542179
 30
0.0
 41
1.0
 10
926.98180018542234
 20
-1333.5502756170736
 30
0.0
 41
0.9999993374031644
 10
927.02548187154287
 20
-1333.5171018216668
 30
0.0
 41
1.0
 10
927.06916355768954
 20
-1333.4839280262402
 30
0.0
 41
0.9999160953816962
 10
927.1136899686129
 20
-1333.4518969610392
 30
0.0
 41
1.0
 10
927.14651185602884
 20
-1333.4282858054571
 30
0.0
 41
1.0
 10
927.17933374344466
 20
-1333.4046746498748
 30
0.0
 41
1.0
 10
927.28950392920319
 20
-1333.3254212735069
 30
0.0
 41
0.9980964527231783
 10
927.40859292270397
 20
-1333.2603338006506
 30
0.0
 41
1.0
 10
927.4456255296318
 20
-1333.2400938210576
 30
0.0
 41
1.0
 10
927.48265813655951
 20
-1333.2198538414648
 30
0.0
 41
1.0
 10
927.66198514983216
 20
-1333.1218435907638
 30
0.0
 41
0.9984572810572499
 10
927.85107371619188
 20
-1333.044321329417
 30
0.0
 41
1.0
 10
927.85471998558842
 20
-1333.0428264370789
 30
0.0
 41
1.0
 10
927.85836625498484
 20
-1333.0413315447406
 30
0.0
 41
1.0
 10
928.04016228255182
 20
-1332.9667990680703
 30
0.0
 41
0.9987838528034101
 10
928.22841494111003
 20
-1332.9105334279047
 30
0.0
 41
1.0
 10
928.23265289030633
 20
-1332.9092667742152
 30
0.0
 41
1.0
 10
928.23689083950262
 20
-1332.9080001205257
 30
0.0
 41
1.0
 10
928.41666759966688
 20
-1332.8542677877394
 30
0.0
 41
0.9990652816207128
 10
928.60041353138513
 20
-1332.8162641081969
 30
0.0
 41
1.0
 10
928.60560193241793
 20
-1332.8151910050901
 30
0.0
 41
1.0
 10
928.61079033345072
 20
-1332.8141179019833
 30
0.0
 41
1.0
 10
928.78415946310247
 20
-1332.7782604286547
 30
0.0
 41
0.9992909934270338
 10
928.95973522955933
 20
-1332.7555499961884
 30
0.0
 41
1.0
 10
929.13531099601903
 20
-1332.7328395637219
 30
0.0
 41
0.9994553539448211
 10
929.31200242911348
 20
-1332.7217602595153
 30
0.0
 41
1.0
 10
929.34743683690681
 20
-1332.7195383714677
 30
0.0
 41
1.0
 10
929.38287124470014
 20
-1332.7173164834201
 30
0.0
 41
1.0
 10
929.54909701127053
 20
-1332.7068934210083
 30
0.0
 41
0.9990928098293186
 10
929.71560680317407
 20
-1332.7106530622427
 30
0.0
 41
1.0
 10
929.7541686384493
 20
-1332.711523753776
 30
0.0
 41
1.0
 10
929.79273047372465
 20
-1332.712394445309
 30
0.0
 41
1.0
 10
929.88211659508022
 20
-1332.7144127034776
 30
0.0
 41
0.9998382089204461
 10
929.971372277863
 20
-1332.7196448300056
 30
0.0
 41
1.0
 10
929.97180218408153
 20
-1332.7196700309078
 30
0.0
 41
1.0
 10
929.97223209030005
 20
-1332.71969523181
 30
0.0
 41
1.0
 10
930.06062796064782
 20
-1332.7248769565333
 30
0.0
 41
0.9997558016758533
 10
930.14870853784998
 20
-1332.7339594719001
 30
0.0
 41
1.0
 10
930.14918467627922
 20
-1332.7340085693827
 30
0.0
 41
1.0
 10
930.14966081470857
 20
-1332.7340576668653
 30
0.0
 41
1.0
 10
930.23678911505033
 20
-1332.7430419872665
 30
0.0
 41
0.999656514418139
 10
930.32332696839285
 20
-1332.7565792939554
 30
0.0
 41
1.0
 10
930.32379289377036
 20
-1332.7566521796866
 30
0.0
 41
1.0
 10
930.32425881914787
 20
-1332.7567250654181
 30
0.0
 41
1.0
 10
930.40986482173491
 20
-1332.7701166006445
 30
0.0
 41
0.9995321806867472
 10
930.49449190206292
 20
-1332.7887170890738
 30
0.0
 41
1.0
 10
930.49488109663343
 20
-1332.7888026315393
 30
0.0
 41
1.0
 10
930.49527029120384
 20
-1332.7888881740048
 30
0.0
 41
1.0
 10
930.57911898238945
 20
-1332.8073175775025
 30
0.0
 41
0.9993819199219044
 10
930.6614655165871
 20
-1332.8315929607638
 30
0.0
 41
1.0
 10
930.66170395008521
 20
-1332.8316632498731
 30
0.0
 41
1.0
 10
930.66194238358332
 20
-1332.8317335389827
 30
0.0
 41
1.0
 10
930.74381205078305
 20
-1332.8558683440242
 30
0.0
 41
0.9992088568504687
 10
930.82350456977156
 20
-1332.8864335798189
 30
0.0
 41
1.0
 10
930.90318556065063
 20
-1332.916993180552
 30
0.0
 41
0.9990226101773113
 10
930.97985623055774
 20
-1332.9544706121665
 30
0.0
 41
1.0
 10
931.05651537235565
 20
-1332.9919424087198
 30
0.0
 41
0.9988424273972396
 10
931.12921899956723
 20
-1333.0366071839724
 30
0.0
 41
1.0
 10
931.12948670794708
 20
-1333.036771648045
 30
0.0
 41
1.0
 10
931.12975441632682
 20
-1333.0369361121175
 30
0.0
 41
1.0
 10
931.20299346029719
 20
-1333.0819298155143
 30
0.0
 41
0.9986928844490379
 10
931.27125632700643
 20
-1333.1341655497936
 30
0.0
 41
1.0
 10
931.2718376192297
 20
-1333.1346103630219
 30
0.0
 41
1.0
 10
931.27241891145309
 20
-1333.1350551762503
 30
0.0
 41
1.0
 10
931.34184436260784
 20
-1333.1881805369853
 30
0.0
 41
0.9986007262277996
 10
931.40527053237486
 20
-1333.2483413066791
 30
0.0
 41
1.0
 10
931.40616494783217
 20
-1333.2491896745141
 30
0.0
 41
1.0
 10
931.40705936328948
 20
-1333.2500380423494
 30
0.0
 41
1.0
 10
931.47227436397111
 20
-1333.3118955477134
 30
0.0
 41
0.9985581491381109
 10
931.53048197567227
 20
-1333.3803880379846
 30
0.0
 41
1.0
 10
931.53974042926814
 20
-1333.3912823956864
 30
0.0
 41
1.0
 10
931.548998882864
 20
-1333.4021767533882
 30
0.0
 41
1.0
 10
931.62572340175734
 20
-1333.4924579590636
 30
0.0
 41
0.9970460233521251
 10
931.68771530291701
 20
-1333.5934250432454
 30
0.0
 41
1.0
 10
931.70218466799633
 20
-1333.6169915023263
 30
0.0
 41
1.0
 10
931.71665403307566
 20
-1333.6405579614072
 30
0.0
 41
1.0
 10
931.75639073308741
 20
-1333.7052776854377
 30
0.0
 41
0.9988468816636175
 10
931.78973710383946
 20
-1333.7735101378667
 30
0.0
 41
1.0
 10
931.79677312633146
 20
-1333.7879070590052
 30
0.0
 41
1.0
 10
931.80380914882346
 20
-1333.8023039801437
 30
0.0
 41
1.0
 10
931.82308347459264
 20
-1333.8417425902976
 30
0.0
 41
0.9998431189997854
 10
931.8409488020859
 20
-1333.8818391447351
 30
0.0
 41
1.0
 10
931.8588141295661
 20
-1333.9219356991425
 30
0.0
 41
0.9999989989829229
 10
931.8767928530068
 20
-1333.9619815367682
 30
0.0
 41
1.0
 10
931.88296516459911
 20
-1333.9757297535766
 30
0.0
 41
1.0
 10
931.88913747619142
 20
-1333.989477970385
 30
0.0
 41
1.0
 10
931.91946082280026
 20
-1334.0570202415897
 30
0.0
 41
0.9998790356319554
 10
931.94766870293654
 20
-1334.1254729935231
 30
0.0
 41
1.0
 10
931.95450388422273
 20
-1334.142060094955
 30
0.0
 41
1.0
 10
931.96133906550881
 20
-1334.1586471963869
 30
0.0
 41
1.0
 10
931.98489672788992
 20
-1334.2158151512742
 30
0.0
 41
0.9998227574561194
 10
932.00628547627809
 20
-1334.2738294595488
 30
0.0
 41
1.0
 10
932.02767422466661
 20
-1334.3318437678242
 30
0.0
 41
0.9996797971041685
 10
932.04610050962549
 20
-1334.3908658869407
 30
0.0
 41
1.0
 10
932.05000431235158
 20
-1334.4033703451114
 30
0.0
 41
1.0
 10
932.05390811507777
 20
-1334.4158748032823
 30
0.0
 41
1.0
 10
932.0801420054878
 20
-1334.4999058387373
 30
0.0
 41
0.9979274938733899
 10
932.09536652896702
 20
-1334.5866101973979
 30
0.0
 41
1.0
 10
932.09759021622835
 20
-1334.5992741982195
 30
0.0
 41
1.0
 10
932.09981390348958
 20
-1334.6119381990409
 30
0.0
 41
1.0
 10
932.11074384318772
 20
-1334.6741847063311
 30
0.0
 41
0.9994985982138548
 10
932.11771200836483
 20
-1334.7369982074733
 30
0.0
 41
1.0
 10
932.12468017354161
 20
-1334.7998117086142
 30
0.0
 41
0.9996372611202314
 10
932.12825603930946
 20
-1334.8629092872966
 30
0.0
 41
1.0
 10
932.12842461679884
 20
-1334.8658839043792
 30
0.0
 41
1.0
 10
932.1285931942881
 20
-1334.8688585214618
 30
0.0
 41
1.0
 10
932.13250621503437
 20
-1334.9379053343109
 30
0.0
 41
0.9997730630738285
 10
932.1334745285227
 20
-1335.0070561583477
 30
0.0
 41
1.0
 10
932.13353163494071
 20
-1335.0111343374867
 30
0.0
 41
1.0
 10
932.13358874135884
 20
-1335.0152125166258
 30
0.0
 41
1.0
 10
932.13467126768285
 20
-1335.0925196989483
 30
0.0
 41
0.9998772614071049
 10
932.13333118095125
 20
-1335.1698228455173
 30
0.0
 41
1.0
 10
932.13324191775257
 20
-1335.1749720093476
 30
0.0
 41
1.0
 10
932.1331526545539
 20
-1335.1801211731779
 30
0.0
 41
1.0
 10
932.13163404142483
 20
-1335.2677226474079
 30
0.0
 41
0.9999415567328397
 10
932.12822173117911
 20
-1335.3552708090785
 30
0.0
 41
1.0
 10
932.1279804105036
 20
-1335.3614622688201
 30
0.0
 41
1.0
 10
932.12773908982808
 20
-1335.3676537285619
 30
0.0
 41
1.0
 10
932.12384413823145
 20
-1335.467584809714
 30
0.0
 41
0.9999716810426026
 10
932.11844555511266
 20
-1335.5674459479435
 30
0.0
 41
1.0
 10
932.11523275632408
 20
-1335.6268751975981
 30
0.0
 41
1.0
 10
932.11201995753549
 20
-1335.6863044472527
 30
0.0
 41
1.0
 10
932.10394604838268
 20
-1335.8356528485342
 30
0.0
 41
0.9999819129893133
 10
932.09407625676613
 20
-1335.9848933262474
 30
0.0
 41
1.0
 10
932.08420646514946
 20
-1336.1341338039588
 30
0.0
 41
1.0
 10
932.08176714458557
 20
-1336.1713268498081
 30
0.0
 41
1.0
 10
932.10446537841483
 20
-1336.1325858524815
 30
0.0
 41
0.9999982128087233
 10
932.12730993717685
 20
-1336.0939309585121
 30
0.0
 41
1.0
 10
932.15421949705933
 20
-1336.048397744461
 30
0.0
 41
1.0
 10
932.1811290569417
 20
-1336.0028645304101
 30
0.0
 41
1.0
 10
932.25779273546402
 20
-1335.8731432083457
 30
0.0
 41
0.9998609190057957
 10
932.33874004832671
 20
-1335.7460508264151
 30
0.0
 41
1.0
 10
932.36838836980814
 20
-1335.6995010934584
 30
0.0
 41
1.0
 10
932.39803669128969
 20
-1335.6529513605014
 30
0.0
 41
1.0
 10
932.4803089115286
 20
-1335.5237787905032
 30
0.0
 41
0.9999067609732311
 10
932.56607792099385
 20
-1335.3969011010604
 30
0.0
 41
1.0
 10
932.56848262419669
 20
-1335.3933438350027
 30
0.0
 41
1.0
 10
932.57088732739953
 20
-1335.3897865689451
 30
0.0
 41
1.0
 10
932.65184693045921
 20
-1335.2700234116171
 30
0.0
 41
0.9998784952151001
 10
932.73650054013933
 20
-1335.1528421949101
 30
0.0
 41
1.0
 10
932.82115414982047
 20
-1335.0356609782018
 30
0.0
 41
0.9998532968283074
 10
932.90977177064269
 20
-1334.9214480697319
 30
0.0
 41
1.0
 10
932.92973355963329
 20
-1334.8957207487124
 30
0.0
 41
1.0
 10
932.94969534862389
 20
-1334.8699934276931
 30
0.0
 41
1.0
 10
933.06817939838334
 20
-1334.7172878167232
 30
0.0
 41
0.9991551975794945
 10
933.19880384800786
 20
-1334.5748282546388
 30
0.0
 41
1.0
 10
933.20231346399044
 20
-1334.5710006530112
 30
0.0
 41
1.0
 10
933.20582307997302
 20
-1334.5671730513839
 30
0.0
 41
1.0
 10
933.32942829763431
 20
-1334.4323686925525
 30
0.0
 41
0.9997418144181058
 10
933.4590304373321
 20
-1334.3033192819428
 30
0.0
 41
1.0
 10
933.58863257703342
 20
-1334.1742698713299
 30
0.0
 41
0.9989238204633302
 10
933.72963512528463
 20
-1334.0577849092906
 30
0.0
 41
1.0
 10
933.77488280342322
 20
-1334.0204049176828
 30
0.0
 41
1.0
 10
933.82013048156182
 20
-1333.9830249260747
 30
0.0
 41
1.0
 10
933.96037053878285
 20
-1333.867169872784
 30
0.0
 41
0.9990825084096482
 10
934.11001047138814
 20
-1333.7637408749501
 30
0.0
 41
1.0
 10
934.12005583544374
 20
-1333.7567976618716
 30
0.0
 41
1.0
 10
934.13010119949922
 20
-1333.749854448793
 30
0.0
 41
1.0
 10
934.25965040399058
 20
-1333.6603118771179
 30
0.0
 41
0.9998164899825216
 10
934.39253460736836
 20
-1333.5757976356008
 30
0.0
 41
1.0
 10
934.40438016789165
 20
-1333.5682638690769
 30
0.0
 41
1.0
 10
934.41622572841493
 20
-1333.5607301025527
 30
0.0
 41
1.0
 10
934.52541881074217
 20
-1333.4912833940857
 30
0.0
 41
0.9997473449131407
 10
934.63762276799412
 20
-1333.4268144362686
 30
0.0
 41
1.0
 10
934.74982672523493
 20
-1333.3623454784577
 30
0.0
 41
0.9999327861145896
 10
934.86349533599548
 20
-1333.3004954867777
 30
0.0
 41
1.0
 10
934.86404733856193
 20
-1333.3001951280953
 30
0.0
 41
1.0
 10
934.86459934112838
 20
-1333.2998947694132
 30
0.0
 41
1.0
 10
934.97937195701593
 20
-1333.2374440603721
 30
0.0
 41
0.9996956420483266
 10
935.09708528285853
 20
-1333.1807305933962
 30
0.0
 41
1.0
 10
935.12752568774954
 20
-1333.166064616667
 30
0.0
 41
1.0
 10
935.15796609264044
 20
-1333.151398639938
 30
0.0
 41
1.0
 10
935.26094319938352
 20
-1333.101784981495
 30
0.0
 41
0.9998070570176161
 10
935.36578958832365
 20
-1333.0562543945944
 30
0.0
 41
1.0
 10
935.47063597726401
 20
-1333.0107238076935
 30
0.0
 41
0.9997827436147427
 10
935.57728891387512
 20
-1332.9696026363811
 30
0.0
 41
1.0
 10
935.59651176350621
 20
-1332.9621910627488
 30
0.0
 41
1.0
 10
935.61573461313719
 20
-1332.9547794891166
 30
0.0
 41
1.0
 10
935.76083324900947
 20
-1332.89883517054
 30
0.0
 41
0.9988031841976961
 10
935.9107036116136
 20
-1332.8573351063724
 30
0.0
 41
1.0
 10
935.93562085997746
 20
-1332.8504353605654
 30
0.0
 41
1.0
 10
935.96053810834144
 20
-1332.8435356147584
 30
0.0
 41
1.0
 10
936.12780813398876
 20
-1332.7972174723516
 30
0.0
 41
0.9984748040550077
 10
936.29916504263724
 20
-1332.7696232400867
 30
0.0
 41
1.0
 10
936.30390417888509
 20
-1332.7688600795734
 30
0.0
 41
1.0
 10
936.30864331513294
 20
-1332.7680969190601
 30
0.0
 41
1.0
 10
936.47052195128515
 20
-1332.7420290078219
 30
0.0
 41
0.9984436495479951
 10
936.63429669501102
 20
-1332.7341510540032
 30
0.0
 41
1.0
 10
936.65599390314219
 20
-1332.7331073668036
 30
0.0
 41
1.0
 10
936.67769111127325
 20
-1332.7320636796039
 30
0.0
 41
1.0
 10
936.79807143873541
 20
-1332.7262731001845
 30
0.0
 41
0.9987954789335232
 10
936.91843968364549
 20
-1332.7323096279267
 30
0.0
 41
1.0
 10
936.93840447613889
 20
-1332.7333108722653
 30
0.0
 41
1.0
 10
936.95836926863217
 20
-1332.7343121166039
 30
0.0
 41
1.0
 10
937.03880792855421
 20
-1332.738346155669
 30
0.0
 41
0.9997941595876645
 10
937.11901670664975
 20
-1332.7456402215901
 30
0.0
 41
1.0
 10
937.19922548474256
 20
-1332.7529342875109
 30
0.0
 41
0.9998589466237321
 10
937.27914403159571
 20
-1332.7629181419609
 30
0.0
 41
1.0
 10
937.31155023340568
 20
-1332.7669664988803
 30
0.0
 41
1.0
 10
937.34395643521566
 20
-1332.7710148557996
 30
0.0
 41
1.0
 10
937.48868738568763
 20
-1332.7890954240884
 30
0.0
 41
0.9993495063249295
 10
937.63173862945359
 20
-1332.8175611338302
 30
0.0
 41
1.0
 10
937.66467232660489
 20
-1332.8241145970446
 30
0.0
 41
1.0
 10
937.69760602375629
 20
-1332.8306680602593
 30
0.0
 41
1.0
 10
937.80689984696073
 20
-1332.8524163943946
 30
0.0
 41
0.9996788715561045
 10
937.91495141891778
 20
-1332.8796741937579
 30
0.0
 41
1.0
 10
937.91701442145586
 20
-1332.8801946203307
 30
0.0
 41
1.0
 10
937.91907742399394
 20
-1332.8807150469033
 30
0.0
 41
1.0
 10
938.02300299087381
 20
-1332.9069319931209
 30
0.0
 41
0.9995480654492744
 10
938.1251652261036
 20
-1332.9393469497454
 30
0.0
 41
1.0
 10
938.12685486823443
 20
-1332.9398830546597
 30
0.0
 41
1.0
 10
938.12854451036515
 20
-1332.9404191595743
 30
0.0
 41
1.0
 10
938.22732746133465
 20
-1332.9717619063704
 30
0.0
 41
0.9993867959456314
 10
938.3236746197756
 20
-1333.0099412756595
 30
0.0
 41
1.0
 10
938.32491756886009
 20
-1333.0104338175556
 30
0.0
 41
1.0
 10
938.32616051794457
 20
-1333.0109263594518
 30
0.0
 41
1.0
 10
938.42002177821701
 20
-1333.0481206449488
 30
0.0
 41
0.9992050256521768
 10
938.51062145325147
 20
-1333.092674544188
 30
0.0
 41
1.0
 10
938.51135613596409
 20
-1333.0930358366488
 30
0.0
 41
1.0
 10
938.51209081867671
 20
-1333.0933971291097
 30
0.0
 41
1.0
 10
938.60122112828435
 20
-1333.1372284434265
 30
0.0
 41
0.9990222350741829
 10
938.68613118967846
 20
-1333.1887617111252
 30
0.0
 41
1.0
 10
938.6863150749607
 20
-1333.1888733140297
 30
0.0
 41
1.0
 10
938.68649896024294
 20
-1333.1889849169343
 30
0.0
 41
1.0
 10
938.77104125107189
 20
-1333.2402949788232
 30
0.0
 41
0.9988642743805236
 10
938.85031578569124
 20
-1333.2994191663486
 30
0.0
 41
1.0
 10
938.92959032031001
 20
-1333.3585433538738
 30
0.0
 41
0.9987681233310929
 10
939.00261410458643
 20
-1333.4252340452747
 30
0.0
 41
1.0
 10
939.00294303255214
 20
-1333.4255344464887
 30
0.0
 41
1.0
 10
939.00327196051785
 20
-1333.4258348477028
 30
0.0
 41
1.0
 10
939.07695360072546
 20
-1333.4931263415322
 30
0.0
 41
0.9987496570899143
 10
939.14354740605268
 20
-1333.5674391556186
 30
0.0
 41
1.0
 10
939.14431957581326
 20
-1333.5683008289766
 30
0.0
 41
1.0
 10
939.14509174557384
 20
-1333.5691625023346
 30
0.0
 41
1.0
 10
939.21322989042244
 20
-1333.645198663138
 30
0.0
 41
0.9988147669827355
 10
939.27365214464794
 20
-1333.7274996699809
 30
0.0
 41
1.0
 10
939.27477147072511
 20
-1333.7290243013326
 30
0.0
 41
1.0
 10
939.27589079680229
 20
-1333.7305489326845
 30
0.0
 41
1.0
 10
939.33855170318179
 20
-1333.8158992022309
 30
0.0
 41
0.998945263621616
 10
939.39311861614362
 20
-1333.906637891389
 30
0.0
 41
1.0
 10
939.39446734222952
 20
-1333.9088806724155
 30
0.0
 41
1.0
 10
939.39581606831541
 20
-1333.9111234534421
 30
0.0
 41
1.0
 10
939.45308043344835
 20
-1334.0063477046529
 30
0.0
 41
0.9991046436070719
 10
939.50208964676904
 20
-1334.1060721376764
 30
0.0
 41
1.0
 10
939.50355350835935
 20
-1334.1090508177494
 30
0.0
 41
1.0
 10
939.50501736994977
 20
-1334.1120294978227
 30
0.0
 41
1.0
 10
939.55695430645153
 20
-1334.2177112909935
 30
0.0
 41
0.9992763831100605
 10
939.60070743500671
 20
-1334.3270353529497
 30
0.0
 41
1.0
 10
939.60218670466998
 20
-1334.3307315404832
 30
0.0
 41
1.0
 10
939.60366597433313
 20
-1334.3344277280164
 30
0.0
 41
1.0
 10
939.65037764221483
 20
-1334.4511441650395
 30
0.0
 41
0.9994163472883129
 10
939.68901067340471
 20
-1334.5707777535035
 30
0.0
 41
1.0
 10
939.69024882565168
 20
-1334.574611897287
 30
0.0
 41
1.0
 10
939.69148697789865
 20
-1334.5784460410703
 30
0.0
 41
1.0
 10
939.73137053891628
 20
-1334.7019521025504
 30
0.0
 41
0.9997268055892037
 10
939.76543859482751
 20
-1334.8271871344982
 30
0.0
 41
1.0
 10
939.76636877509804
 20
-1334.8306065006104
 30
0.0
 41
1.0
 10
939.76729895536857
 20
-1334.8340258667229
 30
0.0
 41
1.0
 10
939.79950665074057
 20
-1334.9524221664542
 30
0.0
 41
0.9996701319001119
 10
939.82559226751005
 20
-1335.0723161197125
 30
0.0
 41
1.0
 10
939.85167788427998
 20
-1335.1922100729732
 30
0.0
 41
0.9995785451109048
 10
939.8707614616194
 20
-1335.3134158340022
 30
0.0
 41
1.0
 10
939.8749812437934
 20
-1335.3402169887686
 30
0.0
 41
1.0
 10
939.87920102596729
 20
-1335.3670181435348
 30
0.0
 41
1.0
 10
939.90577600190636
 20
-1335.5358041172385
 30
0.0
 41
0.9979925101215805
 10
939.91080158783257
 20
-1335.7065954453321
 30
0.0
 41
1.0
 10
939.91162640025732
 20
-1335.7346261688172
 30
0.0
 41
1.0
 10
939.91245121268196
 20
-1335.7626568923019
 30
0.0
 41
1.0
 10
939.91582717375888
 20
-1335.877386773429
 30
0.0
 41
0.9995314902263278
 10
939.91217698162041
 20
-1335.9921082571759
 30
0.0
 41
1.0
 10
939.90852678948181
 20
-1336.1068297409295
 30
0.0
 41
0.9996245486944388
 10
939.898597694351
 20
-1336.2211790120518
 30
0.0
 41
1.0
 10
939.89843464635669
 20
-1336.223056768187
 30
0.0
 41
1.0
 10
939.8982715983625
 20
-1336.2249345243222
 30
0.0
 41
1.0
 10
939.88801640724353
 20
-1336.3430393077142
 30
0.0
 41
0.9997286095000416
 10
939.87227108367256
 20
-1336.4605382166053
 30
0.0
 41
1.0
 10
939.87187759102176
 20
-1336.4634746413103
 30
0.0
 41
1.0
 10
939.87148409837107
 20
-1336.4664110660151
 30
0.0
 41
1.0
 10
939.8549517894993
 20
-1336.5897828243119
 30
0.0
 41
0.9998265533968311
 10
939.83383633076801
 20
-1336.7124532990922
 30
0.0
 41
1.0
 10
939.83315978863004
 20
-1336.7163836776044
 30
0.0
 41
1.0
 10
939.83248324649207
 20
-1336.7203140561169
 30
0.0
 41
1.0
 10
939.81001470348588
 20
-1336.8508452879164
 30
0.0
 41
0.999902253085364
 10
939.78390523887549
 20
-1336.9806972565573
 30
0.0
 41
1.0
 10
939.78292659771
 20
-1336.9855643989454
 30
0.0
 41
1.0
 10
939.7819479565444
 20
-1336.9904315413335
 30
0.0
 41
1.0
 10
939.75388120960633
 20
-1337.1300177947348
 30
0.0
 41
0.9999524761938131
 10
939.72309824077195
 20
-1337.2690302878977
 30
0.0
 41
1.0
 10
939.72182213359497
 20
-1337.2747930472069
 30
0.0
 41
1.0
 10
939.72054602641799
 20
-1337.2805558065161
 30
0.0
 41
1.0
 10
939.68721084323397
 20
-1337.4310938182782
 30
0.0
 41
0.9999813588720673
 10
939.65203984243942
 20
-1337.5812135309284
 30
0.0
 41
1.0
 10
939.65048591698144
 20
-1337.587846121357
 30
0.0
 41
1.0
 10
939.64893199152345
 20
-1337.5944787117858
 30
0.0
 41
1.0
 10
939.61065313981032
 20
-1337.757863605304
 30
0.0
 41
0.9999955237638222
 10
939.57139726182584
 20
-1337.9210165089269
 30
0.0
 41
1.0
 10
939.55911562619553
 20
-1337.9720606994329
 30
0.0
 41
1.0
 10
939.54683399056523
 20
-1338.0231048899391
 30
0.0
 41
1.0
 10
939.4830148412982
 20
-1338.288346174664
 30
0.0
 41
0.9999993604735478
 10
939.41859589412729
 20
-1338.5534424253613
 30
0.0
 41
1.0
 10
939.41387705859063
 20
-1338.572861333359
 30
0.0
 41
1.0
 10
939.40915822305396
 20
-1338.5922802413565
 30
0.0
 41
1.0
 10
939.33530160479177
 20
-1338.8962143081221
 30
0.0
 41
0.9999659914726906
 10
939.25644200890849
 20
-1339.1988888546737
 30
0.0
 41
1.0
 10
939.25148931997774
 20
-1339.2178979918567
 30
0.0
 41
1.0
 10
939.24653663104687
 20
-1339.2369071290395
 30
0.0
 41
1.0
 10
939.15777165730606
 20
-1339.5775999499433
 30
0.0
 41
0.9999441976023179
 10
939.06182862434309
 20
-1339.9163413752397
 30
0.0
 41
1.0
 10
939.04512810591496
 20
-1339.9753050877762
 30
0.0
 41
1.0
 10
939.02842758748693
 20
-1340.0342688003129
 30
0.0
 41
1.0
 10
938.89908351767667
 20
-1340.4909376506534
 30
0.0
 41
0.9999625120734649
 10
938.76185075035733
 20
-1340.9452981846355
 30
0.0
 41
1.0
 10
938.72606080726678
 20
-1341.0637942112876
 30
0.0
 41
1.0
 10
938.69027086417634
 20
-1341.1822902379395
 30
0.0
 41
1.0
 10
938.61575066014188
 20
-1341.4290173160202
 30
0.0
 41
0.9999793386302165
 10
938.53806463700448
 20
-1341.6747659552557
 30
0.0
 41
1.0
 10
938.46037861386685
 20
-1341.9205145944918
 30
0.0
 41
1.0
 10
938.44959905499616
 20
-1341.9545324988665
 30
0.0
 41
1.0
 10
936.59922600172695
 20
-1347.8416044213341
 30
0.0
 41
1.0
 10
934.74885294845785
 20
-1353.7286763438015
 30
0.0
 41
1.0
 10
933.78759625843429
 20
-1353.7286763438015
 30
0.0
 41
1.0
 10
932.82633956841073
 20
-1353.7286763438015
 30
0.0
 41
1.0
 10
934.44528434708923
 20
-1348.580647842012
 30
0.0
 41
1.0
 10
936.06422912576761
 20
-1343.4326193402226
 30
0.0
 41
1.0
 10
936.10939494894706
 20
-1343.2885881179363
 30
0.0
 41
1.0
 10
936.1545607721265
 20
-1343.1445568956499
 30
0.0
 41
1.0
 10
936.32486518948861
 20
-1342.6014658664899
 30
0.0
 41
0.9999911657893492
 10
936.49059800115924
 20
-1342.0569623351566
 30
0.0
 41
1.0
 10
936.52029394466399
 20
-1341.9593983950922
 30
0.0
 41
1.0
 10
936.54998988816862
 20
-1341.8618344550275
 30
0.0
 41
1.0
 10
936.65633081284932
 20
-1341.5124588037602
 30
0.0
 41
0.9999952428218929
 10
936.76051440216429
 20
-1341.1624337794433
 30
0.0
 41
1.0
 10
936.76557387249773
 20
-1341.1454355051651
 30
0.0
 41
1.0
 10
936.77063334283116
 20
-1341.1284372308867
 30
0.0
 41
1.0
 10
936.86469799149609
 20
-1340.8124087550709
 30
0.0
 41
0.9999931687547685
 10
936.95642382936296
 20
-1340.4956935418234
 30
0.0
 41
1.0
 10
936.96135909382338
 20
-1340.4786528325494
 30
0.0
 41
1.0
 10
936.96629435828368
 20
-1340.4616121232755
 30
0.0
 41
1.0
 10
937.04814966723791
 20
-1340.1789783285483
 30
0.0
 41
0.9999893840779521
 10
937.12739689369346
 20
-1339.8956021993063
 30
0.0
 41
1.0
 10
937.20664412015503
 20
-1339.6122260700431
 30
0.0
 41
0.9999833980070197
 10
937.28262036089393
 20
-1339.3279554870239
 30
0.0
 41
1.0
 10
937.29162429761482
 20
-1339.294266608551
 30
0.0
 41
1.0
 10
937.30062823433559
 20
-1339.2605777300778
 30
0.0
 41
1.0
 10
937.36959278320273
 20
-1339.002541897778
 30
0.0
 41
0.9999233658069748
 10
937.4321477544238
 20
-1338.7428777390533
 30
0.0
 41
1.0
 10
937.49470272564406
 20
-1338.4832135803308
 30
0.0
 41
1.0
 10
937.53418614450163
 20
-1338.3194069159047
 30
0.0
 41
1.0
 10
937.53916474847938
 20
-1338.298751954032
 30
0.0
 41
1.0
 10
937.54414335245724
 20
-1338.2780969921594
 30
0.0
 41
1.0
 10
937.57366956336034
 20
-1338.1556002514731
 30
0.0
 41
0.9999868670859262
 10
937.60193864735538
 20
-1338.0328073058331
 30
0.0
 41
1.0
 10
937.6058361345099
 20
-1338.0158777184301
 30
0.0
 41
1.0
 10
937.60973362166442
 20
-1337.9989481310272
 30
0.0
 41
1.0
 10
937.63020773134781
 20
-1337.9100143602045
 30
0.0
 41
0.9999778173361416
 10
937.64949532946707
 20
-1337.8208157429572
 30
0.0
 41
1.0
 10
937.66878292758099
 20
-1337.7316171257335
 30
0.0
 41
0.9999602692860231
 10
937.68647728621158
 20
-1337.6420888373086
 30
0.0
 41
1.0
 10
937.68968111829008
 20
-1337.6258783824187
 30
0.0
 41
1.0
 10
937.69288495036847
 20
-1337.609667927529
 30
0.0
 41
1.0
 10
937.71698697315492
 20
-1337.4877187293293
 30
0.0
 41
0.9995617985320116
 10
937.73383032037418
 20
-1337.3645569816185
 30
0.0
 41
1.0
 10
937.7362948102799
 20
-1337.3465361642566
 30
0.0
 41
1.0
 10
937.73875930018562
 20
-1337.3285153468946
 30
0.0
 41
1.0
 10
937.75904256123385
 20
-1337.1802002971949
 30
0.0
 41
0.9991121410639426
 10
937.76676791482225
 20
-1337.0307041983865
 30
0.0
 41
1.0
 10
937.76768670484671
 20
-1337.0129243618112
 30
0.0
 41
1.0
 10
937.76860549487128
 20
-1336.9951445252359
 30
0.0
 41
1.0
 10
937.77449326841031
 20
-1336.8812080995826
 30
0.0
 41
0.9989792494906205
 10
937.77007417629318
 20
-1336.7672052636822
 30
0.0
 41
1.0
 10
937.76942620442446
 20
-1336.7504890177552
 30
0.0
 41
1.0
 10
937.76877823255586
 20
-1336.7337727718284
 30
0.0
 41
1.0
 10
937.76565508417582
 20
-1336.6532024277867
 30
0.0
 41
0.9997820295394051
 10
937.75917108680017
 20
-1336.5728327060397
 30
0.0
 41
1.0
 10
937.75268708942417
 20
-1336.4924629842913
 30
0.0
 41
0.9998335105972991
 10
937.74327489391248
 20
-1336.4123833678429
 30
0.0
 41
1.0
 10
937.74167996923632
 20
-1336.3988136373614
 30
0.0
 41
1.0
 10
937.74008504456015
 20
-1336.3852439068796
 30
0.0
 41
1.0
 10
937.72748299969567
 20
-1336.2780248294632
 30
0.0
 41
0.9996876457879432
 10
937.7095390868966
 20
-1336.1715694017428
 30
0.0
 41
1.0
 10
937.70730742375167
 20
-1336.1583296665031
 30
0.0
 41
1.0
 10
937.70507576060663
 20
-1336.1450899312631
 30
0.0
 41
1.0
 10
937.69127993918596
 20
-1336.0632437873066
 30
0.0
 41
0.9995547496495038
 10
937.67262661729308
 20
-1335.9823662901142
 30
0.0
 41
1.0
 10
937.67225266042169
 20
-1335.9807448794086
 30
0.0
 41
1.0
 10
937.67187870355031
 20
-1335.9791234687027
 30
0.0
 41
1.0
 10
937.65397329540065
 20
-1335.9014887929245
 30
0.0
 41
0.9994899427176205
 10
937.63114838672118
 20
-1335.8251555100887
 30
0.0
 41
1.0
 10
937.63068985998007
 20
-1335.8236220602989
 30
0.0
 41
1.0
 10
937.63023133323895
 20
-1335.8220886105091
 30
0.0
 41
1.0
 10
937.60832347804183
 20
-1335.7488222272548
 30
0.0
 41
0.9993784877591416
 10
937.58130784293519
 20
-1335.6772815220952
 30
0.0
 41
1.0
 10
937.58077615195828
 20
-1335.6758735393746
 30
0.0
 41
1.0
 10
937.58024446098136
 20
-1335.674465556654
 30
0.0
 41
1.0
 10
937.55429220782889
 20
-1335.605740816937
 30
0.0
 41
0.9992430832254923
 10
937.52307567266917
 20
-1335.5392416648679
 30
0.0
 41
1.0
 10
937.52249355661252
 20
-1335.5380016097506
 30
0.0
 41
1.0
 10
937.52191144055598
 20
-1335.5367615546331
 30
0.0
 41
1.0
 10
937.49185913750966
 20
-1335.4727425127994
 30
0.0
 41
0.9990789632799239
 10
937.45642851073319
 20
-1335.41153590105
 30
0.0
 41
1.0
 10
937.45583280455139
 20
-1335.4105068151912
 30
0.0
 41
1.0
 10
937.45523709836959
 20
-1335.4094777293324
 30
0.0
 41
1.0
 10
937.42099788395694
 20
-1335.3503292893013
 30
0.0
 41
0.9988874801121737
 10
937.38133860792436
 20
-1335.2946695768824
 30
0.0
 41
1.0
 10
937.38078308186005
 20
-1335.2938899252076
 30
0.0
 41
1.0
 10
937.38022755579561
 20
-1335.2931102735326
 30
0.0
 41
1.0
 10
937.34167933189178
 20
-1335.2390098644637
 30
0.0
 41
0.998676206069247
 10
937.2977768606163
 20
-1335.1891561500256
 30
0.0
 41
1.0
 10
937.29733290028435
 20
-1335.1886520082094
 30
0.0
 41
1.0
 10
937.2968889399524
 20
-1335.1881478663929
 30
0.0
 41
1.0
 10
937.25387438934024
 20
-1335.1393024355864
 30
0.0
 41
0.9984621642488358
 10
937.2057168325623
 20
-1335.0955191351152
 30
0.0
 41
1.0
 10
937.20547019804519
 20
-1335.0952949029511
 30
0.0
 41
1.0
 10
937.20522356352808
 20
-1335.0950706707872
 30
0.0
 41
1.0
 10
937.15755927578391
 20
-1335.0517358346438
 30
0.0
 41
0.9982724693852615
 10
937.10514064394306
 20
-1335.0142914841263
 30
0.0
 41
1.0
 10
937.05272201210107
 20
-1334.9768471336083
 30
0.0
 41
0.9981399180159734
 10
936.99613594870743
 20
-1334.9460606141647
 30
0.0
 41
1.0
 10
936.9960902866294
 20
-1334.9460357710077
 30
0.0
 41
1.0
 10
936.99604462455136
 20
-1334.9460109278509
 30
0.0
 41
1.0
 10
936.93936723700097
 20
-1334.9151747220931
 30
0.0
 41
0.9980927086837402
 10
936.87932188593334
 20
-1334.8915579132401
 30
0.0
 41
1.0
 10
936.87888171622239
 20
-1334.8913847873655
 30
0.0
 41
1.0
 10
936.87844154651134
 20
-1334.8912116614906
 30
0.0
 41
1.0
 10
936.81751585602103
 20
-1334.8672486008879
 30
0.0
 41
0.9981411356562032
 10
936.75412733462088
 20
-1334.8508759593822
 30
0.0
 41
1.0
 10
936.75324521792004
 20
-1334.8506481171769
 30
0.0
 41
1.0
 10
936.75236310121932
 20
-1334.8504202749716
 30
0.0
 41
1.0
 10
936.6872103464176
 20
-1334.8335919490553
 30
0.0
 41
0.998303181293547
 10
936.62054291742368
 20
-1334.824452587879
 30
0.0
 41
1.0
 10
936.61167189201865
 20
-1334.8232364692076
 30
0.0
 41
1.0
 10
936.60280086661362
 20
-1334.8220203505361
 30
0.0
 41
1.0
 10
936.54845122410984
 20
-1334.8145696205452
 30
0.0
 41
0.99838877082623
 10
936.49360737481743
 20
-1334.813324946912
 30
0.0
 41
1.0
 10
936.48554396959275
 20
-1334.8131419490369
 30
0.0
 41
1.0
 10
936.47748056436808
 20
-1334.812958951162
 30
0.0
 41
1.0
 10
936.43876352551752
 20
-1334.8120802732783
 30
0.0
 41
0.9998869563080008
 10
936.40003757232193
 20
-1334.8123661426382
 30
0.0
 41
1.0
 10
936.36131161915182
 20
-1334.8126520119977
 30
0.0
 41
0.9999972320111389
 10
936.32258743997386
 20
-1334.8131201115264
 30
0.0
 41
1.0
 10
936.30323442336112
 20
-1334.813354051616
 30
0.0
 41
1.0
 10
936.28388140674849
 20
-1334.8135879917058
 30
0.0
 41
1.0
 10
936.20645119437461
 20
-1334.8145239714136
 30
0.0
 41
0.9997304945087666
 10
936.12914788813384
 20
-1334.8190530651998
 30
0.0
 41
1.0
 10
936.12009824643269
 20
-1334.8195832711895
 30
0.0
 41
1.0
 10
936.11104860473165
 20
-1334.8201134771793
 30
0.0
 41
1.0
 10
936.0156460150821
 20
-1334.8257029829456
 30
0.0
 41
0.9997888306415568
 10
935.92055367923683
 20
-1334.8352079474353
 30
0.0
 41
1.0
 10
935.91183261766719
 20
-1334.836079662067
 30
0.0
 41
1.0
 10
935.90311155609743
 20
-1334.8369513766988
 30
0.0
 41
1.0
 10
935.79057709710719
 20
-1334.8481997704523
 30
0.0
 41
0.9984170238190173
 10
935.68001794975373
 20
-1334.8720158523886
 30
0.0
 41
1.0
 10
935.64363681876978
 20
-1334.8798528881944
 30
0.0
 41
1.0
 10
935.60725568778582
 20
-1334.8876899239999
 30
0.0
 41
1.0
 10
935.49206461936399
 20
-1334.9125037905096
 30
0.0
 41
0.9976592854198559
 10
935.38133645295864
 20
-1334.952802467657
 30
0.0
 41
1.0
 10
935.27060828655306
 20
-1334.9931011448041
 30
0.0
 41
0.999325507435174
 10
935.1631364877635
 20
-1335.0414180432963
 30
0.0
 41
1.0
 10
935.15851130883993
 20
-1335.0434974194961
 30
0.0
 41
1.0
 10
935.15388612991626
 20
-1335.045576795696
 30
0.0
 41
1.0
 10
935.0371639732781
 20
-1335.0980524465881
 30
0.0
 41
0.9976475078275108
 10
934.92871662896641
 20
-1335.1660004362473
 30
0.0
 41
1.0
 10
934.91037423483215
 20
-1335.1774929150615
 30
0.0
 41
1.0
 10
934.89203184069788
 20
-1335.1889853938758
 30
0.0
 41
1.0
 10
934.80782964914715
 20
-1335.2417425146434
 30
0.0
 41
0.9995131336407016
 10
934.7270819341893
 20
-1335.2996487265968
 30
0.0
 41
1.0
 10
934.64633421922986
 20
-1335.3575549385514
 30
0.0
 41
0.9995810107606312
 10
934.56907257149896
 20
-1335.4200366210191
 30
0.0
 41
1.0
 10
934.56610254029101
 20
-1335.4224384924819
 30
0.0
 41
1.0
 10
934.56313250908295
 20
-1335.4248403639449
 30
0.0
 41
1.0
 10
934.4799307989299
 20
-1335.4921257893434
 30
0.0
 41
0.9996617837954163
 10
934.40034011179227
 20
-1335.5636462449056
 30
0.0
 41
1.0
 10
934.38820936091747
 20
-1335.5745469778944
 30
0.0
 41
1.0
 10
934.37607861004278
 20
-1335.585447710883
 30
0.0
 41
1.0
 10
934.30780308264707
 20
-1335.6468003263547
 30
0.0
 41
0.9997267750052974
 10
934.24246957436344
 20
-1335.7112768628799
 30
0.0
 41
1.0
 10
934.17713606607447
 20
-1335.7757533994102
 30
0.0
 41
0.9999667288954495
 10
934.1128631229293
 20
-1335.8412872063034
 30
0.0
 41
1.0
 10
934.04403567515601
 20
-1335.9114648650598
 30
0.0
 41
1.0
 10
933.97520822738284
 20
-1335.9816425238159
 30
0.0
 41
1.0
 10
933.77328038868438
 20
-1336.1875316482287
 30
0.0
 41
0.9988205335175207
 10
933.59227477170339
 20
-1336.4120358802913
 30
0.0
 41
1.0
 10
933.56163480680027
 20
-1336.4500391307192
 30
0.0
 41
1.0
 10
933.53099484189715
 20
-1336.4880423811474
 30
0.0
 41
1.0
 10
933.28870929510629
 20
-1336.7885531140703
 30
0.0
 41
0.9997077826755313
 10
933.06123134399968
 20
-1337.1004229082889
 30
0.0
 41
1.0
 10
933.05950792887097
 20
-1337.1027856916662
 30
0.0
 41
1.0
 10
933.05778451374215
 20
-1337.1051484750433
 30
0.0
 41
1.0
 10
932.82685973237756
 20
-1337.4217438360167
 30
0.0
 41
0.9989147567079137
 10
932.62639622949484
 20
-1337.7584532971996
 30
0.0
 41
1.0
 10
932.60165508418584
 20
-1337.8000098777554
 30
0.0
 41
1.0
 10
932.57691393887683
 20
-1337.8415664583113
 30
0.0
 41
1.0
 10
932.42170264024003
 20
-1338.1022678427632
 30
0.0
 41
0.9997476598181327
 10
932.27835765273164
 20
-1338.3696775913436
 30
0.0
 41
1.0
 10
932.13501266522189
 20
-1338.6370873399262
 30
0.0
 41
0.9996258967110137
 10
932.00650441329014
 20
-1338.9119352765506
 30
0.0
 41
1.0
 10
931.99330450384014
 20
-1338.9401666766469
 30
0.0
 41
1.0
 10
931.98010459439001
 20
-1338.9683980767431
 30
0.0
 41
1.0
 10
931.83989587339215
 20
-1339.2682704746917
 30
0.0
 41
0.9998735413946833
 10
931.70929452667053
 20
-1339.5724500741626
 30
0.0
 41
1.0
 10
931.70585169861374
 20
-1339.5804686596184
 30
0.0
 41
1.0
 10
931.70240887055706
 20
-1339.5884872450745
 30
0.0
 41
1.0
 10
931.57869317995437
 20
-1339.8766296736205
 30
0.0
 41
0.9999377418861504
 10
931.46143837777549
 20
-1340.167461141305
 30
0.0
 41
1.0
 10
931.34418357559969
 20
-1340.4582926089827
 30
0.0
 41
0.9999508299507408
 10
931.23271963222282
 20
-1340.7513922858027
 30
0.0
 41
1.0
 10
931.22963886356035
 20
-1340.7594933117666
 30
0.0
 41
1.0
 10
931.22655809489788
 20
-1340.7675943377303
 30
0.0
 41
1.0
 10
931.10893261419596
 20
-1341.0768960664786
 30
0.0
 41
0.999960922843288
 10
930.9967940113213
 20
-1341.3882290824959
 30
0.0
 41
1.0
 10
930.99383800097189
 20
-1341.3964359229049
 30
0.0
 41
1.0
 10
930.99088199062237
 20
-1341.4046427633139
 30
0.0
 41
1.0
 10
930.87283136704923
 20
-1341.7323894601479
 30
0.0
 41
0.9999674607398871
 10
930.76008384097997
 20
-1342.0619980801462
 30
0.0
 41
1.0
 10
930.70868545041753
 20
-1342.2122572758381
 30
0.0
 41
1.0
 10
930.65728705985509
 20
-1342.3625164715297
 30
0.0
 41
1.0
 10
930.54127645309904
 20
-1342.7016644540272
 30
0.0
 41
0.9999287532310462
 10
930.43339504912728
 20
-1343.0434851930058
 30
0.0
 41
1.0
 10
930.38691779300734
 20
-1343.1907477373161
 30
0.0
 41
1.0
 10
930.34044053688751
 20
-1343.3380102816263
 30
0.0
 41
1.0
 10
930.3255136451719
 20
-1343.3853059319335
 30
0.0
 41
0.9999998223138904
 10
930.31064313642617
 20
-1343.4326193402226
 30
0.0
 41
1.0
 10
928.68998699963072
 20
-1348.580647842012
 30
0.0
 41
1.0
 10
927.06933086283527
 20
-1353.7286763438015
 30
0.0
 41
1.0
 10
926.16402241894434
 20
-1353.7286763438015
 30
0.0
 41
1.0
 10
925.25871397505341
 20
-1353.7286763438015
 30
0.0
 41
1.0
 10
927.11079838643946
 20
-1347.8416044213341
 30
0.0
 41
1.0
 10
928.9628827978255
 20
-1341.9545324988665
 30
0.0
 41
1.0
 10
928.97300455612822
 20
-1341.9224892854168
 30
0.0
 41
1.0
 10
929.04561222497796
 20
-1341.6921897435909
 30
0.0
 41
1.0
 10
929.11821989382008
 20
-1341.4618902017892
 30
0.0
 41
0.9999825681967902
 10
929.18810293302431
 20
-1341.230749306749
 30
0.0
 41
1.0
 10
929.23639399519141
 20
-1341.0710247232323
 30
0.0
 41
1.0
 10
929.2846850573585
 20
-1340.9113001397159
 30
0.0
 41
1.0
 10
929.38183741067382
 20
-1340.5899649179464
 30
0.0
 41
0.999967252895563
 10
929.47377621630005
 20
-1340.26709937235
 30
0.0
 41
1.0
 10
929.47656509996591
 20
-1340.2573055269741
 30
0.0
 41
1.0
 10
929.47935398363165
 20
-1340.2475116815981
 30
0.0
 41
1.0
 10
929.5657150219165
 20
-1339.9442338267881
 30
0.0
 41
0.999989974913189
 10
929.64935663145809
 20
-1339.6401947383115
 30
0.0
 41
1.0
 10
929.65946255047754
 20
-1339.6034595006258
 30
0.0
 41
1.0
 10
929.66956846949699
 20
-1339.5667242629402
 30
0.0
 41
1.0
 10
929.73299824099536
 20
-1339.3361556498498
 30
0.0
 41
0.9999214200504935
 10
929.79062766937045
 20
-1339.1040693076498
 30
0.0
 41
1.0
 10
929.80339352155283
 20
-1339.0526584222462
 30
0.0
 41
1.0
 10
929.81615937373522
 20
-1339.0012475368426
 30
0.0
 41
1.0
 10
929.84825709774987
 20
-1338.8719829654342
 30
0.0
 41
0.9999828681655718
 10
929.87883934974366
 20
-1338.7423514909729
 30
0.0
 41
1.0
 10
929.9094216017379
 20
-1338.6127200165101
 30
0.0
 41
0.9999389844475011
 10
929.93713259052629
 20
-1338.4824445606146
 30
0.0
 41
1.0
 10
929.94427033424745
 20
-1338.4488884567725
 30
0.0
 41
1.0
 10
929.95140807796872
 20
-1338.4153323529304
 30
0.0
 41
1.0
 10
929.99339455419693
 20
-1338.2179446893624
 30
0.0
 41
0.999893369944064
 10
930.02959881859942
 20
-1338.0194150816035
 30
0.0
 41
1.0
 10
930.03097164381643
 20
-1338.0118870609035
 30
0.0
 41
1.0
 10
930.03234446903332
 20
-1338.0043590402038
 30
0.0
 41
1.0
 10
930.07129438386926
 20
-1337.7907733910465
 30
0.0
 41
0.9996850305193341
 10
930.09947806012792
 20
-1337.5755023856086
 30
0.0
 41
1.0
 10
930.10147309349679
 20
-1337.5602640314901
 30
0.0
 41
1.0
 10
930.10346812686566
 20
-1337.5450256773715
 30
0.0
 41
1.0
 10
930.13087598932464
 20
-1337.3356804502164
 30
0.0
 41
0.9994697936706931
 10
930.1446005485443
 20
-1337.124995254886
 30
0.0
 41
1.0
 10
930.14507761779407
 20
-1337.1176717826734
 30
0.0
 41
1.0
 10
930.14555468704384
 20
-1337.1103483104607
 30
0.0
 41
1.0
 10
930.15832510776397
 20
-1336.9143100595538
 30
0.0
 41
0.9991804893136989
 10
930.15519679149111
 20
-1336.7178812095819
 30
0.0
 41
1.0
 10
930.15511291266898
 20
-1336.7126144081694
 30
0.0
 41
1.0
 10
930.15502903384686
 20
-1336.7073476067567
 30
0.0
 41
1.0
 10
930.15206847521813
 20
-1336.5214523596096
 30
0.0
 41
0.9988448329322128
 10
930.13127692959449
 20
-1336.3366997697751
 30
0.0
 41
1.0
 10
930.12968285589147
 20
-1336.3225349140041
 30
0.0
 41
1.0
 10
930.12808878218846
 20
-1336.3083700582331
 30
0.0
 41
1.0
 10
930.11048538397085
 20
-1336.1519471799431
 30
0.0
 41
0.9985503209458646
 10
930.07616911167111
 20
-1335.9983229958525
 30
0.0
 41
1.0
 10
930.06858311960013
 20
-1335.9643626684538
 30
0.0
 41
1.0
 10
930.06099712752928
 20
-1335.9304023410548
 30
0.0
 41
1.0
 10
930.0418528393717
 20
-1335.8446988117632
 30
0.0
 41
0.9991036781369912
 10
930.01552797772047
 20
-1335.7609217244383
 30
0.0
 41
1.0
 10
930.01154575226474
 20
-1335.7482485619284
 30
0.0
 41
1.0
 10
930.00756352680901
 20
-1335.7355753994188
 30
0.0
 41
1.0
 10
929.98920311606946
 20
-1335.6771446371138
 30
0.0
 41
0.9998874504368817
 10
929.96909790839072
 20
-1335.61929103489
 30
0.0
 41
1.0
 10
929.94899270071312
 20
-1335.561437432669
 30
0.0
 41
0.99940416375444
 10
929.92494408777873
 20
-1335.5051087287784
 30
0.0
 41
1.0
 10
929.92074730355444
 20
-1335.4952786642957
 30
0.0
 41
1.0
 10
929.91655051933014
 20
-1335.4854485998133
 30
0.0
 41
1.0
 10
929.88867168833599
 20
-1335.4201484338469
 30
0.0
 41
0.9991846840701959
 10
929.85561533164241
 20
-1335.3573104025656
 30
0.0
 41
1.0
 10
929.85447872524696
 20
-1335.3551497861104
 30
0.0
 41
1.0
 10
929.85334211885163
 20
-1335.3529891696548
 30
0.0
 41
1.0
 10
929.82255897494952
 20
-1335.2944723712856
 30
0.0
 41
0.9989253167922991
 10
929.78648955089443
 20
-1335.239057442895
 30
0.0
 41
1.0
 10
929.78543542622015
 20
-1335.2374379481328
 30
0.0
 41
1.0
 10
929.78438130154598
 20
-1335.2358184533705
 30
0.0
 41
1.0
 10
929.75042012683889
 20
-1335.1836425145041
 30
0.0
 41
0.9986467172836442
 10
929.71122297420197
 20
-1335.1352764808753
 30
0.0
 41
1.0
 10
929.7103488455017
 20
-1335.1341978785977
 30
0.0
 41
1.0
 10
929.70947471680142
 20
-1335.1331192763198
 30
0.0
 41
1.0
 10
929.67202582156449
 20
-1335.0869104472456
 30
0.0
 41
0.9984001104267881
 10
929.62959909104745
 20
-1335.0452253398771
 30
0.0
 41
1.0
 10
929.62901195293784
 20
-1335.0446484649956
 30
0.0
 41
1.0
 10
929.62842481482812
 20
-1335.0440715901138
 30
0.0
 41
1.0
 10
929.58717236052985
 20
-1335.0035402325077
 30
0.0
 41
0.9982442159082041
 10
929.54141625919465
 20
-1334.968171671248
 30
0.0
 41
1.0
 10
929.54120146373316
 20
-1334.9680056386051
 30
0.0
 41
1.0
 10
929.54098666827167
 20
-1334.9678396059621
 30
0.0
 41
1.0
 10
929.49566015785979
 20
-1334.9328031099883
 30
0.0
 41
0.9982450060836061
 10
929.44650917878732
 20
-1334.9033713269541
 30
0.0
 41
1.0
 10
929.39735819971656
 20
-1334.8739395439213
 30
0.0
 41
0.9983922639636027
 10
929.34519189355206
 20
-1334.8502599092672
 30
0.0
 41
1.0
 10
929.34496501622698
 20
-1334.8501569237856
 30
0.0
 41
1.0
 10
929.34473813890179
 20
-1334.8500539383037
 30
0.0
 41
1.0
 10
929.2921180780869
 20
-1334.8261683326864
 30
0.0
 41
0.9986517147149358
 10
929.23730510521762
 20
-1334.8078672135644
 30
0.0
 41
1.0
 10
929.23662718379092
 20
-1334.8076408671332
 30
0.0
 41
1.0
 10
929.23594926236433
 20
-1334.8074145207022
 30
0.0
 41
1.0
 10
929.17978044663982
 20
-1334.7886607087173
 30
0.0
 41
0.9989435598955623
 10
929.12212705948764
 20
-1334.7751430064827
 30
0.0
 41
1.0
 10
929.12104693990682
 20
-1334.7748897562299
 30
0.0
 41
1.0
 10
929.119966820326
 20
-1334.774636505977
 30
0.0
 41
1.0
 10
929.06015319401104
 20
-1334.7606123032365
 30
0.0
 41
0.9992249241240143
 10
928.99942168511382
 20
-1334.7513369605213
 30
0.0
 41
1.0
 10
928.99800799682271
 20
-1334.7511210521134
 30
0.0
 41
1.0
 10
928.99659430853171
 20
-1334.7509051437055
 30
0.0
 41
1.0
 10
928.93303542305421
 20
-1334.741197984175
 30
0.0
 41
0.9994396597834696
 10
928.86896948651986
 20
-1334.7357650618294
 30
0.0
 41
1.0
 10
928.84982881903977
 20
-1334.7341418941105
 30
0.0
 41
1.0
 10
928.83068815155968
 20
-1334.7325187263918
 30
0.0
 41
1.0
 10
928.728340880068
 20
-1334.7238394686087
 30
0.0
 41
0.9987693403121813
 10
928.6256372564817
 20
-1334.7253425320612
 30
0.0
 41
1.0
 10
928.61538292225544
 20
-1334.7254926038354
 30
0.0
 41
1.0
 10
928.60512858802917
 20
-1334.7256426756096
 30
0.0
 41
1.0
 10
928.49557282184867
 20
-1334.7272460198972
 30
0.0
 41
0.9989753644966489
 10
928.38661082183023
 20
-1334.7387490268225
 30
0.0
 41
1.0
 10
928.27764882181543
 20
-1334.7502520337473
 30
0.0
 41
0.9983190067306154
 10
928.17075001085209
 20
-1334.7742870255336
 30
0.0
 41
1.0
 10
928.16184905924365
 20
-1334.7762883040966
 30
0.0
 41
1.0
 10
928.15294810763532
 20
-1334.7782895826597
 30
0.0
 41
1.0
 10
928.02824739345613
 20
-1334.8063271315721
 30
0.0
 41
0.9985539388302845
 10
927.90727763977816
 20
-1334.8475908076177
 30
0.0
 41
1.0
 10
927.9049322088182
 20
-1334.8483908514336
 30
0.0
 41
1.0
 10
927.90258677785823
 20
-1334.8491908952492
 30
0.0
 41
1.0
 10
927.77692616226022
 20
-1334.8920546589261
 30
0.0
 41
0.998846874649347
 10
927.65595581996058
 20
-1334.9467727439883
 30
0.0
 41
1.0
 10
927.6527729979714
 20
-1334.9482124185483
 30
0.0
 41
1.0
 10
927.6495901759821
 20
-1334.9496520931086
 30
0.0
 41
1.0
 10
927.5222541897034
 20
-1335.0072495272914
 30
0.0
 41
0.9991322885918949
 10
927.40015360564644
 20
-1335.0752448594735
 30
0.0
 41
1.0
 10
927.382551594603
 20
-1335.085047061463
 30
0.0
 41
1.0
 10
927.36494958355956
 20
-1335.0948492634525
 30
0.0
 41
1.0
 10
927.26277290250255
 20
-1335.151749379233
 30
0.0
 41
0.999386003784959
 10
927.16483189842916
 20
-1335.2156653948216
 30
0.0
 41
1.0
 10
927.15921358557978
 20
-1335.2193318895147
 30
0.0
 41
1.0
 10
927.1535952727304
 20
-1335.2229983842076
 30
0.0
 41
1.0
 10
927.06689089435883
 20
-1335.2795814104081
 30
0.0
 41
0.9998821494952894
 10
926.98196451854301
 20
-1335.3387996404867
 30
0.0
 41
1.0
 10
926.89703814272843
 20
-1335.3980178705649
 30
0.0
 41
0.999797648274435
 10
926.81456251232294
 20
-1335.4606042786081
 30
0.0
 41
1.0
 10
926.79992624751981
 20
-1335.4717109683866
 30
0.0
 41
1.0
 10
926.78528998271668
 20
-1335.482817658165
 30
0.0
 41
1.0
 10
926.67354182270662
 20
-1335.5676174457637
 30
0.0
 41
0.9998091630800993
 10
926.56519154468265
 20
-1335.6567177964619
 30
0.0
 41
1.0
 10
926.55218579220173
 20
-1335.6674128969107
 30
0.0
 41
1.0
 10
926.53918003972092
 20
-1335.6781079973598
 30
0.0
 41
1.0
 10
926.40481825673783
 20
-1335.7885985489543
 30
0.0
 41
0.9995035112316966
 10
926.27768237897328
 20
-1335.90733236597
 30
0.0
 41
1.0
 10
926.26803506858573
 20
-1335.9163421121279
 30
0.0
 41
1.0
 10
926.25838775819818
 20
-1335.9253518582861
 30
0.0
 41
1.0
 10
926.13496469543531
 20
-1336.0406182300399
 30
0.0
 41
0.9994630424299178
 10
926.01935628965134
 20
-1336.1637209732751
 30
0.0
 41
1.0
 10
926.01567345088006
 20
-1336.167642552788
 30
0.0
 41
1.0
 10
926.01199061210878
 20
-1336.1715641323008
 30
0.0
 41
1.0
 10
925.90374788386782
 20
-1336.2868237165096
 30
0.0
 41
0.9995160693750061
 10
925.80288185433551
 20
-1336.4085911343827
 30
0.0
 41
1.0
 10
925.80094813425683
 20
-1336.4109255585884
 30
0.0
 41
1.0
 10
925.79901441417815
 20
-1336.413259982794
 30
0.0
 41
1.0
 10
925.70201582480502
 20
-1336.5303585522536
 30
0.0
 41
0.9996561470514751
 10
925.61128960613769
 20
-1336.6523813147046
 30
0.0
 41
1.0
 10
925.60513194023463
 20
-1336.6606631037484
 30
0.0
 41
1.0
 10
925.59897427433157
 20
-1336.6689448927923
 30
0.0
 41
1.0
 10
925.52056338747025
 20
-1336.7744040771559
 30
0.0
 41
0.9998349055172211
 10
925.44603610553963
 20
-1336.8826426608171
 30
0.0
 41
1.0
 10
925.3715088236064
 20
-1336.9908812444819
 30
0.0
 41
0.9999728109555446
 10
925.29858592768994
 20
-1337.1002071700466
 30
0.0
 41
1.0
 10
925.29727071228183
 20
-1337.1021789395436
 30
0.0
 41
1.0
 10
925.29595549687372
 20
-1337.1041507090408
 30
0.0
 41
1.0
 10
925.22040217016888
 20
-1337.2174201735581
 30
0.0
 41
0.9999972147419088
 10
925.14538435982115
 20
-1337.3310450163533
 30
0.0
 41
1.0
 10
925.14041281717118
 20
-1337.3385751048672
 30
0.0
 41
1.0
 10
925.13544127452133
 20
-1337.3461051933814
 30
0.0
 41
1.0
 10
925.05048037890651
 20
-1337.4747902131558
 30
0.0
 41
0.9999371979005526
 10
924.96842502950233
 20
-1337.6053471269327
 30
0.0
 41
1.0
 10
924.9649161451382
 20
-1337.6109300550015
 30
0.0
 41
1.0
 10
924.96140726077419
 20
-1337.6165129830702
 30
0.0
 41
1.0
 10
924.8723341426462
 20
-1337.7582357529782
 30
0.0
 41
0.9998272025609803
 10
924.78859075176149
 20
-1337.903171629725
 30
0.0
 41
1.0
 10
924.77337557973851
 20
-1337.9295047441797
 30
0.0
 41
1.0
 10
924.75816040771565
 20
-1337.9558378586344
 30
0.0
 41
1.0
 10
924.64398667278329
 20
-1338.153439964294
 30
0.0
 41
0.9995217214838039
 10
924.54224698322753
 20
-1338.357722292157
 30
0.0
 41
1.0
 10
924.53460342059293
 20
-1338.3730697418591
 30
0.0
 41
1.0
 10
924.52695985795833
 20
-1338.3884171915611
 30
0.0
 41
1.0
 10
924.44005456536968
 20
-1338.5629136496407
 30
0.0
 41
0.9998269762607634
 10
924.35970009909795
 20
-1338.7405219363632
 30
0.0
 41
1.0
 10
924.27934563282747
 20
-1338.9181302230827
 30
0.0
 41
0.9998944747388626
 10
924.20418483826427
 20
-1339.0979979487086
 30
0.0
 41
1.0
 10
924.19923116866653
 20
-1339.1098526036417
 30
0.0
 41
1.0
 10
924.1942774990689
 20
-1339.1217072585746
 30
0.0
 41
1.0
 10
924.11363043851907
 20
-1339.314704198586
 30
0.0
 41
0.9999506734407702
 10
924.03683290962215
 20
-1339.5092650034262
 30
0.0
 41
1.0
 10
924.02223294435328
 20
-1339.546252925227
 30
0.0
 41
1.0
 10
924.00763297908441
 20
-1339.5832408470278
 30
0.0
 41
1.0
 10
923.96003538072273
 20
-1339.7038258082716
 30
0.0
 41
0.999991239391097
 10
923.91344893669611
 20
-1339.824805010978
 30
0.0
 41
1.0
 10
923.86686249266756
 20
-1339.9457842136894
 30
0.0
 41
0.9999927113932989
 10
923.82120119826868
 20
-1340.067115621204
 30
0.0
 41
1.0
 10
923.80723276687627
 20
-1340.1042326031888
 30
0.0
 41
1.0
 10
923.79326433548385
 20
-1340.1413495851737
 30
0.0
 41
1.0
 10
923.71966617829435
 20
-1340.3369149566738
 30
0.0
 41
0.9999487550945507
 10
923.65004255332292
 20
-1340.5339303218552
 30
0.0
 41
1.0
 10
923.62644894338916
 20
-1340.6006936321392
 30
0.0
 41
1.0
 10
923.60285533345541
 20
-1340.6674569424229
 30
0.0
 41
1.0
 10
923.50816969908522
 20
-1340.9353907772463
 30
0.0
 41
0.9999808436928276
 10
923.41680811043682
 20
-1341.2044762085309
 30
0.0
 41
1.0
 10
923.32544652179979
 20
-1341.4735616397825
 30
0.0
 41
0.9999873932895601
 10
923.23679181307944
 20
-1341.743550994802
 30
0.0
 41
1.0
 10
923.21669945620897
 20
-1341.8047403275582
 30
0.0
 41
1.0
 10
923.19660709933851
 20
-1341.8659296603146
 30
0.0
 41
1.0
 10
923.06776767688268
 20
-1342.2582976808308
 30
0.0
 41
0.9999794883025743
 10
922.943964891924
 20
-1342.6522838871108
 30
0.0
 41
1.0
 10
922.93281263246968
 20
-1342.6877744974017
 30
0.0
 41
1.0
 10
922.92166037301524
 20
-1342.7232651076924
 30
0.0
 41
1.0
 10
922.77910220913861
 20
-1343.1769378597123
 30
0.0
 41
0.99999827617657
 10
922.63822976913605
 20
-1343.6311368817949
 30
0.0
 41
1.0
 10
921.05008943656344
 20
-1348.6799066127983
 30
0.0
 41
1.0
 10
919.46194910399083
 20
-1353.7286763438015
 30
0.0
 41
1.0
 10
918.51319849251445
 20
-1353.7286763438015
 30
0.0
 41
1.0
 10
917.56444788103806
 20
-1353.7286763438015
 30
0.0
 41
1.0
 10
920.80273236719131
 20
-1343.4013541438553
 30
0.0
 41
1.0
 10
924.04101685334444
 20
-1333.0740319439092
 30
0.0
 41
1.0
  0
LWPOLYLINE
  5
129
100
AcDbEntity
  8
0
370
              15
390
0
  6
Continuous
 62
               7
100
AcDbPolyline
 90
      232
 70
             128
 10
898.3374710795174
 20
-1334.1583747754244
 42
0.0004370800698785
 10
898.28459390537455
 20
-1334.2270414147727
 10
898.24530967431792
 20
-1334.2781485275773
 42
0.003048199218266
 10
898.11497095717255
 20
-1334.4498702199564
 10
898.07645928544832
 20
-1334.5012570037095
 42
0.0042058245761476
 10
897.87247423476265
 20
-1334.778262748805
 10
897.82006911227779
 20
-1334.850695595564
 42
0.0120948898744151
 10
897.5240251955172
 20
-1335.2814452001116
 10
897.42783269639074
 20
-1335.4289259353436
 42
0.0141601263949357
 10
897.12418864947244
 20
-1335.9245952720732
 10
897.08465138205338
 20
-1335.993439239493
 42
0.0071131081300471
 10
896.87937905880813
 20
-1336.3629420383431
 42
0.0068458790999311
 10
896.68449953197376
 20
-1336.738033601802
 10
896.67768766950724
 20
-1336.751595315543
 42
0.0064120880291366
 10
896.47954541946729
 20
-1337.1590197904527
 10
896.47201073394592
 20
-1337.175031647183
 42
0.0058857236447965
 10
896.26925534207533
 20
-1337.6194077582154
 10
896.26108041578027
 20
-1337.637897911852
 42
0.0053189741896548
 10
896.05237610311167
 20
-1338.1238613857724
 10
896.04362829743138
 20
-1338.1448432639659
 42
0.0047503650418332
 10
895.82765457128346
 20
-1338.6770426971686
 10
895.81838632293261
 20
-1338.7005190732834
 42
0.0042071762173138
 10
895.59383893920199
 20
-1339.2836126673608
 10
895.58408953685614
 20
-1339.3095788422229
 42
0.0036680086486283
 10
895.34963489353629
 20
-1339.9482142267759
 10
895.33942711369627
 20
-1339.9766627610989
 42
0.0032573142628552
 10
895.09379482772579
 20
-1340.6755154208631
 10
895.02514430687904
 20
-1340.8749785049338
 42
0.0026133366648926
 10
894.67669910813083
 20
-1341.904841788577
 10
894.61344232063141
 20
-1342.0950726239662
 42
0.0020592950741957
 10
894.39957925166311
 20
-1342.7471762765831
 10
894.39652746049546
 20
-1342.756612765007
 42
0.0025609928535635
 10
894.19470695901418
 20
-1343.3917579873587
 10
894.19211559188921
 20
-1343.4000603282936
 42
0.0031362356241801
 10
894.00262480621063
 20
-1344.0208231844788
 10
894.00049376328752
 20
-1344.0279644906752
 42
0.0037229918030328
 10
893.8236933763568
 20
-1344.6369497926639
 10
893.82201478715581
 20
-1344.6428966828189
 42
0.0043077623706719
 10
893.65827398508532
 20
-1345.2427154146076
 42
0.0047654161825976
 10
893.50544526256465
 20
-1345.845401503529
 10
893.47098065373029
 20
-1345.9869632806594
 42
0.0112969368446837
 10
893.27511629558592
 20
-1346.8786554412873
 10
893.24710990648998
 20
-1347.0214834873816
 42
0.0130056762570164
 10
893.04627266284342
 20
-1348.2084245590265
 10
893.02573291269607
 20
-1348.3525026725051
 42
0.0138721532145191
 10
892.92202990815838
 20
-1349.2593321583292
 10
892.90273442025034
 20
-1349.4828298802563
 42
0.0071254697009148
 10
892.86938777432783
 20
-1349.9460168891014
 10
892.86442680016489
 20
-1350.0320208836565
 42
0.0028881799198488
 10
892.8492885068747
 20
-1350.3237625935044
 42
0.0060297297139082
 10
892.83935630709914
 20
-1350.6157115296226
 10
892.83829402543211
 20
-1350.6641039015533
 42
0.0229523164157403
 10
892.84602505321789
 20
-1350.9868587478359
 10
892.85025082673826
 20
-1351.0472622818513
 42
0.0123673300666922
 10
892.86932947325658
 20
-1351.2483830070269
 42
0.012857767446693
 10
892.89852486366283
 20
-1351.448280856953
 10
892.90565073704988
 20
-1351.4896096715506
 42
0.0285717853763912
 10
892.97014473874538
 20
-1351.7677258228628
 10
892.98381326241179
 20
-1351.8143805923401
 42
0.0316283099163068
 10
893.09962384232631
 20
-1352.1333950941669
 10
893.1026725340821
 20
-1352.140381466493
 42
0.0338984824238894
 10
893.25210424504894
 20
-1352.4279474306816
 10
893.25441297441785
 20
-1352.431738459956
 42
0.0350228718351788
 10
893.43677326509237
 20
-1352.6887904446344
 10
893.43765851686828
 20
-1352.6898695223995
 42
0.0347476747529224
 10
893.6520832041075
 20
-1352.9170545696184
 42
0.0331337701907943
 10
893.89532652985315
 20
-1353.1131832316955
 10
893.89642662837002
 20
-1353.1139559348685
 42
0.0305233319077587
 10
894.16497132394227
 20
-1353.2790841049591
 10
894.16820136844467
 20
-1353.2808081168223
 42
0.0273744481156058
 10
894.46075508002059
 20
-1353.4169462607135
 10
894.46585961515643
 20
-1353.4189898451825
 42
0.0240964406194374
 10
894.78133669079818
 20
-1353.5279735714626
 10
894.78792002001205
 20
-1353.5298983111388
 42
0.0209636179815776
 10
895.1253201726696
 20
-1353.613366459072
 10
895.1329526331134
 20
-1353.6149183720725
 42
0.018138870469287
 10
895.49127502511305
 20
-1353.6743344652866
 10
895.49955587348995
 20
-1353.6754006491035
 42
0.0156086547586945
 10
895.87774323768019
 20
-1353.7121368356802
 10
895.92093849001117
 20
-1353.7149753381593
 42
0.0137148329028336
 10
896.24861163530477
 20
-1353.7274955934104
 10
896.29454782525022
 20
-1353.7279900265257
 42
0.0051057823883906
 10
896.53069341182299
 20
-1353.7281202809349
 42
0.0052256693311499
 10
896.76679069560828
 20
-1353.7233714564704
 10
896.83701747935106
 20
-1353.7212244904565
 42
0.0161507179047334
 10
897.21275455744967
 20
-1353.6975741201302
 10
897.23276751782532
 20
-1353.6956639248424
 42
0.0101216737833563
 10
897.64679473931631
 20
-1353.6476709944768
 10
897.68084802874284
 20
-1353.6430232976672
 42
0.0245291776398331
 10
898.15763768429429
 20
-1353.5539482195909
 10
898.24246099982031
 20
-1353.5337522992445
 42
0.01435092125621
 10
898.59909210375758
 20
-1353.4379476654663
 42
0.0156557857039146
 10
898.94930816848068
 20
-1353.320936449649
 10
898.95680938297949
 20
-1353.3181662878933
 42
0.0170137333629913
 10
899.31340537866038
 20
-1353.1725086730225
 10
899.32050930106834
 20
-1353.1693208374586
 42
0.0183105364408212
 10
899.67985896923255
 20
-1352.9919857956354
 10
899.68680573387337
 20
-1352.9882353607622
 42
0.0194899958149054
 10
900.04528647486075
 20
-1352.7762563788694
 10
900.05230035419413
 20
-1352.7717310365765
 42
0.0204869852947035
 10
900.40631465628564
 20
-1352.5222110214925
 10
900.41358026487501
 20
-1352.5166309561423
 42
0.0212516938557745
 10
900.75957019598479
 20
-1352.226726959246
 10
900.80608689005942
 20
-1352.1842596491533
 42
0.0215248918256642
 10
901.06611305894626
 20
-1351.9254953701593
 10
901.11114279332708
 20
-1351.8766512488094
 42
0.0114578554957224
 10
901.26593494700433
 20
-1351.7008283153514
 10
901.27712948299211
 20
-1351.6875095518046
 42
0.0061531305122572
 10
901.40360412898531
 20
-1351.5332200185003
 42
0.0006325587117338
 10
901.52798261311352
 20
-1351.3772166428539
 10
901.55102274818864
 20
-1351.3482431221651
 42
0.0041897761548327
 10
901.71947815215776
 20
-1351.132723746108
 10
901.77794027205346
 20
-1351.0566223991182
 42
0.0092993880036782
 10
902.05455219927671
 20
-1350.6823436352349
 10
902.13694669248014
 20
-1350.5664066316599
 42
0.0159321727085468
 10
902.48355317511846
 20
-1350.0442324109094
 10
902.52790931050527
 20
-1349.9725528466631
 42
0.0085547317020028
 10
902.76242107583334
 20
-1349.5786778974348
 42
0.0084601156883265
 10
902.98339725327071
 20
-1349.1770510484116
 10
902.99151272710571
 20
-1349.1616913661296
 42
0.0081429654285035
 10
903.2147619975425
 20
-1348.7219698535903
 10
903.22362216172723
 20
-1348.7037910115696
 42
0.0076574581328133
 10
903.45002967229857
 20
-1348.2206081363063
 10
903.45950931301763
 20
-1348.1995436580132
 42
0.0070682724200021
 10
903.68995422082389
 20
-1347.6675063532334
 10
903.69994450480613
 20
-1347.6435171642206
 42
0.0064559514448275
 10
903.93527771298716
 20
-1347.0572048977033
 10
903.94568707115286
 20
-1347.0302699722592
 42
0.0058311413905803
 10
904.1867338079129
 20
-1346.3842378778832
 10
904.19748888530307
 20
-1346.3543535367153
 42
0.0052312425817969
 10
904.44507016334433
 20
-1345.6431511228798
 10
904.45611399972381
 20
-1345.6103244108108
 42
0.0046680544798046
 10
904.71104242745503
 20
-1344.8284980950659
 10
904.7530345775084
 20
-1344.6955148577426
 42
0.0041666856446523
 10
904.95632058989668
 20
-1344.0325460827585
 10
904.99398303056205
 20
-1343.9059649750998
 42
0.0015170975154759
 10
905.11516960897359
 20
-1343.4940966236111
 42
-0.0004887993110782
 10
905.23550938214225
 20
-1343.0819782114138
 10
905.31198663959185
 20
-1342.821020825628
 42
0.0002583378929194
 10
905.58520120973651
 20
-1341.8869641221734
 10
905.66697405924185
 20
-1341.6068648628343
 42
0.0006636169673198
 10
905.860841819244
 20
-1340.9395119392789
 10
905.86593847360064
 20
-1340.9218803563656
 42
0.0010589131321231
 10
906.04738717450766
 20
-1340.28914901335
 10
906.05236924497603
 20
-1340.2716361063724
 42
0.0015655524459489
 10
906.22063945217087
 20
-1339.673019427129
 10
906.225469652583
 20
-1339.6556272682037
 42
0.0021640440475619
 10
906.37975962457199
 20
-1339.0906002501752
 10
906.38439384400692
 20
-1339.0733355201628
 42
0.0028763871853739
 10
906.52390956205477
 20
-1338.5413675693342
 10
906.5282954262226
 20
-1338.5242435911773
 42
0.0037310511948802
 10
906.65225211805887
 20
-1338.0247959971557
 10
906.65632733834514
 20
-1338.0078357259217
 42
0.0047652197772527
 10
906.76395123885641
 20
-1337.5403579576052
 10
906.76764183818
 20
-1337.5235984024544
 42
0.0060276699297924
 10
906.85817193733351
 20
-1337.087522607311
 10
906.86139062762118
 20
-1337.0710213930095
 42
0.0075824337753777
 10
906.93407993703806
 20
-1336.6657542285757
 10
906.93672531441905
 20
-1336.649599281121
 42
0.0095130624612062
 10
906.9908405500496
 20
-1336.2745099280532
 10
906.99782677393148
 20
-1336.218576369942
 42
0.0121054653222962
 10
907.02441810451
 20
-1335.953680541463
 10
907.02528459426924
 20
-1335.9422770985375
 42
0.0069050827385072
 10
907.04037341230719
 20
-1335.6993358716895
 10
907.04150871197612
 20
-1335.6758096146375
 42
0.0169063976703997
 10
907.04433599095614
 20
-1335.479616887344
 10
907.04316533942517
 20
-1335.4192811260111
 42
0.0052007732885694
 10
907.04091189083181
 20
-1335.3436877358429
 42
0.0054038123297046
 10
907.02094837899369
 20
-1335.2236694398373
 10
907.01586252312245
 20
-1335.1950109532518
 42
0.0112050460458649
 10
906.98047816106453
 20
-1335.0186845149146
 10
906.96265319902341
 20
-1334.9391429281918
 42
0.0240764468003733
 10
906.87175583287751
 20
-1334.6089058926921
 10
906.85319707006374
 20
-1334.5522857276969
 42
0.0256812331836524
 10
906.70983414987427
 20
-1334.1805615214396
 10
906.70442472405273
 20
-1334.1684301864495
 42
0.0268360501219859
 10
906.53499748320291
 20
-1333.8374370524289
 10
906.52946107556738
 20
-1333.8279173821159
 42
0.0274670231731341
 10
906.33726009915449
 20
-1333.5356300071994
 10
906.33187879919274
 20
-1333.5283508596592
 42
0.0275035967099969
 10
906.12030591963003
 20
-1333.2728349693539
 10
906.11523641866324
 20
-1333.2673558817232
 42
0.0269557673527106
 10
905.88783287522392
 20
-1333.046713595761
 10
905.88308981744126
 20
-1333.0425836413003
 42
0.0259124802209568
 10
905.64353498601054
 20
-1332.8548931141481
 10
905.63900414082741
 20
-1332.8517076118169
 42
0.024516215300534
 10
905.39108778773391
 20
-1332.6949746027071
 10
905.38656124141096
 20
-1332.692414405507
 42
0.0229282588834241
 10
905.13414168458235
 20
-1332.5645462130074
 10
905.12936119074664
 20
-1332.5623939132458
 42
0.0212984135689932
 10
904.87632323828393
 20
-1332.4611949960031
 10
904.87101895331557
 20
-1332.4593314332435
 42
0.0197555462335813
 10
904.62124061559143
 20
-1332.3825160152783
 42
0.0183511896788858
 10
904.36631189012758
 20
-1332.324933108313
 10
904.27994669340524
 20
-1332.3087303179279
 42
0.0338057877150234
 10
903.99443934414489
 20
-1332.2749219127877
 10
903.90343393908984
 20
-1332.2703422575255
 42
0.0091990524507295
 10
903.79758683046896
 20
-1332.2669664016041
 42
0.0028333980771751
 10
903.69167291449241
 20
-1332.2661382940873
 10
903.69075746142676
 20
-1332.2661363242632
 42
-0.0023619827802102
 10
903.58301144631139
 20
-1332.2653954831849
 10
903.54660627614498
 20
-1332.2649731767219
 42
0.0008824598477828
 10
903.36605028634779
 20
-1332.263197398484
 10
903.32218885388909
 20
-1332.2628434369581
 42
0.0038132665772496
 10
903.05390595800122
 20
-1332.2627245008914
 10
903.03737230321678
 20
-1332.2628432670349
 42
0.0060665569333051
 10
902.73609181163465
 20
-1332.2686635664554
 10
902.72184147960013
 20
-1332.2691118744233
 42
0.0080356953339408
 10
902.39238276325113
 20
-1332.2847795964908
 10
902.38031274817365
 20
-1332.2855481794306
 42
0.0098996399102004
 10
902.02754966353348
 20
-1332.3150334086276
 10
902.01750395414808
 20
-1332.316073704827
 42
0.0117740981368606
 10
901.64634709579457
 20
-1332.3633659523575
 10
901.63812439931678
 20
-1332.3646110689276
 42
0.0137435215134848
 10
901.25353557983237
 20
-1332.4337080424891
 10
901.24687854070839
 20
-1332.4350939387227
 42
0.0158359869387405
 10
900.8538814469008
 20
-1332.529986027205
 10
900.84846826003877
 20
-1332.5314759680741
 42
0.0180554124027319
 10
900.45215321542423
 20
-1332.6561139843134
 10
900.44759642734289
 20
-1332.657730020579
 42
0.0203657431284286
 10
900.05311890952873
 20
-1332.8159903620963
 10
900.0489753705242
 20
-1332.8178519835369
 42
0.0226819684659627
 10
899.66153931431654
 20
-1333.0134945622101
 10
899.65733952330243
 20
-1333.0158601541275
 42
0.0248634984605712
 10
899.2821575821232
 20
-1333.2524868000735
 10
899.23396265333815
 20
-1333.2863438418999
 42
0.0267044190883726
 10
898.95966995642073
 20
-1333.5017842177685
 42
0.0139303002198198
 10
898.70350279048296
 20
-1333.7390230586798
 10
898.698649404761
 20
-1333.7437757215407
 42
0.0283460963440792
 10
898.45457681053335
 20
-1334.0115063819862
 10
898.41490830537725
 20
-1334.0603079594589
 42
0.0070695364826138
 10
898.3374710795174
 20
-1334.1583747754244
 42
0.0070695364826138
  0
LWPOLYLINE
  5
12A
100
AcDbEntity
  8
0
370
              15
390
0
  6
Continuous
 62
               7
100
AcDbPolyline
 90
      226
 70
             128
 10
894.808650642271
 20
-1349.8799635816083
 42
-0.0026277636635946
 10
894.80857275847109
 20
-1349.8131916558582
 10
894.80879011670299
 20
-1349.760036438422
 42
-0.0088680296726388
 10
894.8125667329964
 20
-1349.5870206560114
 10
894.81491309210855
 20
-1349.5277406305654
 42
-0.0077381705619513
 10
894.83095920287167
 20
-1349.2364801347674
 10
894.8318271140447
 20
-1349.2241919010821
 42
-0.0068872530532016
 10
894.85845919379233
 20
-1348.9089701490191
 10
894.85966341797894
 20
-1348.8967291699946
 42
-0.0062130021492838
 10
894.89725713480607
 20
-1348.5578594787621
 10
894.89876103834195
 20
-1348.5456856068395
 42
-0.0056726929675333
 10
894.94768289784326
 20
-1348.1834903847323
 10
894.94945634348858
 20
-1348.1713965844806
 42
-0.0052341884494609
 10
895.01006692975034
 20
-1347.7862033289525
 10
895.01208491852526
 20
-1347.7741983989704
 42
-0.0049768450165593
 10
895.08482359995264
 20
-1347.3663538315318
 10
895.10907261467332
 20
-1347.2378058485319
 42
-0.0089029805623894
 10
895.2461534664684
 20
-1346.5760304011078
 10
895.2788988417866
 20
-1346.430998970586
 42
-0.0080318257099376
 10
895.50844745612687
 20
-1345.4852893387338
 10
895.52043238257556
 20
-1345.439158703542
 42
-0.0074265721319375
 10
895.80444392142613
 20
-1344.4090941251595
 10
895.82432346453834
 20
-1344.340960064585
 42
-0.0069711922703101
 10
896.15162804304885
 20
-1343.2746923242444
 10
896.21157999015395
 20
-1343.0886709658751
 42
-0.0052070422894837
 10
896.44100521541372
 20
-1342.4013988888423
 10
896.45828640758384
 20
-1342.3513716082314
 42
-0.0009167004449983
 10
896.66137829487525
 20
-1341.7669157600712
 42
-0.002516272694451
 10
896.86847592513459
 20
-1341.1838744959177
 10
896.9057005369425
 20
-1341.0807249500051
 42
-0.0028212681456967
 10
897.15387645590636
 20
-1340.404994317832
 10
897.16370721865053
 20
-1340.3786868731727
 42
-0.0031964916819852
 10
897.39999947631941
 20
-1339.7584821110283
 10
897.40963393032655
 20
-1339.7336721208642
 42
-0.0036281836450607
 10
897.6347398914196
 20
-1339.1662314399919
 10
897.64417830157731
 20
-1339.1429340084885
 42
-0.0041269166834447
 10
897.85879599823625
 20
-1338.6254931125109
 10
897.89142895466284
 20
-1338.5486146661362
 42
-0.0047472213054532
 10
898.04847376021064
 20
-1338.1881931982664
 10
898.05536784140645
 20
-1338.1727726009622
 42
-0.0025651659997019
 10
898.20372587526901
 20
-1337.845444545186
 42
-0.0057144634993348
 10
898.35747556904528
 20
-1337.5206348718134
 10
898.38550627444192
 20
-1337.4631264894285
 42
-0.0065388068374019
 10
898.56897330218135
 20
-1337.0988939927643
 10
898.57743175795588
 20
-1337.0826344134023
 42
-0.0074510843023567
 10
898.7536140038377
 20
-1336.7559461322721
 10
898.76179367437055
 20
-1336.7413053550001
 42
-0.0084648979861011
 10
898.93142752746871
 20
-1336.449396344042
 10
898.93928365395459
 20
-1336.4363893523948
 42
-0.0095638542808577
 10
899.1031191015511
 20
-1336.1765004804126
 10
899.11059404521893
 20
-1336.1651311189632
 42
-0.0107191626809667
 10
899.2693956256104
 20
-1335.934519884413
 10
899.2764123593397
 20
-1335.9247837920509
 42
-0.0118458573905862
 10
899.43096045785398
 20
-1335.7207115967378
 42
-0.0129184518196784
 10
899.59541308145481
 20
-1335.5245510805682
 10
899.6255578538204
 20
-1335.4904250016659
 42
-0.0217742579632721
 10
899.80217017615405
 20
-1335.3072182314177
 10
899.81291572061798
 20
-1335.2970013982115
 42
-0.0097266568652504
 10
899.97897333947003
 20
-1335.1451538237775
 42
-0.0187720905720869
 10
900.15332091535925
 20
-1335.0030849703887
 10
900.18402690602932
 20
-1334.9799258879955
 42
-0.0179428207522207
 10
900.41644762602994
 20
-1334.8173737108805
 10
900.42009995295018
 20
-1334.8150097759899
 42
-0.0170047877697398
 10
900.65586359047609
 20
-1334.6735492618413
 10
900.65964657921893
 20
-1334.6714509568071
 42
-0.0160190788374169
 10
900.89655512685795
 20
-1334.549799654817
 42
-0.0151102861492986
 10
901.14058690930756
 20
-1334.443116878761
 10
901.19297341151639
 20
-1334.4220767458676
 42
-0.0271945441884162
 10
901.55163597057708
 20
-1334.3002119351609
 10
901.6207007710608
 20
-1334.2808623938959
 42
-0.0237596594021576
 10
902.03649761808515
 20
-1334.1854116819136
 10
902.10456047181879
 20
-1334.1731569937863
 42
-0.0213715440549727
 10
902.39043540326088
 20
-1334.1342099622771
 10
902.45058256948164
 20
-1334.128620247576
 42
-0.010146565581737
 10
902.6180751014731
 20
-1334.1164767043119
 10
902.62741548767735
 20
-1334.1159897893144
 42
-0.010037591087426
 10
902.77656958823388
 20
-1334.1112139713896
 10
902.78682885791318
 20
-1334.1110915323752
 42
-0.0103625633383069
 10
902.91553685256918
 20
-1334.1122229659018
 10
902.93780250384043
 20
-1334.1128803243669
 42
-0.0115689250226216
 10
903.02185324136394
 20
-1334.1173098306117
 42
-0.0072438037426461
 10
903.10569152080336
 20
-1334.1248990303611
 10
903.12249203027591
 20
-1334.1266655730853
 42
-0.0217917313132728
 10
903.23906179359312
 20
-1334.1440854658072
 10
903.30466188416028
 20
-1334.1568320742217
 42
-0.0332943556748326
 10
903.50905404918467
 20
-1334.2108723655278
 10
903.53922661773231
 20
-1334.2210404426455
 42
-0.018482408479863
 10
903.6777316742
 20
-1334.2734914580328
 42
-0.0198002050689026
 10
903.81180601469771
 20
-1334.3363755182313
 10
903.81369265207627
 20
-1334.3373533051122
 42
-0.0212242342987148
 10
903.94583159447632
 20
-1334.413116043904
 10
903.94764689002182
 20
-1334.4142618461137
 42
-0.0226090605796758
 10
904.07615079124378
 20
-1334.5037414896785
 10
904.07799523298081
 20
-1334.5051537426657
 42
-0.0238457052251574
 10
904.20117731427342
 20
-1334.6091496385277
 10
904.20313004283287
 20
-1334.6109645162942
 42
-0.0248160564157479
 10
904.31933155013303
 20
-1334.7302391175024
 10
904.32143518353564
 20
-1334.7326244512074
 42
-0.0254109591448964
 10
904.42904040140218
 20
-1334.8679128371725
 10
904.43128842331566
 20
-1334.8710543855723
 42
-0.0255528488296968
 10
904.52873510211259
 20
-1335.0230814398062
 10
904.5310662020288
 20
-1335.0271630514139
 42
-0.025214679322478
 10
904.6168472280383
 20
-1335.1966652974115
 10
904.6191494671956
 20
-1335.2018473793239
 42
-0.0244265635947868
 10
904.6918041609573
 20
-1335.3895939513709
 10
904.70105056242585
 20
-1335.4174593697094
 42
-0.0231319612902842
 10
904.74697334141752
 20
-1335.58076041651
 42
-0.0112130424367273
 10
904.78160936395579
 20
-1335.7469640166989
 10
904.78281188906817
 20
-1335.7534606035861
 42
-0.021052788123622
 10
904.80849836443883
 20
-1335.934516249024
 10
904.81200895926099
 20
-1335.9699217975744
 42
-0.0190029892421606
 10
904.82745043280545
 20
-1336.2234576438434
 10
904.82826040924954
 20
-1336.2589332582156
 42
-0.0137974553662359
 10
904.82671155641412
 20
-1336.5839646649456
 10
904.82586610145847
 20
-1336.6100834095407
 42
-0.0081336634215704
 10
904.81100676623589
 20
-1336.9154308771413
 42
-0.0073526923570441
 10
904.78669823286111
 20
-1337.2201791214286
 10
904.78543680907853
 20
-1337.2335157960924
 42
-0.0066886138687118
 10
904.74970122302977
 20
-1337.5641018396091
 10
904.74804413356219
 20
-1337.5777234585812
 42
-0.0061359187351536
 10
904.70019353151122
 20
-1337.9344874386813
 10
904.69815603043844
 20
-1337.9483822415104
 42
-0.0056698610063853
 10
904.6375056996734
 20
-1338.3316608103364
 10
904.63510026634822
 20
-1338.3458199295792
 42
-0.0052721077275812
 10
904.5609680655499
 20
-1338.7559472692508
 10
904.55820491670693
 20
-1338.7703639046431
 42
-0.0049289272177967
 10
904.46991079860243
 20
-1339.2076724157869
 10
904.46679830392441
 20
-1339.2223412685812
 42
-0.0047415956710664
 10
904.3635603123887
 20
-1339.6871380260063
 10
904.32879210203225
 20
-1339.836945121375
 42
-0.008440447090194
 10
904.13877565845871
 20
-1340.5971691459126
 10
904.13264897047475
 20
-1340.6200332700596
 42
-0.003963594025906
 10
903.91119528619163
 20
-1341.4210221343039
 10
903.89781849101121
 20
-1341.4679537508987
 42
-0.0072475040837749
 10
903.63037160315082
 20
-1342.3571734672805
 10
903.56015927632086
 20
-1342.5789138172611
 42
-0.0051345458829113
 10
903.27339990426185
 20
-1343.4532390050722
 10
903.25187363748307
 20
-1343.5166652722353
 42
-0.0019150016601272
 10
902.99634023062765
 20
-1344.2602143924282
 10
902.98987262623996
 20
-1344.2788018573249
 42
-0.0021524362752172
 10
902.74139457516753
 20
-1344.9831276790578
 10
902.73218415446718
 20
-1345.0088812573701
 42
-0.0024331286821469
 10
902.4959288954351
 20
-1345.6594805654772
 10
902.48688094288332
 20
-1345.6840238718351
 42
-0.002744972179027
 10
902.26226637204923
 20
-1346.2831537507561
 10
902.25337636464974
 20
-1346.3064763406273
 42
-0.00310832297684
 10
902.03983387804703
 20
-1346.856400378188
 10
902.03109774637221
 20
-1346.8784900940441
 42
-0.0035311343281756
 10
901.82805656077971
 20
-1347.3814732197759
 10
901.81947122162933
 20
-1347.4023159432927
 42
-0.0040245640949964
 10
901.62635941783753
 20
-1347.8606252658788
 10
901.61792330423145
 20
-1347.8802046339576
 42
-0.0046015135851372
 10
901.43416701107071
 20
-1348.2961096635929
 10
901.42588083324915
 20
-1348.3144068030304
 42
-0.0052768638269329
 10
901.25090331428692
 20
-1348.6901796873153
 10
901.24277110366177
 20
-1348.7071730258549
 42
-0.006067267563956
 10
901.07599149089401
 20
-1349.0450886489728
 10
901.06802201041228
 20
-1349.0607539079704
 42
-0.0069904648870958
 10
900.90885361641085
 20
-1349.3630897146336
 10
900.90106221679878
 20
-1349.3774002638634
 42
-0.0080637022769273
 10
900.74891035645419
 20
-1349.6464355670141
 10
900.74132132381874
 20
-1349.6593634326221
 42
-0.00930064556652
 10
900.59558064729151
 20
-1349.8973778311179
 10
900.58822998055064
 20
-1349.9088958002867
 42
-0.0107060778056004
 10
900.44828143710947
 20
-1350.1181661176702
 10
900.44121966882778
 20
-1350.1282516602389
 42
-0.0122723111415703
 10
900.30642595063159
 20
-1350.3110449897249
 10
900.30609972707714
 20
-1350.3114653775351
 42
-0.0141836319630116
 10
900.1625181241036
 20
-1350.4860351353641
 10
900.15557036845519
 20
-1350.4940101356249
 42
-0.0175957477206254
 10
900.01566420041695
 20
-1350.6436310240338
 42
-0.0080466359664691
 10
899.86820043537693
 20
-1350.7859535521941
 10
899.8221658908692
 20
-1350.8289739902762
 42
-0.0269600260398984
 10
899.56888564488838
 20
-1351.0412972487838
 10
899.50231850858745
 20
-1351.0912486634106
 42
-0.0178362839750986
 10
899.26237401893343
 20
-1351.2582665896616
 10
899.25512904793402
 20
-1351.2629351018659
 42
-0.0174650732649039
 10
899.01879285049176
 20
-1351.4037960668256
 42
-0.0169240130167047
 10
898.77332660463651
 20
-1351.5280883266018
 10
898.72734044907611
 20
-1351.5494502821703
 42
-0.0318883036844203
 10
898.37698959345857
 20
-1351.6857885916795
 10
898.30862405829009
 20
-1351.7074892121564
 42
-0.0284435909900545
 10
897.93257393200042
 20
-1351.8037066476304
 10
897.89741577149823
 20
-1351.8106002434597
 42
-0.0243909341010652
 10
897.58397231058291
 20
-1351.8563212744891
 10
897.53369158381724
 20
-1351.8611668213903
 42
-0.0196639292935015
 10
897.31809600628458
 20
-1351.8734151069043
 10
897.26627193512581
 20
-1351.8743183676411
 42
-0.0100501510682827
 10
897.15384865345686
 20
-1351.8740179692879
 10
897.12218879210866
 20
-1351.8732968974025
 42
-0.0019752031113465
 10
897.07309645543137
 20
-1351.8719847371931
 10
897.07033615220234
 20
-1351.8719000453666
 42
0.0065378752019438
 10
897.02675957745441
 20
-1351.8711331541517
 42
-0.0167974694660236
 10
896.98322875452243
 20
-1351.8694732556255
 10
896.97914941526051
 20
-1351.8691802447306
 42
-0.0081283276287781
 10
896.92758961751906
 20
-1351.8646332510925
 10
896.91585004364356
 20
-1351.8634053335145
 42
-0.0126703440184053
 10
896.84113174785068
 20
-1351.8536705424431
 10
896.81834388017319
 20
-1351.8501122865277
 42
-0.0117852088439516
 10
896.6988048943424
 20
-1351.8285492913708
 10
896.64342444257784
 20
-1351.817205751136
 42
-0.0251774592291683
 10
896.41658040357095
 20
-1351.7587077417036
 10
896.37186121371417
 20
-1351.7447409223664
 42
-0.0146525199878462
 10
896.18546822618043
 20
-1351.6804743951698
 42
-0.0166929435854563
 10
896.00349057005235
 20
-1351.6046672621144
 10
895.99883393878054
 20
-1351.602542361501
 42
-0.0191684358433994
 10
895.81365030753375
 20
-1351.5093062777123
 10
895.81031772177448
 20
-1351.5074650301576
 42
-0.0221181781811252
 10
895.62700741787114
 20
-1351.3953315317863
 10
895.62465761386375
 20
-1351.3937472337959
 42
-0.025498468538351
 10
895.4483674634788
 20
-1351.2613360838266
 10
895.42588531577678
 20
-1351.2425837748901
 42
-0.0292492648810045
 10
895.30111637693346
 20
-1351.125490975247
 42
-0.0159048957496639
 10
895.18727637948234
 20
-1350.9974709836467
 10
895.1859575889041
 20
-1350.995889370628
 42
-0.0343813379558936
 10
895.08332032727708
 20
-1350.8540180448574
 10
895.05182879591655
 20
-1350.8035146527639
 42
-0.0369117275695536
 10
894.96593629401968
 20
-1350.6400374118159
 42
-0.0191751379907219
 10
894.89874290846296
 20
-1350.467632805811
 10
894.8969795847031
 20
-1350.4625394611351
 42
-0.0378178042219201
 10
894.84718486591873
 20
-1350.2735986850523
 10
894.84118957018813
 20
-1350.2410380668537
 42
-0.0184846046473205
 10
894.82047237089432
 20
-1350.0992852463119
 42
-0.0179866351323726
 10
894.81013936582065
 20
-1349.9563944332324
 10
894.81008292337481
 20
-1349.9548367466182
 42
-0.0085497186109164
 10
894.808650642271
 20
-1349.8799635816083
 42
-0.0085497186109164
  0
ENDBLK
  5
12B
100
AcDbEntity
  8
ABA70-0001
390
0
100
AcDbBlockEnd
  0
BLOCK
  5
12C
100
AcDbEntity
  8
ABA70-0001
390
0
100
AcDbBlockBegin
  2
*D19
 70
               1
 10
0.0
 20
0.0
 30
0.0
  3
*D19
  1

  0
LINE
  5
12D
100
AcDbEntity
  8
0
370
              -2
390
0
  6
Continuous
 62
               0
100
AcDbLine
 10
634.26077861587805
 20
970.9291567669643
 30
0.0
 11
634.26077861587805
 21
948.0
 31
0.0
  0
LINE
  5
12E
100
AcDbEntity
  8
0
370
              -2
390
0
  6
Continuous
 62
               0
100
AcDbLine
 10
469.26077861587805
 20
970.9291567669643
 30
0.0
 11
469.26077861587805
 21
948.0
 31
0.0
  0
LINE
  5
12F
100
AcDbEntity
  8
0
370
              -2
390
0
  6
Continuous
 62
               0
100
AcDbLine
 10
634.26077861587805
 20
948.0
 30
0.0
 11
469.26077861587805
 21
948.0
 31
0.0
  0
CIRCLE
  5
130
102
{ACAD_REACTORS
330
131
102
}
100
AcDbEntity
  8
0
370
              -2
390
0
  6
Continuous
 62
               0
100
AcDbCircle
 10
634.26077861587805
 20
948.0
 30
0.0
 40
1.9998779296875
  0
HATCH
  5
131
100
AcDbEntity
  8
0
370
              -2
390
0
  6
Continuous
 62
               0
100
AcDbHatch
 10
0.0
 20
0.0
 30
0.0
210
0.0
220
0.0
230
1.0
  2
SOLID
 70
               1
 71
               1
 91
        1
 92
        1
 93
        1
 72
               2
 10
634.26077861587805
 20
948.0
 40
1.9998779296875
 50
0.0
 51
360.0
 73
               0
 97
        1
330
130
 75
               0
 76
               1
 98
        1
 10
0.0
 20
0.0
  0
CIRCLE
  5
132
102
{ACAD_REACTORS
330
133
102
}
100
AcDbEntity
  8
0
370
              -2
390
0
  6
Continuous
 62
               0
100
AcDbCircle
 10
469.26077861587805
 20
948.0
 30
0.0
 40
1.9998779296875
  0
HATCH
  5
133
100
AcDbEntity
  8
0
370
              -2
390
0
  6
Continuous
 62
               0
100
AcDbHatch
 10
0.0
 20
0.0
 30
0.0
210
0.0
220
0.0
230
1.0
  2
SOLID
 70
               1
 71
               1
 91
        1
 92
        1
 93
        1
 72
               2
 10
469.26077861587805
 20
948.0
 40
1.9998779296875
 50
0.0
 51
360.0
 73
               0
 97
        1
330
132
 75
               0
 76
               1
 98
        1
 10
0.0
 20
0.0
  0
MTEXT
  5
134
100
AcDbEntity
  8
0
390
0
 62
               0
100
AcDbMText
 10
480.32327861587805
 20
981.87761718750005
 30
0.0
 40
24.432617187500004
 41
0.0
 71
               1
 72
               1
  1
165(深さ)
  7
ＭＳ ゴシック
 73
               1
 44
0.7828267384257844
  0
POINT
  5
135
100
AcDbEntity
  8
Defpoints
370
               0
390
0
 62
               0
100
AcDbPoint
 10
469.26077861587805
 20
945.9291567669643
 30
0.0
  0
POINT
  5
136
100
AcDbEntity
  8
Defpoints
370
               0
390
0
 62
               0
100
AcDbPoint
 10
634.26077861587805
 20
945.9291567669643
 30
0.0
  0
POINT
  5
137
100
AcDbEntity
  8
Defpoints
370
               0
390
0
 62
               0
100
AcDbPoint
 10
634.26077861587805
 20
948.0
 30
0.0
  0
ENDBLK
  5
138
100
AcDbEntity
  8
ABA70-0001
390
0
100
AcDbBlockEnd
  0
ENDSEC
  0
SECTION
  2
ENTITIES
  0
MTEXT
  5
139
100
AcDbEntity
  8
ABA70-0001
390
0
 62
               7
100
AcDbMText
 10
-968.00000000024193
 20
-1139.7033403455116
 30
0.0
 40
16.288411458333332
 41
0.0
 71
               1
 72
               1
  1
品名
  7
ＭＳ ゴシック
 73
               1
 44
0.7859706209094221
  0
MTEXT
  5
13A
100
AcDbEntity
  8
ABA70-0001
390
0
 62
               7
100
AcDbMText
 10
-968.00000000024193
 20
-1224.7033403455116
 30
0.0
 40
16.288411458333332
 41
0.0
 71
               1
 72
               1
  1
仕様
  7
ＭＳ ゴシック
 73
               1
 44
0.7859706209094221
  0
MTEXT
  5
13B
100
AcDbEntity
  8
ABA70-0001
390
0
 62
               7
100
AcDbMText
 10
-915.00000000024193
 20
-1168.2858012830111
 30
0.0
 40
24.432617187500004
 41
0.0
 71
               1
 72
               1
  1
洗面器  -HATRIA,Dolcevita-
  7
ＭＳ ゴシック
 73
               1
 44
0.7859706209094218
  0
LINE
  5
13C
100
AcDbEntity
  8
ABA70-0001
370
               5
390
0
  6
Continuous
 62
               7
100
AcDbLine
 10
974.99999999927604
 20
-1216.2884184705108
 30
0.0
 11
-975.00000000072396
 21
-1216.2884184705108
 31
0.0
  0
POLYLINE
  5
13D
100
AcDbEntity
  8
ABA70-0001
370
               5
390
0
  6
Continuous
 62
               7
100
AcDb2dPolyline
 66
               1
 10
0.0
 20
0.0
 30
0.0
 75
               5
  0
VERTEX
  5
13E
100
AcDbEntity
  8
ABA70-0001
370
               5
390
0
  6
Continuous
 62
               7
100
AcDbVertex
100
AcDb2dVertex
 10
974.99999999975853
 20
1413.7115815294892
 30
0.0
  0
VERTEX
  5
13F
100
AcDbEntity
  8
ABA70-0001
370
               5
390
0
  6
Continuous
 62
               7
100
AcDbVertex
100
AcDb2dVertex
 10
-975.00000000024193
 20
1413.7115815294892
 30
0.0
  0
VERTEX
  5
140
100
AcDbEntity
  8
ABA70-0001
370
               5
390
0
  6
Continuous
 62
               7
100
AcDbVertex
100
AcDb2dVertex
 10
-975.00000000024193
 20
-1386.2884184705108
 30
0.0
  0
VERTEX
  5
141
100
AcDbEntity
  8
ABA70-0001
370
               5
390
0
  6
Continuous
 62
               7
100
AcDbVertex
100
AcDb2dVertex
 10
974.99999999975853
 20
-1386.2884184705108
 30
0.0
  0
VERTEX
  5
142
100
AcDbEntity
  8
ABA70-0001
370
               5
390
0
  6
Continuous
 62
               7
100
AcDbVertex
100
AcDb2dVertex
 10
974.99999999975853
 20
1413.7115815294892
 30
0.0
  0
SEQEND
  5
143
100
AcDbEntity
  8
ABA70-0001
370
               5
390
0
  6
Continuous
 62
               7
  0
LINE
  5
144
100
AcDbEntity
  8
ABA70-0001
370
               5
390
0
  6
Continuous
 62
               7
100
AcDbLine
 10
974.99999999927604
 20
-1131.2884184705108
 30
0.0
 11
-975.00000000072396
 21
-1131.2884184705108
 31
0.0
  0
LINE
  5
145
100
AcDbEntity
  8
ABA70-0001
370
               5
390
0
  6
Continuous
 62
               7
100
AcDbLine
 10
974.99999999975853
 20
-1301.2884184705108
 30
0.0
 11
221.99999999975853
 21
-1301.2884184705108
 31
0.0
  0
MTEXT
  5
146
100
AcDbEntity
  8
ABA70-0001
390
0
 62
               7
100
AcDbMText
 10
-915.00000000024193
 20
-1253.2858012830111
 30
0.0
 40
24.432617187500004
 41
0.0
 71
               1
 72
               1
  1
壁掛け/オーバーフロー付き/壁取付ボルト付属/陶器/ホワイト
  7
ＭＳ ゴシック
 73
               1
 44
1.1352908968691646
  0
MTEXT
  5
147
100
AcDbEntity
  8
ABA70-0001
390
0
 62
               7
100
AcDbMText
 10
-975.00000000003865
 20
-1398.1422405273661
 30
0.0
 40
21.717881944444446
 41
0.0
 71
               1
 72
               1
  1
120221HS
  7
ＭＳ ゴシック
 73
               1
 44
0.7859706209094221
  0
MTEXT
  5
148
100
AcDbEntity
  8
ABA70-0001
390
0
 62
               7
100
AcDbMText
 10
251.87140625201818
 20
-1331.1988129438178
 30
0.0
 40
24.432617187500004
 41
0.0
 71
               1
 72
               1
  1
大洋金物株式会社 ティーフォルム事業部
  7
ＭＳ ゴシック
 73
               1
 44
0.7859706209094218
  0
MTEXT
  5
149
100
AcDbEntity
  8
ABA70-0001
390
0
 62
               7
100
AcDbMText
 10
784.00000000001728
 20
-1253.2858012830111
 30
0.0
 40
24.432617187500004
 41
0.0
 71
               1
 72
               1
  1
1:10
  7
ＭＳ ゴシック
 73
               1
 44
0.7859706209094218
  0
MTEXT
  5
14A
100
AcDbEntity
  8
ABA70-0001
390
0
 62
               7
100
AcDbMText
 10
731.00000000001728
 20
-1224.7033403455116
 30
0.0
 40
16.288411458333332
 41
0.0
 71
               1
 72
               1
  1
縮尺
  7
ＭＳ ゴシック
 73
               1
 44
0.7859706209094221
  0
LINE
  5
14B
100
AcDbEntity
  8
ABA70-0001
370
               5
390
0
  6
Continuous
 62
               7
100
AcDbLine
 10
724.00000000001728
 20
-1301.2884184705108
 30
0.0
 11
724.00000000001728
 21
-1216.2884184705108
 31
0.0
  0
MTEXT
  5
14C
100
AcDbEntity
  8
ABA70-0001
390
0
 62
               7
100
AcDbMText
 10
480.00000000001728
 20
-1224.7033403455116
 30
0.0
 40
16.288411458333332
 41
0.0
 71
               1
 72
               1
  1
容量
  7
ＭＳ ゴシック
 73
               1
 44
0.7859706209094221
  0
MTEXT
  5
14D
100
AcDbEntity
  8
ABA70-0001
390
0
 62
               7
100
AcDbMText
 10
533.00000000001728
 20
-1253.2858012830111
 30
0.0
 40
24.432617187500004
 41
0.0
 71
               1
 72
               1
  1
9L
  7
ＭＳ ゴシック
 73
               1
 44
0.7859706209094218
  0
LINE
  5
14E
100
AcDbEntity
  8
ABA70-0001
370
               5
390
0
  6
Continuous
 62
               7
100
AcDbLine
 10
473.00000000001728
 20
-1301.2884184705108
 30
0.0
 11
473.00000000001728
 21
-1216.2884184705108
 31
0.0
  0
MTEXT
  5
14F
100
AcDbEntity
  8
ABA70-0001
390
0
 62
               7
100
AcDbMText
 10
229.00000000001728
 20
-1139.7033403455116
 30
0.0
 40
16.288411458333332
 41
0.0
 71
               1
 72
               1
  1
品番
  7
ＭＳ ゴシック
 73
               1
 44
0.7859706209094221
  0
MTEXT
  5
150
100
AcDbEntity
  8
ABA70-0001
390
0
 62
               7
100
AcDbMText
 10
229.00000000001728
 20
-1224.7033403455116
 30
0.0
 40
16.288411458333332
 41
0.0
 71
               1
 72
               1
  1
重量
  7
ＭＳ ゴシック
 73
               1
 44
0.7859706209094221
  0
MTEXT
  5
151
100
AcDbEntity
  8
ABA70-0001
390
0
 62
               7
100
AcDbMText
 10
282.00000000001728
 20
-1168.2858012830111
 30
0.0
 40
24.432617187500004
 41
0.0
 71
               1
 72
               1
  1
ABA70-0001
  7
ＭＳ ゴシック
 73
               1
 44
0.7859706209094218
  0
MTEXT
  5
152
100
AcDbEntity
  8
ABA70-0001
390
0
 62
               7
100
AcDbMText
 10
282.00000000001728
 20
-1253.2858012830111
 30
0.0
 40
24.432617187500004
 41
0.0
 71
               1
 72
               1
  1
34kg
  7
ＭＳ ゴシック
 73
               1
 44
0.7859706209094218
  0
LINE
  5
153
100
AcDbEntity
  8
ABA70-0001
370
               5
390
0
  6
Continuous
 62
               7
100
AcDbLine
 10
222.00000000001728
 20
-1386.2884184705108
 30
0.0
 11
222.00000000001728
 21
-1131.2884184705108
 31
0.0
  0
DIMENSION
  5
154
100
AcDbEntity
  8
ABA70-0001
370
               5
390
0
  6
Continuous
 62
               7
100
AcDbDimension
  2
*D2
 10
-801.38189924349399
 20
-869.56463240675112
 30
0.0
 11
-801.38189924349399
 21
-369.56465659652895
 31
0.0
 71
               5
 72
               1
 41
1.0
 42
0.0
  3
tfrom線あり
100
AcDbAlignedDimension
 13
-575.15663898749381
 23
130.43531921369322
 33
0.0
 14
-575.15663898748471
 24
-869.56463240675112
 34
0.0
 50
90.0
100
AcDbRotatedDimension
1001
ACAD
1000
DSTYLE
1002
{
1070
             279
1070
               2
1070
             340
1005
35
1070
             147
1040
5.0
1002
}
  0
DIMENSION
  5
155
100
AcDbEntity
  8
ABA70-0001
370
               5
390
0
  6
Continuous
 62
               7
100
AcDbDimension
  2
*D3
 10
-751.38189924300468
 20
-366.51568561240128
 30
0.0
 11
-751.38189924300468
 21
-416.51568561240128
 31
0.0
 71
               5
 72
               1
 41
1.0
 42
0.0
  3
tfrom線あり
100
AcDbAlignedDimension
 13
-586.85981440200385
 23
-466.51568561240128
 33
0.0
 14
-586.85981440200385
 24
-366.51568561240128
 34
0.0
 50
90.0
100
AcDbRotatedDimension
1001
ACAD
1000
DSTYLE
1002
{
1070
             279
1070
               2
1070
             340
1005
35
1070
             147
1040
5.0
1002
}
  0
DIMENSION
  5
156
100
AcDbEntity
  8
ABA70-0001
370
               5
390
0
  6
Continuous
 62
               7
100
AcDbDimension
  2
*D4
 10
-751.38189924300468
 20
-266.51568561240128
 30
0.0
 11
-751.38189924300468
 21
-316.51568561240128
 31
0.0
 71
               5
 72
               1
 41
1.0
 42
0.0
  3
tfrom線あり
100
AcDbAlignedDimension
 13
-586.85981440200385
 23
-366.51568561240128
 33
0.0
 14
-586.85981440200385
 24
-266.51568561240128
 34
0.0
 50
90.0
100
AcDbRotatedDimension
1001
ACAD
1000
DSTYLE
1002
{
1070
             279
1070
               2
1070
             340
1005
35
1070
             147
1040
5.0
1002
}
  0
DIMENSION
  5
157
100
AcDbEntity
  8
ABA70-0001
370
               5
390
0
  6
Continuous
 62
               7
100
AcDbDimension
  2
*D5
 10
348.10922391532597
 20
-229.56465659652895
 30
0.0
 11
348.10922391532597
 21
-369.56465659652895
 31
0.0
 71
               5
 72
               1
 41
1.0
 42
0.0
  3
tfrom線あり
100
AcDbAlignedDimension
 13
508.10922391532597
 23
-509.56465659652895
 33
0.0
 14
508.10922391532597
 24
-229.56465659652895
 34
0.0
 50
90.0
100
AcDbRotatedDimension
1001
ACAD
1000
DSTYLE
1002
{
1070
             279
1070
               2
1070
             340
1005
35
1070
             147
1040
5.0
1002
}
  0
DIMENSION
  5
158
100
AcDbEntity
  8
ABA70-0001
370
               5
390
0
  6
Continuous
 62
               7
100
AcDbDimension
  2
*D6
 10
-1.3818992431265542
 20
-629.56465659653077
 30
0.0
 11
-1.3818992431265542
 21
-369.56465659653077
 31
0.0
 71
               5
 72
               1
 41
1.0
 42
0.0
  3
tfrom線あり
100
AcDbAlignedDimension
 13
-102.05750110212693
 23
-109.56465659653077
 33
0.0
 14
-102.05748009776698
 24
-629.56465659653077
 34
0.0
 50
90.0
100
AcDbRotatedDimension
1001
ACAD
1000
DSTYLE
1002
{
1070
             279
1070
               2
1070
             340
1005
35
1070
             147
1040
5.0
1002
}
  0
MTEXT
  5
159
100
AcDbEntity
  8
ABA70-0001
390
0
 62
               7
100
AcDbMText
 10
372.76040532964231
 20
-146.28919117558689
 30
0.0
 40
24.432617187500004
 41
0.0
 71
               1
 72
               1
  1
壁取付ボルト穴(2ヶ所)
  7
ＭＳ ゴシック
 11
0.0
 21
1.0
 31
0.0
 73
               1
 44
0.7859706209094218
  0
LINE
  5
15A
100
AcDbEntity
  8
ABA70-0001
370
               5
390
0
  6
Continuous
 62
               7
100
AcDbLine
 10
528.10922391532597
 20
-229.56465659652895
 30
0.0
 11
406.91594857074972
 21
-108.37138125195452
 31
0.0
  0
MTEXT
  5
15B
100
AcDbEntity
  8
ABA70-0001
390
0
 62
               7
100
AcDbMText
 10
97.352851394257129
 20
-796.63069547343184
 30
0.0
 40
24.432617187500004
 41
833.0
 71
               1
 72
               1
  1
＝φ30もしくはφ35の水栓取付用穴あけ加工を承ります。\P  必要な場合、ご注文の際にご指示ください。
  7
ＭＳ ゴシック
 11
0.0
 21
1.0
 31
0.0
 73
               1
 44
1.1789559313641329
  0
CIRCLE
  5
15C
100
AcDbEntity
  8
ABA70-0001
370
               5
390
0
  6
STYLE_01
 62
               7
100
AcDbCircle
 10
106.8008244755033
 20
-822.02876074814958
 30
0.0
 40
17.5
  0
DIMENSION
  5
15D
100
AcDbEntity
  8
ABA70-0001
370
               5
390
0
  6
Continuous
 62
               7
100
AcDbDimension
  2
*D7
 10
-101.38189924346307
 20
230.43531921418617
 30
0.0
 11
-376.38189924346307
 21
230.43531921418617
 31
0.0
 71
               5
 72
               1
 41
1.0
 42
0.0
  3
tfrom線あり
100
AcDbAlignedDimension
 13
-651.38189924346307
 23
63.406672666185841
 33
0.0
 14
-101.38189924346307
 24
63.406672666202212
 34
0.0
100
AcDbRotatedDimension
1001
ACAD
1000
DSTYLE
1002
{
1070
             279
1070
               2
1070
             340
1005
35
1070
             147
1040
5.0
1002
}
  0
DIMENSION
  5
15E
100
AcDbEntity
  8
ABA70-0001
370
               5
390
0
  6
Continuous
 62
               7
100
AcDbDimension
  2
*D8
 10
678.11204737364471
 20
540.03259695915585
 30
0.0
 11
605.61932201282355
 21
540.03259695915585
 31
0.0
 71
               5
 72
               1
 41
1.0
 42
0.0
  3
tfrom線あり
100
AcDbAlignedDimension
 13
533.12659665200238
 23
669.50317638110573
 33
0.0
 14
678.11204737364471
 24
913.42889015630863
 34
0.0
100
AcDbRotatedDimension
1001
ACAD
1000
DSTYLE
1002
{
1070
             279
1070
               2
1070
             340
1005
35
1070
             147
1040
5.0
1002
}
  0
DIMENSION
  5
15F
100
AcDbEntity
  8
ABA70-0001
370
               5
390
0
  6
Continuous
 62
               7
100
AcDbDimension
  2
*D9
 10
533.11526346093353
 20
540.03259695915585
 30
0.0
 11
490.61172282721429
 21
540.03259695915585
 31
0.0
 71
               5
 72
               1
 41
1.0
 42
0.0
  3
tfrom線あり
100
AcDbAlignedDimension
 13
448.10818219349505
 23
621.53492579257727
 33
0.0
 14
533.11526346093353
 24
669.48566040699188
 34
0.0
100
AcDbRotatedDimension
1001
ACAD
1000
DSTYLE
1002
{
1070
             279
1070
               2
1070
             340
1005
35
1070
             147
1040
5.0
1002
}
  0
DIMENSION
  5
160
100
AcDbEntity
  8
ABA70-0001
370
               5
390
0
  6
Continuous
 62
               7
100
AcDbDimension
  2
*D10
 10
678.10929927219524
 20
230.43531921418617
 30
0.0
 11
563.10926159376061
 21
230.43531921418617
 31
0.0
 71
               5
 72
               1
 41
1.0
 42
0.0
  3
tfrom線あり
100
AcDbAlignedDimension
 13
448.10922391532597
 23
124.37938780170407
 33
0.0
 14
678.10929927219524
 24
-337.06351984769026
 34
0.0
100
AcDbRotatedDimension
1001
ACAD
1000
DSTYLE
1002
{
1070
             279
1070
               2
1070
             340
1005
35
1070
             147
1040
5.0
1002
}
  0
DIMENSION
  5
161
100
AcDbEntity
  8
ABA70-0001
370
               5
390
0
  6
Continuous
 62
               7
100
AcDbDimension
  2
*D11
 10
778.1289661926877
 20
1190.5078190595414
 30
0.0
 11
778.1289661926877
 21
1068.0078190595414
 31
0.0
 71
               5
 72
               1
 41
1.0
 42
0.0
  3
tfrom線あり
100
AcDbAlignedDimension
 13
677.87754249368857
 23
945.50781905954136
 33
0.0
 14
650.22795800365395
 24
1190.5078190595414
 34
0.0
 50
90.0
100
AcDbRotatedDimension
1001
ACAD
1000
DSTYLE
1002
{
1070
             279
1070
               2
1070
             340
1005
35
1070
             147
1040
5.0
1002
}
  0
DIMENSION
  5
162
100
AcDbEntity
  8
ABA70-0001
370
               5
390
0
  6
Continuous
 62
               7
100
AcDbDimension
  2
*D12
 10
348.11350577877067
 20
1105.4862860618941
 30
0.0
 11
348.11350577877067
 21
1147.9862860618941
 31
0.0
 71
               5
 72
               1
 41
1.0
 42
0.0
  3
tfrom線あり
100
AcDbAlignedDimension
 13
448.11350577877067
 23
1190.4862860618941
 33
0.0
 14
466.5612707116544
 24
1105.4862860618941
 34
0.0
 50
90.0
100
AcDbRotatedDimension
1001
ACAD
1000
DSTYLE
1002
{
1070
             279
1070
               2
1070
             340
1005
35
1070
             147
1040
5.0
1002
}
  0
DIMENSION
  5
163
100
AcDbEntity
  8
ABA70-0001
370
               5
390
0
  6
Continuous
 62
               7
100
AcDbDimension
  2
*D13
 10
-506.38189924346307
 20
-969.56463324234937
 30
0.0
 11
-578.88189924346307
 21
-969.56463324234937
 31
0.0
 71
               5
 72
               1
 41
1.0
 42
0.0
  3
tfrom線あり
100
AcDbAlignedDimension
 13
-651.38189924346307
 23
-802.57879763634992
 33
0.0
 14
-506.38189924346307
 24
-869.56463385132156
 34
0.0
100
AcDbRotatedDimension
1001
ACAD
1000
DSTYLE
1002
{
1070
             279
1070
               2
1070
             340
1005
35
1070
             147
1040
5.0
1002
}
  0
DIMENSION
  5
164
100
AcDbEntity
  8
ABA70-0001
370
               5
390
0
  6
Continuous
 62
               7
100
AcDbDimension
  2
*D14
 10
-181.38189924346307
 20
-969.56463324234937
 30
0.0
 11
-343.88189924346307
 21
-969.56463324234937
 31
0.0
 71
               5
 72
               1
 41
1.0
 42
0.0
  3
tfrom線あり
100
AcDbAlignedDimension
 13
-506.38189924346307
 23
-869.56463385132156
 33
0.0
 14
-181.38189924346307
 24
-869.4560339852851
 34
0.0
100
AcDbRotatedDimension
1001
ACAD
1000
DSTYLE
1002
{
1070
             279
1070
               2
1070
             340
1005
35
1070
             147
1040
5.0
1002
}
  0
DIMENSION
  5
165
100
AcDbEntity
  8
ABA70-0001
370
               5
390
0
  6
Continuous
 62
               7
100
AcDbDimension
  2
*D15
 10
448.10922391532597
 20
-969.56463324234937
 30
0.0
 11
488.10922391532597
 21
-969.56463324234937
 31
0.0
 71
               5
 72
               1
 41
1.0
 42
0.0
  3
tfrom線あり
100
AcDbAlignedDimension
 13
528.10922391532597
 23
-529.56465659652895
 33
0.0
 14
448.10922391532597
 24
-863.50870099476379
 34
0.0
100
AcDbRotatedDimension
1001
ACAD
1000
DSTYLE
1002
{
1070
             279
1070
               2
1070
             340
1005
35
1070
             147
1040
5.0
1002
}
  0
DIMENSION
  5
166
100
AcDbEntity
  8
ABA70-0001
370
               5
390
0
  6
Continuous
 62
               7
100
AcDbDimension
  2
*D16
 10
448.10922391532597
 20
-574.0
 30
0.0
 11
447.72216494378029
 21
-569.0
 31
0.0
 70
             128
 71
               5
 72
               1
 41
1.0
 42
0.0
  1
17
  3
tfrom線あり
100
AcDbAlignedDimension
 13
469.06009835945054
 23
-638.0842986836833
 33
0.0
 14
448.10922391532597
 24
-617.13342423956055
 34
0.0
100
AcDbRotatedDimension
1001
ACAD
1000
DSTYLE
1002
{
1070
             271
1070
               0
1070
             279
1070
               2
1070
             340
1005
35
1070
             174
1070
               0
1070
             147
1040
5.0
1002
}
  0
LWPOLYLINE
  5
167
100
AcDbEntity
  8
ABA70-0001
370
              15
390
0
  6
Continuous
 62
               7
100
AcDbPolyline
 90
        3
 70
             128
 10
-163.925618353142
 20
55.808828246576013
 10
-163.925618353142
 20
-668.96403364298567
 10
-163.925618353142
 20
-666.68445884969697
  0
LINE
  5
168
100
AcDbEntity
  8
ABA70-0001
370
              15
390
0
  6
Continuous
 62
               7
100
AcDbLine
 10
-651.38189924346307
 20
-802.57879763634992
 30
0.0
 11
-651.38189924346307
 21
63.449484443288384
 31
0.0
  0
LINE
  5
169
100
AcDbEntity
  8
ABA70-0001
370
              15
390
0
  6
Continuous
 62
               7
100
AcDbLine
 10
-588.83818013378414
 20
-790.25391222116014
 30
0.0
 11
-588.83818013378595
 21
55.808828246577832
 31
0.0
  0
LINE
  5
16A
100
AcDbEntity
  8
ABA70-0001
370
              15
390
0
  6
Continuous
 62
               7
100
AcDbLine
 10
-575.16073137407193
 20
-806.21093577415559
 30
0.0
 11
-177.60306710721898
 21
-806.21093577415559
 31
0.0
  0
LINE
  5
16B
100
AcDbEntity
  8
ABA70-0001
370
              15
390
0
  6
Continuous
 62
               7
100
AcDbLine
 10
-178.04364653217681
 20
-806.21093577415377
 30
0.0
 11
-574.79307780446152
 21
-806.21093577415377
 31
0.0
  0
LINE
  5
16C
100
AcDbEntity
  8
ABA70-0001
370
              15
390
0
  6
Continuous
 62
               7
100
AcDbLine
 10
-163.92561835314018
 20
-790.25391222116014
 30
0.0
 11
-163.92561835314018
 21
-668.96403364298385
 31
0.0
  0
ARC
  5
16D
100
AcDbEntity
  8
ABA70-0001
370
              15
390
0
  6
Continuous
 62
               7
100
AcDbCircle
 10
-179.51496855237792
 20
-790.73188758104334
 30
0.0
 40
15.596675930438849
100
AcDbArc
 50
277.04125064902661
 51
1.7561600609274706
  0
ARC
  5
16E
100
AcDbEntity
  8
ABA70-0001
370
              15
390
0
  6
Continuous
 62
               7
100
AcDbCircle
 10
-573.24882993454821
 20
-790.73188758104334
 30
0.0
 40
15.596675930438755
100
AcDbArc
 50
178.24383993907253
 51
262.95874935097333
  0
CIRCLE
  5
16F
100
AcDbEntity
  8
ABA70-0001
370
              15
390
0
  6
Continuous
 62
               7
100
AcDbCircle
 10
-406.54427325690313
 20
-367.22254198729206
 30
0.0
 40
35.79949243820738
  0
CIRCLE
  5
170
100
AcDbEntity
  8
ABA70-0001
370
              15
390
0
  6
Continuous
 62
               7
100
AcDbCircle
 10
-406.54427325690313
 20
-367.22254198729206
 30
0.0
 40
23.378996789435405
  0
LINE
  5
171
100
AcDbEntity
  8
ABA70-0001
370
              15
390
0
  6
Continuous
 62
               7
100
AcDbLine
 10
-177.6759929625664
 20
130.43532756251807
 30
0.0
 11
-575.15663898748471
 21
130.4353192136914
 31
0.0
  0
LINE
  5
172
100
AcDbEntity
  8
ABA70-0001
370
              15
390
0
  6
Continuous
 62
               7
100
AcDbLine
 10
-575.16073137407193
 20
71.765851799569646
 30
0.0
 11
-177.60306710721898
 21
71.765851799569646
 31
0.0
  0
LINE
  5
173
100
AcDbEntity
  8
ABA70-0001
370
              15
390
0
  6
Continuous
 62
               7
100
AcDbLine
 10
-178.04364653217681
 20
71.765851799569646
 30
0.0
 11
-574.79307780446152
 21
71.765851799569646
 31
0.0
  0
ARC
  5
174
100
AcDbEntity
  8
ABA70-0001
370
              15
390
0
  6
Continuous
 62
               7
100
AcDbCircle
 10
-179.51496855237792
 20
56.286803606459216
 30
0.0
 40
15.59667593043881
100
AcDbArc
 50
358.24383993906582
 51
82.958749350972496
  0
ARC
  5
175
100
AcDbEntity
  8
ABA70-0001
370
              15
390
0
  6
Continuous
 62
               7
100
AcDbCircle
 10
-573.24882993454821
 20
56.286803606459216
 30
0.0
 40
15.596675930437042
100
AcDbArc
 50
97.041250649027447
 51
181.75616006093418
  0
LINE
  5
176
100
AcDbEntity
  8
ABA70-0001
370
              15
390
0
  6
Continuous
 62
               7
100
AcDbLine
 10
647.57247180347451
 20
-269.14703850529077
 30
0.0
 11
647.57247180347451
 21
-268.73391397599516
 31
0.0
  0
CIRCLE
  5
177
100
AcDbEntity
  8
ABA70-0001
370
              15
390
0
  6
Continuous
 62
               7
100
AcDbCircle
 10
-566.38189924346307
 20
-366.51568561240128
 30
0.0
 40
18.5
  0
LWPOLYLINE
  5
178
100
AcDbEntity
  8
ABA70-0001
370
              15
390
0
  6
Continuous
 62
               7
100
AcDbPolyline
 90
        2
 70
             128
 10
-575.15663898749358
 20
130.43531921369322
 42
0.3792891939378952
 10
-651.38189924346284
 20
63.449484443290046
 42
0.3792891939378952
  0
LINE
  5
179
100
AcDbEntity
  8
ABA70-0001
370
              15
390
0
  6
Continuous
 62
               7
100
AcDbLine
 10
-177.60483614766645
 20
130.43532756401146
 30
0.0
 11
-575.15663898748471
 21
130.4353192136914
 31
0.0
  0
LWPOLYLINE
  5
17A
100
AcDbEntity
  8
ABA70-0001
370
              15
390
0
  6
Continuous
 62
               7
100
AcDbPolyline
 90
        2
 70
             128
 10
-101.38189924346295
 20
63.449484443290203
 42
0.3792891939378966
 10
-177.60715949943244
 20
130.43531921369322
 42
0.3792891939378966
  0
LWPOLYLINE
  5
17B
100
AcDbEntity
  8
ABA70-0001
370
              15
390
0
  6
Continuous
 62
               7
100
AcDbPolyline
 90
        2
 70
             128
 10
-651.38189924346307
 20
-802.57879763635003
 42
0.3792891939379027
 10
-575.15663898749381
 20
-869.56463240675305
 42
0.3792891939379027
  0
LINE
  5
17C
100
AcDbEntity
  8
ABA70-0001
370
              15
390
0
  6
Continuous
 62
               7
100
AcDbLine
 10
-177.60771339837856
 20
-869.56464075701297
 30
0.0
 11
-575.15663898748471
 21
-869.56463240675112
 31
0.0
  0
LWPOLYLINE
  5
17D
100
AcDbEntity
  8
ABA70-0001
370
              15
390
0
  6
Continuous
 62
               7
100
AcDbPolyline
 90
        2
 70
             128
 10
-177.60715949943236
 20
-869.56463240675293
 42
0.3792891939378952
 10
-101.38189924346295
 20
-802.57879763634992
 42
0.3792891939378952
  0
LINE
  5
17E
100
AcDbEntity
  8
ABA70-0001
370
              15
390
0
  6
Continuous
 62
               7
100
AcDbLine
 10
-101.38189924346307
 20
-802.57879763634992
 30
0.0
 11
-101.38189924346307
 21
63.449484443290203
 31
0.0
  0
LINE
  5
17F
100
AcDbEntity
  8
ABA70-0001
370
              15
390
0
  6
Continuous
 62
               7
100
AcDbLine
 10
448.10922391532597
 20
-863.50870099476379
 30
0.0
 11
448.10922391532597
 21
124.37938780170407
 31
0.0
  0
LWPOLYLINE
  5
180
100
AcDbEntity
  8
ABA70-0001
370
              15
390
0
  6
Continuous
 62
               7
100
AcDbPolyline
 90
        2
 70
             128
 10
448.10922391532597
 20
-863.50870099476379
 42
0.6501337605223527
 10
458.16088539459099
 20
-868.02612554974803
 42
0.6501337605223527
  0
LWPOLYLINE
  5
181
100
AcDbEntity
  8
ABA70-0001
370
              15
390
0
  6
Continuous
 62
               7
100
AcDbPolyline
 90
        2
 70
             128
 10
500.13188164201483
 20
-848.64839431449582
 42
0.1927369692839925
 10
458.16171747214685
 20
-868.02715914608416
 42
0.1927369692839925
  0
LINE
  5
182
100
AcDbEntity
  8
ABA70-0001
370
              15
390
0
  6
Continuous
 62
               7
100
AcDbLine
 10
500.13188164201358
 20
-848.64839431449764
 30
0.0
 11
525.13069048132832
 21
-848.52351142057523
 31
0.0
  0
LWPOLYLINE
  5
183
100
AcDbEntity
  8
ABA70-0001
370
              15
390
0
  6
Continuous
 62
               7
100
AcDbPolyline
 90
        2
 70
             128
 10
525.13069048133013
 20
-848.52351142057523
 42
0.4091527341524228
 10
533.10922391532597
 20
-840.63752664998538
 42
0.4091527341524228
  0
LINE
  5
184
100
AcDbEntity
  8
ABA70-0001
370
              15
390
0
  6
Continuous
 62
               7
100
AcDbLine
 10
533.10922391532597
 20
-840.63752664998538
 30
0.0
 11
533.10922391532597
 21
101.50821345692566
 31
0.0
  0
LWPOLYLINE
  5
185
100
AcDbEntity
  8
ABA70-0001
370
              15
390
0
  6
Continuous
 62
               7
100
AcDbPolyline
 90
        3
 70
             128
 10
533.10922391532597
 20
-628.05280413503897
 42
0.2512990878481783
 10
645.3999296166154
 20
-472.38943419343013
 10
645.57352825507053
 20
-471.0871513749189
  0
LWPOLYLINE
  5
186
100
AcDbEntity
  8
ABA70-0001
370
              15
390
0
  6
Continuous
 62
               7
100
AcDbPolyline
 90
        2
 70
             128
 10
645.5735282550703
 20
-471.08715137492118
 42
0.0367954581368927
 10
647.57246881656113
 20
-269.49921806759596
 42
0.0367954581368927
  0
LWPOLYLINE
  5
187
100
AcDbEntity
  8
ABA70-0001
370
              15
390
0
  6
Continuous
 62
               7
100
AcDbPolyline
 90
        3
 70
             128
 10
647.57246881656113
 20
-269.49921806759994
 10
647.39594671276245
 20
-268.17831243868739
 42
0.2540912431596066
 10
533.10922391532597
 20
-111.59595617178093
 42
0.2540912431596066
  0
LINE
  5
188
100
AcDbEntity
  8
ABA70-0001
370
              15
390
0
  6
Continuous
 62
               7
100
AcDbLine
 10
678.10929927219524
 20
-402.06399944768964
 30
0.0
 11
658.58541147219523
 21
-402.06392324768785
 31
0.0
  0
LINE
  5
189
100
AcDbEntity
  8
ABA70-0001
370
              15
390
0
  6
Continuous
 62
               7
100
AcDbLine
 10
678.10929927219524
 20
-337.06351984769026
 30
0.0
 11
678.10904558109553
 21
-402.06399944670011
 31
0.0
  0
LINE
  5
18A
100
AcDbEntity
  8
ABA70-0001
370
              15
390
0
  6
Continuous
 62
               7
100
AcDbLine
 10
678.10929927219524
 20
-337.06351984769026
 30
0.0
 11
658.4369230721951
 21
-337.063621447689
 31
0.0
  0
LINE
  5
18B
100
AcDbEntity
  8
ABA70-0001
370
              15
390
0
  6
Continuous
 62
               7
100
AcDbLine
 10
658.4369230721951
 20
-337.063621447689
 30
0.0
 11
650.06016541599467
 21
-328.57450775723009
 31
0.0
  0
LINE
  5
18C
100
AcDbEntity
  8
ABA70-0001
370
              15
390
0
  6
Continuous
 62
               7
100
AcDbLine
 10
658.58541147219523
 20
-402.06392324768785
 30
0.0
 11
649.25440465349686
 21
-411.52015120666329
 31
0.0
  0
LWPOLYLINE
  5
18D
100
AcDbEntity
  8
ABA70-0001
370
              15
390
0
  6
Continuous
 62
               7
100
AcDbPolyline
 90
        3
 70
             128
 10
532.12659665200238
 20
695.15759695915585
 42
0.286135597823707
 10
644.59284903427056
 20
830.89969607933563
 10
645.57248653323779
 20
838.13829742381495
  0
LINE
  5
18E
100
AcDbEntity
  8
ABA70-0001
370
              15
390
0
  6
Continuous
 62
               7
100
AcDbLine
 10
678.12913270742695
 20
978.42936975630801
 30
0.0
 11
678.12887901632723
 21
913.42889015729816
 31
0.0
  0
LINE
  5
18F
100
AcDbEntity
  8
ABA70-0001
370
              15
390
0
  6
Continuous
 62
               7
100
AcDbLine
 10
678.12887901632723
 20
913.42889015729816
 30
0.0
 11
658.41524664571818
 21
913.42896635631041
 31
0.0
  0
LINE
  5
190
100
AcDbEntity
  8
ABA70-0001
370
              15
390
0
  6
Continuous
 62
               7
100
AcDbLine
 10
658.41524664571818
 20
913.42896635631041
 30
0.0
 11
650.25008644571801
 21
905.1542305563089
 31
0.0
  0
LINE
  5
191
100
AcDbEntity
  8
ABA70-0001
370
              15
390
0
  6
Continuous
 62
               7
100
AcDbLine
 10
678.12913270742695
 20
978.42936975630801
 30
0.0
 11
658.26675824571805
 21
978.42926815630926
 31
0.0
  0
LINE
  5
192
100
AcDbEntity
  8
ABA70-0001
370
              15
390
0
  6
Continuous
 62
               7
100
AcDbLine
 10
658.26675824571805
 20
978.42926815630926
 30
0.0
 11
650.29613664571673
 21
986.50679835630945
 31
0.0
  0
LINE
  5
193
100
AcDbEntity
  8
ABA70-0001
370
              15
390
0
  6
STYLE_01
 62
               7
100
AcDbLine
 10
633.10758454554355
 20
968.42930486897421
 30
0.0
 11
678.12896619219657
 21
968.42912915451961
 31
0.0
  0
LINE
  5
194
100
AcDbEntity
  8
ABA70-0001
370
              15
390
0
  6
STYLE_01
 62
               7
100
AcDbLine
 10
633.10758454554355
 20
923.42930486897421
 30
0.0
 11
678.12821671472204
 21
923.42912915744455
 31
0.0
  0
SPLINE
  5
195
100
AcDbEntity
  8
ABA70-0001
370
              15
390
0
  6
STYLE_01
 62
               7
100
AcDbSpline
210
0.0
220
0.0
230
1.0
 70
               8
 71
               2
 72
               8
 73
               5
 74
               0
 42
0.000001
 43
0.000001
 40
0.0
 40
0.0
 40
0.0
 40
1.0
 40
2.0
 40
3.0
 40
3.0
 40
3.0
 10
469.0612707116544
 20
720.48628606189413
 30
0.0
 10
541.44300862047578
 20
716.48628606189413
 30
0.0
 10
620.11174943382878
 20
799.48628606189413
 30
0.0
 10
633.10676814843112
 20
904.70225584002037
 30
0.0
 10
633.10776636902494
 20
916.39566302276762
 30
0.0
  0
LINE
  5
196
100
AcDbEntity
  8
ABA70-0001
370
              15
390
0
  6
STYLE_01
 62
               7
100
AcDbLine
 10
469.0612707116544
 20
720.48628606189413
 30
0.0
 11
469.0612707116544
 21
1127.9425669522152
 31
0.0
  0
LINE
  5
197
100
AcDbEntity
  8
ABA70-0001
370
              15
390
0
  6
Continuous
 62
               7
100
AcDbLine
 10
650.23448497096081
 20
905.1542305563089
 30
0.0
 11
650.27382163537561
 21
1190.4862860618941
 31
0.0
  0
ARC
  5
198
100
AcDbEntity
  8
ABA70-0001
370
              15
390
0
  6
Continuous
 62
               7
100
AcDbCircle
 10
176.00399833367567
 20
904.47419863595132
 30
0.0
 40
474.23097420945487
100
AcDbArc
 50
351.95903991521533
 51
0.0821603278627094
  0
LINE
  5
199
100
AcDbEntity
  8
ABA70-0001
370
              15
390
0
  6
Continuous
 62
               7
100
AcDbLine
 10
533.12659665200238
 20
669.50317638110573
 30
0.0
 11
533.12659665200238
 21
1190.4862860618941
 31
0.0
  0
SPLINE
  5
19A
100
AcDbEntity
  8
ABA70-0001
370
              15
390
0
  6
STYLE_01
 62
               7
100
AcDbSpline
210
0.0
220
0.0
230
1.0
 70
               8
 71
               2
 72
               7
 73
               4
 74
               0
 42
0.000001
 43
0.000001
 40
0.0
 40
0.0
 40
0.0
 40
1.0
 40
2.0
 40
2.0
 40
2.0
 10
469.0612707116544
 20
1045.4862860618941
 30
0.0
 10
587.82226406425991
 20
1037.8964825602034
 30
0.0
 10
624.28636567939805
 20
1001.2111287133594
 30
0.0
 10
633.10758454554355
 20
968.42930486897421
 30
0.0
  0
SPLINE
  5
19B
100
AcDbEntity
  8
ABA70-0001
370
              15
390
0
  6
STYLE_01
 62
               7
100
AcDbSpline
210
0.0
220
0.0
230
1.0
 70
               8
 71
               2
 72
               7
 73
               4
 74
               0
 42
0.000001
 43
0.000001
 40
0.0
 40
0.0
 40
0.0
 40
1.0
 40
2.0
 40
2.0
 40
2.0
 10
469.0612707116544
 20
1127.9425669522152
 30
0.0
 10
469.0612707116544
 20
1133.0901205426908
 30
0.0
 10
448.12874515409942
 20
1174.4704098494476
 30
0.0
 10
448.12874515409942
 20
1185.1575969591559
 30
0.0
  0
LINE
  5
19C
100
AcDbEntity
  8
ABA70-0001
370
              15
390
0
  6
Continuous
 62
               7
100
AcDbLine
 10
448.11350577877067
 20
646.39178986141451
 30
0.0
 11
448.11350577877067
 21
1190.4862860618941
 31
0.0
  0
LINE
  5
19D
100
AcDbEntity
  8
ABA70-0001
370
              15
390
0
  6
Continuous
 62
               7
100
AcDbLine
 10
650.27382163537561
 20
1190.4862860618941
 30
0.0
 11
448.11350577877067
 21
1190.4862860618941
 31
0.0
  0
LINE
  5
19E
100
AcDbEntity
  8
ABA70-0001
370
              15
390
0
  6
Continuous
 62
               7
100
AcDbLine
 10
469.0612707116544
 20
1122.9862860618941
 30
0.0
 11
484.0612707116544
 21
1122.9862860618941
 31
0.0
  0
LINE
  5
19F
100
AcDbEntity
  8
ABA70-0001
370
              15
390
0
  6
Continuous
 62
               7
100
AcDbLine
 10
469.0612707116544
 20
1087.9862860618941
 30
0.0
 11
484.0612707116544
 21
1087.9862860618941
 31
0.0
  0
SPLINE
  5
1A0
100
AcDbEntity
  8
ABA70-0001
370
              15
390
0
  6
STYLE_01
 62
               7
100
AcDbSpline
210
0.0
220
0.0
230
1.0
 70
               8
 71
               2
 72
               7
 73
               4
 74
               0
 42
0.000001
 43
0.000001
 40
0.0
 40
0.0
 40
0.0
 40
1.0
 40
2.0
 40
2.0
 40
2.0
 10
469.0612707116544
 20
703.10293102128526
 30
0.0
 10
469.0612707116544
 20
697.9553774308115
 30
0.0
 10
448.12874515409942
 20
656.57508812405467
 30
0.0
 10
448.12874515409942
 20
645.88790101434461
 30
0.0
  0
LWPOLYLINE
  5
1A1
100
AcDbEntity
  8
ABA70-0001
370
              15
390
0
  6
Continuous
 62
               7
100
AcDbPolyline
 90
        2
 70
             128
 10
448.11039626752984
 20
646.61451381601728
 42
0.6501337605223008
 10
458.16205774679486
 20
642.09708926103121
 42
0.6501337605223008
  0
LINE
  5
1A2
100
AcDbEntity
  8
ABA70-0001
370
              15
390
0
  6
Continuous
 62
               7
100
AcDbLine
 10
500.13305399421563
 20
661.47482049628343
 30
0.0
 11
525.13673002693588
 21
661.59967563640203
 31
0.0
  0
LWPOLYLINE
  5
1A3
100
AcDbEntity
  8
ABA70-0001
370
              15
390
0
  6
Continuous
 62
               7
100
AcDbPolyline
 90
        2
 70
             128
 10
500.13305399421904
 20
661.47482049628343
 42
0.1927369692840848
 10
458.16288982434497
 20
642.09605566468781
 42
0.1927369692840848
  0
LWPOLYLINE
  5
1A4
100
AcDbEntity
  8
ABA70-0001
370
              15
390
0
  6
Continuous
 62
               7
100
AcDbPolyline
 90
        2
 70
             128
 10
525.13673002693588
 20
661.59967563640203
 42
0.4091527341524892
 10
533.11526346093353
 20
669.48566040699188
 42
0.4091527341524892
  0
CIRCLE
  5
1A5
100
AcDbEntity
  8
ABA70-0001
370
              15
390
0
  6
STYLE_01
 62
               7
100
AcDbCircle
 10
-566.38189924346307
 20
-266.51568561240128
 30
0.0
 40
17.5
  0
CIRCLE
  5
1A6
100
AcDbEntity
  8
ABA70-0001
370
              15
390
0
  6
STYLE_01
 62
               7
100
AcDbCircle
 10
-566.38189924346307
 20
-466.51568561240128
 30
0.0
 40
17.5
  0
LWPOLYLINE
  5
1A7
100
AcDbEntity
  8
ABA70-0001
370
              15
390
0
  6
Continuous
 62
               7
100
AcDbPolyline
 90
        2
 70
             128
 10
448.10922391532597
 20
124.37938780170407
 42
-0.6501337605223856
 10
458.16088539459099
 20
128.89681235668832
 42
-0.6501337605223856
  0
LWPOLYLINE
  5
1A8
100
AcDbEntity
  8
ABA70-0001
370
              15
390
0
  6
Continuous
 62
               7
100
AcDbPolyline
 90
        2
 70
             128
 10
500.13188164201307
 20
109.51908112143973
 42
-0.1927369692840863
 10
458.16171747214509
 20
128.89784595302808
 42
-0.1927369692840863
  0
LINE
  5
1A9
100
AcDbEntity
  8
ABA70-0001
370
              15
390
0
  6
Continuous
 62
               7
100
AcDbLine
 10
500.13188164201358
 20
109.51908112143792
 30
0.0
 11
525.13069048132832
 21
109.39419822751552
 31
0.0
  0
LWPOLYLINE
  5
1AA
100
AcDbEntity
  8
ABA70-0001
370
              15
390
0
  6
Continuous
 62
               7
100
AcDbPolyline
 90
        2
 70
             128
 10
525.13069048132832
 20
109.39419822751552
 42
-0.4091527341524769
 10
533.10922391532597
 20
101.50821345692566
 42
-0.4091527341524769
  0
LINE
  5
1AB
100
AcDbEntity
  8
ABA70-0001
370
              15
390
0
  6
STYLE_01
 62
               7
100
AcDbLine
 10
469.0612707116544
 20
703.10293102128526
 30
0.0
 11
469.0612707116544
 21
720.48628606189413
 31
0.0
  0
LINE
  5
1AC
100
AcDbEntity
  8
ABA70-0001
370
              15
390
0
  6
STYLE_01
 62
               7
100
AcDbLine
 10
508.10922391532597
 20
-229.56465659652895
 30
0.0
 11
548.10922391532597
 21
-229.56465659652895
 31
0.0
  0
LINE
  5
1AD
100
AcDbEntity
  8
ABA70-0001
370
              15
390
0
  6
STYLE_01
 62
               7
100
AcDbLine
 10
528.10922391532597
 20
-249.56465659652895
 30
0.0
 11
528.10922391532597
 21
-209.56465659652895
 31
0.0
  0
CIRCLE
  5
1AE
100
AcDbEntity
  8
ABA70-0001
370
              15
390
0
  6
STYLE_01
 62
               7
100
AcDbCircle
 10
528.10922391532597
 20
-229.56465659652895
 30
0.0
 40
10.0
  0
LINE
  5
1AF
100
AcDbEntity
  8
ABA70-0001
370
              15
390
0
  6
STYLE_01
 62
               7
100
AcDbLine
 10
508.10922391532597
 20
-509.56465659652895
 30
0.0
 11
548.10922391532597
 21
-509.56465659652895
 31
0.0
  0
LINE
  5
1B0
100
AcDbEntity
  8
ABA70-0001
370
              15
390
0
  6
STYLE_01
 62
               7
100
AcDbLine
 10
528.10922391532597
 20
-529.56465659652895
 30
0.0
 11
528.10922391532597
 21
-489.56465659652895
 31
0.0
  0
CIRCLE
  5
1B1
100
AcDbEntity
  8
ABA70-0001
370
              15
390
0
  6
STYLE_01
 62
               7
100
AcDbCircle
 10
528.10922391532597
 20
-509.56465659652895
 30
0.0
 40
10.0
  0
SPLINE
  5
1B2
100
AcDbEntity
  8
ABA70-0001
370
              15
390
0
  6
Continuous
 62
               7
100
AcDbSpline
210
0.0
220
0.0
230
1.0
 70
               9
 71
               2
 72
              25
 73
              22
 74
               0
 42
0.000001
 43
0.000001
 40
0.0
 40
0.0
 40
0.0
 40
1.0
 40
2.0
 40
3.0
 40
4.0
 40
5.0
 40
6.0
 40
7.0
 40
8.0
 40
9.0
 40
10.0
 40
11.0
 40
12.0
 40
13.0
 40
14.0
 40
15.0
 40
16.0
 40
17.0
 40
18.0
 40
19.0
 40
20.0
 40
20.0
 40
20.0
 10
-343.27466763708117
 20
-628.63005462763977
 30
0.0
 10
-326.5757419215156
 20
-628.56569543286969
 30
0.0
 10
-286.53151496060354
 20
-615.03689762086651
 30
0.0
 10
-244.29168733739289
 20
-578.22226023853545
 30
0.0
 10
-210.45124221279229
 20
-522.85566606552311
 30
0.0
 10
-180.84680789891945
 20
-430.79943819617438
 30
0.0
 10
-180.77466763707935
 20
-306.3046062682115
 30
0.0
 10
-210.38307952556579
 20
-214.27874066569348
 30
0.0
 10
-244.25434640570211
 20
-158.82723919398813
 30
0.0
 10
-286.63229541445298
 20
-122.0037083629868
 30
0.0
 10
-326.57574192151014
 20
-108.69441382240802
 30
0.0
 10
-359.97359335265037
 20
-108.69441382240984
 30
0.0
 10
-400.01782031355333
 20
-122.2232116344112
 30
0.0
 10
-442.25764793676581
 20
-159.03784901674226
 30
0.0
 10
-476.09809306137186
 20
-214.4044431897546
 30
0.0
 10
-505.70252737524106
 20
-306.46067105910333
 30
0.0
 10
-505.77466763707935
 20
-430.95550298706439
 30
0.0
 10
-476.1662557485929
 20
-522.98136858958605
 30
0.0
 10
-442.29498886844931
 20
-578.43287006128776
 30
0.0
 10
-399.91703985970753
 20
-615.25640089229273
 30
0.0
 10
-359.97359335265037
 20
-628.56569543286969
 30
0.0
 10
-343.27466763708117
 20
-628.63005462763977
 30
0.0
  0
LINE
  5
1B3
100
AcDbEntity
  8
ABA70-0001
370
              15
390
0
  6
STYLE_01
 62
               7
100
AcDbLine
 10
633.2932630312763
 20
-347.06358473468026
 30
0.0
 11
678.10917242664539
 21
-347.06375964719518
 31
0.0
  0
SPLINE
  5
1B4
100
AcDbEntity
  8
ABA70-0001
370
              15
390
0
  6
STYLE_01
 62
               7
100
AcDbSpline
210
0.0
220
0.0
230
1.0
 70
               8
 71
               2
 72
               8
 73
               5
 74
               0
 42
0.000001
 43
0.000001
 40
0.0
 40
0.0
 40
0.0
 40
1.0
 40
2.0
 40
3.0
 40
3.0
 40
3.0
 10
469.06009835945054
 20
-108.63005462763977
 30
0.0
 10
533.67441293976788
 20
-119.21294255709472
 30
0.0
 10
619.47374869396265
 20
-212.03509176249827
 30
0.0
 10
633.29226367480601
 20
-333.09481467894875
 30
0.0
 10
633.2932630312763
 20
-345.48851216922958
 30
0.0
  0
LINE
  5
1B5
100
AcDbEntity
  8
ABA70-0001
370
              15
390
0
  6
STYLE_01
 62
               7
100
AcDbLine
 10
469.06009835945054
 20
67.890970596434386
 30
0.0
 11
469.06009835945054
 21
-628.63005462763977
 31
0.0
  0
LINE
  5
1B6
100
AcDbEntity
  8
ABA70-0001
370
               5
390
0
  6
Continuous
 62
               1
100
AcDbLine
 10
678.10917242664539
 20
-347.06375964719518
 30
0.0
 11
678.10917242664539
 21
-392.06375964719518
 31
0.0
  0
SPLINE
  5
1B7
100
AcDbEntity
  8
ABA70-0001
370
              15
390
0
  6
STYLE_01
 62
               7
100
AcDbSpline
210
0.0
220
0.0
230
1.0
 70
               8
 71
               2
 72
               7
 73
               4
 74
               0
 42
0.000001
 43
0.000001
 40
0.0
 40
0.0
 40
0.0
 40
1.0
 40
2.0
 40
2.0
 40
2.0
 10
469.06009835945054
 20
67.890970596434272
 30
0.0
 10
469.06009835945054
 20
73.038524186908035
 30
0.0
 10
448.12757280189555
 20
114.41881349366486
 30
0.0
 10
448.12757280189555
 20
125.10600060337492
 30
0.0
  0
LINE
  5
1B8
100
AcDbEntity
  8
ABA70-0001
370
              15
390
0
  6
STYLE_01
 62
               7
100
AcDbLine
 10
633.2932630312763
 20
-392.06393455971011
 30
0.0
 11
678.10917242664539
 21
-392.06375964719518
 31
0.0
  0
SPLINE
  5
1B9
100
AcDbEntity
  8
ABA70-0001
370
              15
390
0
  6
STYLE_01
 62
               7
100
AcDbSpline
210
0.0
220
0.0
230
1.0
 70
               8
 71
               2
 72
               8
 73
               5
 74
               0
 42
0.000001
 43
0.000001
 40
0.0
 40
0.0
 40
0.0
 40
1.0
 40
2.0
 40
3.0
 40
3.0
 40
3.0
 10
469.06009835945054
 20
-628.63005462763977
 30
0.0
 10
533.67441293976788
 20
-618.13060298907112
 30
0.0
 10
619.47374869396265
 20
-526.04027064626462
 30
0.0
 10
633.29226367480601
 20
-405.93499176467412
 30
0.0
 10
633.2932630312763
 20
-393.63900712516079
 30
0.0
  0
LINE
  5
1BA
100
AcDbEntity
  8
ABA70-0001
370
              15
390
0
  6
STYLE_01
 62
               7
100
AcDbLine
 10
469.06009835945054
 20
-807.01848989082464
 30
0.0
 11
469.06009835945054
 21
-628.63005462763977
 31
0.0
  0
SPLINE
  5
1BB
100
AcDbEntity
  8
ABA70-0001
370
              15
390
0
  6
STYLE_01
 62
               7
100
AcDbSpline
210
0.0
220
0.0
230
1.0
 70
               8
 71
               2
 72
               7
 73
               4
 74
               0
 42
0.000001
 43
0.000001
 40
0.0
 40
0.0
 40
0.0
 40
1.0
 40
2.0
 40
2.0
 40
2.0
 10
469.06009835945054
 20
-807.01848989082464
 30
0.0
 10
469.06009835945054
 20
-812.1660434812984
 30
0.0
 10
448.12757280189555
 20
-853.54633278805522
 30
0.0
 10
448.12757280189555
 20
-864.23351989776529
 30
0.0
  0
DIMENSION
  5
1BC
100
AcDbEntity
  8
ABA70-0001
370
               5
390
0
  6
Continuous
 62
               7
100
AcDbDimension
  2
*D17
 10
-559.93226461836889
 20
-383.85501123949382
 30
0.0
 11
-711.38189924346352
 21
-138.00000000000011
 31
0.0
 70
               3
 71
               5
 72
               1
 41
1.0
 42
0.0
  3
tfrom線あり
100
AcDbDiametricDimension
 15
-572.83153386855736
 25
-349.17635998530807
 35
0.0
 40
225.31226091177464
1001
ACAD
1000
DSTYLE
1002
{
1070
             289
1070
               0
1070
             342
1005
49
1070
             340
1005
35
1070
              75
1070
               1
1070
              76
1070
               1
1070
               3
1000

1070
             174
1070
               0
1070
             147
1040
5.0
1002
}
  0
INSERT
  5
1BD
100
AcDbEntity
  8
ABA70-0001
390
0
 62
               7
100
AcDbBlockReference
  2
グループ
 10
-0.0000000004827143
 20
-5.0498260267162323
 30
0.0
  0
POLYLINE
  5
1BE
100
AcDbEntity
  8
ABA70-0001
370
               5
390
0
  6
STYLE_12
 62
             255
100
AcDb2dPolyline
 66
               1
 10
0.0
 20
0.0
 30
0.0
 70
               1
 75
               5
  0
VERTEX
  5
1BF
100
AcDbEntity
  8
ABA70-0001
370
               5
390
0
  6
STYLE_12
 62
             255
100
AcDbVertex
100
AcDb2dVertex
 10
483.0
 20
989.0
 30
0.0
  0
VERTEX
  5
1C0
100
AcDbEntity
  8
ABA70-0001
370
               5
390
0
  6
STYLE_12
 62
             255
100
AcDbVertex
100
AcDb2dVertex
 10
620.0
 20
989.0
 30
0.0
  0
VERTEX
  5
1C1
100
AcDbEntity
  8
ABA70-0001
370
               5
390
0
  6
STYLE_12
 62
             255
100
AcDbVertex
100
AcDb2dVertex
 10
620.0
 20
941.0
 30
0.0
  0
VERTEX
  5
1C2
100
AcDbEntity
  8
ABA70-0001
370
               5
390
0
  6
STYLE_12
 62
             255
100
AcDbVertex
100
AcDb2dVertex
 10
483.0
 20
941.0
 30
0.0
  0
SEQEND
  5
1C3
100
AcDbEntity
  8
ABA70-0001
370
               5
390
0
  6
STYLE_12
 62
             255
  0
DIMENSION
  5
1C4
100
AcDbEntity
  8
ABA70-0001
370
               5
390
0
  6
Continuous
 62
               7
100
AcDbDimension
  2
*D19
 10
634.26077861587805
 20
948.0
 30
0.0
 11
551.76077861587805
 21
953.0
 31
0.0
 70
             128
 71
               5
 72
               1
 41
1.0
 42
0.0
  3
tfrom線あり
100
AcDbAlignedDimension
 13
469.26077861587805
 23
945.9291567669643
 33
0.0
 14
634.26077861587805
 24
945.9291567669643
 34
0.0
100
AcDbRotatedDimension
1001
ACAD
1000
DSTYLE
1002
{
1070
             279
1070
               2
1070
             340
1005
35
1070
               3
1000
<>(深さ)
1070
             147
1040
5.0
1002
}
  0
ENDSEC
  0
SECTION
  2
OBJECTS
  0
DICTIONARY
  5
19
100
AcDbDictionary
280
               0
281
               1
  3
ACAD_GROUP
350
1A
  3
ACAD_MLINESTYLE
350
1B
  3
ACAD_LAYOUT
350
1E
  3
ACAD_PLOTSETTINGS
350
22
  3
ACAD_PLOTSTYLENAME
350
1F
  0
DICTIONARY
  5
1A
102
{ACAD_REACTORS
330
19
102
}
100
AcDbDictionary
280
               0
281
               1
  0
DICTIONARY
  5
1B
102
{ACAD_REACTORS
330
19
102
}
100
AcDbDictionary
280
               0
281
               1
  3
Standard
350
1C
  0
MLINESTYLE
  5
1C
102
{ACAD_REACTORS
330
1B
102
}
100
AcDbMlineStyle
  2
Standard
 70
               0
  3

 62
               0
 51
90.0
 52
90.0
 71
               2
 49
0.5
 62
             256
  6
ByLayer
 49
-0.5
 62
             256
  6
ByLayer
  0
ACDBDICTIONARYWDFLT
  5
1F
102
{ACAD_REACTORS
330
19
102
}
100
AcDbDictionary
281
               1
  3
Normal
350
1D
100
AcDbDictionaryWithDefault
340
1D
  0
ACDBPLACEHOLDER
  5
1D
102
{ACAD_REACTORS
330
1F
102
}
  0
LAYOUT
  5
20
102
{ACAD_REACTORS
330
1E
102
}
100
AcDbPlotSettings
  1

  2

  4

  6

 40
0.0
 41
0.0
 42
0.0
 43
0.0
 44
0.0
 45
0.0
 46
0.0
 47
0.0
 48
0.0
 49
0.0
140
0.0
141
0.0
142
1.0
143
1.0
 70
            1024
 72
               0
 73
               0
 74
               0
  7

 75
               0
147
1.0
148
0.0
149
0.0
100
AcDbLayout
  1
Model
 70
               0
 71
               0
 10
0.0
 20
0.0
 11
0.0
 21
0.0
 12
0.0
 22
0.0
 32
0.0
 14
0.0
 24
0.0
 34
0.0
 15
0.0
 25
0.0
 35
0.0
146
0.0
 13
0.0
 23
0.0
 33
0.0
 16
0.0
 26
0.0
 36
0.0
 17
0.0
 27
0.0
 37
0.0
 76
               0
330
A
331
0
345
0
346
0
  0
LAYOUT
  5
21
102
{ACAD_REACTORS
330
1E
102
}
100
AcDbPlotSettings
  1

  2

  4

  6

 40
0.0
 41
0.0
 42
0.0
 43
0.0
 44
0.0
 45
0.0
 46
0.0
 47
0.0
 48
0.0
 49
0.0
140
0.0
141
0.0
142
1.0
143
1.0
 70
               0
 72
               0
 73
               0
 74
               0
  7

 75
               0
147
1.0
148
0.0
149
0.0
100
AcDbLayout
  1
Layout1
 70
               0
 71
               0
 10
0.0
 20
0.0
 11
0.0
 21
0.0
 12
0.0
 22
0.0
 32
0.0
 14
0.0
 24
0.0
 34
0.0
 15
0.0
 25
0.0
 35
0.0
146
0.0
 13
0.0
 23
0.0
 33
0.0
 16
0.0
 26
0.0
 36
0.0
 17
0.0
 27
0.0
 37
0.0
 76
               0
330
B
331
0
345
0
346
0
  0
DICTIONARY
  5
1E
102
{ACAD_REACTORS
330
19
102
}
100
AcDbDictionary
280
               0
281
               1
  3
Layout1
350
21
  3
Model
350
20
  0
DICTIONARY
  5
22
102
{ACAD_REACTORS
330
19
102
}
100
AcDbDictionary
280
               0
281
               1
  0
ENDSEC
  0
EOF
