  0
SECTION
  2
HEADER
  9
$ACADVER
  1
AC1015
  9
$ACADMAINTVER
 70
               6
  9
$DWGCODEPAGE
  3
ANSI_932
  9
$INSBASE
 10
0.0
 20
0.0
 30
0.0
  9
$EXTMIN
 10
4656.5979947165097
 20
-13441.924890650367
 30
-14.834305555555554
  9
$EXTMAX
 10
6606.5979947169917
 20
-10604.402075537953
 30
14.834305555555554
  9
$LIMMIN
 10
0.0
 20
0.0
  9
$LIMMAX
 10
0.0
 20
0.0
  9
$ORTHOMODE
 70
               0
  9
$REGENMODE
 70
               1
  9
$FILLMODE
 70
               1
  9
$QTEXTMODE
 70
               0
  9
$MIRRTEXT
 70
               1
  9
$LTSCALE
 40
50.799999999999997
  9
$ATTMODE
 70
               1
  9
$TEXTSIZE
 40
0.2
  9
$TRACEWID
 40
1.0
  9
$TEXTSTYLE
  7
Standard
  9
$CLAYER
  8
ABA70-0003
  9
$CELTYPE
  6
Continuous
  9
$CECOLOR
 62
             256
  9
$CELTSCALE
 40
1.0
  9
$DISPSILH
 70
               0
  9
$DIMSCALE
 40
1.0
  9
$DIMASZ
 40
31.75
  9
$DIMEXO
 40
0.0
  9
$DIMDLI
 40
6.9999999999999396
  9
$DIMRND
 40
0.0
  9
$DIMDLE
 40
0.0
  9
$DIMEXE
 40
19.999999999996199
  9
$DIMTP
 40
0.0
  9
$DIMTM
 40
0.0
  9
$DIMTXT
 40
24.432617187500004
  9
$DIMCEN
 40
0.0
  9
$DIMTSZ
 40
0.0
  9
$DIMTOL
 70
               0
  9
$DIMLIM
 70
               0
  9
$DIMTIH
 70
               0
  9
$DIMTOH
 70
               0
  9
$DIMSE1
 70
               0
  9
$DIMSE2
 70
               0
  9
$DIMTAD
 70
               1
  9
$DIMZIN
 70
              11
  9
$DIMBLK
  1
VW_FILLEDARROW
  9
$DIMASO
 70
               1
  9
$DIMSHO
 70
               1
  9
$DIMPOST
  1
<>
  9
$DIMAPOST
  1
[]
  9
$DIMALT
 70
               0
  9
$DIMALTD
 70
               1
  9
$DIMALTF
 40
1.0
  9
$DIMLFAC
 40
1.0
  9
$DIMTOFL
 70
               0
  9
$DIMTVP
 40
0.0
  9
$DIMTIX
 70
               1
  9
$DIMSOXD
 70
               0
  9
$DIMSAH
 70
               0
  9
$DIMBLK1
  1

  9
$DIMBLK2
  1

  9
$DIMSTYLE
  2
JIS
  9
$DIMCLRD
 70
               0
  9
$DIMCLRE
 70
               0
  9
$DIMCLRT
 70
               0
  9
$DIMTFAC
 40
1.0
  9
$DIMGAP
 40
1.00000000000108
  9
$DIMJUST
 70
               0
  9
$DIMSD1
 70
               0
  9
$DIMSD2
 70
               0
  9
$DIMTOLJ
 70
               1
  9
$DIMTZIN
 70
              11
  9
$DIMALTZ
 70
              11
  9
$DIMALTTZ
 70
              11
  9
$DIMUPT
 70
               0
  9
$DIMDEC
 70
               1
  9
$DIMTDEC
 70
               1
  9
$DIMALTU
 70
               2
  9
$DIMALTTD
 70
               2
  9
$DIMTXSTY
  7
ＭＳ ゴシック
  9
$DIMAUNIT
 70
               0
  9
$DIMADEC
 70
               2
  9
$DIMALTRND
 40
0.0
  9
$DIMAZIN
 70
               0
  9
$DIMDSEP
 70
              46
  9
$DIMATFIT
 70
               0
  9
$DIMFRAC
 70
               2
  9
$DIMLDRBLK
  1

  9
$DIMLUNIT
 70
               2
  9
$DIMLWD
 70
              -2
  9
$DIMLWE
 70
              -2
  9
$DIMTMOVE
 70
               0
  9
$LUNITS
 70
               2
  9
$LUPREC
 70
               4
  9
$SKETCHINC
 40
0.1
  9
$FILLETRAD
 40
0.0
  9
$AUNITS
 70
               0
  9
$AUPREC
 70
               0
  9
$MENU
  1
acad
  9
$ELEVATION
 40
0.0
  9
$PELEVATION
 40
0.0
  9
$THICKNESS
 40
0.0
  9
$LIMCHECK
 70
               0
  9
$CHAMFERA
 40
0.0
  9
$CHAMFERB
 40
0.0
  9
$CHAMFERC
 40
0.0
  9
$CHAMFERD
 40
0.0
  9
$SKPOLY
 70
               0
  9
$TDCREATE
 40
2455979.473611111
  9
$TDUCREATE
 40
0.000000000
  9
$TDUPDATE
 40
2455979.473611111
  9
$TDUUPDATE
 40
0.000000000
  9
$TDINDWG
 40
0.0000000000
  9
$TDUSRTIMER
 40
0.0000000000
  9
$USRTIMER
 70
               1
  9
$ANGBASE
 50
0.0
  9
$ANGDIR
 70
               0
  9
$PDMODE
 70
               1
  9
$PDSIZE
 40
-2.0
  9
$PLINEWID
 40
0.0
  9
$SPLFRAME
 70
               0
  9
$SPLINETYPE
 70
               6
  9
$SPLINESEGS
 70
               8
  9
$HANDSEED
  5
1DD
  9
$SURFTAB1
 70
               6
  9
$SURFTAB2
 70
               6
  9
$SURFTYPE
 70
               6
  9
$SURFU
 70
               6
  9
$SURFV
 70
               6
  9
$UCSBASE
  2

  9
$UCSNAME
  2

  9
$UCSORG
 10
0.0
 20
0.0
 30
0.0
  9
$UCSXDIR
 10
1.0
 20
0.0
 30
0.0
  9
$UCSYDIR
 10
0.0
 20
1.0
 30
0.0
  9
$UCSORTHOREF
  2

  9
$UCSORTHOVIEW
 70
               0
  9
$UCSORGTOP
 10
0.0
 20
0.0
 30
0.0
  9
$UCSORGBOTTOM
 10
0.0
 20
0.0
 30
0.0
  9
$UCSORGLEFT
 10
0.0
 20
0.0
 30
0.0
  9
$UCSORGRIGHT
 10
0.0
 20
0.0
 30
0.0
  9
$UCSORGFRONT
 10
0.0
 20
0.0
 30
0.0
  9
$UCSORGBACK
 10
0.0
 20
0.0
 30
0.0
  9
$PUCSBASE
  2

  9
$PUCSNAME
  2

  9
$PUCSORG
 10
0.0
 20
0.0
 30
0.0
  9
$PUCSXDIR
 10
1.0
 20
0.0
 30
0.0
  9
$PUCSYDIR
 10
0.0
 20
1.0
 30
0.0
  9
$PUCSORTHOREF
  2

  9
$PUCSORTHOVIEW
 70
               0
  9
$PUCSORGTOP
 10
0.0
 20
0.0
 30
0.0
  9
$PUCSORGBOTTOM
 10
0.0
 20
0.0
 30
0.0
  9
$PUCSORGLEFT
 10
0.0
 20
0.0
 30
0.0
  9
$PUCSORGRIGHT
 10
0.0
 20
0.0
 30
0.0
  9
$PUCSORGFRONT
 10
0.0
 20
0.0
 30
0.0
  9
$PUCSORGBACK
 10
0.0
 20
0.0
 30
0.0
  9
$USERI1
 70
               0
  9
$USERI2
 70
               0
  9
$USERI3
 70
               0
  9
$USERI4
 70
               0
  9
$USERI5
 70
               0
  9
$USERR1
 40
0.0
  9
$USERR2
 40
0.0
  9
$USERR3
 40
0.0
  9
$USERR4
 40
0.0
  9
$USERR5
 40
0.0
  9
$WORLDVIEW
 70
               1
  9
$SHADEDGE
 70
               3
  9
$SHADEDIF
 70
              70
  9
$TILEMODE
 70
               1
  9
$MAXACTVP
 70
              64
  9
$PINSBASE
 10
0.0
 20
0.0
 30
0.0
  9
$PLIMCHECK
 70
               0
  9
$PEXTMIN
 10
1.0000000000000000E+20
 20
1.0000000000000000E+20
 30
1.0000000000000000E+20
  9
$PEXTMAX
 10
-1.0000000000000000E+20
 20
-1.0000000000000000E+20
 30
-1.0000000000000000E+20
  9
$PLIMMIN
 10
0.0
 20
0.0
  9
$PLIMMAX
 10
12.0
 20
9.0
  9
$UNITMODE
 70
               0
  9
$VISRETAIN
 70
               0
  9
$PLINEGEN
 70
               1
  9
$PSLTSCALE
 70
               0
  9
$TREEDEPTH
 70
            3020
  9
$CMLSTYLE
  2
Standard
  9
$CMLJUST
 70
               0
  9
$CMLSCALE
 40
1.0
  9
$PROXYGRAPHICS
 70
               0
  9
$MEASUREMENT
 70
               1
  9
$CELWEIGHT
370
               0
  9
$ENDCAPS
280
               0
  9
$JOINSTYLE
280
               0
  9
$LWDISPLAY
290
               1
  9
$INSUNITS
 70
               4
  9
$HYPERLINKBASE
  1

  9
$STYLESHEET
  1

  9
$XEDIT
290
               1
  9
$CEPSNTYPE
380
               0
  9
$PSTYLEMODE
290
               1
  9
$FINGERPRINTGUID
  2

  9
$VERSIONGUID
  2

  9
$EXTNAMES
290
               1
  9
$PSVPSCALE
 40
0.0
  0
ENDSEC
  0
SECTION
  2
CLASSES
  0
CLASS
  1
LWPOLYLINE
  2
AcDbPolyline
  3
AutoCAD 2000
 90
        0
280
               0
281
               1
  0
CLASS
  1
IMAGE
  2
AcDbRasterImage
  3
ISM
 90
      127
280
               0
281
               1
  0
CLASS
  1
OLE2FRAME
  2
AcDbOle2Frame
  3
AutoCAD 2000
 90
        0
280
               0
281
               1
  0
CLASS
  1
HATCH
  2
AcDbHatch
  3
AutoCAD 2000
 90
        0
280
               0
281
               1
  0
CLASS
  1
DICTIONARYVAR
  2
AcDbDictionaryVar
  3
AutoCAD 2000
 90
        0
280
               0
281
               0
  0
CLASS
  1
RASTERVARIABLES
  2
AcDbRasterVariables
  3
ISM
 90
        0
280
               0
281
               0
  0
CLASS
  1
IMAGEDEF
  2
AcDbRasterImageDef
  3
ISM
 90
        0
280
               0
281
               0
  0
CLASS
  1
IMAGEDEF_REACTOR
  2
AcDbRasterImageDefReactor
  3
ISM
 90
        1
280
               0
281
               0
  0
CLASS
  1
IDBUFFER
  2
AcDbIdBuffer
  3
AutoCAD 2000
 90
        0
280
               0
281
               0
  0
CLASS
  1
SPATIAL_FILTER
  2
AcDbSpatialFilter
  3
AutoCAD 2000
 90
        0
280
               0
281
               0
  0
CLASS
  1
XRECORD
  2
AcDbXrecord
  3
AutoCAD 2000
 90
        0
280
               0
281
               0
  0
CLASS
  1
SORTENTSTABLE
  2
AcDbSortentsTable
  3
AutoCAD 2000
 90
        0
280
               0
281
               0
  0
CLASS
  1
LAYER_INDEX
  2
AcDbLayerIndex
  3
AutoCAD 2000
 90
        0
280
               0
281
               0
  0
CLASS
  1
SPATIAL_INDEX
  2
AcDbSpatialIndex
  3
AutoCAD 2000
 90
        0
280
               0
281
               0
  0
CLASS
  1
OBJECT_PTR
  2
CAseDLPNTableRecord
  3
"ASE-LPNTableRecord"
 90
        1
280
               0
281
               0
  0
CLASS
  1
LAYOUT
  2
AcDbLayout
  3
AutoCAD 2000
 90
        0
280
               0
281
               0
  0
CLASS
  1
PLOTSETTINGS
  2
AcDbPlotSettings
  3
AutoCAD 2000
 90
        0
280
               0
281
               0
  0
CLASS
  1
ACDBDICTIONARYWDFLT
  2
AcDbDictionaryWithDefault
  3
AutoCAD 2000
 90
        0
280
               0
281
               0
  0
CLASS
  1
ACDBPLACEHOLDER
  2
AcDbPlaceHolder
  3
AutoCAD 2000
 90
        0
280
               0
281
               0
  0
ENDSEC
  0
SECTION
  2
TABLES
  0
TABLE
  2
VPORT
  5
7
100
AcDbSymbolTable
 70
               1
  0
VPORT
  5
15
100
AcDbSymbolTableRecord
100
AcDbViewportTableRecord
  2
*ACTIVE
 70
               0
 10
0.0
 20
0.0
 11
1.0
 21
1.0
 12
5631.5979947167507
 22
-12023.16348309416
 13
0.0
 23
0.0
 14
1.0
 24
1.0
 15
0.0
 25
0.0
 16
0.0
 26
0.0
 36
1.0
 17
0.0
 27
0.0
 37
0.0
 40
2837.5228151124138
 41
0.688564
 42
50.0
 43
0.0
 44
0.0
 50
0.0
 51
0.0
 71
               0
 72
            2000
 73
               1
 74
               1
 75
               0
 76
               0
 77
               0
 78
               0
281
               0
 65
               0
110
0.0
120
0.0
130
0.0
111
1.0
121
0.0
131
0.0
112
0.0
122
1.0
132
0.0
345
0
346
0
 79
               0
146
0.0
  0
ENDTAB
  0
TABLE
  2
LTYPE
  5
4
100
AcDbSymbolTable
 70
              17
  0
LTYPE
  5
11
100
AcDbSymbolTableRecord
100
AcDbLinetypeTableRecord
  2
ByBlock
 70
              64
  3

 72
              65
 73
               0
 40
0.0
  0
LTYPE
  5
12
100
AcDbSymbolTableRecord
100
AcDbLinetypeTableRecord
  2
ByLayer
 70
              64
  3

 72
              65
 73
               0
 40
0.0
  0
LTYPE
  5
13
100
AcDbSymbolTableRecord
100
AcDbLinetypeTableRecord
  2
Continuous
 70
              64
  3
Solid line
 72
              65
 73
               0
 40
0.0
  0
LTYPE
  5
38
100
AcDbSymbolTableRecord
100
AcDbLinetypeTableRecord
  2
STYLE_01
 70
               0
  3

 72
              65
 73
               2
 40
0.1968503937007875
 49
0.0984251968503937
 74
               0
 49
-0.0984251968503937
 74
               0
  0
LTYPE
  5
39
100
AcDbSymbolTableRecord
100
AcDbLinetypeTableRecord
  2
STYLE_02
 70
               0
  3

 72
              65
 73
               2
 40
0.6944250000000001
 49
0.48607
 74
               0
 49
-0.2083550000000001
 74
               0
  0
LTYPE
  5
3A
100
AcDbSymbolTableRecord
100
AcDbLinetypeTableRecord
  2
STYLE_03
 70
               0
  3

 72
              65
 73
               2
 40
1.25
 49
1.0416400000000001
 74
               0
 49
-0.2083599999999999
 74
               0
  0
LTYPE
  5
3B
100
AcDbSymbolTableRecord
100
AcDbLinetypeTableRecord
  2
STYLE_04
 70
               0
  3

 72
              65
 73
               2
 40
1.5277099999999999
 49
1.3194249999999998
 74
               0
 49
-0.208285
 74
               0
  0
LTYPE
  5
3C
100
AcDbSymbolTableRecord
100
AcDbLinetypeTableRecord
  2
STYLE_05
 70
               0
  3

 72
              65
 73
               2
 40
0.20828
 49
0.069425
 74
               0
 49
-0.138855
 74
               0
  0
LTYPE
  5
3D
100
AcDbSymbolTableRecord
100
AcDbLinetypeTableRecord
  2
STYLE_06
 70
               0
  3

 72
              65
 73
               4
 40
1.0416400000000001
 49
0.625
 74
               0
 49
-0.20828
 74
               0
 49
0.06943
 74
               0
 49
-0.13893
 74
               0
  0
LTYPE
  5
3E
100
AcDbSymbolTableRecord
100
AcDbLinetypeTableRecord
  2
STYLE_07
 70
               0
  3

 72
              65
 73
               6
 40
1.875
 49
0.625
 74
               0
 49
-0.20828
 74
               0
 49
0.6250000000000001
 74
               0
 49
-0.2083599999999999
 74
               0
 49
0.06943
 74
               0
 49
-0.1389299999999999
 74
               0
  0
LTYPE
  5
3F
100
AcDbSymbolTableRecord
100
AcDbLinetypeTableRecord
  2
STYLE_08
 70
               0
  3

 72
              65
 73
               6
 40
1.25
 49
0.625
 74
               0
 49
-0.20828
 74
               0
 49
0.06943
 74
               0
 49
-0.13893
 74
               0
 49
0.0694299999999999
 74
               0
 49
-0.13893
 74
               0
  0
LTYPE
  5
40
100
AcDbSymbolTableRecord
100
AcDbLinetypeTableRecord
  2
STYLE_09
 70
               0
  3

 72
              65
 73
               4
 40
5.0
 49
3.75
 74
               0
 49
-0.2777849999999998
 74
               0
 49
0.6944300000000003
 74
               0
 49
-0.2777849999999998
 74
               0
  0
LTYPE
  5
41
100
AcDbSymbolTableRecord
100
AcDbLinetypeTableRecord
  2
STYLE_10
 70
               0
  3

 72
              65
 73
               6
 40
5.9375
 49
3.75
 74
               0
 49
-0.2777849999999998
 74
               0
 49
0.6944300000000003
 74
               0
 49
-0.2777849999999998
 74
               0
 49
0.625
 74
               0
 49
-0.3125
 74
               0
  0
LTYPE
  5
42
100
AcDbSymbolTableRecord
100
AcDbLinetypeTableRecord
  2
STYLE_11
 70
               0
  3

 72
              65
 73
               2
 40
0.0694444881889764
 49
0.0347222440944882
 74
               0
 49
-0.0347222440944882
 74
               0
  0
LTYPE
  5
43
100
AcDbSymbolTableRecord
100
AcDbLinetypeTableRecord
  2
STYLE_12
 70
               0
  3

 72
              65
 73
               2
 40
0.3937007874015748
 49
0.1968503937007874
 74
               0
 49
-0.1968503937007874
 74
               0
  0
LTYPE
  5
44
100
AcDbSymbolTableRecord
100
AcDbLinetypeTableRecord
  2
STYLE_13
 70
               0
  3

 72
              65
 73
               2
 40
0.5905511811023622
 49
0.2952755905511811
 74
               0
 49
-0.2952755905511811
 74
               0
  0
LTYPE
  5
45
100
AcDbSymbolTableRecord
100
AcDbLinetypeTableRecord
  2
STYLE_14
 70
               0
  3

 72
              65
 73
               2
 40
1.9685039370078738
 49
0.9842519685039369
 74
               0
 49
-0.9842519685039369
 74
               0
  0
ENDTAB
  0
TABLE
  2
LAYER
  5
2
100
AcDbSymbolTable
 70
               3
  0
LAYER
  5
14
100
AcDbSymbolTableRecord
100
AcDbLayerTableRecord
  2
0
 70
               0
 62
               7
  6
Continuous
290
               1
370
              -3
390
1D
  0
LAYER
  5
46
100
AcDbSymbolTableRecord
100
AcDbLayerTableRecord
  2
Defpoints
 70
               0
 62
               7
  6
Continuous
290
               0
370
              -3
390
1D
  0
LAYER
  5
47
100
AcDbSymbolTableRecord
100
AcDbLayerTableRecord
  2
ABA70-0003
 70
               0
 62
               7
  6
Continuous
290
               1
370
              -3
390
1D
  0
ENDTAB
  0
TABLE
  2
STYLE
  5
3
100
AcDbSymbolTable
 70
               2
  0
STYLE
  5
17
100
AcDbSymbolTableRecord
100
AcDbTextStyleTableRecord
  2
Standard
 70
               0
 40
0.0
 41
1.0
 50
0.0
 71
               0
 42
0.0
  3
txt
  4
BIGFONT.SHX
  0
STYLE
  5
37
100
AcDbSymbolTableRecord
100
AcDbTextStyleTableRecord
  2
ＭＳ ゴシック
 70
               0
 40
0.0
 41
1.0
 50
0.0
 71
               0
 42
0.0
  3

  4
ＭＳ ゴシック
1001
ACAD
1000
ＭＳ ゴシック
1071
        0
  0
ENDTAB
  0
TABLE
  2
VIEW
  5
5
100
AcDbSymbolTable
 70
               0
  0
ENDTAB
  0
TABLE
  2
UCS
  5
6
100
AcDbSymbolTable
 70
               0
  0
ENDTAB
  0
TABLE
  2
APPID
  5
8
100
AcDbSymbolTable
 70
               1
  0
APPID
  5
16
100
AcDbSymbolTableRecord
100
AcDbRegAppTableRecord
  2
ACAD
 70
               0
  0
ENDTAB
  0
TABLE
  2
DIMSTYLE
  5
9
100
AcDbSymbolTable
 70
               3
100
AcDbDimStyleTable
 71
               0
  0
DIMSTYLE
105
18
100
AcDbSymbolTableRecord
100
AcDbDimStyleTableRecord
  2
Standard
 70
               0
  3

  4

 40
1.0
 41
0.18
 42
0.0625
 43
0.38
 44
0.18
 45
0.0
 46
0.0
 47
0.0
 48
0.0
 71
               0
 72
               0
 73
               1
 74
               1
 75
               0
 76
               0
 77
               0
 78
               0
 79
               0
140
0.18
141
0.09
142
0.0
143
25.399999999999999
144
1.0
145
0.0
146
1.0
147
0.09
148
0.0
170
               0
171
               2
172
               0
173
               0
174
               0
175
               0
176
               0
177
               0
178
               0
179
               0
271
               4
272
               4
273
               2
274
               2
275
               0
276
               0
277
               2
278
              46
279
               0
280
               0
281
               0
282
               0
283
               1
284
               0
285
               0
286
               0
288
               0
289
               3
340
17
341
0
342
0
343
0
344
0
371
              -2
372
              -2
  0
DIMSTYLE
105
50
100
AcDbSymbolTableRecord
100
AcDbDimStyleTableRecord
  2
tfrom線あり
 70
               0
  3
<>
  4
[]
 40
1.0
 41
3.999755859375
 42
24.999999999999996
 43
0.9999999999999999
 44
0.0
 45
0.0
 46
0.0
 47
0.0
 48
0.0
 71
               0
 72
               0
 73
               0
 74
               0
 75
               0
 76
               0
 77
               1
 78
              11
 79
               0
140
24.432617187500004
141
0.0
142
0.0
143
1.0
144
1.0
145
0.0
146
1.0
147
0.4999999999999999
148
0.0
170
               0
171
               1
172
               0
173
               0
174
               1
175
               0
176
               0
177
               0
178
               0
179
               2
271
               1
272
               1
273
               2
274
               2
275
               0
276
               2
277
               2
278
              46
279
               0
280
               0
281
               0
282
               0
283
               1
284
              11
285
              11
286
              11
288
               0
289
               0
340
37
341
48
342
48
343
0
344
0
371
              -2
372
              -2
  0
DIMSTYLE
105
55
100
AcDbSymbolTableRecord
100
AcDbDimStyleTableRecord
  2
JIS
 70
               0
  3
<>
  4
[]
 40
1.0
 41
31.75
 42
0.0
 43
6.9999999999999396
 44
19.999999999996199
 45
0.0
 46
0.0
 47
0.0
 48
0.0
 71
               0
 72
               0
 73
               0
 74
               0
 75
               0
 76
               0
 77
               1
 78
              11
 79
               0
140
24.432617187500004
141
0.0
142
0.0
143
1.0
144
1.0
145
0.0
146
1.0
147
1.00000000000108
148
0.0
170
               0
171
               1
172
               0
173
               0
174
               1
175
               0
176
               0
177
               0
178
               0
179
               2
271
               1
272
               1
273
               2
274
               2
275
               0
276
               2
277
               2
278
              46
279
               0
280
               0
281
               0
282
               0
283
               1
284
              11
285
              11
286
              11
288
               0
289
               0
340
37
341
51
342
51
343
0
344
0
371
              -2
372
              -2
  0
ENDTAB
  0
TABLE
  2
BLOCK_RECORD
  5
1
100
AcDbSymbolTable
 70
              22
  0
BLOCK_RECORD
  5
A
100
AcDbSymbolTableRecord
100
AcDbBlockTableRecord
  2
*MODEL_SPACE
340
20
  0
BLOCK_RECORD
  5
B
100
AcDbSymbolTableRecord
100
AcDbBlockTableRecord
  2
*PAPER_SPACE
340
21
  0
BLOCK_RECORD
  5
48
100
AcDbSymbolTableRecord
100
AcDbBlockTableRecord
  2
_DOT
340
0
  0
BLOCK_RECORD
  5
51
100
AcDbSymbolTableRecord
100
AcDbBlockTableRecord
  2
VW_FILLEDARROW
340
0
  0
BLOCK_RECORD
  5
23
100
AcDbSymbolTableRecord
100
AcDbBlockTableRecord
  2
グループ-2
340
0
102
{BLKREFS
331
15F
102
}
  0
BLOCK_RECORD
  5
24
100
AcDbSymbolTableRecord
100
AcDbBlockTableRecord
  2
*D3
340
0
  0
BLOCK_RECORD
  5
25
100
AcDbSymbolTableRecord
100
AcDbBlockTableRecord
  2
*D4
340
0
  0
BLOCK_RECORD
  5
26
100
AcDbSymbolTableRecord
100
AcDbBlockTableRecord
  2
*D5
340
0
  0
BLOCK_RECORD
  5
27
100
AcDbSymbolTableRecord
100
AcDbBlockTableRecord
  2
*D6
340
0
  0
BLOCK_RECORD
  5
28
100
AcDbSymbolTableRecord
100
AcDbBlockTableRecord
  2
*D7
340
0
  0
BLOCK_RECORD
  5
29
100
AcDbSymbolTableRecord
100
AcDbBlockTableRecord
  2
*D8
340
0
  0
BLOCK_RECORD
  5
2A
100
AcDbSymbolTableRecord
100
AcDbBlockTableRecord
  2
*D9
340
0
  0
BLOCK_RECORD
  5
2B
100
AcDbSymbolTableRecord
100
AcDbBlockTableRecord
  2
*D10
340
0
  0
BLOCK_RECORD
  5
2C
100
AcDbSymbolTableRecord
100
AcDbBlockTableRecord
  2
*D11
340
0
  0
BLOCK_RECORD
  5
2D
100
AcDbSymbolTableRecord
100
AcDbBlockTableRecord
  2
*D12
340
0
  0
BLOCK_RECORD
  5
2E
100
AcDbSymbolTableRecord
100
AcDbBlockTableRecord
  2
*D13
340
0
  0
BLOCK_RECORD
  5
2F
100
AcDbSymbolTableRecord
100
AcDbBlockTableRecord
  2
*D14
340
0
  0
BLOCK_RECORD
  5
30
100
AcDbSymbolTableRecord
100
AcDbBlockTableRecord
  2
*D15
340
0
  0
BLOCK_RECORD
  5
31
100
AcDbSymbolTableRecord
100
AcDbBlockTableRecord
  2
*D16
340
0
  0
BLOCK_RECORD
  5
32
100
AcDbSymbolTableRecord
100
AcDbBlockTableRecord
  2
*D17
340
0
  0
BLOCK_RECORD
  5
33
100
AcDbSymbolTableRecord
100
AcDbBlockTableRecord
  2
*D18
340
0
  0
BLOCK_RECORD
  5
34
100
AcDbSymbolTableRecord
100
AcDbBlockTableRecord
  2
グループ-1
340
0
102
{BLKREFS
331
1BC
102
}
  0
BLOCK_RECORD
  5
35
100
AcDbSymbolTableRecord
100
AcDbBlockTableRecord
  2
グループ
340
0
102
{BLKREFS
331
1D5
102
}
  0
BLOCK_RECORD
  5
36
100
AcDbSymbolTableRecord
100
AcDbBlockTableRecord
  2
*D21
340
0
  0
ENDTAB
  0
ENDSEC
  0
SECTION
  2
BLOCKS
  0
BLOCK
  5
D
100
AcDbEntity
  8
0
390
0
100
AcDbBlockBegin
  2
*MODEL_SPACE
 70
               0
 10
0.0
 20
0.0
 30
0.0
  3
*MODEL_SPACE
  1

  0
ENDBLK
  5
E
100
AcDbEntity
  8
0
390
0
100
AcDbBlockEnd
  0
BLOCK
  5
F
100
AcDbEntity
 67
               1
  8
0
390
0
100
AcDbBlockBegin
  2
*PAPER_SPACE
 70
               0
 10
0.0
 20
0.0
 30
0.0
  3
*PAPER_SPACE
  1

  0
ENDBLK
  5
10
100
AcDbEntity
 67
               1
  8
0
390
0
100
AcDbBlockEnd
  0
BLOCK
  5
49
100
AcDbEntity
  8
0
390
0
100
AcDbBlockBegin
  2
_DOT
 70
               0
 10
0.0
 20
0.0
 30
0.0
  3
_DOT
  1

  0
POLYLINE
  5
4A
100
AcDbEntity
  8
0
370
              -2
390
0
  6
ByBlock
 62
               0
100
AcDb2dPolyline
 66
               1
 10
0.0
 20
0.0
 30
0.0
 70
               1
 40
0.5
 41
0.5
  0
VERTEX
  5
4B
100
AcDbEntity
  8
0
370
              -2
390
0
  6
ByBlock
 62
               0
100
AcDbVertex
100
AcDb2dVertex
 10
-0.25
 20
0.0
 30
0.0
 42
1.0
  0
VERTEX
  5
4C
100
AcDbEntity
  8
0
370
              -2
390
0
  6
ByBlock
 62
               0
100
AcDbVertex
100
AcDb2dVertex
 10
0.25
 20
0.0
 30
0.0
 42
1.0
  0
SEQEND
  5
4D
100
AcDbEntity
  8
0
390
0
  0
LINE
  5
4E
100
AcDbEntity
  8
0
370
              -2
390
0
  6
ByBlock
 62
               0
100
AcDbLine
 10
-0.5
 20
0.0
 30
0.0
 11
-1.0
 21
0.0
 31
0.0
  0
ENDBLK
  5
4F
100
AcDbEntity
  8
0
390
0
100
AcDbBlockEnd
  0
BLOCK
  5
52
100
AcDbEntity
  8
0
370
              -2
390
0
  6
ByBlock
 62
               0
100
AcDbBlockBegin
  2
VW_FILLEDARROW
 70
               0
 10
0.0
 20
0.0
 30
0.0
  3
VW_FILLEDARROW
  1

  0
SOLID
  5
53
100
AcDbEntity
  8
0
370
              -2
390
0
 62
               0
100
AcDbTrace
 10
0.0
 20
0.0
 30
0.0
 11
-0.9921874999999999
 21
-0.2658558393652545
 31
0.0
 12
-0.9921874999999999
 22
0.2658558393652548
 32
0.0
 13
-0.9921874999999999
 23
0.2658558393652548
 33
0.0
  0
ENDBLK
  5
54
100
AcDbEntity
  8
0
390
0
100
AcDbBlockEnd
  0
BLOCK
  5
56
100
AcDbEntity
  8
ABA70-0003
390
0
100
AcDbBlockBegin
  2
グループ-2
 70
               0
 10
0.0
 20
0.0
 30
0.0
  3
グループ-2
  1

  0
POLYLINE
  5
57
100
AcDbEntity
  8
0
370
              15
390
0
  6
Continuous
 62
               7
100
AcDb2dPolyline
 66
               1
 10
0.0
 20
0.0
 30
0.0
 70
               1
 75
               5
  0
VERTEX
  5
58
100
AcDbEntity
  8
0
370
              15
390
0
  6
Continuous
 62
               7
100
AcDbVertex
100
AcDb2dVertex
 10
887.42850780307481
 20
-1334.4897210236859
 30
0.0
  0
VERTEX
  5
59
100
AcDbEntity
  8
0
370
              15
390
0
  6
Continuous
 62
               7
100
AcDbVertex
100
AcDb2dVertex
 10
887.42850780307481
 20
-1340.4871097172618
 30
0.0
  0
VERTEX
  5
5A
100
AcDbEntity
  8
0
370
              15
390
0
  6
Continuous
 62
               7
100
AcDbVertex
100
AcDb2dVertex
 10
877.92731088507151
 20
-1340.4871097172618
 30
0.0
  0
VERTEX
  5
5B
100
AcDbEntity
  8
0
370
              15
390
0
  6
Continuous
 62
               7
100
AcDbVertex
100
AcDb2dVertex
 10
877.92731088507151
 20
-1364.9380729807706
 30
0.0
  0
VERTEX
  5
5C
100
AcDbEntity
  8
0
370
              15
390
0
  6
Continuous
 62
               7
100
AcDbVertex
100
AcDb2dVertex
 10
869.57193362328871
 20
-1364.9380729807706
 30
0.0
  0
VERTEX
  5
5D
100
AcDbEntity
  8
0
370
              15
390
0
  6
Continuous
 62
               7
100
AcDbVertex
100
AcDb2dVertex
 10
869.57193362328871
 20
-1340.4871097172618
 30
0.0
  0
VERTEX
  5
5E
100
AcDbEntity
  8
0
370
              15
390
0
  6
Continuous
 62
               7
100
AcDbVertex
100
AcDb2dVertex
 10
860.23897667697929
 20
-1340.4871097172618
 30
0.0
  0
VERTEX
  5
5F
100
AcDbEntity
  8
0
370
              15
390
0
  6
Continuous
 62
               7
100
AcDbVertex
100
AcDb2dVertex
 10
860.23897667697929
 20
-1334.4897210236859
 30
0.0
  0
SEQEND
  5
60
100
AcDbEntity
  8
0
370
              15
390
0
  6
Continuous
 62
               7
  0
LWPOLYLINE
  5
61
100
AcDbEntity
  8
0
370
              15
390
0
  6
Continuous
 62
               7
100
AcDbPolyline
 90
      101
 70
             128
 10
900.15679963363175
 20
-1335.2179695166224
 10
900.17214966241681
 20
-1335.2136087599372
 42
-0.0222221607820064
 10
900.46215423908779
 20
-1335.1449842946927
 10
900.47794800308498
 20
-1335.141980871595
 42
-0.0146883565577719
 10
900.74065070830557
 20
-1335.0999776846463
 42
-0.0127458844188174
 10
901.00528967545358
 20
-1335.0724407165742
 10
901.06774475377142
 20
-1335.0675472939856
 42
-0.0198099018564378
 10
901.45859386324787
 20
-1335.0524621365889
 10
901.51040533269202
 20
-1335.052515912254
 42
-0.0147617382765053
 10
902.00502879366297
 20
-1335.0676359374988
 10
902.07772024855751
 20
-1335.0720085443877
 42
-0.0162624548991338
 10
902.46787387800578
 20
-1335.108241419659
 10
902.58940626927017
 20
-1335.1235279786561
 42
-0.0080020874666033
 10
902.73498530035658
 20
-1335.1442108259239
 10
902.77330477094858
 20
-1335.1502821037345
 42
-0.0053821929678317
 10
902.84178887626638
 20
-1335.1618896275565
 10
902.11538317705254
 20
-1337.3428180832673
 42
0.0108667757389584
 10
902.04806610694311
 20
-1337.3296309680516
 10
902.01059808374748
 20
-1337.3231332254561
 42
0.0170663203315266
 10
901.8673812968334
 20
-1337.3033036281645
 10
901.79950596414733
 20
-1337.2962564575766
 42
0.0220162375271832
 10
901.51912655629246
 20
-1337.2795740968068
 10
901.44127098924127
 20
-1337.2783747295402
 42
0.0282606915787627
 10
901.10563466566362
 20
-1337.2921780065094
 10
901.06172139189073
 20
-1337.2964779965132
 42
0.0169677213687607
 10
900.81579689693058
 20
-1337.3290150460653
 42
0.0190576269857265
 10
900.57288893435577
 20
-1337.3791619181704
 10
900.56662974624146
 20
-1337.3807048922806
 42
0.0213685642852336
 10
900.31624526176222
 20
-1337.4539051773859
 10
900.3107553668475
 20
-1337.4557681734445
 42
0.0237595297592735
 10
900.05726048195015
 20
-1337.5554526953395
 10
900.05215840791914
 20
-1337.5577444708183
 42
0.0261857468824639
 10
899.79998763169021
 20
-1337.6872808081923
 10
899.78956144260201
 20
-1337.6933462826614
 42
0.0272553062026634
 10
899.55313166736369
 20
-1337.8487184886053
 10
899.51836865385451
 20
-1337.8743796366973
 42
0.0325996893162
 10
899.36821331020269
 20
-1338.001127509669
 10
899.34450388107484
 20
-1338.0239455381864
 42
0.0138050960628234
 10
899.25262072486953
 20
-1338.1173951997334
 42
0.012528010380394
 10
899.16577819203962
 20
-1338.2155585263292
 10
899.14209774712572
 20
-1338.2437170245234
 42
0.0205218024753065
 10
899.01699767161551
 20
-1338.4055103387479
 10
898.99453133112502
 20
-1338.4371700685792
 42
0.0163110129572357
 10
898.83882095187516
 20
-1338.6725005036476
 10
898.83609705582478
 20
-1338.6769242656321
 42
0.013189734190558
 10
898.68929653491591
 20
-1338.930056358002
 10
898.687596439554
 20
-1338.933174597129
 42
0.0107895576059968
 10
898.54981973734573
 20
-1339.199389806759
 10
898.5490868478164
 20
-1339.2008840394142
 42
0.0091371507223015
 10
898.4206068991648
 20
-1339.4754092371782
 10
898.39086126775555
 20
-1339.542115744337
 42
0.0135418326352847
 10
898.21914732868436
 20
-1339.9570535296054
 10
898.18554252025513
 20
-1340.0449196718735
 42
0.0092834542404561
 10
898.01431346033087
 20
-1340.5188181701878
 10
897.98869633261927
 20
-1340.5940592399634
 42
0.0054261043571938
 10
897.88105818432018
 20
-1340.9218232130465
 10
897.8635321980961
 20
-1340.9772113754241
 42
0.0008225090819292
 10
897.79486214631277
 20
-1341.1954801334257
 10
896.8101730143793
 20
-1344.2203714266823
 10
900.04279685445317
 20
-1344.2203714266823
 10
899.53860442459973
 20
-1346.1248497250347
 10
896.28254814261641
 20
-1346.1248497250347
 10
890.45339911026258
 20
-1364.9380727910395
 10
888.62830149995227
 20
-1364.9380727910395
 10
894.4629795354532
 20
-1346.1248497250347
 10
892.05786316641286
 20
-1346.1248497250347
 10
892.5620555962663
 20
-1344.2203714266823
 10
894.99060440721632
 20
-1344.2203714266823
 10
895.85075932540497
 20
-1341.5839584259834
 42
-0.00058635606447
 10
895.88749400360086
 20
-1341.4671320057159
 10
895.96358183726886
 20
-1341.2261397063062
 42
-0.0087522378925773
 10
896.16304998072587
 20
-1340.6308636191593
 10
896.25531425614531
 20
-1340.3707234506296
 42
-0.0077400953829289
 10
896.51324791527031
 20
-1339.6777187730986
 10
896.52901288684905
 20
-1339.637287889713
 42
-0.0082369946329178
 10
896.77609735746114
 20
-1339.0332088235168
 42
-0.0085725238363954
 10
897.04334345346786
 20
-1338.4377827842213
 10
897.14497305447071
 20
-1338.2213616822462
 42
-0.0168109410596139
 10
897.43191748320146
 20
-1337.6601541561402
 10
897.55776087366974
 20
-1337.433190123126
 42
-0.0007817726866548
 10
897.61204522371713
 20
-1337.3356458781118
 10
897.61217352972994
 20
-1337.3354161693833
 42
-0.0036626142163262
 10
897.66706139375981
 20
-1337.2388182893997
 42
-0.0080221150652374
 10
897.72418564916472
 20
-1337.1435390546499
 10
897.75488560052554
 20
-1337.0941481055281
 42
-0.0202139325562933
 10
897.88254134033173
 20
-1336.9061665048482
 10
897.93660880551784
 20
-1336.8330876406094
 42
-0.0249323791800874
 10
898.19577159923824
 20
-1336.5170423984537
 10
898.21991141336741
 20
-1336.4904281255388
 42
-0.0242132121533242
 10
898.55959215490702
 20
-1336.1505446393378
 10
898.60750372765358
 20
-1336.1070355031552
 42
-0.0251017527861406
 10
898.8914854282973
 20
-1335.8740427573875
 10
898.89293090511035
 20
-1335.8729734998092
 42
-0.0130868069035934
 10
899.19119155506837
 20
-1335.6641930312662
 10
899.19275337421232
 20
-1335.6631595909905
 42
-0.0290329526393617
 10
899.50386451560439
 20
-1335.4823340893618
 10
899.53371007759415
 20
-1335.4672317065204
 42
-0.0160250190047272
 10
899.7996144913559
 20
-1335.3432155963089
 42
-0.0267600374786002
 10
900.07489056882525
 20
-1335.24246727576
 10
900.10162648834682
 20
-1335.2342747169341
 42
-0.0049981587662889
 10
900.15679963361197
 20
-1335.217969516628
 42
-0.0049981587662889
  0
LWPOLYLINE
  5
62
100
AcDbEntity
  8
0
370
              15
390
0
  6
Continuous
 62
               7
100
AcDbPolyline
 90
      118
 70
             128
 10
919.97116719807866
 20
-1344.2943547545096
 10
921.84628912257813
 20
-1344.2943547545096
 10
921.00825021697824
 20
-1346.9759212809097
 42
-0.0010587229276701
 10
921.03970603257608
 20
-1346.939016747524
 10
921.097900123199
 20
-1346.8710344913591
 42
-0.0071874740406431
 10
921.24827534127417
 20
-1346.7003937993563
 10
921.38999811454244
 20
-1346.5441576580365
 42
-0.0148118053513348
 10
921.84012740725132
 20
-1346.0765438120272
 10
921.92734974215728
 20
-1345.9911464911695
 42
-0.0086273358693353
 10
922.26289854316542
 20
-1345.6737708571534
 10
922.30673225940097
 20
-1345.6337212128117
 42
-0.0103138323110415
 10
922.56475596162477
 20
-1345.407558075482
 10
922.61053036796443
 20
-1345.3690760282111
 42
-0.0060206748561357
 10
922.78337843206407
 20
-1345.2272813774675
 10
922.78540956295512
 20
-1345.2256556718321
 42
-0.0067069027291699
 10
922.95770237761258
 20
-1345.0915050380413
 10
922.96025114355427
 20
-1345.0895748681542
 42
-0.0076184352047165
 10
923.13115640942362
 20
-1344.9641999929127
 42
-0.0089652861664541
 10
923.30611737214338
 20
-1344.84456673259
 10
923.34246909228841
 20
-1344.820655519107
 42
-0.0156916245947805
 10
923.5384285894495
 20
-1344.7003930326323
 42
-0.0023299011077913
 10
923.73869063340589
 20
-1344.5872150931043
 10
923.75407476580915
 20
-1344.5786150980266
 42
-0.0107669341484434
 10
923.98831159091708
 20
-1344.4542149646736
 10
924.01057639198621
 20
-1344.4429982147267
 42
-0.0078058045903386
 10
924.29416650993721
 20
-1344.3056367590891
 10
924.30407359764718
 20
-1344.3010276312202
 42
-0.0181829330471425
 10
924.61438300226393
 20
-1344.1701638901241
 10
924.66843844482628
 20
-1344.1496487701822
 42
-0.0208411536035978
 10
925.01752341227984
 20
-1344.0335583076881
 10
925.03187951241057
 20
-1344.0294398627336
 42
-0.0222799817135991
 10
925.3605993063245
 20
-1343.9507982965943
 10
925.36948826957405
 20
-1343.9490862860068
 42
-0.0215509523876397
 10
925.68595923784142
 20
-1343.9021705974747
 10
925.72844119889055
 20
-1343.8977330706839
 42
-0.0182545924881991
 10
925.96254997819551
 20
-1343.881889245293
 10
926.00195099454572
 20
-1343.8806647002136
 42
-0.0072962856528712
 10
926.15787387423256
 20
-1343.8780953716916
 10
926.18697354480855
 20
-1343.8780405362879
 42
-0.0059227516325881
 10
926.2847230439495
 20
-1343.8790142480784
 10
926.31396526146034
 20
-1343.8796520146825
 42
-0.0011833111900799
 10
926.35321654515383
 20
-1343.8806010189917
 10
925.55782994954666
 20
-1346.4193349640907
 42
0.0143932051598805
 10
925.53142856719546
 20
-1346.4091359940453
 10
925.52415659477879
 20
-1346.4065647751881
 42
0.0234388603508154
 10
925.48232572884706
 20
-1346.393945539473
 10
925.47364406593715
 20
-1346.3917645774684
 42
0.0199162742952968
 10
925.41335523185228
 20
-1346.3791478421322
 10
925.39254129404912
 20
-1346.3756506427044
 42
0.0293643550659271
 10
925.28946643528752
 20
-1346.3645005970509
 10
925.26478125456617
 20
-1346.3632889800324
 42
0.0214606686866613
 10
925.11164033861519
 20
-1346.3623504196148
 10
925.10226842779787
 20
-1346.3626953311591
 42
0.0167564054174474
 10
924.93074823668678
 20
-1346.3747723735273
 10
924.92228844393105
 20
-1346.3756537139543
 42
0.0137677553239827
 10
924.73493513066455
 20
-1346.400403022498
 10
924.72758339115785
 20
-1346.4015809424659
 42
0.011849726148564
 10
924.52708562705527
 20
-1346.4385982926551
 10
924.52093561980928
 20
-1346.4398851553751
 42
0.010642114389311
 10
924.31005473252526
 20
-1346.4887175309498
 10
924.30514592413192
 20
-1346.4899648736357
 42
0.0099746379697392
 10
924.08668745497073
 20
-1346.5501394019504
 10
924.02513941480242
 20
-1346.5684212805804
 42
0.0191613675862151
 10
923.68915495228691
 20
-1346.6823986608674
 10
923.60109517953015
 20
-1346.7160855711959
 42
0.0205274080149014
 10
923.21578840764073
 20
-1346.881913979018
 10
923.15813912565829
 20
-1346.9095819435906
 42
0.0181256912198812
 10
922.89986218499178
 20
-1347.0452657625683
 10
922.84690680168444
 20
-1347.0755833757792
 42
0.0140709242401126
 10
922.7019518670495
 20
-1347.1640780492173
 10
922.675702998426
 20
-1347.1811348679362
 42
0.0086667884419269
 10
922.58677683688848
 20
-1347.2411375358156
 42
0.0036408192022637
 10
922.49934359883844
 20
-1347.30331839362
 10
922.46411672437569
 20
-1347.3287593395285
 42
0.0052260781265934
 10
922.30788802701056
 20
-1347.4440917261436
 10
922.29168117073573
 20
-1347.4563198367732
 42
0.0050024435896416
 10
922.10567782767976
 20
-1347.5996024050332
 10
922.09035967115415
 20
-1347.6116484274874
 42
0.0136138710275143
 10
921.87991840284246
 20
-1347.7866149323893
 10
921.84625052704291
 20
-1347.8161939051088
 42
0.0172815186917636
 10
921.58184698537809
 20
-1348.0651905777345
 10
921.57928463953328
 20
-1348.0677763948838
 42
0.0189403857991543
 10
921.3287028409577
 20
-1348.3405816596844
 10
921.29607134742764
 20
-1348.3789255911747
 42
0.0185044199497893
 10
921.1041149084308
 20
-1348.6221741723195
 42
0.0088565243894257
 10
920.9256548018152
 20
-1348.8756905924522
 10
920.91647682216569
 20
-1348.8892319722136
 42
0.015719534723793
 10
920.73325621582853
 20
-1349.1787541815343
 10
920.687173273908
 20
-1349.2569063785377
 42
0.0095451879773997
 10
920.52208772376309
 20
-1349.5495010209065
 10
920.51093980484211
 20
-1349.5701716930223
 42
0.0100351706243512
 10
920.3788960556742
 20
-1349.8272272535294
 42
0.0086935915414514
 10
920.25656490388019
 20
-1350.0890603989335
 10
920.25324416246565
 20
-1350.0965027219056
 42
0.0072580174867578
 10
920.13289771052291
 20
-1350.3770947134833
 10
920.12963607720678
 20
-1350.3850147395251
 42
0.0060005122615848
 10
920.01043540887065
 20
-1350.6846244101146
 10
920.00722443052541
 20
-1350.6929859380289
 42
0.0049017786971423
 10
919.88832427167199
 20
-1351.0119149186223
 10
919.88515846528219
 20
-1351.0206678558511
 42
0.0039415167600065
 10
919.76572218723106
 20
-1351.3592099182486
 10
919.76259108457339
 20
-1351.3683131191406
 42
0.0031035838774556
 10
919.64178629887556
 20
-1351.7267529809285
 10
919.63867625434989
 20
-1351.736173602289
 42
0.0025070747159766
 10
919.51577490303816
 20
-1352.1148208192214
 10
919.47848100658678
 20
-1352.2317124845563
 42
0.0029081910286672
 10
919.28646270880756
 20
-1352.8458761427471
 10
919.24565954028128
 20
-1352.9790993850534
 42
0.0009266453734811
 10
918.97724216592712
 20
-1353.8613238451076
 10
918.95635469334945
 20
-1353.9304357241349
 42
-0.0005809993666069
 10
918.67901801273479
 20
-1354.8442438308516
 10
918.61273621446219
 20
-1355.0617287630105
 42
-0.0012018708164684
 10
918.46575190503268
 20
-1355.539891427532
 10
918.41343205346413
 20
-1355.7086505684076
 42
-0.0002691059592727
 10
918.36986257229853
 20
-1355.8489181887398
 10
915.53690667400929
 20
-1364.9380727910395
 10
913.71891778203076
 20
-1364.9380727910395
 10
919.97116719807866
 20
-1344.2943547545096
  0
SPLINE
  5
63
100
AcDbEntity
  8
0
370
              15
390
0
  6
Continuous
 62
               7
100
AcDbSpline
210
0.0
220
0.0
230
1.0
 70
              13
 71
               2
 72
             776
 73
             773
 74
               0
 42
0.000001
 43
0.000001
 40
0.0
 40
0.0
 40
0.0
 40
1.0
 40
1.0
 40
2.0
 40
2.0
 40
3.0
 40
3.0
 40
4.0
 40
4.0
 40
5.0
 40
5.0
 40
6.0
 40
6.0
 40
7.0
 40
7.0
 40
8.0
 40
8.0
 40
9.0
 40
9.0
 40
10.0
 40
10.0
 40
11.0
 40
11.0
 40
12.0
 40
12.0
 40
13.0
 40
13.0
 40
14.0
 40
14.0
 40
15.0
 40
15.0
 40
16.0
 40
16.0
 40
17.0
 40
17.0
 40
18.0
 40
18.0
 40
19.0
 40
19.0
 40
20.0
 40
20.0
 40
21.0
 40
21.0
 40
22.0
 40
22.0
 40
23.0
 40
23.0
 40
24.0
 40
24.0
 40
25.0
 40
25.0
 40
26.0
 40
26.0
 40
27.0
 40
27.0
 40
28.0
 40
28.0
 40
29.0
 40
29.0
 40
30.0
 40
30.0
 40
31.0
 40
31.0
 40
32.0
 40
32.0
 40
33.0
 40
33.0
 40
34.0
 40
34.0
 40
35.0
 40
35.0
 40
36.0
 40
36.0
 40
37.0
 40
37.0
 40
38.0
 40
38.0
 40
39.0
 40
39.0
 40
40.0
 40
40.0
 40
41.0
 40
41.0
 40
42.0
 40
42.0
 40
43.0
 40
43.0
 40
44.0
 40
44.0
 40
45.0
 40
45.0
 40
46.0
 40
46.0
 40
47.0
 40
47.0
 40
48.0
 40
48.0
 40
49.0
 40
49.0
 40
50.0
 40
50.0
 40
51.0
 40
51.0
 40
52.0
 40
52.0
 40
53.0
 40
53.0
 40
54.0
 40
54.0
 40
55.0
 40
55.0
 40
56.0
 40
56.0
 40
57.0
 40
57.0
 40
58.0
 40
58.0
 40
59.0
 40
59.0
 40
60.0
 40
60.0
 40
61.0
 40
61.0
 40
62.0
 40
62.0
 40
63.0
 40
63.0
 40
64.0
 40
64.0
 40
65.0
 40
65.0
 40
66.0
 40
66.0
 40
67.0
 40
67.0
 40
68.0
 40
68.0
 40
69.0
 40
69.0
 40
70.0
 40
70.0
 40
71.0
 40
71.0
 40
72.0
 40
72.0
 40
73.0
 40
73.0
 40
74.0
 40
74.0
 40
75.0
 40
75.0
 40
76.0
 40
76.0
 40
77.0
 40
77.0
 40
78.0
 40
78.0
 40
79.0
 40
79.0
 40
80.0
 40
80.0
 40
81.0
 40
81.0
 40
82.0
 40
82.0
 40
83.0
 40
83.0
 40
84.0
 40
84.0
 40
85.0
 40
85.0
 40
86.0
 40
86.0
 40
87.0
 40
87.0
 40
88.0
 40
88.0
 40
89.0
 40
89.0
 40
90.0
 40
90.0
 40
91.0
 40
91.0
 40
92.0
 40
92.0
 40
93.0
 40
93.0
 40
94.0
 40
94.0
 40
95.0
 40
95.0
 40
96.0
 40
96.0
 40
97.0
 40
97.0
 40
98.0
 40
98.0
 40
99.0
 40
99.0
 40
100.0
 40
100.0
 40
101.0
 40
101.0
 40
102.0
 40
102.0
 40
103.0
 40
103.0
 40
104.0
 40
104.0
 40
105.0
 40
105.0
 40
106.0
 40
106.0
 40
107.0
 40
107.0
 40
108.0
 40
108.0
 40
109.0
 40
109.0
 40
110.0
 40
110.0
 40
111.0
 40
111.0
 40
112.0
 40
112.0
 40
113.0
 40
113.0
 40
114.0
 40
114.0
 40
115.0
 40
115.0
 40
116.0
 40
116.0
 40
117.0
 40
117.0
 40
118.0
 40
118.0
 40
119.0
 40
119.0
 40
120.0
 40
120.0
 40
121.0
 40
121.0
 40
122.0
 40
122.0
 40
123.0
 40
123.0
 40
124.0
 40
124.0
 40
125.0
 40
125.0
 40
126.0
 40
126.0
 40
127.0
 40
127.0
 40
128.0
 40
128.0
 40
129.0
 40
129.0
 40
130.0
 40
130.0
 40
131.0
 40
131.0
 40
132.0
 40
132.0
 40
133.0
 40
133.0
 40
134.0
 40
134.0
 40
135.0
 40
135.0
 40
136.0
 40
136.0
 40
137.0
 40
137.0
 40
138.0
 40
138.0
 40
139.0
 40
139.0
 40
140.0
 40
140.0
 40
141.0
 40
141.0
 40
142.0
 40
142.0
 40
143.0
 40
143.0
 40
144.0
 40
144.0
 40
145.0
 40
145.0
 40
146.0
 40
146.0
 40
147.0
 40
147.0
 40
148.0
 40
148.0
 40
149.0
 40
149.0
 40
150.0
 40
150.0
 40
151.0
 40
151.0
 40
152.0
 40
152.0
 40
153.0
 40
153.0
 40
154.0
 40
154.0
 40
155.0
 40
155.0
 40
156.0
 40
156.0
 40
157.0
 40
157.0
 40
158.0
 40
158.0
 40
159.0
 40
159.0
 40
160.0
 40
160.0
 40
161.0
 40
161.0
 40
162.0
 40
162.0
 40
163.0
 40
163.0
 40
164.0
 40
164.0
 40
165.0
 40
165.0
 40
166.0
 40
166.0
 40
167.0
 40
167.0
 40
168.0
 40
168.0
 40
169.0
 40
169.0
 40
170.0
 40
170.0
 40
171.0
 40
171.0
 40
172.0
 40
172.0
 40
173.0
 40
173.0
 40
174.0
 40
174.0
 40
175.0
 40
175.0
 40
176.0
 40
176.0
 40
177.0
 40
177.0
 40
178.0
 40
178.0
 40
179.0
 40
179.0
 40
180.0
 40
180.0
 40
181.0
 40
181.0
 40
182.0
 40
182.0
 40
183.0
 40
183.0
 40
184.0
 40
184.0
 40
185.0
 40
185.0
 40
186.0
 40
186.0
 40
187.0
 40
187.0
 40
188.0
 40
188.0
 40
189.0
 40
189.0
 40
190.0
 40
190.0
 40
191.0
 40
191.0
 40
192.0
 40
192.0
 40
193.0
 40
193.0
 40
194.0
 40
194.0
 40
195.0
 40
195.0
 40
196.0
 40
196.0
 40
197.0
 40
197.0
 40
198.0
 40
198.0
 40
199.0
 40
199.0
 40
200.0
 40
200.0
 40
201.0
 40
201.0
 40
202.0
 40
202.0
 40
203.0
 40
203.0
 40
204.0
 40
204.0
 40
205.0
 40
205.0
 40
206.0
 40
206.0
 40
207.0
 40
207.0
 40
208.0
 40
208.0
 40
209.0
 40
209.0
 40
210.0
 40
210.0
 40
211.0
 40
211.0
 40
212.0
 40
212.0
 40
213.0
 40
213.0
 40
214.0
 40
214.0
 40
215.0
 40
215.0
 40
216.0
 40
216.0
 40
217.0
 40
217.0
 40
218.0
 40
218.0
 40
219.0
 40
219.0
 40
220.0
 40
220.0
 40
221.0
 40
221.0
 40
222.0
 40
222.0
 40
223.0
 40
223.0
 40
224.0
 40
224.0
 40
225.0
 40
225.0
 40
226.0
 40
226.0
 40
227.0
 40
227.0
 40
228.0
 40
228.0
 40
229.0
 40
229.0
 40
230.0
 40
230.0
 40
231.0
 40
231.0
 40
232.0
 40
232.0
 40
233.0
 40
233.0
 40
234.0
 40
234.0
 40
235.0
 40
235.0
 40
236.0
 40
236.0
 40
237.0
 40
237.0
 40
238.0
 40
238.0
 40
239.0
 40
239.0
 40
240.0
 40
240.0
 40
241.0
 40
241.0
 40
242.0
 40
242.0
 40
243.0
 40
243.0
 40
244.0
 40
244.0
 40
245.0
 40
245.0
 40
246.0
 40
246.0
 40
247.0
 40
247.0
 40
248.0
 40
248.0
 40
249.0
 40
249.0
 40
250.0
 40
250.0
 40
251.0
 40
251.0
 40
252.0
 40
252.0
 40
253.0
 40
253.0
 40
254.0
 40
254.0
 40
255.0
 40
255.0
 40
256.0
 40
256.0
 40
257.0
 40
257.0
 40
258.0
 40
258.0
 40
259.0
 40
259.0
 40
260.0
 40
260.0
 40
261.0
 40
261.0
 40
262.0
 40
262.0
 40
263.0
 40
263.0
 40
264.0
 40
264.0
 40
265.0
 40
265.0
 40
266.0
 40
266.0
 40
267.0
 40
267.0
 40
268.0
 40
268.0
 40
269.0
 40
269.0
 40
270.0
 40
270.0
 40
271.0
 40
271.0
 40
272.0
 40
272.0
 40
273.0
 40
273.0
 40
274.0
 40
274.0
 40
275.0
 40
275.0
 40
276.0
 40
276.0
 40
277.0
 40
277.0
 40
278.0
 40
278.0
 40
279.0
 40
279.0
 40
280.0
 40
280.0
 40
281.0
 40
281.0
 40
282.0
 40
282.0
 40
283.0
 40
283.0
 40
284.0
 40
284.0
 40
285.0
 40
285.0
 40
286.0
 40
286.0
 40
287.0
 40
287.0
 40
288.0
 40
288.0
 40
289.0
 40
289.0
 40
290.0
 40
290.0
 40
291.0
 40
291.0
 40
292.0
 40
292.0
 40
293.0
 40
293.0
 40
294.0
 40
294.0
 40
295.0
 40
295.0
 40
296.0
 40
296.0
 40
297.0
 40
297.0
 40
298.0
 40
298.0
 40
299.0
 40
299.0
 40
300.0
 40
300.0
 40
301.0
 40
301.0
 40
302.0
 40
302.0
 40
303.0
 40
303.0
 40
304.0
 40
304.0
 40
305.0
 40
305.0
 40
306.0
 40
306.0
 40
307.0
 40
307.0
 40
308.0
 40
308.0
 40
309.0
 40
309.0
 40
310.0
 40
310.0
 40
311.0
 40
311.0
 40
312.0
 40
312.0
 40
313.0
 40
313.0
 40
314.0
 40
314.0
 40
315.0
 40
315.0
 40
316.0
 40
316.0
 40
317.0
 40
317.0
 40
318.0
 40
318.0
 40
319.0
 40
319.0
 40
320.0
 40
320.0
 40
321.0
 40
321.0
 40
322.0
 40
322.0
 40
323.0
 40
323.0
 40
324.0
 40
324.0
 40
325.0
 40
325.0
 40
326.0
 40
326.0
 40
327.0
 40
327.0
 40
328.0
 40
328.0
 40
329.0
 40
329.0
 40
330.0
 40
330.0
 40
331.0
 40
331.0
 40
332.0
 40
332.0
 40
333.0
 40
333.0
 40
334.0
 40
334.0
 40
335.0
 40
335.0
 40
336.0
 40
336.0
 40
337.0
 40
337.0
 40
338.0
 40
338.0
 40
339.0
 40
339.0
 40
340.0
 40
340.0
 40
341.0
 40
341.0
 40
342.0
 40
342.0
 40
343.0
 40
343.0
 40
344.0
 40
344.0
 40
345.0
 40
345.0
 40
346.0
 40
346.0
 40
347.0
 40
347.0
 40
348.0
 40
348.0
 40
349.0
 40
349.0
 40
350.0
 40
350.0
 40
351.0
 40
351.0
 40
352.0
 40
352.0
 40
353.0
 40
353.0
 40
354.0
 40
354.0
 40
355.0
 40
355.0
 40
356.0
 40
356.0
 40
357.0
 40
357.0
 40
358.0
 40
358.0
 40
359.0
 40
359.0
 40
360.0
 40
360.0
 40
361.0
 40
361.0
 40
362.0
 40
362.0
 40
363.0
 40
363.0
 40
364.0
 40
364.0
 40
365.0
 40
365.0
 40
366.0
 40
366.0
 40
367.0
 40
367.0
 40
368.0
 40
368.0
 40
369.0
 40
369.0
 40
370.0
 40
370.0
 40
371.0
 40
371.0
 40
372.0
 40
372.0
 40
373.0
 40
373.0
 40
374.0
 40
374.0
 40
375.0
 40
375.0
 40
376.0
 40
376.0
 40
377.0
 40
377.0
 40
378.0
 40
378.0
 40
379.0
 40
379.0
 40
380.0
 40
380.0
 40
381.0
 40
381.0
 40
382.0
 40
382.0
 40
383.0
 40
383.0
 40
384.0
 40
384.0
 40
385.0
 40
385.0
 40
386.0
 40
386.0
 40
386.0
 10
930.29987164881129
 20
-1344.2834283911473
 30
0.0
 41
1.0
 10
931.11829575753177
 20
-1344.2834283911473
 30
0.0
 41
1.0
 10
931.93671986625225
 20
-1344.2834283911473
 30
0.0
 41
1.0
 10
931.52296613073554
 20
-1345.626054655397
 30
0.0
 41
1.0
 10
931.10921239521872
 20
-1346.9686809196467
 30
0.0
 41
1.0
 10
931.12755189037466
 20
-1346.9399801467534
 30
0.0
 41
0.9999957264383866
 10
931.14605888719507
 20
-1346.9113870966191
 30
0.0
 41
1.0
 10
931.17648821134048
 20
-1346.8643742182308
 30
0.0
 41
1.0
 10
931.2069175354859
 20
-1346.8173613398421
 30
0.0
 41
1.0
 10
931.28628318060078
 20
-1346.6947425329256
 30
0.0
 41
0.9995394069081183
 10
931.37294157216274
 20
-1346.5771644711704
 30
0.0
 41
1.0
 10
931.40869843441828
 20
-1346.5286495785826
 30
0.0
 41
1.0
 10
931.44445529667371
 20
-1346.4801346859949
 30
0.0
 41
1.0
 10
931.57818196448898
 20
-1346.2986944108725
 30
0.0
 41
0.9994460617143327
 10
931.72368244577547
 20
-1346.1265520132247
 30
0.0
 41
1.0
 10
931.72807062674906
 20
-1346.1213603328438
 30
0.0
 41
1.0
 10
931.73245880772254
 20
-1346.1161686524631
 30
0.0
 41
1.0
 10
931.86918292706332
 20
-1345.9544096155755
 30
0.0
 41
0.9994359394934397
 10
932.01645715741574
 20
-1345.8021934144099
 30
0.0
 41
1.0
 10
932.01884051137108
 20
-1345.7997300840348
 30
0.0
 41
1.0
 10
932.02122386532631
 20
-1345.7972667536596
 30
0.0
 41
1.0
 10
932.16373138776919
 20
-1345.6499772132429
 30
0.0
 41
0.9995293688567376
 10
932.3150030687508
 20
-1345.5117040010796
 30
0.0
 41
1.0
 10
932.33429682801022
 20
-1345.4940681154321
 30
0.0
 41
1.0
 10
932.35359058726965
 20
-1345.4764322297845
 30
0.0
 41
1.0
 10
932.46627474973172
 20
-1345.3734307889169
 30
0.0
 41
0.9997087614803006
 10
932.58379763869164
 20
-1345.2759865081148
 30
0.0
 41
1.0
 10
932.60296371187349
 20
-1345.2600949296016
 30
0.0
 41
1.0
 10
932.62212978505534
 20
-1345.2442033510883
 30
0.0
 41
1.0
 10
932.70132052764905
 20
-1345.1785422273149
 30
0.0
 41
0.9999595338695184
 10
932.78167979849968
 20
-1345.1143164966634
 30
0.0
 41
1.0
 10
932.86203906934907
 20
-1345.050090766013
 30
0.0
 41
0.9999749417499378
 10
932.94329960368873
 20
-1344.9870092120696
 30
0.0
 41
1.0
 10
932.96428574985725
 20
-1344.9707179247634
 30
0.0
 41
1.0
 10
932.98527189602567
 20
-1344.9544266374571
 30
0.0
 41
1.0
 10
933.06983978132791
 20
-1344.8887776276158
 30
0.0
 41
0.9999792037126881
 10
933.15524738110264
 20
-1344.8242248459683
 30
0.0
 41
1.0
 10
933.17607220689342
 20
-1344.8084850238019
 30
0.0
 41
1.0
 10
933.19689703268421
 20
-1344.7927452016354
 30
0.0
 41
1.0
 10
933.24065498072355
 20
-1344.7596720644369
 30
0.0
 41
0.9999993374107687
 10
933.28433666701153
 20
-1344.7264982689035
 30
0.0
 41
1.0
 10
933.32801835315183
 20
-1344.6933244734817
 30
0.0
 41
0.9999160953815065
 10
933.37254476407304
 20
-1344.6612934082821
 30
0.0
 41
1.0
 10
933.40536665149148
 20
-1344.6376822526981
 30
0.0
 41
1.0
 10
933.43818853891003
 20
-1344.614071097114
 30
0.0
 41
1.0
 10
933.54835872466742
 20
-1344.5348177207466
 30
0.0
 41
0.99809645272315
 10
933.66744771816764
 20
-1344.4697302478905
 30
0.0
 41
1.0
 10
933.70448032509648
 20
-1344.449490268297
 30
0.0
 41
1.0
 10
933.74151293202522
 20
-1344.4292502887035
 30
0.0
 41
1.0
 10
933.92083994529844
 20
-1344.3312400380021
 30
0.0
 41
0.9984572810572895
 10
934.1099285116577
 20
-1344.2537177766553
 30
0.0
 41
1.0
 10
934.11357478105424
 20
-1344.252222884317
 30
0.0
 41
1.0
 10
934.11722105045089
 20
-1344.2507279919787
 30
0.0
 41
1.0
 10
934.29901707801764
 20
-1344.1761955153083
 30
0.0
 41
0.9987838528033978
 10
934.48726973657699
 20
-1344.1199298751426
 30
0.0
 41
1.0
 10
934.49150768577556
 20
-1344.1186632214524
 30
0.0
 41
1.0
 10
934.49574563497424
 20
-1344.1173965677622
 30
0.0
 41
1.0
 10
934.67552239513577
 20
-1344.0636642349771
 30
0.0
 41
0.9990652816207325
 10
934.85926832685186
 20
-1344.025660555435
 30
0.0
 41
1.0
 10
934.86445672788102
 20
-1344.0245874523289
 30
0.0
 41
1.0
 10
934.86964512891018
 20
-1344.023514349223
 30
0.0
 41
1.0
 10
935.04301425856477
 20
-1343.9876568758934
 30
0.0
 41
0.9992909934270438
 10
935.2185900250247
 20
-1343.9649464434265
 30
0.0
 41
1.0
 10
935.39416579148292
 20
-1343.9422360109597
 30
0.0
 41
0.9994553539447905
 10
935.57085722457566
 20
-1343.9311567067537
 30
0.0
 41
1.0
 10
935.60629163237195
 20
-1343.9289348187058
 30
0.0
 41
1.0
 10
935.64172604016835
 20
-1343.9267129306581
 30
0.0
 41
1.0
 10
935.80795180673817
 20
-1343.9162898682464
 30
0.0
 41
0.9990928098292826
 10
935.97446159864148
 20
-1343.920049509481
 30
0.0
 41
1.0
 10
936.01302343391762
 20
-1343.9209202010143
 30
0.0
 41
1.0
 10
936.05158526919377
 20
-1343.9217908925473
 30
0.0
 41
1.0
 10
936.14097139054797
 20
-1343.9238091507157
 30
0.0
 41
0.9998382089205152
 10
936.23022707332939
 20
-1343.9290412772434
 30
0.0
 41
1.0
 10
936.23065697954962
 20
-1343.9290664781456
 30
0.0
 41
1.0
 10
936.23108688576986
 20
-1343.929091679048
 30
0.0
 41
1.0
 10
936.31948275611444
 20
-1343.9342734037716
 30
0.0
 41
0.9997558016759499
 10
936.40756333331365
 20
-1343.9433559191377
 30
0.0
 41
1.0
 10
936.40803947173981
 20
-1343.9434050166201
 30
0.0
 41
1.0
 10
936.40851561016586
 20
-1343.9434541141022
 30
0.0
 41
1.0
 10
936.49564391051126
 20
-1343.9524384345034
 30
0.0
 41
0.9996565144180908
 10
936.58218176385708
 20
-1343.9659757411932
 30
0.0
 41
1.0
 10
936.58264768923698
 20
-1343.9660486269249
 30
0.0
 41
1.0
 10
936.58311361461688
 20
-1343.9661215126566
 30
0.0
 41
1.0
 10
936.66871961720346
 20
-1343.9795130478831
 30
0.0
 41
0.9995321806868123
 10
936.75334669752999
 20
-1343.9981135363118
 30
0.0
 41
1.0
 10
936.75373589210335
 20
-1343.998199078778
 30
0.0
 41
1.0
 10
936.75412508667682
 20
-1343.9982846212442
 30
0.0
 41
1.0
 10
936.83797377785982
 20
-1344.0167140247415
 30
0.0
 41
0.9993819199219372
 10
936.92032031205463
 20
-1344.0409894080019
 30
0.0
 41
1.0
 10
936.92056181052624
 20
-1344.0410606006515
 30
0.0
 41
1.0
 10
936.92080330899785
 20
-1344.041131793301
 30
0.0
 41
1.0
 10
937.00266684625001
 20
-1344.0652647912623
 30
0.0
 41
0.9992089888457079
 10
937.08235360118374
 20
-1344.0958272095263
 30
0.0
 41
1.0
 10
937.16203459206281
 20
-1344.1263868102592
 30
0.0
 41
0.9990226101772373
 10
937.2387052619697
 20
-1344.1638642418739
 30
0.0
 41
1.0
 10
937.31537016782238
 20
-1344.2013388559578
 30
0.0
 41
0.9988424273972084
 10
937.38807926167078
 20
-1344.2460069895862
 30
0.0
 41
1.0
 10
937.38834423673211
 20
-1344.2461697744707
 30
0.0
 41
1.0
 10
937.38860921179332
 20
-1344.2463325593553
 30
0.0
 41
1.0
 10
937.46184825576495
 20
-1344.2913262627533
 30
0.0
 41
0.998692884449206
 10
937.53011112247464
 20
-1344.3435619970326
 30
0.0
 41
1.0
 10
937.53069241469723
 20
-1344.3440068102605
 30
0.0
 41
1.0
 10
937.53127370691982
 20
-1344.3444516234881
 30
0.0
 41
1.0
 10
937.60069915807389
 20
-1344.3975769842227
 30
0.0
 41
0.9986007262278753
 10
937.66412532784091
 20
-1344.4577377539163
 30
0.0
 41
1.0
 10
937.66501974329844
 20
-1344.4585861217518
 30
0.0
 41
1.0
 10
937.6659141587561
 20
-1344.4594344895872
 30
0.0
 41
1.0
 10
937.73112915943659
 20
-1344.5212919949504
 30
0.0
 41
0.9985581491382052
 10
937.78933677113787
 20
-1344.5897844852213
 30
0.0
 41
1.0
 10
937.79859522473407
 20
-1344.6006788429236
 30
0.0
 41
1.0
 10
937.80785367833028
 20
-1344.6115732006256
 30
0.0
 41
1.0
 10
937.8845781972235
 20
-1344.7018544063003
 30
0.0
 41
0.9970460233519962
 10
937.94657009838284
 20
-1344.8028214904818
 30
0.0
 41
1.0
 10
937.96103946346261
 20
-1344.8263879495635
 30
0.0
 41
1.0
 10
937.97550882854239
 20
-1344.8499544086451
 30
0.0
 41
1.0
 10
938.01524552855471
 20
-1344.914674132677
 30
0.0
 41
0.9988468816636293
 10
938.0485918993063
 20
-1344.982906585105
 30
0.0
 41
1.0
 10
938.05562792178944
 20
-1344.9973035062253
 30
0.0
 41
1.0
 10
938.06266394427269
 20
-1345.0117004273459
 30
0.0
 41
1.0
 10
938.08193827005732
 20
-1345.0511390375314
 30
0.0
 41
0.9998431189998082
 10
938.09980359756992
 20
-1345.0912355920113
 30
0.0
 41
1.0
 10
938.11766892507228
 20
-1345.1313321464686
 30
0.0
 41
0.9999989989738013
 10
938.13564764850503
 20
-1345.1713779840763
 30
0.0
 41
1.0
 10
938.14181996009006
 20
-1345.1851262008684
 30
0.0
 41
1.0
 10
938.14799227167509
 20
-1345.1988744176604
 30
0.0
 41
1.0
 10
938.17831561826949
 20
-1345.2664166888337
 30
0.0
 41
0.9998790356320875
 10
938.20652349839008
 20
-1345.3348694407289
 30
0.0
 41
1.0
 10
938.21335867968219
 20
-1345.3514565421754
 30
0.0
 41
1.0
 10
938.2201938609744
 20
-1345.3680436436218
 30
0.0
 41
1.0
 10
938.24375152335551
 20
-1345.4252115985087
 30
0.0
 41
0.9998227574561487
 10
938.26514027174539
 20
-1345.4832259067878
 30
0.0
 41
1.0
 10
938.28652902013471
 20
-1345.5412402150655
 30
0.0
 41
0.9996797971041829
 10
938.3049553050937
 20
-1345.6002623341833
 30
0.0
 41
1.0
 10
938.3088591078191
 20
-1345.6127667923517
 30
0.0
 41
1.0
 10
938.31276291054451
 20
-1345.6252712505202
 30
0.0
 41
1.0
 10
938.33899680095499
 20
-1345.7093022859774
 30
0.0
 41
0.9979274938735236
 10
938.35422132443398
 20
-1345.7960066446367
 30
0.0
 41
1.0
 10
938.3564450116952
 20
-1345.8086706454581
 30
0.0
 41
1.0
 10
938.35866869895642
 20
-1345.8213346462794
 30
0.0
 41
1.0
 10
938.36959863865445
 20
-1345.8835811535664
 30
0.0
 41
0.9994985982137242
 10
938.37656680383157
 20
-1345.9463946547087
 30
0.0
 41
1.0
 10
938.38353496900868
 20
-1346.0092081558535
 30
0.0
 41
0.9996372611202049
 10
938.38711083477631
 20
-1346.0723057345351
 30
0.0
 41
1.0
 10
938.38727941226557
 20
-1346.0752803516157
 30
0.0
 41
1.0
 10
938.38744798975472
 20
-1346.0782549686965
 30
0.0
 41
1.0
 10
938.39136101050121
 20
-1346.1473017815445
 30
0.0
 41
0.9997730630736489
 10
938.39232932398932
 20
-1346.2164526055797
 30
0.0
 41
1.0
 10
938.39238643040744
 20
-1346.2205307847221
 30
0.0
 41
1.0
 10
938.39244353682557
 20
-1346.2246089638647
 30
0.0
 41
1.0
 10
938.39352606315003
 20
-1346.3019161461743
 30
0.0
 41
0.9998772614071537
 10
938.39218597641832
 20
-1346.3792192927376
 30
0.0
 41
1.0
 10
938.39209671321942
 20
-1346.3843684565777
 30
0.0
 41
1.0
 10
938.39200745002063
 20
-1346.3895176204178
 30
0.0
 41
1.0
 10
938.39048883689134
 20
-1346.4771190946558
 30
0.0
 41
0.9999415567323039
 10
938.38707652664516
 20
-1346.5646672563344
 30
0.0
 41
1.0
 10
938.38683520596987
 20
-1346.5708587160696
 30
0.0
 41
1.0
 10
938.3865938852947
 20
-1346.5770501758047
 30
0.0
 41
1.0
 10
938.38269893369795
 20
-1346.6769812569585
 30
0.0
 41
0.999971681042618
 10
938.37730035057928
 20
-1346.7768423951891
 30
0.0
 41
1.0
 10
938.37408755179092
 20
-1346.8362716448394
 30
0.0
 41
1.0
 10
938.37087475300257
 20
-1346.8957008944897
 30
0.0
 41
1.0
 10
938.3628008438493
 20
-1347.0450492957812
 30
0.0
 41
0.999981912990804
 10
938.35293105223309
 20
-1347.1942897734843
 30
0.0
 41
1.0
 10
938.34306126061631
 20
-1347.3435302511969
 30
0.0
 41
1.0
 10
938.34062194005242
 20
-1347.3807232970462
 30
0.0
 41
1.0
 10
938.36332017385587
 20
-1347.3419822997632
 30
0.0
 41
0.9999982128199701
 10
938.38616473259231
 20
-1347.3033274058373
 30
0.0
 41
1.0
 10
938.41307429250037
 20
-1347.257794191743
 30
0.0
 41
1.0
 10
938.43998385240843
 20
-1347.2122609776484
 30
0.0
 41
1.0
 10
938.5166475309386
 20
-1347.082539655572
 30
0.0
 41
0.9998609190058856
 10
938.59759484380277
 20
-1346.9554472736388
 30
0.0
 41
1.0
 10
938.62724316528283
 20
-1346.9088975406844
 30
0.0
 41
1.0
 10
938.65689148676302
 20
-1346.8623478077297
 30
0.0
 41
1.0
 10
938.73916370699669
 20
-1346.7331752377402
 30
0.0
 41
0.9999067609733474
 10
938.82493271645978
 20
-1346.6062975482996
 30
0.0
 41
1.0
 10
938.82733741966058
 20
-1346.6027402822447
 30
0.0
 41
1.0
 10
938.82974212286149
 20
-1346.59918301619
 30
0.0
 41
1.0
 10
938.91070172592083
 20
-1346.4794198588625
 30
0.0
 41
0.9998784952148667
 10
938.9953553356039
 20
-1346.3622386421512
 30
0.0
 41
1.0
 10
939.08000894528334
 20
-1346.2450574254449
 30
0.0
 41
0.9998532968281907
 10
939.16862656610408
 20
-1346.1308445169773
 30
0.0
 41
1.0
 10
939.18858835510059
 20
-1346.1051171959502
 30
0.0
 41
1.0
 10
939.2085501440971
 20
-1346.079389874923
 30
0.0
 41
1.0
 10
939.32703419385371
 20
-1345.9266842639581
 30
0.0
 41
0.9991551975796031
 10
939.45765864347425
 20
-1345.7842247018775
 30
0.0
 41
1.0
 10
939.46116825945387
 20
-1345.7803971002534
 30
0.0
 41
1.0
 10
939.46467787543349
 20
-1345.7765694986292
 30
0.0
 41
1.0
 10
939.5882830930957
 20
-1345.641765139796
 30
0.0
 41
0.9997418144180426
 10
939.7178852327977
 20
-1345.5127157291822
 30
0.0
 41
1.0
 10
939.84748737250084
 20
-1345.3836663185675
 30
0.0
 41
0.9989238204633422
 10
939.98848992075284
 20
-1345.2671813565278
 30
0.0
 41
1.0
 10
940.03373759889314
 20
-1345.2298013649183
 30
0.0
 41
1.0
 10
940.07898527703355
 20
-1345.1924213733089
 30
0.0
 41
1.0
 10
940.21922533425197
 20
-1345.0765663200204
 30
0.0
 41
0.9990825084096593
 10
940.36886526685271
 20
-1344.9731373221896
 30
0.0
 41
1.0
 10
940.3789106309049
 20
-1344.9661941091133
 30
0.0
 41
1.0
 10
940.38895599495709
 20
-1344.959250896037
 30
0.0
 41
1.0
 10
940.51850519945208
 20
-1344.8697083243594
 30
0.0
 41
0.9998164899826645
 10
940.65138940283327
 20
-1344.78519408284
 30
0.0
 41
1.0
 10
940.66323496335679
 20
-1344.7776603163159
 30
0.0
 41
1.0
 10
940.6750805238803
 20
-1344.7701265497917
 30
0.0
 41
1.0
 10
940.78427360620822
 20
-1344.7006798413245
 30
0.0
 41
0.9997473449131424
 10
940.89647756346085
 20
-1344.6362108835067
 30
0.0
 41
1.0
 10
941.00868152070746
 20
-1344.5717419256925
 30
0.0
 41
0.9999327861144556
 10
941.12235013146937
 20
-1344.5098919340119
 30
0.0
 41
1.0
 10
941.12290213403185
 20
-1344.5095915753318
 30
0.0
 41
1.0
 10
941.12345413659432
 20
-1344.5092912166517
 30
0.0
 41
1.0
 10
941.23822675248039
 20
-1344.4468405076113
 30
0.0
 41
0.9996956420483923
 10
941.35594007832174
 20
-1344.3901270406361
 30
0.0
 41
1.0
 10
941.38638048321127
 20
-1344.3754610639076
 30
0.0
 41
1.0
 10
941.4168208881008
 20
-1344.3607950871792
 30
0.0
 41
1.0
 10
941.51979799484707
 20
-1344.3111814287345
 30
0.0
 41
0.9998070570175167
 10
941.62464438379038
 20
-1344.2656508418324
 30
0.0
 41
1.0
 10
941.72949077273256
 20
-1344.2201202549309
 30
0.0
 41
0.9997827436146991
 10
941.83614370934163
 20
-1344.1789990836194
 30
0.0
 41
1.0
 10
941.85536655897351
 20
-1344.1715875099867
 30
0.0
 41
1.0
 10
941.8745894086054
 20
-1344.1641759363542
 30
0.0
 41
1.0
 10
942.01968804447665
 20
-1344.1082316177781
 30
0.0
 41
0.9988031841976193
 10
942.16955840707976
 20
-1344.0667315536111
 30
0.0
 41
1.0
 10
942.19447565544567
 20
-1344.0598318078034
 30
0.0
 41
1.0
 10
942.21939290381158
 20
-1344.0529320619958
 30
0.0
 41
1.0
 10
942.38666292945709
 20
-1344.0066139195897
 30
0.0
 41
0.9984748040550283
 10
942.55801983810488
 20
-1343.9790196873248
 30
0.0
 41
1.0
 10
942.56275897435239
 20
-1343.9782565268115
 30
0.0
 41
1.0
 10
942.56749811060001
 20
-1343.9774933662984
 30
0.0
 41
1.0
 10
942.72937674675188
 20
-1343.95142545506
 30
0.0
 41
0.9984436495479545
 10
942.89315149047775
 20
-1343.9435475012413
 30
0.0
 41
1.0
 10
942.9148486986079
 20
-1343.9425038140416
 30
0.0
 41
1.0
 10
942.93654590673805
 20
-1343.941460126842
 30
0.0
 41
1.0
 10
943.05692623420146
 20
-1343.9356695474225
 30
0.0
 41
0.9987954789335455
 10
943.17729447911302
 20
-1343.9417060751648
 30
0.0
 41
1.0
 10
943.19725927161198
 20
-1343.9427073195036
 30
0.0
 41
1.0
 10
943.21722406411084
 20
-1343.9437085638424
 30
0.0
 41
1.0
 10
943.29766272402844
 20
-1343.9477426029077
 30
0.0
 41
0.9997941595876813
 10
943.37787150211921
 20
-1343.9550366688286
 30
0.0
 41
1.0
 10
943.45808028021395
 20
-1343.9623307347497
 30
0.0
 41
0.9998589466237663
 10
943.53799882706903
 20
-1343.9723145891996
 30
0.0
 41
1.0
 10
943.57040502887651
 20
-1343.9763629461188
 30
0.0
 41
1.0
 10
943.60281123068398
 20
-1343.980411303038
 30
0.0
 41
1.0
 10
943.74754218115208
 20
-1343.998491871326
 30
0.0
 41
0.9993495063249113
 10
943.89059342491544
 20
-1344.0269575810671
 30
0.0
 41
1.0
 10
943.92352712206889
 20
-1344.033511044282
 30
0.0
 41
1.0
 10
943.95646081922246
 20
-1344.0400645074972
 30
0.0
 41
1.0
 10
944.06575464242781
 20
-1344.0618128416327
 30
0.0
 41
0.9996788715560921
 10
944.17380621438519
 20
-1344.0890706409959
 30
0.0
 41
1.0
 10
944.17586921692168
 20
-1344.0895910675681
 30
0.0
 41
1.0
 10
944.17793221945828
 20
-1344.0901114941405
 30
0.0
 41
1.0
 10
944.2818577863394
 20
-1344.1163284403583
 30
0.0
 41
0.9995480654492204
 10
944.38402002157079
 20
-1344.1487433969835
 30
0.0
 41
1.0
 10
944.38570966370094
 20
-1344.1492795018978
 30
0.0
 41
1.0
 10
944.38739930583108
 20
-1344.1498156068121
 30
0.0
 41
1.0
 10
944.48618225680093
 20
-1344.1811583536082
 30
0.0
 41
0.9993867959456446
 10
944.58252941524222
 20
-1344.2193377228975
 30
0.0
 41
1.0
 10
944.58377236432761
 20
-1344.2198302647939
 30
0.0
 41
1.0
 10
944.5850153134129
 20
-1344.2203228066905
 30
0.0
 41
1.0
 10
944.67887657368487
 20
-1344.2575170921873
 30
0.0
 41
0.9992050256521999
 10
944.76947624871866
 20
-1344.3020709914263
 30
0.0
 41
1.0
 10
944.77021093143139
 20
-1344.3024322838874
 30
0.0
 41
1.0
 10
944.77094561414424
 20
-1344.3027935763482
 30
0.0
 41
1.0
 10
944.86007592375211
 20
-1344.3466248906648
 30
0.0
 41
0.9990222350741815
 10
944.94498598514565
 20
-1344.398158158363
 30
0.0
 41
1.0
 10
944.94516987042721
 20
-1344.3982697612671
 30
0.0
 41
1.0
 10
944.94535375570888
 20
-1344.3983813641712
 30
0.0
 41
1.0
 10
945.02989604653771
 20
-1344.4496914260606
 30
0.0
 41
0.998864274380619
 10
945.1091705811582
 20
-1344.5088156135866
 30
0.0
 41
1.0
 10
945.18844511577731
 20
-1344.5679398011121
 30
0.0
 41
0.9987681233310835
 10
945.26146890005441
 20
-1344.6346304925137
 30
0.0
 41
1.0
 10
945.26179782801978
 20
-1344.6349308937274
 30
0.0
 41
1.0
 10
945.26212675598526
 20
-1344.6352312949414
 30
0.0
 41
1.0
 10
945.33580839619196
 20
-1344.7025227887693
 30
0.0
 41
0.9987496570898541
 10
945.40240220151884
 20
-1344.7768356028557
 30
0.0
 41
1.0
 10
945.40317437127942
 20
-1344.777697276214
 30
0.0
 41
1.0
 10
945.40394654104011
 20
-1344.778558949572
 30
0.0
 41
1.0
 10
945.47208468588735
 20
-1344.8545951103729
 30
0.0
 41
0.998814766982589
 10
945.53250694011274
 20
-1344.9368961172161
 30
0.0
 41
1.0
 10
945.53362626619082
 20
-1344.9384207485691
 30
0.0
 41
1.0
 10
945.53474559226902
 20
-1344.9399453799224
 30
0.0
 41
1.0
 10
945.59740649865012
 20
-1345.025295649471
 30
0.0
 41
0.9989452636216369
 10
945.65197341161308
 20
-1345.1160343386314
 30
0.0
 41
1.0
 10
945.65332213769784
 20
-1345.1182771196561
 30
0.0
 41
1.0
 10
945.65467086378271
 20
-1345.1205199006808
 30
0.0
 41
1.0
 10
945.71193522891474
 20
-1345.21574415189
 30
0.0
 41
0.9991046436071055
 10
945.76094444223702
 20
-1345.3154685849165
 30
0.0
 41
1.0
 10
945.76240830382699
 20
-1345.3184472649887
 30
0.0
 41
1.0
 10
945.76387216541684
 20
-1345.321425945061
 30
0.0
 41
1.0
 10
945.81580910191849
 20
-1345.4271077382314
 30
0.0
 41
0.9992763831100736
 10
945.85956223047333
 20
-1345.5364318001868
 30
0.0
 41
1.0
 10
945.86104150013682
 20
-1345.540127987721
 30
0.0
 41
1.0
 10
945.86252076980031
 20
-1345.5438241752549
 30
0.0
 41
1.0
 10
945.90923243768202
 20
-1345.6605406122778
 30
0.0
 41
0.9994163472883454
 10
945.94786546887042
 20
-1345.7801742007384
 30
0.0
 41
1.0
 10
945.94910362111864
 20
-1345.7840083445253
 30
0.0
 41
1.0
 10
945.95034177336674
 20
-1345.7878424883122
 30
0.0
 41
1.0
 10
945.9902253343829
 20
-1345.9113485497874
 30
0.0
 41
0.9997268055890733
 10
946.02429339029413
 20
-1346.0365835817347
 30
0.0
 41
1.0
 10
946.02522357056387
 20
-1346.0400029478442
 30
0.0
 41
1.0
 10
946.02615375083371
 20
-1346.0434223139539
 30
0.0
 41
1.0
 10
946.05836144620639
 20
-1346.1618186136864
 30
0.0
 41
0.9996701319000456
 10
946.0844470629761
 20
-1346.2817125669462
 30
0.0
 41
1.0
 10
946.11053267974671
 20
-1346.4016065202104
 30
0.0
 41
0.9995785451109097
 10
946.12961625708681
 20
-1346.5228122812432
 30
0.0
 41
1.0
 10
946.13383603926093
 20
-1346.5496134360108
 30
0.0
 41
1.0
 10
946.13805582143505
 20
-1346.5764145907783
 30
0.0
 41
1.0
 10
946.16463079737309
 20
-1346.7452005644782
 30
0.0
 41
0.9979925101217042
 10
946.16965638329953
 20
-1346.9159918925661
 30
0.0
 41
1.0
 10
946.17048119572416
 20
-1346.9440226160475
 30
0.0
 41
1.0
 10
946.1713060081488
 20
-1346.9720533395289
 30
0.0
 41
1.0
 10
946.17468196922584
 20
-1347.0867832206568
 30
0.0
 41
0.9995314902263021
 10
946.17103177708759
 20
-1347.2015047044083
 30
0.0
 41
1.0
 10
946.16738158494888
 20
-1347.3162261881646
 30
0.0
 41
0.9996245486943637
 10
946.15745248981773
 20
-1347.4305754592897
 30
0.0
 41
1.0
 10
946.15728944182342
 20
-1347.4324532154253
 30
0.0
 41
1.0
 10
946.15712639382923
 20
-1347.4343309715609
 30
0.0
 41
1.0
 10
946.14687120270901
 20
-1347.552435754963
 30
0.0
 41
0.9997286095001493
 10
946.13112587913679
 20
-1347.6699346638641
 30
0.0
 41
1.0
 10
946.13073238648735
 20
-1347.6728710885591
 30
0.0
 41
1.0
 10
946.13033889383792
 20
-1347.6758075132539
 30
0.0
 41
1.0
 10
946.11380658496591
 20
-1347.7991792715513
 30
0.0
 41
0.9998265533970121
 10
946.0926911262344
 20
-1347.9218497463328
 30
0.0
 41
1.0
 10
946.09201458409666
 20
-1347.9257801248436
 30
0.0
 41
1.0
 10
946.09133804195892
 20
-1347.9297105033547
 30
0.0
 41
1.0
 10
946.06886949895193
 20
-1348.0602417351581
 30
0.0
 41
0.9999022530855242
 10
946.04276003434245
 20
-1348.1900937037951
 30
0.0
 41
1.0
 10
946.04178139317628
 20
-1348.1949608461859
 30
0.0
 41
1.0
 10
946.04080275201022
 20
-1348.199827988577
 30
0.0
 41
1.0
 10
946.01273600506943
 20
-1348.3394142419911
 30
0.0
 41
0.9999524761936911
 10
945.98195303623447
 20
-1348.4784267351554
 30
0.0
 41
1.0
 10
945.98067692905897
 20
-1348.4841894944575
 30
0.0
 41
1.0
 10
945.97940082188359
 20
-1348.4899522537598
 30
0.0
 41
1.0
 10
945.94606563869411
 20
-1348.6404902655449
 30
0.0
 41
0.9999813588715221
 10
945.91089463789831
 20
-1348.7906099782003
 30
0.0
 41
1.0
 10
945.90934071244499
 20
-1348.7972425686089
 30
0.0
 41
1.0
 10
945.90778678699166
 20
-1348.8038751590175
 30
0.0
 41
1.0
 10
945.8695079352799
 20
-1348.9672600525307
 30
0.0
 41
0.9999955237714387
 10
945.83025205729632
 20
-1349.1304129561499
 30
0.0
 41
1.0
 10
945.81797042166431
 20
-1349.181457146663
 30
0.0
 41
1.0
 10
945.80568878603231
 20
-1349.2325013371762
 30
0.0
 41
1.0
 10
945.74186963676948
 20
-1349.4977426218843
 30
0.0
 41
0.9999993604748004
 10
945.6774506895822
 20
-1349.7628388726489
 30
0.0
 41
1.0
 10
945.67273185405111
 20
-1349.7822577806237
 30
0.0
 41
1.0
 10
945.66801301852001
 20
-1349.8016766885985
 30
0.0
 41
1.0
 10
945.59415640026168
 20
-1350.1056107553486
 30
0.0
 41
0.9999659914733754
 10
945.51529680437568
 20
-1350.4082853019108
 30
0.0
 41
1.0
 10
945.51034411544572
 20
-1350.4272944390907
 30
0.0
 41
1.0
 10
945.50539142651576
 20
-1350.4463035762706
 30
0.0
 41
1.0
 10
945.4166264527712
 20
-1350.7869963971868
 30
0.0
 41
0.999944197602415
 10
945.32068341980755
 20
-1351.1257378224861
 30
0.0
 41
1.0
 10
945.30398290138112
 20
-1351.184701535017
 30
0.0
 41
1.0
 10
945.28728238295469
 20
-1351.2436652475478
 30
0.0
 41
1.0
 10
945.15793831313761
 20
-1351.7003340979099
 30
0.0
 41
0.9999625120734313
 10
945.02070554581212
 20
-1352.1546946319136
 30
0.0
 41
1.0
 10
944.98491560273101
 20
-1352.273190658535
 30
0.0
 41
1.0
 10
944.94912565964978
 20
-1352.3916866851562
 30
0.0
 41
1.0
 10
944.8746054556093
 20
-1352.6384137632565
 30
0.0
 41
0.9999793386318243
 10
944.79691943247144
 20
-1352.8841624024935
 30
0.0
 41
1.0
 10
944.7192334093337
 20
-1353.1299110417299
 30
0.0
 41
1.0
 10
941.0077077439247
 20
-1364.9380727910395
 30
0.0
 41
1.0
 10
940.04645105390114
 20
-1364.9380727910395
 30
0.0
 41
1.0
 10
939.08519436387758
 20
-1364.9380727910395
 30
0.0
 41
1.0
 10
940.74910028350291
 20
-1359.6459487972722
 30
0.0
 41
1.0
 10
942.41300620312825
 20
-1354.3538248035049
 30
0.0
 41
1.0
 10
942.58371998494385
 20
-1353.8108623137655
 30
0.0
 41
0.9999895103811431
 10
942.74945279662256
 20
-1353.2663587824059
 30
0.0
 41
1.0
 10
942.77914874011412
 20
-1353.1687948423846
 30
0.0
 41
1.0
 10
942.80884468360568
 20
-1353.0712309023636
 30
0.0
 41
1.0
 10
942.91518560829536
 20
-1352.7218552510672
 30
0.0
 41
0.9999952428129511
 10
943.01936919763011
 20
-1352.3718302266848
 30
0.0
 41
1.0
 10
943.02442866795684
 20
-1352.3548319524289
 30
0.0
 41
1.0
 10
943.02948813828357
 20
-1352.337833678173
 30
0.0
 41
1.0
 10
943.12355278695031
 20
-1352.0218052023511
 30
0.0
 41
0.9999931687498681
 10
943.2152786248289
 20
-1351.7050899890646
 30
0.0
 41
1.0
 10
943.22021388928897
 20
-1351.6880492797916
 30
0.0
 41
1.0
 10
943.22514915374916
 20
-1351.6710085705186
 30
0.0
 41
1.0
 10
943.30700446270646
 20
-1351.3883747757809
 30
0.0
 41
0.9999893840795613
 10
943.38625168915974
 20
-1351.1049986465471
 30
0.0
 41
1.0
 10
943.46549891560892
 20
-1350.8216225173278
 30
0.0
 41
0.999983398005851
 10
943.54147515634588
 20
-1350.5373519343182
 30
0.0
 41
1.0
 10
943.55047909307564
 20
-1350.5036630558116
 30
0.0
 41
1.0
 10
943.55948302980551
 20
-1350.4699741773047
 30
0.0
 41
1.0
 10
943.62844757867151
 20
-1350.2119383450099
 30
0.0
 41
0.9999233658067359
 10
943.69100254989121
 20
-1349.9522741862893
 30
0.0
 41
1.0
 10
943.75355752111091
 20
-1349.6926100275689
 30
0.0
 41
1.0
 10
943.79304093996984
 20
-1349.5288033631377
 30
0.0
 41
1.0
 10
943.79801954395134
 20
-1349.5081484012494
 30
0.0
 41
1.0
 10
943.80299814793295
 20
-1349.4874934393613
 30
0.0
 41
1.0
 10
943.8325243588331
 20
-1349.3649966986882
 30
0.0
 41
0.9999868670874339
 10
943.86079344282496
 20
-1349.2422037530605
 30
0.0
 41
1.0
 10
943.86469092998482
 20
-1349.2252741656343
 30
0.0
 41
1.0
 10
943.86858841714457
 20
-1349.2083445782082
 30
0.0
 41
1.0
 10
943.88906252682443
 20
-1349.1194108074005
 30
0.0
 41
0.9999778173349422
 10
943.90835012493619
 20
-1349.0302121901843
 30
0.0
 41
1.0
 10
943.92763772305352
 20
-1348.9410135729436
 30
0.0
 41
0.9999602692858046
 10
943.94533208168491
 20
-1348.8514852845135
 30
0.0
 41
1.0
 10
943.94853591376079
 20
-1348.8352748296365
 30
0.0
 41
1.0
 10
943.95173974583668
 20
-1348.8190643747598
 30
0.0
 41
1.0
 10
943.97584176862233
 20
-1348.6971151765636
 30
0.0
 41
0.9995617985320241
 10
943.99268511584069
 20
-1348.5739534288598
 30
0.0
 41
1.0
 10
943.99514960574675
 20
-1348.5559326114951
 30
0.0
 41
1.0
 10
943.99761409565281
 20
-1348.5379117941304
 30
0.0
 41
1.0
 10
944.0178973567007
 20
-1348.3895967444305
 30
0.0
 41
0.9991121410640245
 10
944.0256227102891
 20
-1348.2401006456246
 30
0.0
 41
1.0
 10
944.02654150031344
 20
-1348.222320809052
 30
0.0
 41
1.0
 10
944.0274602903379
 20
-1348.2045409724794
 30
0.0
 41
1.0
 10
944.03334806387727
 20
-1348.0906045468214
 30
0.0
 41
0.9989792494905863
 10
944.02892897176014
 20
-1347.9766017109196
 30
0.0
 41
1.0
 10
944.02828099989142
 20
-1347.9598854649903
 30
0.0
 41
1.0
 10
944.02763302802271
 20
-1347.9431692190608
 30
0.0
 41
1.0
 10
944.02450987964266
 20
-1347.8625988750191
 30
0.0
 41
0.9997820295393206
 10
944.01802588226712
 20
-1347.7822291532775
 30
0.0
 41
1.0
 10
944.01154188489136
 20
-1347.7018594315332
 30
0.0
 41
0.9998335105974812
 10
944.00212968937956
 20
-1347.6217798150826
 30
0.0
 41
1.0
 10
944.00053476470339
 20
-1347.6082100846006
 30
0.0
 41
1.0
 10
943.99893984002711
 20
-1347.5946403541188
 30
0.0
 41
1.0
 10
943.98633779516285
 20
-1347.4874212767038
 30
0.0
 41
0.9996876457879538
 10
943.96839388236401
 20
-1347.3809658489847
 30
0.0
 41
1.0
 10
943.96616221921863
 20
-1347.3677261137427
 30
0.0
 41
1.0
 10
943.96393055607336
 20
-1347.3544863785007
 30
0.0
 41
1.0
 10
943.95013473465235
 20
-1347.2726402345427
 30
0.0
 41
0.9995547496494854
 10
943.93148141275992
 20
-1347.1917627373523
 30
0.0
 41
1.0
 10
943.93110745588865
 20
-1347.1901413266469
 30
0.0
 41
1.0
 10
943.93073349901738
 20
-1347.1885199159417
 30
0.0
 41
1.0
 10
943.91282809086749
 20
-1347.1108852401621
 30
0.0
 41
0.999489942717549
 10
943.89000318218837
 20
-1347.0345519573282
 30
0.0
 41
1.0
 10
943.88954465544771
 20
-1347.0330185075397
 30
0.0
 41
1.0
 10
943.88908612870694
 20
-1347.0314850577513
 30
0.0
 41
1.0
 10
943.86717827350901
 20
-1346.9582186744938
 30
0.0
 41
0.9993784877591401
 10
943.84016263840215
 20
-1346.8866779693337
 30
0.0
 41
1.0
 10
943.83963094742512
 20
-1346.8852699866127
 30
0.0
 41
1.0
 10
943.83909925644798
 20
-1346.8838620038916
 30
0.0
 41
1.0
 10
943.81314700329528
 20
-1346.8151372641735
 30
0.0
 41
0.9992430832253476
 10
943.78193046813612
 20
-1346.7486381121059
 30
0.0
 41
1.0
 10
943.7813483520797
 20
-1346.7473980569889
 30
0.0
 41
1.0
 10
943.78076623602317
 20
-1346.7461580018717
 30
0.0
 41
1.0
 10
943.75071393297708
 20
-1346.6821389600379
 30
0.0
 41
0.9990789632797661
 10
943.71528330620015
 20
-1346.6209323482881
 30
0.0
 41
1.0
 10
943.71468760001835
 20
-1346.6199032624293
 30
0.0
 41
1.0
 10
943.71409189383655
 20
-1346.6188741765704
 30
0.0
 41
1.0
 10
943.67985267942277
 20
-1346.5597257365373
 30
0.0
 41
0.9988874801121048
 10
943.64019340339109
 20
-1346.50406602412
 30
0.0
 41
1.0
 10
943.63963787732655
 20
-1346.5032863724448
 30
0.0
 41
1.0
 10
943.639082351262
 20
-1346.5025067207696
 30
0.0
 41
1.0
 10
943.60053412735874
 20
-1346.448406311702
 30
0.0
 41
0.9986762060693789
 10
943.55663165608303
 20
-1346.3985525972635
 30
0.0
 41
1.0
 10
943.55618769575153
 20
-1346.3980484554477
 30
0.0
 41
1.0
 10
943.55574373542004
 20
-1346.3975443136319
 30
0.0
 41
1.0
 10
943.51272918480754
 20
-1346.3486988828254
 30
0.0
 41
0.9984621642490232
 10
943.46457162802926
 20
-1346.3049155823535
 30
0.0
 41
1.0
 10
943.46432499351272
 20
-1346.3046913501898
 30
0.0
 41
1.0
 10
943.46407835899606
 20
-1346.3044671180264
 30
0.0
 41
1.0
 10
943.41641407125087
 20
-1346.2611322818816
 30
0.0
 41
0.9982724693850811
 10
943.36399543940956
 20
-1346.2236879313641
 30
0.0
 41
1.0
 10
943.31157680756837
 20
-1346.1862435808468
 30
0.0
 41
0.998139918016012
 10
943.25499074417451
 20
-1346.1554570614028
 30
0.0
 41
1.0
 10
943.25494508209613
 20
-1346.1554322182456
 30
0.0
 41
1.0
 10
943.25489942001786
 20
-1346.1554073750885
 30
0.0
 41
1.0
 10
943.1982220324677
 20
-1346.1245711693309
 30
0.0
 41
0.9980927086837342
 10
943.13817668140211
 20
-1346.1009543604789
 30
0.0
 41
1.0
 10
943.13773651168981
 20
-1346.1007812346038
 30
0.0
 41
1.0
 10
943.13729634197762
 20
-1346.1006081087285
 30
0.0
 41
1.0
 10
943.07637065148595
 20
-1346.0766450481253
 30
0.0
 41
0.9981411356561238
 10
943.01298213008477
 20
-1346.0602724066196
 30
0.0
 41
1.0
 10
943.01210001338552
 20
-1346.0600445644145
 30
0.0
 41
1.0
 10
943.01121789668628
 20
-1346.0598167222097
 30
0.0
 41
1.0
 10
942.94606514188445
 20
-1346.0429883962929
 30
0.0
 41
0.9983031812933944
 10
942.87939771289007
 20
-1346.0338490351169
 30
0.0
 41
1.0
 10
942.87052668748447
 20
-1346.0326329164454
 30
0.0
 41
1.0
 10
942.86165566207876
 20
-1346.0314167977738
 30
0.0
 41
1.0
 10
942.807306019576
 20
-1346.023966067783
 30
0.0
 41
0.9983887708263732
 10
942.75246217028484
 20
-1346.0227213941498
 30
0.0
 41
1.0
 10
942.7443987650679
 20
-1346.022538396275
 30
0.0
 41
1.0
 10
942.73633535985095
 20
-1346.0223553984001
 30
0.0
 41
1.0
 10
942.69761832099152
 20
-1346.0214767205166
 30
0.0
 41
0.9998869563081662
 10
942.65889236778708
 20
-1346.0217625898763
 30
0.0
 41
1.0
 10
942.6201664145666
 20
-1346.022048459236
 30
0.0
 41
0.9999972320075256
 10
942.58144223533759
 20
-1346.0225165587653
 30
0.0
 41
1.0
 10
942.56208921877601
 20
-1346.0227504988545
 30
0.0
 41
1.0
 10
942.54273620221454
 20
-1346.0229844389437
 30
0.0
 41
1.0
 10
942.46530598984975
 20
-1346.0239204186516
 30
0.0
 41
0.9997304945088364
 10
942.38800268361786
 20
-1346.0284495124372
 30
0.0
 41
1.0
 10
942.37895304190943
 20
-1346.0289797184273
 30
0.0
 41
1.0
 10
942.36990340020088
 20
-1346.0295099244177
 30
0.0
 41
1.0
 10
942.27450081055031
 20
-1346.0350994301837
 30
0.0
 41
0.9997888306416394
 10
942.17940847470334
 20
-1346.0446043946731
 30
0.0
 41
1.0
 10
942.17068741313392
 20
-1346.0454761093049
 30
0.0
 41
1.0
 10
942.16196635156462
 20
-1346.0463478239367
 30
0.0
 41
1.0
 10
942.04943189257574
 20
-1346.0575962176899
 30
0.0
 41
0.9984170238190205
 10
941.93887274522433
 20
-1346.0814122996258
 30
0.0
 41
1.0
 10
941.90249161423776
 20
-1346.0892493354318
 30
0.0
 41
1.0
 10
941.86611048325108
 20
-1346.097086371238
 30
0.0
 41
1.0
 10
941.75091941483015
 20
-1346.1219002377475
 30
0.0
 41
0.9976592854198185
 10
941.64019124842571
 20
-1346.1621989148948
 30
0.0
 41
1.0
 10
941.5294630820207
 20
-1346.2024975920422
 30
0.0
 41
0.9993255074352065
 10
941.42199128323
 20
-1346.2508144905346
 30
0.0
 41
1.0
 10
941.41736610430689
 20
-1346.2528938667342
 30
0.0
 41
1.0
 10
941.4127409253839
 20
-1346.2549732429338
 30
0.0
 41
1.0
 10
941.29601876874699
 20
-1346.3074488938255
 30
0.0
 41
0.997647507827531
 10
941.18757142443746
 20
-1346.3753968834831
 30
0.0
 41
1.0
 10
941.16922903030309
 20
-1346.3868893622976
 30
0.0
 41
1.0
 10
941.15088663616859
 20
-1346.3983818411118
 30
0.0
 41
1.0
 10
941.06668444461752
 20
-1346.4511389618795
 30
0.0
 41
0.9995131336406837
 10
940.98593672965808
 20
-1346.509045173834
 30
0.0
 41
1.0
 10
940.90518901470364
 20
-1346.5669513857852
 30
0.0
 41
0.9995810107606856
 10
940.82792736697513
 20
-1346.6294330682504
 30
0.0
 41
1.0
 10
940.82495733576275
 20
-1346.6318349397168
 30
0.0
 41
1.0
 10
940.82198730455025
 20
-1346.6342368111832
 30
0.0
 41
1.0
 10
940.73878559439947
 20
-1346.7015222365796
 30
0.0
 41
0.9996617837955214
 10
940.65919490726174
 20
-1346.7730426921416
 30
0.0
 41
1.0
 10
940.64706415638307
 20
-1346.7839434251339
 30
0.0
 41
1.0
 10
940.63493340550428
 20
-1346.7948441581261
 30
0.0
 41
1.0
 10
940.5666578781105
 20
-1346.8561967735957
 30
0.0
 41
0.9997267750052198
 10
940.50132436982881
 20
-1346.9206733101191
 30
0.0
 41
1.0
 10
940.43599086154927
 20
-1346.9851498466401
 30
0.0
 41
0.9999667288960855
 10
940.37171791841331
 20
-1347.0506836535239
 30
0.0
 41
1.0
 10
940.30289047063047
 20
-1347.1208613122901
 30
0.0
 41
1.0
 10
940.23406302284752
 20
-1347.1910389710563
 30
0.0
 41
1.0
 10
940.03213518415146
 20
-1347.3969280954668
 30
0.0
 41
0.998820533517551
 10
939.85112956717194
 20
-1347.6214323275271
 30
0.0
 41
1.0
 10
939.82048960226689
 20
-1347.6594355779575
 30
0.0
 41
1.0
 10
939.78984963736184
 20
-1347.6974388283879
 30
0.0
 41
1.0
 10
939.54756409057632
 20
-1347.9979495613043
 30
0.0
 41
0.999707782675539
 10
939.32008613947437
 20
-1348.3098193555156
 30
0.0
 41
1.0
 10
939.31836272434111
 20
-1348.3121821388991
 30
0.0
 41
1.0
 10
939.31663930920774
 20
-1348.3145449222827
 30
0.0
 41
1.0
 10
939.08571452784133
 20
-1348.6311402832587
 30
0.0
 41
0.9989147567078762
 10
938.88525102495726
 20
-1348.9678497444449
 30
0.0
 41
1.0
 10
938.86050987965075
 20
-1349.0094063249967
 30
0.0
 41
1.0
 10
938.83576873434424
 20
-1349.0509629055484
 30
0.0
 41
1.0
 10
938.68055743570835
 20
-1349.311664289999
 30
0.0
 41
0.9997476598182221
 10
938.53721244819849
 20
-1349.5790740385819
 30
0.0
 41
1.0
 10
938.39386746068851
 20
-1349.8464837871652
 30
0.0
 41
0.9996258967110158
 10
938.26535920875801
 20
-1350.1213317237866
 30
0.0
 41
1.0
 10
938.25215929930835
 20
-1350.1495631238822
 30
0.0
 41
1.0
 10
938.23895938985868
 20
-1350.1777945239778
 30
0.0
 41
1.0
 10
938.09875066885706
 20
-1350.4776669219343
 30
0.0
 41
0.9998735413945142
 10
937.96814932213715
 20
-1350.7818465214011
 30
0.0
 41
1.0
 10
937.96470649407706
 20
-1350.7898651068649
 30
0.0
 41
1.0
 10
937.96126366601686
 20
-1350.7978836923289
 30
0.0
 41
1.0
 10
937.83754797541519
 20
-1351.0860261208722
 30
0.0
 41
0.999937741886168
 10
937.72029317324132
 20
-1351.3768575885454
 30
0.0
 41
1.0
 10
937.60303837106903
 20
-1351.6676890562142
 30
0.0
 41
0.9999508299506302
 10
937.49157442769194
 20
-1351.9607887330344
 30
0.0
 41
1.0
 10
937.48849365902811
 20
-1351.9688897590017
 30
0.0
 41
1.0
 10
937.48541289036427
 20
-1351.9769907849693
 30
0.0
 41
1.0
 10
937.36778740966565
 20
-1352.2862925137083
 30
0.0
 41
0.9999609228435394
 10
937.25564880679053
 20
-1352.5976255297271
 30
0.0
 41
1.0
 10
937.25269279644112
 20
-1352.6058323701359
 30
0.0
 41
1.0
 10
937.24973678609172
 20
-1352.6140392105449
 30
0.0
 41
1.0
 10
937.13168616252506
 20
-1352.941785907361
 30
0.0
 41
0.9999674607404456
 10
937.01893863645739
 20
-1353.2713945273536
 30
0.0
 41
1.0
 10
936.96754024588495
 20
-1353.4216537230745
 30
0.0
 41
1.0
 10
936.9161418553125
 20
-1353.5719129187953
 30
0.0
 41
1.0
 10
936.80013124856509
 20
-1353.9110609012682
 30
0.0
 41
0.9999287532304387
 10
936.69224984460152
 20
-1354.2528816402214
 30
0.0
 41
1.0
 10
936.58436844067694
 20
-1354.5947023790513
 30
0.0
 41
0.9999999340772826
 10
936.47673563644616
 20
-1354.9366014790228
 30
0.0
 41
1.0
 10
934.90246064737414
 20
-1359.9373371350312
 30
0.0
 41
1.0
 10
933.32818565830212
 20
-1364.9380727910395
 30
0.0
 41
1.0
 10
932.42287721441119
 20
-1364.9380727910395
 30
0.0
 41
1.0
 10
931.51756877052026
 20
-1364.9380727910395
 30
0.0
 41
1.0
 10
933.33848036794598
 20
-1359.1501511228944
 30
0.0
 41
1.0
 10
935.15939196537181
 20
-1353.362229454749
 30
0.0
 41
1.0
 10
935.23185935173558
 20
-1353.1318857322087
 30
0.0
 41
0.9999999535441911
 10
935.30446702044242
 20
-1352.901586190837
 30
0.0
 41
1.0
 10
935.37707468928784
 20
-1352.6712866490257
 30
0.0
 41
0.9999825681980105
 10
935.44695772849536
 20
-1352.4401457539741
 30
0.0
 41
1.0
 10
935.49524879066439
 20
-1352.2804211704508
 30
0.0
 41
1.0
 10
935.54353985283342
 20
-1352.1206965869276
 30
0.0
 41
1.0
 10
935.64069220614624
 20
-1351.7993613651654
 30
0.0
 41
0.9999672528967142
 10
935.73263101176667
 20
-1351.4764958195897
 30
0.0
 41
1.0
 10
935.7354198954348
 20
-1351.4667019742055
 30
0.0
 41
1.0
 10
935.73820877910293
 20
-1351.4569081288214
 30
0.0
 41
1.0
 10
935.82456981738483
 20
-1351.1536302740219
 30
0.0
 41
0.9999899749145621
 10
935.90821142692346
 20
-1350.8495911855557
 30
0.0
 41
1.0
 10
935.91831734593961
 20
-1350.8128559478826
 30
0.0
 41
1.0
 10
935.92842326495565
 20
-1350.7761207102094
 30
0.0
 41
1.0
 10
935.99185303645913
 20
-1350.5455520971
 30
0.0
 41
0.9999214200504575
 10
936.04948246483912
 20
-1350.3134657548808
 30
0.0
 41
1.0
 10
936.0622483170232
 20
-1350.2620548694704
 30
0.0
 41
1.0
 10
936.07501416920729
 20
-1350.21064398406
 30
0.0
 41
1.0
 10
936.10711189322274
 20
-1350.0813794126479
 30
0.0
 41
0.9999828681666872
 10
936.13769414521312
 20
-1349.9517479382002
 30
0.0
 41
1.0
 10
936.16827639720611
 20
-1349.8221164637434
 30
0.0
 41
0.9999389844478624
 10
936.19598738599302
 20
-1349.6918410078538
 30
0.0
 41
1.0
 10
936.20312512971418
 20
-1349.6582849040121
 30
0.0
 41
1.0
 10
936.21026287343523
 20
-1349.6247288001705
 30
0.0
 41
1.0
 10
936.25224934966514
 20
-1349.4273411365948
 30
0.0
 41
0.9998933699442199
 10
936.28845361406741
 20
-1349.2288115288352
 30
0.0
 41
1.0
 10
936.28982643928362
 20
-1349.2212835081393
 30
0.0
 41
1.0
 10
936.29119926449982
 20
-1349.2137554874434
 30
0.0
 41
1.0
 10
936.33014917933428
 20
-1349.0001698382937
 30
0.0
 41
0.9996850305194283
 10
936.35833285559295
 20
-1348.7848988328594
 30
0.0
 41
1.0
 10
936.36032788896227
 20
-1348.7696604787366
 30
0.0
 41
1.0
 10
936.36232292233171
 20
-1348.7544221246139
 30
0.0
 41
1.0
 10
936.38973078479114
 20
-1348.5450768974581
 30
0.0
 41
0.9994697936706721
 10
936.40345534401081
 20
-1348.3343917021266
 30
0.0
 41
1.0
 10
936.40393241326046
 20
-1348.3270682299149
 30
0.0
 41
1.0
 10
936.40440948251023
 20
-1348.3197447577033
 30
0.0
 41
1.0
 10
936.41717990323082
 20
-1348.1237065067933
 30
0.0
 41
0.9991804893136734
 10
936.41405158695807
 20
-1347.9272776568205
 30
0.0
 41
1.0
 10
936.41396770813594
 20
-1347.9220108554075
 30
0.0
 41
1.0
 10
936.41388382931382
 20
-1347.9167440539945
 30
0.0
 41
1.0
 10
936.41092327068509
 20
-1347.7308488068468
 30
0.0
 41
0.9988448329322063
 10
936.39013172506134
 20
-1347.5460962170132
 30
0.0
 41
1.0
 10
936.38853765135821
 20
-1347.5319313612413
 30
0.0
 41
1.0
 10
936.38694357765507
 20
-1347.5177665054691
 30
0.0
 41
1.0
 10
936.36934017943759
 20
-1347.3613436271801
 30
0.0
 41
0.9985503209458276
 10
936.33502390713829
 20
-1347.2077194430922
 30
0.0
 41
1.0
 10
936.32743791506778
 20
-1347.1737591156943
 30
0.0
 41
1.0
 10
936.31985192299715
 20
-1347.1397987882967
 30
0.0
 41
1.0
 10
936.30070763483934
 20
-1347.0540952590052
 30
0.0
 41
0.9991036781370997
 10
936.27438277318754
 20
-1346.9703181716775
 30
0.0
 41
1.0
 10
936.27040054773124
 20
-1346.9576450091658
 30
0.0
 41
1.0
 10
936.26641832227483
 20
-1346.944971846654
 30
0.0
 41
1.0
 10
936.24805791153597
 20
-1346.8865410843503
 30
0.0
 41
0.9998874504368073
 10
936.22795270385768
 20
-1346.8286874821279
 30
0.0
 41
1.0
 10
936.20784749617997
 20
-1346.7708338799061
 30
0.0
 41
0.9994041637543562
 10
936.18379888324523
 20
-1346.7145051760153
 30
0.0
 41
1.0
 10
936.17960209902117
 20
-1346.7046751115333
 30
0.0
 41
1.0
 10
936.1754053147971
 20
-1346.6948450470513
 30
0.0
 41
1.0
 10
936.14752648380227
 20
-1346.6295448810838
 30
0.0
 41
0.9991846840702354
 10
936.11447012710926
 20
-1346.5667068498037
 30
0.0
 41
1.0
 10
936.11333352071438
 20
-1346.5645462333491
 30
0.0
 41
1.0
 10
936.11219691431938
 20
-1346.5623856168947
 30
0.0
 41
1.0
 10
936.08141377041636
 20
-1346.5038688185236
 30
0.0
 41
0.9989253167922881
 10
936.04534434636116
 20
-1346.4484538901329
 30
0.0
 41
1.0
 10
936.04429022168665
 20
-1346.4468343953702
 30
0.0
 41
1.0
 10
936.04323609701225
 20
-1346.4452149006074
 30
0.0
 41
1.0
 10
936.00927492230562
 20
-1346.3930389617421
 30
0.0
 41
0.9986467172836867
 10
935.97007776966814
 20
-1346.3446729281127
 30
0.0
 41
1.0
 10
935.96920364096695
 20
-1346.3435943258337
 30
0.0
 41
1.0
 10
935.96832951226577
 20
-1346.3425157235549
 30
0.0
 41
1.0
 10
935.93088061703054
 20
-1346.2963068944828
 30
0.0
 41
0.998400110426805
 10
935.88845388651339
 20
-1346.254621787114
 30
0.0
 41
1.0
 10
935.88786674840412
 20
-1346.254044912233
 30
0.0
 41
1.0
 10
935.88727961029485
 20
-1346.2534680373517
 30
0.0
 41
1.0
 10
935.84602715599658
 20
-1346.2129366797458
 30
0.0
 41
0.9982442159082829
 10
935.80027105466115
 20
-1346.1775681184859
 30
0.0
 41
1.0
 10
935.80005625919932
 20
-1346.1774020858425
 30
0.0
 41
1.0
 10
935.79984146373749
 20
-1346.1772360531993
 30
0.0
 41
1.0
 10
935.75451495332572
 20
-1346.1421995572257
 30
0.0
 41
0.9982450060835622
 10
935.7053639742544
 20
-1346.1127677741924
 30
0.0
 41
1.0
 10
935.65621299518352
 20
-1346.0833359911596
 30
0.0
 41
0.9983922639636771
 10
935.6040466890197
 20
-1346.0596563565059
 30
0.0
 41
1.0
 10
935.60381981169439
 20
-1346.0595533710241
 30
0.0
 41
1.0
 10
935.60359293436898
 20
-1346.0594503855423
 30
0.0
 41
1.0
 10
935.55097287355522
 20
-1346.0355647799252
 30
0.0
 41
0.9986517147149345
 10
935.4961599006873
 20
-1346.0172636608033
 30
0.0
 41
1.0
 10
935.49548197925901
 20
-1346.0170373143717
 30
0.0
 41
1.0
 10
935.49480405783072
 20
-1346.01681096794
 30
0.0
 41
1.0
 10
935.43863524210599
 20
-1345.9980571559549
 30
0.0
 41
0.9989435598956066
 10
935.38098185495255
 20
-1345.9845394537201
 30
0.0
 41
1.0
 10
935.37990173537241
 20
-1345.9842862034675
 30
0.0
 41
1.0
 10
935.37882161579228
 20
-1345.9840329532149
 30
0.0
 41
1.0
 10
935.31900798947765
 20
-1345.9700087504743
 30
0.0
 41
0.9992249241238967
 10
935.25827648058021
 20
-1345.9607334077593
 30
0.0
 41
1.0
 10
935.25686279228978
 20
-1345.9605174993517
 30
0.0
 41
1.0
 10
935.25544910399935
 20
-1345.9603015909438
 30
0.0
 41
1.0
 10
935.19189021852083
 20
-1345.950594431413
 30
0.0
 41
0.9994396597834049
 10
935.12782428198545
 20
-1345.9451615090675
 30
0.0
 41
1.0
 10
935.10868361450639
 20
-1345.9435383413488
 30
0.0
 41
1.0
 10
935.08954294702721
 20
-1345.9419151736299
 30
0.0
 41
1.0
 10
934.98719567553496
 20
-1345.9332359158468
 30
0.0
 41
0.998769340312141
 10
934.88449205194831
 20
-1345.9347389792995
 30
0.0
 41
1.0
 10
934.87423771772319
 20
-1345.9348890510737
 30
0.0
 41
1.0
 10
934.86398338349807
 20
-1345.9350391228479
 30
0.0
 41
1.0
 10
934.75442761731665
 20
-1345.9366424671355
 30
0.0
 41
0.99897536449669
 10
934.64546561729776
 20
-1345.9481454740605
 30
0.0
 41
1.0
 10
934.53650361727955
 20
-1345.9596484809858
 30
0.0
 41
0.9983190067305104
 10
934.42960480631291
 20
-1345.983683472773
 30
0.0
 41
1.0
 10
934.42070385470788
 20
-1345.9856847513354
 30
0.0
 41
1.0
 10
934.41180290310297
 20
-1345.9876860298978
 30
0.0
 41
1.0
 10
934.28710218892468
 20
-1346.0157235788097
 30
0.0
 41
0.9985539388303101
 10
934.16613243524705
 20
-1346.0569872548551
 30
0.0
 41
1.0
 10
934.16378700428629
 20
-1346.057787298671
 30
0.0
 41
1.0
 10
934.16144157332553
 20
-1346.058587342487
 30
0.0
 41
1.0
 10
934.03578095772662
 20
-1346.1014511061644
 30
0.0
 41
0.9988468746493188
 10
933.91481061542584
 20
-1346.156169191227
 30
0.0
 41
1.0
 10
933.91162779343722
 20
-1346.1576088657869
 30
0.0
 41
1.0
 10
933.90844497144872
 20
-1346.1590485403467
 30
0.0
 41
1.0
 10
933.7811089851732
 20
-1346.2166459745283
 30
0.0
 41
0.9991322885920295
 10
933.65900840111772
 20
-1346.2846413067091
 30
0.0
 41
1.0
 10
933.64140639006985
 20
-1346.2944435087011
 30
0.0
 41
1.0
 10
933.62380437902198
 20
-1346.3042457106931
 30
0.0
 41
1.0
 10
933.52162769796666
 20
-1346.3611458264725
 30
0.0
 41
0.9993860037848673
 10
933.42368669389498
 20
-1346.4250618420604
 30
0.0
 41
1.0
 10
933.41806838104355
 20
-1346.4287283367548
 30
0.0
 41
1.0
 10
933.41245006819213
 20
-1346.4323948314491
 30
0.0
 41
1.0
 10
933.32574568982318
 20
-1346.488977857648
 30
0.0
 41
0.9998821494954584
 10
933.2408193140102
 20
-1346.5481960877246
 30
0.0
 41
1.0
 10
933.1558929382004
 20
-1346.6074143177993
 30
0.0
 41
0.9997976482743091
 10
933.07341730780183
 20
-1346.6700007258371
 30
0.0
 41
1.0
 10
933.05878104299313
 20
-1346.6811074156199
 30
0.0
 41
1.0
 10
933.04414477818432
 20
-1346.6922141054024
 30
0.0
 41
1.0
 10
932.93239661816222
 20
-1346.7770138930105
 30
0.0
 41
0.9998091630799895
 10
932.82404634012948
 20
-1346.8661142437163
 30
0.0
 41
1.0
 10
932.81104058765868
 20
-1346.876809344157
 30
0.0
 41
1.0
 10
932.79803483518799
 20
-1346.8875044445977
 30
0.0
 41
1.0
 10
932.66367305220763
 20
-1346.9979949961896
 30
0.0
 41
0.9995035112317313
 10
932.53653717444388
 20
-1347.1167288132046
 30
0.0
 41
1.0
 10
932.5268898640544
 20
-1347.1257385593644
 30
0.0
 41
1.0
 10
932.51724255366491
 20
-1347.1347483055245
 30
0.0
 41
1.0
 10
932.39381949090068
 20
-1347.2500146772793
 30
0.0
 41
0.9994630424299204
 10
932.27821108511773
 20
-1347.3731174205138
 30
0.0
 41
1.0
 10
932.27452824634611
 20
-1347.3770390000273
 30
0.0
 41
1.0
 10
932.27084540757437
 20
-1347.3809605795404
 30
0.0
 41
1.0
 10
932.1626026793341
 20
-1347.4962201637486
 30
0.0
 41
0.9995160693750189
 10
932.06173664980247
 20
-1347.6179875816208
 30
0.0
 41
1.0
 10
932.05980292972458
 20
-1347.6203220058255
 30
0.0
 41
1.0
 10
932.05786920964658
 20
-1347.6226564300305
 30
0.0
 41
1.0
 10
931.96087062027198
 20
-1347.7397549994917
 30
0.0
 41
0.9996561470514312
 10
931.8701444016034
 20
-1347.8617777619445
 30
0.0
 41
1.0
 10
931.86398673569897
 20
-1347.8700595509902
 30
0.0
 41
1.0
 10
931.85782906979455
 20
-1347.8783413400358
 30
0.0
 41
1.0
 10
931.77941818293641
 20
-1347.9838005243953
 30
0.0
 41
0.9998349055174474
 10
931.70489090100807
 20
-1348.0920391080526
 30
0.0
 41
1.0
 10
931.63036361908939
 20
-1348.2002776916961
 30
0.0
 41
0.9999728109571027
 10
931.55744072319419
 20
-1348.3096036172287
 30
0.0
 41
1.0
 10
931.55612550776686
 20
-1348.3115753867546
 30
0.0
 41
1.0
 10
931.55481029233965
 20
-1348.3135471562805
 30
0.0
 41
1.0
 10
931.47925696561208
 20
-1348.4268166208315
 30
0.0
 41
0.9999972147380428
 10
931.40423915524252
 20
-1348.5404414636607
 30
0.0
 41
1.0
 10
931.39926761261484
 20
-1348.547971552141
 30
0.0
 41
1.0
 10
931.39429606998715
 20
-1348.5555016406215
 30
0.0
 41
1.0
 10
931.30933517437757
 20
-1348.6841866603881
 30
0.0
 41
0.9999371979004428
 10
931.22727982497861
 20
-1348.8147435741564
 30
0.0
 41
1.0
 10
931.22377094061062
 20
-1348.8203265022312
 30
0.0
 41
1.0
 10
931.22026205624263
 20
-1348.8259094303062
 30
0.0
 41
1.0
 10
931.13118893810656
 20
-1348.9676322002263
 30
0.0
 41
0.9998272025610664
 10
931.04744554721754
 20
-1349.1125680769815
 30
0.0
 41
1.0
 10
931.03223037519933
 20
-1349.138901191428
 30
0.0
 41
1.0
 10
931.01701520318124
 20
-1349.1652343058745
 30
0.0
 41
1.0
 10
930.90284146825422
 20
-1349.362836411525
 30
0.0
 41
0.9995217214838782
 10
930.80110177870142
 20
-1349.5671187393809
 30
0.0
 41
1.0
 10
930.7934582160625
 20
-1349.5824661890915
 30
0.0
 41
1.0
 10
930.78581465342359
 20
-1349.5978136388023
 30
0.0
 41
1.0
 10
930.69890936083698
 20
-1349.7723100968776
 30
0.0
 41
0.9998269762606986
 10
930.61855489456514
 20
-1349.9499183836006
 30
0.0
 41
1.0
 10
930.5382004282975
 20
-1350.1275266703142
 30
0.0
 41
0.9998944747387403
 10
930.46303963373691
 20
-1350.3073943959337
 30
0.0
 41
1.0
 10
930.45808596413963
 20
-1350.3192490508657
 30
0.0
 41
1.0
 10
930.45313229454234
 20
-1350.3311037057977
 30
0.0
 41
1.0
 10
930.37248523398966
 20
-1350.5241006458152
 30
0.0
 41
0.9999506734411386
 10
930.29568770508638
 20
-1350.7186614506709
 30
0.0
 41
1.0
 10
930.28108773981944
 20
-1350.7556493724667
 30
0.0
 41
1.0
 10
930.26648777455262
 20
-1350.7926372942625
 30
0.0
 41
1.0
 10
930.21889017618003
 20
-1350.9132222555345
 30
0.0
 41
0.9999912393957244
 10
930.17230373216069
 20
-1351.034201458222
 30
0.0
 41
1.0
 10
930.12571728813668
 20
-1351.1551806609218
 30
0.0
 41
0.999992711394822
 10
930.08005599374167
 20
-1351.2765120684255
 30
0.0
 41
1.0
 10
930.06608756234596
 20
-1351.313629050419
 30
0.0
 41
1.0
 10
930.05211913095036
 20
-1351.3507460324126
 30
0.0
 41
1.0
 10
929.97852097376062
 20
-1351.546311403913
 30
0.0
 41
0.999948755095087
 10
929.9088973487892
 20
-1351.7433267690947
 30
0.0
 41
1.0
 10
929.88530373885578
 20
-1351.8100900793779
 30
0.0
 41
1.0
 10
929.86171012892225
 20
-1351.8768533896609
 30
0.0
 41
1.0
 10
929.76702449454501
 20
-1352.1447872245044
 30
0.0
 41
0.9999808436942973
 10
929.67566290590162
 20
-1352.4138726557749
 30
0.0
 41
1.0
 10
929.58430131726004
 20
-1352.6829580870394
 30
0.0
 41
0.9999873932909854
 10
929.4956466085423
 20
-1352.9529474420519
 30
0.0
 41
1.0
 10
929.47555425167332
 20
-1353.0141367748038
 30
0.0
 41
1.0
 10
929.45546189480433
 20
-1353.0753261075556
 30
0.0
 41
1.0
 10
929.32662247235055
 20
-1353.4676941280666
 30
0.0
 41
0.999979488303646
 10
929.20281968739368
 20
-1353.86168033434
 30
0.0
 41
1.0
 10
929.19255471293945
 20
-1353.8943472759129
 30
0.0
 41
1.0
 10
929.18228973848522
 20
-1353.9270142174855
 30
0.0
 41
1.0
 10
929.0379570025359
 20
-1354.3863343135363
 30
0.0
 41
0.9999999915003492
 10
928.89356615622842
 20
-1354.845636130917
 30
0.0
 41
1.0
 10
927.30718502784305
 20
-1359.8918544609783
 30
0.0
 41
1.0
 10
925.72080389945768
 20
-1364.9380727910395
 30
0.0
 41
1.0
 10
924.77205328798129
 20
-1364.9380727910395
 30
0.0
 41
1.0
 10
923.82330267650491
 20
-1364.9380727910395
 30
0.0
 41
1.0
 10
927.06158716265804
 20
-1354.6107505910934
 30
0.0
 41
1.0
 10
930.29987164881129
 20
-1344.2834283911473
 30
0.0
 41
1.0
  0
LWPOLYLINE
  5
64
100
AcDbEntity
  8
0
370
              15
390
0
  6
Continuous
 62
               7
100
AcDbPolyline
 90
      233
 70
             128
 10
904.59632587498425
 20
-1345.3677712226624
 42
0.000437080068672
 10
904.54344870090802
 20
-1345.4364378619239
 10
904.50416446978477
 20
-1345.4875449748151
 42
0.0030481992171937
 10
904.37382575265565
 20
-1345.6592666671727
 10
904.33531408091631
 20
-1345.7106534509458
 42
0.0042058245746461
 10
904.13132903024484
 20
-1345.9876591960219
 10
904.07892390774464
 20
-1346.0600920428019
 42
0.0120948898746924
 10
903.78287999098518
 20
-1346.4908416473481
 10
903.68668749185622
 20
-1346.6383223825837
 42
0.0141601263949274
 10
903.38304344493929
 20
-1347.1339917193113
 10
903.34350617751534
 20
-1347.2028356867397
 42
0.0071131081296929
 10
903.13823385427486
 20
-1347.5723384855812
 42
0.0068458791004836
 10
902.94335432742503
 20
-1347.9474300490706
 10
902.93654246496681
 20
-1347.9609917627954
 42
0.0064120880288931
 10
902.73840021493595
 20
-1348.3684162376867
 10
902.73086552940981
 20
-1348.3844280944272
 42
0.0058857236446066
 10
902.52811013754115
 20
-1348.8288042054558
 10
902.51993521124268
 20
-1348.8472943590998
 42
0.0053189741891277
 10
902.31123089857567
 20
-1349.3332578330173
 10
902.30248309289823
 20
-1349.3542397112042
 42
0.0047503650420391
 10
902.08650936674837
 20
-1349.8864391444115
 10
902.07724111839912
 20
-1349.9099155205222
 42
0.0042071762167877
 10
901.85269373467349
 20
-1350.4930091145864
 10
901.84294433232299
 20
-1350.5189752894612
 42
0.0036680086485412
 10
901.60848968900757
 20
-1351.1576106740015
 10
901.59828190915607
 20
-1351.1860592083563
 42
0.0032573142626465
 10
901.35264962318979
 20
-1351.8849118681092
 10
901.28399910234157
 20
-1352.0843749521846
 42
0.0026133366650094
 10
900.93555390359779
 20
-1353.114238235815
 10
900.87229711608791
 20
-1353.3044690712363
 42
0.0020592950739666
 10
900.65843404712996
 20
-1353.9565727238212
 10
900.6553822559581
 20
-1353.9660092122579
 42
0.0025609928537044
 10
900.45356175448103
 20
-1354.6011544345968
 10
900.45097038735139
 20
-1354.6094567755467
 42
0.0031362356242708
 10
900.26147960167737
 20
-1355.2302196317169
 10
900.25934855873777
 20
-1355.2373609379686
 42
0.0037229918029172
 10
900.08254817182365
 20
-1355.8463462399022
 10
900.08086958261856
 20
-1355.852293130072
 42
0.0043077623709264
 10
899.91712878055216
 20
-1356.4521118618454
 42
0.0047654161823602
 10
899.76430005803491
 20
-1357.0547979507533
 10
899.72983544919634
 20
-1357.1963597279
 42
0.011296936844519
 10
899.53397109105401
 20
-1358.0880518885192
 10
899.5059647019574
 20
-1358.2308799346163
 42
0.0130056762570447
 10
899.30512745831015
 20
-1359.4178210062646
 10
899.2845877081628
 20
-1359.5618991197432
 42
0.0138721532143734
 10
899.18088470362522
 20
-1360.4687286055673
 10
899.16158921571764
 20
-1360.6922263274882
 42
0.0071254697008242
 10
899.12824256979479
 20
-1361.1554133363397
 10
899.12328159563106
 20
-1361.2414173309071
 42
0.0028881799193972
 10
899.10814330234166
 20
-1361.5331590407422
 42
0.0060297297138783
 10
899.09821110256621
 20
-1361.8251079768513
 10
899.09714882089884
 20
-1361.8735003487941
 42
0.0229523164153358
 10
899.10487984868473
 20
-1362.1962551950737
 10
899.10910562220511
 20
-1362.2566587290901
 42
0.0123673300665305
 10
899.12818426872343
 20
-1362.4577794542647
 42
0.0128577674477202
 10
899.15737965912945
 20
-1362.65767730419
 10
899.16450553251661
 20
-1362.6990061187885
 42
0.0285717853764891
 10
899.22899953421245
 20
-1362.977122270102
 10
899.24266805787863
 20
-1363.0237770395781
 42
0.0316283099157365
 10
899.35847863779304
 20
-1363.3427915414049
 10
899.36152732954861
 20
-1363.3497779137308
 42
0.0338984824229336
 10
899.51095904051579
 20
-1363.6373438779196
 10
899.51326776988617
 20
-1363.6411349071964
 42
0.035022871835698
 10
899.69562806055922
 20
-1363.8981868918725
 10
899.6965133123341
 20
-1363.8992659696364
 42
0.0347476747526369
 10
899.91093799957446
 20
-1364.1264510168567
 42
0.0331337701916478
 10
900.15418132532056
 20
-1364.3225796789336
 10
900.1552814238371
 20
-1364.3233523821066
 42
0.0305233319083029
 10
900.42382611940991
 20
-1364.4884805521976
 10
900.4270561639114
 20
-1364.4902045640606
 42
0.0273744481151985
 10
900.71960987548573
 20
-1364.6263427079509
 10
900.72471441062328
 20
-1364.6283862924206
 42
0.0240964406191514
 10
901.04019148626662
 20
-1364.7373700187013
 10
901.04677481547901
 20
-1364.7392947583771
 42
0.0209636179816784
 10
901.38417496813429
 20
-1364.8227629063097
 10
901.39180742858025
 20
-1364.8243148193105
 42
0.0181388704694724
 10
901.75012982057876
 20
-1364.8837309125245
 10
901.75841066895964
 20
-1364.884797096342
 42
0.015608654757501
 10
902.13659803314579
 20
-1364.9215332829183
 10
902.17979328547779
 20
-1364.9243717853974
 42
0.0137148329027364
 10
902.50746643077161
 20
-1364.9368920406487
 10
902.55340262070911
 20
-1364.9373864737638
 42
0.0051057823886285
 10
902.78954820730348
 20
-1364.9375167281726
 42
0.0052256693308551
 10
903.02564549107444
 20
-1364.9327679037085
 10
903.09587227481791
 20
-1364.9306209376946
 42
0.0161507179053536
 10
903.47160935291924
 20
-1364.906970567368
 10
903.49162231329228
 20
-1364.9050603720805
 42
0.0101216737835559
 10
903.90564953478167
 20
-1364.8570674417151
 10
903.93970282421333
 20
-1364.8524197449049
 42
0.024529177639953
 10
904.41649247976136
 20
-1364.763344666829
 10
904.50131579528636
 20
-1364.7431487464828
 42
0.0143509212558649
 10
904.85794689922955
 20
-1364.647344112703
 42
0.0156557857038942
 10
905.20816296395299
 20
-1364.5303328968853
 10
905.21566417844849
 20
-1364.5275627351307
 42
0.0170137333631926
 10
905.57226017413097
 20
-1364.3819051202588
 10
905.57936409653519
 20
-1364.3787172846967
 42
0.018310536441182
 10
905.93871376469951
 20
-1364.2013822428733
 10
905.94566052934022
 20
-1364.1976318080001
 42
0.0194899958154281
 10
906.30414127031997
 20
-1363.9856528261121
 10
906.31115514966086
 20
-1363.9811274838144
 42
0.0204869852957457
 10
906.66516945175636
 20
-1363.7316074687274
 10
906.67243506034185
 20
-1363.7260274033802
 42
0.0212516938560843
 10
907.01842499144493
 20
-1363.4361234064902
 10
907.06494168552535
 20
-1363.3936560963923
 42
0.0215248918244205
 10
907.32496785441322
 20
-1363.1348918173976
 10
907.36999758879813
 20
-1363.0860476960429
 42
0.0114578554967882
 10
907.52478974247106
 20
-1362.9102247625892
 10
907.53598427846453
 20
-1362.8969059990359
 42
0.0061531305123497
 10
907.66245892445215
 20
-1362.7426164657381
 42
0.0006325587131598
 10
907.78683740863687
 20
-1362.5866130900208
 10
907.80987754365538
 20
-1362.5576395694031
 42
0.0041897761556442
 10
907.97833294762904
 20
-1362.3421201933402
 10
908.03679506752542
 20
-1362.2660188463492
 42
0.0092993880043717
 10
908.31340699475095
 20
-1361.8917400824625
 10
908.39580148794039
 20
-1361.7758030789073
 42
0.0159321727081535
 10
908.7424079705853
 20
-1361.2536288581475
 10
908.78676410597666
 20
-1361.1819492938939
 42
0.0085547317014624
 10
909.02127587130008
 20
-1360.7880743446729
 42
0.008460115689019
 10
909.24225204873653
 20
-1360.3864474956515
 10
909.25036752257586
 20
-1360.3710878133613
 42
0.008142965429055
 10
909.47361679301264
 20
-1359.9313663008215
 10
909.4824769571951
 20
-1359.9131874588056
 42
0.0076574581323293
 10
909.70888446776291
 20
-1359.43000458355
 10
909.71836410848448
 20
-1359.4089401052515
 42
0.0070682724198892
 10
909.94880901629028
 20
-1358.8769028004726
 10
909.95879930027297
 20
-1358.8529136114585
 42
0.0064559514448103
 10
910.1941325084548
 20
-1358.2666013449393
 10
910.20454186662027
 20
-1358.239666419496
 42
0.0058311413907719
 10
910.44558860338225
 20
-1357.593634325114
 10
910.45634368076992
 20
-1357.5637499839531
 42
0.0052312425819906
 10
910.70392495881447
 20
-1356.8525475701076
 10
910.71496879519725
 20
-1356.8197208580291
 42
0.0046680544794522
 10
910.9698972229213
 20
-1356.037894542306
 10
911.01188937298014
 20
-1355.9049113049655
 42
0.0041666856442959
 10
911.21517538536364
 20
-1355.2419425299965
 10
911.25283782602685
 20
-1355.1153614223447
 42
0.0015170975156406
 10
911.37402440447806
 20
-1354.70349307072
 42
-0.0004887993114331
 10
911.49436417753168
 20
-1354.2913746589161
 10
911.57084143505858
 20
-1354.0304172728661
 10
911.57084143510349
 20
-1354.0304172727128
 42
0.0002583378930537
 10
911.84405600512616
 20
-1353.0963605696757
 10
911.92582885472109
 20
-1352.8162613100299
 42
0.0006636169672257
 10
912.11969661471085
 20
-1352.148908386517
 10
912.12479326907328
 20
-1352.1312768035837
 42
0.0010589131324573
 10
912.30624196997451
 20
-1351.498545460588
 10
912.31122404048301
 20
-1351.481032553469
 42
0.0015655524467023
 10
912.47949424763783
 20
-1350.8824158743671
 10
912.48432444805781
 20
-1350.8650237154136
 42
0.0021640440476453
 10
912.63861442003872
 20
-1350.299996697413
 10
912.64324863946661
 20
-1350.2827319674268
 42
0.0028763871853208
 10
912.78276435752173
 20
-1349.7507640165722
 10
912.78715022168672
 20
-1349.7336400384265
 42
0.0037310511945696
 10
912.91110691352583
 20
-1349.234192444394
 10
912.91518213381414
 20
-1349.2172321731514
 42
0.0047652197770517
 10
913.02280603432325
 20
-1348.7497544048433
 10
913.02649663364809
 20
-1348.7329948496865
 42
0.0060276699303842
 10
913.11702673280024
 20
-1348.2969190545491
 10
913.12024542308689
 20
-1348.2804178402525
 42
0.0075824337764285
 10
913.19293473250491
 20
-1347.8751506758138
 10
913.19558010988624
 20
-1347.8589957283566
 42
0.0095130624615732
 10
913.24969534551633
 20
-1347.4839063752916
 10
913.25668156939946
 20
-1347.4279728171705
 42
0.0121054653237949
 10
913.28327289997685
 20
-1347.1630769887011
 10
913.28413938973631
 20
-1347.1516735457717
 42
0.0069050827393816
 10
913.29922820777415
 20
-1346.9087323189278
 10
913.30036350744206
 20
-1346.8852060618972
 42
0.0169063976671906
 10
913.30319078642287
 20
-1346.6890133345823
 10
913.30202013489179
 20
-1346.6286775732397
 42
0.005200773288396
 10
913.29976668629865
 20
-1346.553084183081
 42
0.0054038123312097
 10
913.27980317446111
 20
-1346.4330658870786
 10
913.27471731858975
 20
-1346.4044074004917
 42
0.0112050460466747
 10
913.23933295653137
 20
-1346.2280809621532
 10
913.22150799449014
 20
-1346.1485393754301
 42
0.0240764468011533
 10
913.13061062834436
 20
-1345.8183023399299
 10
913.11205186553036
 20
-1345.7616821749343
 42
0.0256812331834991
 10
912.968688945341
 20
-1345.3899579686777
 10
912.96327951951946
 20
-1345.3778266336876
 42
0.0268360501219213
 10
912.79385227866976
 20
-1345.0468334996669
 10
912.78831587103434
 20
-1345.0373138293539
 42
0.0274670231730391
 10
912.59611489462145
 20
-1344.7450264544373
 10
912.59073359465924
 20
-1344.7377473068964
 42
0.0275035967095306
 10
912.37916071509699
 20
-1344.482231416592
 10
912.37409121413134
 20
-1344.4767523289624
 42
0.0269557673523208
 10
912.14668767069088
 20
-1344.2561100429994
 10
912.1419446129089
 20
-1344.2519800885391
 42
0.0259124802211692
 10
911.9023897814775
 20
-1344.064289561386
 10
911.89785893629551
 20
-1344.0611040590557
 42
0.0245162153005956
 10
911.64994258320075
 20
-1343.9043710499454
 10
911.6454160368753
 20
-1343.9018108527439
 42
0.0229282588841405
 10
911.39299648004919
 20
-1343.7739426602457
 10
911.38821598621303
 20
-1343.7717903604839
 42
0.0212984135700765
 10
911.13517803375066
 20
-1343.6705914432414
 10
911.12987374878333
 20
-1343.6687278804823
 42
0.0197555462350739
 10
910.88009541105816
 20
-1343.5919124625166
 42
0.0183511896798324
 10
910.62516668559556
 20
-1343.534329555551
 10
910.5388014888722
 20
-1343.5181267651658
 42
0.0338057877145368
 10
910.25329413961174
 20
-1343.4843183600256
 10
910.16228873457169
 20
-1343.4797387047643
 42
0.0091990524501651
 10
910.05644162595206
 20
-1343.4763628488424
 42
0.0028333980786519
 10
909.95052770994016
 20
-1343.4755347413256
 10
909.94961225689349
 20
-1343.4755327715015
 42
-0.0023619827814822
 10
909.84186624179608
 20
-1343.474791930423
 10
909.80546107154328
 20
-1343.4743696239591
 42
0.0008824598480108
 10
909.62490508166582
 20
-1343.4725938457207
 10
909.58104364931637
 20
-1343.4722398841957
 42
0.0038132665763488
 10
909.31276075348512
 20
-1343.4721209481293
 10
909.29622709868363
 20
-1343.472239714273
 42
0.0060665569334333
 10
908.9949466070974
 20
-1343.4780600136937
 10
908.98069627506698
 20
-1343.4785083216614
 42
0.0080356953338432
 10
908.65123755872389
 20
-1343.4941760437284
 10
908.6391675436405
 20
-1343.4949446266687
 42
0.0098996399109683
 10
908.28640445898736
 20
-1343.5244298558671
 10
908.27635874961072
 20
-1343.5254701520655
 42
0.0117740981366872
 10
907.90520189126732
 20
-1343.5727623995947
 10
907.89697919478363
 20
-1343.5740075161657
 42
0.0137435215135293
 10
907.51239037529592
 20
-1343.6431044897281
 10
907.50573333617308
 20
-1343.6444903859615
 42
0.0158359869387734
 10
907.11273624237162
 20
-1343.739382474442
 10
907.1073230555055
 20
-1343.7408724153122
 42
0.0180554124032779
 10
906.71100801089278
 20
-1343.8655104315512
 10
906.70645122280973
 20
-1343.8671264678173
 42
0.0203657431288979
 10
906.31197370499672
 20
-1344.0253868093337
 10
906.30783016598559
 20
-1344.0272484307773
 42
0.0226819684659955
 10
905.92039410978555
 20
-1344.222891009447
 10
905.91619431876927
 20
-1344.2252566013658
 42
0.0248634984610963
 10
905.54101237758812
 20
-1344.4618832473127
 10
905.49281744880113
 20
-1344.4957402891405
 42
0.0267044190880823
 10
905.21852475188757
 20
-1344.7111806650069
 42
0.0139303002200053
 10
904.96235758595515
 20
-1344.9484195059126
 10
904.95750420022785
 20
-1344.9531721687788
 42
0.028346096344646
 10
904.71343160599952
 20
-1345.2209028292252
 10
904.67376310083978
 20
-1345.2697044067027
 42
0.007069536481636
 10
904.59632587499129
 20
-1345.3677712226533
 42
0.007069536481636
  0
LWPOLYLINE
  5
65
100
AcDbEntity
  8
0
370
              15
390
0
  6
Continuous
 62
               7
100
AcDbPolyline
 90
      226
 70
             128
 10
901.06750543773796
 20
-1361.0893600288562
 42
-0.0026277636622769
 10
901.06742755393782
 20
-1361.0225881030794
 10
901.06764491216984
 20
-1360.9694328856604
 42
-0.0088680296730536
 10
901.07142152846302
 20
-1360.7964171032543
 10
901.07376788757529
 20
-1360.7371370778037
 42
-0.0077381705611342
 10
901.0898139983392
 20
-1360.4458765819957
 10
901.09068190951155
 20
-1360.4335883483191
 42
-0.0068872530537135
 10
901.11731398926042
 20
-1360.1183665962437
 10
901.11851821344567
 20
-1360.1061256172338
 42
-0.0062130021490637
 10
901.15611193027416
 20
-1359.767255925989
 10
901.15761583380868
 20
-1359.7550820540775
 42
-0.0056726929672128
 10
901.20653769331125
 20
-1359.3928868319626
 10
901.20831113895542
 20
-1359.3807930317189
 42
-0.005234188450153
 10
901.26892172521445
 20
-1358.9955997762063
 10
901.27093971399199
 20
-1358.9835948462085
 42
-0.0049768450170222
 10
901.34367839542222
 20
-1358.5757502787549
 10
901.36792741014074
 20
-1358.4472022957661
 42
-0.0089029805621095
 10
901.5050082619357
 20
-1357.7854268483438
 10
901.53775363725345
 20
-1357.640395417824
 42
-0.0080318257099713
 10
901.76730225159611
 20
-1356.6946857859632
 10
901.77928717804241
 20
-1356.6485551507803
 42
-0.0074265721317244
 10
902.06329871689502
 20
-1355.6184905723906
 10
902.08317826001314
 20
-1355.5503565117967
 42
-0.0069711922699965
 10
902.41048283851569
 20
-1354.4840887714822
 10
902.47043478562682
 20
-1354.2980674130943
 42
-0.0052070422890652
 10
902.69986001088046
 20
-1353.6107953360804
 10
902.71714120301669
 20
-1353.5607680555675
 42
-0.0009167004450512
 10
902.92023309033959
 20
-1352.9763122073166
 42
-0.0025162726942497
 10
903.1273307206061
 20
-1352.3932709431429
 10
903.16455533241356
 20
-1352.2901213972318
 42
-0.0028212681455885
 10
903.41273125137332
 20
-1351.6143907650703
 10
903.42256201413988
 20
-1351.5880833203512
 42
-0.0031964916821002
 10
903.65885427178625
 20
-1350.9678785582664
 10
903.66848872578259
 20
-1350.9430685681298
 42
-0.0036281836451908
 10
903.89359468688644
 20
-1350.3756278872302
 10
903.90303309704245
 20
-1350.3523304557307
 42
-0.0041269166830361
 10
904.11765079370309
 20
-1349.8348895597489
 10
904.1502837501265
 20
-1349.7580111133814
 42
-0.0047472213051536
 10
904.30732855567749
 20
-1349.3975896455045
 10
904.3142226369057
 20
-1349.3821690481279
 42
-0.0025651659990635
 10
904.46258067073586
 20
-1349.054840992424
 42
-0.0057144634995594
 10
904.61633036450621
 20
-1348.7300313190635
 10
904.64436106990604
 20
-1348.6725229366721
 42
-0.006538806837385
 10
904.82782809764819
 20
-1348.3082904400023
 10
904.8362865534267
 20
-1348.2920308606328
 42
-0.007451084302108
 10
905.01246879930454
 20
-1347.96534257951
 10
905.02064846983876
 20
-1347.9507018022355
 42
-0.0084648979852663
 10
905.19028232293567
 20
-1347.6587927912801
 10
905.19813844942382
 20
-1347.6457857996293
 42
-0.0095638542807336
 10
905.36197389701795
 20
-1347.3858969276507
 10
905.36944884069226
 20
-1347.3745275661913
 42
-0.0107191626802206
 10
905.52825042107725
 20
-1347.1439163316513
 10
905.53526715480825
 20
-1347.1341802392867
 42
-0.0118458573903881
 10
905.68981525332583
 20
-1346.9301080439695
 42
-0.012918451818627
 10
905.85426787692609
 20
-1346.7339475278013
 10
905.88441264928758
 20
-1346.6998214489038
 42
-0.02177425796357
 10
906.06102497162078
 20
-1346.516614678656
 10
906.07177051608107
 20
-1346.5063978454532
 42
-0.0097266568657135
 10
906.23782813493699
 20
-1346.3545502710156
 42
-0.0187720905714802
 10
906.41217571082905
 20
-1346.2124814176245
 10
906.4428817015056
 20
-1346.1893223352265
 42
-0.0179428207519117
 10
906.67530242149678
 20
-1346.0267701581186
 10
906.67895474840714
 20
-1346.0244062232343
 42
-0.017004787769768
 10
906.91471838594293
 20
-1345.8829457090792
 10
906.91850137468714
 20
-1345.8808474040443
 42
-0.0160190788370835
 10
907.15540992232479
 20
-1345.7591961020548
 42
-0.0151102861489828
 10
907.39944170477168
 20
-1345.6525133260002
 10
907.45182820698324
 20
-1345.6314731931056
 42
-0.0271945441888075
 10
907.81049076604165
 20
-1345.5096083823996
 10
907.8795555665323
 20
-1345.4902588411326
 42
-0.0237596594026365
 10
908.29535241355211
 20
-1345.3948081291519
 10
908.36341526728324
 20
-1345.3825534410248
 42
-0.0213715440545973
 10
908.64929019872784
 20
-1345.3436064095151
 10
908.70943736494269
 20
-1345.3380166948145
 42
-0.0101465655831758
 10
908.87692989693994
 20
-1345.3258731515502
 10
908.88627028314409
 20
-1345.3253862365525
 42
-0.0100375910875809
 10
909.03542438370073
 20
-1345.3206104186277
 10
909.04568365337786
 20
-1345.3204879796133
 42
-0.010362563338883
 10
909.17439164803591
 20
-1345.3216194131398
 10
909.19665729930432
 20
-1345.3222767716047
 42
-0.0115689250237084
 10
909.28070803683079
 20
-1345.32670627785
 42
-0.0072438037445729
 10
909.36454631627225
 20
-1345.3342954775994
 10
909.38134682574378
 20
-1345.3360620203237
 42
-0.0217917313152
 10
909.49791658905451
 20
-1345.3534819130441
 10
909.56351667962701
 20
-1345.3662285214596
 42
-0.0332943556754361
 10
909.7679088446514
 20
-1345.4202688127662
 10
909.79808141319916
 20
-1345.4304368898838
 42
-0.0184824084820337
 10
909.9365864696673
 20
-1345.4828879052714
 42
-0.0198002050697868
 10
910.07066081016603
 20
-1345.5457719654703
 10
910.07254744754323
 20
-1345.5467497523503
 42
-0.0212242342968401
 10
910.20468638994623
 20
-1345.6225124911439
 10
910.20650168549025
 20
-1345.6236582933527
 42
-0.0226090605798748
 10
910.33500558671119
 20
-1345.7131379369168
 10
910.33685002844777
 20
-1345.7145501899035
 42
-0.0238457052230143
 10
910.46003210974118
 20
-1345.8185460857662
 10
910.46198483829971
 20
-1345.820360963532
 42
-0.0248160564156493
 10
910.57818634559999
 20
-1345.9396355647405
 10
910.58028997900385
 20
-1345.9420208984468
 42
-0.0254109591446539
 10
910.68789519686857
 20
-1346.0773092844097
 10
910.6901432187824
 20
-1346.0804508328101
 42
-0.0255528488302908
 10
910.78758989757898
 20
-1346.2324778870436
 10
910.78992099749576
 20
-1346.2365594986522
 42
-0.0252146793219322
 10
910.87570202350514
 20
-1346.4060617446498
 10
910.87800426266244
 20
-1346.411243826562
 42
-0.0244265635946937
 10
910.95065895642369
 20
-1346.5989903986081
 10
910.95990535789247
 20
-1346.626855816947
 42
-0.0231319612906152
 10
911.00582813688436
 20
-1346.7901568637481
 42
-0.0112130424367428
 10
911.04046415942207
 20
-1346.9563604639329
 10
911.04166668453502
 20
-1346.9628570508239
 42
-0.0210527881244653
 10
911.06735315990591
 20
-1347.1439126962655
 10
911.07086375472772
 20
-1347.1793182448125
 42
-0.0190029892427866
 10
911.08630522827241
 20
-1347.4328540910865
 10
911.08711520471638
 20
-1347.4683297054539
 42
-0.0137974553663199
 10
911.08556635188074
 20
-1347.7933611121884
 10
911.08472089692509
 20
-1347.8194798567863
 42
-0.0081336634206718
 10
911.06986156170274
 20
-1348.1248273243793
 42
-0.0073526923572951
 10
911.04555302832921
 20
-1348.4295755686537
 10
911.04429160454526
 20
-1348.4429122433312
 42
-0.0066886138698231
 10
911.00855601849855
 20
-1348.7734982868303
 10
911.00689892902892
 20
-1348.7871199058191
 42
-0.0061359187353718
 10
910.9590483269767
 20
-1349.1438838859283
 10
910.95701082590369
 20
-1349.1577786887588
 42
-0.005669861005515
 10
910.89636049513717
 20
-1349.5410572575922
 10
910.89395506181518
 20
-1349.555216376817
 42
-0.0052721077269099
 10
910.81982286101356
 20
-1349.9653437165048
 10
910.81705971217207
 20
-1349.9797603518903
 42
-0.0049289272180473
 10
910.72876559407382
 20
-1350.4170688630029
 10
910.72565309938943
 20
-1350.431737715827
 42
-0.0047415956717586
 10
910.62241510785896
 20
-1350.8965344732294
 10
910.5876468974991
 20
-1351.0463415686131
 42
-0.0084404470903289
 10
910.39763045392806
 20
-1351.8065655931414
 10
910.39150376594159
 20
-1351.8294297172977
 42
-0.0039635940258202
 10
910.17005008165881
 20
-1352.6304185815407
 10
910.15667328647805
 20
-1352.677350198137
 42
-0.0072475040837922
 10
909.88922639861698
 20
-1353.5665699145206
 10
909.81901407178975
 20
-1353.7883102644923
 42
-0.0051345458827329
 10
909.5322546997287
 20
-1354.6626354523103
 10
909.51072843296129
 20
-1354.7260617194402
 42
-0.001915001660004
 10
909.2551950260945
 20
-1355.4696108396663
 10
909.24872742167213
 20
-1355.4881983046625
 42
-0.002152436275301
 10
909.00024937063449
 20
-1356.1925241262957
 10
908.99103894992686
 20
-1356.218277704628
 42
-0.0024331286818246
 10
908.75478369090206
 20
-1356.8688770127155
 10
908.74573573835244
 20
-1356.8934203190672
 42
-0.002744972178941
 10
908.52112116751607
 20
-1357.4925501979942
 10
908.51223116012341
 20
-1357.5158727878477
 42
-0.0031083229770811
 10
908.29868867351388
 20
-1358.0657968254261
 10
908.28995254184531
 20
-1358.0878865412662
 42
-0.0035311343281323
 10
908.08691135624645
 20
-1358.590869667014
 10
908.07832601710038
 20
-1358.6117123905206
 42
-0.0040245640949412
 10
907.88521421330438
 20
-1359.0700217131166
 10
907.87677809970262
 20
-1359.0896010811857
 42
-0.0046015135852488
 10
907.69302180653756
 20
-1359.505506110831
 10
907.6847356287077
 20
-1359.5238032502866
 42
-0.0052768638272419
 10
907.50975810975365
 20
-1359.8995761345534
 10
907.50162589913009
 20
-1359.9165694730896
 42
-0.0060672675640052
 10
907.33484628636074
 20
-1360.2544850962108
 10
907.32687680587605
 20
-1360.2701503552146
 42
-0.0069904648869667
 10
907.16770841187781
 20
-1360.5724861618719
 10
907.15991701227256
 20
-1360.5867967110889
 42
-0.0080637022770116
 10
907.00776515192115
 20
-1360.8558320142522
 10
907.00017611928388
 20
-1360.8687598798631
 42
-0.0093006455663349
 10
906.85443544275836
 20
-1361.1067742783562
 10
906.84708477601259
 20
-1361.1182922475325
 42
-0.0107060778047224
 10
906.7071362325762
 20
-1361.3275625649082
 10
906.70007446429338
 20
-1361.3376481074788
 42
-0.0122723111410068
 10
906.56528074609855
 20
-1361.5204414369632
 10
906.56495452254558
 20
-1361.5208618247714
 42
-0.0141836319637264
 10
906.42137291957033
 20
-1361.6954315826024
 10
906.41442516391703
 20
-1361.7034065828686
 42
-0.017595747720589
 10
906.27451899588334
 20
-1361.8530274712723
 42
-0.0080466359671169
 10
906.12705523084094
 20
-1361.9953499994349
 10
906.08102068633605
 20
-1362.0383704375142
 42
-0.0269600260396994
 10
905.82774044035625
 20
-1362.250693696021
 10
905.761173304056
 20
-1362.3006451106473
 42
-0.0178362839751056
 10
905.52122881440027
 20
-1362.4676630368997
 10
905.51398384339655
 20
-1362.4723315491067
 42
-0.0174650732646072
 10
905.2776476459585
 20
-1362.6131925140637
 42
-0.0169240130165524
 10
905.03218140009892
 20
-1362.7374847738422
 10
904.98619524454307
 20
-1362.7588467294083
 42
-0.0318883036841241
 10
904.63584438892201
 20
-1362.8951850389187
 10
904.56747885375717
 20
-1362.9168856593942
 42
-0.0284435909898663
 10
904.19142872746727
 20
-1363.0131030948687
 10
904.15627056696542
 20
-1363.0199966906978
 42
-0.02439093410095
 10
903.84282710604975
 20
-1363.0657177217272
 10
903.79254637928307
 20
-1363.0705632686286
 42
-0.0196639292932662
 10
903.57695080175131
 20
-1363.0828115541424
 10
903.52512673058732
 20
-1363.0837148148792
 42
-0.0100501510682889
 10
903.41270344892359
 20
-1363.083414416526
 10
903.3810435875572
 20
-1363.0826933446401
 42
-0.0019752031105912
 10
903.33195125089821
 20
-1363.0813811844309
 10
903.32919094766658
 20
-1363.0812964926045
 42
0.0065378752034236
 10
903.28561437291592
 20
-1363.0805296013898
 42
-0.0167974694579072
 10
903.24208354998916
 20
-1363.0788697028638
 10
903.2380042107327
 20
-1363.0785766919694
 42
-0.0081283276272138
 10
903.18644441299239
 20
-1363.0740296983313
 10
903.17470483911029
 20
-1363.0728017807526
 42
-0.0126703440176913
 10
903.09998654331741
 20
-1363.0630669896811
 10
903.07719867564208
 20
-1363.0595087337661
 42
-0.0117852088437436
 10
902.95765968980254
 20
-1363.0379457386075
 10
902.90227923804127
 20
-1363.0266021983732
 42
-0.0251774592300381
 10
902.67543519903836
 20
-1362.9681041889414
 10
902.63071600918681
 20
-1362.9541373696061
 42
-0.0146525199899999
 10
902.44432302164728
 20
-1362.8898708424076
 42
-0.0166929435861646
 10
902.26234536552317
 20
-1362.8140637093543
 10
902.25768873424749
 20
-1362.8119388087391
 42
-0.0191684358434346
 10
902.07250510299798
 20
-1362.718702724949
 10
902.06917251724121
 20
-1362.7168614773959
 42
-0.022118178180881
 10
901.8858622133373
 20
-1362.6047279790239
 10
901.88351240932855
 20
-1362.6031436810326
 42
-0.0254984685369162
 10
901.70722225894531
 20
-1362.4707325310646
 10
901.68474011124374
 20
-1362.4519802221287
 42
-0.0292492648813251
 10
901.55997117240031
 20
-1362.3348874224851
 42
-0.0159048957511609
 10
901.44613117494964
 20
-1362.2068674308853
 10
901.44481238437061
 20
-1362.2052858178654
 42
-0.0343813379555738
 10
901.34217512274449
 20
-1362.0634144920962
 10
901.31068359138328
 20
-1362.0129111000015
 42
-0.0369117275703454
 10
901.22479108948653
 20
-1361.849433859054
 42
-0.0191751379898652
 10
901.1575977039297
 20
-1361.6770292530482
 10
901.15583438016972
 20
-1361.6719359083722
 42
-0.0378178042226731
 10
901.10603966138569
 20
-1361.4829951322913
 10
901.100044365656
 20
-1361.4504345140977
 42
-0.0184846046467601
 10
901.07932716636105
 20
-1361.3086816935499
 42
-0.0179866351308685
 10
901.06899416128738
 20
-1361.1657908804682
 10
901.06893771884165
 20
-1361.1642331938563
 42
-0.0085497186158629
 10
901.06750543773785
 20
-1361.0893600288464
 42
-0.0085497186158629
  0
ENDBLK
  5
66
100
AcDbEntity
  8
ABA70-0003
390
0
100
AcDbBlockEnd
  0
BLOCK
  5
67
100
AcDbEntity
  8
ABA70-0003
390
0
100
AcDbBlockBegin
  2
*D3
 70
               1
 10
0.0
 20
0.0
 30
0.0
  3
*D3
  1

  0
LINE
  5
68
100
AcDbEntity
  8
0
370
              -2
390
0
  6
Continuous
 62
               0
100
AcDbLine
 10
5645.385846980721
 20
-11128.754121615782
 30
0.0
 11
5645.385846980721
 21
-10927.528861359791
 31
0.0
  0
LINE
  5
69
100
AcDbEntity
  8
0
370
              -2
390
0
  6
Continuous
 62
               0
100
AcDbLine
 10
4895.3858953602767
 20
-11128.754121615792
 30
0.0
 11
4895.3858953602767
 21
-10927.528861359791
 31
0.0
  0
LINE
  5
6A
100
AcDbEntity
  8
0
370
              -2
390
0
  6
Continuous
 62
               0
100
AcDbLine
 10
5645.385846980721
 20
-10927.528861359791
 30
0.0
 11
4895.3858953602767
 21
-10927.528861359791
 31
0.0
  0
CIRCLE
  5
6B
102
{ACAD_REACTORS
330
6C
102
}
100
AcDbEntity
  8
0
370
              -2
390
0
  6
Continuous
 62
               0
100
AcDbCircle
 10
5645.385846980721
 20
-10927.528861359791
 30
0.0
 40
1.9998779296875
  0
HATCH
  5
6C
100
AcDbEntity
  8
0
370
              -2
390
0
  6
Continuous
 62
               0
100
AcDbHatch
 10
0.0
 20
0.0
 30
0.0
210
0.0
220
0.0
230
1.0
  2
SOLID
 70
               1
 71
               1
 91
        1
 92
        1
 93
        1
 72
               2
 10
5645.385846980721
 20
-10927.528861359791
 40
1.9998779296875
 50
0.0
 51
360.0
 73
               0
 97
        1
330
6B
 75
               0
 76
               1
 98
        1
 10
0.0
 20
0.0
  0
CIRCLE
  5
6D
102
{ACAD_REACTORS
330
6E
102
}
100
AcDbEntity
  8
0
370
              -2
390
0
  6
Continuous
 62
               0
100
AcDbCircle
 10
4895.3858953602767
 20
-10927.528861359791
 30
0.0
 40
1.9998779296875
  0
HATCH
  5
6E
100
AcDbEntity
  8
0
370
              -2
390
0
  6
Continuous
 62
               0
100
AcDbHatch
 10
0.0
 20
0.0
 30
0.0
210
0.0
220
0.0
230
1.0
  2
SOLID
 70
               1
 71
               1
 91
        1
 92
        1
 93
        1
 72
               2
 10
4895.3858953602767
 20
-10927.528861359791
 40
1.9998779296875
 50
0.0
 51
360.0
 73
               0
 97
        1
330
6D
 75
               0
 76
               1
 98
        1
 10
0.0
 20
0.0
  0
MTEXT
  5
6F
100
AcDbEntity
  8
0
390
0
 62
               0
100
AcDbMText
 10
5246.5733694883229
 20
-10893.651244172292
 30
0.0
 40
24.432617187500004
 41
0.0
 71
               1
 72
               1
  1
750
  7
ＭＳ ゴシック
 73
               1
 44
0.7828267384257844
  0
POINT
  5
70
100
AcDbEntity
  8
Defpoints
370
               0
390
0
 62
               0
100
AcDbPoint
 10
4895.3858953602767
 20
-11153.754121615792
 30
0.0
  0
POINT
  5
71
100
AcDbEntity
  8
Defpoints
370
               0
390
0
 62
               0
100
AcDbPoint
 10
5645.385846980721
 20
-11153.754121615782
 30
0.0
  0
POINT
  5
72
100
AcDbEntity
  8
Defpoints
370
               0
390
0
 62
               0
100
AcDbPoint
 10
5645.385846980721
 20
-10927.528861359791
 30
0.0
  0
ENDBLK
  5
73
100
AcDbEntity
  8
ABA70-0003
390
0
100
AcDbBlockEnd
  0
BLOCK
  5
74
100
AcDbEntity
  8
ABA70-0003
390
0
100
AcDbBlockBegin
  2
*D4
 70
               1
 10
0.0
 20
0.0
 30
0.0
  3
*D4
  1

  0
LINE
  5
75
100
AcDbEntity
  8
0
370
              -2
390
0
  6
Continuous
 62
               0
100
AcDbLine
 10
5273.4348421546265
 20
-11117.050946201272
 30
0.0
 11
5273.4348421546265
 21
-10977.528861360273
 31
0.0
  0
LINE
  5
76
100
AcDbEntity
  8
0
370
              -2
390
0
  6
Continuous
 62
               0
100
AcDbLine
 10
5173.4348421546265
 20
-11117.050946201272
 30
0.0
 11
5173.4348421546265
 21
-10977.528861360273
 31
0.0
  0
LINE
  5
77
100
AcDbEntity
  8
0
370
              -2
390
0
  6
Continuous
 62
               0
100
AcDbLine
 10
5273.4348421546265
 20
-10977.528861360273
 30
0.0
 11
5173.4348421546265
 21
-10977.528861360273
 31
0.0
  0
CIRCLE
  5
78
102
{ACAD_REACTORS
330
79
102
}
100
AcDbEntity
  8
0
370
              -2
390
0
  6
Continuous
 62
               0
100
AcDbCircle
 10
5273.4348421546265
 20
-10977.528861360273
 30
0.0
 40
1.9998779296875
  0
HATCH
  5
79
100
AcDbEntity
  8
0
370
              -2
390
0
  6
Continuous
 62
               0
100
AcDbHatch
 10
0.0
 20
0.0
 30
0.0
210
0.0
220
0.0
230
1.0
  2
SOLID
 70
               1
 71
               1
 91
        1
 92
        1
 93
        1
 72
               2
 10
5273.4348421546265
 20
-10977.528861360273
 40
1.9998779296875
 50
0.0
 51
360.0
 73
               0
 97
        1
330
78
 75
               0
 76
               1
 98
        1
 10
0.0
 20
0.0
  0
CIRCLE
  5
7A
102
{ACAD_REACTORS
330
7B
102
}
100
AcDbEntity
  8
0
370
              -2
390
0
  6
Continuous
 62
               0
100
AcDbCircle
 10
5173.4348421546265
 20
-10977.528861360273
 30
0.0
 40
1.9998779296875
  0
HATCH
  5
7B
100
AcDbEntity
  8
0
370
              -2
390
0
  6
Continuous
 62
               0
100
AcDbHatch
 10
0.0
 20
0.0
 30
0.0
210
0.0
220
0.0
230
1.0
  2
SOLID
 70
               1
 71
               1
 91
        1
 92
        1
 93
        1
 72
               2
 10
5173.4348421546265
 20
-10977.528861360273
 40
1.9998779296875
 50
0.0
 51
360.0
 73
               0
 97
        1
330
7A
 75
               0
 76
               1
 98
        1
 10
0.0
 20
0.0
  0
MTEXT
  5
7C
100
AcDbEntity
  8
0
390
0
 62
               0
100
AcDbMText
 10
5199.6223404724506
 20
-10943.651244172774
 30
0.0
 40
24.432617187500004
 41
0.0
 71
               1
 72
               1
  1
100
  7
ＭＳ ゴシック
 73
               1
 44
0.7828267384257844
  0
POINT
  5
7D
100
AcDbEntity
  8
Defpoints
370
               0
390
0
 62
               0
100
AcDbPoint
 10
5173.4348421546265
 20
-11142.050946201272
 30
0.0
  0
POINT
  5
7E
100
AcDbEntity
  8
Defpoints
370
               0
390
0
 62
               0
100
AcDbPoint
 10
5273.4348421546265
 20
-11142.050946201272
 30
0.0
  0
POINT
  5
7F
100
AcDbEntity
  8
Defpoints
370
               0
390
0
 62
               0
100
AcDbPoint
 10
5273.4348421546265
 20
-10977.528861360273
 30
0.0
  0
ENDBLK
  5
80
100
AcDbEntity
  8
ABA70-0003
390
0
100
AcDbBlockEnd
  0
BLOCK
  5
81
100
AcDbEntity
  8
ABA70-0003
390
0
100
AcDbBlockBegin
  2
*D5
 70
               1
 10
0.0
 20
0.0
 30
0.0
  3
*D5
  1

  0
LINE
  5
82
100
AcDbEntity
  8
0
370
              -2
390
0
  6
Continuous
 62
               0
100
AcDbLine
 10
5273.4348421546265
 20
-11117.050946201272
 30
0.0
 11
5273.4348421546265
 21
-10977.528861359791
 31
0.0
  0
LINE
  5
83
100
AcDbEntity
  8
0
370
              -2
390
0
  6
Continuous
 62
               0
100
AcDbLine
 10
5373.4348421546265
 20
-11117.050946201272
 30
0.0
 11
5373.4348421546265
 21
-10977.528861359791
 31
0.0
  0
LINE
  5
84
100
AcDbEntity
  8
0
370
              -2
390
0
  6
Continuous
 62
               0
100
AcDbLine
 10
5273.4348421546265
 20
-10977.528861359791
 30
0.0
 11
5373.4348421546265
 21
-10977.528861359791
 31
0.0
  0
CIRCLE
  5
85
102
{ACAD_REACTORS
330
86
102
}
100
AcDbEntity
  8
0
370
              -2
390
0
  6
Continuous
 62
               0
100
AcDbCircle
 10
5273.4348421546265
 20
-10977.528861359791
 30
0.0
 40
1.9998779296875
  0
HATCH
  5
86
100
AcDbEntity
  8
0
370
              -2
390
0
  6
Continuous
 62
               0
100
AcDbHatch
 10
0.0
 20
0.0
 30
0.0
210
0.0
220
0.0
230
1.0
  2
SOLID
 70
               1
 71
               1
 91
        1
 92
        1
 93
        1
 72
               2
 10
5273.4348421546265
 20
-10977.528861359791
 40
1.9998779296875
 50
0.0
 51
360.0
 73
               0
 97
        1
330
85
 75
               0
 76
               1
 98
        1
 10
0.0
 20
0.0
  0
CIRCLE
  5
87
102
{ACAD_REACTORS
330
88
102
}
100
AcDbEntity
  8
0
370
              -2
390
0
  6
Continuous
 62
               0
100
AcDbCircle
 10
5373.4348421546265
 20
-10977.528861359791
 30
0.0
 40
1.9998779296875
  0
HATCH
  5
88
100
AcDbEntity
  8
0
370
              -2
390
0
  6
Continuous
 62
               0
100
AcDbHatch
 10
0.0
 20
0.0
 30
0.0
210
0.0
220
0.0
230
1.0
  2
SOLID
 70
               1
 71
               1
 91
        1
 92
        1
 93
        1
 72
               2
 10
5373.4348421546265
 20
-10977.528861359791
 40
1.9998779296875
 50
0.0
 51
360.0
 73
               0
 97
        1
330
87
 75
               0
 76
               1
 98
        1
 10
0.0
 20
0.0
  0
MTEXT
  5
89
100
AcDbEntity
  8
0
390
0
 62
               0
100
AcDbMText
 10
5299.6223404724506
 20
-10943.651244172292
 30
0.0
 40
24.432617187500004
 41
0.0
 71
               1
 72
               1
  1
100
  7
ＭＳ ゴシック
 73
               1
 44
0.7828267384257844
  0
POINT
  5
8A
100
AcDbEntity
  8
Defpoints
370
               0
390
0
 62
               0
100
AcDbPoint
 10
5373.4348421546265
 20
-11142.050946201272
 30
0.0
  0
POINT
  5
8B
100
AcDbEntity
  8
Defpoints
370
               0
390
0
 62
               0
100
AcDbPoint
 10
5273.4348421546265
 20
-11142.050946201272
 30
0.0
  0
POINT
  5
8C
100
AcDbEntity
  8
Defpoints
370
               0
390
0
 62
               0
100
AcDbPoint
 10
5273.4348421546265
 20
-10977.528861359791
 30
0.0
  0
ENDBLK
  5
8D
100
AcDbEntity
  8
ABA70-0003
390
0
100
AcDbBlockEnd
  0
BLOCK
  5
8E
100
AcDbEntity
  8
ABA70-0003
390
0
100
AcDbBlockBegin
  2
*D6
 70
               1
 10
0.0
 20
0.0
 30
0.0
  3
*D6
  1

  0
LINE
  5
8F
100
AcDbEntity
  8
0
370
              -2
390
0
  6
Continuous
 62
               0
100
AcDbLine
 10
5603.4000122103189
 20
-11627.528861359813
 30
0.0
 11
5745.385848845317
 21
-11627.528861359813
 31
0.0
  0
LINE
  5
90
100
AcDbEntity
  8
0
370
              -2
390
0
  6
Continuous
 62
               0
100
AcDbLine
 10
5603.4000122103171
 20
-11077.528861359813
 30
0.0
 11
5745.385848845317
 21
-11077.528861359813
 31
0.0
  0
LINE
  5
91
100
AcDbEntity
  8
0
370
              -2
390
0
  6
Continuous
 62
               0
100
AcDbLine
 10
5745.385848845317
 20
-11627.528861359813
 30
0.0
 11
5745.385848845317
 21
-11077.528861359813
 31
0.0
  0
CIRCLE
  5
92
102
{ACAD_REACTORS
330
93
102
}
100
AcDbEntity
  8
0
370
              -2
390
0
  6
Continuous
 62
               0
100
AcDbCircle
 10
5745.385848845317
 20
-11627.528861359813
 30
0.0
 40
1.9998779296875
  0
HATCH
  5
93
100
AcDbEntity
  8
0
370
              -2
390
0
  6
Continuous
 62
               0
100
AcDbHatch
 10
0.0
 20
0.0
 30
0.0
210
0.0
220
0.0
230
1.0
  2
SOLID
 70
               1
 71
               1
 91
        1
 92
        1
 93
        1
 72
               2
 10
5745.385848845317
 20
-11627.528861359813
 40
1.9998779296875
 50
0.0
 51
360.0
 73
               0
 97
        1
330
92
 75
               0
 76
               1
 98
        1
 10
0.0
 20
0.0
  0
CIRCLE
  5
94
102
{ACAD_REACTORS
330
95
102
}
100
AcDbEntity
  8
0
370
              -2
390
0
  6
Continuous
 62
               0
100
AcDbCircle
 10
5745.385848845317
 20
-11077.528861359813
 30
0.0
 40
1.9998779296875
  0
HATCH
  5
95
100
AcDbEntity
  8
0
370
              -2
390
0
  6
Continuous
 62
               0
100
AcDbHatch
 10
0.0
 20
0.0
 30
0.0
210
0.0
220
0.0
230
1.0
  2
SOLID
 70
               1
 71
               1
 91
        1
 92
        1
 93
        1
 72
               2
 10
5745.385848845317
 20
-11077.528861359813
 40
1.9998779296875
 50
0.0
 51
360.0
 73
               0
 97
        1
330
94
 75
               0
 76
               1
 98
        1
 10
0.0
 20
0.0
  0
MTEXT
  5
96
100
AcDbEntity
  8
0
390
0
 62
               0
100
AcDbMText
 10
5711.5082316578173
 20
-11376.341363041989
 30
0.0
 40
24.432617187500004
 41
0.0
 71
               1
 72
               1
  1
550
  7
ＭＳ ゴシック
 11
0.0
 21
1.0
 31
0.0
 73
               1
 44
0.7828267384257844
  0
POINT
  5
97
100
AcDbEntity
  8
Defpoints
370
               0
390
0
 62
               0
100
AcDbPoint
 10
5578.4000122103171
 20
-11077.528861359813
 30
0.0
  0
POINT
  5
98
100
AcDbEntity
  8
Defpoints
370
               0
390
0
 62
               0
100
AcDbPoint
 10
5578.4000122103189
 20
-11627.528861359813
 30
0.0
  0
POINT
  5
99
100
AcDbEntity
  8
Defpoints
370
               0
390
0
 62
               0
100
AcDbPoint
 10
5745.385848845317
 20
-11627.528861359813
 30
0.0
  0
ENDBLK
  5
9A
100
AcDbEntity
  8
ABA70-0003
390
0
100
AcDbBlockEnd
  0
BLOCK
  5
9B
100
AcDbEntity
  8
ABA70-0003
390
0
100
AcDbBlockBegin
  2
*D7
 70
               1
 10
0.0
 20
0.0
 30
0.0
  3
*D7
  1

  0
LINE
  5
9C
100
AcDbEntity
  8
0
370
              -2
390
0
  6
Continuous
 62
               0
100
AcDbLine
 10
4870.3858939157071
 20
-11222.528861359813
 30
0.0
 11
4794.3787915359517
 21
-11222.528861359813
 31
0.0
  0
LINE
  5
9D
100
AcDbEntity
  8
0
370
              -2
390
0
  6
Continuous
 62
               0
100
AcDbLine
 10
4937.3717301306779
 20
-11077.528861359813
 30
0.0
 11
4794.3787915359517
 21
-11077.528861359813
 31
0.0
  0
LINE
  5
9E
100
AcDbEntity
  8
0
370
              -2
390
0
  6
Continuous
 62
               0
100
AcDbLine
 10
4794.3787915359517
 20
-11222.528861359813
 30
0.0
 11
4794.3787915359517
 21
-11077.528861359813
 31
0.0
  0
CIRCLE
  5
9F
102
{ACAD_REACTORS
330
A0
102
}
100
AcDbEntity
  8
0
370
              -2
390
0
  6
Continuous
 62
               0
100
AcDbCircle
 10
4794.3787915359517
 20
-11222.528861359813
 30
0.0
 40
1.9998779296875
  0
HATCH
  5
A0
100
AcDbEntity
  8
0
370
              -2
390
0
  6
Continuous
 62
               0
100
AcDbHatch
 10
0.0
 20
0.0
 30
0.0
210
0.0
220
0.0
230
1.0
  2
SOLID
 70
               1
 71
               1
 91
        1
 92
        1
 93
        1
 72
               2
 10
4794.3787915359517
 20
-11222.528861359813
 40
1.9998779296875
 50
0.0
 51
360.0
 73
               0
 97
        1
330
9F
 75
               0
 76
               1
 98
        1
 10
0.0
 20
0.0
  0
CIRCLE
  5
A1
102
{ACAD_REACTORS
330
A2
102
}
100
AcDbEntity
  8
0
370
              -2
390
0
  6
Continuous
 62
               0
100
AcDbCircle
 10
4794.3787915359517
 20
-11077.528861359813
 30
0.0
 40
1.9998779296875
  0
HATCH
  5
A2
100
AcDbEntity
  8
0
370
              -2
390
0
  6
Continuous
 62
               0
100
AcDbHatch
 10
0.0
 20
0.0
 30
0.0
210
0.0
220
0.0
230
1.0
  2
SOLID
 70
               1
 71
               1
 91
        1
 92
        1
 93
        1
 72
               2
 10
4794.3787915359517
 20
-11077.528861359813
 40
1.9998779296875
 50
0.0
 51
360.0
 73
               0
 97
        1
330
A1
 75
               0
 76
               1
 98
        1
 10
0.0
 20
0.0
  0
MTEXT
  5
A3
100
AcDbEntity
  8
0
390
0
 62
               0
100
AcDbMText
 10
4760.501174348452
 20
-11173.841363041989
 30
0.0
 40
24.432617187500004
 41
0.0
 71
               1
 72
               1
  1
145
  7
ＭＳ ゴシック
 11
0.0
 21
1.0
 31
0.0
 73
               1
 44
0.7828267384257844
  0
POINT
  5
A4
100
AcDbEntity
  8
Defpoints
370
               0
390
0
 62
               0
100
AcDbPoint
 10
4962.3717301306779
 20
-11077.528861359813
 30
0.0
  0
POINT
  5
A5
100
AcDbEntity
  8
Defpoints
370
               0
390
0
 62
               0
100
AcDbPoint
 10
4895.3858939157071
 20
-11222.528861359813
 30
0.0
  0
POINT
  5
A6
100
AcDbEntity
  8
Defpoints
370
               0
390
0
 62
               0
100
AcDbPoint
 10
4794.3787915359517
 20
-11222.528861359813
 30
0.0
  0
ENDBLK
  5
A7
100
AcDbEntity
  8
ABA70-0003
390
0
100
AcDbBlockEnd
  0
BLOCK
  5
A8
100
AcDbEntity
  8
ABA70-0003
390
0
100
AcDbBlockBegin
  2
*D8
 70
               1
 10
0.0
 20
0.0
 30
0.0
  3
*D8
  1

  0
LINE
  5
A9
100
AcDbEntity
  8
0
370
              -2
390
0
  6
Continuous
 62
               0
100
AcDbLine
 10
4870.3916126318481
 20
-11552.528861359813
 30
0.0
 11
4794.3787915359517
 21
-11552.528861359813
 31
0.0
  0
LINE
  5
AA
100
AcDbEntity
  8
0
370
              -2
390
0
  6
Continuous
 62
               0
100
AcDbLine
 10
4870.3858939157071
 20
-11222.528861359813
 30
0.0
 11
4794.3787915359517
 21
-11222.528861359813
 31
0.0
  0
LINE
  5
AB
100
AcDbEntity
  8
0
370
              -2
390
0
  6
Continuous
 62
               0
100
AcDbLine
 10
4794.3787915359517
 20
-11552.528861359813
 30
0.0
 11
4794.3787915359517
 21
-11222.528861359813
 31
0.0
  0
CIRCLE
  5
AC
102
{ACAD_REACTORS
330
AD
102
}
100
AcDbEntity
  8
0
370
              -2
390
0
  6
Continuous
 62
               0
100
AcDbCircle
 10
4794.3787915359517
 20
-11552.528861359813
 30
0.0
 40
1.9998779296875
  0
HATCH
  5
AD
100
AcDbEntity
  8
0
370
              -2
390
0
  6
Continuous
 62
               0
100
AcDbHatch
 10
0.0
 20
0.0
 30
0.0
210
0.0
220
0.0
230
1.0
  2
SOLID
 70
               1
 71
               1
 91
        1
 92
        1
 93
        1
 72
               2
 10
4794.3787915359517
 20
-11552.528861359813
 40
1.9998779296875
 50
0.0
 51
360.0
 73
               0
 97
        1
330
AC
 75
               0
 76
               1
 98
        1
 10
0.0
 20
0.0
  0
CIRCLE
  5
AE
102
{ACAD_REACTORS
330
AF
102
}
100
AcDbEntity
  8
0
370
              -2
390
0
  6
Continuous
 62
               0
100
AcDbCircle
 10
4794.3787915359517
 20
-11222.528861359813
 30
0.0
 40
1.9998779296875
  0
HATCH
  5
AF
100
AcDbEntity
  8
0
370
              -2
390
0
  6
Continuous
 62
               0
100
AcDbHatch
 10
0.0
 20
0.0
 30
0.0
210
0.0
220
0.0
230
1.0
  2
SOLID
 70
               1
 71
               1
 91
        1
 92
        1
 93
        1
 72
               2
 10
4794.3787915359517
 20
-11222.528861359813
 40
1.9998779296875
 50
0.0
 51
360.0
 73
               0
 97
        1
330
AE
 75
               0
 76
               1
 98
        1
 10
0.0
 20
0.0
  0
MTEXT
  5
B0
100
AcDbEntity
  8
0
390
0
 62
               0
100
AcDbMText
 10
4760.501174348452
 20
-11411.341363041989
 30
0.0
 40
24.432617187500004
 41
0.0
 71
               1
 72
               1
  1
330
  7
ＭＳ ゴシック
 11
0.0
 21
1.0
 31
0.0
 73
               1
 44
0.7828267384257844
  0
POINT
  5
B1
100
AcDbEntity
  8
Defpoints
370
               0
390
0
 62
               0
100
AcDbPoint
 10
4895.3858939157071
 20
-11222.528861359813
 30
0.0
  0
POINT
  5
B2
100
AcDbEntity
  8
Defpoints
370
               0
390
0
 62
               0
100
AcDbPoint
 10
4895.3916126318481
 20
-11552.528861359813
 30
0.0
  0
POINT
  5
B3
100
AcDbEntity
  8
Defpoints
370
               0
390
0
 62
               0
100
AcDbPoint
 10
4794.3787915359517
 20
-11552.528861359813
 30
0.0
  0
ENDBLK
  5
B4
100
AcDbEntity
  8
ABA70-0003
390
0
100
AcDbBlockEnd
  0
BLOCK
  5
B5
100
AcDbEntity
  8
ABA70-0003
390
0
100
AcDbBlockBegin
  2
*D9
 70
               1
 10
0.0
 20
0.0
 30
0.0
  3
*D9
  1

  0
LINE
  5
B6
100
AcDbEntity
  8
0
370
              -2
390
0
  6
Continuous
 62
               0
100
AcDbLine
 10
6385.2198274271514
 20
-12277.495886777988
 30
0.0
 11
6385.2198274271514
 21
-12184.048121845104
 31
0.0
  0
LINE
  5
B7
100
AcDbEntity
  8
0
370
              -2
390
0
  6
Continuous
 62
               0
100
AcDbLine
 10
6470.2198274271514
 20
-12259.048121845104
 30
0.0
 11
6470.2198274271514
 21
-12184.048121845104
 31
0.0
  0
LINE
  5
B8
100
AcDbEntity
  8
0
370
              -2
390
0
  6
Continuous
 62
               0
100
AcDbLine
 10
6385.2198274271514
 20
-12184.048121845104
 30
0.0
 11
6470.2198274271514
 21
-12184.048121845104
 31
0.0
  0
CIRCLE
  5
B9
102
{ACAD_REACTORS
330
BA
102
}
100
AcDbEntity
  8
0
370
              -2
390
0
  6
Continuous
 62
               0
100
AcDbCircle
 10
6385.2198274271514
 20
-12184.048121845104
 30
0.0
 40
1.9998779296875
  0
HATCH
  5
BA
100
AcDbEntity
  8
0
370
              -2
390
0
  6
Continuous
 62
               0
100
AcDbHatch
 10
0.0
 20
0.0
 30
0.0
210
0.0
220
0.0
230
1.0
  2
SOLID
 70
               1
 71
               1
 91
        1
 92
        1
 93
        1
 72
               2
 10
6385.2198274271514
 20
-12184.048121845104
 40
1.9998779296875
 50
0.0
 51
360.0
 73
               0
 97
        1
330
B9
 75
               0
 76
               1
 98
        1
 10
0.0
 20
0.0
  0
CIRCLE
  5
BB
102
{ACAD_REACTORS
330
BC
102
}
100
AcDbEntity
  8
0
370
              -2
390
0
  6
Continuous
 62
               0
100
AcDbCircle
 10
6470.2198274271514
 20
-12184.048121845104
 30
0.0
 40
1.9998779296875
  0
HATCH
  5
BC
100
AcDbEntity
  8
0
370
              -2
390
0
  6
Continuous
 62
               0
100
AcDbHatch
 10
0.0
 20
0.0
 30
0.0
210
0.0
220
0.0
230
1.0
  2
SOLID
 70
               1
 71
               1
 91
        1
 92
        1
 93
        1
 72
               2
 10
6470.2198274271514
 20
-12184.048121845104
 40
1.9998779296875
 50
0.0
 51
360.0
 73
               0
 97
        1
330
BB
 75
               0
 76
               1
 98
        1
 10
0.0
 20
0.0
  0
MTEXT
  5
BD
100
AcDbEntity
  8
0
390
0
 62
               0
100
AcDbMText
 10
6411.8448274271514
 20
-12150.170504657604
 30
0.0
 40
24.432617187500004
 41
0.0
 71
               1
 72
               1
  1
85
  7
ＭＳ ゴシック
 73
               1
 44
0.7828267384257844
  0
POINT
  5
BE
100
AcDbEntity
  8
Defpoints
370
               0
390
0
 62
               0
100
AcDbPoint
 10
6470.2198274271514
 20
-12284.048121845104
 30
0.0
  0
POINT
  5
BF
100
AcDbEntity
  8
Defpoints
370
               0
390
0
 62
               0
100
AcDbPoint
 10
6385.2198274271514
 20
-12302.495886777988
 30
0.0
  0
POINT
  5
C0
100
AcDbEntity
  8
Defpoints
370
               0
390
0
 62
               0
100
AcDbPoint
 10
6385.2198274271514
 20
-12184.048121845104
 30
0.0
  0
ENDBLK
  5
C1
100
AcDbEntity
  8
ABA70-0003
390
0
100
AcDbBlockEnd
  0
BLOCK
  5
C2
100
AcDbEntity
  8
ABA70-0003
390
0
100
AcDbBlockBegin
  2
*D10
 70
               1
 10
0.0
 20
0.0
 30
0.0
  3
*D10
  1

  0
LINE
  5
C3
100
AcDbEntity
  8
0
370
              -2
390
0
  6
Continuous
 62
               0
100
AcDbLine
 10
6470.2413604247986
 20
-12511.162574069987
 30
0.0
 11
6470.2413604247986
 21
-12614.063582259023
 31
0.0
  0
LINE
  5
C4
100
AcDbEntity
  8
0
370
              -2
390
0
  6
Continuous
 62
               0
100
AcDbLine
 10
6225.2413604247986
 20
-12538.812158560024
 30
0.0
 11
6225.2413604247986
 21
-12614.063582259023
 31
0.0
  0
LINE
  5
C5
100
AcDbEntity
  8
0
370
              -2
390
0
  6
Continuous
 62
               0
100
AcDbLine
 10
6470.2413604247986
 20
-12614.063582259023
 30
0.0
 11
6225.2413604247986
 21
-12614.063582259023
 31
0.0
  0
CIRCLE
  5
C6
102
{ACAD_REACTORS
330
C7
102
}
100
AcDbEntity
  8
0
370
              -2
390
0
  6
Continuous
 62
               0
100
AcDbCircle
 10
6470.2413604247986
 20
-12614.063582259023
 30
0.0
 40
1.9998779296875
  0
HATCH
  5
C7
100
AcDbEntity
  8
0
370
              -2
390
0
  6
Continuous
 62
               0
100
AcDbHatch
 10
0.0
 20
0.0
 30
0.0
210
0.0
220
0.0
230
1.0
  2
SOLID
 70
               1
 71
               1
 91
        1
 92
        1
 93
        1
 72
               2
 10
6470.2413604247986
 20
-12614.063582259023
 40
1.9998779296875
 50
0.0
 51
360.0
 73
               0
 97
        1
330
C6
 75
               0
 76
               1
 98
        1
 10
0.0
 20
0.0
  0
CIRCLE
  5
C8
102
{ACAD_REACTORS
330
C9
102
}
100
AcDbEntity
  8
0
370
              -2
390
0
  6
Continuous
 62
               0
100
AcDbCircle
 10
6225.2413604247986
 20
-12614.063582259023
 30
0.0
 40
1.9998779296875
  0
HATCH
  5
C9
100
AcDbEntity
  8
0
370
              -2
390
0
  6
Continuous
 62
               0
100
AcDbHatch
 10
0.0
 20
0.0
 30
0.0
210
0.0
220
0.0
230
1.0
  2
SOLID
 70
               1
 71
               1
 91
        1
 92
        1
 93
        1
 72
               2
 10
6225.2413604247986
 20
-12614.063582259023
 40
1.9998779296875
 50
0.0
 51
360.0
 73
               0
 97
        1
330
C8
 75
               0
 76
               1
 98
        1
 10
0.0
 20
0.0
  0
MTEXT
  5
CA
100
AcDbEntity
  8
0
390
0
 62
               0
100
AcDbMText
 10
6323.9288587426236
 20
-12580.185965071523
 30
0.0
 40
24.432617187500004
 41
0.0
 71
               1
 72
               1
  1
245
  7
ＭＳ ゴシック
 73
               1
 44
0.7828267384257844
  0
POINT
  5
CB
100
AcDbEntity
  8
Defpoints
370
               0
390
0
 62
               0
100
AcDbPoint
 10
6225.2413604247986
 20
-12513.812158560024
 30
0.0
  0
POINT
  5
CC
100
AcDbEntity
  8
Defpoints
370
               0
390
0
 62
               0
100
AcDbPoint
 10
6470.2413604247986
 20
-12486.162574069987
 30
0.0
  0
POINT
  5
CD
100
AcDbEntity
  8
Defpoints
370
               0
390
0
 62
               0
100
AcDbPoint
 10
6470.2413604247986
 20
-12614.063582259023
 30
0.0
  0
ENDBLK
  5
CE
100
AcDbEntity
  8
ABA70-0003
390
0
100
AcDbBlockEnd
  0
BLOCK
  5
CF
100
AcDbEntity
  8
ABA70-0003
390
0
100
AcDbBlockBegin
  2
*D11
 70
               1
 10
0.0
 20
0.0
 30
0.0
  3
*D11
  1

  0
LINE
  5
D0
100
AcDbEntity
  8
0
370
              -2
390
0
  6
Continuous
 62
               0
100
AcDbLine
 10
5899.139641502612
 20
-12369.042798259828
 30
0.0
 11
5819.7661383244131
 21
-12369.042798259828
 31
0.0
  0
LINE
  5
D1
100
AcDbEntity
  8
0
370
              -2
390
0
  6
Continuous
 62
               0
100
AcDbLine
 10
5876.2684671578336
 20
-12284.042798259828
 30
0.0
 11
5819.7661383244131
 21
-12284.042798259828
 31
0.0
  0
LINE
  5
D2
100
AcDbEntity
  8
0
370
              -2
390
0
  6
Continuous
 62
               0
100
AcDbLine
 10
5819.7661383244131
 20
-12369.042798259828
 30
0.0
 11
5819.7661383244131
 21
-12284.042798259828
 31
0.0
  0
CIRCLE
  5
D3
102
{ACAD_REACTORS
330
D4
102
}
100
AcDbEntity
  8
0
370
              -2
390
0
  6
Continuous
 62
               0
100
AcDbCircle
 10
5819.7661383244131
 20
-12369.042798259828
 30
0.0
 40
1.9998779296875
  0
HATCH
  5
D4
100
AcDbEntity
  8
0
370
              -2
390
0
  6
Continuous
 62
               0
100
AcDbHatch
 10
0.0
 20
0.0
 30
0.0
210
0.0
220
0.0
230
1.0
  2
SOLID
 70
               1
 71
               1
 91
        1
 92
        1
 93
        1
 72
               2
 10
5819.7661383244131
 20
-12369.042798259828
 40
1.9998779296875
 50
0.0
 51
360.0
 73
               0
 97
        1
330
D3
 75
               0
 76
               1
 98
        1
 10
0.0
 20
0.0
  0
CIRCLE
  5
D5
102
{ACAD_REACTORS
330
D6
102
}
100
AcDbEntity
  8
0
370
              -2
390
0
  6
Continuous
 62
               0
100
AcDbCircle
 10
5819.7661383244131
 20
-12284.042798259828
 30
0.0
 40
1.9998779296875
  0
HATCH
  5
D6
100
AcDbEntity
  8
0
370
              -2
390
0
  6
Continuous
 62
               0
100
AcDbHatch
 10
0.0
 20
0.0
 30
0.0
210
0.0
220
0.0
230
1.0
  2
SOLID
 70
               1
 71
               1
 91
        1
 92
        1
 93
        1
 72
               2
 10
5819.7661383244131
 20
-12284.042798259828
 40
1.9998779296875
 50
0.0
 51
360.0
 73
               0
 97
        1
330
D5
 75
               0
 76
               1
 98
        1
 10
0.0
 20
0.0
  0
MTEXT
  5
D7
100
AcDbEntity
  8
0
390
0
 62
               0
100
AcDbMText
 10
5785.8885211369134
 20
-12342.417798259828
 30
0.0
 40
24.432617187500004
 41
0.0
 71
               1
 72
               1
  1
85
  7
ＭＳ ゴシック
 11
0.0
 21
1.0
 31
0.0
 73
               1
 44
0.7828267384257844
  0
POINT
  5
D8
100
AcDbEntity
  8
Defpoints
370
               0
390
0
 62
               0
100
AcDbPoint
 10
5901.2684671578336
 20
-12284.042798259828
 30
0.0
  0
POINT
  5
D9
100
AcDbEntity
  8
Defpoints
370
               0
390
0
 62
               0
100
AcDbPoint
 10
5924.139641502612
 20
-12369.042798259828
 30
0.0
  0
POINT
  5
DA
100
AcDbEntity
  8
Defpoints
370
               0
390
0
 62
               0
100
AcDbPoint
 10
5819.7661383244131
 20
-12369.042798259828
 30
0.0
  0
ENDBLK
  5
DB
100
AcDbEntity
  8
ABA70-0003
390
0
100
AcDbBlockEnd
  0
BLOCK
  5
DC
100
AcDbEntity
  8
ABA70-0003
390
0
100
AcDbBlockBegin
  2
*D12
 70
               1
 10
0.0
 20
0.0
 30
0.0
  3
*D12
  1

  0
LINE
  5
DD
100
AcDbEntity
  8
0
370
              -2
390
0
  6
Continuous
 62
               0
100
AcDbLine
 10
5328.000012813035
 20
-12514.04855774494
 30
0.0
 11
5745.385848845317
 21
-12514.04855774494
 31
0.0
  0
LINE
  5
DE
100
AcDbEntity
  8
0
370
              -2
390
0
  6
Continuous
 62
               0
100
AcDbLine
 10
5664.0497917926814
 20
-12284.050335919139
 30
0.0
 11
5745.385848845317
 21
-12284.050335919139
 31
0.0
  0
LINE
  5
DF
100
AcDbEntity
  8
0
370
              -2
390
0
  6
Continuous
 62
               0
100
AcDbLine
 10
5745.385848845317
 20
-12514.04855774494
 30
0.0
 11
5745.385848845317
 21
-12284.050335919139
 31
0.0
  0
CIRCLE
  5
E0
102
{ACAD_REACTORS
330
E1
102
}
100
AcDbEntity
  8
0
370
              -2
390
0
  6
Continuous
 62
               0
100
AcDbCircle
 10
5745.385848845317
 20
-12514.04855774494
 30
0.0
 40
1.9998779296875
  0
HATCH
  5
E1
100
AcDbEntity
  8
0
370
              -2
390
0
  6
Continuous
 62
               0
100
AcDbHatch
 10
0.0
 20
0.0
 30
0.0
210
0.0
220
0.0
230
1.0
  2
SOLID
 70
               1
 71
               1
 91
        1
 92
        1
 93
        1
 72
               2
 10
5745.385848845317
 20
-12514.04855774494
 40
1.9998779296875
 50
0.0
 51
360.0
 73
               0
 97
        1
330
E0
 75
               0
 76
               1
 98
        1
 10
0.0
 20
0.0
  0
CIRCLE
  5
E2
102
{ACAD_REACTORS
330
E3
102
}
100
AcDbEntity
  8
0
370
              -2
390
0
  6
Continuous
 62
               0
100
AcDbCircle
 10
5745.385848845317
 20
-12284.050335919139
 30
0.0
 40
1.9998779296875
  0
HATCH
  5
E3
100
AcDbEntity
  8
0
370
              -2
390
0
  6
Continuous
 62
               0
100
AcDbHatch
 10
0.0
 20
0.0
 30
0.0
210
0.0
220
0.0
230
1.0
  2
SOLID
 70
               1
 71
               1
 91
        1
 92
        1
 93
        1
 72
               2
 10
5745.385848845317
 20
-12284.050335919139
 40
1.9998779296875
 50
0.0
 51
360.0
 73
               0
 97
        1
330
E2
 75
               0
 76
               1
 98
        1
 10
0.0
 20
0.0
  0
MTEXT
  5
E4
100
AcDbEntity
  8
0
390
0
 62
               0
100
AcDbMText
 10
5711.5082316578173
 20
-12422.861948514215
 30
0.0
 40
24.432617187500004
 41
0.0
 71
               1
 72
               1
  1
230
  7
ＭＳ ゴシック
 11
0.0
 21
1.0
 31
0.0
 73
               1
 44
0.7828267384257844
  0
POINT
  5
E5
100
AcDbEntity
  8
Defpoints
370
               0
390
0
 62
               0
100
AcDbPoint
 10
5639.0497917926814
 20
-12284.050335919139
 30
0.0
  0
POINT
  5
E6
100
AcDbEntity
  8
Defpoints
370
               0
390
0
 62
               0
100
AcDbPoint
 10
5303.000012813035
 20
-12514.04855774494
 30
0.0
  0
POINT
  5
E7
100
AcDbEntity
  8
Defpoints
370
               0
390
0
 62
               0
100
AcDbPoint
 10
5745.385848845317
 20
-12514.04855774494
 30
0.0
  0
ENDBLK
  5
E8
100
AcDbEntity
  8
ABA70-0003
390
0
100
AcDbBlockEnd
  0
BLOCK
  5
E9
100
AcDbEntity
  8
ABA70-0003
390
0
100
AcDbBlockBegin
  2
*D13
 70
               1
 10
0.0
 20
0.0
 30
0.0
  3
*D13
  1

  0
LINE
  5
EA
100
AcDbEntity
  8
0
370
              -2
390
0
  6
Continuous
 62
               0
100
AcDbLine
 10
5530.3858888116474
 20
-11651.379539522048
 30
0.0
 11
5530.3858888116474
 21
-11727.455935510316
 31
0.0
  0
LINE
  5
EB
100
AcDbEntity
  8
0
370
              -2
390
0
  6
Continuous
 62
               0
100
AcDbLine
 10
5010.3858888116474
 20
-11651.379555275316
 30
0.0
 11
5010.3858888116474
 21
-11727.455935510316
 31
0.0
  0
LINE
  5
EC
100
AcDbEntity
  8
0
370
              -2
390
0
  6
Continuous
 62
               0
100
AcDbLine
 10
5530.3858888116474
 20
-11727.455935510316
 30
0.0
 11
5010.3858888116474
 21
-11727.455935510316
 31
0.0
  0
CIRCLE
  5
ED
102
{ACAD_REACTORS
330
EE
102
}
100
AcDbEntity
  8
0
370
              -2
390
0
  6
Continuous
 62
               0
100
AcDbCircle
 10
5530.3858888116474
 20
-11727.455935510316
 30
0.0
 40
1.9998779296875
  0
HATCH
  5
EE
100
AcDbEntity
  8
0
370
              -2
390
0
  6
Continuous
 62
               0
100
AcDbHatch
 10
0.0
 20
0.0
 30
0.0
210
0.0
220
0.0
230
1.0
  2
SOLID
 70
               1
 71
               1
 91
        1
 92
        1
 93
        1
 72
               2
 10
5530.3858888116474
 20
-11727.455935510316
 40
1.9998779296875
 50
0.0
 51
360.0
 73
               0
 97
        1
330
ED
 75
               0
 76
               1
 98
        1
 10
0.0
 20
0.0
  0
CIRCLE
  5
EF
102
{ACAD_REACTORS
330
F0
102
}
100
AcDbEntity
  8
0
370
              -2
390
0
  6
Continuous
 62
               0
100
AcDbCircle
 10
5010.3858888116474
 20
-11727.455935510316
 30
0.0
 40
1.9998779296875
  0
HATCH
  5
F0
100
AcDbEntity
  8
0
370
              -2
390
0
  6
Continuous
 62
               0
100
AcDbHatch
 10
0.0
 20
0.0
 30
0.0
210
0.0
220
0.0
230
1.0
  2
SOLID
 70
               1
 71
               1
 91
        1
 92
        1
 93
        1
 72
               2
 10
5010.3858888116474
 20
-11727.455935510316
 40
1.9998779296875
 50
0.0
 51
360.0
 73
               0
 97
        1
330
EF
 75
               0
 76
               1
 98
        1
 10
0.0
 20
0.0
  0
MTEXT
  5
F1
100
AcDbEntity
  8
0
390
0
 62
               0
100
AcDbMText
 10
5246.5733871294715
 20
-11693.578318322816
 30
0.0
 40
24.432617187500004
 41
0.0
 71
               1
 72
               1
  1
520
  7
ＭＳ ゴシック
 73
               1
 44
0.7828267384257844
  0
POINT
  5
F2
100
AcDbEntity
  8
Defpoints
370
               0
390
0
 62
               0
100
AcDbPoint
 10
5010.3858888116474
 20
-11626.379555275316
 30
0.0
  0
POINT
  5
F3
100
AcDbEntity
  8
Defpoints
370
               0
390
0
 62
               0
100
AcDbPoint
 10
5530.3858888116474
 20
-11626.379539522048
 30
0.0
  0
POINT
  5
F4
100
AcDbEntity
  8
Defpoints
370
               0
390
0
 62
               0
100
AcDbPoint
 10
5530.3858888116474
 20
-11727.455935510316
 30
0.0
  0
ENDBLK
  5
F5
100
AcDbEntity
  8
ABA70-0003
390
0
100
AcDbBlockEnd
  0
BLOCK
  5
F6
100
AcDbEntity
  8
ABA70-0003
390
0
100
AcDbBlockBegin
  2
*D14
 70
               1
 10
0.0
 20
0.0
 30
0.0
  3
*D14
  1

  0
LINE
  5
F7
100
AcDbEntity
  8
0
370
              -2
390
0
  6
Continuous
 62
               0
100
AcDbLine
 10
5410.3572258666736
 20
-12319.044192787116
 30
0.0
 11
5410.3572258666736
 21
-12184.043254154118
 31
0.0
  0
LINE
  5
F8
100
AcDbEntity
  8
0
370
              -2
390
0
  6
Continuous
 62
               0
100
AcDbLine
 10
5130.3572258666736
 20
-12319.044192787116
 30
0.0
 11
5130.3572258666736
 21
-12184.043254154118
 31
0.0
  0
LINE
  5
F9
100
AcDbEntity
  8
0
370
              -2
390
0
  6
Continuous
 62
               0
100
AcDbLine
 10
5410.3572258666736
 20
-12184.043254154118
 30
0.0
 11
5130.3572258666736
 21
-12184.043254154118
 31
0.0
  0
CIRCLE
  5
FA
102
{ACAD_REACTORS
330
FB
102
}
100
AcDbEntity
  8
0
370
              -2
390
0
  6
Continuous
 62
               0
100
AcDbCircle
 10
5410.3572258666736
 20
-12184.043254154118
 30
0.0
 40
1.9998779296875
  0
HATCH
  5
FB
100
AcDbEntity
  8
0
370
              -2
390
0
  6
Continuous
 62
               0
100
AcDbHatch
 10
0.0
 20
0.0
 30
0.0
210
0.0
220
0.0
230
1.0
  2
SOLID
 70
               1
 71
               1
 91
        1
 92
        1
 93
        1
 72
               2
 10
5410.3572258666736
 20
-12184.043254154118
 40
1.9998779296875
 50
0.0
 51
360.0
 73
               0
 97
        1
330
FA
 75
               0
 76
               1
 98
        1
 10
0.0
 20
0.0
  0
CIRCLE
  5
FC
102
{ACAD_REACTORS
330
FD
102
}
100
AcDbEntity
  8
0
370
              -2
390
0
  6
Continuous
 62
               0
100
AcDbCircle
 10
5130.3572258666736
 20
-12184.043254154118
 30
0.0
 40
1.9998779296875
  0
HATCH
  5
FD
100
AcDbEntity
  8
0
370
              -2
390
0
  6
Continuous
 62
               0
100
AcDbHatch
 10
0.0
 20
0.0
 30
0.0
210
0.0
220
0.0
230
1.0
  2
SOLID
 70
               1
 71
               1
 91
        1
 92
        1
 93
        1
 72
               2
 10
5130.3572258666736
 20
-12184.043254154118
 40
1.9998779296875
 50
0.0
 51
360.0
 73
               0
 97
        1
330
FC
 75
               0
 76
               1
 98
        1
 10
0.0
 20
0.0
  0
MTEXT
  5
FE
100
AcDbEntity
  8
0
390
0
 62
               0
100
AcDbMText
 10
5246.5447241844977
 20
-12150.165636966618
 30
0.0
 40
24.432617187500004
 41
0.0
 71
               1
 72
               1
  1
280
  7
ＭＳ ゴシック
 73
               1
 44
0.7828267384257844
  0
POINT
  5
FF
100
AcDbEntity
  8
Defpoints
370
               0
390
0
 62
               0
100
AcDbPoint
 10
5130.3572258666736
 20
-12344.044192787116
 30
0.0
  0
POINT
  5
100
100
AcDbEntity
  8
Defpoints
370
               0
390
0
 62
               0
100
AcDbPoint
 10
5410.3572258666736
 20
-12344.044192787116
 30
0.0
  0
POINT
  5
101
100
AcDbEntity
  8
Defpoints
370
               0
390
0
 62
               0
100
AcDbPoint
 10
5410.3572258666736
 20
-12184.043254154118
 30
0.0
  0
ENDBLK
  5
102
100
AcDbEntity
  8
ABA70-0003
390
0
100
AcDbBlockEnd
  0
BLOCK
  5
103
100
AcDbEntity
  8
ABA70-0003
390
0
100
AcDbBlockBegin
  2
*D15
 70
               1
 10
0.0
 20
0.0
 30
0.0
  3
*D15
  1

  0
LINE
  5
104
100
AcDbEntity
  8
0
370
              -2
390
0
  6
Continuous
 62
               0
100
AcDbLine
 10
4876.512330452666
 20
-12284.038049655097
 30
0.0
 11
4792.3920803406736
 21
-12284.038049655097
 31
0.0
  0
LINE
  5
105
100
AcDbEntity
  8
0
370
              -2
390
0
  6
Continuous
 62
               0
100
AcDbLine
 10
5085.3572258666736
 20
-12364.044192787116
 30
0.0
 11
4792.3920803406736
 21
-12364.044192787116
 31
0.0
  0
LINE
  5
106
100
AcDbEntity
  8
0
370
              -2
390
0
  6
Continuous
 62
               0
100
AcDbLine
 10
4792.3920803406736
 20
-12284.038049655097
 30
0.0
 11
4792.3920803406736
 21
-12364.044192787116
 31
0.0
  0
CIRCLE
  5
107
102
{ACAD_REACTORS
330
108
102
}
100
AcDbEntity
  8
0
370
              -2
390
0
  6
Continuous
 62
               0
100
AcDbCircle
 10
4792.3920803406736
 20
-12284.038049655097
 30
0.0
 40
1.9998779296875
  0
HATCH
  5
108
100
AcDbEntity
  8
0
370
              -2
390
0
  6
Continuous
 62
               0
100
AcDbHatch
 10
0.0
 20
0.0
 30
0.0
210
0.0
220
0.0
230
1.0
  2
SOLID
 70
               1
 71
               1
 91
        1
 92
        1
 93
        1
 72
               2
 10
4792.3920803406736
 20
-12284.038049655097
 40
1.9998779296875
 50
0.0
 51
360.0
 73
               0
 97
        1
330
107
 75
               0
 76
               1
 98
        1
 10
0.0
 20
0.0
  0
CIRCLE
  5
109
102
{ACAD_REACTORS
330
10A
102
}
100
AcDbEntity
  8
0
370
              -2
390
0
  6
Continuous
 62
               0
100
AcDbCircle
 10
4792.3920803406736
 20
-12364.044192787116
 30
0.0
 40
1.9998779296875
  0
HATCH
  5
10A
100
AcDbEntity
  8
0
370
              -2
390
0
  6
Continuous
 62
               0
100
AcDbHatch
 10
0.0
 20
0.0
 30
0.0
210
0.0
220
0.0
230
1.0
  2
SOLID
 70
               1
 71
               1
 91
        1
 92
        1
 93
        1
 72
               2
 10
4792.3920803406736
 20
-12364.044192787116
 40
1.9998779296875
 50
0.0
 51
360.0
 73
               0
 97
        1
330
109
 75
               0
 76
               1
 98
        1
 10
0.0
 20
0.0
  0
MTEXT
  5
10B
100
AcDbEntity
  8
0
390
0
 62
               0
100
AcDbMText
 10
4758.5144631531739
 20
-12339.916121221107
 30
0.0
 40
24.432617187500004
 41
0.0
 71
               1
 72
               1
  1
80
  7
ＭＳ ゴシック
 11
0.0
 21
1.0
 31
0.0
 73
               1
 44
0.7828267384257844
  0
POINT
  5
10C
100
AcDbEntity
  8
Defpoints
370
               0
390
0
 62
               0
100
AcDbPoint
 10
5110.3572258666736
 20
-12364.044192787116
 30
0.0
  0
POINT
  5
10D
100
AcDbEntity
  8
Defpoints
370
               0
390
0
 62
               0
100
AcDbPoint
 10
4901.512330452666
 20
-12284.038049655097
 30
0.0
  0
POINT
  5
10E
100
AcDbEntity
  8
Defpoints
370
               0
390
0
 62
               0
100
AcDbPoint
 10
4792.3920803406736
 20
-12284.038049655097
 30
0.0
  0
ENDBLK
  5
10F
100
AcDbEntity
  8
ABA70-0003
390
0
100
AcDbBlockEnd
  0
BLOCK
  5
110
100
AcDbEntity
  8
ABA70-0003
390
0
100
AcDbBlockBegin
  2
*D16
 70
               1
 10
0.0
 20
0.0
 30
0.0
  3
*D16
  1

  0
LINE
  5
111
100
AcDbEntity
  8
0
370
              -2
390
0
  6
Continuous
 62
               0
100
AcDbLine
 10
5049.4045163171895
 20
-12284.040096431212
 30
0.0
 11
5072.6358529412255
 21
-12284.040096431212
 31
0.0
  0
LINE
  5
112
100
AcDbEntity
  8
0
370
              -2
390
0
  6
Continuous
 62
               0
100
AcDbLine
 10
5037.7279857802259
 20
-12304.995886777988
 30
0.0
 11
5072.6358529412255
 21
-12304.995886777988
 31
0.0
  0
LINE
  5
113
100
AcDbEntity
  8
0
370
              -2
390
0
  6
Continuous
 62
               0
100
AcDbLine
 10
5072.6358529412255
 20
-12284.040096431212
 30
0.0
 11
5072.6358529412255
 21
-12188.25
 31
0.0
  0
LINE
  5
114
100
AcDbEntity
  8
0
370
              -2
390
0
  6
Continuous
 62
               0
100
AcDbLine
 10
5072.6358529412255
 20
-12284.040096431212
 30
0.0
 11
5072.6358529412255
 21
-12304.995886777988
 31
0.0
  0
CIRCLE
  5
115
102
{ACAD_REACTORS
330
116
102
}
100
AcDbEntity
  8
0
370
              -2
390
0
  6
Continuous
 62
               0
100
AcDbCircle
 10
5072.6358529412255
 20
-12284.040096431212
 30
0.0
 40
1.9998779296875
  0
HATCH
  5
116
100
AcDbEntity
  8
0
370
              -2
390
0
  6
Continuous
 62
               0
100
AcDbHatch
 10
0.0
 20
0.0
 30
0.0
210
0.0
220
0.0
230
1.0
  2
SOLID
 70
               1
 71
               1
 91
        1
 92
        1
 93
        1
 72
               2
 10
5072.6358529412255
 20
-12284.040096431212
 40
1.9998779296875
 50
0.0
 51
360.0
 73
               0
 97
        1
330
115
 75
               0
 76
               1
 98
        1
 10
0.0
 20
0.0
  0
CIRCLE
  5
117
102
{ACAD_REACTORS
330
118
102
}
100
AcDbEntity
  8
0
370
              -2
390
0
  6
Continuous
 62
               0
100
AcDbCircle
 10
5072.6358529412255
 20
-12304.995886777988
 30
0.0
 40
1.9998779296875
  0
HATCH
  5
118
100
AcDbEntity
  8
0
370
              -2
390
0
  6
Continuous
 62
               0
100
AcDbHatch
 10
0.0
 20
0.0
 30
0.0
210
0.0
220
0.0
230
1.0
  2
SOLID
 70
               1
 71
               1
 91
        1
 92
        1
 93
        1
 72
               2
 10
5072.6358529412255
 20
-12304.995886777988
 40
1.9998779296875
 50
0.0
 51
360.0
 73
               0
 97
        1
330
117
 75
               0
 76
               1
 98
        1
 10
0.0
 20
0.0
  0
MTEXT
  5
119
100
AcDbEntity
  8
0
390
0
 62
               0
100
AcDbMText
 10
5038.7582357537258
 20
-12220.0
 30
0.0
 40
24.432617187500004
 41
0.0
 71
               1
 72
               1
  1
17
  7
ＭＳ ゴシック
 11
0.0
 21
1.0
 31
0.0
 73
               1
 44
0.7828267384257844
  0
POINT
  5
11A
100
AcDbEntity
  8
Defpoints
370
               0
390
0
 62
               0
100
AcDbPoint
 10
5012.7279857802259
 20
-12304.995886777988
 30
0.0
  0
POINT
  5
11B
100
AcDbEntity
  8
Defpoints
370
               0
390
0
 62
               0
100
AcDbPoint
 10
5024.4045163171895
 20
-12284.040096431212
 30
0.0
  0
POINT
  5
11C
100
AcDbEntity
  8
Defpoints
370
               0
390
0
 62
               0
100
AcDbPoint
 10
5072.6358529412255
 20
-12284.040096431212
 30
0.0
  0
ENDBLK
  5
11D
100
AcDbEntity
  8
ABA70-0003
390
0
100
AcDbBlockEnd
  0
BLOCK
  5
11E
100
AcDbEntity
  8
ABA70-0003
390
0
100
AcDbBlockBegin
  2
*D17
 70
               1
 10
0.0
 20
0.0
 30
0.0
  3
*D17
  1

  0
LINE
  5
11F
100
AcDbEntity
  8
0
370
              -2
390
0
  6
Continuous
 62
               0
100
AcDbLine
 10
6168.1624315215649
 20
-12514.042798259828
 30
0.0
 11
5819.7661383244131
 21
-12514.042798259828
 31
0.0
  0
LINE
  5
120
100
AcDbEntity
  8
0
370
              -2
390
0
  6
Continuous
 62
               0
100
AcDbLine
 10
5852.8911383244131
 20
-12369.042798259828
 30
0.0
 11
5819.7661383244131
 21
-12369.042798259828
 31
0.0
  0
LINE
  5
121
100
AcDbEntity
  8
0
370
              -2
390
0
  6
Continuous
 62
               0
100
AcDbLine
 10
5819.7661383244131
 20
-12514.042798259828
 30
0.0
 11
5819.7661383244131
 21
-12369.042798259828
 31
0.0
  0
CIRCLE
  5
122
102
{ACAD_REACTORS
330
123
102
}
100
AcDbEntity
  8
0
370
              -2
390
0
  6
Continuous
 62
               0
100
AcDbCircle
 10
5819.7661383244131
 20
-12514.042798259828
 30
0.0
 40
1.9998779296875
  0
HATCH
  5
123
100
AcDbEntity
  8
0
370
              -2
390
0
  6
Continuous
 62
               0
100
AcDbHatch
 10
0.0
 20
0.0
 30
0.0
210
0.0
220
0.0
230
1.0
  2
SOLID
 70
               1
 71
               1
 91
        1
 92
        1
 93
        1
 72
               2
 10
5819.7661383244131
 20
-12514.042798259828
 40
1.9998779296875
 50
0.0
 51
360.0
 73
               0
 97
        1
330
122
 75
               0
 76
               1
 98
        1
 10
0.0
 20
0.0
  0
CIRCLE
  5
124
102
{ACAD_REACTORS
330
125
102
}
100
AcDbEntity
  8
0
370
              -2
390
0
  6
Continuous
 62
               0
100
AcDbCircle
 10
5819.7661383244131
 20
-12369.042798259828
 30
0.0
 40
1.9998779296875
  0
HATCH
  5
125
100
AcDbEntity
  8
0
370
              -2
390
0
  6
Continuous
 62
               0
100
AcDbHatch
 10
0.0
 20
0.0
 30
0.0
210
0.0
220
0.0
230
1.0
  2
SOLID
 70
               1
 71
               1
 91
        1
 92
        1
 93
        1
 72
               2
 10
5819.7661383244131
 20
-12369.042798259828
 40
1.9998779296875
 50
0.0
 51
360.0
 73
               0
 97
        1
330
124
 75
               0
 76
               1
 98
        1
 10
0.0
 20
0.0
  0
MTEXT
  5
126
100
AcDbEntity
  8
0
390
0
 62
               0
100
AcDbMText
 10
5785.8885211369134
 20
-12465.355299942004
 30
0.0
 40
24.432617187500004
 41
0.0
 71
               1
 72
               1
  1
145
  7
ＭＳ ゴシック
 11
0.0
 21
1.0
 31
0.0
 73
               1
 44
0.7828267384257844
  0
POINT
  5
127
100
AcDbEntity
  8
Defpoints
370
               0
390
0
 62
               0
100
AcDbPoint
 10
5877.8911383244131
 20
-12369.042798259828
 30
0.0
  0
POINT
  5
128
100
AcDbEntity
  8
Defpoints
370
               0
390
0
 62
               0
100
AcDbPoint
 10
6193.1624315215649
 20
-12514.042798259828
 30
0.0
  0
POINT
  5
129
100
AcDbEntity
  8
Defpoints
370
               0
390
0
 62
               0
100
AcDbPoint
 10
5819.7661383244131
 20
-12514.042798259828
 30
0.0
  0
ENDBLK
  5
12A
100
AcDbEntity
  8
ABA70-0003
390
0
100
AcDbBlockEnd
  0
BLOCK
  5
12B
100
AcDbEntity
  8
ABA70-0003
390
0
100
AcDbBlockBegin
  2
*D18
 70
               1
 10
0.0
 20
0.0
 30
0.0
  3
*D18
  1

  0
LINE
  5
12C
100
AcDbEntity
  8
0
370
              -2
390
0
  6
Continuous
 62
               0
100
AcDbLine
 10
5287.6282853408857
 20
-11150.663105146305
 30
0.0
 11
5420.7672131452036
 21
-11039.358607772241
 31
0.0
  0
CIRCLE
  5
12D
102
{ACAD_REACTORS
330
12E
102
}
100
AcDbEntity
  8
0
370
              -2
390
0
  6
Continuous
 62
               0
100
AcDbCircle
 10
5287.6282853408857
 20
-11150.663105146305
 30
0.0
 40
1.9998779296875
  0
HATCH
  5
12E
100
AcDbEntity
  8
0
370
              -2
390
0
  6
Continuous
 62
               0
100
AcDbHatch
 10
0.0
 20
0.0
 30
0.0
210
0.0
220
0.0
230
1.0
  2
SOLID
 70
               1
 71
               1
 91
        1
 92
        1
 93
        1
 72
               2
 10
5287.6282853408857
 20
-11150.663105146305
 40
1.9998779296875
 50
0.0
 51
360.0
 73
               0
 97
        1
330
12D
 75
               0
 76
               1
 98
        1
 10
0.0
 20
0.0
  0
LINE
  5
12F
100
AcDbEntity
  8
0
370
              -2
390
0
  6
Continuous
 62
               0
100
AcDbLine
 10
5420.7672131452036
 20
-11039.358607772241
 30
0.0
 11
5544.2672131452036
 21
-11039.358607772241
 31
0.0
  0
MTEXT
  5
130
100
AcDbEntity
  8
0
390
0
 62
               0
100
AcDbMText
 10
5480.7672131452036
 20
-11005.480990584741
 30
0.0
 40
24.432617187500004
 41
0.0
 71
               1
 72
               1
  1
φ37
  7
ＭＳ ゴシック
 73
               1
 44
0.7828267384257844
  0
POINT
  5
131
100
AcDbEntity
  8
Defpoints
370
               0
390
0
 62
               0
100
AcDbPoint
 10
5259.2413989683664
 20
-11174.394617573322
 30
0.0
  0
POINT
  5
132
100
AcDbEntity
  8
Defpoints
370
               0
390
0
 62
               0
100
AcDbPoint
 10
5287.6282853408857
 20
-11150.663105146305
 30
0.0
  0
ENDBLK
  5
133
100
AcDbEntity
  8
ABA70-0003
390
0
100
AcDbBlockEnd
  0
BLOCK
  5
134
100
AcDbEntity
  8
ABA70-0003
390
0
100
AcDbBlockBegin
  2
グループ-1
 70
               0
 10
0.0
 20
0.0
 30
0.0
  3
グループ-1
  1

  0
LINE
  5
135
100
AcDbEntity
  8
0
370
              15
390
0
  6
STYLE_01
 62
               7
100
AcDbLine
 10
-336.74625964136692
 20
-458.79242153724226
 30
0.0
 11
-336.74644452253625
 21
-503.64914396475865
 31
0.0
  0
LINE
  5
136
100
AcDbEntity
  8
0
370
              15
390
0
  6
STYLE_01
 62
               7
100
AcDbLine
 10
-384.31091015662435
 20
-458.79242153724226
 30
0.0
 11
-384.31109503779373
 21
-503.64914396475865
 31
0.0
  0
SPLINE
  5
137
100
AcDbEntity
  8
0
370
              15
390
0
  6
STYLE_01
 62
               7
100
AcDbSpline
210
0.0
220
0.0
230
1.0
 70
               8
 71
               2
 72
               8
 73
               5
 74
               0
 42
0.000001
 43
0.000001
 40
0.0
 40
0.0
 40
0.0
 40
1.0
 40
2.0
 40
3.0
 40
3.0
 40
3.0
 10
-618.87000893652453
 20
-294.59653172517881
 30
0.0
 10
-608.31603117819736
 20
-359.19618124366627
 30
0.0
 10
-515.74745209805781
 20
-444.97604371903492
 30
0.0
 10
-395.01843827816822
 20
-458.79142240758802
 30
0.0
 10
-382.65859770083432
 20
-458.79242153724226
 30
0.0
  0
SPLINE
  5
138
100
AcDbEntity
  8
0
370
              15
390
0
  6
STYLE_01
 62
               7
100
AcDbSpline
210
0.0
220
0.0
230
1.0
 70
               8
 71
               2
 72
               8
 73
               5
 74
               0
 42
0.000001
 43
0.000001
 40
0.0
 40
0.0
 40
0.0
 40
1.0
 40
2.0
 40
3.0
 40
3.0
 40
3.0
 10
-98.8700089365243
 20
-294.59653172517881
 30
0.0
 10
-109.42398669485101
 20
-359.19618124366627
 30
0.0
 10
-201.99256577499125
 20
-444.97604371903492
 30
0.0
 10
-322.72157959488089
 20
-458.79142240758802
 30
0.0
 10
-335.08142017221513
 20
-458.79242153724226
 30
0.0
  0
ENDBLK
  5
139
100
AcDbEntity
  8
ABA70-0003
390
0
100
AcDbBlockEnd
  0
BLOCK
  5
13A
100
AcDbEntity
  8
ABA70-0003
390
0
100
AcDbBlockBegin
  2
グループ
 70
               0
 10
0.0
 20
0.0
 30
0.0
  3
グループ
  1

  0
LWPOLYLINE
  5
13B
100
AcDbEntity
  8
0
370
              15
390
0
  6
Continuous
 62
               7
100
AcDbPolyline
 90
        8
 70
             129
 10
885.59485633519853
 20
-1321.7658813992032
 10
885.59485633519853
 20
-1327.7632700927791
 10
876.09365941719523
 20
-1327.7632700927791
 10
876.09365941719523
 20
-1352.2142333562879
 10
867.73828215541243
 20
-1352.2142333562879
 10
867.73828215541243
 20
-1327.7632700927791
 10
858.40532520910301
 20
-1327.7632700927791
 10
858.40532520910301
 20
-1321.7658813992032
  0
LWPOLYLINE
  5
13C
100
AcDbEntity
  8
0
370
              15
390
0
  6
Continuous
 62
               7
100
AcDbPolyline
 90
      101
 70
             128
 10
898.32314816575547
 20
-1322.4941298921397
 10
898.33849819453735
 20
-1322.4897691354554
 42
-0.0222221607814996
 10
898.62850277121152
 20
-1322.42114467021
 10
898.64429653519824
 20
-1322.4181412471144
 42
-0.0146883565592041
 10
898.90699924042929
 20
-1322.3761380601636
 42
-0.0127458844188921
 10
899.17163820757867
 20
-1322.3486010920915
 10
899.23409328589514
 20
-1322.3437076695029
 42
-0.0198099018567883
 10
899.62494239537068
 20
-1322.3286225121064
 10
899.67675386481574
 20
-1322.3286762877715
 42
-0.0147617382762009
 10
900.17137732579556
 20
-1322.3437963130166
 10
900.24406878066509
 20
-1322.3481689199039
 42
-0.0162624549001777
 10
900.6342224101295
 20
-1322.3844017951762
 10
900.75575480139207
 20
-1322.3996883541733
 42
-0.0080020874669016
 10
900.9013338324803
 20
-1322.4203712014412
 10
900.93965330306025
 20
-1322.4264424792498
 42
-0.0053821929677763
 10
901.0081374083901
 20
-1322.4380500030738
 10
900.28173170919149
 20
-1324.6189784587878
 42
0.0108667757399748
 10
900.21441463906319
 20
-1324.6057913435684
 10
900.1769466158712
 20
-1324.5992936009734
 42
0.0170663203311501
 10
900.03372982895132
 20
-1324.5794640036811
 10
899.96585449627264
 20
-1324.5724168330942
 42
0.0220162375274737
 10
899.68547508841777
 20
-1324.555734472324
 10
899.60761952136795
 20
-1324.5545351050575
 42
0.0282606915780435
 10
899.27198319778734
 20
-1324.5683383820265
 10
899.22806992401445
 20
-1324.5726383720303
 42
0.0169677213690174
 10
898.98214542905612
 20
-1324.6051754215823
 42
0.0190576269872204
 10
898.73923746647097
 20
-1324.6553222936898
 10
898.73297827836518
 20
-1324.6568652677979
 42
0.0213685642841685
 10
898.48259379388992
 20
-1324.7300655529018
 10
898.47710389897122
 20
-1324.7319285489616
 42
0.0237595297589887
 10
898.22360901407353
 20
-1324.8316130708567
 10
898.21850694004286
 20
-1324.8339048463354
 42
0.0261857468811015
 10
897.9663361638128
 20
-1324.9634411837098
 10
897.95590997472402
 20
-1324.9695066581794
 42
0.0272553062025891
 10
897.71948019948741
 20
-1325.1248788641228
 10
897.68471718598016
 20
-1325.1505400122132
 42
0.0325996893171313
 10
897.53456184232641
 20
-1325.2772878851863
 10
897.51085241319868
 20
-1325.3001059137036
 42
0.0138050960644441
 10
897.41896925699325
 20
-1325.393555575251
 42
0.012528010380931
 10
897.3321267241588
 20
-1325.491718901852
 10
897.30844627925137
 20
-1325.5198774000382
 42
0.020521802472979
 10
897.18334620374026
 20
-1325.6816707142636
 10
897.16087986325056
 20
-1325.7133304440943
 42
0.0163110129588233
 10
897.00516948399445
 20
-1325.9486608791719
 10
897.00244558794827
 20
-1325.9530846411496
 42
0.0131897341899257
 10
896.85564506704316
 20
-1326.2062167335125
 10
896.8539449716759
 20
-1326.2093349726497
 42
0.0107895576063886
 10
896.71616826946456
 20
-1326.4755501822863
 10
896.71543537994012
 20
-1326.4770444149315
 42
0.0091371507210655
 10
896.58695543129363
 20
-1326.7515696126841
 10
896.55720979988132
 20
-1326.81827611985
 42
0.0135418326352785
 10
896.38549586080899
 20
-1327.2332139051207
 10
896.35189105237407
 20
-1327.3210800474037
 42
0.0092834542417384
 10
896.18066199245459
 20
-1327.7949785457054
 10
896.15504486473708
 20
-1327.8702196154984
 42
0.0054261043584472
 10
896.0474067164439
 20
-1328.1979835885636
 10
896.02988073024756
 20
-1328.2533717508536
 42
0.000822509082292
 10
895.96121067843649
 20
-1328.471640508943
 10
894.97652154650302
 20
-1331.4965318021996
 10
898.20914538657689
 20
-1331.4965318021996
 10
897.70495295672345
 20
-1333.401010100552
 10
894.44889667474013
 20
-1333.401010100552
 10
888.6197476423863
 20
-1352.2142331665568
 10
886.79465003207599
 20
-1352.2142331665568
 10
892.62932806757692
 20
-1333.401010100552
 10
890.22421169853658
 20
-1333.401010100552
 10
890.72840412839003
 20
-1331.4965318021996
 10
893.15695293934004
 20
-1331.4965318021996
 10
894.01710785752869
 20
-1328.8601188015007
 42
-0.0005863560650025
 10
894.05384253569855
 20
-1328.7432923813155
 10
894.12993036939258
 20
-1328.5023000818235
 42
-0.0087522378929897
 10
894.32939851284789
 20
-1327.9070239946814
 10
894.42166278825994
 20
-1327.6468838261724
 42
-0.0077400953831217
 10
894.67959644739403
 20
-1326.9538791486157
 10
894.69536141897163
 20
-1326.9134482652328
 42
-0.0082369946330653
 10
894.94244588958486
 20
-1326.3093691990339
 42
-0.008572523836593
 10
895.20969198558748
 20
-1325.7139431597473
 10
895.31132158659557
 20
-1325.497522057761
 42
-0.016810941059623
 10
895.59826601532518
 20
-1324.9363145316574
 10
895.72410940581267
 20
-1324.7093504986085
 42
-0.0007817726853145
 10
895.77839375584085
 20
-1324.6118062536289
 10
895.77852206185366
 20
-1324.6115765449006
 42
-0.0036626142161178
 10
895.83340992587932
 20
-1324.514978664924
 42
-0.00802211506696
 10
895.89053418129038
 20
-1324.4196994301642
 10
895.92123413264721
 20
-1324.3703084810491
 42
-0.0202139325574301
 10
896.04888987245431
 20
-1324.1823268803671
 10
896.10295733764156
 20
-1324.1092480161267
 42
-0.0249323791796243
 10
896.36212013136299
 20
-1323.7932027739696
 10
896.38625994548772
 20
-1323.7665885010597
 42
-0.0242132121535865
 10
896.72594068702949
 20
-1323.426705014856
 10
896.7738522597831
 20
-1323.3831958786673
 42
-0.025101752785782
 10
897.05783396042102
 20
-1323.1502031329051
 10
897.05927943723123
 20
-1323.1491338753287
 42
-0.0130868069041738
 10
897.35754008719209
 20
-1322.9403534067835
 10
897.3591019063349
 20
-1322.9393199665085
 42
-0.0290329526391142
 10
897.67021304772811
 20
-1322.7584944648793
 10
897.70005860971889
 20
-1322.7433920820372
 42
-0.0160250190042218
 10
897.96596302347893
 20
-1322.6193759718262
 42
-0.0267600374782481
 10
898.24123910094636
 20
-1322.5186276512782
 10
898.2679750204685
 20
-1322.5104350924521
 42
-0.0049981587669831
 10
898.32314816575547
 20
-1322.4941298921397
 42
-0.0049981587669831
  0
LWPOLYLINE
  5
13D
100
AcDbEntity
  8
0
370
              15
390
0
  6
Continuous
 62
               7
100
AcDbPolyline
 90
      118
 70
             128
 10
918.13751573020238
 20
-1331.5705151300269
 10
920.01263765470185
 20
-1331.5705151300269
 10
919.17459874910196
 20
-1334.252081656427
 42
-0.0010587229246749
 10
919.2060545646475
 20
-1334.2151771231026
 10
919.26424865530589
 20
-1334.1471948668959
 42
-0.0071874740410506
 10
919.41462387340198
 20
-1333.9765541748691
 10
919.55634664666616
 20
-1333.8203180335536
 42
-0.0148118053512504
 10
920.00647593938072
 20
-1333.3527041875388
 10
920.09369827428657
 20
-1333.2673068666813
 42
-0.0086273358690433
 10
920.42924707528914
 20
-1332.9499312326707
 10
920.47308079152185
 20
-1332.9098815883315
 42
-0.0103138323109688
 10
920.73110449374849
 20
-1332.6837184509993
 10
920.77687890006825
 20
-1332.6452364037452
 42
-0.0060206748566475
 10
920.94972696418779
 20
-1332.5034417529846
 10
920.95175809507862
 20
-1332.5018160473494
 42
-0.0067069027282842
 10
921.1240509097363
 20
-1332.3676654135584
 10
921.1265996756664
 20
-1332.3657352436799
 42
-0.0076184352042747
 10
921.29750494153359
 20
-1332.2403603684393
 42
-0.0089652861676681
 10
921.47246590426778
 20
-1332.1207271081071
 10
921.50881762441077
 20
-1332.0968158946255
 42
-0.01569162459404
 10
921.70477712157322
 20
-1331.9765534081494
 42
-0.0023299011063052
 10
921.90503916554871
 20
-1331.8633754686109
 10
921.92042329793287
 20
-1331.8547754735439
 42
-0.0107669341486806
 10
922.1546601230358
 20
-1331.7303753401936
 10
922.17692492410902
 20
-1331.7191585902444
 42
-0.0078058045897242
 10
922.46051504205275
 20
-1331.58179713461
 10
922.4704221297709
 20
-1331.5771880067375
 42
-0.0181829330473986
 10
922.78073153438447
 20
-1331.4463242656427
 10
922.83478697695102
 20
-1331.4258091456993
 42
-0.0208411536029725
 10
923.18387194440356
 20
-1331.3097186832051
 10
923.19822804452895
 20
-1331.3056002382523
 42
-0.0222799817136821
 10
923.52694783844822
 20
-1331.2269586721113
 10
923.53583680168128
 20
-1331.2252466615271
 42
-0.0215509523887661
 10
923.85230776996514
 20
-1331.1783309729922
 10
923.89478973101586
 20
-1331.1738934462012
 42
-0.0182545924874138
 10
924.12889851031923
 20
-1331.1580496208103
 10
924.16829952667149
 20
-1331.1568250757309
 42
-0.0072962856530272
 10
924.32422240635628
 20
-1331.1542557472089
 10
924.35332207691908
 20
-1331.1542009118052
 42
-0.0059227516314164
 10
924.45107157607322
 20
-1331.1551746235955
 10
924.48031379355996
 20
-1331.1558123901993
 42
-0.0011833111919739
 10
924.51956507727755
 20
-1331.156761394509
 10
923.72417848167038
 20
-1333.695495339608
 42
0.0143932051537441
 10
923.69777709931725
 20
-1333.6852963695617
 10
923.69050512690251
 20
-1333.6827251507052
 42
0.0234388603498642
 10
923.64867426096896
 20
-1333.6701059149896
 10
923.63999259805769
 20
-1333.667924952985
 42
0.0199162742978595
 10
923.57970376397577
 20
-1333.6553082176495
 10
923.55888982617148
 20
-1333.6518110182215
 42
0.0293643550661469
 10
923.45581496741511
 20
-1333.6406609725684
 10
923.43112978669205
 20
-1333.6394493555497
 42
0.0214606686870435
 10
923.27798887073789
 20
-1333.6385107951323
 10
923.26861695992159
 20
-1333.6388557066766
 42
0.0167564054189208
 10
923.09709676881141
 20
-1333.6509327490448
 10
923.0886369760542
 20
-1333.6518140894718
 42
0.0137677553241951
 10
922.90128366279032
 20
-1333.6765633980149
 10
922.89393192328157
 20
-1333.6777413179832
 42
0.0118497261486156
 10
922.69343415918104
 20
-1333.7147586681722
 10
922.687284151933
 20
-1333.7160455308924
 42
0.0106421143891714
 10
922.47640326464602
 20
-1333.7648779064677
 10
922.47149445625894
 20
-1333.7661252491523
 42
0.0099746379700754
 10
922.25303598709763
 20
-1333.8262997774666
 10
922.19148794692615
 20
-1333.8445816560977
 42
0.0191613675862536
 10
921.8555034844079
 20
-1333.9585590363859
 10
921.76744371166171
 20
-1333.9922459467102
 42
0.0205274080147314
 10
921.38213693976445
 20
-1334.1580743545353
 10
921.32448765777985
 20
-1334.1857423191091
 42
0.0181256912198137
 10
921.0662107171155
 20
-1334.3214261380854
 10
921.01325533379293
 20
-1334.3517437513051
 42
0.0140709242411934
 10
920.86830039917322
 20
-1334.4402384247346
 10
920.8420515305595
 20
-1334.4572952434469
 42
0.0086667884388035
 10
920.7531253690122
 20
-1334.5172979113329
 42
0.0036408192023037
 10
920.66569213098762
 20
-1334.5794787691189
 10
920.63046525651021
 20
-1334.604919715038
 42
0.00522607812743
 10
920.47423655913292
 20
-1334.7202521016618
 10
920.45802970285945
 20
-1334.7324802122903
 42
0.0050024435888605
 10
920.27202635981189
 20
-1334.8757627805437
 10
920.25670820328548
 20
-1334.8878088029983
 42
0.013613871027295
 10
920.04626693496368
 20
-1335.0627753079086
 10
920.01259905916663
 20
-1335.0923542806258
 42
0.0172815186907305
 10
919.74819551750977
 20
-1335.3413509532434
 10
919.74563317166144
 20
-1335.3439367703963
 42
0.0189403857989584
 10
919.49505137308586
 20
-1335.6167420351967
 10
919.46241987954284
 20
-1335.655085966702
 42
0.0185044199507739
 10
919.27046344056635
 20
-1335.8983345478209
 42
0.0088565243901945
 10
919.09200333393653
 20
-1336.1518509679731
 10
919.08282535428941
 20
-1336.1653923477309
 42
0.0157195347227224
 10
918.8996047479551
 20
-1336.454914557047
 10
918.85352180602615
 20
-1336.5330667540645
 42
0.0095451879779604
 10
918.68843625588681
 20
-1336.825661396424
 10
918.67728833695662
 20
-1336.8463320685571
 42
0.0100351706256946
 10
918.54524458779792
 20
-1337.1033876290467
 42
0.0086935915431345
 10
918.42291343599845
 20
-1337.3652207744633
 10
918.41959269458937
 20
-1337.3726630974229
 42
0.0072580174870159
 10
918.29924624263742
 20
-1337.6532550890229
 10
918.29598460933812
 20
-1337.661175115024
 42
0.0060005122617594
 10
918.1767839409921
 20
-1337.9607847856375
 10
918.17357296265379
 20
-1337.9691463135337
 42
0.0049017786977284
 10
918.05467280379355
 20
-1338.2880752941458
 10
918.05150699740591
 20
-1338.2968282313686
 42
0.0039415167602582
 10
917.93207071934933
 20
-1338.6353702937818
 10
917.92893961669711
 20
-1338.6444734946579
 42
0.0031035838761432
 10
917.80813483101076
 20
-1339.0029133564108
 10
917.80502478647361
 20
-1339.0123339778061
 42
0.0025070747152487
 10
917.68212343516404
 20
-1339.3909811947321
 10
917.64482953873289
 20
-1339.5078728600031
 42
0.0029081910284191
 10
917.45281124091935
 20
-1340.122036518303
 10
917.412008072405
 20
-1340.2552597605707
 42
0.0009266453733913
 10
917.14359069808961
 20
-1341.1374842204962
 10
917.12270322540849
 20
-1341.2065960998661
 42
-0.0005809993665233
 10
916.84536654485851
 20
-1342.1204042063691
 10
916.77908474658375
 20
-1342.3378891385344
 42
-0.0012018708166704
 10
916.6321004371564
 20
-1342.8160518030495
 10
916.57978058554227
 20
-1342.9848109440713
 42
-0.0002691059619285
 10
916.53621110442225
 20
-1343.1250785642571
 10
913.70325520613301
 20
-1352.2142331665568
 10
911.88526631415448
 20
-1352.2142331665568
 10
918.13751573020238
 20
-1331.5705151300269
  0
SPLINE
  5
13E
100
AcDbEntity
  8
0
370
              15
390
0
  6
Continuous
 62
               7
100
AcDbSpline
210
0.0
220
0.0
230
1.0
 70
              13
 71
               2
 72
             782
 73
             779
 74
               0
 42
0.000001
 43
0.000001
 40
0.0
 40
0.0
 40
0.0
 40
1.0
 40
1.0
 40
2.0
 40
2.0
 40
3.0
 40
3.0
 40
4.0
 40
4.0
 40
5.0
 40
5.0
 40
6.0
 40
6.0
 40
7.0
 40
7.0
 40
8.0
 40
8.0
 40
9.0
 40
9.0
 40
10.0
 40
10.0
 40
11.0
 40
11.0
 40
12.0
 40
12.0
 40
13.0
 40
13.0
 40
14.0
 40
14.0
 40
15.0
 40
15.0
 40
16.0
 40
16.0
 40
17.0
 40
17.0
 40
18.0
 40
18.0
 40
19.0
 40
19.0
 40
20.0
 40
20.0
 40
21.0
 40
21.0
 40
22.0
 40
22.0
 40
23.0
 40
23.0
 40
24.0
 40
24.0
 40
25.0
 40
25.0
 40
26.0
 40
26.0
 40
27.0
 40
27.0
 40
28.0
 40
28.0
 40
29.0
 40
29.0
 40
30.0
 40
30.0
 40
31.0
 40
31.0
 40
32.0
 40
32.0
 40
33.0
 40
33.0
 40
34.0
 40
34.0
 40
35.0
 40
35.0
 40
36.0
 40
36.0
 40
37.0
 40
37.0
 40
38.0
 40
38.0
 40
39.0
 40
39.0
 40
40.0
 40
40.0
 40
41.0
 40
41.0
 40
42.0
 40
42.0
 40
43.0
 40
43.0
 40
44.0
 40
44.0
 40
45.0
 40
45.0
 40
46.0
 40
46.0
 40
47.0
 40
47.0
 40
48.0
 40
48.0
 40
49.0
 40
49.0
 40
50.0
 40
50.0
 40
51.0
 40
51.0
 40
52.0
 40
52.0
 40
53.0
 40
53.0
 40
54.0
 40
54.0
 40
55.0
 40
55.0
 40
56.0
 40
56.0
 40
57.0
 40
57.0
 40
58.0
 40
58.0
 40
59.0
 40
59.0
 40
60.0
 40
60.0
 40
61.0
 40
61.0
 40
62.0
 40
62.0
 40
63.0
 40
63.0
 40
64.0
 40
64.0
 40
65.0
 40
65.0
 40
66.0
 40
66.0
 40
67.0
 40
67.0
 40
68.0
 40
68.0
 40
69.0
 40
69.0
 40
70.0
 40
70.0
 40
71.0
 40
71.0
 40
72.0
 40
72.0
 40
73.0
 40
73.0
 40
74.0
 40
74.0
 40
75.0
 40
75.0
 40
76.0
 40
76.0
 40
77.0
 40
77.0
 40
78.0
 40
78.0
 40
79.0
 40
79.0
 40
80.0
 40
80.0
 40
81.0
 40
81.0
 40
82.0
 40
82.0
 40
83.0
 40
83.0
 40
84.0
 40
84.0
 40
85.0
 40
85.0
 40
86.0
 40
86.0
 40
87.0
 40
87.0
 40
88.0
 40
88.0
 40
89.0
 40
89.0
 40
90.0
 40
90.0
 40
91.0
 40
91.0
 40
92.0
 40
92.0
 40
93.0
 40
93.0
 40
94.0
 40
94.0
 40
95.0
 40
95.0
 40
96.0
 40
96.0
 40
97.0
 40
97.0
 40
98.0
 40
98.0
 40
99.0
 40
99.0
 40
100.0
 40
100.0
 40
101.0
 40
101.0
 40
102.0
 40
102.0
 40
103.0
 40
103.0
 40
104.0
 40
104.0
 40
105.0
 40
105.0
 40
106.0
 40
106.0
 40
107.0
 40
107.0
 40
108.0
 40
108.0
 40
109.0
 40
109.0
 40
110.0
 40
110.0
 40
111.0
 40
111.0
 40
112.0
 40
112.0
 40
113.0
 40
113.0
 40
114.0
 40
114.0
 40
115.0
 40
115.0
 40
116.0
 40
116.0
 40
117.0
 40
117.0
 40
118.0
 40
118.0
 40
119.0
 40
119.0
 40
120.0
 40
120.0
 40
121.0
 40
121.0
 40
122.0
 40
122.0
 40
123.0
 40
123.0
 40
124.0
 40
124.0
 40
125.0
 40
125.0
 40
126.0
 40
126.0
 40
127.0
 40
127.0
 40
128.0
 40
128.0
 40
129.0
 40
129.0
 40
130.0
 40
130.0
 40
131.0
 40
131.0
 40
132.0
 40
132.0
 40
133.0
 40
133.0
 40
134.0
 40
134.0
 40
135.0
 40
135.0
 40
136.0
 40
136.0
 40
137.0
 40
137.0
 40
138.0
 40
138.0
 40
139.0
 40
139.0
 40
140.0
 40
140.0
 40
141.0
 40
141.0
 40
142.0
 40
142.0
 40
143.0
 40
143.0
 40
144.0
 40
144.0
 40
145.0
 40
145.0
 40
146.0
 40
146.0
 40
147.0
 40
147.0
 40
148.0
 40
148.0
 40
149.0
 40
149.0
 40
150.0
 40
150.0
 40
151.0
 40
151.0
 40
152.0
 40
152.0
 40
153.0
 40
153.0
 40
154.0
 40
154.0
 40
155.0
 40
155.0
 40
156.0
 40
156.0
 40
157.0
 40
157.0
 40
158.0
 40
158.0
 40
159.0
 40
159.0
 40
160.0
 40
160.0
 40
161.0
 40
161.0
 40
162.0
 40
162.0
 40
163.0
 40
163.0
 40
164.0
 40
164.0
 40
165.0
 40
165.0
 40
166.0
 40
166.0
 40
167.0
 40
167.0
 40
168.0
 40
168.0
 40
169.0
 40
169.0
 40
170.0
 40
170.0
 40
171.0
 40
171.0
 40
172.0
 40
172.0
 40
173.0
 40
173.0
 40
174.0
 40
174.0
 40
175.0
 40
175.0
 40
176.0
 40
176.0
 40
177.0
 40
177.0
 40
178.0
 40
178.0
 40
179.0
 40
179.0
 40
180.0
 40
180.0
 40
181.0
 40
181.0
 40
182.0
 40
182.0
 40
183.0
 40
183.0
 40
184.0
 40
184.0
 40
185.0
 40
185.0
 40
186.0
 40
186.0
 40
187.0
 40
187.0
 40
188.0
 40
188.0
 40
189.0
 40
189.0
 40
190.0
 40
190.0
 40
191.0
 40
191.0
 40
192.0
 40
192.0
 40
193.0
 40
193.0
 40
194.0
 40
194.0
 40
195.0
 40
195.0
 40
196.0
 40
196.0
 40
197.0
 40
197.0
 40
198.0
 40
198.0
 40
199.0
 40
199.0
 40
200.0
 40
200.0
 40
201.0
 40
201.0
 40
202.0
 40
202.0
 40
203.0
 40
203.0
 40
204.0
 40
204.0
 40
205.0
 40
205.0
 40
206.0
 40
206.0
 40
207.0
 40
207.0
 40
208.0
 40
208.0
 40
209.0
 40
209.0
 40
210.0
 40
210.0
 40
211.0
 40
211.0
 40
212.0
 40
212.0
 40
213.0
 40
213.0
 40
214.0
 40
214.0
 40
215.0
 40
215.0
 40
216.0
 40
216.0
 40
217.0
 40
217.0
 40
218.0
 40
218.0
 40
219.0
 40
219.0
 40
220.0
 40
220.0
 40
221.0
 40
221.0
 40
222.0
 40
222.0
 40
223.0
 40
223.0
 40
224.0
 40
224.0
 40
225.0
 40
225.0
 40
226.0
 40
226.0
 40
227.0
 40
227.0
 40
228.0
 40
228.0
 40
229.0
 40
229.0
 40
230.0
 40
230.0
 40
231.0
 40
231.0
 40
232.0
 40
232.0
 40
233.0
 40
233.0
 40
234.0
 40
234.0
 40
235.0
 40
235.0
 40
236.0
 40
236.0
 40
237.0
 40
237.0
 40
238.0
 40
238.0
 40
239.0
 40
239.0
 40
240.0
 40
240.0
 40
241.0
 40
241.0
 40
242.0
 40
242.0
 40
243.0
 40
243.0
 40
244.0
 40
244.0
 40
245.0
 40
245.0
 40
246.0
 40
246.0
 40
247.0
 40
247.0
 40
248.0
 40
248.0
 40
249.0
 40
249.0
 40
250.0
 40
250.0
 40
251.0
 40
251.0
 40
252.0
 40
252.0
 40
253.0
 40
253.0
 40
254.0
 40
254.0
 40
255.0
 40
255.0
 40
256.0
 40
256.0
 40
257.0
 40
257.0
 40
258.0
 40
258.0
 40
259.0
 40
259.0
 40
260.0
 40
260.0
 40
261.0
 40
261.0
 40
262.0
 40
262.0
 40
263.0
 40
263.0
 40
264.0
 40
264.0
 40
265.0
 40
265.0
 40
266.0
 40
266.0
 40
267.0
 40
267.0
 40
268.0
 40
268.0
 40
269.0
 40
269.0
 40
270.0
 40
270.0
 40
271.0
 40
271.0
 40
272.0
 40
272.0
 40
273.0
 40
273.0
 40
274.0
 40
274.0
 40
275.0
 40
275.0
 40
276.0
 40
276.0
 40
277.0
 40
277.0
 40
278.0
 40
278.0
 40
279.0
 40
279.0
 40
280.0
 40
280.0
 40
281.0
 40
281.0
 40
282.0
 40
282.0
 40
283.0
 40
283.0
 40
284.0
 40
284.0
 40
285.0
 40
285.0
 40
286.0
 40
286.0
 40
287.0
 40
287.0
 40
288.0
 40
288.0
 40
289.0
 40
289.0
 40
290.0
 40
290.0
 40
291.0
 40
291.0
 40
292.0
 40
292.0
 40
293.0
 40
293.0
 40
294.0
 40
294.0
 40
295.0
 40
295.0
 40
296.0
 40
296.0
 40
297.0
 40
297.0
 40
298.0
 40
298.0
 40
299.0
 40
299.0
 40
300.0
 40
300.0
 40
301.0
 40
301.0
 40
302.0
 40
302.0
 40
303.0
 40
303.0
 40
304.0
 40
304.0
 40
305.0
 40
305.0
 40
306.0
 40
306.0
 40
307.0
 40
307.0
 40
308.0
 40
308.0
 40
309.0
 40
309.0
 40
310.0
 40
310.0
 40
311.0
 40
311.0
 40
312.0
 40
312.0
 40
313.0
 40
313.0
 40
314.0
 40
314.0
 40
315.0
 40
315.0
 40
316.0
 40
316.0
 40
317.0
 40
317.0
 40
318.0
 40
318.0
 40
319.0
 40
319.0
 40
320.0
 40
320.0
 40
321.0
 40
321.0
 40
322.0
 40
322.0
 40
323.0
 40
323.0
 40
324.0
 40
324.0
 40
325.0
 40
325.0
 40
326.0
 40
326.0
 40
327.0
 40
327.0
 40
328.0
 40
328.0
 40
329.0
 40
329.0
 40
330.0
 40
330.0
 40
331.0
 40
331.0
 40
332.0
 40
332.0
 40
333.0
 40
333.0
 40
334.0
 40
334.0
 40
335.0
 40
335.0
 40
336.0
 40
336.0
 40
337.0
 40
337.0
 40
338.0
 40
338.0
 40
339.0
 40
339.0
 40
340.0
 40
340.0
 40
341.0
 40
341.0
 40
342.0
 40
342.0
 40
343.0
 40
343.0
 40
344.0
 40
344.0
 40
345.0
 40
345.0
 40
346.0
 40
346.0
 40
347.0
 40
347.0
 40
348.0
 40
348.0
 40
349.0
 40
349.0
 40
350.0
 40
350.0
 40
351.0
 40
351.0
 40
352.0
 40
352.0
 40
353.0
 40
353.0
 40
354.0
 40
354.0
 40
355.0
 40
355.0
 40
356.0
 40
356.0
 40
357.0
 40
357.0
 40
358.0
 40
358.0
 40
359.0
 40
359.0
 40
360.0
 40
360.0
 40
361.0
 40
361.0
 40
362.0
 40
362.0
 40
363.0
 40
363.0
 40
364.0
 40
364.0
 40
365.0
 40
365.0
 40
366.0
 40
366.0
 40
367.0
 40
367.0
 40
368.0
 40
368.0
 40
369.0
 40
369.0
 40
370.0
 40
370.0
 40
371.0
 40
371.0
 40
372.0
 40
372.0
 40
373.0
 40
373.0
 40
374.0
 40
374.0
 40
375.0
 40
375.0
 40
376.0
 40
376.0
 40
377.0
 40
377.0
 40
378.0
 40
378.0
 40
379.0
 40
379.0
 40
380.0
 40
380.0
 40
381.0
 40
381.0
 40
382.0
 40
382.0
 40
383.0
 40
383.0
 40
384.0
 40
384.0
 40
385.0
 40
385.0
 40
386.0
 40
386.0
 40
387.0
 40
387.0
 40
388.0
 40
388.0
 40
389.0
 40
389.0
 40
389.0
 10
928.46622018093501
 20
-1331.5595887666645
 30
0.0
 41
1.0
 10
929.28464428965549
 20
-1331.5595887666645
 30
0.0
 41
1.0
 10
930.10306839837597
 20
-1331.5595887666645
 30
0.0
 41
1.0
 10
929.68931466285926
 20
-1332.9022150309142
 30
0.0
 41
1.0
 10
929.27556092734244
 20
-1334.244841295164
 30
0.0
 41
1.0
 10
929.29390042252862
 20
-1334.2161405222241
 30
0.0
 41
0.9999957264437849
 10
929.31240741936097
 20
-1334.1875474720709
 30
0.0
 41
1.0
 10
929.34283674348831
 20
-1334.1405345937105
 30
0.0
 41
1.0
 10
929.37326606761576
 20
-1334.0935217153501
 30
0.0
 41
1.0
 10
929.45263171272029
 20
-1333.9709029084488
 30
0.0
 41
0.9995394069081475
 10
929.53929010427123
 20
-1333.8533248467086
 30
0.0
 41
1.0
 10
929.57504696653268
 20
-1333.8048099541127
 30
0.0
 41
1.0
 10
929.61080382879425
 20
-1333.7562950615168
 30
0.0
 41
1.0
 10
929.74453049661258
 20
-1333.5748547863898
 30
0.0
 41
0.9994460617143363
 10
929.89003097789941
 20
-1333.4027123887417
 30
0.0
 41
1.0
 10
929.8944191588738
 20
-1333.3975207083599
 30
0.0
 41
1.0
 10
929.89880733984819
 20
-1333.3923290279781
 30
0.0
 41
1.0
 10
930.0355314591867
 20
-1333.2305699910926
 30
0.0
 41
0.999435939493444
 10
930.18280568953878
 20
-1333.0783537899274
 30
0.0
 41
1.0
 10
930.18518904349094
 20
-1333.0758904595555
 30
0.0
 41
1.0
 10
930.1875723974432
 20
-1333.0734271291833
 30
0.0
 41
1.0
 10
930.33007991988757
 20
-1332.9261375887652
 30
0.0
 41
0.9995293688567359
 10
930.48135160087236
 20
-1332.7878643765985
 30
0.0
 41
1.0
 10
930.50064536013178
 20
-1332.770228490951
 30
0.0
 41
1.0
 10
930.5199391193911
 20
-1332.7525926053033
 30
0.0
 41
1.0
 10
930.6326232818501
 20
-1332.6495911644383
 30
0.0
 41
0.9997087614802901
 10
930.75014617080956
 20
-1332.5521468836366
 30
0.0
 41
1.0
 10
930.76931224399289
 20
-1332.5362553051223
 30
0.0
 41
1.0
 10
930.78847831717621
 20
-1332.5203637266079
 30
0.0
 41
1.0
 10
930.86766905977265
 20
-1332.4547026028322
 30
0.0
 41
0.9999595338700663
 10
930.94802833061976
 20
-1332.3904768721836
 30
0.0
 41
1.0
 10
931.02838760146096
 20
-1332.3262511415396
 30
0.0
 41
0.9999749417499604
 10
931.10964813580006
 20
-1332.2631695875966
 30
0.0
 41
1.0
 10
931.13063428197415
 20
-1332.246878300286
 30
0.0
 41
1.0
 10
931.15162042814814
 20
-1332.2305870129753
 30
0.0
 41
1.0
 10
931.23618831344834
 20
-1332.1649380031358
 30
0.0
 41
0.9999792037127885
 10
931.32159591322079
 20
-1332.1003852214899
 30
0.0
 41
1.0
 10
931.34242073917858
 20
-1332.0846453991971
 30
0.0
 41
1.0
 10
931.36324556513637
 20
-1332.0689055769044
 30
0.0
 41
1.0
 10
931.40700351303144
 20
-1332.0358324398151
 30
0.0
 41
0.99999933738646
 10
931.45068519913343
 20
-1332.0026586444221
 30
0.0
 41
1.0
 10
931.49436688528021
 20
-1331.9694848489955
 30
0.0
 41
0.9999160953814789
 10
931.5388932962037
 20
-1331.9374537837946
 30
0.0
 41
1.0
 10
931.57171518361952
 20
-1331.9138426282125
 30
0.0
 41
1.0
 10
931.60453707103522
 20
-1331.8902314726301
 30
0.0
 41
1.0
 10
931.71470725679308
 20
-1331.8109780962625
 30
0.0
 41
0.9980964527231158
 10
931.83379625029318
 20
-1331.7458906234069
 30
0.0
 41
1.0
 10
931.87082885722157
 20
-1331.7256506438137
 30
0.0
 41
1.0
 10
931.90786146414996
 20
-1331.7054106642204
 30
0.0
 41
1.0
 10
932.08718847742284
 20
-1331.6074004135189
 30
0.0
 41
0.9984572810572241
 10
932.27627704378256
 20
-1331.5298781521724
 30
0.0
 41
1.0
 10
932.27992331317864
 20
-1331.5283832598343
 30
0.0
 41
1.0
 10
932.28356958257461
 20
-1331.5268883674962
 30
0.0
 41
1.0
 10
932.46536561014148
 20
-1331.4523558908259
 30
0.0
 41
0.9987838528034103
 10
932.65361826870071
 20
-1331.3960902506601
 30
0.0
 41
1.0
 10
932.65785621789894
 20
-1331.3948235969701
 30
0.0
 41
1.0
 10
932.66209416709717
 20
-1331.3935569432799
 30
0.0
 41
1.0
 10
932.84187092725949
 20
-1331.3398246104944
 30
0.0
 41
0.9990652816207326
 10
933.02561685897581
 20
-1331.3018209309523
 30
0.0
 41
1.0
 10
933.03080526000599
 20
-1331.300747827846
 30
0.0
 41
1.0
 10
933.03599366103617
 20
-1331.2996747247398
 30
0.0
 41
1.0
 10
933.20936279069065
 20
-1331.2638172514105
 30
0.0
 41
0.9992909934269899
 10
933.38493855715001
 20
-1331.2411068189438
 30
0.0
 41
1.0
 10
933.56051432360778
 20
-1331.2183963864773
 30
0.0
 41
0.9994553539448254
 10
933.73720575670075
 20
-1331.2073170822709
 30
0.0
 41
1.0
 10
933.77264016449794
 20
-1331.2050951942231
 30
0.0
 41
1.0
 10
933.80807457229503
 20
-1331.2028733061752
 30
0.0
 41
1.0
 10
933.97430033886337
 20
-1331.1924502437637
 30
0.0
 41
0.9990928098293416
 10
934.14081013076475
 20
-1331.1962098849981
 30
0.0
 41
1.0
 10
934.17937196604066
 20
-1331.1970805765313
 30
0.0
 41
1.0
 10
934.21793380131658
 20
-1331.1979512680643
 30
0.0
 41
1.0
 10
934.30731992267147
 20
-1331.199969526233
 30
0.0
 41
0.9998382089205737
 10
934.39657560545356
 20
-1331.2052016527609
 30
0.0
 41
1.0
 10
934.39700551167016
 20
-1331.2052268536631
 30
0.0
 41
1.0
 10
934.39743541788675
 20
-1331.2052520545651
 30
0.0
 41
1.0
 10
934.48583128823645
 20
-1331.2104337792885
 30
0.0
 41
0.9997558016758257
 10
934.57391186544055
 20
-1331.2195162946555
 30
0.0
 41
1.0
 10
934.57438800387081
 20
-1331.2195653921381
 30
0.0
 41
1.0
 10
934.57486414230118
 20
-1331.2196144896207
 30
0.0
 41
1.0
 10
934.6619924426418
 20
-1331.2285988100218
 30
0.0
 41
0.9996565144181184
 10
934.74853029598353
 20
-1331.2421361167108
 30
0.0
 41
1.0
 10
934.74899622136218
 20
-1331.2422090024422
 30
0.0
 41
1.0
 10
934.74946214674071
 20
-1331.2422818881737
 30
0.0
 41
1.0
 10
934.8350681493265
 20
-1331.2556734234001
 30
0.0
 41
0.9995321806867711
 10
934.91969522965348
 20
-1331.2742739118291
 30
0.0
 41
1.0
 10
934.9200844242248
 20
-1331.2743594542949
 30
0.0
 41
1.0
 10
934.920473618796
 20
-1331.2744449967606
 30
0.0
 41
1.0
 10
935.00432230998081
 20
-1331.2928744002581
 30
0.0
 41
0.9993819199219598
 10
935.08666884417767
 20
-1331.3171497835192
 30
0.0
 41
1.0
 10
935.08690727767589
 20
-1331.3172200726285
 30
0.0
 41
1.0
 10
935.08714571117412
 20
-1331.3172903617381
 30
0.0
 41
1.0
 10
935.16901537837441
 20
-1331.3414251667798
 30
0.0
 41
0.9992088568505095
 10
935.24870789736212
 20
-1331.3719904025743
 30
0.0
 41
1.0
 10
935.32838888824119
 20
-1331.4025500033074
 30
0.0
 41
0.9990226101773326
 10
935.40505955814831
 20
-1331.4400274349218
 30
0.0
 41
1.0
 10
935.48171869994633
 20
-1331.4774992314751
 30
0.0
 41
0.9988424273971993
 10
935.55442232715825
 20
-1331.5221640067282
 30
0.0
 41
1.0
 10
935.55469003553776
 20
-1331.5223284708004
 30
0.0
 41
1.0
 10
935.55495774391738
 20
-1331.5224929348728
 30
0.0
 41
1.0
 10
935.62819678788856
 20
-1331.5674866382701
 30
0.0
 41
0.9986928844490367
 10
935.69645965459756
 20
-1331.6197223725494
 30
0.0
 41
1.0
 10
935.69704094682061
 20
-1331.6201671857775
 30
0.0
 41
1.0
 10
935.69762223904354
 20
-1331.6206119990056
 30
0.0
 41
1.0
 10
935.76704769019875
 20
-1331.6737373597409
 30
0.0
 41
0.9986007262278039
 10
935.83047385996542
 20
-1331.7338981294345
 30
0.0
 41
1.0
 10
935.83136827542273
 20
-1331.7347464972695
 30
0.0
 41
1.0
 10
935.83226269088004
 20
-1331.7355948651048
 30
0.0
 41
1.0
 10
935.89747769156111
 20
-1331.7974523704684
 30
0.0
 41
0.9985581491381174
 10
935.95568530326295
 20
-1331.8659448607402
 30
0.0
 41
1.0
 10
935.9649437568587
 20
-1331.876839218442
 30
0.0
 41
1.0
 10
935.97420221045445
 20
-1331.8877335761435
 30
0.0
 41
1.0
 10
936.05092672934757
 20
-1331.9780147818183
 30
0.0
 41
0.9970460233520706
 10
936.11291863050758
 20
-1332.0789818660007
 30
0.0
 41
1.0
 10
936.1273879955869
 20
-1332.1025483250817
 30
0.0
 41
1.0
 10
936.14185736066622
 20
-1332.1261147841626
 30
0.0
 41
1.0
 10
936.18159406067787
 20
-1332.1908345081933
 30
0.0
 41
0.9988468816636079
 10
936.21494043143002
 20
-1332.259066960622
 30
0.0
 41
1.0
 10
936.22197645392146
 20
-1332.2734638817592
 30
0.0
 41
1.0
 10
936.22901247641289
 20
-1332.2878608028966
 30
0.0
 41
1.0
 10
936.24828680218127
 20
-1332.3272994130491
 30
0.0
 41
0.9998431189998371
 10
936.26615212967658
 20
-1332.3673959674904
 30
0.0
 41
1.0
 10
936.28401745718929
 20
-1332.4074925219713
 30
0.0
 41
0.9999989989809329
 10
936.30199618060226
 20
-1332.4475383595345
 30
0.0
 41
1.0
 10
936.30816849219218
 20
-1332.4612865763374
 30
0.0
 41
1.0
 10
936.31434080378199
 20
-1332.4750347931404
 30
0.0
 41
1.0
 10
936.34466415039219
 20
-1332.542577064349
 30
0.0
 41
0.9998790356322177
 10
936.37287203053006
 20
-1332.6110298162857
 30
0.0
 41
1.0
 10
936.37970721181478
 20
-1332.627616917714
 30
0.0
 41
1.0
 10
936.38654239309949
 20
-1332.6442040191423
 30
0.0
 41
1.0
 10
936.41010005547946
 20
-1332.7013719740271
 30
0.0
 41
0.9998227574561709
 10
936.43148880386866
 20
-1332.7593862823041
 30
0.0
 41
1.0
 10
936.45287755225797
 20
-1332.8174005905821
 30
0.0
 41
0.9996797971041607
 10
936.47130383721742
 20
-1332.8764227097006
 30
0.0
 41
1.0
 10
936.47520763994282
 20
-1332.888927167869
 30
0.0
 41
1.0
 10
936.47911144266823
 20
-1332.9014316260377
 30
0.0
 41
1.0
 10
936.50534533307859
 20
-1332.985462661494
 30
0.0
 41
0.9979274938734378
 10
936.52056985655781
 20
-1333.0721670201542
 30
0.0
 41
1.0
 10
936.52279354381903
 20
-1333.0848310209753
 30
0.0
 41
1.0
 10
936.52501723108014
 20
-1333.0974950217962
 30
0.0
 41
1.0
 10
936.53594717077817
 20
-1333.1597415290846
 30
0.0
 41
0.9994985982137359
 10
936.54291533595529
 20
-1333.2225550302287
 30
0.0
 41
1.0
 10
936.54988350113217
 20
-1333.2853685313676
 30
0.0
 41
0.9996372611201133
 10
936.55345936689969
 20
-1333.3484661100474
 30
0.0
 41
1.0
 10
936.55362794438918
 20
-1333.3514407271323
 30
0.0
 41
1.0
 10
936.55379652187867
 20
-1333.3544153442172
 30
0.0
 41
1.0
 10
936.55770954262505
 20
-1333.4234621570624
 30
0.0
 41
0.9997730630736589
 10
936.55867785611315
 20
-1333.4926129811004
 30
0.0
 41
1.0
 10
936.55873496253116
 20
-1333.4966911602407
 30
0.0
 41
1.0
 10
936.55879206894929
 20
-1333.5007693393811
 30
0.0
 41
1.0
 10
936.55987459527341
 20
-1333.5780765217025
 30
0.0
 41
0.9998772614071877
 10
936.55853450854181
 20
-1333.6553796682626
 30
0.0
 41
1.0
 10
936.55844524534314
 20
-1333.660528832098
 30
0.0
 41
1.0
 10
936.55835598214435
 20
-1333.6656779959333
 30
0.0
 41
1.0
 10
936.55683736901483
 20
-1333.7532794701801
 30
0.0
 41
0.9999415567329401
 10
936.5534250587682
 20
-1333.8408276318676
 30
0.0
 41
1.0
 10
936.55318373809337
 20
-1333.8470190915923
 30
0.0
 41
1.0
 10
936.55294241741854
 20
-1333.8532105513173
 30
0.0
 41
1.0
 10
936.54904746582213
 20
-1333.9531416324644
 30
0.0
 41
0.9999716810424574
 10
936.54364888270379
 20
-1334.0530027706889
 30
0.0
 41
1.0
 10
936.54043608391476
 20
-1334.1124320203508
 30
0.0
 41
1.0
 10
936.53722328512572
 20
-1334.1718612700126
 30
0.0
 41
1.0
 10
936.52914937597325
 20
-1334.3212096712919
 30
0.0
 41
0.9999819129912402
 10
936.51927958435658
 20
-1334.4704501490028
 30
0.0
 41
1.0
 10
936.50940979274003
 20
-1334.6196906267141
 30
0.0
 41
1.0
 10
936.50697047217614
 20
-1334.6568836725635
 30
0.0
 41
1.0
 10
936.52966870597766
 20
-1334.6181426752837
 30
0.0
 41
0.9999982128138123
 10
936.55251326473888
 20
-1334.5794877813159
 30
0.0
 41
1.0
 10
936.57942282463557
 20
-1334.5339545672407
 30
0.0
 41
1.0
 10
936.60633238453227
 20
-1334.4884213531654
 30
0.0
 41
1.0
 10
936.68299606305766
 20
-1334.3587000310963
 30
0.0
 41
0.9998609190058776
 10
936.76394337592012
 20
-1334.2316076491661
 30
0.0
 41
1.0
 10
936.79359169739746
 20
-1334.1850579162156
 30
0.0
 41
1.0
 10
936.82324001887491
 20
-1334.138508183265
 30
0.0
 41
1.0
 10
936.90551223911666
 20
-1334.0093356132625
 30
0.0
 41
0.9999067609734309
 10
936.99128124858453
 20
-1333.8824579238158
 30
0.0
 41
1.0
 10
936.99368595178362
 20
-1333.8789006577636
 30
0.0
 41
1.0
 10
936.99609065498259
 20
-1333.8753433917116
 30
0.0
 41
1.0
 10
937.07705025804603
 20
-1333.7555802343779
 30
0.0
 41
0.9998784952151062
 10
937.1617038677299
 20
-1333.6383990176655
 30
0.0
 41
1.0
 10
937.24635747741138
 20
-1333.5212178009567
 30
0.0
 41
0.9998532968282021
 10
937.33497509823394
 20
-1333.4070048924864
 30
0.0
 41
1.0
 10
937.35493688722545
 20
-1333.3812775714659
 30
0.0
 41
1.0
 10
937.37489867621684
 20
-1333.3555502504453
 30
0.0
 41
1.0
 10
937.49338272597515
 20
-1333.2028446394775
 30
0.0
 41
0.9991551975795389
 10
937.62400717559854
 20
-1333.0603850773941
 30
0.0
 41
1.0
 10
937.62751679158032
 20
-1333.0565574757675
 30
0.0
 41
1.0
 10
937.6310264075621
 20
-1333.0527298741411
 30
0.0
 41
1.0
 10
937.75463162522396
 20
-1332.9179255153088
 30
0.0
 41
0.9997418144181918
 10
937.88423376492256
 20
-1332.7888761046981
 30
0.0
 41
1.0
 10
938.01383590462194
 20
-1332.6598266940866
 30
0.0
 41
0.9989238204632616
 10
938.15483845287292
 20
-1332.543341732048
 30
0.0
 41
1.0
 10
938.20008613101322
 20
-1332.5059617404386
 30
0.0
 41
1.0
 10
938.24533380915341
 20
-1332.4685817488294
 30
0.0
 41
1.0
 10
938.38557386637467
 20
-1332.3527266955384
 30
0.0
 41
0.9990825084096205
 10
938.5352137989787
 20
-1332.2492976977055
 30
0.0
 41
1.0
 10
938.54525916303533
 20
-1332.242354484626
 30
0.0
 41
1.0
 10
938.55530452709183
 20
-1332.2354112715468
 30
0.0
 41
1.0
 10
938.68485373158239
 20
-1332.1458686998726
 30
0.0
 41
0.9998164899826535
 10
938.81773793495893
 20
-1332.0613544583562
 30
0.0
 41
1.0
 10
938.82958349548289
 20
-1332.0538206918318
 30
0.0
 41
1.0
 10
938.84142905600697
 20
-1332.0462869253072
 30
0.0
 41
1.0
 10
938.95062213833342
 20
-1331.9768402168406
 30
0.0
 41
0.9997473449130012
 10
939.06282609558457
 20
-1331.912371259024
 30
0.0
 41
1.0
 10
939.17503005283083
 20
-1331.8479023012101
 30
0.0
 41
0.9999327861147441
 10
939.28869866359219
 20
-1331.7860523095296
 30
0.0
 41
1.0
 10
939.28925066615557
 20
-1331.7857519508491
 30
0.0
 41
1.0
 10
939.28980266871895
 20
-1331.7854515921686
 30
0.0
 41
1.0
 10
939.40457528460547
 20
-1331.7230008831282
 30
0.0
 41
0.9996956420484263
 10
939.52228861044728
 20
-1331.6662874161525
 30
0.0
 41
1.0
 10
939.55272901534136
 20
-1331.6516214394219
 30
0.0
 41
1.0
 10
939.58316942023532
 20
-1331.6369554626913
 30
0.0
 41
1.0
 10
939.68614652697624
 20
-1331.5873418042493
 30
0.0
 41
0.9998070570176001
 10
939.79099291591422
 20
-1331.5418112173497
 30
0.0
 41
1.0
 10
939.89583930485628
 20
-1331.4962806304482
 30
0.0
 41
0.9997827436146646
 10
940.00249224146501
 20
-1331.4551594591369
 30
0.0
 41
1.0
 10
940.02171509109644
 20
-1331.4477478855044
 30
0.0
 41
1.0
 10
940.04093794072787
 20
-1331.440336311872
 30
0.0
 41
1.0
 10
940.18603657660117
 20
-1331.3843919932951
 30
0.0
 41
0.9988031841976629
 10
940.33590693920553
 20
-1331.3428919291275
 30
0.0
 41
1.0
 10
940.36082418757019
 20
-1331.3359921833203
 30
0.0
 41
1.0
 10
940.38574143593485
 20
-1331.3290924375128
 30
0.0
 41
1.0
 10
940.55301146158047
 20
-1331.2827742951067
 30
0.0
 41
0.9984748040550434
 10
940.72436837022781
 20
-1331.2551800628421
 30
0.0
 41
1.0
 10
940.72910750647588
 20
-1331.2544169023288
 30
0.0
 41
1.0
 10
940.73384664272396
 20
-1331.2536537418155
 30
0.0
 41
1.0
 10
940.89572527887606
 20
-1331.2275858305773
 30
0.0
 41
0.9984436495479946
 10
941.05950002260147
 20
-1331.2197078767585
 30
0.0
 41
1.0
 10
941.08119723073287
 20
-1331.2186641895589
 30
0.0
 41
1.0
 10
941.10289443886427
 20
-1331.2176205023593
 30
0.0
 41
1.0
 10
941.22327476632631
 20
-1331.2118299229398
 30
0.0
 41
0.9987954789335195
 10
941.34364301123605
 20
-1331.2178664506821
 30
0.0
 41
1.0
 10
941.36360780373388
 20
-1331.2188676950209
 30
0.0
 41
1.0
 10
941.38357259623183
 20
-1331.2198689393597
 30
0.0
 41
1.0
 10
941.46401125614943
 20
-1331.2239029784248
 30
0.0
 41
0.9997941595878424
 10
941.54422003424031
 20
-1331.2311970443454
 30
0.0
 41
1.0
 10
941.62442881233005
 20
-1331.2384911102658
 30
0.0
 41
0.9998589466238539
 10
941.70434735918013
 20
-1331.2484749647156
 30
0.0
 41
1.0
 10
941.73675356099318
 20
-1331.2525233216352
 30
0.0
 41
1.0
 10
941.76915976280623
 20
-1331.256571678555
 30
0.0
 41
1.0
 10
941.91389071327853
 20
-1331.2746522468437
 30
0.0
 41
0.9993495063249421
 10
942.05694195704484
 20
-1331.3031179565855
 30
0.0
 41
1.0
 10
942.08987565419739
 20
-1331.3096714198005
 30
0.0
 41
1.0
 10
942.12280935135004
 20
-1331.3162248830154
 30
0.0
 41
1.0
 10
942.23210317455391
 20
-1331.3379732171506
 30
0.0
 41
0.9996788715561104
 10
942.34015474650835
 20
-1331.3652310165132
 30
0.0
 41
1.0
 10
942.34221774904677
 20
-1331.3657514430861
 30
0.0
 41
1.0
 10
942.3442807515853
 20
-1331.3662718696589
 30
0.0
 41
1.0
 10
942.44820631846449
 20
-1331.3924888158763
 30
0.0
 41
0.9995480654491926
 10
942.55036855369417
 20
-1331.4249037725008
 30
0.0
 41
1.0
 10
942.5520581958225
 20
-1331.4254398774146
 30
0.0
 41
1.0
 10
942.55374783795082
 20
-1331.4259759823283
 30
0.0
 41
1.0
 10
942.65253078892238
 20
-1331.4573187291246
 30
0.0
 41
0.9993867959455757
 10
942.74887794736617
 20
-1331.4954980984148
 30
0.0
 41
1.0
 10
942.75012089645179
 20
-1331.4959906403114
 30
0.0
 41
1.0
 10
942.75136384553741
 20
-1331.4964831822081
 30
0.0
 41
1.0
 10
942.84522510580871
 20
-1331.5336774677046
 30
0.0
 41
0.9992050256521917
 10
942.93582478084204
 20
-1331.5782313669433
 30
0.0
 41
1.0
 10
942.93655946355466
 20
-1331.5785926594042
 30
0.0
 41
1.0
 10
942.93729414626728
 20
-1331.5789539518651
 30
0.0
 41
1.0
 10
943.02642445587537
 20
-1331.6227852661821
 30
0.0
 41
0.9990222350741678
 10
943.11133451726914
 20
-1331.6743185338805
 30
0.0
 41
1.0
 10
943.11151840255184
 20
-1331.6744301367853
 30
0.0
 41
1.0
 10
943.11170228783453
 20
-1331.6745417396901
 30
0.0
 41
1.0
 10
943.19624457866291
 20
-1331.7258518015788
 30
0.0
 41
0.9988642743805036
 10
943.27551911328169
 20
-1331.7849759891039
 30
0.0
 41
1.0
 10
943.35479364790035
 20
-1331.8441001766289
 30
0.0
 41
0.9987681233311251
 10
943.42781743217688
 20
-1331.9107908680298
 30
0.0
 41
1.0
 10
943.4281463601427
 20
-1331.911091269244
 30
0.0
 41
1.0
 10
943.42847528810853
 20
-1331.9113916704582
 30
0.0
 41
1.0
 10
943.50215692831648
 20
-1331.9786831642878
 30
0.0
 41
0.9987496570899219
 10
943.56875073364404
 20
-1332.0529959783748
 30
0.0
 41
1.0
 10
943.56952290340416
 20
-1332.0538576517324
 30
0.0
 41
1.0
 10
943.57029507316429
 20
-1332.05471932509
 30
0.0
 41
1.0
 10
943.63843321801278
 20
-1332.1307554858929
 30
0.0
 41
0.9988147669827443
 10
943.69885547223771
 20
-1332.2130564927354
 30
0.0
 41
1.0
 10
943.69997479831522
 20
-1332.2145811240875
 30
0.0
 41
1.0
 10
943.70109412439285
 20
-1332.2161057554399
 30
0.0
 41
1.0
 10
943.76375503077327
 20
-1332.3014560249874
 30
0.0
 41
0.9989452636216167
 10
943.81832194373476
 20
-1332.3921947141453
 30
0.0
 41
1.0
 10
943.81967066982043
 20
-1332.3944374951714
 30
0.0
 41
1.0
 10
943.82101939590598
 20
-1332.3966802761975
 30
0.0
 41
1.0
 10
943.87828376103812
 20
-1332.4919045274066
 30
0.0
 41
0.9991046436070492
 10
943.92729297436028
 20
-1332.5916289604331
 30
0.0
 41
1.0
 10
943.92875683595025
 20
-1332.5946076405057
 30
0.0
 41
1.0
 10
943.93022069754034
 20
-1332.5975863205781
 30
0.0
 41
1.0
 10
943.98215763404232
 20
-1332.7032681137493
 30
0.0
 41
0.999276383110096
 10
944.02591076259773
 20
-1332.812592175706
 30
0.0
 41
1.0
 10
944.02739003226077
 20
-1332.816288363239
 30
0.0
 41
1.0
 10
944.02886930192381
 20
-1332.8199845507718
 30
0.0
 41
1.0
 10
944.07558096980597
 20
-1332.936700987796
 30
0.0
 41
0.9994163472883619
 10
944.11421400099607
 20
-1333.0563345762616
 30
0.0
 41
1.0
 10
944.11545215324213
 20
-1333.0601687200419
 30
0.0
 41
1.0
 10
944.11669030548808
 20
-1333.064002863822
 30
0.0
 41
1.0
 10
944.15657386650514
 20
-1333.1875089252994
 30
0.0
 41
0.9997268055890334
 10
944.19064192241808
 20
-1333.3127439572536
 30
0.0
 41
1.0
 10
944.19157210268781
 20
-1333.3161633233631
 30
0.0
 41
1.0
 10
944.19250228295766
 20
-1333.3195826894728
 30
0.0
 41
1.0
 10
944.22470997833068
 20
-1333.4379789892068
 30
0.0
 41
0.9996701319000464
 10
944.2507955951005
 20
-1333.5578729424678
 30
0.0
 41
1.0
 10
944.27688121187043
 20
-1333.6777668957275
 30
0.0
 41
0.9995785451108928
 10
944.29596478921019
 20
-1333.7989726567594
 30
0.0
 41
1.0
 10
944.30018457138431
 20
-1333.8257738115271
 30
0.0
 41
1.0
 10
944.30440435355843
 20
-1333.8525749662947
 30
0.0
 41
1.0
 10
944.33097932949693
 20
-1334.0213609399968
 30
0.0
 41
0.99799251012163
 10
944.33600491542313
 20
-1334.1921522680875
 30
0.0
 41
1.0
 10
944.33682972784777
 20
-1334.2201829915675
 30
0.0
 41
1.0
 10
944.33765454027241
 20
-1334.2482137150473
 30
0.0
 41
1.0
 10
944.34103050134968
 20
-1334.3629435961773
 30
0.0
 41
0.9995314902263183
 10
944.33738030921097
 20
-1334.4776650799313
 30
0.0
 41
1.0
 10
944.33373011707272
 20
-1334.5923865636817
 30
0.0
 41
0.9996245486943417
 10
944.3238010219419
 20
-1334.7067358348045
 30
0.0
 41
1.0
 10
944.3236379739476
 20
-1334.708613590941
 30
0.0
 41
1.0
 10
944.32347492595318
 20
-1334.7104913470776
 30
0.0
 41
1.0
 10
944.31321973483387
 20
-1334.8285961304719
 30
0.0
 41
0.9997286095001413
 10
944.29747441126256
 20
-1334.9460950393652
 30
0.0
 41
1.0
 10
944.2970809186121
 20
-1334.949031464068
 30
0.0
 41
1.0
 10
944.29668742596164
 20
-1334.9519678887705
 30
0.0
 41
1.0
 10
944.2801551170885
 20
-1335.075339647075
 30
0.0
 41
0.9998265533968711
 10
944.25903965835585
 20
-1335.198010121863
 30
0.0
 41
1.0
 10
944.25836311621924
 20
-1335.2019405003675
 30
0.0
 41
1.0
 10
944.25768657408253
 20
-1335.2058708788722
 30
0.0
 41
1.0
 10
944.23521803107644
 20
-1335.3364021106715
 30
0.0
 41
0.9999022530852335
 10
944.20910856646765
 20
-1335.4662540793045
 30
0.0
 41
1.0
 10
944.20812992530136
 20
-1335.4711212216966
 30
0.0
 41
1.0
 10
944.20715128413497
 20
-1335.4759883640888
 30
0.0
 41
1.0
 10
944.17908453719269
 20
-1335.6155746175091
 30
0.0
 41
0.9999524761941661
 10
944.1483015683591
 20
-1335.7545871106686
 30
0.0
 41
1.0
 10
944.14702546118383
 20
-1335.76034986997
 30
0.0
 41
1.0
 10
944.14574935400856
 20
-1335.7661126292714
 30
0.0
 41
1.0
 10
944.11241417082192
 20
-1335.9166506410443
 30
0.0
 41
0.9999813588724293
 10
944.07724317002499
 20
-1336.0667703537056
 30
0.0
 41
1.0
 10
944.0756892445695
 20
-1336.0734029441232
 30
0.0
 41
1.0
 10
944.07413531911402
 20
-1336.0800355345411
 30
0.0
 41
1.0
 10
944.03585646739975
 20
-1336.2434204280644
 30
0.0
 41
0.999995523771087
 10
943.99660058941299
 20
-1336.4065733316968
 30
0.0
 41
1.0
 10
943.9843189537844
 20
-1336.4576175221955
 30
0.0
 41
1.0
 10
943.9720373181558
 20
-1336.5086617126944
 30
0.0
 41
1.0
 10
943.90821816890389
 20
-1336.7739029973577
 30
0.0
 41
0.9999993604436523
 10
943.84379922172729
 20
-1337.0389992480775
 30
0.0
 41
1.0
 10
943.83908038618597
 20
-1337.0584181560948
 30
0.0
 41
1.0
 10
943.83436155064453
 20
-1337.0778370641119
 30
0.0
 41
1.0
 10
943.76050493238472
 20
-1337.3817711308689
 30
0.0
 41
0.9999659914722971
 10
943.68164533650008
 20
-1337.6844456774254
 30
0.0
 41
1.0
 10
943.67669264756887
 20
-1337.7034548146103
 30
0.0
 41
1.0
 10
943.67173995863754
 20
-1337.7224639517949
 30
0.0
 41
1.0
 10
943.58297498489287
 20
-1338.0631567727112
 30
0.0
 41
0.9999441976025785
 10
943.48703195192934
 20
-1338.4018981980105
 30
0.0
 41
1.0
 10
943.47033143350347
 20
-1338.4608619105393
 30
0.0
 41
1.0
 10
943.45363091507761
 20
-1338.5198256230683
 30
0.0
 41
1.0
 10
943.32428684526201
 20
-1338.9764944734256
 30
0.0
 41
0.999962512073571
 10
943.18705407793777
 20
-1339.4308550074245
 30
0.0
 41
1.0
 10
943.1512641348545
 20
-1339.549351034053
 30
0.0
 41
1.0
 10
943.11547419177111
 20
-1339.6678470606812
 30
0.0
 41
1.0
 10
943.04095398772915
 20
-1339.9145741387856
 30
0.0
 41
0.9999793386314427
 10
942.96326796459493
 20
-1340.1603227780111
 30
0.0
 41
1.0
 10
942.88558194145742
 20
-1340.4060714172472
 30
0.0
 41
1.0
 10
942.87480238258672
 20
-1340.4400893216218
 30
0.0
 41
1.0
 10
941.02442932931763
 20
-1346.3271612440894
 30
0.0
 41
1.0
 10
939.17405627604842
 20
-1352.2142331665568
 30
0.0
 41
1.0
 10
938.21279958602486
 20
-1352.2142331665568
 30
0.0
 41
1.0
 10
937.2515428960013
 20
-1352.2142331665568
 30
0.0
 41
1.0
 10
938.87048767467968
 20
-1347.0662046647674
 30
0.0
 41
1.0
 10
940.48943245335818
 20
-1341.9181761629779
 30
0.0
 41
1.0
 10
940.5345982765316
 20
-1341.774144940711
 30
0.0
 41
1.0
 10
940.5797640997049
 20
-1341.6301137184441
 30
0.0
 41
1.0
 10
940.75006851706462
 20
-1341.0870226892916
 30
0.0
 41
0.9999911657928613
 10
940.91580132874969
 20
-1340.542519157912
 30
0.0
 41
1.0
 10
940.94549727224239
 20
-1340.4449552178871
 30
0.0
 41
1.0
 10
940.97519321573509
 20
-1340.347391277862
 30
0.0
 41
1.0
 10
941.08153414042113
 20
-1339.9980156265774
 30
0.0
 41
0.9999952428180199
 10
941.18571772975497
 20
-1339.6479906021987
 30
0.0
 41
1.0
 10
941.19077720009295
 20
-1339.630992327905
 30
0.0
 41
1.0
 10
941.19583667043094
 20
-1339.6139940536111
 30
0.0
 41
1.0
 10
941.28990131908699
 20
-1339.2979655778254
 30
0.0
 41
0.9999931687541175
 10
941.38162715695353
 20
-1338.9812503645787
 30
0.0
 41
1.0
 10
941.38656242140746
 20
-1338.9642096553271
 30
0.0
 41
1.0
 10
941.3914976858614
 20
-1338.9471689460754
 30
0.0
 41
1.0
 10
941.47335299481892
 20
-1338.6645351513371
 30
0.0
 41
0.9999893840809202
 10
941.55260022128402
 20
-1338.3811590220616
 30
0.0
 41
1.0
 10
941.63184744774526
 20
-1338.0977828927998
 30
0.0
 41
0.9999833980075817
 10
941.70782368848893
 20
-1337.8135123097629
 30
0.0
 41
1.0
 10
941.71682762520663
 20
-1337.7798234313018
 30
0.0
 41
1.0
 10
941.72583156192434
 20
-1337.7461345528404
 30
0.0
 41
1.0
 10
941.79479611079228
 20
-1337.4880987205374
 30
0.0
 41
0.9999233658066243
 10
941.85735108201436
 20
-1337.2284345618086
 30
0.0
 41
1.0
 10
941.91990605323463
 20
-1336.9687704030862
 30
0.0
 41
1.0
 10
941.9593894720922
 20
-1336.80496373866
 30
0.0
 41
1.0
 10
941.96436807607176
 20
-1336.7843087767801
 30
0.0
 41
1.0
 10
941.96934668005133
 20
-1336.7636538149002
 30
0.0
 41
1.0
 10
941.99887289095022
 20
-1336.6411570742321
 30
0.0
 41
0.9999868670873104
 10
942.02714197494595
 20
-1336.5183641285885
 30
0.0
 41
1.0
 10
942.0310394621049
 20
-1336.5014345411664
 30
0.0
 41
1.0
 10
942.03493694926374
 20
-1336.4845049537444
 30
0.0
 41
1.0
 10
942.0554110589427
 20
-1336.3955711829408
 30
0.0
 41
0.9999778173355
 10
942.07469865705752
 20
-1336.3063725657125
 30
0.0
 41
1.0
 10
942.09398625517235
 20
-1336.2171739484857
 30
0.0
 41
0.9999602692859023
 10
942.1116806138034
 20
-1336.1276456600576
 30
0.0
 41
1.0
 10
942.11488444588122
 20
-1336.1114352051709
 30
0.0
 41
1.0
 10
942.11808827795903
 20
-1336.0952247502844
 30
0.0
 41
1.0
 10
942.14219030074537
 20
-1335.9732755520854
 30
0.0
 41
0.999561798532039
 10
942.15903364796361
 20
-1335.8501138043821
 30
0.0
 41
1.0
 10
942.1614981378699
 20
-1335.8320929870156
 30
0.0
 41
1.0
 10
942.16396262777619
 20
-1335.8140721696491
 30
0.0
 41
1.0
 10
942.18424588882442
 20
-1335.6657571199498
 30
0.0
 41
0.999112141063934
 10
942.19197124241282
 20
-1335.5162610211419
 30
0.0
 41
1.0
 10
942.19289003243739
 20
-1335.4984811845652
 30
0.0
 41
1.0
 10
942.19380882246196
 20
-1335.4807013479885
 30
0.0
 41
1.0
 10
942.1996965960011
 20
-1335.3667649223353
 30
0.0
 41
0.9989792494905365
 10
942.19527750388374
 20
-1335.2527620864375
 30
0.0
 41
1.0
 10
942.19462953201514
 20
-1335.2360458405128
 30
0.0
 41
1.0
 10
942.19398156014665
 20
-1335.2193295945883
 30
0.0
 41
1.0
 10
942.1908584117665
 20
-1335.1387592505389
 30
0.0
 41
0.9997820295393077
 10
942.18437441439073
 20
-1335.058389528795
 30
0.0
 41
1.0
 10
942.17789041701496
 20
-1334.9780198070489
 30
0.0
 41
0.9998335105973706
 10
942.16847822150351
 20
-1334.8979401906029
 30
0.0
 41
1.0
 10
942.16688329682711
 20
-1334.884370460119
 30
0.0
 41
1.0
 10
942.1652883721506
 20
-1334.870800729635
 30
0.0
 41
1.0
 10
942.15268632728635
 20
-1334.7635816522186
 30
0.0
 41
0.9996876457878602
 10
942.13474241448785
 20
-1334.6571262245027
 30
0.0
 41
1.0
 10
942.13251075134235
 20
-1334.6438864892598
 30
0.0
 41
1.0
 10
942.13027908819686
 20
-1334.6306467540167
 30
0.0
 41
1.0
 10
942.11648326677619
 20
-1334.5488006100593
 30
0.0
 41
0.9995547496493922
 10
942.09782994488364
 20
-1334.4679231128696
 30
0.0
 41
1.0
 10
942.09745598801248
 20
-1334.4663017021649
 30
0.0
 41
1.0
 10
942.09708203114133
 20
-1334.4646802914599
 30
0.0
 41
1.0
 10
942.0791766229911
 20
-1334.3870456156792
 30
0.0
 41
0.9994899427175263
 10
942.05635171431163
 20
-1334.3107123328441
 30
0.0
 41
1.0
 10
942.0558931875712
 20
-1334.3091788830566
 30
0.0
 41
1.0
 10
942.05543466083077
 20
-1334.3076454332693
 30
0.0
 41
1.0
 10
942.03352680563285
 20
-1334.2343790500111
 30
0.0
 41
0.9993784877590384
 10
942.00651117052576
 20
-1334.1628383448506
 30
0.0
 41
1.0
 10
942.00597947954907
 20
-1334.1614303621307
 30
0.0
 41
1.0
 10
942.00544778857238
 20
-1334.1600223794107
 30
0.0
 41
1.0
 10
941.97949553541923
 20
-1334.0912976396917
 30
0.0
 41
0.9992430832254489
 10
941.94827900025984
 20
-1334.0247984876232
 30
0.0
 41
1.0
 10
941.94769688420354
 20
-1334.0235584325064
 30
0.0
 41
1.0
 10
941.94711476814723
 20
-1334.0223183773899
 30
0.0
 41
1.0
 10
941.91706246510091
 20
-1333.9582993355557
 30
0.0
 41
0.9990789632798277
 10
941.88163183832376
 20
-1333.8970927238054
 30
0.0
 41
1.0
 10
941.88103613214162
 20
-1333.8960636379461
 30
0.0
 41
1.0
 10
941.88044042595959
 20
-1333.8950345520866
 30
0.0
 41
1.0
 10
941.84620121154614
 20
-1333.8358861120541
 30
0.0
 41
0.9988874801120753
 10
941.80654193551504
 20
-1333.7802263996377
 30
0.0
 41
1.0
 10
941.80598640945141
 20
-1333.7794467479639
 30
0.0
 41
1.0
 10
941.80543088338777
 20
-1333.7786670962901
 30
0.0
 41
1.0
 10
941.7668826594836
 20
-1333.7245666872209
 30
0.0
 41
0.998676206069346
 10
941.72298018820675
 20
-1333.674712972781
 30
0.0
 41
1.0
 10
941.72253622787446
 20
-1333.6742088309643
 30
0.0
 41
1.0
 10
941.72209226754217
 20
-1333.6737046891476
 30
0.0
 41
1.0
 10
941.67907771693046
 20
-1333.6248592583415
 30
0.0
 41
0.9984621642488111
 10
941.63092016015275
 20
-1333.5810759578706
 30
0.0
 41
1.0
 10
941.63067352563621
 20
-1333.5808517257071
 30
0.0
 41
1.0
 10
941.63042689111978
 20
-1333.5806274935437
 30
0.0
 41
1.0
 10
941.58276260337459
 20
-1333.5372926573991
 30
0.0
 41
0.9982724693851903
 10
941.53034397153351
 20
-1333.4998483068816
 30
0.0
 41
1.0
 10
941.47792533969255
 20
-1333.4624039563644
 30
0.0
 41
0.9981399180159213
 10
941.42133927629868
 20
-1333.4316174369205
 30
0.0
 41
1.0
 10
941.4212936142203
 20
-1333.4315925937635
 30
0.0
 41
1.0
 10
941.42124795214181
 20
-1333.4315677506063
 30
0.0
 41
1.0
 10
941.36457056459176
 20
-1333.4007315448487
 30
0.0
 41
0.998092708683654
 10
941.30452521352493
 20
-1333.377114735996
 30
0.0
 41
1.0
 10
941.3040850438133
 20
-1333.3769416101209
 30
0.0
 41
1.0
 10
941.30364487410179
 20
-1333.376768484246
 30
0.0
 41
1.0
 10
941.24271918361273
 20
-1333.3528054236438
 30
0.0
 41
0.9981411356561984
 10
941.17933066221394
 20
-1333.3364327821382
 30
0.0
 41
1.0
 10
941.17844854551186
 20
-1333.3362049399325
 30
0.0
 41
1.0
 10
941.17756642880977
 20
-1333.335977097727
 30
0.0
 41
1.0
 10
941.11241367400714
 20
-1333.3191487718104
 30
0.0
 41
0.9983031812934762
 10
941.04574624501197
 20
-1333.3100094106342
 30
0.0
 41
1.0
 10
941.03687521960899
 20
-1333.308793291963
 30
0.0
 41
1.0
 10
941.02800419420601
 20
-1333.3075771732917
 30
0.0
 41
1.0
 10
940.97365455170143
 20
-1333.3001264433005
 30
0.0
 41
0.9983887708262891
 10
940.918810702408
 20
-1333.2988817696673
 30
0.0
 41
1.0
 10
940.91074729719207
 20
-1333.2986987717925
 30
0.0
 41
1.0
 10
940.90268389197615
 20
-1333.2985157739176
 30
0.0
 41
1.0
 10
940.86396685311672
 20
-1333.2976370960339
 30
0.0
 41
0.999886956307942
 10
940.8252408999125
 20
-1333.2979229653936
 30
0.0
 41
1.0
 10
940.78651494670066
 20
-1333.2982088347533
 30
0.0
 41
0.9999972320115298
 10
940.74779076748052
 20
-1333.2986769342826
 30
0.0
 41
1.0
 10
940.72843775090973
 20
-1333.2989108743718
 30
0.0
 41
1.0
 10
940.70908473433906
 20
-1333.2991448144612
 30
0.0
 41
1.0
 10
940.63165452196881
 20
-1333.3000807941689
 30
0.0
 41
0.9997304945086473
 10
940.55435121573169
 20
-1333.3046098879549
 30
0.0
 41
1.0
 10
940.54530157402701
 20
-1333.3051400939448
 30
0.0
 41
1.0
 10
940.53625193232222
 20
-1333.3056702999347
 30
0.0
 41
1.0
 10
940.4408493426771
 20
-1333.3112598057007
 30
0.0
 41
0.9997888306415468
 10
940.34575700683592
 20
-1333.3207647701897
 30
0.0
 41
1.0
 10
940.33703594526196
 20
-1333.321636484822
 30
0.0
 41
1.0
 10
940.32831488368799
 20
-1333.3225081994542
 30
0.0
 41
1.0
 10
940.2157804246998
 20
-1333.3337565932075
 30
0.0
 41
0.9984170238190331
 10
940.10522127734839
 20
-1333.3575726751433
 30
0.0
 41
1.0
 10
940.06884014636353
 20
-1333.3654097109491
 30
0.0
 41
1.0
 10
940.03245901537855
 20
-1333.3732467467548
 30
0.0
 41
1.0
 10
939.91726794695592
 20
-1333.3980606132648
 30
0.0
 41
0.9976592854199312
 10
939.8065397805492
 20
-1333.4383592904123
 30
0.0
 41
1.0
 10
939.69581161414521
 20
-1333.478657967559
 30
0.0
 41
0.9993255074351833
 10
939.58833981535554
 20
-1333.526974866051
 30
0.0
 41
1.0
 10
939.58371463643118
 20
-1333.5290542422513
 30
0.0
 41
1.0
 10
939.57908945750683
 20
-1333.5311336184513
 30
0.0
 41
1.0
 10
939.4623673008698
 20
-1333.583609269343
 30
0.0
 41
0.9976475078275062
 10
939.35391995655982
 20
-1333.651557259001
 30
0.0
 41
1.0
 10
939.33557756242669
 20
-1333.6630497378146
 30
0.0
 41
1.0
 10
939.31723516829356
 20
-1333.674542216628
 30
0.0
 41
1.0
 10
939.2330329767409
 20
-1333.7272993373967
 30
0.0
 41
0.9995131336407186
 10
939.15228526177987
 20
-1333.7852055493522
 30
0.0
 41
1.0
 10
939.07153754681985
 20
-1333.8431117613072
 30
0.0
 41
0.9995810107605906
 10
938.99427589908692
 20
-1333.9055934437768
 30
0.0
 41
1.0
 10
938.99130586788021
 20
-1333.9079953152386
 30
0.0
 41
1.0
 10
938.98833583667351
 20
-1333.9103971867003
 30
0.0
 41
1.0
 10
938.90513412652319
 20
-1333.9776826120965
 30
0.0
 41
0.999661783795433
 10
938.82554343938591
 20
-1334.0492030676583
 30
0.0
 41
1.0
 10
938.81341268850758
 20
-1334.0601038006503
 30
0.0
 41
1.0
 10
938.80128193762926
 20
-1334.0710045336421
 30
0.0
 41
1.0
 10
938.73300641023445
 20
-1334.132357149113
 30
0.0
 41
0.9997267750052825
 10
938.66767290195412
 20
-1334.1968336856353
 30
0.0
 41
1.0
 10
938.60233939368277
 20
-1334.2613102221483
 30
0.0
 41
0.9999667288961543
 10
938.53806645054067
 20
-1334.3268440290378
 30
0.0
 41
1.0
 10
938.46923900275715
 20
-1334.3970216878047
 30
0.0
 41
1.0
 10
938.40041155497352
 20
-1334.4671993465713
 30
0.0
 41
1.0
 10
938.19848371627575
 20
-1334.6730884709832
 30
0.0
 41
0.9988205335174843
 10
938.01747809929543
 20
-1334.8975927030451
 30
0.0
 41
1.0
 10
937.98683813439163
 20
-1334.9355959534739
 30
0.0
 41
1.0
 10
937.95619816948783
 20
-1334.9735992039027
 30
0.0
 41
1.0
 10
937.71391262270117
 20
-1335.2741099368202
 30
0.0
 41
0.9997077826755064
 10
937.48643467159832
 20
-1335.5859797310331
 30
0.0
 41
1.0
 10
937.48471125646552
 20
-1335.5883425144159
 30
0.0
 41
1.0
 10
937.48298784133272
 20
-1335.5907052977986
 30
0.0
 41
1.0
 10
937.25206305996835
 20
-1335.9073006587716
 30
0.0
 41
0.9989147567079061
 10
937.05159955708439
 20
-1336.2440101199566
 30
0.0
 41
1.0
 10
937.02685841177504
 20
-1336.2855667005128
 30
0.0
 41
1.0
 10
937.0021172664658
 20
-1336.3271232810694
 30
0.0
 41
1.0
 10
936.84690596782991
 20
-1336.5878246655197
 30
0.0
 41
0.9997476598181139
 10
936.70356098032221
 20
-1336.855234414099
 30
0.0
 41
1.0
 10
936.56021599281223
 20
-1337.122644162682
 30
0.0
 41
0.999625896710959
 10
936.43170774088026
 20
-1337.3974920993069
 30
0.0
 41
1.0
 10
936.41850783143013
 20
-1337.4257234994034
 30
0.0
 41
1.0
 10
936.40530792198012
 20
-1337.4539548994996
 30
0.0
 41
1.0
 10
936.2650992009826
 20
-1337.753827297448
 30
0.0
 41
0.9998735413947444
 10
936.1344978542611
 20
-1338.058006896918
 30
0.0
 41
1.0
 10
936.13105502619851
 20
-1338.0660254823874
 30
0.0
 41
1.0
 10
936.12761219813592
 20
-1338.0740440678569
 30
0.0
 41
1.0
 10
936.00389650753914
 20
-1338.3621864963893
 30
0.0
 41
0.9999377418855929
 10
935.88664170536595
 20
-1338.6530179640604
 30
0.0
 41
1.0
 10
935.76938690319298
 20
-1338.943849431731
 30
0.0
 41
0.9999508299501051
 10
935.65792295981521
 20
-1339.2369491085535
 30
0.0
 41
1.0
 10
935.65484219115183
 20
-1339.2450501345197
 30
0.0
 41
1.0
 10
935.65176142248856
 20
-1339.2531511604857
 30
0.0
 41
1.0
 10
935.53413594178369
 20
-1339.5624528892413
 30
0.0
 41
0.9999609228431156
 10
935.42199733890652
 20
-1339.873785905266
 30
0.0
 41
1.0
 10
935.41904132855973
 20
-1339.8819927456675
 30
0.0
 41
1.0
 10
935.41608531821294
 20
-1339.8901995860692
 30
0.0
 41
1.0
 10
935.29803469464309
 20
-1340.217946282894
 30
0.0
 41
0.9999674607402036
 10
935.1852871685727
 20
-1340.5475549028952
 30
0.0
 41
1.0
 10
935.13388877800867
 20
-1340.6978140985916
 30
0.0
 41
1.0
 10
935.08249038744464
 20
-1340.8480732942878
 30
0.0
 41
1.0
 10
934.96647978068609
 20
-1341.1872212767926
 30
0.0
 41
0.9999287532305291
 10
934.85859837671796
 20
-1341.5290420157612
 30
0.0
 41
1.0
 10
934.81212112058756
 20
-1341.6763045601042
 30
0.0
 41
1.0
 10
934.76564386445727
 20
-1341.8235671044472
 30
0.0
 41
1.0
 10
934.75071697272415
 20
-1341.8708627548103
 30
0.0
 41
0.9999998223624268
 10
934.73584646401673
 20
-1341.9181761629779
 30
0.0
 41
1.0
 10
933.11519032722128
 20
-1347.0662046647674
 30
0.0
 41
1.0
 10
931.49453419042584
 20
-1352.2142331665568
 30
0.0
 41
1.0
 10
930.58922574653491
 20
-1352.2142331665568
 30
0.0
 41
1.0
 10
929.68391730264398
 20
-1352.2142331665568
 30
0.0
 41
1.0
 10
931.53600171403002
 20
-1346.3271612440894
 30
0.0
 41
1.0
 10
933.38808612541607
 20
-1340.4400893216218
 30
0.0
 41
1.0
 10
933.39820788371878
 20
-1340.4080461081721
 30
0.0
 41
1.0
 10
933.47081555256852
 20
-1340.1777465663463
 30
0.0
 41
1.0
 10
933.54342322142065
 20
-1339.9474470245132
 30
0.0
 41
0.9999825681963954
 10
933.6133062606342
 20
-1339.7163061294407
 30
0.0
 41
1.0
 10
933.66159732279539
 20
-1339.5565815459431
 30
0.0
 41
1.0
 10
933.70988838495668
 20
-1339.3968569624458
 30
0.0
 41
1.0
 10
933.80704073827019
 20
-1339.0755217406827
 30
0.0
 41
0.9999672528965072
 10
933.89897954389062
 20
-1338.7526561951054
 30
0.0
 41
1.0
 10
933.90176842756409
 20
-1338.7428623497026
 30
0.0
 41
1.0
 10
933.90455731123745
 20
-1338.7330685042998
 30
0.0
 41
1.0
 10
933.99091834952173
 20
-1338.4297906494919
 30
0.0
 41
0.9999899749146808
 10
934.07455995904866
 20
-1338.1257515610669
 30
0.0
 41
1.0
 10
934.08466587806834
 20
-1338.0890163233807
 30
0.0
 41
1.0
 10
934.0947717970879
 20
-1338.0522810856946
 30
0.0
 41
1.0
 10
934.15820156858365
 20
-1337.8217124726132
 30
0.0
 41
0.9999214200504573
 10
934.21583099696113
 20
-1337.5896261304051
 30
0.0
 41
1.0
 10
934.22859684914215
 20
-1337.538215245007
 30
0.0
 41
1.0
 10
934.24136270132317
 20
-1337.4868043596089
 30
0.0
 41
1.0
 10
934.27346042533645
 20
-1337.357539788205
 30
0.0
 41
0.9999828681674273
 10
934.30404267733422
 20
-1337.2279083137282
 30
0.0
 41
1.0
 10
934.33462492933063
 20
-1337.0982768392562
 30
0.0
 41
0.9999389844477221
 10
934.36233591811879
 20
-1336.9680013833608
 30
0.0
 41
1.0
 10
934.36947366183904
 20
-1336.9344452795233
 30
0.0
 41
1.0
 10
934.37661140555929
 20
-1336.9008891756857
 30
0.0
 41
1.0
 10
934.41859788178829
 20
-1336.7035015121137
 30
0.0
 41
0.9998933699440862
 10
934.4548021461901
 20
-1336.5049719043579
 30
0.0
 41
1.0
 10
934.45617497140699
 20
-1336.4974438836584
 30
0.0
 41
1.0
 10
934.45754779662389
 20
-1336.4899158629592
 30
0.0
 41
1.0
 10
934.49649771145801
 20
-1336.2763302138121
 30
0.0
 41
0.9996850305194163
 10
934.5246813877169
 20
-1336.0610592083758
 30
0.0
 41
1.0
 10
934.52667642108645
 20
-1336.0458208542518
 30
0.0
 41
1.0
 10
934.52867145445612
 20
-1336.0305825001276
 30
0.0
 41
1.0
 10
934.5560793169152
 20
-1335.8212372729722
 30
0.0
 41
0.999469793670708
 10
934.56980387613476
 20
-1335.6105520776414
 30
0.0
 41
1.0
 10
934.57028094538452
 20
-1335.6032286054292
 30
0.0
 41
1.0
 10
934.57075801463429
 20
-1335.595905133217
 30
0.0
 41
1.0
 10
934.58352843535465
 20
-1335.3998668823099
 30
0.0
 41
0.9991804893136576
 10
934.58040011908156
 20
-1335.2034380323373
 30
0.0
 41
1.0
 10
934.58031624025944
 20
-1335.1981712309243
 30
0.0
 41
1.0
 10
934.58023236143731
 20
-1335.1929044295111
 30
0.0
 41
1.0
 10
934.57727180280881
 20
-1335.0070091823634
 30
0.0
 41
0.9988448329321445
 10
934.55648025718506
 20
-1334.8222565925305
 30
0.0
 41
1.0
 10
934.55488618348181
 20
-1334.8080917367581
 30
0.0
 41
1.0
 10
934.55329210977868
 20
-1334.7939268809857
 30
0.0
 41
1.0
 10
934.53568871156142
 20
-1334.6375040026971
 30
0.0
 41
0.9985503209458199
 10
934.50137243926179
 20
-1334.4838798186079
 30
0.0
 41
1.0
 10
934.49378644719081
 20
-1334.4499194912087
 30
0.0
 41
1.0
 10
934.48620045511984
 20
-1334.4159591638092
 30
0.0
 41
1.0
 10
934.46705616696249
 20
-1334.3302556345195
 30
0.0
 41
0.9991036781370066
 10
934.44073130531092
 20
-1334.2464785471936
 30
0.0
 41
1.0
 10
934.43674907985474
 20
-1334.2338053846825
 30
0.0
 41
1.0
 10
934.43276685439855
 20
-1334.2211322221713
 30
0.0
 41
1.0
 10
934.41440644365946
 20
-1334.1627014598678
 30
0.0
 41
0.9998874504368192
 10
934.3943012359814
 20
-1334.1048478576454
 30
0.0
 41
1.0
 10
934.37419602830346
 20
-1334.0469942554241
 30
0.0
 41
0.9994041637545386
 10
934.35014741536895
 20
-1333.9906655515329
 30
0.0
 41
1.0
 10
934.34595063114512
 20
-1333.9808354870513
 30
0.0
 41
1.0
 10
934.34175384692116
 20
-1333.9710054225698
 30
0.0
 41
1.0
 10
934.31387501592576
 20
-1333.9057052566006
 30
0.0
 41
0.9991846840702183
 10
934.28081865923298
 20
-1333.842867225321
 30
0.0
 41
1.0
 10
934.27968205283764
 20
-1333.8407066088657
 30
0.0
 41
1.0
 10
934.27854544644231
 20
-1333.8385459924104
 30
0.0
 41
1.0
 10
934.24776230253906
 20
-1333.7800291940391
 30
0.0
 41
0.9989253167922702
 10
934.21169287848488
 20
-1333.7246142656504
 30
0.0
 41
1.0
 10
934.21063875381083
 20
-1333.7229947708884
 30
0.0
 41
1.0
 10
934.20958462913677
 20
-1333.7213752761263
 30
0.0
 41
1.0
 10
934.17562345443014
 20
-1333.6691993372606
 30
0.0
 41
0.9986467172837054
 10
934.13642630179265
 20
-1333.6208333036307
 30
0.0
 41
1.0
 10
934.13555217309181
 20
-1333.6197547013521
 30
0.0
 41
1.0
 10
934.13467804439097
 20
-1333.6186760990738
 30
0.0
 41
1.0
 10
934.09722914915505
 20
-1333.5724672700012
 30
0.0
 41
0.9984001104269116
 10
934.05480241863802
 20
-1333.5307821626325
 30
0.0
 41
1.0
 10
934.05421528052875
 20
-1333.5302052877514
 30
0.0
 41
1.0
 10
934.05362814241948
 20
-1333.5296284128701
 30
0.0
 41
1.0
 10
934.0123756881211
 20
-1333.4890970552638
 30
0.0
 41
0.9982442159083292
 10
933.96661958678533
 20
-1333.4537284940034
 30
0.0
 41
1.0
 10
933.96640479132338
 20
-1333.45356246136
 30
0.0
 41
1.0
 10
933.96618999586144
 20
-1333.4533964287166
 30
0.0
 41
1.0
 10
933.92086348544956
 20
-1333.4183599327432
 30
0.0
 41
0.9982450060837402
 10
933.87171250637789
 20
-1333.3889281497095
 30
0.0
 41
1.0
 10
933.82256152730588
 20
-1333.3594963666758
 30
0.0
 41
0.9983922639635344
 10
933.77039522113967
 20
-1333.3358167320212
 30
0.0
 41
1.0
 10
933.77016834381607
 20
-1333.33571374654
 30
0.0
 41
1.0
 10
933.76994146649236
 20
-1333.3356107610591
 30
0.0
 41
1.0
 10
933.71732140567849
 20
-1333.3117251554422
 30
0.0
 41
0.9986517147149876
 10
933.66250843281102
 20
-1333.2934240363206
 30
0.0
 41
1.0
 10
933.66183051138296
 20
-1333.293197689889
 30
0.0
 41
1.0
 10
933.66115258995501
 20
-1333.2929713434576
 30
0.0
 41
1.0
 10
933.60498377423266
 20
-1333.2742175314734
 30
0.0
 41
0.998943559895739
 10
933.54733038708264
 20
-1333.260699829239
 30
0.0
 41
1.0
 10
933.54625026749954
 20
-1333.2604465789857
 30
0.0
 41
1.0
 10
933.54517014791645
 20
-1333.2601933287324
 30
0.0
 41
1.0
 10
933.48535652159978
 20
-1333.2461691259914
 30
0.0
 41
0.9992249241240095
 10
933.42462501270052
 20
-1333.2368937832759
 30
0.0
 41
1.0
 10
933.42321132441134
 20
-1333.2366778748683
 30
0.0
 41
1.0
 10
933.42179763612228
 20
-1333.2364619664609
 30
0.0
 41
1.0
 10
933.35823875064477
 20
-1333.2267548069303
 30
0.0
 41
0.9994396597834384
 10
933.29417281410974
 20
-1333.2213218845848
 30
0.0
 41
1.0
 10
933.27503214663
 20
-1333.2196987168659
 30
0.0
 41
1.0
 10
933.25589147915025
 20
-1333.2180755491472
 30
0.0
 41
1.0
 10
933.15354420765891
 20
-1333.2093962913641
 30
0.0
 41
0.9987693403121738
 10
933.05084058407294
 20
-1333.2108993548165
 30
0.0
 41
1.0
 10
933.04058624984464
 20
-1333.2110494265908
 30
0.0
 41
1.0
 10
933.03033191561633
 20
-1333.211199498365
 30
0.0
 41
1.0
 10
932.9207761494373
 20
-1333.2128028426525
 30
0.0
 41
0.9989753644966224
 10
932.8118141494208
 20
-1333.2243058495778
 30
0.0
 41
1.0
 10
932.70285214940429
 20
-1333.2358088565029
 30
0.0
 41
0.9983190067305839
 10
932.59595333843936
 20
-1333.2598438482896
 30
0.0
 41
1.0
 10
932.58705238683262
 20
-1333.2618451268522
 30
0.0
 41
1.0
 10
932.57815143522589
 20
-1333.2638464054151
 30
0.0
 41
1.0
 10
932.45345072104931
 20
-1333.2918839543267
 30
0.0
 41
0.9985539388303379
 10
932.33248096737361
 20
-1333.3331476303715
 30
0.0
 41
1.0
 10
932.33013553641126
 20
-1333.333947674188
 30
0.0
 41
1.0
 10
932.32779010544891
 20
-1333.3347477180046
 30
0.0
 41
1.0
 10
932.20212948984931
 20
-1333.3776114816822
 30
0.0
 41
0.9988468746493079
 10
932.08115914754887
 20
-1333.4323295667448
 30
0.0
 41
1.0
 10
932.07797632556071
 20
-1333.4337692413044
 30
0.0
 41
1.0
 10
932.07479350357266
 20
-1333.435208915864
 30
0.0
 41
1.0
 10
931.94745751729488
 20
-1333.4928063500463
 30
0.0
 41
0.9991322885918712
 10
931.82535693323757
 20
-1333.5608016822287
 30
0.0
 41
1.0
 10
931.80775492219459
 20
-1333.5706038842179
 30
0.0
 41
1.0
 10
931.79015291115161
 20
-1333.5804060862072
 30
0.0
 41
1.0
 10
931.68797623009459
 20
-1333.6373062019877
 30
0.0
 41
0.9993860037849377
 10
931.59003522601972
 20
-1333.701222217577
 30
0.0
 41
1.0
 10
931.58441691316398
 20
-1333.7048887122742
 30
0.0
 41
1.0
 10
931.57879860030823
 20
-1333.7085552069714
 30
0.0
 41
1.0
 10
931.4920942219411
 20
-1333.7651382331687
 30
0.0
 41
0.999882149495393
 10
931.40716784613346
 20
-1333.8243564632421
 30
0.0
 41
1.0
 10
931.32224147031718
 20
-1333.8835746933214
 30
0.0
 41
0.9997976482744316
 10
931.23976583990998
 20
-1333.9461611013662
 30
0.0
 41
1.0
 10
931.22512957510867
 20
-1333.9572677911433
 30
0.0
 41
1.0
 10
931.21049331030724
 20
-1333.9683744809204
 30
0.0
 41
1.0
 10
931.09874515030128
 20
-1334.0531742685162
 30
0.0
 41
0.9998091630799193
 10
930.9903948722781
 20
-1334.1422746192131
 30
0.0
 41
1.0
 10
930.97738911979479
 20
-1334.1529697196643
 30
0.0
 41
1.0
 10
930.96438336731148
 20
-1334.1636648201152
 30
0.0
 41
1.0
 10
930.83002158432885
 20
-1334.2741553717092
 30
0.0
 41
0.9995035112317268
 10
930.70288570656476
 20
-1334.3928891887244
 30
0.0
 41
1.0
 10
930.69323839617846
 20
-1334.4018989348815
 30
0.0
 41
1.0
 10
930.68359108579205
 20
-1334.4109086810386
 30
0.0
 41
1.0
 10
930.56016802302565
 20
-1334.5261750527955
 30
0.0
 41
0.9994630424299281
 10
930.44455961724202
 20
-1334.6492777960304
 30
0.0
 41
1.0
 10
930.44087677847199
 20
-1334.653199375542
 30
0.0
 41
1.0
 10
930.43719393970196
 20
-1334.6571209550534
 30
0.0
 41
1.0
 10
930.32895121146066
 20
-1334.7723805392627
 30
0.0
 41
0.9995160693750015
 10
930.22808518192608
 20
-1334.8941479571381
 30
0.0
 41
1.0
 10
930.22615146184876
 20
-1334.8964823813421
 30
0.0
 41
1.0
 10
930.22421774177133
 20
-1334.8988168055464
 30
0.0
 41
1.0
 10
930.12721915239808
 20
-1335.0159153750062
 30
0.0
 41
0.9996561470514361
 10
930.03649293372825
 20
-1335.13793813746
 30
0.0
 41
1.0
 10
930.03033526782315
 20
-1335.1462199265065
 30
0.0
 41
1.0
 10
930.02417760191804
 20
-1335.1545017155531
 30
0.0
 41
1.0
 10
929.94576671505729
 20
-1335.2599608999158
 30
0.0
 41
0.9998349055174154
 10
929.87123943313009
 20
-1335.3681994835724
 30
0.0
 41
1.0
 10
929.79671215118469
 20
-1335.4764380672555
 30
0.0
 41
0.9999728109571135
 10
929.72378925527016
 20
-1335.5857639928174
 30
0.0
 41
1.0
 10
929.72247403986717
 20
-1335.5877357623067
 30
0.0
 41
1.0
 10
929.72115882446428
 20
-1335.5897075317962
 30
0.0
 41
1.0
 10
929.64560549771659
 20
-1335.7029769963779
 30
0.0
 41
0.9999972147433811
 10
929.57058768735135
 20
-1335.8166018392001
 30
0.0
 41
1.0
 10
929.56561614473162
 20
-1335.8241319276685
 30
0.0
 41
1.0
 10
929.56064460211189
 20
-1335.8316620161368
 30
0.0
 41
1.0
 10
929.47568370649356
 20
-1335.9603470359166
 30
0.0
 41
0.9999371979006916
 10
929.39362835709096
 20
-1336.0909039496914
 30
0.0
 41
1.0
 10
929.39011947272797
 20
-1336.0964868777585
 30
0.0
 41
1.0
 10
929.38661058836487
 20
-1336.1020698058255
 30
0.0
 41
1.0
 10
929.29753747023574
 20
-1336.2437925757351
 30
0.0
 41
0.9998272025609762
 10
929.21379407935274
 20
-1336.388728452479
 30
0.0
 41
1.0
 10
929.19857890732942
 20
-1336.4150615669344
 30
0.0
 41
1.0
 10
929.1833637353061
 20
-1336.4413946813897
 30
0.0
 41
1.0
 10
929.06919000037669
 20
-1336.6389967870446
 30
0.0
 41
0.9995217214838474
 10
928.9674503108215
 20
-1336.8432791149055
 30
0.0
 41
1.0
 10
928.95980674818611
 20
-1336.858626564609
 30
0.0
 41
1.0
 10
928.95216318555072
 20
-1336.8739740143128
 30
0.0
 41
1.0
 10
928.86525789296104
 20
-1337.0484704723945
 30
0.0
 41
0.9998269762607419
 10
928.78490342668852
 20
-1337.2260787591185
 30
0.0
 41
1.0
 10
928.70454896041463
 20
-1337.4036870458458
 30
0.0
 41
0.9998944747387463
 10
928.62938816584847
 20
-1337.5835547714792
 30
0.0
 41
1.0
 10
928.6244344962613
 20
-1337.5954094263871
 30
0.0
 41
1.0
 10
928.61948082667413
 20
-1337.6072640812947
 30
0.0
 41
1.0
 10
928.53883376611884
 20
-1337.8002610213191
 30
0.0
 41
0.9999506734410971
 10
928.46203623721271
 20
-1337.9948218261816
 30
0.0
 41
1.0
 10
928.44743627194339
 20
-1338.0318097479835
 30
0.0
 41
1.0
 10
928.43283630667418
 20
-1338.0687976697852
 30
0.0
 41
1.0
 10
928.38523870831284
 20
-1338.1893826310279
 30
0.0
 41
0.9999912393909508
 10
928.33865226428657
 20
-1338.3103618337334
 30
0.0
 41
1.0
 10
928.29206582025722
 20
-1338.4313410364473
 30
0.0
 41
0.99999271139493
 10
928.24640452586652
 20
-1338.5526724439403
 30
0.0
 41
1.0
 10
928.23243609447059
 20
-1338.5897894259347
 30
0.0
 41
1.0
 10
928.21846766307453
 20
-1338.626906407929
 30
0.0
 41
1.0
 10
928.14486950588355
 20
-1338.8224717794321
 30
0.0
 41
0.9999487550949731
 10
928.0752458809111
 20
-1339.019487144617
 30
0.0
 41
1.0
 10
928.05165227097723
 20
-1339.0862504549013
 30
0.0
 41
1.0
 10
928.02805866104336
 20
-1339.1530137651855
 30
0.0
 41
1.0
 10
927.93337302667169
 20
-1339.4209476000135
 30
0.0
 41
0.9999808436940996
 10
927.84201143802738
 20
-1339.6900330312862
 30
0.0
 41
1.0
 10
927.75064984938047
 20
-1339.9591184625669
 30
0.0
 41
0.9999873932931296
 10
927.66199514066409
 20
-1340.2291078175758
 30
0.0
 41
1.0
 10
927.6419027837967
 20
-1340.2902971503229
 30
0.0
 41
1.0
 10
927.62181042692919
 20
-1340.3514864830699
 30
0.0
 41
1.0
 10
927.49297100447484
 20
-1340.7438545035811
 30
0.0
 41
0.9999794883026871
 10
927.36916821951763
 20
-1341.1378407098562
 30
0.0
 41
1.0
 10
927.35801596008992
 20
-1341.1733313200621
 30
0.0
 41
1.0
 10
927.3468637006622
 20
-1341.2088219302677
 30
0.0
 41
1.0
 10
927.2043055367551
 20
-1341.6624946823854
 30
0.0
 41
0.9999982761686048
 10
927.06343309672661
 20
-1342.1166937045502
 30
0.0
 41
1.0
 10
925.47529276415401
 20
-1347.1654634355536
 30
0.0
 41
1.0
 10
923.8871524315814
 20
-1352.2142331665568
 30
0.0
 41
1.0
 10
922.93840182010501
 20
-1352.2142331665568
 30
0.0
 41
1.0
 10
921.98965120862863
 20
-1352.2142331665568
 30
0.0
 41
1.0
 10
925.22793569478176
 20
-1341.8869109666107
 30
0.0
 41
1.0
 10
928.46622018093501
 20
-1331.5595887666645
 30
0.0
 41
1.0
  0
LWPOLYLINE
  5
13F
100
AcDbEntity
  8
0
370
              15
390
0
  6
Continuous
 62
               7
100
AcDbPolyline
 90
      232
 70
             128
 10
902.76267440710797
 20
-1332.6439315981797
 42
0.0004370800704659
 10
902.70979723296034
 20
-1332.7125982375344
 10
902.67051300190849
 20
-1332.7637053503327
 42
0.0030481992179928
 10
902.54017428477039
 20
-1332.935427042702
 10
902.50166261303889
 20
-1332.9868138264649
 42
0.0042058245762565
 10
902.29767756235867
 20
-1333.2638195715531
 10
902.24527243986836
 20
-1333.3362524183194
 42
0.0120948898744231
 10
901.94922852310742
 20
-1333.7670020228677
 10
901.85303602398437
 20
-1333.914482758094
 42
0.0141601263947258
 10
901.54939197706301
 20
-1334.4101520948286
 10
901.50985470963087
 20
-1334.4789960622711
 42
0.0071131081305906
 10
901.30458238639858
 20
-1334.8484988610985
 42
0.0068458791000609
 10
901.10970285956103
 20
-1335.2235904245638
 10
901.1028909970978
 20
-1335.2371521382984
 42
0.006412088028945
 10
900.90474874705887
 20
-1335.6445766132058
 10
900.89721406153649
 20
-1335.6605884699384
 42
0.005885723644892
 10
900.69445866966691
 20
-1336.1049645809685
 10
900.68628374337084
 20
-1336.1234547346073
 42
0.0053189741895661
 10
900.47757943070428
 20
-1336.6094182085228
 10
900.46883162502195
 20
-1336.6304000867212
 42
0.0047503650416695
 10
900.25285789887209
 20
-1337.1625995199286
 10
900.24358965052306
 20
-1337.1860758960388
 42
0.0042071762168817
 10
900.01904226679721
 20
-1337.7691694901034
 10
900.00929286444671
 20
-1337.7951356649783
 42
0.0036680086485753
 10
899.77483822112856
 20
-1338.4337710495267
 10
899.76463044128684
 20
-1338.4622195838542
 42
0.0032573142627551
 10
899.51899815532079
 20
-1339.1610722436058
 10
899.45034763446995
 20
-1339.3605353276882
 42
0.0026133366649536
 10
899.10190243572151
 20
-1340.3903986113323
 10
899.0386456482214
 20
-1340.5806294467234
 42
0.0020592950741519
 10
898.82478257925368
 20
-1341.2327330993385
 10
898.82173078809888
 20
-1341.2421695877224
 42
0.0025609928534171
 10
898.61991028660475
 20
-1341.8773148101141
 10
898.61731891947272
 20
-1341.8856171510718
 42
0.0031362356243283
 10
898.42782813380109
 20
-1342.5063800072342
 10
898.42569709086774
 20
-1342.5135213134652
 42
0.0037229918029564
 10
898.24889670394737
 20
-1343.1225066154193
 10
898.24721811474308
 20
-1343.1284535055861
 42
0.0043077623705301
 10
898.08347731267588
 20
-1343.7282722373629
 42
0.0047654161823428
 10
897.93064859016204
 20
-1344.3309583262562
 10
897.89618398132075
 20
-1344.4725201034148
 42
0.0112969368445178
 10
897.70031962317603
 20
-1345.3642122640454
 10
897.67231323408055
 20
-1345.507040310137
 42
0.0130056762570164
 10
897.47147599043387
 20
-1346.6939813817819
 10
897.45093624028698
 20
-1346.8380594952578
 42
0.0138721532145146
 10
897.34723323574894
 20
-1347.7448889810846
 10
897.32793774784056
 20
-1347.9683867030162
 42
0.0071254697009235
 10
897.29459110191851
 20
-1348.4315737118568
 10
897.28963012775444
 20
-1348.517577706431
 42
0.0028881799199786
 10
897.27449183446538
 20
-1348.8093194162598
 42
0.006029729713746
 10
897.26455963468982
 20
-1349.1012683523752
 10
897.26349735302279
 20
-1349.1496607243059
 42
0.0229523164154734
 10
897.27122838080845
 20
-1349.4724155705912
 10
897.27545415432894
 20
-1349.5328191046094
 42
0.0123673300663672
 10
897.29453280084715
 20
-1349.7339398297822
 42
0.01285776744734
 10
897.32372819125408
 20
-1349.9338376797127
 10
897.33085406464045
 20
-1349.975166494306
 42
0.0285717853763902
 10
897.39534806633617
 20
-1350.253282645619
 10
897.40901659000292
 20
-1350.2999374150972
 42
0.0316283099160211
 10
897.52482716991676
 20
-1350.6189519169222
 10
897.52787586167278
 20
-1350.6259382892488
 42
0.0338984824236854
 10
897.67730757263951
 20
-1350.9135042534369
 10
897.67961630200898
 20
-1350.9172952827123
 42
0.0350228718348596
 10
897.86197659268294
 20
-1351.1743472673897
 10
897.8628618444576
 20
-1351.1754263451533
 42
0.0347476747529312
 10
898.07728653169806
 20
-1351.4026113923737
 42
0.0331337701911438
 10
898.32052985744497
 20
-1351.5987400544516
 10
898.32162995596059
 20
-1351.5995127576239
 42
0.0305233319080206
 10
898.5901746515334
 20
-1351.7646409277147
 10
898.59340469603512
 20
-1351.7663649395777
 42
0.0273744481155468
 10
898.885958407609
 20
-1351.902503083468
 10
898.891062942747
 20
-1351.9045466679379
 42
0.0240964406197087
 10
899.20654001839216
 20
-1352.0135303942188
 10
899.21312334760273
 20
-1352.0154551338942
 42
0.0209636179814835
 10
899.55052350025733
 20
-1352.0989232818267
 10
899.55815596070397
 20
-1352.1004751948278
 42
0.0181388704694532
 10
899.91647835270305
 20
-1352.1598912880418
 10
899.92475920108063
 20
-1352.1609574718589
 42
0.0156086547586433
 10
900.30294656526974
 20
-1352.1976936584356
 10
900.34614181759991
 20
-1352.2005321609147
 42
0.0137148329025729
 10
900.67381496289534
 20
-1352.2130524161657
 10
900.71975115283601
 20
-1352.2135468492809
 42
0.0051057823886624
 10
900.95589673941356
 20
-1352.2136771036903
 42
0.0052256693314155
 10
901.19199402320385
 20
-1352.2089282792256
 10
901.26222080694163
 20
-1352.2067813132119
 42
0.0161507179049205
 10
901.63795788504524
 20
-1352.1831309428851
 10
901.657970845416
 20
-1352.1812207475978
 42
0.0101216737833762
 10
902.07199806691449
 20
-1352.1332278172313
 10
902.10605135633341
 20
-1352.1285801204226
 42
0.0245291776398339
 10
902.58284101188326
 20
-1352.0395050423465
 10
902.66766432740712
 20
-1352.0193091220008
 42
0.014350921255937
 10
903.02429543134815
 20
-1351.9235044882216
 42
0.0156557857042935
 10
903.37451149607932
 20
-1351.8064932724014
 10
903.38201271057005
 20
-1351.8037231106487
 42
0.017013733363122
 10
903.73860870624844
 20
-1351.6580654957788
 10
903.74571262865891
 20
-1351.654877660214
 42
0.0183105364408455
 10
904.10506229682585
 20
-1351.4775426183894
 10
904.11200906146394
 20
-1351.4737921835176
 42
0.0194899958151985
 10
904.47048980245086
 20
-1351.2618132016248
 10
904.47750368178458
 20
-1351.2572878593319
 42
0.0204869852951357
 10
904.83151798387973
 20
-1351.0077678442451
 10
904.83878359246557
 20
-1351.0021877788977
 42
0.0212516938553718
 10
905.18477352357093
 20
-1350.7122837820054
 10
905.23129021765226
 20
-1350.6698164719064
 42
0.0215248918258354
 10
905.49131638653694
 20
-1350.4110521929147
 10
905.53634612092276
 20
-1350.3622080715593
 42
0.0114578554954261
 10
905.69113827459478
 20
-1350.1863851381067
 10
905.70233281058415
 20
-1350.1730663745582
 42
0.0061531305130738
 10
905.82880745657587
 20
-1350.0187768412557
 42
0.0006325587114705
 10
905.9531859406743
 20
-1349.8627734656468
 10
905.9762260757791
 20
-1349.8337999449204
 42
0.0041897761560715
 10
906.14468147977493
 20
-1349.6182805688288
 10
906.20314359964402
 20
-1349.5421792218735
 42
0.0092993880039499
 10
906.47975552687251
 20
-1349.1679004579828
 10
906.562150020064
 20
-1349.0519634544246
 42
0.0159321727085232
 10
906.90875650270902
 20
-1348.5297892336648
 10
906.95311263810754
 20
-1348.4581096693994
 42
0.0085547317024117
 10
907.1876244034238
 20
-1348.0642347201901
 42
0.008460115688909
 10
907.40860058086287
 20
-1347.6626078711638
 10
907.41671605469628
 20
-1347.647248188885
 42
0.0081429654285649
 10
907.63996532513715
 20
-1347.2075266763375
 10
907.6488254893178
 20
-1347.189347834325
 42
0.0076574581329058
 10
907.87523299989073
 20
-1346.706164959058
 10
907.8847126406082
 20
-1346.6851004807686
 42
0.0070682724200669
 10
908.11515754841901
 20
-1346.1530631759781
 10
908.12514783239669
 20
-1346.129073986976
 42
0.0064559514447673
 10
908.36048104057977
 20
-1345.5427617204532
 10
908.37089039874331
 20
-1345.5158267950146
 42
0.0058311413908505
 10
908.61193713550915
 20
-1344.8697947006228
 10
908.62269221289364
 20
-1344.8399103594707
 42
0.005231242581907
 10
908.87027349093535
 20
-1344.1287079456333
 10
908.88131732731426
 20
-1344.0958812335662
 42
0.0046680544797317
 10
909.13624575504411
 20
-1343.3140549178258
 10
909.17823790508987
 20
-1343.1810716805271
 42
0.0041666856444008
 10
909.38152391748736
 20
-1342.5181029055138
 10
909.41918635813454
 20
-1342.3915217979161
 42
0.0015170975155582
 10
909.54037293656415
 20
-1341.9796534463665
 42
-0.0004887993114614
 10
909.66071270964767
 20
-1341.5675350344602
 10
909.7371899671823
 20
-1341.3065776483834
 42
0.0002583378927582
 10
910.01040453728513
 20
-1340.3725209450724
 10
910.09217738677569
 20
-1340.0924216857843
 42
0.0006636169671002
 10
910.28604514683457
 20
-1339.4250687620342
 10
910.2911418011962
 20
-1339.4074371791037
 42
0.0010589131321362
 10
910.47259050209823
 20
-1338.7747058361053
 10
910.47757257257774
 20
-1338.7571929290887
 42
0.0015655524462148
 10
910.64584277976155
 20
-1338.1585762498844
 10
910.65067298018016
 20
-1338.1411840909354
 42
0.0021640440480012
 10
910.80496295216244
 20
-1337.5761570729305
 10
910.80959717159863
 20
-1337.5588923429136
 42
0.0028763871852702
 10
910.94911288964545
 20
-1337.0269243920895
 10
910.95349875381748
 20
-1337.0098004139163
 42
0.0037310511944524
 10
911.07745544564955
 20
-1336.5103528199111
 10
911.08153066594139
 20
-1336.4933925486537
 42
0.004765219777442
 10
911.18915456644697
 20
-1336.0259147803606
 10
911.1928451657667
 20
-1336.0091552252268
 42
0.0060276699299259
 10
911.28337526492396
 20
-1335.5730794300664
 10
911.28659395521356
 20
-1335.5565782157548
 42
0.007582433775721
 10
911.35928326462863
 20
-1335.151311051331
 10
911.36192864200859
 20
-1335.1351561038828
 42
0.0095130624608618
 10
911.41604387764005
 20
-1334.7600667508086
 10
911.42303010152216
 20
-1334.7041331926964
 42
0.0121054653229914
 10
911.44962143210057
 20
-1334.4392373642183
 10
911.45048792186003
 20
-1334.4278339212901
 42
0.0069050827385404
 10
911.46557673989787
 20
-1334.1848926944449
 10
911.46671203956612
 20
-1334.1613664374047
 42
0.0169063976702493
 10
911.46953931854659
 20
-1333.9651737100994
 10
911.46836866701517
 20
-1333.9048379487419
 42
0.0052007732885934
 10
911.46611521842237
 20
-1333.8292445585982
 42
0.0054038123303403
 10
911.44615170658165
 20
-1333.7092262625772
 10
911.44106585071313
 20
-1333.6805677760071
 42
0.0112050460458512
 10
911.40568148865498
 20
-1333.50424133767
 10
911.38785652661386
 20
-1333.4246997509472
 42
0.0240764468010056
 10
911.29695916046751
 20
-1333.0944627154458
 10
911.27840039765397
 20
-1333.0378425504514
 42
0.0256812331836061
 10
911.13503747746472
 20
-1332.666118344195
 10
911.12962805164341
 20
-1332.6539870092054
 42
0.0268360501216094
 10
910.96020081079348
 20
-1332.3229938751842
 10
910.95466440315795
 20
-1332.313474204871
 42
0.0274670231732834
 10
910.76246342674517
 20
-1332.0211868299548
 10
910.75708212678251
 20
-1332.0139076824134
 42
0.0275035967101639
 10
910.54550924722071
 20
-1331.7583917921093
 10
910.54043974625483
 20
-1331.7529127044795
 42
0.0269557673524925
 10
910.3130362028146
 20
-1331.5322704185164
 10
910.30829314503217
 20
-1331.5281404640557
 42
0.0259124802206808
 10
910.06873831360122
 20
-1331.3404499369035
 10
910.06420746841832
 20
-1331.3372644345725
 42
0.0245162153001533
 10
909.81629111532447
 20
-1331.1805314254625
 10
909.81176456900084
 20
-1331.1779712282619
 42
0.022928258883018
 10
909.55934501217291
 20
-1331.0501030357627
 10
909.55456451833788
 20
-1331.0479507360014
 42
0.0212984135688085
 10
909.30152656587438
 20
-1330.9467518187585
 10
909.29622228090534
 20
-1330.9448882559986
 42
0.0197555462339869
 10
909.04644394318188
 20
-1330.8680728380336
 42
0.0183511896786427
 10
908.79151521771701
 20
-1330.8104899310679
 10
908.7051500209958
 20
-1330.7942871406833
 42
0.0338057877150016
 10
908.41964267173546
 20
-1330.7604787355431
 10
908.32863726669473
 20
-1330.7558990802816
 42
0.0091990524493026
 10
908.22279015805952
 20
-1330.7525232243595
 42
0.0028333980780201
 10
908.11687624205956
 20
-1330.7516951168427
 10
908.11596078901721
 20
-1330.7516931470186
 42
-0.0023619827803365
 10
908.00821477388979
 20
-1330.75095230594
 10
907.97180960373544
 20
-1330.7505299994773
 42
0.0008824598484826
 10
907.79125361386684
 20
-1330.7487542212389
 10
907.74739218147965
 20
-1330.7484002597134
 42
0.0038132665772605
 10
907.47910928558406
 20
-1330.7482813236468
 10
907.46257563080735
 20
-1330.7484000897903
 42
0.006066556933352
 10
907.16129513922658
 20
-1330.7542203892108
 10
907.1470448071907
 20
-1330.7546686971787
 42
0.0080356953336195
 10
906.8175860908467
 20
-1330.7703364192457
 10
906.80551607576422
 20
-1330.771105002186
 42
0.0098996399107565
 10
906.45275299111245
 20
-1330.8005902313844
 10
906.44270728173865
 20
-1330.8016305275823
 42
0.0117740981367969
 10
906.07155042339014
 20
-1330.8489227751122
 10
906.06332772690735
 20
-1330.850167891683
 42
0.0137435215133898
 10
905.67873890741998
 20
-1330.9192648652449
 10
905.67208186829885
 20
-1330.9206507614781
 42
0.0158359869385181
 10
905.2790847744925
 20
-1331.01554284996
 10
905.27367158762922
 20
-1331.0170327908295
 42
0.0180554124027345
 10
904.87735654301571
 20
-1331.1416708070685
 10
904.87279975493345
 20
-1331.1432868433344
 42
0.0203657431282972
 10
904.47832223712055
 20
-1331.301547184851
 10
904.47417869811477
 20
-1331.3034088062923
 42
0.0226819684652883
 10
904.08674264191404
 20
-1331.4990513849614
 10
904.08254285089299
 20
-1331.5014169768829
 42
0.0248634984606168
 10
903.70736090971252
 20
-1331.7380436228298
 10
903.65916598092497
 20
-1331.771900664658
 42
0.0267044190891173
 10
903.38487328401129
 20
-1331.9873410405239
 42
0.0139303002201768
 10
903.12870611806886
 20
-1332.2245798814397
 10
903.12385273235157
 20
-1332.2293325442961
 42
0.0283460963438069
 10
902.87978013812562
 20
-1332.4970632047396
 10
902.84011163296782
 20
-1332.5458647822143
 42
0.0070695364826314
 10
902.76267440710797
 20
-1332.6439315981797
 42
0.0070695364826314
  0
LWPOLYLINE
  5
140
100
AcDbEntity
  8
0
370
              15
390
0
  6
Continuous
 62
               7
100
AcDbPolyline
 90
      226
 70
             128
 10
899.23385396986157
 20
-1348.3655204043637
 42
-0.002627763663217
 10
899.23377608606154
 20
-1348.2987484786327
 10
899.23399344429356
 20
-1348.2455932611774
 42
-0.0088680296727303
 10
899.23777006058674
 20
-1348.0725774787713
 10
899.24011641969901
 20
-1348.0132974533208
 42
-0.00773817056185
 10
899.25616253046189
 20
-1347.7220369575273
 10
899.25703044163527
 20
-1347.7097487238375
 42
-0.0068872530533043
 10
899.28366252138414
 20
-1347.3945269717608
 10
899.2848667455695
 20
-1347.38228599275
 42
-0.0062130021482874
 10
899.32246046239777
 20
-1347.0434163015075
 10
899.3239643659324
 20
-1347.0312424295948
 42
-0.0056726929671969
 10
899.37288622543338
 20
-1346.6690472074904
 10
899.37465967107914
 20
-1346.656953407236
 42
-0.0052341884493376
 10
899.43527025733999
 20
-1346.2717601517124
 10
899.43728824611571
 20
-1346.2597552217258
 42
-0.0049768450167685
 10
899.51002692754309
 20
-1345.8519106542881
 10
899.53427594226389
 20
-1345.7233626712873
 42
-0.0089029805625695
 10
899.67135679405931
 20
-1345.0615872238614
 10
899.70410216937717
 20
-1344.9165557933413
 42
-0.0080318257099696
 10
899.93365078372119
 20
-1343.9708461614746
 10
899.94563571016613
 20
-1343.9247155262974
 42
-0.0074265721317571
 10
900.22964724901647
 20
-1342.8946509479158
 10
900.24952679213538
 20
-1342.8265168873186
 42
-0.0069711922701638
 10
900.57683137063941
 20
-1341.7602491469997
 10
900.6367833177419
 20
-1341.5742277886386
 42
-0.005207042289633
 10
900.86620854300418
 20
-1340.8869557115977
 10
900.88348973518532
 20
-1340.8369284309549
 42
-0.0009167004448772
 10
901.08658162246593
 20
-1340.2524725828266
 42
-0.0025162726946937
 10
901.29367925272413
 20
-1339.6694313186758
 10
901.33090386454171
 20
-1339.5662817727368
 42
-0.0028212681455221
 10
901.57907978349704
 20
-1338.8905511405874
 10
901.58891054624246
 20
-1338.8642436959244
 42
-0.0031964916819656
 10
901.82520280390997
 20
-1338.2440389337837
 10
901.834837257922
 20
-1338.2192289436068
 42
-0.0036281836450263
 10
902.05994321901017
 20
-1337.6517882627472
 10
902.06938162916822
 20
-1337.628490831243
 42
-0.0041269166835086
 10
902.28399932582681
 20
-1337.1110499352662
 10
902.31663228224602
 20
-1337.0341714889089
 42
-0.0047472213057441
 10
902.47367708780121
 20
-1336.6737500210218
 10
902.48057116900827
 20
-1336.6583294236925
 42
-0.0025651659997425
 10
902.62892920285958
 20
-1336.3310013679413
 42
-0.0057144634990409
 10
902.78267889663732
 20
-1336.0061916945656
 10
902.81070960203249
 20
-1335.9486833121839
 42
-0.0065388068374019
 10
902.99417662977191
 20
-1335.5844508155196
 10
903.00263508555213
 20
-1335.5681912361467
 42
-0.0074510843021164
 10
903.17881733142826
 20
-1335.2415029550275
 10
903.18699700196407
 20
-1335.22686217775
 42
-0.0084648979861109
 10
903.35663085505939
 20
-1334.9349531667974
 10
903.36448698154629
 20
-1334.9219461751484
 42
-0.009563854280844
 10
903.52832242914167
 20
-1334.662057303168
 10
903.53579737281211
 20
-1334.6506879417145
 42
-0.010719162680516
 10
903.69459895320097
 20
-1334.4200767071684
 10
903.70161568693231
 20
-1334.4103406148033
 42
-0.0118458573899251
 10
903.85616378544455
 20
-1334.2062684194932
 42
-0.0129184518201126
 10
904.02061640904378
 20
-1334.0101079033257
 10
904.05076118141324
 20
-1333.9759818244188
 42
-0.0217742579627776
 10
904.2273735037445
 20
-1333.792775054173
 10
904.23811904819809
 20
-1333.7825582209766
 42
-0.0097266568652611
 10
904.40417666706071
 20
-1333.6307106465329
 42
-0.0187720905725562
 10
904.57852424294799
 20
-1333.4886417931455
 10
904.60923023362022
 20
-1333.4654827107506
 42
-0.0179428207521092
 10
904.8416509536205
 20
-1333.3029305336358
 10
904.84530328053575
 20
-1333.3005665987484
 42
-0.0170047877700347
 10
905.08106691806665
 20
-1333.1591060845967
 10
905.08484990681211
 20
-1333.1570077795609
 42
-0.0160190788368857
 10
905.32175845444851
 20
-1333.0353564775723
 42
-0.0151102861495509
 10
905.5657902368979
 20
-1332.9286737015166
 10
905.61817673910696
 20
-1332.9076335686229
 42
-0.0271945441886061
 10
905.97683929816515
 20
-1332.7857687579169
 10
906.04590409865375
 20
-1332.7664192166505
 42
-0.0237596594020707
 10
906.46170094567583
 20
-1332.670968504669
 10
906.52976379940333
 20
-1332.6587138165428
 42
-0.0213715440555604
 10
906.81563873085156
 20
-1332.6197667850324
 10
906.87578589706482
 20
-1332.6141770703321
 42
-0.0101465655821625
 10
907.04327842906366
 20
-1332.6020335270673
 10
907.05261881526997
 20
-1332.6015466120696
 42
-0.01003759108689
 10
907.20177291582445
 20
-1332.596770794145
 10
907.21203218549772
 20
-1332.5966483551306
 42
-0.0103625633385334
 10
907.34074018015963
 20
-1332.5977797886571
 10
907.36300583142713
 20
-1332.598437147122
 42
-0.0115689250224212
 10
907.44705656895451
 20
-1332.6028666533671
 42
-0.007243803741939
 10
907.53089484840189
 20
-1332.6104558531174
 10
907.54769535786647
 20
-1332.6122223958407
 42
-0.0217917313134808
 10
907.66426512118255
 20
-1332.6296422885623
 10
907.72986521174914
 20
-1332.6423888969769
 42
-0.0332943556756006
 10
907.93425737677512
 20
-1332.6964291882832
 10
907.96442994532526
 20
-1332.7065972654016
 42
-0.0184824084787152
 10
908.10293500179068
 20
-1332.7590482807882
 42
-0.0198002050687749
 10
908.23700934229089
 20
-1332.821932340988
 10
908.23889597966695
 20
-1332.8229101278675
 42
-0.0212242342973838
 10
908.37103492206893
 20
-1332.8986728666607
 10
908.37285021761227
 20
-1332.8998186688691
 42
-0.0226090605800199
 10
908.50135411883412
 20
-1332.9892983124337
 10
908.50319856057149
 20
-1332.9907105654211
 42
-0.0238457052231056
 10
908.6263806418649
 20
-1333.0947064612837
 10
908.62833337042343
 20
-1333.0965213390496
 42
-0.024816056416502
 10
908.74453487772303
 20
-1333.2157959402571
 10
908.74663851112609
 20
-1333.2181812739627
 42
-0.0254109591464063
 10
908.8542437289924
 20
-1333.3534696599274
 10
908.85649175090612
 20
-1333.3566112083276
 42
-0.0255528488285064
 10
908.95393842970293
 20
-1333.5086382625611
 10
908.95626952961948
 20
-1333.5127198741693
 42
-0.0252146793212006
 10
909.04205055562818
 20
-1333.6822221201655
 10
909.04435279478616
 20
-1333.6874042020793
 42
-0.0244265635952049
 10
909.11700748854753
 20
-1333.8751507741254
 10
909.12625389001551
 20
-1333.903016192462
 42
-0.0231319612906909
 10
909.17217666900808
 20
-1334.0663172392653
 42
-0.0112130424358327
 10
909.2068126915467
 20
-1334.2325208394552
 10
909.20801521665885
 20
-1334.2390174263414
 42
-0.0210527881238743
 10
909.23370169202951
 20
-1334.4200730717812
 10
909.23721228685145
 20
-1334.4554786203298
 42
-0.0190029892425442
 10
909.25265376039602
 20
-1334.7090144665997
 10
909.2534637368401
 20
-1334.744490080971
 42
-0.0137974553664945
 10
909.25191488400469
 20
-1335.0695214876982
 10
909.25106942904881
 20
-1335.0956402323043
 42
-0.0081336634212879
 10
909.23621009382646
 20
-1335.4009876998966
 42
-0.0073526923574981
 10
909.21190156045327
 20
-1335.7057359441669
 10
909.2106401366691
 20
-1335.7190726188478
 42
-0.0066886138688643
 10
909.17490455062273
 20
-1336.0496586623435
 10
909.17324746115264
 20
-1336.0632802813366
 42
-0.0061359187352418
 10
909.12539685910053
 20
-1336.4200442614449
 10
909.12335935802889
 20
-1336.4339390642658
 42
-0.0056698610059483
 10
909.06270902726044
 20
-1336.8172176331125
 10
909.0603035939389
 20
-1336.8313767523346
 42
-0.0052721077275549
 10
908.98617139313887
 20
-1337.2415040920141
 10
908.98340824429749
 20
-1337.2559207273985
 42
-0.0049289272178009
 10
908.89511412619811
 20
-1337.6932292385177
 10
908.89200163151486
 20
-1337.7078980913366
 42
-0.0047415956711718
 10
908.78876363998302
 20
-1338.1726948487453
 10
908.75399542962282
 20
-1338.3225019441304
 42
-0.0084404470904909
 10
908.56397898605121
 20
-1339.0827259686607
 10
908.55785229806531
 20
-1339.105590092815
 42
-0.0039635940259183
 10
908.33639861377935
 20
-1339.9065789570693
 10
908.32302181860177
 20
-1339.9535105736541
 42
-0.0072475040835882
 10
908.05557493073741
 20
-1340.8427302900486
 10
907.9853626039137
 20
-1341.0644706400089
 42
-0.0051345458830127
 10
907.69860323185242
 20
-1341.9387958278276
 10
907.67707696508887
 20
-1342.0022220949461
 42
-0.0019150016601743
 10
907.42154355821822
 20
-1342.7457712151836
 10
907.41507595382097
 20
-1342.7643586801078
 42
-0.0021524362752655
 10
907.16659790275821
 20
-1343.4686845018132
 10
907.15738748205854
 20
-1343.4944380801237
 42
-0.0024331286818189
 10
906.92113222302578
 20
-1344.1450373882326
 10
906.91208427047798
 20
-1344.1695806945795
 42
-0.0027449721790295
 10
906.68746969963979
 20
-1344.7687105735115
 10
906.67857969224269
 20
-1344.7920331633766
 42
-0.003108322976753
 10
906.4650372056376
 20
-1345.3419572009434
 10
906.45630107396391
 20
-1345.3640469167965
 42
-0.0035311343282286
 10
906.25325988837017
 20
-1345.8670300425313
 10
906.2446745492274
 20
-1345.8878727660297
 42
-0.0040245640952326
 10
906.0515627454281
 20
-1346.3461820886341
 10
906.04312663181918
 20
-1346.3657614567198
 42
-0.0046015135848536
 10
905.85937033866128
 20
-1346.7816664863483
 10
905.85108416083847
 20
-1346.7999636257885
 42
-0.0052768638270355
 10
905.67610664187737
 20
-1347.1757365100707
 10
905.66797443125029
 20
-1347.1927298486141
 42
-0.0060672675643895
 10
905.50119481848446
 20
-1347.5306454717281
 10
905.49322533800421
 20
-1347.546310730723
 42
-0.0069904648871881
 10
905.33405694400153
 20
-1347.848646537389
 10
905.32626554438684
 20
-1347.8629570866233
 42
-0.0080637022765055
 10
905.17411368404487
 20
-1348.1319923897695
 10
905.16652465141669
 20
-1348.1449202553652
 42
-0.0093006455665342
 10
905.02078397488208
 20
-1348.3829346538732
 10
905.01343330813927
 20
-1348.394452623045
 42
-0.0107060778057093
 10
904.87348476469992
 20
-1348.6037229404255
 10
904.86642299642278
 20
-1348.6138084829879
 42
-0.0122723111418407
 10
904.73162927822227
 20
-1348.7966018124803
 10
904.73130305466532
 20
-1348.7970222002937
 42
-0.014183631962779
 10
904.58772145169405
 20
-1348.9715919581195
 10
904.58077369604507
 20
-1348.9795669583807
 42
-0.0175957477214987
 10
904.4408675280074
 20
-1349.1291878467891
 42
-0.0080466359670151
 10
904.29340376297546
 20
-1349.271510374942
 10
904.24736921845977
 20
-1349.3145308130315
 42
-0.0269600260394121
 10
903.99408897247474
 20
-1349.5268540715422
 10
903.92752183617858
 20
-1349.5768054861655
 42
-0.0178362839752902
 10
903.68757734652399
 20
-1349.743823412417
 10
903.68033237552481
 20
-1349.748491924621
 42
-0.0174650732652098
 10
903.44399617808222
 20
-1349.889352889581
 42
-0.0169240130162174
 10
903.19852993222355
 20
-1350.013645149359
 10
903.15254377666679
 20
-1350.0350071049256
 42
-0.0318883036840415
 10
902.80219292104675
 20
-1350.1713454144358
 10
902.73382738588259
 20
-1350.193046034911
 42
-0.0284435909903046
 10
902.35777725959099
 20
-1350.2892634703858
 10
902.32261909909016
 20
-1350.2961570662148
 42
-0.0243909341011069
 10
902.00917563817347
 20
-1350.3418780972445
 10
901.95889491140497
 20
-1350.3467236441459
 42
-0.0196639292933464
 10
901.74329933387503
 20
-1350.3589719296597
 10
901.69147526271445
 20
-1350.3598751903965
 42
-0.0100501510681542
 10
901.57905198104731
 20
-1350.3595747920433
 10
901.54739211971537
 20
-1350.3588537201581
 42
-0.0019752031133595
 10
901.49829978302193
 20
-1350.3575415599485
 10
901.49553947979985
 20
-1350.3574568681222
 42
0.0065378752011307
 10
901.45196290504509
 20
-1350.3566899769071
 42
-0.0167974694671874
 10
901.40843208211379
 20
-1350.3550300783809
 10
901.40435274285119
 20
-1350.354737067486
 42
-0.0081283276285433
 10
901.3527929451152
 20
-1350.3501900738486
 10
901.34105337123401
 20
-1350.3489621562699
 42
-0.0126703440167372
 10
901.26633507543727
 20
-1350.339227365198
 10
901.24354720776387
 20
-1350.3356691092831
 42
-0.0117852088443115
 10
901.12400822193604
 20
-1350.3141061141268
 10
901.0686277701684
 20
-1350.3027625738914
 42
-0.0251774592292664
 10
900.84178373115924
 20
-1350.244264564458
 10
900.79706454130883
 20
-1350.2302977451232
 42
-0.014652519987968
 10
900.610671553771
 20
-1350.1660312179251
 42
-0.0166929435859586
 10
900.42869389764519
 20
-1350.0902240848707
 10
900.42403726637122
 20
-1350.0880991842564
 42
-0.0191684358436151
 10
900.2388536351209
 20
-1349.9948631004656
 10
900.23552104936493
 20
-1349.993021852913
 42
-0.022118178181185
 10
900.0522107454608
 20
-1349.880888354541
 10
900.04986094145431
 20
-1349.8793040565513
 42
-0.0254984685389592
 10
899.87357079106971
 20
-1349.7468929065822
 10
899.85108864336712
 20
-1349.7281405976455
 42
-0.0292492648804834
 10
899.72631970452403
 20
-1349.6110477980023
 42
-0.0159048957495171
 10
899.61247970707359
 20
-1349.483027806403
 10
899.61116091649455
 20
-1349.4814461933834
 42
-0.0343813379565867
 10
899.50852365486867
 20
-1349.3395748676144
 10
899.477032123507
 20
-1349.2890714755188
 42
-0.0369117275701171
 10
899.39113962161025
 20
-1349.1255942345713
 42
-0.0191751379919921
 10
899.32394623605342
 20
-1348.9531896285655
 10
899.32218291229378
 20
-1348.9480962838904
 42
-0.0378178042224093
 10
899.27238819350976
 20
-1348.7591555078104
 10
899.26639289777916
 20
-1348.7265948896118
 42
-0.0184846046474931
 10
899.24567569848477
 20
-1348.5848420690672
 42
-0.0179866351324008
 10
899.2353426934111
 20
-1348.441951255985
 10
899.23528625096537
 20
-1348.4403935693736
 42
-0.0085497186109497
 10
899.23385396986157
 20
-1348.3655204043637
 42
-0.0085497186109497
  0
ENDBLK
  5
141
100
AcDbEntity
  8
ABA70-0003
390
0
100
AcDbBlockEnd
  0
BLOCK
  5
142
100
AcDbEntity
  8
ABA70-0003
390
0
100
AcDbBlockBegin
  2
*D21
 70
               1
 10
0.0
 20
0.0
 30
0.0
  3
*D21
  1

  0
LINE
  5
143
100
AcDbEntity
  8
0
370
              -2
390
0
  6
Continuous
 62
               0
100
AcDbLine
 10
6200.6626981322215
 20
-12469.924286268584
 30
0.0
 11
6207.0
 21
-12469.924286268584
 31
0.0
  0
LINE
  5
144
100
AcDbEntity
  8
0
370
              -2
390
0
  6
Continuous
 62
               0
100
AcDbLine
 10
6200.6626981322215
 20
-12304.924286268584
 30
0.0
 11
6207.0
 21
-12304.924286268584
 31
0.0
  0
LINE
  5
145
100
AcDbEntity
  8
0
370
              -2
390
0
  6
Continuous
 62
               0
100
AcDbLine
 10
6207.0
 20
-12469.924286268584
 30
0.0
 11
6207.0
 21
-12304.924286268584
 31
0.0
  0
CIRCLE
  5
146
102
{ACAD_REACTORS
330
147
102
}
100
AcDbEntity
  8
0
370
              -2
390
0
  6
Continuous
 62
               0
100
AcDbCircle
 10
6207.0
 20
-12469.924286268584
 30
0.0
 40
1.9998779296875
  0
HATCH
  5
147
100
AcDbEntity
  8
0
370
              -2
390
0
  6
Continuous
 62
               0
100
AcDbHatch
 10
0.0
 20
0.0
 30
0.0
210
0.0
220
0.0
230
1.0
  2
SOLID
 70
               1
 71
               1
 91
        1
 92
        1
 93
        1
 72
               2
 10
6207.0
 20
-12469.924286268584
 40
1.9998779296875
 50
0.0
 51
360.0
 73
               0
 97
        1
330
146
 75
               0
 76
               1
 98
        1
 10
0.0
 20
0.0
  0
CIRCLE
  5
148
102
{ACAD_REACTORS
330
149
102
}
100
AcDbEntity
  8
0
370
              -2
390
0
  6
Continuous
 62
               0
100
AcDbCircle
 10
6207.0
 20
-12304.924286268584
 30
0.0
 40
1.9998779296875
  0
HATCH
  5
149
100
AcDbEntity
  8
0
370
              -2
390
0
  6
Continuous
 62
               0
100
AcDbHatch
 10
0.0
 20
0.0
 30
0.0
210
0.0
220
0.0
230
1.0
  2
SOLID
 70
               1
 71
               1
 91
        1
 92
        1
 93
        1
 72
               2
 10
6207.0
 20
-12304.924286268584
 40
1.9998779296875
 50
0.0
 51
360.0
 73
               0
 97
        1
330
148
 75
               0
 76
               1
 98
        1
 10
0.0
 20
0.0
  0
MTEXT
  5
14A
100
AcDbEntity
  8
0
390
0
 62
               0
100
AcDbMText
 10
6173.1223828125003
 20
-12454.4375
 30
0.0
 40
24.432617187500004
 41
0.0
 71
               1
 72
               1
  1
165(深さ)
  7
ＭＳ ゴシック
 11
0.0
 21
1.0
 31
0.0
 73
               1
 44
0.7828267384257844
  0
POINT
  5
14B
100
AcDbEntity
  8
Defpoints
370
               0
390
0
 62
               0
100
AcDbPoint
 10
6225.6626981322215
 20
-12304.924286268584
 30
0.0
  0
POINT
  5
14C
100
AcDbEntity
  8
Defpoints
370
               0
390
0
 62
               0
100
AcDbPoint
 10
6225.6626981322215
 20
-12469.924286268584
 30
0.0
  0
POINT
  5
14D
100
AcDbEntity
  8
Defpoints
370
               0
390
0
 62
               0
100
AcDbPoint
 10
6207.0
 20
-12469.924286268584
 30
0.0
  0
ENDBLK
  5
14E
100
AcDbEntity
  8
ABA70-0003
390
0
100
AcDbBlockEnd
  0
ENDSEC
  0
SECTION
  2
ENTITIES
  0
MTEXT
  5
14F
100
AcDbEntity
  8
ABA70-0003
390
0
 62
               7
100
AcDbMText
 10
4663.5979947169917
 20
-13157.816997412952
 30
0.0
 40
16.288411458333332
 41
0.0
 71
               1
 72
               1
  1
品名
  7
ＭＳ ゴシック
 73
               1
 44
0.7859706209094221
  0
MTEXT
  5
150
100
AcDbEntity
  8
ABA70-0003
390
0
 62
               7
100
AcDbMText
 10
4663.5979947169917
 20
-13242.816997412952
 30
0.0
 40
16.288411458333332
 41
0.0
 71
               1
 72
               1
  1
仕様
  7
ＭＳ ゴシック
 73
               1
 44
0.7859706209094221
  0
MTEXT
  5
151
100
AcDbEntity
  8
ABA70-0003
390
0
 62
               7
100
AcDbMText
 10
4716.5979947169917
 20
-13186.399458350454
 30
0.0
 40
24.432617187500004
 41
0.0
 71
               1
 72
               1
  1
洗面器  -HATRIA,Dolcevita-
  7
ＭＳ ゴシック
 73
               1
 44
0.7859706209094218
  0
LINE
  5
152
100
AcDbEntity
  8
ABA70-0003
370
               5
390
0
  6
Continuous
 62
               7
100
AcDbLine
 10
6606.5979947165097
 20
-13234.402075537953
 30
0.0
 11
4656.5979947165097
 21
-13234.402075537953
 31
0.0
  0
POLYLINE
  5
153
100
AcDbEntity
  8
ABA70-0003
370
               5
390
0
  6
Continuous
 62
               7
100
AcDb2dPolyline
 66
               1
 10
0.0
 20
0.0
 30
0.0
 75
               5
  0
VERTEX
  5
154
100
AcDbEntity
  8
ABA70-0003
370
               5
390
0
  6
Continuous
 62
               7
100
AcDbVertex
100
AcDb2dVertex
 10
6606.5979947169917
 20
-10604.402075537953
 30
0.0
  0
VERTEX
  5
155
100
AcDbEntity
  8
ABA70-0003
370
               5
390
0
  6
Continuous
 62
               7
100
AcDbVertex
100
AcDb2dVertex
 10
4656.5979947169917
 20
-10604.402075537953
 30
0.0
  0
VERTEX
  5
156
100
AcDbEntity
  8
ABA70-0003
370
               5
390
0
  6
Continuous
 62
               7
100
AcDbVertex
100
AcDb2dVertex
 10
4656.5979947169917
 20
-13404.402075537953
 30
0.0
  0
VERTEX
  5
157
100
AcDbEntity
  8
ABA70-0003
370
               5
390
0
  6
Continuous
 62
               7
100
AcDbVertex
100
AcDb2dVertex
 10
6606.5979947169917
 20
-13404.402075537953
 30
0.0
  0
VERTEX
  5
158
100
AcDbEntity
  8
ABA70-0003
370
               5
390
0
  6
Continuous
 62
               7
100
AcDbVertex
100
AcDb2dVertex
 10
6606.5979947169917
 20
-10604.402075537953
 30
0.0
  0
SEQEND
  5
159
100
AcDbEntity
  8
ABA70-0003
370
               5
390
0
  6
Continuous
 62
               7
  0
LINE
  5
15A
100
AcDbEntity
  8
ABA70-0003
370
               5
390
0
  6
Continuous
 62
               7
100
AcDbLine
 10
6606.5979947165097
 20
-13149.402075537953
 30
0.0
 11
4656.5979947165097
 21
-13149.402075537953
 31
0.0
  0
LINE
  5
15B
100
AcDbEntity
  8
ABA70-0003
370
               5
390
0
  6
Continuous
 62
               7
100
AcDbLine
 10
6606.5979947169917
 20
-13319.402075537953
 30
0.0
 11
5853.5979947169917
 21
-13319.402075537953
 31
0.0
  0
MTEXT
  5
15C
100
AcDbEntity
  8
ABA70-0003
390
0
 62
               7
100
AcDbMText
 10
4716.5979947169917
 20
-13271.139938630713
 30
0.0
 40
22.225130797649097
 41
0.0
 71
               1
 72
               1
  1
壁掛け/オーバーフロー付き/壁取付ボルト付属/陶器/ホワイト
  7
ＭＳ ゴシック
 73
               1
 44
1.2480524021299304
  0
MTEXT
  5
15D
100
AcDbEntity
  8
ABA70-0003
390
0
 62
               7
100
AcDbMText
 10
4656.5979947171945
 20
-13416.25589759481
 30
0.0
 40
21.717881944444446
 41
0.0
 71
               1
 72
               1
  1
120221HS
  7
ＭＳ ゴシック
 73
               1
 44
0.7859706209094221
  0
MTEXT
  5
15E
100
AcDbEntity
  8
ABA70-0003
390
0
 62
               7
100
AcDbMText
 10
5883.4694009692512
 20
-13349.31247001126
 30
0.0
 40
24.432617187500004
 41
0.0
 71
               1
 72
               1
  1
大洋金物株式会社 ティーフォルム事業部
  7
ＭＳ ゴシック
 73
               1
 44
0.7859706209094218
  0
INSERT
  5
15F
100
AcDbEntity
  8
ABA70-0003
390
0
 62
               7
100
AcDbBlockReference
  2
グループ-2
 10
5631.5979947167507
 20
-12010.399368179253
 30
0.0
  0
MTEXT
  5
160
100
AcDbEntity
  8
ABA70-0003
390
0
 62
               7
100
AcDbMText
 10
6415.5979947172509
 20
-13271.399458350454
 30
0.0
 40
24.432617187500004
 41
0.0
 71
               1
 72
               1
  1
1:10
  7
ＭＳ ゴシック
 73
               1
 44
0.7859706209094218
  0
MTEXT
  5
161
100
AcDbEntity
  8
ABA70-0003
390
0
 62
               7
100
AcDbMText
 10
6362.5979947172509
 20
-13242.816997412952
 30
0.0
 40
16.288411458333332
 41
0.0
 71
               1
 72
               1
  1
縮尺
  7
ＭＳ ゴシック
 73
               1
 44
0.7859706209094221
  0
LINE
  5
162
100
AcDbEntity
  8
ABA70-0003
370
               5
390
0
  6
Continuous
 62
               7
100
AcDbLine
 10
6355.5979947172509
 20
-13319.402075537953
 30
0.0
 11
6355.5979947172509
 21
-13234.402075537953
 31
0.0
  0
MTEXT
  5
163
100
AcDbEntity
  8
ABA70-0003
390
0
 62
               7
100
AcDbMText
 10
6111.5979947172509
 20
-13242.816997412952
 30
0.0
 40
16.288411458333332
 41
0.0
 71
               1
 72
               1
  1
容量
  7
ＭＳ ゴシック
 73
               1
 44
0.7859706209094221
  0
MTEXT
  5
164
100
AcDbEntity
  8
ABA70-0003
390
0
 62
               7
100
AcDbMText
 10
6164.5979947172509
 20
-13271.399458350454
 30
0.0
 40
24.432617187500004
 41
0.0
 71
               1
 72
               1
  1
9L
  7
ＭＳ ゴシック
 73
               1
 44
0.7859706209094218
  0
LINE
  5
165
100
AcDbEntity
  8
ABA70-0003
370
               5
390
0
  6
Continuous
 62
               7
100
AcDbLine
 10
6104.5979947172509
 20
-13319.402075537953
 30
0.0
 11
6104.5979947172509
 21
-13234.402075537953
 31
0.0
  0
MTEXT
  5
166
100
AcDbEntity
  8
ABA70-0003
390
0
 62
               7
100
AcDbMText
 10
5860.5979947172509
 20
-13157.816997412952
 30
0.0
 40
16.288411458333332
 41
0.0
 71
               1
 72
               1
  1
品番
  7
ＭＳ ゴシック
 73
               1
 44
0.7859706209094221
  0
MTEXT
  5
167
100
AcDbEntity
  8
ABA70-0003
390
0
 62
               7
100
AcDbMText
 10
5860.5979947172509
 20
-13242.816997412952
 30
0.0
 40
16.288411458333332
 41
0.0
 71
               1
 72
               1
  1
重量
  7
ＭＳ ゴシック
 73
               1
 44
0.7859706209094221
  0
MTEXT
  5
168
100
AcDbEntity
  8
ABA70-0003
390
0
 62
               7
100
AcDbMText
 10
5913.5979947172509
 20
-13186.399458350454
 30
0.0
 40
24.432617187500004
 41
0.0
 71
               1
 72
               1
  1
ABA70-0003
  7
ＭＳ ゴシック
 73
               1
 44
0.7859706209094218
  0
MTEXT
  5
169
100
AcDbEntity
  8
ABA70-0003
390
0
 62
               7
100
AcDbMText
 10
5913.5979947172509
 20
-13271.399458350454
 30
0.0
 40
24.432617187500004
 41
0.0
 71
               1
 72
               1
  1
26kg
  7
ＭＳ ゴシック
 73
               1
 44
0.7859706209094218
  0
LINE
  5
16A
100
AcDbEntity
  8
ABA70-0003
370
               5
390
0
  6
Continuous
 62
               7
100
AcDbLine
 10
5853.5979947172509
 20
-13404.402075537953
 30
0.0
 11
5853.5979947172509
 21
-13149.402075537953
 31
0.0
  0
POLYLINE
  5
16B
100
AcDbEntity
  8
ABA70-0003
370
               5
390
0
  6
Continuous
 62
               7
100
AcDb2dPolyline
 66
               1
 10
0.0
 20
0.0
 30
0.0
 75
               5
  0
VERTEX
  5
16C
100
AcDbEntity
  8
ABA70-0003
370
               5
390
0
  6
Continuous
 62
               7
100
AcDbVertex
100
AcDb2dVertex
 10
6606.5979947169917
 20
-10604.402075537953
 30
0.0
  0
VERTEX
  5
16D
100
AcDbEntity
  8
ABA70-0003
370
               5
390
0
  6
Continuous
 62
               7
100
AcDbVertex
100
AcDb2dVertex
 10
4656.5979947169917
 20
-10604.402075537953
 30
0.0
  0
VERTEX
  5
16E
100
AcDbEntity
  8
ABA70-0003
370
               5
390
0
  6
Continuous
 62
               7
100
AcDbVertex
100
AcDb2dVertex
 10
4656.5979947169917
 20
-13404.402075537953
 30
0.0
  0
VERTEX
  5
16F
100
AcDbEntity
  8
ABA70-0003
370
               5
390
0
  6
Continuous
 62
               7
100
AcDbVertex
100
AcDb2dVertex
 10
6606.5979947169917
 20
-13404.402075537953
 30
0.0
  0
VERTEX
  5
170
100
AcDbEntity
  8
ABA70-0003
370
               5
390
0
  6
Continuous
 62
               7
100
AcDbVertex
100
AcDb2dVertex
 10
6606.5979947169917
 20
-10604.402075537953
 30
0.0
  0
SEQEND
  5
171
100
AcDbEntity
  8
ABA70-0003
370
               5
390
0
  6
Continuous
 62
               7
  0
DIMENSION
  5
172
100
AcDbEntity
  8
ABA70-0003
370
               5
390
0
  6
Continuous
 62
               7
100
AcDbDimension
  2
*D3
 10
5645.385846980721
 20
-10927.528861359791
 30
0.0
 11
5270.3858711704988
 21
-10927.528861359791
 31
0.0
 71
               5
 72
               1
 41
1.0
 42
0.0
  3
tfrom線あり
100
AcDbAlignedDimension
 13
4895.3858953602767
 23
-11153.754121615792
 33
0.0
 14
5645.385846980721
 24
-11153.754121615782
 34
0.0
100
AcDbRotatedDimension
1001
ACAD
1000
DSTYLE
1002
{
1070
             279
1070
               2
1070
             340
1005
37
1070
             147
1040
5.0
1002
}
  0
DIMENSION
  5
173
100
AcDbEntity
  8
ABA70-0003
370
               5
390
0
  6
Continuous
 62
               7
100
AcDbDimension
  2
*D4
 10
5273.4348421546265
 20
-10977.528861360273
 30
0.0
 11
5223.4348421546265
 21
-10977.528861360273
 31
0.0
 71
               5
 72
               1
 41
1.0
 42
0.0
  3
tfrom線あり
100
AcDbAlignedDimension
 13
5173.4348421546265
 23
-11142.050946201272
 33
0.0
 14
5273.4348421546265
 24
-11142.050946201272
 34
0.0
100
AcDbRotatedDimension
1001
ACAD
1000
DSTYLE
1002
{
1070
             279
1070
               2
1070
             340
1005
37
1070
             147
1040
5.0
1002
}
  0
DIMENSION
  5
174
100
AcDbEntity
  8
ABA70-0003
370
               5
390
0
  6
Continuous
 62
               7
100
AcDbDimension
  2
*D5
 10
5273.4348421546265
 20
-10977.528861359791
 30
0.0
 11
5323.4348421546265
 21
-10977.528861359791
 31
0.0
 71
               5
 72
               1
 41
1.0
 42
0.0
  3
tfrom線あり
100
AcDbAlignedDimension
 13
5373.4348421546265
 23
-11142.050946201272
 33
0.0
 14
5273.4348421546265
 24
-11142.050946201272
 34
0.0
100
AcDbRotatedDimension
1001
ACAD
1000
DSTYLE
1002
{
1070
             279
1070
               2
1070
             340
1005
37
1070
             147
1040
5.0
1002
}
  0
DIMENSION
  5
175
100
AcDbEntity
  8
ABA70-0003
370
               5
390
0
  6
Continuous
 62
               7
100
AcDbDimension
  2
*D6
 10
5745.385848845317
 20
-11627.528861359813
 30
0.0
 11
5745.385848845317
 21
-11352.528861359813
 31
0.0
 71
               5
 72
               1
 41
1.0
 42
0.0
  3
tfrom線あり
100
AcDbAlignedDimension
 13
5578.4000122103171
 23
-11077.528861359813
 33
0.0
 14
5578.4000122103189
 24
-11627.528861359813
 34
0.0
 50
90.0
100
AcDbRotatedDimension
1001
ACAD
1000
DSTYLE
1002
{
1070
             279
1070
               2
1070
             340
1005
37
1070
             147
1040
5.0
1002
}
  0
DIMENSION
  5
176
100
AcDbEntity
  8
ABA70-0003
370
               5
390
0
  6
Continuous
 62
               7
100
AcDbDimension
  2
*D7
 10
4794.3787915359517
 20
-11222.528861359813
 30
0.0
 11
4794.3787915359517
 21
-11150.028861359813
 31
0.0
 71
               5
 72
               1
 41
1.0
 42
0.0
  3
tfrom線あり
100
AcDbAlignedDimension
 13
4962.3717301306779
 23
-11077.528861359813
 33
0.0
 14
4895.3858939157071
 24
-11222.528861359813
 34
0.0
 50
90.0
100
AcDbRotatedDimension
1001
ACAD
1000
DSTYLE
1002
{
1070
             279
1070
               2
1070
             340
1005
37
1070
             147
1040
5.0
1002
}
  0
DIMENSION
  5
177
100
AcDbEntity
  8
ABA70-0003
370
               5
390
0
  6
Continuous
 62
               7
100
AcDbDimension
  2
*D8
 10
4794.3787915359517
 20
-11552.528861359813
 30
0.0
 11
4794.3787915359517
 21
-11387.528861359813
 31
0.0
 71
               5
 72
               1
 41
1.0
 42
0.0
  3
tfrom線あり
100
AcDbAlignedDimension
 13
4895.3858939157071
 23
-11222.528861359813
 33
0.0
 14
4895.3916126318481
 24
-11552.528861359813
 34
0.0
 50
90.0
100
AcDbRotatedDimension
1001
ACAD
1000
DSTYLE
1002
{
1070
             279
1070
               2
1070
             340
1005
37
1070
             147
1040
5.0
1002
}
  0
DIMENSION
  5
178
100
AcDbEntity
  8
ABA70-0003
370
               5
390
0
  6
Continuous
 62
               7
100
AcDbDimension
  2
*D9
 10
6385.2198274271514
 20
-12184.048121845104
 30
0.0
 11
6427.7198274271514
 21
-12184.048121845104
 31
0.0
 71
               5
 72
               1
 41
1.0
 42
0.0
  3
tfrom線あり
100
AcDbAlignedDimension
 13
6470.2198274271514
 23
-12284.048121845104
 33
0.0
 14
6385.2198274271514
 24
-12302.495886777988
 34
0.0
100
AcDbRotatedDimension
1001
ACAD
1000
DSTYLE
1002
{
1070
             279
1070
               2
1070
             340
1005
37
1070
             147
1040
5.0
1002
}
  0
DIMENSION
  5
179
100
AcDbEntity
  8
ABA70-0003
370
               5
390
0
  6
Continuous
 62
               7
100
AcDbDimension
  2
*D10
 10
6470.2413604247986
 20
-12614.063582259023
 30
0.0
 11
6347.7413604247986
 21
-12614.063582259023
 31
0.0
 71
               5
 72
               1
 41
1.0
 42
0.0
  3
tfrom線あり
100
AcDbAlignedDimension
 13
6225.2413604247986
 23
-12513.812158560024
 33
0.0
 14
6470.2413604247986
 24
-12486.162574069987
 34
0.0
100
AcDbRotatedDimension
1001
ACAD
1000
DSTYLE
1002
{
1070
             279
1070
               2
1070
             340
1005
37
1070
             147
1040
5.0
1002
}
  0
DIMENSION
  5
17A
100
AcDbEntity
  8
ABA70-0003
370
               5
390
0
  6
Continuous
 62
               7
100
AcDbDimension
  2
*D11
 10
5819.7661383244131
 20
-12369.042798259828
 30
0.0
 11
5819.7661383244131
 21
-12326.542798259828
 31
0.0
 71
               5
 72
               1
 41
1.0
 42
0.0
  3
tfrom線あり
100
AcDbAlignedDimension
 13
5901.2684671578336
 23
-12284.042798259828
 33
0.0
 14
5924.139641502612
 24
-12369.042798259828
 34
0.0
 50
90.0
100
AcDbRotatedDimension
1001
ACAD
1000
DSTYLE
1002
{
1070
             279
1070
               2
1070
             340
1005
37
1070
             147
1040
5.0
1002
}
  0
DIMENSION
  5
17B
100
AcDbEntity
  8
ABA70-0003
370
               5
390
0
  6
Continuous
 62
               7
100
AcDbDimension
  2
*D12
 10
5745.385848845317
 20
-12514.04855774494
 30
0.0
 11
5745.385848845317
 21
-12399.049446832039
 31
0.0
 71
               5
 72
               1
 41
1.0
 42
0.0
  3
tfrom線あり
100
AcDbAlignedDimension
 13
5639.0497917926814
 23
-12284.050335919139
 33
0.0
 14
5303.000012813035
 24
-12514.04855774494
 34
0.0
 50
90.0
100
AcDbRotatedDimension
1001
ACAD
1000
DSTYLE
1002
{
1070
             279
1070
               2
1070
             340
1005
37
1070
             147
1040
5.0
1002
}
  0
DIMENSION
  5
17C
100
AcDbEntity
  8
ABA70-0003
370
               5
390
0
  6
Continuous
 62
               7
100
AcDbDimension
  2
*D13
 10
5530.3858888116474
 20
-11727.455935510316
 30
0.0
 11
5270.3858888116474
 21
-11727.455935510316
 31
0.0
 71
               5
 72
               1
 41
1.0
 42
0.0
  3
tfrom線あり
100
AcDbAlignedDimension
 13
5010.3858888116474
 23
-11626.379555275316
 33
0.0
 14
5530.3858888116474
 24
-11626.379539522048
 34
0.0
100
AcDbRotatedDimension
1001
ACAD
1000
DSTYLE
1002
{
1070
             279
1070
               2
1070
             340
1005
37
1070
             147
1040
5.0
1002
}
  0
DIMENSION
  5
17D
100
AcDbEntity
  8
ABA70-0003
370
               5
390
0
  6
Continuous
 62
               7
100
AcDbDimension
  2
*D14
 10
5410.3572258666736
 20
-12184.043254154118
 30
0.0
 11
5270.3572258666736
 21
-12184.043254154118
 31
0.0
 71
               5
 72
               1
 41
1.0
 42
0.0
  3
tfrom線あり
100
AcDbAlignedDimension
 13
5130.3572258666736
 23
-12344.044192787116
 33
0.0
 14
5410.3572258666736
 24
-12344.044192787116
 34
0.0
100
AcDbRotatedDimension
1001
ACAD
1000
DSTYLE
1002
{
1070
             279
1070
               2
1070
             340
1005
37
1070
             147
1040
5.0
1002
}
  0
DIMENSION
  5
17E
100
AcDbEntity
  8
ABA70-0003
370
               5
390
0
  6
Continuous
 62
               7
100
AcDbDimension
  2
*D15
 10
4792.3920803406736
 20
-12284.038049655097
 30
0.0
 11
4792.3920803406736
 21
-12324.041121221107
 31
0.0
 71
               5
 72
               1
 41
1.0
 42
0.0
  3
tfrom線あり
100
AcDbAlignedDimension
 13
5110.3572258666736
 23
-12364.044192787116
 33
0.0
 14
4901.512330452666
 24
-12284.038049655097
 34
0.0
 50
90.0
100
AcDbRotatedDimension
1001
ACAD
1000
DSTYLE
1002
{
1070
             279
1070
               2
1070
             340
1005
37
1070
             147
1040
5.0
1002
}
  0
MTEXT
  5
17F
100
AcDbEntity
  8
ABA70-0003
390
0
 62
               7
100
AcDbMText
 10
4860.4949869620523
 20
-11796.282840558897
 30
0.0
 40
24.432617187500004
 41
833.0
 71
               1
 72
               1
  1
＝φ30もしくはφ35の水栓取付用穴あけ加工を承ります。\P  必要な場合、ご注文の際にご指示ください。
  7
ＭＳ ゴシック
 73
               1
 44
1.0479608278792292
  0
CIRCLE
  5
180
100
AcDbEntity
  8
ABA70-0003
370
               5
390
0
  6
STYLE_01
 62
               7
100
AcDbCircle
 10
4837.8435628132302
 20
-11808.477454766036
 30
0.0
 40
17.5
  0
MTEXT
  5
181
100
AcDbEntity
  8
ABA70-0003
390
0
 62
               7
100
AcDbMText
 10
5475.9918385724086
 20
-12220.605651040811
 30
0.0
 40
24.432617187500004
 41
0.0
 71
               1
 72
               1
  1
壁取付ボルト穴(2ヶ所)
  7
ＭＳ ゴシック
 73
               1
 44
0.7859706209094218
  0
LINE
  5
182
100
AcDbEntity
  8
ABA70-0003
370
               5
390
0
  6
Continuous
 62
               7
100
AcDbLine
 10
5410.7163731514656
 20
-12363.954469626493
 30
0.0
 11
5493.3858529412255
 21
-12250.284989836733
 31
0.0
  0
DIMENSION
  5
183
100
AcDbEntity
  8
ABA70-0003
370
               5
390
0
  6
Continuous
 62
               7
100
AcDbDimension
  2
*D16
 10
5072.6358529412255
 20
-12284.040096431212
 30
0.0
 11
5077.6358529412255
 21
-12220.0
 31
0.0
 70
             128
 71
               5
 72
               1
 41
1.0
 42
0.0
  1
17
  3
tfrom線あり
100
AcDbAlignedDimension
 13
5012.7279857802259
 23
-12304.995886777988
 33
0.0
 14
5024.4045163171895
 24
-12284.040096431212
 34
0.0
 50
90.0
100
AcDbRotatedDimension
1001
ACAD
1000
DSTYLE
1002
{
1070
             279
1070
               2
1070
             340
1005
37
1070
             174
1070
               0
1070
             147
1040
5.0
1002
}
  0
DIMENSION
  5
184
100
AcDbEntity
  8
ABA70-0003
370
               5
390
0
  6
Continuous
 62
               7
100
AcDbDimension
  2
*D17
 10
5819.7661383244131
 20
-12514.042798259828
 30
0.0
 11
5819.7661383244131
 21
-12441.542798259828
 31
0.0
 71
               5
 72
               1
 41
1.0
 42
0.0
  3
tfrom線あり
100
AcDbAlignedDimension
 13
5877.8911383244131
 23
-12369.042798259828
 33
0.0
 14
6193.1624315215649
 24
-12514.042798259828
 34
0.0
 50
90.0
100
AcDbRotatedDimension
1001
ACAD
1000
DSTYLE
1002
{
1070
             279
1070
               2
1070
             340
1005
37
1070
             147
1040
5.0
1002
}
  0
DIMENSION
  5
185
100
AcDbEntity
  8
ABA70-0003
370
               5
390
0
  6
Continuous
 62
               7
100
AcDbDimension
  2
*D18
 10
5259.2413989683664
 20
-11174.394617573322
 30
0.0
 11
5480.7672131452036
 21
-11039.358607772241
 31
0.0
 70
               3
 71
               5
 72
               1
 41
1.0
 42
0.0
  3
tfrom線あり
100
AcDbDiametricDimension
 15
5287.6282853408857
 25
-11150.663105146305
 35
0.0
 40
173.53577507988479
1001
ACAD
1000
DSTYLE
1002
{
1070
             289
1070
               0
1070
             342
1005
48
1070
             340
1005
37
1070
              75
1070
               1
1070
              76
1070
               1
1070
               3
1000

1070
             174
1070
               0
1070
             147
1040
5.0
1002
}
  0
LINE
  5
186
100
AcDbEntity
  8
ABA70-0003
370
              15
390
0
  6
Continuous
 62
               7
100
AcDbLine
 10
5645.3858553295458
 20
-11551.23476764071
 30
0.0
 11
5645.3858469807192
 21
-11153.754121615792
 31
0.0
  0
LINE
  5
187
100
AcDbEntity
  8
ABA70-0003
370
              15
390
0
  6
Continuous
 62
               7
100
AcDbLine
 10
5645.3858553295458
 20
-11551.23476764071
 30
0.0
 11
5645.3858469807192
 21
-11153.754121615792
 31
0.0
  0
LINE
  5
188
100
AcDbEntity
  8
ABA70-0003
370
              15
390
0
  6
Continuous
 62
               7
100
AcDbLine
 10
4895.38588701145
 20
-11551.23476764071
 30
0.0
 11
4895.3858953602767
 21
-11153.754121615792
 31
0.0
  0
LINE
  5
189
100
AcDbEntity
  8
ABA70-0003
370
              15
390
0
  6
Continuous
 62
               7
100
AcDbLine
 10
4901.512330452666
 20
-12284.038049655097
 30
0.0
 11
5639.2021212806812
 21
-12284.050335919139
 31
0.0
  0
LINE
  5
18A
100
AcDbEntity
  8
ABA70-0003
370
              15
390
0
  6
Continuous
 62
               7
100
AcDbLine
 10
4924.3606769314829
 20
-12368.051117684279
 30
0.0
 11
5616.4474307505798
 21
-12368.049879527267
 31
0.0
  0
LINE
  5
18B
100
AcDbEntity
  8
ABA70-0003
370
              15
390
0
  6
Continuous
 62
               7
100
AcDbLine
 10
4962.3717301306779
 20
-11627.455935510101
 30
0.0
 11
5578.4000122103189
 21
-11627.455935510101
 31
0.0
  0
LWPOLYLINE
  5
18C
100
AcDbEntity
  8
ABA70-0003
370
              15
390
0
  6
Continuous
 62
               7
100
AcDbPolyline
 90
        2
 70
             128
 10
4895.3858953602767
 20
-11551.230675254134
 42
0.3792891939378941
 10
4962.3717301306797
 20
-11627.455935510101
 42
0.3792891939378941
  0
LWPOLYLINE
  5
18D
100
AcDbEntity
  8
ABA70-0003
370
              15
390
0
  6
Continuous
 62
               7
100
AcDbPolyline
 90
        2
 70
             128
 10
4901.4397963557003
 20
-12284.045012333863
 42
0.6501337605223255
 10
4896.9223718007142
 20
-12294.096673813128
 42
0.6501337605223255
  0
LINE
  5
18E
100
AcDbEntity
  8
ABA70-0003
370
              15
390
0
  6
Continuous
 62
               7
100
AcDbLine
 10
4916.3001030359655
 20
-12336.067670060549
 30
0.0
 11
4916.4249581760851
 21
-12360.071346093269
 31
0.0
  0
LWPOLYLINE
  5
18F
100
AcDbEntity
  8
ABA70-0003
370
              15
390
0
  6
Continuous
 62
               7
100
AcDbPolyline
 90
        2
 70
             128
 10
4916.3001030359655
 20
-12336.067670060549
 42
0.1927369692840256
 10
4896.9213382043763
 20
-12294.097505890682
 42
0.1927369692840256
  0
LWPOLYLINE
  5
190
100
AcDbEntity
  8
ABA70-0003
370
              15
390
0
  6
Continuous
 62
               7
100
AcDbPolyline
 90
        2
 70
             128
 10
4916.4249581760851
 20
-12360.071346093269
 42
0.4091527341525016
 10
4924.3109429466749
 20
-12368.049879527267
 42
0.4091527341525016
  0
LWPOLYLINE
  5
191
100
AcDbEntity
  8
ABA70-0003
370
              15
390
0
  6
Continuous
 62
               7
100
AcDbPolyline
 90
        3
 70
             128
 10
5371.3305187654287
 20
-12483.508257235097
 10
5372.1607565028135
 20
-12483.39668045828
 42
0.2544727649101038
 10
5529.7125387083152
 20
-12368.050034697721
 42
0.2544727649101038
  0
ARC
  5
192
100
AcDbEntity
  8
ABA70-0003
370
              15
390
0
  6
Continuous
 62
               7
100
AcDbCircle
 10
5284.0995996009788
 20
-11114.710881717965
 30
0.0
 40
1371.5740915024842
100
AcDbArc
 50
269.43187961428993
 51
273.64642276686408
  0
LINE
  5
193
100
AcDbEntity
  8
ABA70-0003
370
              15
390
0
  6
Continuous
 62
               7
100
AcDbLine
 10
5303.000012813035
 20
-12514.04855774494
 30
0.0
 11
5302.9999112130363
 21
-12494.37618154494
 31
0.0
  0
LINE
  5
194
100
AcDbEntity
  8
ABA70-0003
370
              15
390
0
  6
Continuous
 62
               7
100
AcDbLine
 10
5302.9999112130363
 20
-12494.37618154494
 30
0.0
 11
5311.0774414130365
 21
-12486.405559944938
 31
0.0
  0
LINE
  5
195
100
AcDbEntity
  8
ABA70-0003
370
              15
390
0
  6
Continuous
 62
               7
100
AcDbLine
 10
5237.9995332130356
 20
-12514.04855774494
 30
0.0
 11
5237.9996094130374
 21
-12494.52466994494
 31
0.0
  0
LINE
  5
196
100
AcDbEntity
  8
ABA70-0003
370
              15
390
0
  6
Continuous
 62
               7
100
AcDbLine
 10
5237.9996094130374
 20
-12494.52466994494
 30
0.0
 11
5229.7248736130359
 21
-12486.35950974494
 31
0.0
  0
LINE
  5
197
100
AcDbEntity
  8
ABA70-0003
370
              15
390
0
  6
Continuous
 62
               7
100
AcDbLine
 10
5303.000012813035
 20
-12514.04855774494
 30
0.0
 11
5237.9995332140252
 21
-12514.04830405384
 31
0.0
  0
LINE
  5
198
100
AcDbEntity
  8
ABA70-0003
370
              15
390
0
  6
Continuous
 62
               7
100
AcDbLine
 10
5370.9173942361322
 20
-12483.508257235097
 30
0.0
 11
5371.3305187654278
 21
-12483.508257235097
 31
0.0
  0
LWPOLYLINE
  5
199
100
AcDbEntity
  8
ABA70-0003
370
              15
390
0
  6
Continuous
 62
               7
100
AcDbPolyline
 90
        2
 70
             128
 10
5643.8360574041408
 20
-12294.096673813128
 42
0.6685052491219005
 10
5639.0497917926814
 20
-12284.050335919139
 42
0.6685052491219005
  0
LWPOLYLINE
  5
19A
100
AcDbEntity
  8
ABA70-0003
370
              15
390
0
  6
Continuous
 62
               7
100
AcDbPolyline
 90
        2
 70
             128
 10
5616.4474307505798
 20
-12368.049879527267
 42
0.4091527341519985
 10
5624.3334155211678
 20
-12360.071346093269
 42
0.4091527341519985
  0
LWPOLYLINE
  5
19B
100
AcDbEntity
  8
ABA70-0003
370
              15
390
0
  6
Continuous
 62
               7
100
AcDbPolyline
 90
        2
 70
             128
 10
5643.8360574041153
 20
-12294.096673813156
 42
0.1926893400330562
 10
5624.4583261688895
 20
-12336.067670060558
 42
0.1926893400330562
  0
LINE
  5
19C
100
AcDbEntity
  8
ABA70-0003
370
              15
390
0
  6
Continuous
 62
               7
100
AcDbLine
 10
5624.4583261688895
 20
-12336.067670060556
 30
0.0
 11
5624.3334155211678
 21
-12360.071346093269
 31
0.0
  0
LWPOLYLINE
  5
19D
100
AcDbEntity
  8
ABA70-0003
370
              15
390
0
  6
Continuous
 62
               7
100
AcDbPolyline
 90
        2
 70
             128
 10
5578.4000122103189
 20
-11627.455935510101
 42
0.379289193937904
 10
5645.385846980721
 20
-11551.230675254132
 42
0.379289193937904
  0
LINE
  5
19E
100
AcDbEntity
  8
ABA70-0003
370
              15
390
0
  6
Continuous
 62
               7
100
AcDbLine
 10
4962.3717301306779
 20
-11077.528861359813
 30
0.0
 11
5578.4000122103171
 21
-11077.528861359813
 31
0.0
  0
LWPOLYLINE
  5
19F
100
AcDbEntity
  8
ABA70-0003
370
              15
390
0
  6
Continuous
 62
               7
100
AcDbPolyline
 90
        2
 70
             128
 10
4962.3717301306806
 20
-11077.528861359813
 42
0.3792891939378977
 10
4895.3858953602767
 20
-11153.754121615782
 42
0.3792891939378977
  0
CIRCLE
  5
1A0
100
AcDbEntity
  8
ABA70-0003
370
              15
390
0
  6
Continuous
 62
               7
100
AcDbCircle
 10
5273.4348421546265
 20
-11162.528861359813
 30
0.0
 40
18.5
  0
CIRCLE
  5
1A1
100
AcDbEntity
  8
ABA70-0003
370
              15
390
0
  6
Continuous
 62
               7
100
AcDbCircle
 10
5272.7279857797357
 20
-11322.528861359813
 30
0.0
 40
23.378996789436314
  0
CIRCLE
  5
1A2
100
AcDbEntity
  8
ABA70-0003
370
              15
390
0
  6
Continuous
 62
               7
100
AcDbCircle
 10
5272.7279857797357
 20
-11322.528861359813
 30
0.0
 40
35.79949243820829
  0
LWPOLYLINE
  5
1A3
100
AcDbEntity
  8
ABA70-0003
370
              15
390
0
  6
Continuous
 62
               7
100
AcDbPolyline
 90
        2
 70
             128
 10
5645.385846980721
 20
-11153.754121615782
 42
0.3792891939378874
 10
5578.4000122103198
 20
-11077.528861359813
 42
0.3792891939378874
  0
LWPOLYLINE
  5
1A4
100
AcDbEntity
  8
ABA70-0003
370
              15
390
0
  6
Continuous
 62
               7
100
AcDbPolyline
 90
        3
 70
             128
 10
5974.8911383244131
 20
-12368.061212718336
 42
0.2861355978237085
 10
6110.6332374445919
 20
-12480.527465100604
 10
6117.8718387890713
 20
-12481.507102599571
  0
LINE
  5
1A5
100
AcDbEntity
  8
ABA70-0003
370
              15
390
0
  6
Continuous
 62
               7
100
AcDbLine
 10
6258.1629111215643
 20
-12514.06374877376
 30
0.0
 11
6193.1624315225545
 21
-12514.063495082661
 31
0.0
  0
LINE
  5
1A6
100
AcDbEntity
  8
ABA70-0003
370
              15
390
0
  6
Continuous
 62
               7
100
AcDbLine
 10
6193.1624315225545
 20
-12514.063495082661
 30
0.0
 11
6193.1625077215667
 21
-12494.349862712052
 31
0.0
  0
LINE
  5
1A7
100
AcDbEntity
  8
ABA70-0003
370
              15
390
0
  6
Continuous
 62
               7
100
AcDbLine
 10
6193.1625077215667
 20
-12494.349862712052
 30
0.0
 11
6184.8877719215652
 21
-12486.184702512051
 31
0.0
  0
LINE
  5
1A8
100
AcDbEntity
  8
ABA70-0003
370
              15
390
0
  6
Continuous
 62
               7
100
AcDbLine
 10
6258.1629111215643
 20
-12514.06374877376
 30
0.0
 11
6258.1628095215656
 21
-12494.201374312051
 31
0.0
  0
LINE
  5
1A9
100
AcDbEntity
  8
ABA70-0003
370
              15
390
0
  6
Continuous
 62
               7
100
AcDbLine
 10
6258.1628095215656
 20
-12494.201374312051
 30
0.0
 11
6266.2403397215658
 21
-12486.23075271205
 31
0.0
  0
LINE
  5
1AA
100
AcDbEntity
  8
ABA70-0003
370
              15
390
0
  6
STYLE_01
 62
               7
100
AcDbLine
 10
6248.1628462342305
 20
-12469.042200611877
 30
0.0
 11
6248.1626705197759
 21
-12514.06358225853
 31
0.0
  0
LINE
  5
1AB
100
AcDbEntity
  8
ABA70-0003
370
              15
390
0
  6
STYLE_01
 62
               7
100
AcDbLine
 10
6203.1628462342305
 20
-12469.042200611877
 30
0.0
 11
6203.1626705227009
 21
-12514.062832781055
 31
0.0
  0
SPLINE
  5
1AC
100
AcDbEntity
  8
ABA70-0003
370
              15
390
0
  6
STYLE_01
 62
               7
100
AcDbSpline
210
0.0
220
0.0
230
1.0
 70
               8
 71
               2
 72
               8
 73
               5
 74
               0
 42
0.000001
 43
0.000001
 40
0.0
 40
0.0
 40
0.0
 40
1.0
 40
2.0
 40
3.0
 40
3.0
 40
3.0
 10
5995.2198274271514
 20
-12304.995886777988
 30
0.0
 10
5992.3917990724485
 20
-12372.411318612852
 30
0.0
 10
6071.6082009275515
 20
-12459.588681387148
 30
0.0
 10
6184.4357972052767
 20
-12469.041384214765
 30
0.0
 10
6196.1292043880248
 20
-12469.042382435357
 30
0.0
  0
LINE
  5
1AD
100
AcDbEntity
  8
ABA70-0003
370
              15
390
0
  6
STYLE_01
 62
               7
100
AcDbLine
 10
5989.0281499068469
 20
-12304.995886777988
 30
0.0
 11
6407.6761083174724
 21
-12304.995886777988
 31
0.0
  0
LINE
  5
1AE
100
AcDbEntity
  8
ABA70-0003
370
              15
390
0
  6
Continuous
 62
               7
100
AcDbLine
 10
6184.8877719215652
 20
-12486.169101037294
 30
0.0
 11
6470.2198274271514
 21
-12486.208437701709
 31
0.0
  0
ARC
  5
1AF
100
AcDbEntity
  8
ABA70-0003
370
              15
390
0
  6
Continuous
 62
               7
100
AcDbCircle
 10
6184.2077400012076
 20
-12011.938614400009
 30
0.0
 40
474.23097420945487
100
AcDbArc
 50
261.95903991521527
 51
270.08216032786243
  0
LINE
  5
1B0
100
AcDbEntity
  8
ABA70-0003
370
              15
390
0
  6
Continuous
 62
               7
100
AcDbLine
 10
5949.2367177463611
 20
-12369.061212718336
 30
0.0
 11
6470.2198274271514
 21
-12369.061212718336
 31
0.0
  0
SPLINE
  5
1B1
100
AcDbEntity
  8
ABA70-0003
370
              15
390
0
  6
STYLE_01
 62
               7
100
AcDbSpline
210
0.0
220
0.0
230
1.0
 70
               8
 71
               2
 72
               7
 73
               4
 74
               0
 42
0.000001
 43
0.000001
 40
0.0
 40
0.0
 40
0.0
 40
1.0
 40
2.0
 40
2.0
 40
2.0
 10
6325.2198274271514
 20
-12304.995886777988
 30
0.0
 10
6317.6300239254588
 20
-12423.756880130593
 30
0.0
 10
6280.9446700786166
 20
-12460.220981745731
 30
0.0
 10
6248.1628462342305
 20
-12469.042200611877
 30
0.0
  0
SPLINE
  5
1B2
100
AcDbEntity
  8
ABA70-0003
370
              15
390
0
  6
STYLE_01
 62
               7
100
AcDbSpline
210
0.0
220
0.0
230
1.0
 70
               8
 71
               2
 72
               7
 73
               4
 74
               0
 42
0.000001
 43
0.000001
 40
0.0
 40
0.0
 40
0.0
 40
1.0
 40
2.0
 40
2.0
 40
2.0
 10
6407.6761083174724
 20
-12304.995886777988
 30
0.0
 10
6412.8236619079471
 20
-12304.995886777988
 30
0.0
 10
6454.2039512147039
 20
-12284.063361220433
 30
0.0
 10
6464.8911383244131
 20
-12284.063361220433
 30
0.0
  0
LINE
  5
1B3
100
AcDbEntity
  8
ABA70-0003
370
              15
390
0
  6
Continuous
 62
               7
100
AcDbLine
 10
5926.1253312266717
 20
-12284.048121845104
 30
0.0
 11
6470.2198274271514
 21
-12284.048121845104
 31
0.0
  0
LINE
  5
1B4
100
AcDbEntity
  8
ABA70-0003
370
              15
390
0
  6
Continuous
 62
               7
100
AcDbLine
 10
6470.2198274271514
 20
-12486.208437701709
 30
0.0
 11
6470.2198274271514
 21
-12284.048121845104
 31
0.0
  0
LINE
  5
1B5
100
AcDbEntity
  8
ABA70-0003
370
              15
390
0
  6
Continuous
 62
               7
100
AcDbLine
 10
6402.7198274271514
 20
-12304.995886777988
 30
0.0
 11
6402.7198274271514
 21
-12319.995886777988
 31
0.0
  0
LINE
  5
1B6
100
AcDbEntity
  8
ABA70-0003
370
              15
390
0
  6
Continuous
 62
               7
100
AcDbLine
 10
6367.7198274271514
 20
-12304.995886777988
 30
0.0
 11
6367.7198274271514
 21
-12319.995886777988
 31
0.0
  0
SPLINE
  5
1B7
100
AcDbEntity
  8
ABA70-0003
370
              15
390
0
  6
STYLE_01
 62
               7
100
AcDbSpline
210
0.0
220
0.0
230
1.0
 70
               8
 71
               2
 72
               7
 73
               4
 74
               0
 42
0.000001
 43
0.000001
 40
0.0
 40
0.0
 40
0.0
 40
1.0
 40
2.0
 40
2.0
 40
2.0
 10
5982.8364723865425
 20
-12304.995886777988
 30
0.0
 10
5977.6889187960678
 20
-12304.995886777988
 30
0.0
 10
5936.308629489311
 20
-12284.063361220433
 30
0.0
 10
5925.6214423796018
 20
-12284.063361220433
 30
0.0
  0
LWPOLYLINE
  5
1B8
100
AcDbEntity
  8
ABA70-0003
370
              15
390
0
  6
Continuous
 62
               7
100
AcDbPolyline
 90
        2
 70
             128
 10
5926.3480551812745
 20
-12284.045012333863
 42
0.6501337605223311
 10
5921.8306306262884
 20
-12294.096673813128
 42
0.6501337605223311
  0
LINE
  5
1B9
100
AcDbEntity
  8
ABA70-0003
370
              15
390
0
  6
Continuous
 62
               7
100
AcDbLine
 10
5941.2083618615397
 20
-12336.067670060549
 30
0.0
 11
5941.3332170016592
 21
-12361.071346093269
 31
0.0
  0
LWPOLYLINE
  5
1BA
100
AcDbEntity
  8
ABA70-0003
370
              15
390
0
  6
Continuous
 62
               7
100
AcDbPolyline
 90
        2
 70
             128
 10
5941.2083618615397
 20
-12336.067670060549
 42
0.1927369692840444
 10
5921.8295970299505
 20
-12294.097505890682
 42
0.1927369692840444
  0
SPLINE
  5
1BB
100
AcDbEntity
  8
ABA70-0003
370
              15
390
0
  6
STYLE_01
 62
               7
100
AcDbSpline
210
0.0
220
0.0
230
1.0
 70
               8
 71
               2
 72
               7
 73
               4
 74
               0
 42
0.000001
 43
0.000001
 40
0.0
 40
0.0
 40
0.0
 40
1.0
 40
2.0
 40
2.0
 40
2.0
 10
4957.9163644183982
 20
-12304.995886777988
 30
0.0
 10
4952.7688108279235
 20
-12304.995886777988
 30
0.0
 10
4911.3885215211667
 20
-12284.063361220433
 30
0.0
 10
4900.7013344114575
 20
-12284.063361220433
 30
0.0
  0
INSERT
  5
1BC
100
AcDbEntity
  8
ABA70-0003
390
0
 62
               7
100
AcDbBlockReference
  2
グループ-1
 10
5631.5979947167507
 20
-12010.399368179253
 30
0.0
  0
SPLINE
  5
1BD
100
AcDbEntity
  8
ABA70-0003
370
              15
390
0
  6
STYLE_01
 62
               7
100
AcDbSpline
210
0.0
220
0.0
230
1.0
 70
               8
 71
               2
 72
               7
 73
               4
 74
               0
 42
0.000001
 43
0.000001
 40
0.0
 40
0.0
 40
0.0
 40
1.0
 40
2.0
 40
2.0
 40
2.0
 10
5582.8553748024942
 20
-12304.995899904432
 30
0.0
 10
5588.0029283929689
 20
-12304.995900120673
 30
0.0
 10
5629.3832185790743
 20
-12284.063376301452
 30
0.0
 10
5640.0704056887835
 20
-12284.063376750406
 30
0.0
  0
LINE
  5
1BE
100
AcDbEntity
  8
ABA70-0003
370
               5
390
0
  6
Continuous
 62
               7
100
AcDbLine
 10
4956.397469507363
 20
-11153.750029229204
 30
0.0
 11
4956.397469507363
 21
-11551.23476764071
 31
0.0
  0
LINE
  5
1BF
100
AcDbEntity
  8
ABA70-0003
370
               5
390
0
  6
Continuous
 62
               7
100
AcDbLine
 10
5584.3742570810882
 20
-11153.750029229204
 30
0.0
 11
5584.3742570810882
 21
-11551.23476764071
 31
0.0
  0
ARC
  5
1C0
100
AcDbEntity
  8
ABA70-0003
370
               5
390
0
  6
Continuous
 62
               7
100
AcDbCircle
 10
4971.8765177004752
 20
-11549.322866201186
 30
0.0
 40
15.596675930437945
100
AcDbArc
 50
187.04125064902701
 51
271.75616006092747
  0
ARC
  5
1C1
100
AcDbEntity
  8
ABA70-0003
370
               5
390
0
  6
Continuous
 62
               7
100
AcDbCircle
 10
5568.8952088879778
 20
-11549.322866201186
 30
0.0
 40
15.596675930438755
100
AcDbArc
 50
268.24383993907253
 51
352.95874935097339
  0
LINE
  5
1C2
100
AcDbEntity
  8
ABA70-0003
370
               5
390
0
  6
Continuous
 62
               7
100
AcDbLine
 10
4972.3544930603584
 20
-11140.072580469492
 30
0.0
 11
5568.4172335280964
 21
-11140.07258046949
 31
0.0
  0
ARC
  5
1C3
100
AcDbEntity
  8
ABA70-0003
370
               5
390
0
  6
Continuous
 62
               7
100
AcDbCircle
 10
4971.8765177004752
 20
-11155.661930668728
 30
0.0
 40
15.596675930438755
100
AcDbArc
 50
88.243839939072515
 51
172.95874935097339
  0
ARC
  5
1C4
100
AcDbEntity
  8
ABA70-0003
370
               5
390
0
  6
Continuous
 62
               7
100
AcDbCircle
 10
5568.8952088879778
 20
-11155.661930668728
 30
0.0
 40
15.596675930437945
100
AcDbArc
 50
7.0412506490270337
 51
91.756160060927513
  0
LINE
  5
1C5
100
AcDbEntity
  8
ABA70-0003
370
               5
390
0
  6
Continuous
 62
               7
100
AcDbLine
 10
4972.3544930603566
 20
-11564.912216400424
 30
0.0
 11
5568.4172335280964
 21
-11564.912216400424
 31
0.0
  0
LINE
  5
1C6
100
AcDbEntity
  8
ABA70-0003
370
              15
390
0
  6
STYLE_01
 62
               7
100
AcDbLine
 10
4957.9163644183982
 20
-12304.995886777988
 30
0.0
 11
5012.7279857802259
 21
-12304.995886777988
 31
0.0
  0
LINE
  5
1C7
100
AcDbEntity
  8
ABA70-0003
370
              15
390
0
  6
STYLE_01
 62
               7
100
AcDbLine
 10
5582.8553748024942
 20
-12304.995899904432
 30
0.0
 11
5012.7279857802259
 21
-12304.995886777988
 31
0.0
  0
LINE
  5
1C8
100
AcDbEntity
  8
ABA70-0003
370
              15
390
0
  6
STYLE_01
 62
               7
100
AcDbLine
 10
5410.3572258666736
 20
-12344.044192787116
 30
0.0
 11
5410.3572258666736
 21
-12384.044192787116
 31
0.0
  0
LINE
  5
1C9
100
AcDbEntity
  8
ABA70-0003
370
              15
390
0
  6
STYLE_01
 62
               7
100
AcDbLine
 10
5390.3572258666736
 20
-12364.044192787116
 30
0.0
 11
5430.3572258666736
 21
-12364.044192787116
 31
0.0
  0
CIRCLE
  5
1CA
100
AcDbEntity
  8
ABA70-0003
370
              15
390
0
  6
STYLE_01
 62
               7
100
AcDbCircle
 10
5410.3572258666736
 20
-12364.044192787116
 30
0.0
 40
10.0
  0
LINE
  5
1CB
100
AcDbEntity
  8
ABA70-0003
370
              15
390
0
  6
STYLE_01
 62
               7
100
AcDbLine
 10
5130.3572258666736
 20
-12344.044192787116
 30
0.0
 11
5130.3572258666736
 21
-12384.044192787116
 31
0.0
  0
LINE
  5
1CC
100
AcDbEntity
  8
ABA70-0003
370
              15
390
0
  6
STYLE_01
 62
               7
100
AcDbLine
 10
5110.3572258666736
 20
-12364.044192787116
 30
0.0
 11
5150.3572258666736
 21
-12364.044192787116
 31
0.0
  0
CIRCLE
  5
1CD
100
AcDbEntity
  8
ABA70-0003
370
              15
390
0
  6
STYLE_01
 62
               7
100
AcDbCircle
 10
5130.3572258666736
 20
-12364.044192787116
 30
0.0
 40
10.0
  0
SPLINE
  5
1CE
100
AcDbEntity
  8
ABA70-0003
370
              15
390
0
  6
Continuous
 62
               7
100
AcDbSpline
210
0.0
220
0.0
230
1.0
 70
               9
 71
               2
 72
              17
 73
              14
 74
               0
 42
0.000001
 43
0.000001
 40
0.0
 40
0.0
 40
0.0
 40
1.0
 40
2.0
 40
3.0
 40
4.0
 40
5.0
 40
6.0
 40
7.0
 40
8.0
 40
9.0
 40
10.0
 40
11.0
 40
12.0
 40
12.0
 40
12.0
 10
5142.7279857802259
 20
-11244.63466973538
 30
0.0
 10
5203.0611957481342
 20
-11222.528861359813
 30
0.0
 10
5342.3947758123186
 20
-11222.528861359813
 30
0.0
 10
5463.0611957481342
 20
-11266.740478110949
 30
0.0
 10
5532.7279857802259
 20
-11343.317244608677
 30
0.0
 10
5532.7279857802259
 20
-11431.740478110949
 30
0.0
 10
5463.0611957481342
 20
-11508.317244608677
 30
0.0
 10
5342.3947758123186
 20
-11552.528861359813
 30
0.0
 10
5203.0611957481342
 20
-11552.528861359813
 30
0.0
 10
5082.3947758123177
 20
-11508.317244608677
 30
0.0
 10
5012.7279857802259
 20
-11431.740478110949
 30
0.0
 10
5012.7279857802259
 20
-11343.317244608677
 30
0.0
 10
5082.3947758123177
 20
-11266.740478110949
 30
0.0
 10
5142.7279857802259
 20
-11244.63466973538
 30
0.0
  0
LWPOLYLINE
  5
1CF
100
AcDbEntity
  8
ABA70-0003
370
              15
390
0
  6
Continuous
 62
               7
100
AcDbPolyline
 90
        3
 70
             128
 10
5169.6692656558753
 20
-12483.507470169134
 10
5168.8390287894626
 20
-12483.395886911632
 42
-0.2544727649101032
 10
5011.2881469641925
 20
-12368.048011333356
 42
-0.2544727649101032
  0
ARC
  5
1D0
100
AcDbEntity
  8
ABA70-0003
370
              15
390
0
  6
Continuous
 62
               7
100
AcDbCircle
 10
5256.9108694068764
 20
-11114.710775602765
 30
0.0
 40
1371.574091502484
100
AcDbArc
 50
266.3531299924569
 51
270.56767314503116
  0
CIRCLE
  5
1D1
100
AcDbEntity
  8
ABA70-0003
370
              15
390
0
  6
STYLE_01
 62
               7
100
AcDbCircle
 10
5373.4348421546265
 20
-11162.528861359813
 30
0.0
 40
17.5
  0
CIRCLE
  5
1D2
100
AcDbEntity
  8
ABA70-0003
370
              15
390
0
  6
STYLE_01
 62
               7
100
AcDbCircle
 10
5173.4348421546265
 20
-11162.528861359813
 30
0.0
 40
17.5
  0
LINE
  5
1D3
100
AcDbEntity
  8
ABA70-0003
370
              15
390
0
  6
STYLE_01
 62
               7
100
AcDbLine
 10
5982.8364723865425
 20
-12304.995886777988
 30
0.0
 11
5995.2198274271514
 21
-12304.995886777988
 31
0.0
  0
LWPOLYLINE
  5
1D4
100
AcDbEntity
  8
ABA70-0003
370
              15
390
0
  6
Continuous
 62
               7
100
AcDbPolyline
 90
        2
 70
             128
 10
5941.3332170016592
 20
-12361.071346093269
 42
0.4091527341525036
 10
5949.2192017722491
 20
-12369.049879527267
 42
0.4091527341525036
  0
INSERT
  5
1D5
100
AcDbEntity
  8
ABA70-0003
390
0
 62
               7
100
AcDbBlockReference
  2
グループ
 10
5633.4196775706532
 20
-12023.16348309416
 30
0.0
  0
POLYLINE
  5
1D6
100
AcDbEntity
  8
ABA70-0003
370
               5
390
0
  6
STYLE_12
 62
             255
100
AcDb2dPolyline
 66
               1
 10
0.0
 20
0.0
 30
0.0
 70
               1
 75
               5
  0
VERTEX
  5
1D7
100
AcDbEntity
  8
ABA70-0003
370
               5
390
0
  6
STYLE_12
 62
             255
100
AcDbVertex
100
AcDb2dVertex
 10
6162.0
 20
-12316.0
 30
0.0
  0
VERTEX
  5
1D8
100
AcDbEntity
  8
ABA70-0003
370
               5
390
0
  6
STYLE_12
 62
             255
100
AcDbVertex
100
AcDb2dVertex
 10
6215.0
 20
-12316.0
 30
0.0
  0
VERTEX
  5
1D9
100
AcDbEntity
  8
ABA70-0003
370
               5
390
0
  6
STYLE_12
 62
             255
100
AcDbVertex
100
AcDb2dVertex
 10
6215.0
 20
-12454.4375
 30
0.0
  0
VERTEX
  5
1DA
100
AcDbEntity
  8
ABA70-0003
370
               5
390
0
  6
STYLE_12
 62
             255
100
AcDbVertex
100
AcDb2dVertex
 10
6162.0
 20
-12454.4375
 30
0.0
  0
SEQEND
  5
1DB
100
AcDbEntity
  8
ABA70-0003
370
               5
390
0
  6
STYLE_12
 62
             255
  0
DIMENSION
  5
1DC
100
AcDbEntity
  8
ABA70-0003
370
               5
390
0
  6
Continuous
 62
               7
100
AcDbDimension
  2
*D21
 10
6207.0
 20
-12469.924286268584
 30
0.0
 11
6202.0
 21
-12383.0
 31
0.0
 70
             128
 71
               5
 72
               1
 41
1.0
 42
0.0
  3
tfrom線あり
100
AcDbAlignedDimension
 13
6225.6626981322215
 23
-12304.924286268584
 33
0.0
 14
6225.6626981322215
 24
-12469.924286268584
 34
0.0
 50
90.0
100
AcDbRotatedDimension
1001
ACAD
1000
DSTYLE
1002
{
1070
             279
1070
               2
1070
             340
1005
37
1070
               3
1000
<>(深さ)
1070
             147
1040
5.0
1002
}
  0
ENDSEC
  0
SECTION
  2
OBJECTS
  0
DICTIONARY
  5
19
100
AcDbDictionary
280
               0
281
               1
  3
ACAD_GROUP
350
1A
  3
ACAD_MLINESTYLE
350
1B
  3
ACAD_LAYOUT
350
1E
  3
ACAD_PLOTSETTINGS
350
22
  3
ACAD_PLOTSTYLENAME
350
1F
  0
DICTIONARY
  5
1A
102
{ACAD_REACTORS
330
19
102
}
100
AcDbDictionary
280
               0
281
               1
  0
DICTIONARY
  5
1B
102
{ACAD_REACTORS
330
19
102
}
100
AcDbDictionary
280
               0
281
               1
  3
Standard
350
1C
  0
MLINESTYLE
  5
1C
102
{ACAD_REACTORS
330
1B
102
}
100
AcDbMlineStyle
  2
Standard
 70
               0
  3

 62
               0
 51
90.0
 52
90.0
 71
               2
 49
0.5
 62
             256
  6
ByLayer
 49
-0.5
 62
             256
  6
ByLayer
  0
ACDBDICTIONARYWDFLT
  5
1F
102
{ACAD_REACTORS
330
19
102
}
100
AcDbDictionary
281
               1
  3
Normal
350
1D
100
AcDbDictionaryWithDefault
340
1D
  0
ACDBPLACEHOLDER
  5
1D
102
{ACAD_REACTORS
330
1F
102
}
  0
LAYOUT
  5
20
102
{ACAD_REACTORS
330
1E
102
}
100
AcDbPlotSettings
  1

  2

  4

  6

 40
0.0
 41
0.0
 42
0.0
 43
0.0
 44
0.0
 45
0.0
 46
0.0
 47
0.0
 48
0.0
 49
0.0
140
0.0
141
0.0
142
1.0
143
1.0
 70
            1024
 72
               0
 73
               0
 74
               0
  7

 75
               0
147
1.0
148
0.0
149
0.0
100
AcDbLayout
  1
Model
 70
               0
 71
               0
 10
0.0
 20
0.0
 11
0.0
 21
0.0
 12
0.0
 22
0.0
 32
0.0
 14
0.0
 24
0.0
 34
0.0
 15
0.0
 25
0.0
 35
0.0
146
0.0
 13
0.0
 23
0.0
 33
0.0
 16
0.0
 26
0.0
 36
0.0
 17
0.0
 27
0.0
 37
0.0
 76
               0
330
A
331
0
345
0
346
0
  0
LAYOUT
  5
21
102
{ACAD_REACTORS
330
1E
102
}
100
AcDbPlotSettings
  1

  2

  4

  6

 40
0.0
 41
0.0
 42
0.0
 43
0.0
 44
0.0
 45
0.0
 46
0.0
 47
0.0
 48
0.0
 49
0.0
140
0.0
141
0.0
142
1.0
143
1.0
 70
               0
 72
               0
 73
               0
 74
               0
  7

 75
               0
147
1.0
148
0.0
149
0.0
100
AcDbLayout
  1
Layout1
 70
               0
 71
               0
 10
0.0
 20
0.0
 11
0.0
 21
0.0
 12
0.0
 22
0.0
 32
0.0
 14
0.0
 24
0.0
 34
0.0
 15
0.0
 25
0.0
 35
0.0
146
0.0
 13
0.0
 23
0.0
 33
0.0
 16
0.0
 26
0.0
 36
0.0
 17
0.0
 27
0.0
 37
0.0
 76
               0
330
B
331
0
345
0
346
0
  0
DICTIONARY
  5
1E
102
{ACAD_REACTORS
330
19
102
}
100
AcDbDictionary
280
               0
281
               1
  3
Layout1
350
21
  3
Model
350
20
  0
DICTIONARY
  5
22
102
{ACAD_REACTORS
330
19
102
}
100
AcDbDictionary
280
               0
281
               1
  0
ENDSEC
  0
EOF
