  0
SECTION
  2
HEADER
  9
$ACADVER
  1
AC1015
  9
$ACADMAINTVER
 70
               6
  9
$DWGCODEPAGE
  3
ANSI_932
  9
$INSBASE
 10
0.0
 20
0.0
 30
0.0
  9
$EXTMIN
 10
-975.00000000024193
 20
-1431.5255224711145
 30
-14.83430555555562
  9
$EXTMAX
 10
975.00000000024193
 20
1405.9972926413029
 30
14.83430555555562
  9
$LIMMIN
 10
0.0
 20
0.0
  9
$LIMMAX
 10
0.0
 20
0.0
  9
$ORTHOMODE
 70
               0
  9
$REGENMODE
 70
               1
  9
$FILLMODE
 70
               1
  9
$QTEXTMODE
 70
               0
  9
$MIRRTEXT
 70
               1
  9
$LTSCALE
 40
50.799999999999997
  9
$ATTMODE
 70
               1
  9
$TEXTSIZE
 40
0.2
  9
$TRACEWID
 40
1.0
  9
$TEXTSTYLE
  7
Standard
  9
$CLAYER
  8
template
  9
$CELTYPE
  6
Continuous
  9
$CECOLOR
 62
             256
  9
$CELTSCALE
 40
1.0
  9
$DISPSILH
 70
               0
  9
$DIMSCALE
 40
1.0
  9
$DIMASZ
 40
31.75
  9
$DIMEXO
 40
0.0
  9
$DIMDLI
 40
6.9999999999999396
  9
$DIMRND
 40
0.0
  9
$DIMDLE
 40
0.0
  9
$DIMEXE
 40
19.999999999996199
  9
$DIMTP
 40
0.0
  9
$DIMTM
 40
0.0
  9
$DIMTXT
 40
24.432617187500004
  9
$DIMCEN
 40
0.0
  9
$DIMTSZ
 40
0.0
  9
$DIMTOL
 70
               0
  9
$DIMLIM
 70
               0
  9
$DIMTIH
 70
               0
  9
$DIMTOH
 70
               0
  9
$DIMSE1
 70
               0
  9
$DIMSE2
 70
               0
  9
$DIMTAD
 70
               1
  9
$DIMZIN
 70
              11
  9
$DIMBLK
  1
VW_FILLEDARROW
  9
$DIMASO
 70
               1
  9
$DIMSHO
 70
               1
  9
$DIMPOST
  1
<>
  9
$DIMAPOST
  1
[]
  9
$DIMALT
 70
               0
  9
$DIMALTD
 70
               3
  9
$DIMALTF
 40
0.0393700787401575
  9
$DIMLFAC
 40
1.0
  9
$DIMTOFL
 70
               0
  9
$DIMTVP
 40
0.0
  9
$DIMTIX
 70
               1
  9
$DIMSOXD
 70
               0
  9
$DIMSAH
 70
               0
  9
$DIMBLK1
  1

  9
$DIMBLK2
  1

  9
$DIMSTYLE
  2
JIS
  9
$DIMCLRD
 70
               0
  9
$DIMCLRE
 70
               0
  9
$DIMCLRT
 70
               0
  9
$DIMTFAC
 40
1.0
  9
$DIMGAP
 40
1.00000000000108
  9
$DIMJUST
 70
               0
  9
$DIMSD1
 70
               0
  9
$DIMSD2
 70
               0
  9
$DIMTOLJ
 70
               1
  9
$DIMTZIN
 70
              11
  9
$DIMALTZ
 70
              15
  9
$DIMALTTZ
 70
              15
  9
$DIMUPT
 70
               0
  9
$DIMDEC
 70
               1
  9
$DIMTDEC
 70
               1
  9
$DIMALTU
 70
               4
  9
$DIMALTTD
 70
               2
  9
$DIMTXSTY
  7
ＭＳ ゴシック
  9
$DIMAUNIT
 70
               0
  9
$DIMADEC
 70
               2
  9
$DIMALTRND
 40
0.0
  9
$DIMAZIN
 70
               0
  9
$DIMDSEP
 70
              46
  9
$DIMATFIT
 70
               0
  9
$DIMFRAC
 70
               2
  9
$DIMLDRBLK
  1

  9
$DIMLUNIT
 70
               2
  9
$DIMLWD
 70
              -2
  9
$DIMLWE
 70
              -2
  9
$DIMTMOVE
 70
               0
  9
$LUNITS
 70
               2
  9
$LUPREC
 70
               4
  9
$SKETCHINC
 40
0.1
  9
$FILLETRAD
 40
0.0
  9
$AUNITS
 70
               0
  9
$AUPREC
 70
               0
  9
$MENU
  1
acad
  9
$ELEVATION
 40
0.0
  9
$PELEVATION
 40
0.0
  9
$THICKNESS
 40
0.0
  9
$LIMCHECK
 70
               0
  9
$CHAMFERA
 40
0.0
  9
$CHAMFERB
 40
0.0
  9
$CHAMFERC
 40
0.0
  9
$CHAMFERD
 40
0.0
  9
$SKPOLY
 70
               0
  9
$TDCREATE
 40
2455979.480428241
  9
$TDUCREATE
 40
0.000000000
  9
$TDUPDATE
 40
2455979.480428241
  9
$TDUUPDATE
 40
0.000000000
  9
$TDINDWG
 40
0.0000000000
  9
$TDUSRTIMER
 40
0.0000000000
  9
$USRTIMER
 70
               1
  9
$ANGBASE
 50
0.0
  9
$ANGDIR
 70
               0
  9
$PDMODE
 70
               1
  9
$PDSIZE
 40
-2.0
  9
$PLINEWID
 40
0.0
  9
$SPLFRAME
 70
               0
  9
$SPLINETYPE
 70
               6
  9
$SPLINESEGS
 70
               8
  9
$HANDSEED
  5
1AD
  9
$SURFTAB1
 70
               6
  9
$SURFTAB2
 70
               6
  9
$SURFTYPE
 70
               6
  9
$SURFU
 70
               6
  9
$SURFV
 70
               6
  9
$UCSBASE
  2

  9
$UCSNAME
  2

  9
$UCSORG
 10
0.0
 20
0.0
 30
0.0
  9
$UCSXDIR
 10
1.0
 20
0.0
 30
0.0
  9
$UCSYDIR
 10
0.0
 20
1.0
 30
0.0
  9
$UCSORTHOREF
  2

  9
$UCSORTHOVIEW
 70
               0
  9
$UCSORGTOP
 10
0.0
 20
0.0
 30
0.0
  9
$UCSORGBOTTOM
 10
0.0
 20
0.0
 30
0.0
  9
$UCSORGLEFT
 10
0.0
 20
0.0
 30
0.0
  9
$UCSORGRIGHT
 10
0.0
 20
0.0
 30
0.0
  9
$UCSORGFRONT
 10
0.0
 20
0.0
 30
0.0
  9
$UCSORGBACK
 10
0.0
 20
0.0
 30
0.0
  9
$PUCSBASE
  2

  9
$PUCSNAME
  2

  9
$PUCSORG
 10
0.0
 20
0.0
 30
0.0
  9
$PUCSXDIR
 10
1.0
 20
0.0
 30
0.0
  9
$PUCSYDIR
 10
0.0
 20
1.0
 30
0.0
  9
$PUCSORTHOREF
  2

  9
$PUCSORTHOVIEW
 70
               0
  9
$PUCSORGTOP
 10
0.0
 20
0.0
 30
0.0
  9
$PUCSORGBOTTOM
 10
0.0
 20
0.0
 30
0.0
  9
$PUCSORGLEFT
 10
0.0
 20
0.0
 30
0.0
  9
$PUCSORGRIGHT
 10
0.0
 20
0.0
 30
0.0
  9
$PUCSORGFRONT
 10
0.0
 20
0.0
 30
0.0
  9
$PUCSORGBACK
 10
0.0
 20
0.0
 30
0.0
  9
$USERI1
 70
               0
  9
$USERI2
 70
               0
  9
$USERI3
 70
               0
  9
$USERI4
 70
               0
  9
$USERI5
 70
               0
  9
$USERR1
 40
0.0
  9
$USERR2
 40
0.0
  9
$USERR3
 40
0.0
  9
$USERR4
 40
0.0
  9
$USERR5
 40
0.0
  9
$WORLDVIEW
 70
               1
  9
$SHADEDGE
 70
               3
  9
$SHADEDIF
 70
              70
  9
$TILEMODE
 70
               1
  9
$MAXACTVP
 70
              64
  9
$PINSBASE
 10
0.0
 20
0.0
 30
0.0
  9
$PLIMCHECK
 70
               0
  9
$PEXTMIN
 10
1.0000000000000000E+20
 20
1.0000000000000000E+20
 30
1.0000000000000000E+20
  9
$PEXTMAX
 10
-1.0000000000000000E+20
 20
-1.0000000000000000E+20
 30
-1.0000000000000000E+20
  9
$PLIMMIN
 10
0.0
 20
0.0
  9
$PLIMMAX
 10
12.0
 20
9.0
  9
$UNITMODE
 70
               0
  9
$VISRETAIN
 70
               0
  9
$PLINEGEN
 70
               1
  9
$PSLTSCALE
 70
               0
  9
$TREEDEPTH
 70
            3020
  9
$CMLSTYLE
  2
Standard
  9
$CMLJUST
 70
               0
  9
$CMLSCALE
 40
1.0
  9
$PROXYGRAPHICS
 70
               0
  9
$MEASUREMENT
 70
               1
  9
$CELWEIGHT
370
               0
  9
$ENDCAPS
280
               0
  9
$JOINSTYLE
280
               0
  9
$LWDISPLAY
290
               1
  9
$INSUNITS
 70
               4
  9
$HYPERLINKBASE
  1

  9
$STYLESHEET
  1

  9
$XEDIT
290
               1
  9
$CEPSNTYPE
380
               0
  9
$PSTYLEMODE
290
               1
  9
$FINGERPRINTGUID
  2

  9
$VERSIONGUID
  2

  9
$EXTNAMES
290
               1
  9
$PSVPSCALE
 40
0.0
  0
ENDSEC
  0
SECTION
  2
CLASSES
  0
CLASS
  1
LWPOLYLINE
  2
AcDbPolyline
  3
AutoCAD 2000
 90
        0
280
               0
281
               1
  0
CLASS
  1
IMAGE
  2
AcDbRasterImage
  3
ISM
 90
      127
280
               0
281
               1
  0
CLASS
  1
OLE2FRAME
  2
AcDbOle2Frame
  3
AutoCAD 2000
 90
        0
280
               0
281
               1
  0
CLASS
  1
HATCH
  2
AcDbHatch
  3
AutoCAD 2000
 90
        0
280
               0
281
               1
  0
CLASS
  1
DICTIONARYVAR
  2
AcDbDictionaryVar
  3
AutoCAD 2000
 90
        0
280
               0
281
               0
  0
CLASS
  1
RASTERVARIABLES
  2
AcDbRasterVariables
  3
ISM
 90
        0
280
               0
281
               0
  0
CLASS
  1
IMAGEDEF
  2
AcDbRasterImageDef
  3
ISM
 90
        0
280
               0
281
               0
  0
CLASS
  1
IMAGEDEF_REACTOR
  2
AcDbRasterImageDefReactor
  3
ISM
 90
        1
280
               0
281
               0
  0
CLASS
  1
IDBUFFER
  2
AcDbIdBuffer
  3
AutoCAD 2000
 90
        0
280
               0
281
               0
  0
CLASS
  1
SPATIAL_FILTER
  2
AcDbSpatialFilter
  3
AutoCAD 2000
 90
        0
280
               0
281
               0
  0
CLASS
  1
XRECORD
  2
AcDbXrecord
  3
AutoCAD 2000
 90
        0
280
               0
281
               0
  0
CLASS
  1
SORTENTSTABLE
  2
AcDbSortentsTable
  3
AutoCAD 2000
 90
        0
280
               0
281
               0
  0
CLASS
  1
LAYER_INDEX
  2
AcDbLayerIndex
  3
AutoCAD 2000
 90
        0
280
               0
281
               0
  0
CLASS
  1
SPATIAL_INDEX
  2
AcDbSpatialIndex
  3
AutoCAD 2000
 90
        0
280
               0
281
               0
  0
CLASS
  1
OBJECT_PTR
  2
CAseDLPNTableRecord
  3
"ASE-LPNTableRecord"
 90
        1
280
               0
281
               0
  0
CLASS
  1
LAYOUT
  2
AcDbLayout
  3
AutoCAD 2000
 90
        0
280
               0
281
               0
  0
CLASS
  1
PLOTSETTINGS
  2
AcDbPlotSettings
  3
AutoCAD 2000
 90
        0
280
               0
281
               0
  0
CLASS
  1
ACDBDICTIONARYWDFLT
  2
AcDbDictionaryWithDefault
  3
AutoCAD 2000
 90
        0
280
               0
281
               0
  0
CLASS
  1
ACDBPLACEHOLDER
  2
AcDbPlaceHolder
  3
AutoCAD 2000
 90
        0
280
               0
281
               0
  0
ENDSEC
  0
SECTION
  2
TABLES
  0
TABLE
  2
VPORT
  5
7
100
AcDbSymbolTable
 70
               1
  0
VPORT
  5
15
100
AcDbSymbolTableRecord
100
AcDbViewportTableRecord
  2
*ACTIVE
 70
               0
 10
0.0
 20
0.0
 11
1.0
 21
1.0
 12
0.0
 22
-12.764114914905804
 13
0.0
 23
0.0
 14
1.0
 24
1.0
 15
0.0
 25
0.0
 16
0.0
 26
0.0
 36
1.0
 17
0.0
 27
0.0
 37
0.0
 40
2837.5228151124174
 41
0.688564
 42
50.0
 43
0.0
 44
0.0
 50
0.0
 51
0.0
 71
               0
 72
            2000
 73
               1
 74
               1
 75
               0
 76
               0
 77
               0
 78
               0
281
               0
 65
               0
110
0.0
120
0.0
130
0.0
111
1.0
121
0.0
131
0.0
112
0.0
122
1.0
132
0.0
345
0
346
0
 79
               0
146
0.0
  0
ENDTAB
  0
TABLE
  2
LTYPE
  5
4
100
AcDbSymbolTable
 70
              14
  0
LTYPE
  5
11
100
AcDbSymbolTableRecord
100
AcDbLinetypeTableRecord
  2
ByBlock
 70
              64
  3

 72
              65
 73
               0
 40
0.0
  0
LTYPE
  5
12
100
AcDbSymbolTableRecord
100
AcDbLinetypeTableRecord
  2
ByLayer
 70
              64
  3

 72
              65
 73
               0
 40
0.0
  0
LTYPE
  5
13
100
AcDbSymbolTableRecord
100
AcDbLinetypeTableRecord
  2
Continuous
 70
              64
  3
Solid line
 72
              65
 73
               0
 40
0.0
  0
LTYPE
  5
36
100
AcDbSymbolTableRecord
100
AcDbLinetypeTableRecord
  2
STYLE_01
 70
               0
  3

 72
              65
 73
               4
 40
0.4921259842519685
 49
0.2460629921259843
 74
               0
 49
-0.1230314960629922
 74
               0
 49
0.0005
 74
               0
 49
-0.1225314960629921
 74
               0
  0
LTYPE
  5
37
100
AcDbSymbolTableRecord
100
AcDbLinetypeTableRecord
  2
STYLE_02
 70
               0
  3

 72
              65
 73
               2
 40
4.6875
 49
3.125
 74
               0
 49
-1.5625
 74
               0
  0
LTYPE
  5
38
100
AcDbSymbolTableRecord
100
AcDbLinetypeTableRecord
  2
STYLE_03
 70
               0
  3

 72
              65
 73
               4
 40
0.2952755905511811
 49
0.2362204724409449
 74
               0
 49
-0.0295275590551181
 74
               0
 49
0.0005
 74
               0
 49
-0.0290275590551181
 74
               0
  0
LTYPE
  5
39
100
AcDbSymbolTableRecord
100
AcDbLinetypeTableRecord
  2
STYLE_04
 70
               0
  3

 72
              65
 73
               2
 40
1.5277099999999999
 49
1.3194249999999998
 74
               0
 49
-0.208285
 74
               0
  0
LTYPE
  5
3A
100
AcDbSymbolTableRecord
100
AcDbLinetypeTableRecord
  2
STYLE_05
 70
               0
  3

 72
              65
 73
               2
 40
0.20828
 49
0.069425
 74
               0
 49
-0.138855
 74
               0
  0
LTYPE
  5
3B
100
AcDbSymbolTableRecord
100
AcDbLinetypeTableRecord
  2
STYLE_06
 70
               0
  3

 72
              65
 73
               4
 40
1.0416400000000001
 49
0.625
 74
               0
 49
-0.20828
 74
               0
 49
0.06943
 74
               0
 49
-0.13893
 74
               0
  0
LTYPE
  5
3C
100
AcDbSymbolTableRecord
100
AcDbLinetypeTableRecord
  2
STYLE_07
 70
               0
  3

 72
              65
 73
               6
 40
1.875
 49
0.625
 74
               0
 49
-0.20828
 74
               0
 49
0.6250000000000001
 74
               0
 49
-0.2083599999999999
 74
               0
 49
0.06943
 74
               0
 49
-0.1389299999999999
 74
               0
  0
LTYPE
  5
3D
100
AcDbSymbolTableRecord
100
AcDbLinetypeTableRecord
  2
STYLE_08
 70
               0
  3

 72
              65
 73
               6
 40
1.25
 49
0.625
 74
               0
 49
-0.20828
 74
               0
 49
0.06943
 74
               0
 49
-0.13893
 74
               0
 49
0.0694299999999999
 74
               0
 49
-0.13893
 74
               0
  0
LTYPE
  5
3E
100
AcDbSymbolTableRecord
100
AcDbLinetypeTableRecord
  2
STYLE_09
 70
               0
  3

 72
              65
 73
               4
 40
5.0
 49
3.75
 74
               0
 49
-0.2777849999999998
 74
               0
 49
0.6944300000000003
 74
               0
 49
-0.2777849999999998
 74
               0
  0
LTYPE
  5
3F
100
AcDbSymbolTableRecord
100
AcDbLinetypeTableRecord
  2
STYLE_10
 70
               0
  3

 72
              65
 73
               6
 40
5.9375
 49
3.75
 74
               0
 49
-0.2777849999999998
 74
               0
 49
0.6944300000000003
 74
               0
 49
-0.2777849999999998
 74
               0
 49
0.625
 74
               0
 49
-0.3125
 74
               0
  0
LTYPE
  5
40
100
AcDbSymbolTableRecord
100
AcDbLinetypeTableRecord
  2
STYLE_11
 70
               0
  3

 72
              65
 73
               2
 40
0.3937007874015748
 49
0.1968503937007874
 74
               0
 49
-0.1968503937007874
 74
               0
  0
ENDTAB
  0
TABLE
  2
LAYER
  5
2
100
AcDbSymbolTable
 70
               5
  0
LAYER
  5
14
100
AcDbSymbolTableRecord
100
AcDbLayerTableRecord
  2
0
 70
               0
 62
               7
  6
Continuous
290
               1
370
              -3
390
1D
  0
LAYER
  5
41
100
AcDbSymbolTableRecord
100
AcDbLayerTableRecord
  2
Defpoints
 70
               0
 62
               7
  6
Continuous
290
               0
370
              -3
390
1D
  0
LAYER
  5
42
100
AcDbSymbolTableRecord
100
AcDbLayerTableRecord
  2
lavabo incasso DOLCEVITA
 70
               0
 62
               7
  6
Continuous
290
               1
370
              -3
390
1D
  0
LAYER
  5
43
100
AcDbSymbolTableRecord
100
AcDbLayerTableRecord
  2
notes
 70
               0
 62
               7
  6
Continuous
290
               1
370
              -3
390
1D
  0
LAYER
  5
44
100
AcDbSymbolTableRecord
100
AcDbLayerTableRecord
  2
template
 70
               0
 62
               7
  6
Continuous
290
               1
370
              -3
390
1D
  0
ENDTAB
  0
TABLE
  2
STYLE
  5
3
100
AcDbSymbolTable
 70
               2
  0
STYLE
  5
17
100
AcDbSymbolTableRecord
100
AcDbTextStyleTableRecord
  2
Standard
 70
               0
 40
0.0
 41
1.0
 50
0.0
 71
               0
 42
0.0
  3
txt
  4
BIGFONT.SHX
  0
STYLE
  5
35
100
AcDbSymbolTableRecord
100
AcDbTextStyleTableRecord
  2
ＭＳ ゴシック
 70
               0
 40
0.0
 41
1.0
 50
0.0
 71
               0
 42
0.0
  3

  4
ＭＳ ゴシック
1001
ACAD
1000
ＭＳ ゴシック
1071
        0
  0
ENDTAB
  0
TABLE
  2
VIEW
  5
5
100
AcDbSymbolTable
 70
               0
  0
ENDTAB
  0
TABLE
  2
UCS
  5
6
100
AcDbSymbolTable
 70
               0
  0
ENDTAB
  0
TABLE
  2
APPID
  5
8
100
AcDbSymbolTable
 70
               1
  0
APPID
  5
16
100
AcDbSymbolTableRecord
100
AcDbRegAppTableRecord
  2
ACAD
 70
               0
  0
ENDTAB
  0
TABLE
  2
DIMSTYLE
  5
9
100
AcDbSymbolTable
 70
               3
100
AcDbDimStyleTable
 71
               0
  0
DIMSTYLE
105
18
100
AcDbSymbolTableRecord
100
AcDbDimStyleTableRecord
  2
Standard
 70
               0
  3

  4

 40
1.0
 41
0.18
 42
0.0625
 43
0.38
 44
0.18
 45
0.0
 46
0.0
 47
0.0
 48
0.0
 71
               0
 72
               0
 73
               1
 74
               1
 75
               0
 76
               0
 77
               0
 78
               0
 79
               0
140
0.18
141
0.09
142
0.0
143
25.399999999999999
144
1.0
145
0.0
146
1.0
147
0.09
148
0.0
170
               0
171
               2
172
               0
173
               0
174
               0
175
               0
176
               0
177
               0
178
               0
179
               0
271
               4
272
               4
273
               2
274
               2
275
               0
276
               0
277
               2
278
              46
279
               0
280
               0
281
               0
282
               0
283
               1
284
               0
285
               0
286
               0
288
               0
289
               3
340
17
341
0
342
0
343
0
344
0
371
              -2
372
              -2
  0
DIMSTYLE
105
4D
100
AcDbSymbolTableRecord
100
AcDbDimStyleTableRecord
  2
tfrom線あり
 70
               0
  3
<>
  4
[]
 40
1.0
 41
3.999755859375
 42
24.999999999999996
 43
0.9999999999999999
 44
0.0
 45
0.0
 46
0.0
 47
0.0
 48
0.0
 71
               0
 72
               0
 73
               0
 74
               0
 75
               0
 76
               0
 77
               1
 78
              11
 79
               0
140
24.432617187500004
141
0.0
142
0.0
143
0.0393700787401575
144
1.0
145
0.0
146
1.0
147
0.4999999999999999
148
0.0
170
               0
171
               3
172
               0
173
               0
174
               1
175
               0
176
               0
177
               0
178
               0
179
               2
271
               1
272
               1
273
               4
274
               2
275
               0
276
               2
277
               2
278
              46
279
               0
280
               0
281
               0
282
               0
283
               1
284
              11
285
              15
286
              15
288
               0
289
               0
340
35
341
45
342
45
343
0
344
0
371
              -2
372
              -2
  0
DIMSTYLE
105
52
100
AcDbSymbolTableRecord
100
AcDbDimStyleTableRecord
  2
JIS
 70
               0
  3
<>
  4
[]
 40
1.0
 41
31.75
 42
0.0
 43
6.9999999999999396
 44
19.999999999996199
 45
0.0
 46
0.0
 47
0.0
 48
0.0
 71
               0
 72
               0
 73
               0
 74
               0
 75
               0
 76
               0
 77
               1
 78
              11
 79
               0
140
24.432617187500004
141
0.0
142
0.0
143
0.0393700787401575
144
1.0
145
0.0
146
1.0
147
1.00000000000108
148
0.0
170
               0
171
               3
172
               0
173
               0
174
               1
175
               0
176
               0
177
               0
178
               0
179
               2
271
               1
272
               1
273
               4
274
               2
275
               0
276
               2
277
               2
278
              46
279
               0
280
               0
281
               0
282
               0
283
               1
284
              11
285
              15
286
              15
288
               0
289
               0
340
35
341
4E
342
4E
343
0
344
0
371
              -2
372
              -2
  0
ENDTAB
  0
TABLE
  2
BLOCK_RECORD
  5
1
100
AcDbSymbolTable
 70
              20
  0
BLOCK_RECORD
  5
A
100
AcDbSymbolTableRecord
100
AcDbBlockTableRecord
  2
*MODEL_SPACE
340
20
  0
BLOCK_RECORD
  5
B
100
AcDbSymbolTableRecord
100
AcDbBlockTableRecord
  2
*PAPER_SPACE
340
21
  0
BLOCK_RECORD
  5
45
100
AcDbSymbolTableRecord
100
AcDbBlockTableRecord
  2
_DOT
340
0
  0
BLOCK_RECORD
  5
4E
100
AcDbSymbolTableRecord
100
AcDbBlockTableRecord
  2
VW_FILLEDARROW
340
0
  0
BLOCK_RECORD
  5
23
100
AcDbSymbolTableRecord
100
AcDbBlockTableRecord
  2
*D2
340
0
  0
BLOCK_RECORD
  5
24
100
AcDbSymbolTableRecord
100
AcDbBlockTableRecord
  2
*D3
340
0
  0
BLOCK_RECORD
  5
25
100
AcDbSymbolTableRecord
100
AcDbBlockTableRecord
  2
*D4
340
0
  0
BLOCK_RECORD
  5
26
100
AcDbSymbolTableRecord
100
AcDbBlockTableRecord
  2
*D5
340
0
  0
BLOCK_RECORD
  5
27
100
AcDbSymbolTableRecord
100
AcDbBlockTableRecord
  2
*D6
340
0
  0
BLOCK_RECORD
  5
28
100
AcDbSymbolTableRecord
100
AcDbBlockTableRecord
  2
*D7
340
0
  0
BLOCK_RECORD
  5
29
100
AcDbSymbolTableRecord
100
AcDbBlockTableRecord
  2
*D8
340
0
  0
BLOCK_RECORD
  5
2A
100
AcDbSymbolTableRecord
100
AcDbBlockTableRecord
  2
*D9
340
0
  0
BLOCK_RECORD
  5
2B
100
AcDbSymbolTableRecord
100
AcDbBlockTableRecord
  2
*D10
340
0
  0
BLOCK_RECORD
  5
2C
100
AcDbSymbolTableRecord
100
AcDbBlockTableRecord
  2
*D11
340
0
  0
BLOCK_RECORD
  5
2D
100
AcDbSymbolTableRecord
100
AcDbBlockTableRecord
  2
*D12
340
0
  0
BLOCK_RECORD
  5
2E
100
AcDbSymbolTableRecord
100
AcDbBlockTableRecord
  2
*D13
340
0
  0
BLOCK_RECORD
  5
2F
100
AcDbSymbolTableRecord
100
AcDbBlockTableRecord
  2
*D14
340
0
  0
BLOCK_RECORD
  5
30
100
AcDbSymbolTableRecord
100
AcDbBlockTableRecord
  2
*D15
340
0
  0
BLOCK_RECORD
  5
31
100
AcDbSymbolTableRecord
100
AcDbBlockTableRecord
  2
*D16
340
0
  0
BLOCK_RECORD
  5
32
100
AcDbSymbolTableRecord
100
AcDbBlockTableRecord
  2
*D17
340
0
  0
BLOCK_RECORD
  5
33
100
AcDbSymbolTableRecord
100
AcDbBlockTableRecord
  2
グループ
340
0
102
{BLKREFS
331
1A0
102
}
  0
BLOCK_RECORD
  5
34
100
AcDbSymbolTableRecord
100
AcDbBlockTableRecord
  2
*D19
340
0
  0
ENDTAB
  0
ENDSEC
  0
SECTION
  2
BLOCKS
  0
BLOCK
  5
D
100
AcDbEntity
  8
0
390
0
100
AcDbBlockBegin
  2
*MODEL_SPACE
 70
               0
 10
0.0
 20
0.0
 30
0.0
  3
*MODEL_SPACE
  1

  0
ENDBLK
  5
E
100
AcDbEntity
  8
0
390
0
100
AcDbBlockEnd
  0
BLOCK
  5
F
100
AcDbEntity
 67
               1
  8
0
390
0
100
AcDbBlockBegin
  2
*PAPER_SPACE
 70
               0
 10
0.0
 20
0.0
 30
0.0
  3
*PAPER_SPACE
  1

  0
ENDBLK
  5
10
100
AcDbEntity
 67
               1
  8
0
390
0
100
AcDbBlockEnd
  0
BLOCK
  5
46
100
AcDbEntity
  8
0
390
0
100
AcDbBlockBegin
  2
_DOT
 70
               0
 10
0.0
 20
0.0
 30
0.0
  3
_DOT
  1

  0
POLYLINE
  5
47
100
AcDbEntity
  8
0
370
              -2
390
0
  6
ByBlock
 62
               0
100
AcDb2dPolyline
 66
               1
 10
0.0
 20
0.0
 30
0.0
 70
               1
 40
0.5
 41
0.5
  0
VERTEX
  5
48
100
AcDbEntity
  8
0
370
              -2
390
0
  6
ByBlock
 62
               0
100
AcDbVertex
100
AcDb2dVertex
 10
-0.25
 20
0.0
 30
0.0
 42
1.0
  0
VERTEX
  5
49
100
AcDbEntity
  8
0
370
              -2
390
0
  6
ByBlock
 62
               0
100
AcDbVertex
100
AcDb2dVertex
 10
0.25
 20
0.0
 30
0.0
 42
1.0
  0
SEQEND
  5
4A
100
AcDbEntity
  8
0
390
0
  0
LINE
  5
4B
100
AcDbEntity
  8
0
370
              -2
390
0
  6
ByBlock
 62
               0
100
AcDbLine
 10
-0.5
 20
0.0
 30
0.0
 11
-1.0
 21
0.0
 31
0.0
  0
ENDBLK
  5
4C
100
AcDbEntity
  8
0
390
0
100
AcDbBlockEnd
  0
BLOCK
  5
4F
100
AcDbEntity
  8
0
370
              -2
390
0
  6
ByBlock
 62
               0
100
AcDbBlockBegin
  2
VW_FILLEDARROW
 70
               0
 10
0.0
 20
0.0
 30
0.0
  3
VW_FILLEDARROW
  1

  0
SOLID
  5
50
100
AcDbEntity
  8
0
370
              -2
390
0
 62
               0
100
AcDbTrace
 10
0.0
 20
0.0
 30
0.0
 11
-0.9921874999999999
 21
-0.2658558393652545
 31
0.0
 12
-0.9921874999999999
 22
0.2658558393652548
 32
0.0
 13
-0.9921874999999999
 23
0.2658558393652548
 33
0.0
  0
ENDBLK
  5
51
100
AcDbEntity
  8
0
390
0
100
AcDbBlockEnd
  0
BLOCK
  5
53
100
AcDbEntity
  8
lavabo incasso DOLCEVITA
390
0
100
AcDbBlockBegin
  2
*D2
 70
               1
 10
0.0
 20
0.0
 30
0.0
  3
*D2
  1

  0
LINE
  5
54
100
AcDbEntity
  8
0
370
              -2
390
0
  6
Continuous
 62
               0
100
AcDbLine
 10
-652.0
 20
-437.52546396301477
 30
0.0
 11
-571.625
 21
-437.52546396301477
 31
0.0
  0
LINE
  5
55
100
AcDbEntity
  8
0
370
              -2
390
0
  6
Continuous
 62
               0
100
AcDbLine
 10
-652.0
 20
-416.53403230824915
 30
0.0
 11
-571.625
 21
-416.53403230824915
 31
0.0
  0
LINE
  5
56
100
AcDbEntity
  8
0
370
              -2
390
0
  6
Continuous
 62
               0
100
AcDbLine
 10
-571.625
 20
-416.53403230824915
 30
0.0
 11
-571.625
 21
-368.25
 31
0.0
  0
LINE
  5
57
100
AcDbEntity
  8
0
370
              -2
390
0
  6
Continuous
 62
               0
100
AcDbLine
 10
-571.625
 20
-437.52546396301477
 30
0.0
 11
-571.625
 21
-416.53403230824915
 31
0.0
  0
CIRCLE
  5
58
102
{ACAD_REACTORS
330
59
102
}
100
AcDbEntity
  8
0
370
              -2
390
0
  6
Continuous
 62
               0
100
AcDbCircle
 10
-571.625
 20
-437.52546396301477
 30
0.0
 40
1.9998779296875
  0
HATCH
  5
59
100
AcDbEntity
  8
0
370
              -2
390
0
  6
Continuous
 62
               0
100
AcDbHatch
 10
0.0
 20
0.0
 30
0.0
210
0.0
220
0.0
230
1.0
  2
SOLID
 70
               1
 71
               1
 91
        1
 92
        1
 93
        1
 72
               2
 10
-571.625
 20
-437.52546396301477
 40
1.9998779296875
 50
0.0
 51
360.0
 73
               0
 97
        1
330
58
 75
               0
 76
               1
 98
        1
 10
0.0
 20
0.0
  0
CIRCLE
  5
5A
102
{ACAD_REACTORS
330
5B
102
}
100
AcDbEntity
  8
0
370
              -2
390
0
  6
Continuous
 62
               0
100
AcDbCircle
 10
-571.625
 20
-416.53403230824915
 30
0.0
 40
1.9998779296875
  0
HATCH
  5
5B
100
AcDbEntity
  8
0
370
              -2
390
0
  6
Continuous
 62
               0
100
AcDbHatch
 10
0.0
 20
0.0
 30
0.0
210
0.0
220
0.0
230
1.0
  2
SOLID
 70
               1
 71
               1
 91
        1
 92
        1
 93
        1
 72
               2
 10
-571.625
 20
-416.53403230824915
 40
1.9998779296875
 50
0.0
 51
360.0
 73
               0
 97
        1
330
5A
 75
               0
 76
               1
 98
        1
 10
0.0
 20
0.0
  0
MTEXT
  5
5C
100
AcDbEntity
  8
0
390
0
 62
               0
100
AcDbMText
 10
-605.50261718749971
 20
-400.0
 30
0.0
 40
24.432617187500004
 41
0.0
 71
               1
 72
               1
  1
17
  7
ＭＳ ゴシック
 11
0.0
 21
1.0
 31
0.0
 73
               1
 44
0.7828267384257843
  0
POINT
  5
5D
100
AcDbEntity
  8
Defpoints
370
               0
390
0
 62
               0
100
AcDbPoint
 10
-677.0
 20
-416.53403230824915
 30
0.0
  0
POINT
  5
5E
100
AcDbEntity
  8
Defpoints
370
               0
390
0
 62
               0
100
AcDbPoint
 10
-677.0
 20
-437.52546396301477
 30
0.0
  0
POINT
  5
5F
100
AcDbEntity
  8
Defpoints
370
               0
390
0
 62
               0
100
AcDbPoint
 10
-571.625
 20
-437.52546396301477
 30
0.0
  0
ENDBLK
  5
60
100
AcDbEntity
  8
lavabo incasso DOLCEVITA
390
0
100
AcDbBlockEnd
  0
BLOCK
  5
61
100
AcDbEntity
  8
notes
390
0
100
AcDbBlockBegin
  2
*D3
 70
               1
 10
0.0
 20
0.0
 30
0.0
  3
*D3
  1

  0
LINE
  5
62
100
AcDbEntity
  8
0
370
              -2
390
0
  6
Continuous
 62
               0
100
AcDbLine
 10
-761.61644573585181
 20
549.86506635714613
 30
0.0
 11
-761.61644573585181
 21
916.02845627014176
 31
0.0
  0
LINE
  5
63
100
AcDbEntity
  8
0
370
              -2
390
0
  6
Continuous
 62
               0
100
AcDbLine
 10
-111.61644573585181
 20
549.86506635714613
 30
0.0
 11
-111.61644573585181
 21
916.02845627014176
 31
0.0
  0
LINE
  5
64
100
AcDbEntity
  8
0
370
              -2
390
0
  6
Continuous
 62
               0
100
AcDbLine
 10
-761.61644573585181
 20
916.02845627014176
 30
0.0
 11
-111.61644573585181
 21
916.02845627014176
 31
0.0
  0
CIRCLE
  5
65
102
{ACAD_REACTORS
330
66
102
}
100
AcDbEntity
  8
0
370
              -2
390
0
  6
Continuous
 62
               0
100
AcDbCircle
 10
-761.61644573585181
 20
916.02845627014176
 30
0.0
 40
1.9998779296875
  0
HATCH
  5
66
100
AcDbEntity
  8
0
370
              -2
390
0
  6
Continuous
 62
               0
100
AcDbHatch
 10
0.0
 20
0.0
 30
0.0
210
0.0
220
0.0
230
1.0
  2
SOLID
 70
               1
 71
               1
 91
        1
 92
        1
 93
        1
 72
               2
 10
-761.61644573585181
 20
916.02845627014176
 40
1.9998779296875
 50
0.0
 51
360.0
 73
               0
 97
        1
330
65
 75
               0
 76
               1
 98
        1
 10
0.0
 20
0.0
  0
CIRCLE
  5
67
102
{ACAD_REACTORS
330
68
102
}
100
AcDbEntity
  8
0
370
              -2
390
0
  6
Continuous
 62
               0
100
AcDbCircle
 10
-111.61644573585181
 20
916.02845627014176
 30
0.0
 40
1.9998779296875
  0
HATCH
  5
68
100
AcDbEntity
  8
0
370
              -2
390
0
  6
Continuous
 62
               0
100
AcDbHatch
 10
0.0
 20
0.0
 30
0.0
210
0.0
220
0.0
230
1.0
  2
SOLID
 70
               1
 71
               1
 91
        1
 92
        1
 93
        1
 72
               2
 10
-111.61644573585181
 20
916.02845627014176
 40
1.9998779296875
 50
0.0
 51
360.0
 73
               0
 97
        1
330
67
 75
               0
 76
               1
 98
        1
 10
0.0
 20
0.0
  0
MTEXT
  5
69
100
AcDbEntity
  8
0
390
0
 62
               0
100
AcDbMText
 10
-460.42894741802775
 20
949.90607345764874
 30
0.0
 40
24.432617187500004
 41
0.0
 71
               1
 72
               1
  1
650
  7
ＭＳ ゴシック
 73
               1
 44
0.7828267384257843
  0
POINT
  5
6A
100
AcDbEntity
  8
Defpoints
370
               0
390
0
 62
               0
100
AcDbPoint
 10
-111.61644573585181
 20
524.86506635714613
 30
0.0
  0
POINT
  5
6B
100
AcDbEntity
  8
Defpoints
370
               0
390
0
 62
               0
100
AcDbPoint
 10
-761.61644573585181
 20
524.86506635714613
 30
0.0
  0
POINT
  5
6C
100
AcDbEntity
  8
Defpoints
370
               0
390
0
 62
               0
100
AcDbPoint
 10
-761.61644573585181
 20
916.02845627014176
 30
0.0
  0
ENDBLK
  5
6D
100
AcDbEntity
  8
notes
390
0
100
AcDbBlockEnd
  0
BLOCK
  5
6E
100
AcDbEntity
  8
notes
390
0
100
AcDbBlockBegin
  2
*D4
 70
               1
 10
0.0
 20
0.0
 30
0.0
  3
*D4
  1

  0
LINE
  5
6F
100
AcDbEntity
  8
0
370
              -2
390
0
  6
Continuous
 62
               0
100
AcDbLine
 10
-436.61644573575904
 20
719.92782069217355
 30
0.0
 11
-436.61644573575904
 21
866.02845627017086
 31
0.0
  0
LINE
  5
70
100
AcDbEntity
  8
0
370
              -2
390
0
  6
Continuous
 62
               0
100
AcDbLine
 10
-336.61644573575904
 20
719.92782069217355
 30
0.0
 11
-336.61644573575904
 21
866.02845627017086
 31
0.0
  0
LINE
  5
71
100
AcDbEntity
  8
0
370
              -2
390
0
  6
Continuous
 62
               0
100
AcDbLine
 10
-436.61644573575904
 20
866.02845627017086
 30
0.0
 11
-336.61644573575904
 21
866.02845627017086
 31
0.0
  0
CIRCLE
  5
72
102
{ACAD_REACTORS
330
73
102
}
100
AcDbEntity
  8
0
370
              -2
390
0
  6
Continuous
 62
               0
100
AcDbCircle
 10
-436.61644573575904
 20
866.02845627017086
 30
0.0
 40
1.9998779296875
  0
HATCH
  5
73
100
AcDbEntity
  8
0
370
              -2
390
0
  6
Continuous
 62
               0
100
AcDbHatch
 10
0.0
 20
0.0
 30
0.0
210
0.0
220
0.0
230
1.0
  2
SOLID
 70
               1
 71
               1
 91
        1
 92
        1
 93
        1
 72
               2
 10
-436.61644573575904
 20
866.02845627017086
 40
1.9998779296875
 50
0.0
 51
360.0
 73
               0
 97
        1
330
72
 75
               0
 76
               1
 98
        1
 10
0.0
 20
0.0
  0
CIRCLE
  5
74
102
{ACAD_REACTORS
330
75
102
}
100
AcDbEntity
  8
0
370
              -2
390
0
  6
Continuous
 62
               0
100
AcDbCircle
 10
-336.61644573575904
 20
866.02845627017086
 30
0.0
 40
1.9998779296875
  0
HATCH
  5
75
100
AcDbEntity
  8
0
370
              -2
390
0
  6
Continuous
 62
               0
100
AcDbHatch
 10
0.0
 20
0.0
 30
0.0
210
0.0
220
0.0
230
1.0
  2
SOLID
 70
               1
 71
               1
 91
        1
 92
        1
 93
        1
 72
               2
 10
-336.61644573575904
 20
866.02845627017086
 40
1.9998779296875
 50
0.0
 51
360.0
 73
               0
 97
        1
330
74
 75
               0
 76
               1
 98
        1
 10
0.0
 20
0.0
  0
MTEXT
  5
76
100
AcDbEntity
  8
0
390
0
 62
               0
100
AcDbMText
 10
-410.42894741793498
 20
899.90607345767785
 30
0.0
 40
24.432617187500004
 41
0.0
 71
               1
 72
               1
  1
100
  7
ＭＳ ゴシック
 73
               1
 44
0.7828267384257843
  0
POINT
  5
77
100
AcDbEntity
  8
Defpoints
370
               0
390
0
 62
               0
100
AcDbPoint
 10
-336.61644573575904
 20
694.92782069217355
 30
0.0
  0
POINT
  5
78
100
AcDbEntity
  8
Defpoints
370
               0
390
0
 62
               0
100
AcDbPoint
 10
-436.61644573575904
 20
694.92782069217355
 30
0.0
  0
POINT
  5
79
100
AcDbEntity
  8
Defpoints
370
               0
390
0
 62
               0
100
AcDbPoint
 10
-436.61644573575904
 20
866.02845627017086
 30
0.0
  0
ENDBLK
  5
7A
100
AcDbEntity
  8
notes
390
0
100
AcDbBlockEnd
  0
BLOCK
  5
7B
100
AcDbEntity
  8
notes
390
0
100
AcDbBlockBegin
  2
*D5
 70
               1
 10
0.0
 20
0.0
 30
0.0
  3
*D5
  1

  0
LINE
  5
7C
100
AcDbEntity
  8
0
370
              -2
390
0
  6
Continuous
 62
               0
100
AcDbLine
 10
-436.61644573575904
 20
719.92782069217355
 30
0.0
 11
-436.61644573575904
 21
866.02845627017086
 31
0.0
  0
LINE
  5
7D
100
AcDbEntity
  8
0
370
              -2
390
0
  6
Continuous
 62
               0
100
AcDbLine
 10
-536.61644573575904
 20
719.92782069217355
 30
0.0
 11
-536.61644573575904
 21
866.02845627017086
 31
0.0
  0
LINE
  5
7E
100
AcDbEntity
  8
0
370
              -2
390
0
  6
Continuous
 62
               0
100
AcDbLine
 10
-436.61644573575904
 20
866.02845627017086
 30
0.0
 11
-536.61644573575904
 21
866.02845627017086
 31
0.0
  0
CIRCLE
  5
7F
102
{ACAD_REACTORS
330
80
102
}
100
AcDbEntity
  8
0
370
              -2
390
0
  6
Continuous
 62
               0
100
AcDbCircle
 10
-436.61644573575904
 20
866.02845627017086
 30
0.0
 40
1.9998779296875
  0
HATCH
  5
80
100
AcDbEntity
  8
0
370
              -2
390
0
  6
Continuous
 62
               0
100
AcDbHatch
 10
0.0
 20
0.0
 30
0.0
210
0.0
220
0.0
230
1.0
  2
SOLID
 70
               1
 71
               1
 91
        1
 92
        1
 93
        1
 72
               2
 10
-436.61644573575904
 20
866.02845627017086
 40
1.9998779296875
 50
0.0
 51
360.0
 73
               0
 97
        1
330
7F
 75
               0
 76
               1
 98
        1
 10
0.0
 20
0.0
  0
CIRCLE
  5
81
102
{ACAD_REACTORS
330
82
102
}
100
AcDbEntity
  8
0
370
              -2
390
0
  6
Continuous
 62
               0
100
AcDbCircle
 10
-536.61644573575904
 20
866.02845627017086
 30
0.0
 40
1.9998779296875
  0
HATCH
  5
82
100
AcDbEntity
  8
0
370
              -2
390
0
  6
Continuous
 62
               0
100
AcDbHatch
 10
0.0
 20
0.0
 30
0.0
210
0.0
220
0.0
230
1.0
  2
SOLID
 70
               1
 71
               1
 91
        1
 92
        1
 93
        1
 72
               2
 10
-536.61644573575904
 20
866.02845627017086
 40
1.9998779296875
 50
0.0
 51
360.0
 73
               0
 97
        1
330
81
 75
               0
 76
               1
 98
        1
 10
0.0
 20
0.0
  0
MTEXT
  5
83
100
AcDbEntity
  8
0
390
0
 62
               0
100
AcDbMText
 10
-510.42894741793498
 20
899.90607345767785
 30
0.0
 40
24.432617187500004
 41
0.0
 71
               1
 72
               1
  1
100
  7
ＭＳ ゴシック
 73
               1
 44
0.7828267384257843
  0
POINT
  5
84
100
AcDbEntity
  8
Defpoints
370
               0
390
0
 62
               0
100
AcDbPoint
 10
-536.61644573575904
 20
694.92782069217355
 30
0.0
  0
POINT
  5
85
100
AcDbEntity
  8
Defpoints
370
               0
390
0
 62
               0
100
AcDbPoint
 10
-436.61644573575904
 20
694.92782069217355
 30
0.0
  0
POINT
  5
86
100
AcDbEntity
  8
Defpoints
370
               0
390
0
 62
               0
100
AcDbPoint
 10
-436.61644573575904
 20
866.02845627017086
 30
0.0
  0
ENDBLK
  5
87
100
AcDbEntity
  8
notes
390
0
100
AcDbBlockEnd
  0
BLOCK
  5
88
100
AcDbEntity
  8
notes
390
0
100
AcDbBlockBegin
  2
*D6
 70
               1
 10
0.0
 20
0.0
 30
0.0
  3
*D6
  1

  0
LINE
  5
89
100
AcDbEntity
  8
0
370
              -2
390
0
  6
Continuous
 62
               0
100
AcDbLine
 10
-375.0
 20
766.0
 30
0.0
 11
-11.616445735666275
 21
766.0
 31
0.0
  0
LINE
  5
8A
100
AcDbEntity
  8
0
370
              -2
390
0
  6
Continuous
 62
               0
100
AcDbLine
 10
-381.0
 20
286.02845627033093
 30
0.0
 11
-11.616445735666275
 21
286.02845627033093
 31
0.0
  0
LINE
  5
8B
100
AcDbEntity
  8
0
370
              -2
390
0
  6
Continuous
 62
               0
100
AcDbLine
 10
-11.616445735666275
 20
766.0
 30
0.0
 11
-11.616445735666275
 21
286.02845627033093
 31
0.0
  0
CIRCLE
  5
8C
102
{ACAD_REACTORS
330
8D
102
}
100
AcDbEntity
  8
0
370
              -2
390
0
  6
Continuous
 62
               0
100
AcDbCircle
 10
-11.616445735666275
 20
766.0
 30
0.0
 40
1.9998779296875
  0
HATCH
  5
8D
100
AcDbEntity
  8
0
370
              -2
390
0
  6
Continuous
 62
               0
100
AcDbHatch
 10
0.0
 20
0.0
 30
0.0
210
0.0
220
0.0
230
1.0
  2
SOLID
 70
               1
 71
               1
 91
        1
 92
        1
 93
        1
 72
               2
 10
-11.616445735666275
 20
766.0
 40
1.9998779296875
 50
0.0
 51
360.0
 73
               0
 97
        1
330
8C
 75
               0
 76
               1
 98
        1
 10
0.0
 20
0.0
  0
CIRCLE
  5
8E
102
{ACAD_REACTORS
330
8F
102
}
100
AcDbEntity
  8
0
370
              -2
390
0
  6
Continuous
 62
               0
100
AcDbCircle
 10
-11.616445735666275
 20
286.02845627033093
 30
0.0
 40
1.9998779296875
  0
HATCH
  5
8F
100
AcDbEntity
  8
0
370
              -2
390
0
  6
Continuous
 62
               0
100
AcDbHatch
 10
0.0
 20
0.0
 30
0.0
210
0.0
220
0.0
230
1.0
  2
SOLID
 70
               1
 71
               1
 91
        1
 92
        1
 93
        1
 72
               2
 10
-11.616445735666275
 20
286.02845627033093
 40
1.9998779296875
 50
0.0
 51
360.0
 73
               0
 97
        1
330
8E
 75
               0
 76
               1
 98
        1
 10
0.0
 20
0.0
  0
MTEXT
  5
90
100
AcDbEntity
  8
0
390
0
 62
               0
100
AcDbMText
 10
-45.494062923165984
 20
502.20172645300045
 30
0.0
 40
24.432617187500004
 41
0.0
 71
               1
 72
               1
  1
480
  7
ＭＳ ゴシック
 11
0.0
 21
1.0
 31
0.0
 73
               1
 44
0.7828267384257843
  0
POINT
  5
91
100
AcDbEntity
  8
Defpoints
370
               0
390
0
 62
               0
100
AcDbPoint
 10
-406.0
 20
286.02845627033093
 30
0.0
  0
POINT
  5
92
100
AcDbEntity
  8
Defpoints
370
               0
390
0
 62
               0
100
AcDbPoint
 10
-400.0
 20
766.0
 30
0.0
  0
POINT
  5
93
100
AcDbEntity
  8
Defpoints
370
               0
390
0
 62
               0
100
AcDbPoint
 10
-11.616445735666275
 20
766.0
 30
0.0
  0
ENDBLK
  5
94
100
AcDbEntity
  8
notes
390
0
100
AcDbBlockEnd
  0
BLOCK
  5
95
100
AcDbEntity
  8
notes
390
0
100
AcDbBlockBegin
  2
*D7
 70
               1
 10
0.0
 20
0.0
 30
0.0
  3
*D7
  1

  0
LINE
  5
96
100
AcDbEntity
  8
0
370
              -2
390
0
  6
Continuous
 62
               0
100
AcDbLine
 10
-512.0
 20
766.02845627033093
 30
0.0
 11
-861.61644573555532
 21
766.02845627033093
 31
0.0
  0
LINE
  5
97
100
AcDbEntity
  8
0
370
              -2
390
0
  6
Continuous
 62
               0
100
AcDbLine
 10
-750.31657700979122
 20
636.02845627033093
 30
0.0
 11
-861.61644573555532
 21
636.02845627033093
 31
0.0
  0
LINE
  5
98
100
AcDbEntity
  8
0
370
              -2
390
0
  6
Continuous
 62
               0
100
AcDbLine
 10
-861.61644573555532
 20
766.02845627033093
 30
0.0
 11
-861.61644573555532
 21
636.02845627033093
 31
0.0
  0
CIRCLE
  5
99
102
{ACAD_REACTORS
330
9A
102
}
100
AcDbEntity
  8
0
370
              -2
390
0
  6
Continuous
 62
               0
100
AcDbCircle
 10
-861.61644573555532
 20
766.02845627033093
 30
0.0
 40
1.9998779296875
  0
HATCH
  5
9A
100
AcDbEntity
  8
0
370
              -2
390
0
  6
Continuous
 62
               0
100
AcDbHatch
 10
0.0
 20
0.0
 30
0.0
210
0.0
220
0.0
230
1.0
  2
SOLID
 70
               1
 71
               1
 91
        1
 92
        1
 93
        1
 72
               2
 10
-861.61644573555532
 20
766.02845627033093
 40
1.9998779296875
 50
0.0
 51
360.0
 73
               0
 97
        1
330
99
 75
               0
 76
               1
 98
        1
 10
0.0
 20
0.0
  0
CIRCLE
  5
9B
102
{ACAD_REACTORS
330
9C
102
}
100
AcDbEntity
  8
0
370
              -2
390
0
  6
Continuous
 62
               0
100
AcDbCircle
 10
-861.61644573555532
 20
636.02845627033093
 30
0.0
 40
1.9998779296875
  0
HATCH
  5
9C
100
AcDbEntity
  8
0
370
              -2
390
0
  6
Continuous
 62
               0
100
AcDbHatch
 10
0.0
 20
0.0
 30
0.0
210
0.0
220
0.0
230
1.0
  2
SOLID
 70
               1
 71
               1
 91
        1
 92
        1
 93
        1
 72
               2
 10
-861.61644573555532
 20
636.02845627033093
 40
1.9998779296875
 50
0.0
 51
360.0
 73
               0
 97
        1
330
9B
 75
               0
 76
               1
 98
        1
 10
0.0
 20
0.0
  0
MTEXT
  5
9D
100
AcDbEntity
  8
0
390
0
 62
               0
100
AcDbMText
 10
-895.49406292305503
 20
677.21595458815864
 30
0.0
 40
24.432617187500004
 41
0.0
 71
               1
 72
               1
  1
130
  7
ＭＳ ゴシック
 11
0.0
 21
1.0
 31
0.0
 73
               1
 44
0.7828267384257843
  0
POINT
  5
9E
100
AcDbEntity
  8
Defpoints
370
               0
390
0
 62
               0
100
AcDbPoint
 10
-725.31657700979122
 20
636.02845627033093
 30
0.0
  0
POINT
  5
9F
100
AcDbEntity
  8
Defpoints
370
               0
390
0
 62
               0
100
AcDbPoint
 10
-487.0
 20
766.02845627033093
 30
0.0
  0
POINT
  5
A0
100
AcDbEntity
  8
Defpoints
370
               0
390
0
 62
               0
100
AcDbPoint
 10
-861.61644573555532
 20
766.02845627033093
 30
0.0
  0
ENDBLK
  5
A1
100
AcDbEntity
  8
notes
390
0
100
AcDbBlockEnd
  0
BLOCK
  5
A2
100
AcDbEntity
  8
notes
390
0
100
AcDbBlockBegin
  2
*D8
 70
               1
 10
0.0
 20
0.0
 30
0.0
  3
*D8
  1

  0
LINE
  5
A3
100
AcDbEntity
  8
0
370
              -2
390
0
  6
Continuous
 62
               0
100
AcDbLine
 10
-750.31657700979122
 20
636.02845627033093
 30
0.0
 11
-861.61644573555714
 21
636.02845627033093
 31
0.0
  0
LINE
  5
A4
100
AcDbEntity
  8
0
370
              -2
390
0
  6
Continuous
 62
               0
100
AcDbLine
 10
-675.96973880090627
 20
346.02845627033093
 30
0.0
 11
-861.61644573555714
 21
346.02845627033093
 31
0.0
  0
LINE
  5
A5
100
AcDbEntity
  8
0
370
              -2
390
0
  6
Continuous
 62
               0
100
AcDbLine
 10
-861.61644573555714
 20
636.02845627033093
 30
0.0
 11
-861.61644573555714
 21
346.02845627033093
 31
0.0
  0
CIRCLE
  5
A6
102
{ACAD_REACTORS
330
A7
102
}
100
AcDbEntity
  8
0
370
              -2
390
0
  6
Continuous
 62
               0
100
AcDbCircle
 10
-861.61644573555714
 20
636.02845627033093
 30
0.0
 40
1.9998779296875
  0
HATCH
  5
A7
100
AcDbEntity
  8
0
370
              -2
390
0
  6
Continuous
 62
               0
100
AcDbHatch
 10
0.0
 20
0.0
 30
0.0
210
0.0
220
0.0
230
1.0
  2
SOLID
 70
               1
 71
               1
 91
        1
 92
        1
 93
        1
 72
               2
 10
-861.61644573555714
 20
636.02845627033093
 40
1.9998779296875
 50
0.0
 51
360.0
 73
               0
 97
        1
330
A6
 75
               0
 76
               1
 98
        1
 10
0.0
 20
0.0
  0
CIRCLE
  5
A8
102
{ACAD_REACTORS
330
A9
102
}
100
AcDbEntity
  8
0
370
              -2
390
0
  6
Continuous
 62
               0
100
AcDbCircle
 10
-861.61644573555714
 20
346.02845627033093
 30
0.0
 40
1.9998779296875
  0
HATCH
  5
A9
100
AcDbEntity
  8
0
370
              -2
390
0
  6
Continuous
 62
               0
100
AcDbHatch
 10
0.0
 20
0.0
 30
0.0
210
0.0
220
0.0
230
1.0
  2
SOLID
 70
               1
 71
               1
 91
        1
 92
        1
 93
        1
 72
               2
 10
-861.61644573555714
 20
346.02845627033093
 40
1.9998779296875
 50
0.0
 51
360.0
 73
               0
 97
        1
330
A8
 75
               0
 76
               1
 98
        1
 10
0.0
 20
0.0
  0
MTEXT
  5
AA
100
AcDbEntity
  8
0
390
0
 62
               0
100
AcDbMText
 10
-895.49406292305684
 20
467.21595458815864
 30
0.0
 40
24.432617187500004
 41
0.0
 71
               1
 72
               1
  1
290
  7
ＭＳ ゴシック
 11
0.0
 21
1.0
 31
0.0
 73
               1
 44
0.7828267384257843
  0
POINT
  5
AB
100
AcDbEntity
  8
Defpoints
370
               0
390
0
 62
               0
100
AcDbPoint
 10
-650.96973880090627
 20
346.02845627033093
 30
0.0
  0
POINT
  5
AC
100
AcDbEntity
  8
Defpoints
370
               0
390
0
 62
               0
100
AcDbPoint
 10
-725.31657700979122
 20
636.02845627033093
 30
0.0
  0
POINT
  5
AD
100
AcDbEntity
  8
Defpoints
370
               0
390
0
 62
               0
100
AcDbPoint
 10
-861.61644573555714
 20
636.02845627033093
 30
0.0
  0
ENDBLK
  5
AE
100
AcDbEntity
  8
notes
390
0
100
AcDbBlockEnd
  0
BLOCK
  5
AF
100
AcDbEntity
  8
notes
390
0
100
AcDbBlockBegin
  2
*D9
 70
               1
 10
0.0
 20
0.0
 30
0.0
  3
*D9
  1

  0
LINE
  5
B0
100
AcDbEntity
  8
0
370
              -2
390
0
  6
Continuous
 62
               0
100
AcDbLine
 10
-656.61644573585181
 20
323.49980666859483
 30
0.0
 11
-656.61644573585181
 21
186.02845627059287
 31
0.0
  0
LINE
  5
B1
100
AcDbEntity
  8
0
370
              -2
390
0
  6
Continuous
 62
               0
100
AcDbLine
 10
-216.61644573585181
 20
323.49980666859483
 30
0.0
 11
-216.61644573585181
 21
186.02845627059287
 31
0.0
  0
LINE
  5
B2
100
AcDbEntity
  8
0
370
              -2
390
0
  6
Continuous
 62
               0
100
AcDbLine
 10
-656.61644573585181
 20
186.02845627059287
 30
0.0
 11
-216.61644573585181
 21
186.02845627059287
 31
0.0
  0
CIRCLE
  5
B3
102
{ACAD_REACTORS
330
B4
102
}
100
AcDbEntity
  8
0
370
              -2
390
0
  6
Continuous
 62
               0
100
AcDbCircle
 10
-656.61644573585181
 20
186.02845627059287
 30
0.0
 40
1.9998779296875
  0
HATCH
  5
B4
100
AcDbEntity
  8
0
370
              -2
390
0
  6
Continuous
 62
               0
100
AcDbHatch
 10
0.0
 20
0.0
 30
0.0
210
0.0
220
0.0
230
1.0
  2
SOLID
 70
               1
 71
               1
 91
        1
 92
        1
 93
        1
 72
               2
 10
-656.61644573585181
 20
186.02845627059287
 40
1.9998779296875
 50
0.0
 51
360.0
 73
               0
 97
        1
330
B3
 75
               0
 76
               1
 98
        1
 10
0.0
 20
0.0
  0
CIRCLE
  5
B5
102
{ACAD_REACTORS
330
B6
102
}
100
AcDbEntity
  8
0
370
              -2
390
0
  6
Continuous
 62
               0
100
AcDbCircle
 10
-216.61644573585181
 20
186.02845627059287
 30
0.0
 40
1.9998779296875
  0
HATCH
  5
B6
100
AcDbEntity
  8
0
370
              -2
390
0
  6
Continuous
 62
               0
100
AcDbHatch
 10
0.0
 20
0.0
 30
0.0
210
0.0
220
0.0
230
1.0
  2
SOLID
 70
               1
 71
               1
 91
        1
 92
        1
 93
        1
 72
               2
 10
-216.61644573585181
 20
186.02845627059287
 40
1.9998779296875
 50
0.0
 51
360.0
 73
               0
 97
        1
330
B5
 75
               0
 76
               1
 98
        1
 10
0.0
 20
0.0
  0
MTEXT
  5
B7
100
AcDbEntity
  8
0
390
0
 62
               0
100
AcDbMText
 10
-460.42894741802775
 20
219.90607345809985
 30
0.0
 40
24.432617187500004
 41
0.0
 71
               1
 72
               1
  1
440
  7
ＭＳ ゴシック
 73
               1
 44
0.7828267384257843
  0
POINT
  5
B8
100
AcDbEntity
  8
Defpoints
370
               0
390
0
 62
               0
100
AcDbPoint
 10
-216.61644573585181
 20
348.49980666859483
 30
0.0
  0
POINT
  5
B9
100
AcDbEntity
  8
Defpoints
370
               0
390
0
 62
               0
100
AcDbPoint
 10
-656.61644573585181
 20
348.49980666859483
 30
0.0
  0
POINT
  5
BA
100
AcDbEntity
  8
Defpoints
370
               0
390
0
 62
               0
100
AcDbPoint
 10
-656.61644573585181
 20
186.02845627059287
 30
0.0
  0
ENDBLK
  5
BB
100
AcDbEntity
  8
notes
390
0
100
AcDbBlockEnd
  0
BLOCK
  5
BC
100
AcDbEntity
  8
notes
390
0
100
AcDbBlockBegin
  2
*D10
 70
               1
 10
0.0
 20
0.0
 30
0.0
  3
*D10
  1

  0
LINE
  5
BD
100
AcDbEntity
  8
0
370
              -2
390
0
  6
Continuous
 62
               0
100
AcDbLine
 10
239.0012421138581
 20
500.08572932683455
 30
0.0
 11
239.0012421138581
 21
181.29966820089612
 31
0.0
  0
LINE
  5
BE
100
AcDbEntity
  8
0
370
              -2
390
0
  6
Continuous
 62
               0
100
AcDbLine
 10
769.0012421138581
 20
499.28890012568445
 30
0.0
 11
769.0012421138581
 21
181.29966820089612
 31
0.0
  0
LINE
  5
BF
100
AcDbEntity
  8
0
370
              -2
390
0
  6
Continuous
 62
               0
100
AcDbLine
 10
239.0012421138581
 20
181.29966820089612
 30
0.0
 11
769.0012421138581
 21
181.29966820089612
 31
0.0
  0
CIRCLE
  5
C0
102
{ACAD_REACTORS
330
C1
102
}
100
AcDbEntity
  8
0
370
              -2
390
0
  6
Continuous
 62
               0
100
AcDbCircle
 10
239.0012421138581
 20
181.29966820089612
 30
0.0
 40
1.9998779296875
  0
HATCH
  5
C1
100
AcDbEntity
  8
0
370
              -2
390
0
  6
Continuous
 62
               0
100
AcDbHatch
 10
0.0
 20
0.0
 30
0.0
210
0.0
220
0.0
230
1.0
  2
SOLID
 70
               1
 71
               1
 91
        1
 92
        1
 93
        1
 72
               2
 10
239.0012421138581
 20
181.29966820089612
 40
1.9998779296875
 50
0.0
 51
360.0
 73
               0
 97
        1
330
C0
 75
               0
 76
               1
 98
        1
 10
0.0
 20
0.0
  0
CIRCLE
  5
C2
102
{ACAD_REACTORS
330
C3
102
}
100
AcDbEntity
  8
0
370
              -2
390
0
  6
Continuous
 62
               0
100
AcDbCircle
 10
769.0012421138581
 20
181.29966820089612
 30
0.0
 40
1.9998779296875
  0
HATCH
  5
C3
100
AcDbEntity
  8
0
370
              -2
390
0
  6
Continuous
 62
               0
100
AcDbHatch
 10
0.0
 20
0.0
 30
0.0
210
0.0
220
0.0
230
1.0
  2
SOLID
 70
               1
 71
               1
 91
        1
 92
        1
 93
        1
 72
               2
 10
769.0012421138581
 20
181.29966820089612
 40
1.9998779296875
 50
0.0
 51
360.0
 73
               0
 97
        1
330
C2
 75
               0
 76
               1
 98
        1
 10
0.0
 20
0.0
  0
MTEXT
  5
C4
100
AcDbEntity
  8
0
390
0
 62
               0
100
AcDbMText
 10
480.18874043168216
 20
215.17728538840311
 30
0.0
 40
24.432617187500004
 41
0.0
 71
               1
 72
               1
  1
530
  7
ＭＳ ゴシック
 73
               1
 44
0.7828267384257843
  0
POINT
  5
C5
100
AcDbEntity
  8
Defpoints
370
               0
390
0
 62
               0
100
AcDbPoint
 10
769.0012421138581
 20
524.28890012568445
 30
0.0
  0
POINT
  5
C6
100
AcDbEntity
  8
Defpoints
370
               0
390
0
 62
               0
100
AcDbPoint
 10
239.0012421138581
 20
525.08572932683455
 30
0.0
  0
POINT
  5
C7
100
AcDbEntity
  8
Defpoints
370
               0
390
0
 62
               0
100
AcDbPoint
 10
239.0012421138581
 20
181.29966820089612
 30
0.0
  0
ENDBLK
  5
C8
100
AcDbEntity
  8
notes
390
0
100
AcDbBlockEnd
  0
BLOCK
  5
C9
100
AcDbEntity
  8
notes
390
0
100
AcDbBlockBegin
  2
*D11
 70
               1
 10
0.0
 20
0.0
 30
0.0
  3
*D11
  1

  0
LINE
  5
CA
100
AcDbEntity
  8
0
370
              -2
390
0
  6
Continuous
 62
               0
100
AcDbLine
 10
529.12437405703349
 20
715.47932604077505
 30
0.0
 11
875.0
 21
715.47932604077505
 31
0.0
  0
LINE
  5
CB
100
AcDbEntity
  8
0
370
              -2
390
0
  6
Continuous
 62
               0
100
AcDbLine
 10
529.12437405703349
 20
335.47932604077505
 30
0.0
 11
875.0
 21
335.47932604077505
 31
0.0
  0
LINE
  5
CC
100
AcDbEntity
  8
0
370
              -2
390
0
  6
Continuous
 62
               0
100
AcDbLine
 10
875.0
 20
715.47932604077505
 30
0.0
 11
875.0
 21
335.47932604077505
 31
0.0
  0
CIRCLE
  5
CD
102
{ACAD_REACTORS
330
CE
102
}
100
AcDbEntity
  8
0
370
              -2
390
0
  6
Continuous
 62
               0
100
AcDbCircle
 10
875.0
 20
715.47932604077505
 30
0.0
 40
1.9998779296875
  0
HATCH
  5
CE
100
AcDbEntity
  8
0
370
              -2
390
0
  6
Continuous
 62
               0
100
AcDbHatch
 10
0.0
 20
0.0
 30
0.0
210
0.0
220
0.0
230
1.0
  2
SOLID
 70
               1
 71
               1
 91
        1
 92
        1
 93
        1
 72
               2
 10
875.0
 20
715.47932604077505
 40
1.9998779296875
 50
0.0
 51
360.0
 73
               0
 97
        1
330
CD
 75
               0
 76
               1
 98
        1
 10
0.0
 20
0.0
  0
CIRCLE
  5
CF
102
{ACAD_REACTORS
330
D0
102
}
100
AcDbEntity
  8
0
370
              -2
390
0
  6
Continuous
 62
               0
100
AcDbCircle
 10
875.0
 20
335.47932604077505
 30
0.0
 40
1.9998779296875
  0
HATCH
  5
D0
100
AcDbEntity
  8
0
370
              -2
390
0
  6
Continuous
 62
               0
100
AcDbHatch
 10
0.0
 20
0.0
 30
0.0
210
0.0
220
0.0
230
1.0
  2
SOLID
 70
               1
 71
               1
 91
        1
 92
        1
 93
        1
 72
               2
 10
875.0
 20
335.47932604077505
 40
1.9998779296875
 50
0.0
 51
360.0
 73
               0
 97
        1
330
CF
 75
               0
 76
               1
 98
        1
 10
0.0
 20
0.0
  0
MTEXT
  5
D1
100
AcDbEntity
  8
0
390
0
 62
               0
100
AcDbMText
 10
841.12238281250029
 20
501.66682435860275
 30
0.0
 40
24.432617187500004
 41
0.0
 71
               1
 72
               1
  1
380
  7
ＭＳ ゴシック
 11
0.0
 21
1.0
 31
0.0
 73
               1
 44
0.7828267384257843
  0
POINT
  5
D2
100
AcDbEntity
  8
Defpoints
370
               0
390
0
 62
               0
100
AcDbPoint
 10
504.12437405703349
 20
335.47932604077505
 30
0.0
  0
POINT
  5
D3
100
AcDbEntity
  8
Defpoints
370
               0
390
0
 62
               0
100
AcDbPoint
 10
504.12437405703349
 20
715.47932604077505
 30
0.0
  0
POINT
  5
D4
100
AcDbEntity
  8
Defpoints
370
               0
390
0
 62
               0
100
AcDbPoint
 10
875.0
 20
715.47932604077505
 30
0.0
  0
ENDBLK
  5
D5
100
AcDbEntity
  8
notes
390
0
100
AcDbBlockEnd
  0
BLOCK
  5
D6
100
AcDbEntity
  8
notes
390
0
100
AcDbBlockBegin
  2
*D12
 70
               1
 10
0.0
 20
0.0
 30
0.0
  3
*D12
  1

  0
LINE
  5
D7
100
AcDbEntity
  8
0
370
              -2
390
0
  6
Continuous
 62
               0
100
AcDbLine
 10
575.90315608408491
 20
-437.419193197813
 30
0.0
 11
546.78547851037001
 21
-437.419193197813
 31
0.0
  0
LINE
  5
D8
100
AcDbEntity
  8
0
370
              -2
390
0
  6
Continuous
 62
               0
100
AcDbLine
 10
575.88439505725182
 20
-572.419193197813
 30
0.0
 11
546.78547851037001
 21
-572.419193197813
 31
0.0
  0
LINE
  5
D9
100
AcDbEntity
  8
0
370
              -2
390
0
  6
Continuous
 62
               0
100
AcDbLine
 10
546.78547851037001
 20
-437.419193197813
 30
0.0
 11
546.78547851037001
 21
-572.419193197813
 31
0.0
  0
CIRCLE
  5
DA
102
{ACAD_REACTORS
330
DB
102
}
100
AcDbEntity
  8
0
370
              -2
390
0
  6
Continuous
 62
               0
100
AcDbCircle
 10
546.78547851037001
 20
-437.419193197813
 30
0.0
 40
1.9998779296875
  0
HATCH
  5
DB
100
AcDbEntity
  8
0
370
              -2
390
0
  6
Continuous
 62
               0
100
AcDbHatch
 10
0.0
 20
0.0
 30
0.0
210
0.0
220
0.0
230
1.0
  2
SOLID
 70
               1
 71
               1
 91
        1
 92
        1
 93
        1
 72
               2
 10
546.78547851037001
 20
-437.419193197813
 40
1.9998779296875
 50
0.0
 51
360.0
 73
               0
 97
        1
330
DA
 75
               0
 76
               1
 98
        1
 10
0.0
 20
0.0
  0
CIRCLE
  5
DC
102
{ACAD_REACTORS
330
DD
102
}
100
AcDbEntity
  8
0
370
              -2
390
0
  6
Continuous
 62
               0
100
AcDbCircle
 10
546.78547851037001
 20
-572.419193197813
 30
0.0
 40
1.9998779296875
  0
HATCH
  5
DD
100
AcDbEntity
  8
0
370
              -2
390
0
  6
Continuous
 62
               0
100
AcDbHatch
 10
0.0
 20
0.0
 30
0.0
210
0.0
220
0.0
230
1.0
  2
SOLID
 70
               1
 71
               1
 91
        1
 92
        1
 93
        1
 72
               2
 10
546.78547851037001
 20
-572.419193197813
 40
1.9998779296875
 50
0.0
 51
360.0
 73
               0
 97
        1
330
DC
 75
               0
 76
               1
 98
        1
 10
0.0
 20
0.0
  0
MTEXT
  5
DE
100
AcDbEntity
  8
0
390
0
 62
               0
100
AcDbMText
 10
512.9078613228703
 20
-577.97437077152426
 30
0.0
 40
24.432617187500004
 41
0.0
 71
               1
 72
               1
  1
135(深さ)
  7
ＭＳ ゴシック
 11
0.0
 21
1.0
 31
0.0
 73
               1
 44
0.7828267384257843
  0
POINT
  5
DF
100
AcDbEntity
  8
Defpoints
370
               0
390
0
 62
               0
100
AcDbPoint
 10
600.88439505725182
 20
-572.419193197813
 30
0.0
  0
POINT
  5
E0
100
AcDbEntity
  8
Defpoints
370
               0
390
0
 62
               0
100
AcDbPoint
 10
600.90315608408491
 20
-437.419193197813
 30
0.0
  0
POINT
  5
E1
100
AcDbEntity
  8
Defpoints
370
               0
390
0
 62
               0
100
AcDbPoint
 10
546.78547851037001
 20
-437.419193197813
 30
0.0
  0
ENDBLK
  5
E2
100
AcDbEntity
  8
notes
390
0
100
AcDbBlockEnd
  0
BLOCK
  5
E3
100
AcDbEntity
  8
notes
390
0
100
AcDbBlockBegin
  2
*D13
 70
               1
 10
0.0
 20
0.0
 30
0.0
  3
*D13
  1

  0
LINE
  5
E4
100
AcDbEntity
  8
0
370
              -2
390
0
  6
Continuous
 62
               0
100
AcDbLine
 10
688.852340926127
 20
-412.52546396301477
 30
0.0
 11
688.852340926127
 21
-317.80252474722511
 31
0.0
  0
LINE
  5
E5
100
AcDbEntity
  8
0
370
              -2
390
0
  6
Continuous
 62
               0
100
AcDbLine
 10
773.852340926127
 20
-412.52546396301477
 30
0.0
 11
773.852340926127
 21
-317.80252474722511
 31
0.0
  0
LINE
  5
E6
100
AcDbEntity
  8
0
370
              -2
390
0
  6
Continuous
 62
               0
100
AcDbLine
 10
688.852340926127
 20
-317.80252474722511
 30
0.0
 11
773.852340926127
 21
-317.80252474722511
 31
0.0
  0
CIRCLE
  5
E7
102
{ACAD_REACTORS
330
E8
102
}
100
AcDbEntity
  8
0
370
              -2
390
0
  6
Continuous
 62
               0
100
AcDbCircle
 10
688.852340926127
 20
-317.80252474722511
 30
0.0
 40
1.9998779296875
  0
HATCH
  5
E8
100
AcDbEntity
  8
0
370
              -2
390
0
  6
Continuous
 62
               0
100
AcDbHatch
 10
0.0
 20
0.0
 30
0.0
210
0.0
220
0.0
230
1.0
  2
SOLID
 70
               1
 71
               1
 91
        1
 92
        1
 93
        1
 72
               2
 10
688.852340926127
 20
-317.80252474722511
 40
1.9998779296875
 50
0.0
 51
360.0
 73
               0
 97
        1
330
E7
 75
               0
 76
               1
 98
        1
 10
0.0
 20
0.0
  0
CIRCLE
  5
E9
102
{ACAD_REACTORS
330
EA
102
}
100
AcDbEntity
  8
0
370
              -2
390
0
  6
Continuous
 62
               0
100
AcDbCircle
 10
773.852340926127
 20
-317.80252474722511
 30
0.0
 40
1.9998779296875
  0
HATCH
  5
EA
100
AcDbEntity
  8
0
370
              -2
390
0
  6
Continuous
 62
               0
100
AcDbHatch
 10
0.0
 20
0.0
 30
0.0
210
0.0
220
0.0
230
1.0
  2
SOLID
 70
               1
 71
               1
 91
        1
 92
        1
 93
        1
 72
               2
 10
773.852340926127
 20
-317.80252474722511
 40
1.9998779296875
 50
0.0
 51
360.0
 73
               0
 97
        1
330
E9
 75
               0
 76
               1
 98
        1
 10
0.0
 20
0.0
  0
MTEXT
  5
EB
100
AcDbEntity
  8
0
390
0
 62
               0
100
AcDbMText
 10
715.477340926127
 20
-283.92490755971812
 30
0.0
 40
24.432617187500004
 41
0.0
 71
               1
 72
               1
  1
85
  7
ＭＳ ゴシック
 73
               1
 44
0.7828267384257843
  0
POINT
  5
EC
100
AcDbEntity
  8
Defpoints
370
               0
390
0
 62
               0
100
AcDbPoint
 10
773.852340926127
 20
-437.52546396301477
 30
0.0
  0
POINT
  5
ED
100
AcDbEntity
  8
Defpoints
370
               0
390
0
 62
               0
100
AcDbPoint
 10
688.852340926127
 20
-437.52546396301477
 30
0.0
  0
POINT
  5
EE
100
AcDbEntity
  8
Defpoints
370
               0
390
0
 62
               0
100
AcDbPoint
 10
688.852340926127
 20
-317.80252474722511
 30
0.0
  0
ENDBLK
  5
EF
100
AcDbEntity
  8
notes
390
0
100
AcDbBlockEnd
  0
BLOCK
  5
F0
100
AcDbEntity
  8
notes
390
0
100
AcDbBlockBegin
  2
*D14
 70
               1
 10
0.0
 20
0.0
 30
0.0
  3
*D14
  1

  0
LINE
  5
F1
100
AcDbEntity
  8
0
370
              -2
390
0
  6
Continuous
 62
               0
100
AcDbLine
 10
273.76468386701163
 20
-416.53403230824915
 30
0.0
 11
193.85234092639621
 21
-416.53403230824915
 31
0.0
  0
LINE
  5
F2
100
AcDbEntity
  8
0
370
              -2
390
0
  6
Continuous
 62
               0
100
AcDbLine
 10
288.86372683576155
 20
-476.57245027698809
 30
0.0
 11
193.85234092639621
 21
-476.57245027698809
 31
0.0
  0
LINE
  5
F3
100
AcDbEntity
  8
0
370
              -2
390
0
  6
Continuous
 62
               0
100
AcDbLine
 10
193.85234092639621
 20
-416.53403230824915
 30
0.0
 11
193.85234092639621
 21
-476.57245027698809
 31
0.0
  0
CIRCLE
  5
F4
102
{ACAD_REACTORS
330
F5
102
}
100
AcDbEntity
  8
0
370
              -2
390
0
  6
Continuous
 62
               0
100
AcDbCircle
 10
193.85234092639621
 20
-416.53403230824915
 30
0.0
 40
1.9998779296875
  0
HATCH
  5
F5
100
AcDbEntity
  8
0
370
              -2
390
0
  6
Continuous
 62
               0
100
AcDbHatch
 10
0.0
 20
0.0
 30
0.0
210
0.0
220
0.0
230
1.0
  2
SOLID
 70
               1
 71
               1
 91
        1
 92
        1
 93
        1
 72
               2
 10
193.85234092639621
 20
-416.53403230824915
 40
1.9998779296875
 50
0.0
 51
360.0
 73
               0
 97
        1
330
F4
 75
               0
 76
               1
 98
        1
 10
0.0
 20
0.0
  0
CIRCLE
  5
F6
102
{ACAD_REACTORS
330
F7
102
}
100
AcDbEntity
  8
0
370
              -2
390
0
  6
Continuous
 62
               0
100
AcDbCircle
 10
193.85234092639621
 20
-476.57245027698809
 30
0.0
 40
1.9998779296875
  0
HATCH
  5
F7
100
AcDbEntity
  8
0
370
              -2
390
0
  6
Continuous
 62
               0
100
AcDbHatch
 10
0.0
 20
0.0
 30
0.0
210
0.0
220
0.0
230
1.0
  2
SOLID
 70
               1
 71
               1
 91
        1
 92
        1
 93
        1
 72
               2
 10
193.85234092639621
 20
-476.57245027698809
 40
1.9998779296875
 50
0.0
 51
360.0
 73
               0
 97
        1
330
F6
 75
               0
 76
               1
 98
        1
 10
0.0
 20
0.0
  0
MTEXT
  5
F8
100
AcDbEntity
  8
0
390
0
 62
               0
100
AcDbMText
 10
159.9747237388965
 20
-462.4282412926259
 30
0.0
 40
24.432617187500004
 41
0.0
 71
               1
 72
               1
  1
60
  7
ＭＳ ゴシック
 11
0.0
 21
1.0
 31
0.0
 73
               1
 44
0.7828267384257843
  0
POINT
  5
F9
100
AcDbEntity
  8
Defpoints
370
               0
390
0
 62
               0
100
AcDbPoint
 10
313.86372683576155
 20
-476.57245027698809
 30
0.0
  0
POINT
  5
FA
100
AcDbEntity
  8
Defpoints
370
               0
390
0
 62
               0
100
AcDbPoint
 10
298.76468386701163
 20
-416.53403230824915
 30
0.0
  0
POINT
  5
FB
100
AcDbEntity
  8
Defpoints
370
               0
390
0
 62
               0
100
AcDbPoint
 10
193.85234092639621
 20
-416.53403230824915
 30
0.0
  0
ENDBLK
  5
FC
100
AcDbEntity
  8
notes
390
0
100
AcDbBlockEnd
  0
BLOCK
  5
FD
100
AcDbEntity
  8
notes
390
0
100
AcDbBlockBegin
  2
*D15
 70
               1
 10
0.0
 20
0.0
 30
0.0
  3
*D15
  1

  0
LINE
  5
FE
100
AcDbEntity
  8
0
370
              -2
390
0
  6
Continuous
 62
               0
100
AcDbLine
 10
288.86372683575973
 20
-476.57245027698809
 30
0.0
 11
193.85234092639621
 21
-476.57245027698809
 31
0.0
  0
LINE
  5
FF
100
AcDbEntity
  8
0
370
              -2
390
0
  6
Continuous
 62
               0
100
AcDbLine
 10
507.30976199200995
 20
-611.57945415157883
 30
0.0
 11
193.85234092639621
 21
-611.57945415157883
 31
0.0
  0
LINE
  5
100
100
AcDbEntity
  8
0
370
              -2
390
0
  6
Continuous
 62
               0
100
AcDbLine
 10
193.85234092639621
 20
-476.57245027698809
 30
0.0
 11
193.85234092639621
 21
-611.57945415157883
 31
0.0
  0
CIRCLE
  5
101
102
{ACAD_REACTORS
330
102
102
}
100
AcDbEntity
  8
0
370
              -2
390
0
  6
Continuous
 62
               0
100
AcDbCircle
 10
193.85234092639621
 20
-476.57245027698809
 30
0.0
 40
1.9998779296875
  0
HATCH
  5
102
100
AcDbEntity
  8
0
370
              -2
390
0
  6
Continuous
 62
               0
100
AcDbHatch
 10
0.0
 20
0.0
 30
0.0
210
0.0
220
0.0
230
1.0
  2
SOLID
 70
               1
 71
               1
 91
        1
 92
        1
 93
        1
 72
               2
 10
193.85234092639621
 20
-476.57245027698809
 40
1.9998779296875
 50
0.0
 51
360.0
 73
               0
 97
        1
330
101
 75
               0
 76
               1
 98
        1
 10
0.0
 20
0.0
  0
CIRCLE
  5
103
102
{ACAD_REACTORS
330
104
102
}
100
AcDbEntity
  8
0
370
              -2
390
0
  6
Continuous
 62
               0
100
AcDbCircle
 10
193.85234092639621
 20
-611.57945415157883
 30
0.0
 40
1.9998779296875
  0
HATCH
  5
104
100
AcDbEntity
  8
0
370
              -2
390
0
  6
Continuous
 62
               0
100
AcDbHatch
 10
0.0
 20
0.0
 30
0.0
210
0.0
220
0.0
230
1.0
  2
SOLID
 70
               1
 71
               1
 91
        1
 92
        1
 93
        1
 72
               2
 10
193.85234092639621
 20
-611.57945415157883
 40
1.9998779296875
 50
0.0
 51
360.0
 73
               0
 97
        1
330
103
 75
               0
 76
               1
 98
        1
 10
0.0
 20
0.0
  0
MTEXT
  5
105
100
AcDbEntity
  8
0
390
0
 62
               0
100
AcDbMText
 10
159.9747237388965
 20
-567.88845389644848
 30
0.0
 40
24.432617187500004
 41
0.0
 71
               1
 72
               1
  1
135
  7
ＭＳ ゴシック
 11
0.0
 21
1.0
 31
0.0
 73
               1
 44
0.7828267384257843
  0
POINT
  5
106
100
AcDbEntity
  8
Defpoints
370
               0
390
0
 62
               0
100
AcDbPoint
 10
532.30976199200995
 20
-611.57945415157883
 30
0.0
  0
POINT
  5
107
100
AcDbEntity
  8
Defpoints
370
               0
390
0
 62
               0
100
AcDbPoint
 10
313.86372683575973
 20
-476.57245027698809
 30
0.0
  0
POINT
  5
108
100
AcDbEntity
  8
Defpoints
370
               0
390
0
 62
               0
100
AcDbPoint
 10
193.85234092639621
 20
-476.57245027698809
 30
0.0
  0
ENDBLK
  5
109
100
AcDbEntity
  8
notes
390
0
100
AcDbBlockEnd
  0
BLOCK
  5
10A
100
AcDbEntity
  8
notes
390
0
100
AcDbBlockBegin
  2
*D16
 70
               1
 10
0.0
 20
0.0
 30
0.0
  3
*D16
  1

  0
LINE
  5
10B
100
AcDbEntity
  8
0
370
              -2
390
0
  6
Continuous
 62
               0
100
AcDbLine
 10
568.79621707013393
 20
-636.57958110469917
 30
0.0
 11
568.79621707013393
 21
-711.57958110469917
 31
0.0
  0
LINE
  5
10C
100
AcDbEntity
  8
0
370
              -2
390
0
  6
Continuous
 62
               0
100
AcDbLine
 10
773.79621707013393
 20
-446.80252474722511
 30
0.0
 11
773.79621707013393
 21
-711.57958110469917
 31
0.0
  0
LINE
  5
10D
100
AcDbEntity
  8
0
370
              -2
390
0
  6
Continuous
 62
               0
100
AcDbLine
 10
568.79621707013393
 20
-711.57958110469917
 30
0.0
 11
773.79621707013393
 21
-711.57958110469917
 31
0.0
  0
CIRCLE
  5
10E
102
{ACAD_REACTORS
330
10F
102
}
100
AcDbEntity
  8
0
370
              -2
390
0
  6
Continuous
 62
               0
100
AcDbCircle
 10
568.79621707013393
 20
-711.57958110469917
 30
0.0
 40
1.9998779296875
  0
HATCH
  5
10F
100
AcDbEntity
  8
0
370
              -2
390
0
  6
Continuous
 62
               0
100
AcDbHatch
 10
0.0
 20
0.0
 30
0.0
210
0.0
220
0.0
230
1.0
  2
SOLID
 70
               1
 71
               1
 91
        1
 92
        1
 93
        1
 72
               2
 10
568.79621707013393
 20
-711.57958110469917
 40
1.9998779296875
 50
0.0
 51
360.0
 73
               0
 97
        1
330
10E
 75
               0
 76
               1
 98
        1
 10
0.0
 20
0.0
  0
CIRCLE
  5
110
102
{ACAD_REACTORS
330
111
102
}
100
AcDbEntity
  8
0
370
              -2
390
0
  6
Continuous
 62
               0
100
AcDbCircle
 10
773.79621707013393
 20
-711.57958110469917
 30
0.0
 40
1.9998779296875
  0
HATCH
  5
111
100
AcDbEntity
  8
0
370
              -2
390
0
  6
Continuous
 62
               0
100
AcDbHatch
 10
0.0
 20
0.0
 30
0.0
210
0.0
220
0.0
230
1.0
  2
SOLID
 70
               1
 71
               1
 91
        1
 92
        1
 93
        1
 72
               2
 10
773.79621707013393
 20
-711.57958110469917
 40
1.9998779296875
 50
0.0
 51
360.0
 73
               0
 97
        1
330
110
 75
               0
 76
               1
 98
        1
 10
0.0
 20
0.0
  0
MTEXT
  5
112
100
AcDbEntity
  8
0
390
0
 62
               0
100
AcDbMText
 10
647.483715387958
 20
-677.70196391719219
 30
0.0
 40
24.432617187500004
 41
0.0
 71
               1
 72
               1
  1
205
  7
ＭＳ ゴシック
 73
               1
 44
0.7828267384257843
  0
POINT
  5
113
100
AcDbEntity
  8
Defpoints
370
               0
390
0
 62
               0
100
AcDbPoint
 10
773.79621707013393
 20
-421.80252474722511
 30
0.0
  0
POINT
  5
114
100
AcDbEntity
  8
Defpoints
370
               0
390
0
 62
               0
100
AcDbPoint
 10
568.79621707013393
 20
-611.57958110469917
 30
0.0
  0
POINT
  5
115
100
AcDbEntity
  8
Defpoints
370
               0
390
0
 62
               0
100
AcDbPoint
 10
568.79621707013393
 20
-711.57958110469917
 30
0.0
  0
ENDBLK
  5
116
100
AcDbEntity
  8
notes
390
0
100
AcDbBlockEnd
  0
BLOCK
  5
117
100
AcDbEntity
  8
notes
390
0
100
AcDbBlockBegin
  2
*D17
 70
               1
 10
0.0
 20
0.0
 30
0.0
  3
*D17
  1

  0
LINE
  5
118
100
AcDbEntity
  8
0
370
              -2
390
0
  6
Continuous
 62
               0
100
AcDbLine
 10
-91.576836880936753
 20
-416.53403230824915
 30
0.0
 11
-11.616445735668094
 21
-416.53403230824915
 31
0.0
  0
LINE
  5
119
100
AcDbEntity
  8
0
370
              -2
390
0
  6
Continuous
 62
               0
100
AcDbLine
 10
-375.19178127063424
 20
-611.57960081187775
 30
0.0
 11
-11.616445735668094
 21
-611.57960081187775
 31
0.0
  0
LINE
  5
11A
100
AcDbEntity
  8
0
370
              -2
390
0
  6
Continuous
 62
               0
100
AcDbLine
 10
-11.616445735668094
 20
-416.53403230824915
 30
0.0
 11
-11.616445735668094
 21
-611.57960081187775
 31
0.0
  0
CIRCLE
  5
11B
102
{ACAD_REACTORS
330
11C
102
}
100
AcDbEntity
  8
0
370
              -2
390
0
  6
Continuous
 62
               0
100
AcDbCircle
 10
-11.616445735668094
 20
-416.53403230824915
 30
0.0
 40
1.9998779296875
  0
HATCH
  5
11C
100
AcDbEntity
  8
0
370
              -2
390
0
  6
Continuous
 62
               0
100
AcDbHatch
 10
0.0
 20
0.0
 30
0.0
210
0.0
220
0.0
230
1.0
  2
SOLID
 70
               1
 71
               1
 91
        1
 92
        1
 93
        1
 72
               2
 10
-11.616445735668094
 20
-416.53403230824915
 40
1.9998779296875
 50
0.0
 51
360.0
 73
               0
 97
        1
330
11B
 75
               0
 76
               1
 98
        1
 10
0.0
 20
0.0
  0
CIRCLE
  5
11D
102
{ACAD_REACTORS
330
11E
102
}
100
AcDbEntity
  8
0
370
              -2
390
0
  6
Continuous
 62
               0
100
AcDbCircle
 10
-11.616445735668094
 20
-611.57960081187775
 30
0.0
 40
1.9998779296875
  0
HATCH
  5
11E
100
AcDbEntity
  8
0
370
              -2
390
0
  6
Continuous
 62
               0
100
AcDbHatch
 10
0.0
 20
0.0
 30
0.0
210
0.0
220
0.0
230
1.0
  2
SOLID
 70
               1
 71
               1
 91
        1
 92
        1
 93
        1
 72
               2
 10
-11.616445735668094
 20
-611.57960081187775
 40
1.9998779296875
 50
0.0
 51
360.0
 73
               0
 97
        1
330
11D
 75
               0
 76
               1
 98
        1
 10
0.0
 20
0.0
  0
MTEXT
  5
11F
100
AcDbEntity
  8
0
390
0
 62
               0
100
AcDbMText
 10
-45.494062923167803
 20
-537.86931824224303
 30
0.0
 40
24.432617187500004
 41
0.0
 71
               1
 72
               1
  1
195
  7
ＭＳ ゴシック
 11
0.0
 21
1.0
 31
0.0
 73
               1
 44
0.7828267384257843
  0
POINT
  5
120
100
AcDbEntity
  8
Defpoints
370
               0
390
0
 62
               0
100
AcDbPoint
 10
-400.19178127063424
 20
-611.57960081187775
 30
0.0
  0
POINT
  5
121
100
AcDbEntity
  8
Defpoints
370
               0
390
0
 62
               0
100
AcDbPoint
 10
-116.57683688093675
 20
-416.53403230824915
 30
0.0
  0
POINT
  5
122
100
AcDbEntity
  8
Defpoints
370
               0
390
0
 62
               0
100
AcDbPoint
 10
-11.616445735668094
 20
-416.53403230824915
 30
0.0
  0
ENDBLK
  5
123
100
AcDbEntity
  8
notes
390
0
100
AcDbBlockEnd
  0
BLOCK
  5
124
100
AcDbEntity
  8
template
390
0
100
AcDbBlockBegin
  2
グループ
 70
               0
 10
0.0
 20
0.0
 30
0.0
  3
グループ
  1

  0
LWPOLYLINE
  5
125
100
AcDbEntity
  8
0
370
              15
390
0
  6
Continuous
 62
               7
100
AcDbPolyline
 90
        8
 70
             129
 10
15326.126132932613
 20
80203.4554792243
 10
15326.126132932613
 20
80197.458090530723
 10
15316.62493601461
 20
80197.458090530723
 10
15316.62493601461
 20
80173.007127267207
 10
15308.269558752827
 20
80173.007127267207
 10
15308.269558752827
 20
80197.458090530723
 10
15298.936601806518
 20
80197.458090530723
 10
15298.936601806518
 20
80203.4554792243
  0
LWPOLYLINE
  5
126
100
AcDbEntity
  8
0
370
              15
390
0
  6
Continuous
 62
               7
100
AcDbPolyline
 90
      101
 70
             128
 10
15338.854424763171
 20
80202.727230731354
 10
15338.869774791789
 20
80202.731591487987
 42
-0.0222221607857646
 10
15339.159779368627
 20
80202.800215953292
 10
15339.175573132665
 20
80202.803219376394
 42
-0.0146883565473964
 10
15339.438275837845
 20
80202.845222563337
 42
-0.0127458843795508
 10
15339.702914805284
 20
80202.872759531427
 10
15339.765369883309
 20
80202.87765295399
 42
-0.0198099018669875
 10
15340.156218992603
 20
80202.89273811139
 10
15340.20803046223
 20
80202.892684335733
 42
-0.0147617382810731
 10
15340.702653923187
 20
80202.877564310475
 10
15340.77534537821
 20
80202.873191703577
 42
-0.0162624549169961
 10
15341.165499007544
 20
80202.836958828324
 10
15341.287031398999
 20
80202.821672269303
 42
-0.0080020874358875
 10
15341.432610429896
 20
80202.80098942206
 10
15341.470929899493
 20
80202.794918144413
 42
-0.0053821930863478
 10
15341.539414005805
 20
80202.78331062042
 10
15340.813008306606
 20
80200.60238216471
 42
0.0108667756614264
 10
15340.745691236887
 20
80200.615569279849
 10
15340.708223213285
 20
80200.622067022516
 42
0.0170663203435328
 10
15340.565006426348
 20
80200.641896619825
 10
15340.497131093687
 20
80200.648943790409
 42
0.0220162375023828
 10
15340.21675168595
 20
80200.665626151167
 10
15340.138896118797
 20
80200.666825518434
 42
0.0282606915852251
 10
15339.803259795201
 20
80200.653022241459
 10
15339.759346521432
 20
80200.648722251455
 42
0.0169677213823337
 10
15339.51342202647
 20
80200.616185201914
 42
0.01905762698661
 10
15339.270514064066
 20
80200.566038329853
 10
15339.264254875779
 20
80200.564495355706
 42
0.0213685642730062
 10
15339.013870391262
 20
80200.491295070577
 10
15339.008380496387
 20
80200.489432074537
 42
0.0237595297896261
 10
15338.754885611323
 20
80200.389747552574
 10
15338.749783537458
 20
80200.387455777163
 42
0.0261857468784747
 10
15338.497612761334
 20
80200.257919439842
 10
15338.487186572011
 20
80200.251853965237
 42
0.0272553062442744
 10
15338.250756796902
 20
80200.096481759363
 10
15338.215993783386
 20
80200.070820611261
 42
0.0325996893237005
 10
15338.065838439741
 20
80199.944072738319
 10
15338.042129010504
 20
80199.921254709698
 42
0.0138050960405518
 10
15337.950245854408
 20
80199.827805048248
 42
0.0125280103396855
 10
15337.863403321602
 20
80199.729641721671
 10
15337.839722876666
 20
80199.701483223456
 42
0.0205218024441067
 10
15337.714622801195
 20
80199.539689909288
 10
15337.692156460666
 20
80199.508030179393
 42
0.016311012951564
 10
15337.5364460814
 20
80199.27269974431
 10
15337.533722185362
 20
80199.268275982351
 42
0.0131897342130637
 10
15337.386921664443
 20
80199.015143889963
 10
15337.385221569089
 20
80199.012025650853
 42
0.0107895575726031
 10
15337.247444866904
 20
80198.745810441265
 10
15337.246711977354
 20
80198.744316208569
 42
0.0091371507559169
 10
15337.118232028748
 20
80198.469791010895
 10
15337.088486397295
 20
80198.403084503647
 42
0.0135418326206576
 10
15336.916772458197
 20
80197.988146718315
 10
15336.883167649796
 20
80197.900280576112
 42
0.0092834542364723
 10
15336.71193858987
 20
80197.4263820778
 10
15336.686321462174
 20
80197.351141008068
 42
0.0054261043463995
 10
15336.578683313859
 20
80197.02337703493
 10
15336.561157327535
 20
80196.967988872231
 42
0.0008225090807735
 10
15336.492487275851
 20
80196.74972011456
 10
15335.507798143917
 20
80193.724828821301
 10
15338.740421983992
 20
80193.724828821301
 10
15338.236229554139
 20
80191.820350522947
 10
15334.980173272155
 20
80191.820350522947
 10
15329.1510242398
 20
80173.007127456935
 10
15327.32592662949
 20
80173.007127456935
 10
15333.160604664992
 20
80191.820350522947
 10
15330.75548829595
 20
80191.820350522947
 10
15331.259680725805
 20
80193.724828821301
 10
15333.688229536754
 20
80193.724828821301
 10
15334.548384454944
 20
80196.361241822
 42
-0.0005863560938537
 10
15334.585119133462
 20
80196.478068243305
 10
15334.661206966808
 20
80196.719060541684
 42
-0.0087522378872019
 10
15334.86067511028
 20
80197.314336628871
 10
15334.952939385681
 20
80197.574476797337
 42
-0.0077400953801375
 10
15335.210873044809
 20
80198.267481474875
 10
15335.2266380164
 20
80198.307912358287
 42
-0.0082369946295683
 10
15335.473722487
 20
80198.911991424466
 42
-0.0085725238252543
 10
15335.740968583041
 20
80199.507417463843
 10
15335.842598183996
 20
80199.723838565711
 42
-0.0168109410560846
 10
15336.12954261274
 20
80200.285046091842
 10
15336.255386002871
 20
80200.512010124236
 42
-0.0007817727368744
 10
15336.309670353256
 20
80200.609554369876
 10
15336.309798659269
 20
80200.60978407861
 42
-0.0036626141598078
 10
15336.364686523295
 20
80200.706381958575
 42
-0.0080221150324933
 10
15336.42181077856
 20
80200.801661193094
 10
15336.452510730061
 20
80200.851052142447
 42
-0.020213932522612
 10
15336.580166469908
 20
80201.039033743189
 10
15336.634233935056
 20
80201.11211260737
 42
-0.0249323791967008
 10
15336.893396728781
 20
80201.428157849528
 10
15336.917536542904
 20
80201.454772122437
 42
-0.0242132121609685
 10
15337.257217284465
 20
80201.794655608654
 10
15337.305128857324
 20
80201.838164744942
 42
-0.025101752769698
 10
15337.589110557836
 20
80202.071157490602
 10
15337.590556034564
 20
80202.072226748118
 42
-0.0130868069094149
 10
15337.888816684608
 20
80202.281007216719
 10
15337.890378503846
 20
80202.282040657054
 42
-0.02903295264119
 10
15338.201489645144
 20
80202.462866158618
 10
15338.231335206903
 20
80202.477968541338
 42
-0.0160250190204939
 10
15338.497239620894
 20
80202.601984651672
 42
-0.0267600375072009
 10
15338.772515698296
 20
80202.702732972204
 10
15338.799251617884
 20
80202.71092553105
 42
-0.0049981588817007
 10
15338.854424763171
 20
80202.727230731354
 42
-0.0049981588817007
  0
LWPOLYLINE
  5
127
100
AcDbEntity
  8
0
370
              15
390
0
  6
Continuous
 62
               7
100
AcDbPolyline
 90
      118
 70
             128
 10
15358.668792327617
 20
80193.650845493466
 10
15360.543914252117
 20
80193.650845493466
 10
15359.705875346517
 20
80190.969278967066
 42
-0.001058723167509
 10
15359.737331161914
 20
80191.006183500227
 10
15359.795525252721
 20
80191.07416575661
 42
-0.0071874740301942
 10
15359.945900470637
 20
80191.24480644842
 10
15360.087623244082
 20
80191.401042589947
 42
-0.0148118053378225
 10
15360.537752536702
 20
80191.86865643588
 10
15360.624974871524
 20
80191.95405375665
 42
-0.0086273358768947
 10
15360.960523672704
 20
80192.271429390821
 10
15361.00435738878
 20
80192.311479035023
 42
-0.0103138323059686
 10
15361.262381091163
 20
80192.537642172509
 10
15361.308155497549
 20
80192.57612421982
 42
-0.0060206748514731
 10
15361.481003561603
 20
80192.717918870505
 10
15361.483034692932
 20
80192.719544576496
 42
-0.0067069027248301
 10
15361.655327507151
 20
80192.853695209938
 10
15361.657876272888
 20
80192.855625379671
 42
-0.0076184352089035
 10
15361.828781538949
 20
80192.981000255066
 42
-0.008965286175624
 10
15362.003742501345
 20
80193.100633515161
 10
15362.040094221722
 20
80193.124544728795
 42
-0.0156916246104929
 10
15362.236053718987
 20
80193.244807215349
 42
-0.0023299011065285
 10
15362.436315763585
 20
80193.357985155235
 10
15362.451699895348
 20
80193.366585149954
 42
-0.0107669341463253
 10
15362.685936720723
 20
80193.490985283439
 10
15362.708201521524
 20
80193.502202033254
 42
-0.0078058045821877
 10
15362.991791639499
 20
80193.639563488905
 10
15363.001698727185
 20
80193.644172616769
 42
-0.0181829330178572
 10
15363.312008131757
 20
80193.775036357853
 10
15363.366063574553
 20
80193.795551477873
 42
-0.0208411535772423
 10
15363.715148541818
 20
80193.9116419403
 10
15363.729504641935
 20
80193.915760385251
 42
-0.0222799817124669
 10
15364.058224435863
 20
80193.994401951379
 10
15364.067113399149
 20
80193.99611396197
 42
-0.0215509523965715
 10
15364.383584367381
 20
80194.043029650507
 10
15364.426066328484
 20
80194.047467177297
 42
-0.0182545925211924
 10
15364.660175107734
 20
80194.063311002683
 10
15364.699576124091
 20
80194.064535547761
 42
-0.0072962856824922
 10
15364.85549900377
 20
80194.067104876289
 10
15364.884598674294
 20
80194.067159711689
 42
-0.005922751673819
 10
15364.982348173487
 20
80194.066185999895
 10
15365.011590394721
 20
80194.065548233208
 42
-0.0011833111543681
 10
15365.050841674692
 20
80194.064599228994
 10
15364.255455079085
 20
80191.525865283897
 42
0.0143932048034872
 10
15364.22905369661
 20
80191.536064253989
 10
15364.221781724318
 20
80191.538635472796
 42
0.0234388602519467
 10
15364.179950858415
 20
80191.551254708495
 10
15364.171269195473
 20
80191.553435670503
 42
0.0199162744413608
 10
15364.110980361198
 20
80191.566052405877
 10
15364.090166423586
 20
80191.569549605279
 42
0.0293643550692788
 10
15363.987091564883
 20
80191.580699650935
 10
15363.962406384107
 20
80191.581911267946
 42
0.0214606687066858
 10
15363.809265468126
 20
80191.582849828366
 10
15363.799893557336
 20
80191.58250491682
 42
0.0167564053691986
 10
15363.628373366515
 20
80191.570427874482
 10
15363.619913573468
 20
80191.569546534025
 42
0.0137677553943027
 10
15363.432560259862
 20
80191.544797225419
 10
15363.425208520697
 20
80191.543619305507
 42
0.0118497261515826
 10
15363.224710756645
 20
80191.506601955334
 10
15363.218560749348
 20
80191.505315092596
 42
0.0106421143762255
 10
15363.007679862227
 20
80191.456482717083
 10
15363.002771053674
 20
80191.455235374349
 42
0.0099746379781002
 10
15362.784312584472
 20
80191.395060846029
 10
15362.722764544342
 20
80191.376778967402
 42
0.01916136757093
 10
15362.386780081788
 20
80191.262801587101
 10
15362.298720309267
 20
80191.229114676869
 42
0.0205274079930322
 10
15361.913413537179
 20
80191.063286268967
 10
15361.855764255306
 20
80191.03561830445
 42
0.0181256912255981
 10
15361.597487314531
 20
80190.899934485409
 10
15361.544531931318
 20
80190.869616872253
 42
0.0140709242675902
 10
15361.399576996588
 20
80190.781122198765
 10
15361.373328127876
 20
80190.76406537999
 42
0.0086667884300884
 10
15361.284401966426
 20
80190.704062712175
 42
0.0036408192000737
 10
15361.196968727612
 20
80190.641881853808
 10
15361.161741853924
 20
80190.616440908459
 42
0.0052260781025294
 10
15361.005513157106
 20
80190.50110852225
 10
15360.989306300275
 20
80190.488880411198
 42
0.0050024436498866
 10
15360.803302957202
 20
80190.345597842927
 10
15360.7879848007
 20
80190.333551820499
 42
0.0136138710296332
 10
15360.577543532156
 20
80190.158585315396
 10
15360.543875656582
 20
80190.129006342875
 42
0.0172815186696616
 10
15360.279472115028
 20
80189.880009670349
 10
15360.276909769076
 20
80189.87742385309
 42
0.0189403857983406
 10
15360.026327970492
 20
80189.604618588288
 10
15359.993696476909
 20
80189.56627465674
 42
0.0185044199663113
 10
15359.801740037981
 20
80189.323026075668
 42
0.0088565244028626
 10
15359.623279931298
 20
80189.069509655441
 10
15359.614101951705
 20
80189.055968275759
 42
0.0157195347062797
 10
15359.430881345366
 20
80188.766446066453
 10
15359.384798403404
 20
80188.688293869374
 42
0.0095451879770187
 10
15359.219712853301
 20
80188.395699227083
 10
15359.20856493441
 20
80188.37502855502
 42
0.0100351706174933
 10
15359.076521185212
 20
80188.117972994456
 42
0.008693591524071
 10
15358.954190033426
 20
80187.856139849071
 10
15358.950869292004
 20
80187.848697526075
 42
0.0072580174841721
 10
15358.830522839999
 20
80187.568105534359
 10
15358.827261206752
 20
80187.560185508482
 42
0.006000512254398
 10
15358.708060538429
 20
80187.260575837921
 10
15358.704849560068
 20
80187.252214309963
 42
0.0049017787089183
 10
15358.585949401149
 20
80186.933285329185
 10
15358.58278359482
 20
80186.92453239212
 42
0.0039415167476666
 10
15358.463347316712
 20
80186.585990329564
 10
15358.460216214113
 20
80186.576887128846
 42
0.00310358388182
 10
15358.339411428418
 20
80186.218447267063
 10
15358.336301383888
 20
80186.209026645694
 42
0.0025070747232531
 10
15358.213400032577
 20
80185.830379428764
 10
15358.176106136147
 20
80185.713487763496
 42
0.0029081910191349
 10
15357.984087838298
 20
80185.099324105075
 10
15357.943284669818
 20
80184.966100862919
 42
0.00092664536466
 10
15357.674867295462
 20
80184.083876402859
 10
15357.653979823001
 20
80184.014764524225
 42
-0.0005809993632867
 10
15357.376643142274
 20
80183.100956417125
 10
15357.310361343911
 20
80182.883471484674
 42
-0.0012018708131717
 10
15357.163377034571
 20
80182.405308820453
 10
15357.111057182574
 20
80182.236549678186
 42
-0.0002691059790756
 10
15357.067487701837
 20
80182.096282059239
 10
15354.234531803548
 20
80173.007127456935
 10
15352.416542911569
 20
80173.007127456935
 10
15358.668792327617
 20
80193.650845493466
  0
SPLINE
  5
128
100
AcDbEntity
  8
0
370
              15
390
0
  6
Continuous
 62
               7
100
AcDbSpline
210
0.0
220
0.0
230
1.0
 70
              13
 71
               2
 72
             782
 73
             779
 74
               0
 42
0.000001
 43
0.000001
 40
0.0
 40
0.0
 40
0.0
 40
1.0
 40
1.0
 40
2.0
 40
2.0
 40
3.0
 40
3.0
 40
4.0
 40
4.0
 40
5.0
 40
5.0
 40
6.0
 40
6.0
 40
7.0
 40
7.0
 40
8.0
 40
8.0
 40
9.0
 40
9.0
 40
10.0
 40
10.0
 40
11.0
 40
11.0
 40
12.0
 40
12.0
 40
13.0
 40
13.0
 40
14.0
 40
14.0
 40
15.0
 40
15.0
 40
16.0
 40
16.0
 40
17.0
 40
17.0
 40
18.0
 40
18.0
 40
19.0
 40
19.0
 40
20.0
 40
20.0
 40
21.0
 40
21.0
 40
22.0
 40
22.0
 40
23.0
 40
23.0
 40
24.0
 40
24.0
 40
25.0
 40
25.0
 40
26.0
 40
26.0
 40
27.0
 40
27.0
 40
28.0
 40
28.0
 40
29.0
 40
29.0
 40
30.0
 40
30.0
 40
31.0
 40
31.0
 40
32.0
 40
32.0
 40
33.0
 40
33.0
 40
34.0
 40
34.0
 40
35.0
 40
35.0
 40
36.0
 40
36.0
 40
37.0
 40
37.0
 40
38.0
 40
38.0
 40
39.0
 40
39.0
 40
40.0
 40
40.0
 40
41.0
 40
41.0
 40
42.0
 40
42.0
 40
43.0
 40
43.0
 40
44.0
 40
44.0
 40
45.0
 40
45.0
 40
46.0
 40
46.0
 40
47.0
 40
47.0
 40
48.0
 40
48.0
 40
49.0
 40
49.0
 40
50.0
 40
50.0
 40
51.0
 40
51.0
 40
52.0
 40
52.0
 40
53.0
 40
53.0
 40
54.0
 40
54.0
 40
55.0
 40
55.0
 40
56.0
 40
56.0
 40
57.0
 40
57.0
 40
58.0
 40
58.0
 40
59.0
 40
59.0
 40
60.0
 40
60.0
 40
61.0
 40
61.0
 40
62.0
 40
62.0
 40
63.0
 40
63.0
 40
64.0
 40
64.0
 40
65.0
 40
65.0
 40
66.0
 40
66.0
 40
67.0
 40
67.0
 40
68.0
 40
68.0
 40
69.0
 40
69.0
 40
70.0
 40
70.0
 40
71.0
 40
71.0
 40
72.0
 40
72.0
 40
73.0
 40
73.0
 40
74.0
 40
74.0
 40
75.0
 40
75.0
 40
76.0
 40
76.0
 40
77.0
 40
77.0
 40
78.0
 40
78.0
 40
79.0
 40
79.0
 40
80.0
 40
80.0
 40
81.0
 40
81.0
 40
82.0
 40
82.0
 40
83.0
 40
83.0
 40
84.0
 40
84.0
 40
85.0
 40
85.0
 40
86.0
 40
86.0
 40
87.0
 40
87.0
 40
88.0
 40
88.0
 40
89.0
 40
89.0
 40
90.0
 40
90.0
 40
91.0
 40
91.0
 40
92.0
 40
92.0
 40
93.0
 40
93.0
 40
94.0
 40
94.0
 40
95.0
 40
95.0
 40
96.0
 40
96.0
 40
97.0
 40
97.0
 40
98.0
 40
98.0
 40
99.0
 40
99.0
 40
100.0
 40
100.0
 40
101.0
 40
101.0
 40
102.0
 40
102.0
 40
103.0
 40
103.0
 40
104.0
 40
104.0
 40
105.0
 40
105.0
 40
106.0
 40
106.0
 40
107.0
 40
107.0
 40
108.0
 40
108.0
 40
109.0
 40
109.0
 40
110.0
 40
110.0
 40
111.0
 40
111.0
 40
112.0
 40
112.0
 40
113.0
 40
113.0
 40
114.0
 40
114.0
 40
115.0
 40
115.0
 40
116.0
 40
116.0
 40
117.0
 40
117.0
 40
118.0
 40
118.0
 40
119.0
 40
119.0
 40
120.0
 40
120.0
 40
121.0
 40
121.0
 40
122.0
 40
122.0
 40
123.0
 40
123.0
 40
124.0
 40
124.0
 40
125.0
 40
125.0
 40
126.0
 40
126.0
 40
127.0
 40
127.0
 40
128.0
 40
128.0
 40
129.0
 40
129.0
 40
130.0
 40
130.0
 40
131.0
 40
131.0
 40
132.0
 40
132.0
 40
133.0
 40
133.0
 40
134.0
 40
134.0
 40
135.0
 40
135.0
 40
136.0
 40
136.0
 40
137.0
 40
137.0
 40
138.0
 40
138.0
 40
139.0
 40
139.0
 40
140.0
 40
140.0
 40
141.0
 40
141.0
 40
142.0
 40
142.0
 40
143.0
 40
143.0
 40
144.0
 40
144.0
 40
145.0
 40
145.0
 40
146.0
 40
146.0
 40
147.0
 40
147.0
 40
148.0
 40
148.0
 40
149.0
 40
149.0
 40
150.0
 40
150.0
 40
151.0
 40
151.0
 40
152.0
 40
152.0
 40
153.0
 40
153.0
 40
154.0
 40
154.0
 40
155.0
 40
155.0
 40
156.0
 40
156.0
 40
157.0
 40
157.0
 40
158.0
 40
158.0
 40
159.0
 40
159.0
 40
160.0
 40
160.0
 40
161.0
 40
161.0
 40
162.0
 40
162.0
 40
163.0
 40
163.0
 40
164.0
 40
164.0
 40
165.0
 40
165.0
 40
166.0
 40
166.0
 40
167.0
 40
167.0
 40
168.0
 40
168.0
 40
169.0
 40
169.0
 40
170.0
 40
170.0
 40
171.0
 40
171.0
 40
172.0
 40
172.0
 40
173.0
 40
173.0
 40
174.0
 40
174.0
 40
175.0
 40
175.0
 40
176.0
 40
176.0
 40
177.0
 40
177.0
 40
178.0
 40
178.0
 40
179.0
 40
179.0
 40
180.0
 40
180.0
 40
181.0
 40
181.0
 40
182.0
 40
182.0
 40
183.0
 40
183.0
 40
184.0
 40
184.0
 40
185.0
 40
185.0
 40
186.0
 40
186.0
 40
187.0
 40
187.0
 40
188.0
 40
188.0
 40
189.0
 40
189.0
 40
190.0
 40
190.0
 40
191.0
 40
191.0
 40
192.0
 40
192.0
 40
193.0
 40
193.0
 40
194.0
 40
194.0
 40
195.0
 40
195.0
 40
196.0
 40
196.0
 40
197.0
 40
197.0
 40
198.0
 40
198.0
 40
199.0
 40
199.0
 40
200.0
 40
200.0
 40
201.0
 40
201.0
 40
202.0
 40
202.0
 40
203.0
 40
203.0
 40
204.0
 40
204.0
 40
205.0
 40
205.0
 40
206.0
 40
206.0
 40
207.0
 40
207.0
 40
208.0
 40
208.0
 40
209.0
 40
209.0
 40
210.0
 40
210.0
 40
211.0
 40
211.0
 40
212.0
 40
212.0
 40
213.0
 40
213.0
 40
214.0
 40
214.0
 40
215.0
 40
215.0
 40
216.0
 40
216.0
 40
217.0
 40
217.0
 40
218.0
 40
218.0
 40
219.0
 40
219.0
 40
220.0
 40
220.0
 40
221.0
 40
221.0
 40
222.0
 40
222.0
 40
223.0
 40
223.0
 40
224.0
 40
224.0
 40
225.0
 40
225.0
 40
226.0
 40
226.0
 40
227.0
 40
227.0
 40
228.0
 40
228.0
 40
229.0
 40
229.0
 40
230.0
 40
230.0
 40
231.0
 40
231.0
 40
232.0
 40
232.0
 40
233.0
 40
233.0
 40
234.0
 40
234.0
 40
235.0
 40
235.0
 40
236.0
 40
236.0
 40
237.0
 40
237.0
 40
238.0
 40
238.0
 40
239.0
 40
239.0
 40
240.0
 40
240.0
 40
241.0
 40
241.0
 40
242.0
 40
242.0
 40
243.0
 40
243.0
 40
244.0
 40
244.0
 40
245.0
 40
245.0
 40
246.0
 40
246.0
 40
247.0
 40
247.0
 40
248.0
 40
248.0
 40
249.0
 40
249.0
 40
250.0
 40
250.0
 40
251.0
 40
251.0
 40
252.0
 40
252.0
 40
253.0
 40
253.0
 40
254.0
 40
254.0
 40
255.0
 40
255.0
 40
256.0
 40
256.0
 40
257.0
 40
257.0
 40
258.0
 40
258.0
 40
259.0
 40
259.0
 40
260.0
 40
260.0
 40
261.0
 40
261.0
 40
262.0
 40
262.0
 40
263.0
 40
263.0
 40
264.0
 40
264.0
 40
265.0
 40
265.0
 40
266.0
 40
266.0
 40
267.0
 40
267.0
 40
268.0
 40
268.0
 40
269.0
 40
269.0
 40
270.0
 40
270.0
 40
271.0
 40
271.0
 40
272.0
 40
272.0
 40
273.0
 40
273.0
 40
274.0
 40
274.0
 40
275.0
 40
275.0
 40
276.0
 40
276.0
 40
277.0
 40
277.0
 40
278.0
 40
278.0
 40
279.0
 40
279.0
 40
280.0
 40
280.0
 40
281.0
 40
281.0
 40
282.0
 40
282.0
 40
283.0
 40
283.0
 40
284.0
 40
284.0
 40
285.0
 40
285.0
 40
286.0
 40
286.0
 40
287.0
 40
287.0
 40
288.0
 40
288.0
 40
289.0
 40
289.0
 40
290.0
 40
290.0
 40
291.0
 40
291.0
 40
292.0
 40
292.0
 40
293.0
 40
293.0
 40
294.0
 40
294.0
 40
295.0
 40
295.0
 40
296.0
 40
296.0
 40
297.0
 40
297.0
 40
298.0
 40
298.0
 40
299.0
 40
299.0
 40
300.0
 40
300.0
 40
301.0
 40
301.0
 40
302.0
 40
302.0
 40
303.0
 40
303.0
 40
304.0
 40
304.0
 40
305.0
 40
305.0
 40
306.0
 40
306.0
 40
307.0
 40
307.0
 40
308.0
 40
308.0
 40
309.0
 40
309.0
 40
310.0
 40
310.0
 40
311.0
 40
311.0
 40
312.0
 40
312.0
 40
313.0
 40
313.0
 40
314.0
 40
314.0
 40
315.0
 40
315.0
 40
316.0
 40
316.0
 40
317.0
 40
317.0
 40
318.0
 40
318.0
 40
319.0
 40
319.0
 40
320.0
 40
320.0
 40
321.0
 40
321.0
 40
322.0
 40
322.0
 40
323.0
 40
323.0
 40
324.0
 40
324.0
 40
325.0
 40
325.0
 40
326.0
 40
326.0
 40
327.0
 40
327.0
 40
328.0
 40
328.0
 40
329.0
 40
329.0
 40
330.0
 40
330.0
 40
331.0
 40
331.0
 40
332.0
 40
332.0
 40
333.0
 40
333.0
 40
334.0
 40
334.0
 40
335.0
 40
335.0
 40
336.0
 40
336.0
 40
337.0
 40
337.0
 40
338.0
 40
338.0
 40
339.0
 40
339.0
 40
340.0
 40
340.0
 40
341.0
 40
341.0
 40
342.0
 40
342.0
 40
343.0
 40
343.0
 40
344.0
 40
344.0
 40
345.0
 40
345.0
 40
346.0
 40
346.0
 40
347.0
 40
347.0
 40
348.0
 40
348.0
 40
349.0
 40
349.0
 40
350.0
 40
350.0
 40
351.0
 40
351.0
 40
352.0
 40
352.0
 40
353.0
 40
353.0
 40
354.0
 40
354.0
 40
355.0
 40
355.0
 40
356.0
 40
356.0
 40
357.0
 40
357.0
 40
358.0
 40
358.0
 40
359.0
 40
359.0
 40
360.0
 40
360.0
 40
361.0
 40
361.0
 40
362.0
 40
362.0
 40
363.0
 40
363.0
 40
364.0
 40
364.0
 40
365.0
 40
365.0
 40
366.0
 40
366.0
 40
367.0
 40
367.0
 40
368.0
 40
368.0
 40
369.0
 40
369.0
 40
370.0
 40
370.0
 40
371.0
 40
371.0
 40
372.0
 40
372.0
 40
373.0
 40
373.0
 40
374.0
 40
374.0
 40
375.0
 40
375.0
 40
376.0
 40
376.0
 40
377.0
 40
377.0
 40
378.0
 40
378.0
 40
379.0
 40
379.0
 40
380.0
 40
380.0
 40
381.0
 40
381.0
 40
382.0
 40
382.0
 40
383.0
 40
383.0
 40
384.0
 40
384.0
 40
385.0
 40
385.0
 40
386.0
 40
386.0
 40
387.0
 40
387.0
 40
388.0
 40
388.0
 40
389.0
 40
389.0
 40
389.0
 10
15368.997496778349
 20
80193.66177185683
 30
0.0
 41
1.0
 10
15369.815920887071
 20
80193.66177185683
 30
0.0
 41
1.0
 10
15370.634344995791
 20
80193.66177185683
 30
0.0
 41
1.0
 10
15370.220591260273
 20
80192.319145592584
 30
0.0
 41
1.0
 10
15369.806837524757
 20
80190.976519328338
 30
0.0
 41
1.0
 10
15369.825177019473
 20
80191.00522010056
 30
0.0
 41
0.9999957264394873
 10
15369.843684016414
 20
80191.033813150862
 30
0.0
 41
1.0
 10
15369.874113340722
 20
80191.080826029502
 30
0.0
 41
1.0
 10
15369.90454266503
 20
80191.127838908142
 30
0.0
 41
1.0
 10
15369.983908310065
 20
80191.250457714967
 30
0.0
 41
0.9995394069063159
 10
15370.070566701654
 20
80191.368035776744
 30
0.0
 41
1.0
 10
15370.106323563919
 20
80191.416550669353
 30
0.0
 41
1.0
 10
15370.142080426183
 20
80191.465065561948
 30
0.0
 41
1.0
 10
15370.275807094042
 20
80191.646505837125
 30
0.0
 41
0.9994460617146013
 10
15370.421307575314
 20
80191.818648234766
 30
0.0
 41
1.0
 10
15370.425695756265
 20
80191.823839915131
 30
0.0
 41
1.0
 10
15370.430083937217
 20
80191.82903159548
 30
0.0
 41
1.0
 10
15370.566808056608
 20
80191.990790632408
 30
0.0
 41
0.9994359394941642
 10
15370.714082286953
 20
80192.143006833561
 30
0.0
 41
1.0
 10
15370.716465640933
 20
80192.14547016396
 30
0.0
 41
1.0
 10
15370.718848994913
 20
80192.147933494358
 30
0.0
 41
1.0
 10
15370.861356517351
 20
80192.295223034773
 30
0.0
 41
0.9995293688572392
 10
15371.012628198288
 20
80192.4334962469
 30
0.0
 41
1.0
 10
15371.031921957452
 20
80192.451132132468
 30
0.0
 41
1.0
 10
15371.051215716616
 20
80192.468768018021
 30
0.0
 41
1.0
 10
15371.163899879251
 20
80192.571769459042
 30
0.0
 41
0.9997087614804939
 10
15371.281422768225
 20
80192.669213739864
 30
0.0
 41
1.0
 10
15371.300588841488
 20
80192.685105318436
 30
0.0
 41
1.0
 10
15371.319754914754
 20
80192.700996897023
 30
0.0
 41
1.0
 10
15371.398945657316
 20
80192.766658020773
 30
0.0
 41
0.9999595338694041
 10
15371.479304928034
 20
80192.830883751303
 30
0.0
 41
1.0
 10
15371.559664199007
 20
80192.895109482066
 30
0.0
 41
0.9999749417497973
 10
15371.640924733223
 20
80192.958191035912
 30
0.0
 41
1.0
 10
15371.661910879115
 20
80192.974482322999
 30
0.0
 41
1.0
 10
15371.682897025006
 20
80192.990773610087
 30
0.0
 41
1.0
 10
15371.767464910381
 20
80193.056422619993
 30
0.0
 41
0.9999792037133838
 10
15371.852872510635
 20
80193.120975402009
 30
0.0
 41
1.0
 10
15371.873697336603
 20
80193.136715224304
 30
0.0
 41
1.0
 10
15371.894522162573
 20
80193.152455046613
 30
0.0
 41
1.0
 10
15371.938280109696
 20
80193.185528183109
 30
0.0
 41
0.9999993373748414
 10
15371.981961796548
 20
80193.218701979073
 30
0.0
 41
1.0
 10
15372.02564348273
 20
80193.251875774527
 30
0.0
 41
0.9999160953812852
 10
15372.070169893892
 20
80193.283906839904
 30
0.0
 41
1.0
 10
15372.102991781172
 20
80193.307517995388
 30
0.0
 41
1.0
 10
15372.13581366845
 20
80193.331129150873
 30
0.0
 41
1.0
 10
15372.245983854227
 20
80193.410382527247
 30
0.0
 41
0.9980964527257353
 10
15372.365072847726
 20
80193.475470000107
 30
0.0
 41
1.0
 10
15372.402105454557
 20
80193.495709979645
 30
0.0
 41
1.0
 10
15372.439138061389
 20
80193.515949959183
 30
0.0
 41
1.0
 10
15372.618465074753
 20
80193.613960209957
 30
0.0
 41
0.9984572810547794
 10
15372.807553641196
 20
80193.691482471331
 30
0.0
 41
1.0
 10
15372.811199910508
 20
80193.692977363637
 30
0.0
 41
1.0
 10
15372.814846179819
 20
80193.694472255942
 30
0.0
 41
1.0
 10
15372.996642207469
 20
80193.769004732647
 30
0.0
 41
0.9987838528043536
 10
15373.184894866115
 20
80193.82527037285
 30
0.0
 41
1.0
 10
15373.189132815312
 20
80193.826537026529
 30
0.0
 41
1.0
 10
15373.193370764509
 20
80193.827803680222
 30
0.0
 41
1.0
 10
15373.373147524679
 20
80193.88153601301
 30
0.0
 41
0.9990652816201877
 10
15373.556893456391
 20
80193.91953969255
 30
0.0
 41
1.0
 10
15373.56208185749
 20
80193.920612795671
 30
0.0
 41
1.0
 10
15373.567270258591
 20
80193.921685898793
 30
0.0
 41
1.0
 10
15373.740639388176
 20
80193.957543372104
 30
0.0
 41
0.9992909934289203
 10
15373.916215154564
 20
80193.980253804562
 30
0.0
 41
1.0
 10
15374.091790921168
 20
80194.002964237035
 30
0.0
 41
0.9994553539467032
 10
15374.268482354399
 20
80194.014043541247
 30
0.0
 41
1.0
 10
15374.303916762074
 20
80194.016265429294
 30
0.0
 41
1.0
 10
15374.33935116975
 20
80194.018487317328
 30
0.0
 41
1.0
 10
15374.505576936299
 20
80194.02891037974
 30
0.0
 41
0.9990928098297194
 10
15374.67208672818
 20
80194.025150738511
 30
0.0
 41
1.0
 10
15374.710648563258
 20
80194.024280046986
 30
0.0
 41
1.0
 10
15374.749210398337
 20
80194.023409355446
 30
0.0
 41
1.0
 10
15374.838596519883
 20
80194.021391097282
 30
0.0
 41
0.9998382089205319
 10
15374.927852202869
 20
80194.016158970742
 30
0.0
 41
1.0
 10
15374.928282108827
 20
80194.016133769852
 30
0.0
 41
1.0
 10
15374.928712014784
 20
80194.016108568961
 30
0.0
 41
1.0
 10
15375.017107885382
 20
80194.010926844232
 30
0.0
 41
0.9997558016757532
 10
15375.105188462854
 20
80194.001844328843
 30
0.0
 41
1.0
 10
15375.105664601371
 20
80194.00179523135
 30
0.0
 41
1.0
 10
15375.106140739888
 20
80194.001746133858
 30
0.0
 41
1.0
 10
15375.193269040145
 20
80193.992761813468
 30
0.0
 41
0.9996565144180833
 10
15375.279806893399
 20
80193.979224506795
 30
0.0
 41
1.0
 10
15375.280272818869
 20
80193.979151621053
 30
0.0
 41
1.0
 10
15375.280738744341
 20
80193.979078735298
 30
0.0
 41
1.0
 10
15375.366344746837
 20
80193.965687200063
 30
0.0
 41
0.9995321806916646
 10
15375.450971827067
 20
80193.947086711676
 30
0.0
 41
1.0
 10
15375.451361021715
 20
80193.947001169203
 30
0.0
 41
1.0
 10
15375.451750216364
 20
80193.946915626715
 30
0.0
 41
1.0
 10
15375.535598907461
 20
80193.928486223231
 30
0.0
 41
0.9993819199218749
 10
15375.617945441592
 20
80193.904210839974
 30
0.0
 41
1.0
 10
15375.618183875162
 20
80193.904140550847
 30
0.0
 41
1.0
 10
15375.618422308729
 20
80193.90407026172
 30
0.0
 41
1.0
 10
15375.700291975832
 20
80193.879935456702
 30
0.0
 41
0.9992088568534442
 10
15375.779984494777
 20
80193.849370220923
 30
0.0
 41
1.0
 10
15375.859665485652
 20
80193.8188106202
 30
0.0
 41
0.9990226101772896
 10
15375.936336155562
 20
80193.781333188585
 30
0.0
 41
1.0
 10
15376.012995297328
 20
80193.743861392039
 30
0.0
 41
0.9988424273996502
 10
15376.085698924524
 20
80193.699196616799
 30
0.0
 41
1.0
 10
15376.085966632927
 20
80193.699032152712
 30
0.0
 41
1.0
 10
15376.086234341332
 20
80193.698867688625
 30
0.0
 41
1.0
 10
15376.159473385282
 20
80193.65387398524
 30
0.0
 41
0.9986928844492844
 10
15376.227736251929
 20
80193.601638251013
 30
0.0
 41
1.0
 10
15376.228317544193
 20
80193.60119343776
 30
0.0
 41
1.0
 10
15376.228898836458
 20
80193.600748624493
 30
0.0
 41
1.0
 10
15376.298324287623
 20
80193.547623263759
 30
0.0
 41
0.9986007262254703
 10
15376.36175045743
 20
80193.487462494013
 30
0.0
 41
1.0
 10
15376.362644872861
 20
80193.486614126203
 30
0.0
 41
1.0
 10
15376.363539288293
 20
80193.485765758393
 30
0.0
 41
1.0
 10
15376.428754288983
 20
80193.423908253011
 30
0.0
 41
0.9985581491432869
 10
15376.486961900713
 20
80193.355415762722
 30
0.0
 41
1.0
 10
15376.496220354291
 20
80193.34452140503
 30
0.0
 41
1.0
 10
15376.505478807869
 20
80193.333627047352
 30
0.0
 41
1.0
 10
15376.582203326741
 20
80193.243345841707
 30
0.0
 41
0.9970460233512171
 10
15376.644195227882
 20
80193.142378757562
 30
0.0
 41
1.0
 10
15376.658664593
 20
80193.118812298417
 30
0.0
 41
1.0
 10
15376.673133958117
 20
80193.095245839271
 30
0.0
 41
1.0
 10
15376.712870658092
 20
80193.030526115297
 30
0.0
 41
0.9988468816631709
 10
15376.746217028845
 20
80192.962293662873
 30
0.0
 41
1.0
 10
15376.753253051407
 20
80192.947896741593
 30
0.0
 41
1.0
 10
15376.760289073967
 20
80192.933499820312
 30
0.0
 41
1.0
 10
15376.779563399643
 20
80192.894061210347
 30
0.0
 41
0.9998431189993319
 10
15376.797428727092
 20
80192.853964656009
 30
0.0
 41
1.0
 10
15376.815294054044
 20
80192.813868102778
 30
0.0
 41
0.9999989990154452
 10
15376.833272776916
 20
80192.773822266419
 30
0.0
 41
1.0
 10
15376.839445089056
 20
80192.76007404839
 30
0.0
 41
1.0
 10
15376.845617401195
 20
80192.746325830361
 30
0.0
 41
1.0
 10
15376.875940747854
 20
80192.678783559051
 30
0.0
 41
0.9998790356317654
 10
15376.904148627922
 20
80192.610330807278
 30
0.0
 41
1.0
 10
15376.910983809183
 20
80192.593743705904
 30
0.0
 41
1.0
 10
15376.917818990445
 20
80192.57715660453
 30
0.0
 41
1.0
 10
15376.941376652869
 20
80192.519988649554
 30
0.0
 41
0.9998227574547381
 10
15376.962765401284
 20
80192.461974341189
 30
0.0
 41
1.0
 10
15376.984154149684
 20
80192.403960032883
 30
0.0
 41
0.9996797971039287
 10
15377.002580434595
 20
80192.344937913906
 30
0.0
 41
1.0
 10
15377.006484237339
 20
80192.332433455682
 30
0.0
 41
1.0
 10
15377.010388040082
 20
80192.319928997458
 30
0.0
 41
1.0
 10
15377.036621930487
 20
80192.235897962033
 30
0.0
 41
0.997927493871264
 10
15377.051846453971
 20
80192.149193603342
 30
0.0
 41
1.0
 10
15377.054070141228
 20
80192.136529602547
 30
0.0
 41
1.0
 10
15377.056293828487
 20
80192.123865601738
 30
0.0
 41
1.0
 10
15377.067223768194
 20
80192.061619094384
 30
0.0
 41
0.9994985982152713
 10
15377.07419193337
 20
80191.998805593263
 30
0.0
 41
1.0
 10
15377.081160098554
 20
80191.935992092098
 30
0.0
 41
0.9996372611181517
 10
15377.084735964314
 20
80191.87289451345
 30
0.0
 41
1.0
 10
15377.084904541804
 20
80191.869919896359
 30
0.0
 41
1.0
 10
15377.085073119293
 20
80191.866945279282
 30
0.0
 41
1.0
 10
15377.088986140045
 20
80191.797898466277
 30
0.0
 41
0.9997730630735308
 10
15377.089954453528
 20
80191.728747642352
 30
0.0
 41
1.0
 10
15377.090011559945
 20
80191.724669463234
 30
0.0
 41
1.0
 10
15377.090068666363
 20
80191.720591284116
 30
0.0
 41
1.0
 10
15377.091151192693
 20
80191.64328410197
 30
0.0
 41
0.9998772614059567
 10
15377.089811105958
 20
80191.565980955347
 30
0.0
 41
1.0
 10
15377.089721842758
 20
80191.560831791459
 30
0.0
 41
1.0
 10
15377.089632579558
 20
80191.555682627572
 30
0.0
 41
1.0
 10
15377.088113966423
 20
80191.468081153231
 30
0.0
 41
0.9999415567330193
 10
15377.084701656189
 20
80191.380532991796
 30
0.0
 41
1.0
 10
15377.084460335511
 20
80191.374341531977
 30
0.0
 41
1.0
 10
15377.084219014832
 20
80191.368150072172
 30
0.0
 41
1.0
 10
15377.080324063227
 20
80191.268218990968
 30
0.0
 41
0.999971681043571
 10
15377.074925480112
 20
80191.168357852686
 30
0.0
 41
1.0
 10
15377.071712681325
 20
80191.108928603062
 30
0.0
 41
1.0
 10
15377.06849988254
 20
80191.049499353452
 30
0.0
 41
1.0
 10
15377.060425973341
 20
80190.900150951566
 30
0.0
 41
0.9999819129896861
 10
15377.050556181772
 20
80190.750910474497
 30
0.0
 41
1.0
 10
15377.040686390155
 20
80190.601669996788
 30
0.0
 41
1.0
 10
15377.038247069591
 20
80190.564476950938
 30
0.0
 41
1.0
 10
15377.060945303894
 20
80190.603217949058
 30
0.0
 41
0.9999982128213574
 10
15377.083789861872
 20
80190.641872841705
 30
0.0
 41
1.0
 10
15377.110699421908
 20
80190.687406056008
 30
0.0
 41
1.0
 10
15377.137608981946
 20
80190.732939270325
 30
0.0
 41
1.0
 10
15377.214272660349
 20
80190.862660592204
 30
0.0
 41
0.9998609190052282
 10
15377.295219973177
 20
80190.989752974085
 30
0.0
 41
1.0
 10
15377.324868294814
 20
80191.036302707289
 30
0.0
 41
1.0
 10
15377.354516616451
 20
80191.082852440493
 30
0.0
 41
1.0
 10
15377.43678883649
 20
80191.212025010173
 30
0.0
 41
0.9999067609734106
 10
15377.522557845998
 20
80191.338902699674
 30
0.0
 41
1.0
 10
15377.524962549207
 20
80191.34245996573
 30
0.0
 41
1.0
 10
15377.527367252414
 20
80191.346017231801
 30
0.0
 41
1.0
 10
15377.608326855388
 20
80191.465780389015
 30
0.0
 41
0.9998784952150372
 10
15377.692980465145
 20
80191.582961605833
 30
0.0
 41
1.0
 10
15377.777634074888
 20
80191.700142822621
 30
0.0
 41
0.9998532968288344
 10
15377.866251695559
 20
80191.814355730909
 30
0.0
 41
1.0
 10
15377.886213484551
 20
80191.840083051939
 30
0.0
 41
1.0
 10
15377.906175273545
 20
80191.865810372954
 30
0.0
 41
1.0
 10
15378.024659323361
 20
80192.018515983989
 30
0.0
 41
0.9991551975807728
 10
15378.155283773012
 20
80192.16097554611
 30
0.0
 41
1.0
 10
15378.158793388993
 20
80192.164803147738
 30
0.0
 41
1.0
 10
15378.162303004976
 20
80192.168630749366
 30
0.0
 41
1.0
 10
15378.285908222693
 20
80192.303435108246
 30
0.0
 41
0.99974181441858
 10
15378.415510362338
 20
80192.432484518795
 30
0.0
 41
1.0
 10
15378.545112501974
 20
80192.561533929358
 30
0.0
 41
0.9989238204612119
 10
15378.686115050168
 20
80192.678018891354
 30
0.0
 41
1.0
 10
15378.731362728442
 20
80192.715398883069
 30
0.0
 41
1.0
 10
15378.776610406718
 20
80192.752778874798
 30
0.0
 41
1.0
 10
15378.916850463893
 20
80192.868633928039
 30
0.0
 41
0.9990825084108456
 10
15379.066490396393
 20
80192.972062925794
 30
0.0
 41
1.0
 10
15379.076535760425
 20
80192.979006138863
 30
0.0
 41
1.0
 10
15379.086581124455
 20
80192.985949351918
 30
0.0
 41
1.0
 10
15379.216130328929
 20
80193.075491923577
 30
0.0
 41
0.9998164899825803
 10
15379.349014532374
 20
80193.160006165141
 30
0.0
 41
1.0
 10
15379.360860092896
 20
80193.167539931659
 30
0.0
 41
1.0
 10
15379.372705653417
 20
80193.175073698192
 30
0.0
 41
1.0
 10
15379.481898735747
 20
80193.244520406661
 30
0.0
 41
0.9997473449132787
 10
15379.594102693
 20
80193.308989364479
 30
0.0
 41
1.0
 10
15379.706306650165
 20
80193.373458322239
 30
0.0
 41
0.999932786115233
 10
15379.819975260914
 20
80193.435308313914
 30
0.0
 41
1.0
 10
15379.820527263524
 20
80193.435608672618
 30
0.0
 41
1.0
 10
15379.821079266134
 20
80193.435909031323
 30
0.0
 41
1.0
 10
15379.935851882137
 20
80193.498359740421
 30
0.0
 41
0.9996956420493358
 10
15380.053565208142
 20
80193.555073207477
 30
0.0
 41
1.0
 10
15380.08400561286
 20
80193.569739184124
 30
0.0
 41
1.0
 10
15380.114446017578
 20
80193.584405160771
 30
0.0
 41
1.0
 10
15380.217423124303
 20
80193.634018819226
 30
0.0
 41
0.9998070570159746
 10
15380.322269513328
 20
80193.679549406152
 30
0.0
 41
1.0
 10
15380.42711590211
 20
80193.72507999299
 30
0.0
 41
0.9997827436145289
 10
15380.533768838577
 20
80193.766201164239
 30
0.0
 41
1.0
 10
15380.552991688361
 20
80193.773612737932
 30
0.0
 41
1.0
 10
15380.572214538142
 20
80193.781024311626
 30
0.0
 41
1.0
 10
15380.717313173996
 20
80193.836968630203
 30
0.0
 41
0.9988031841995533
 10
15380.867183536617
 20
80193.878468694384
 30
0.0
 41
1.0
 10
15380.892100785062
 20
80193.885368440213
 30
0.0
 41
1.0
 10
15380.917018033508
 20
80193.892268186042
 30
0.0
 41
1.0
 10
15381.084288059063
 20
80193.938586328411
 30
0.0
 41
0.9984748040572835
 10
15381.255644967641
 20
80193.966180560659
 30
0.0
 41
1.0
 10
15381.26038410388
 20
80193.966943721171
 30
0.0
 41
1.0
 10
15381.265123240117
 20
80193.967706881682
 30
0.0
 41
1.0
 10
15381.427001876278
 20
80193.993774792922
 30
0.0
 41
0.9984436495476987
 10
15381.590776620016
 20
80194.001652746738
 30
0.0
 41
1.0
 10
15381.612473828169
 20
80194.002696433949
 30
0.0
 41
1.0
 10
15381.634171036321
 20
80194.003740121145
 30
0.0
 41
1.0
 10
15381.754551363761
 20
80194.009530700554
 30
0.0
 41
0.9987954789378846
 10
15381.87491960865
 20
80194.003494172823
 30
0.0
 41
1.0
 10
15381.89488440127
 20
80194.00249292847
 30
0.0
 41
1.0
 10
15381.914849193892
 20
80194.001491684132
 30
0.0
 41
1.0
 10
15381.99528785369
 20
80193.997457645062
 30
0.0
 41
0.9997941595873471
 10
15382.075496631656
 20
80193.990163579147
 30
0.0
 41
1.0
 10
15382.155705409708
 20
80193.982869513231
 30
0.0
 41
0.9998589466230935
 10
15382.235623956536
 20
80193.97288565879
 30
0.0
 41
1.0
 10
15382.268030158379
 20
80193.968837301858
 30
0.0
 41
1.0
 10
15382.300436360221
 20
80193.964788944941
 30
0.0
 41
1.0
 10
15382.445167310654
 20
80193.94670837665
 30
0.0
 41
0.999349506324859
 10
15382.588218554351
 20
80193.918242666929
 30
0.0
 41
1.0
 10
15382.621152251486
 20
80193.911689203727
 30
0.0
 41
1.0
 10
15382.654085948619
 20
80193.905135740511
 30
0.0
 41
1.0
 10
15382.76337977191
 20
80193.883387406357
 30
0.0
 41
0.9996788715564299
 10
15382.871431343923
 20
80193.856129606982
 30
0.0
 41
1.0
 10
15382.873494346628
 20
80193.855609180377
 30
0.0
 41
1.0
 10
15382.875557349333
 20
80193.855088753757
 30
0.0
 41
1.0
 10
15382.979482916022
 20
80193.828871807578
 30
0.0
 41
0.9995480654517931
 10
15383.081645151109
 20
80193.796456851007
 30
0.0
 41
1.0
 10
15383.083334793129
 20
80193.795920746124
 30
0.0
 41
1.0
 10
15383.085024435148
 20
80193.795384641242
 30
0.0
 41
1.0
 10
15383.183807386256
 20
80193.764041894407
 30
0.0
 41
0.9993867959433866
 10
15383.28015454478
 20
80193.725862525083
 30
0.0
 41
1.0
 10
15383.281397493882
 20
80193.725369983178
 30
0.0
 41
1.0
 10
15383.282640442983
 20
80193.724877441273
 30
0.0
 41
1.0
 10
15383.376501703255
 20
80193.687683155775
 30
0.0
 41
0.999205025653845
 10
15383.467101378257
 20
80193.643129256554
 30
0.0
 41
1.0
 10
15383.467836061027
 20
80193.642767964062
 30
0.0
 41
1.0
 10
15383.468570743797
 20
80193.64240667157
 30
0.0
 41
1.0
 10
15383.557701053363
 20
80193.598575357275
 30
0.0
 41
0.9990222350746687
 10
15383.642611114683
 20
80193.547042089616
 30
0.0
 41
1.0
 10
15383.642794999938
 20
80193.546930486729
 30
0.0
 41
1.0
 10
15383.642978885195
 20
80193.546818883842
 30
0.0
 41
1.0
 10
15383.727521176052
 20
80193.495508821943
 30
0.0
 41
0.9988642743795191
 10
15383.806795710696
 20
80193.436384634391
 30
0.0
 41
1.0
 10
15383.886070245402
 20
80193.377260446781
 30
0.0
 41
0.9987681233357798
 10
15383.959094029724
 20
80193.310569755355
 30
0.0
 41
1.0
 10
15383.959422957623
 20
80193.310269354202
 30
0.0
 41
1.0
 10
15383.959751885523
 20
80193.30996895305
 30
0.0
 41
1.0
 10
15384.033433525743
 20
80193.242677459202
 30
0.0
 41
0.9987496570927688
 10
15384.100027331113
 20
80193.168364645069
 30
0.0
 41
1.0
 10
15384.100799500846
 20
80193.167502971744
 30
0.0
 41
1.0
 10
15384.101571670579
 20
80193.16664129842
 30
0.0
 41
1.0
 10
15384.169709815422
 20
80193.090605137622
 30
0.0
 41
0.9988147669827846
 10
15384.230132069635
 20
80193.008304130795
 30
0.0
 41
1.0
 10
15384.231251395722
 20
80193.006779499439
 30
0.0
 41
1.0
 10
15384.232370721807
 20
80193.005254868069
 30
0.0
 41
1.0
 10
15384.295031628217
 20
80192.919904598471
 30
0.0
 41
0.9989452636229811
 10
15384.349598541154
 20
80192.829165909352
 30
0.0
 41
1.0
 10
15384.350947267238
 20
80192.826923128334
 30
0.0
 41
1.0
 10
15384.352295993322
 20
80192.824680347301
 30
0.0
 41
1.0
 10
15384.409560358508
 20
80192.729456095971
 30
0.0
 41
0.9991046436098425
 10
15384.458569571836
 20
80192.629731662935
 30
0.0
 41
1.0
 10
15384.460033433395
 20
80192.626752982935
 30
0.0
 41
1.0
 10
15384.461497294955
 20
80192.62377430292
 30
0.0
 41
1.0
 10
15384.513434231436
 20
80192.51809250981
 30
0.0
 41
0.9992763831078365
 10
15384.557187359973
 20
80192.408768447887
 30
0.0
 41
1.0
 10
15384.558666629655
 20
80192.405072260299
 30
0.0
 41
1.0
 10
15384.560145899337
 20
80192.401376072725
 30
0.0
 41
1.0
 10
15384.606857567251
 20
80192.284659635596
 30
0.0
 41
0.9994163472894044
 10
15384.645490598423
 20
80192.165026047194
 30
0.0
 41
1.0
 10
15384.646728750686
 20
80192.161191903375
 30
0.0
 41
1.0
 10
15384.647966902947
 20
80192.157357759541
 30
0.0
 41
1.0
 10
15384.687850463961
 20
80192.033851698041
 30
0.0
 41
0.9997268055902393
 10
15384.721918519834
 20
80191.908616666246
 30
0.0
 41
1.0
 10
15384.722848700079
 20
80191.905197300221
 30
0.0
 41
1.0
 10
15384.723778880327
 20
80191.901777934196
 30
0.0
 41
1.0
 10
15384.755986575718
 20
80191.783381634406
 30
0.0
 41
0.9996701319001546
 10
15384.782072192516
 20
80191.663487681028
 30
0.0
 41
1.0
 10
15384.808157809272
 20
80191.543593727867
 30
0.0
 41
0.9995785451099284
 10
15384.827241386598
 20
80191.422387966915
 30
0.0
 41
1.0
 10
15384.831461168786
 20
80191.395586812068
 30
0.0
 41
1.0
 10
15384.835680950971
 20
80191.368785657221
 30
0.0
 41
1.0
 10
15384.862255926913
 20
80191.199999683507
 30
0.0
 41
0.9979925101208945
 10
15384.867281512838
 20
80191.029208355409
 30
0.0
 41
1.0
 10
15384.868106325262
 20
80191.001177631886
 30
0.0
 41
1.0
 10
15384.868931137687
 20
80190.973146908364
 30
0.0
 41
1.0
 10
15384.872307098767
 20
80190.858417027295
 30
0.0
 41
0.9995314902253314
 10
15384.868656906625
 20
80190.74369554357
 30
0.0
 41
1.0
 10
15384.865006714477
 20
80190.628974059699
 30
0.0
 41
0.9996245486947303
 10
15384.855077619355
 20
80190.514624788688
 30
0.0
 41
1.0
 10
15384.854914571362
 20
80190.512747032553
 30
0.0
 41
1.0
 10
15384.854751523368
 20
80190.510869276419
 30
0.0
 41
1.0
 10
15384.844496332244
 20
80190.392764493023
 30
0.0
 41
0.9997286095010358
 10
15384.828751008685
 20
80190.27526558419
 30
0.0
 41
1.0
 10
15384.828357516031
 20
80190.272329159459
 30
0.0
 41
1.0
 10
15384.827964023378
 20
80190.269392734728
 30
0.0
 41
1.0
 10
15384.811431714494
 20
80190.146020976361
 30
0.0
 41
0.9998265533968799
 10
15384.790316255761
 20
80190.023350501593
 30
0.0
 41
1.0
 10
15384.789639713628
 20
80190.019420123106
 30
0.0
 41
1.0
 10
15384.788963171497
 20
80190.015489744634
 30
0.0
 41
1.0
 10
15384.766494628497
 20
80189.884958512819
 30
0.0
 41
0.999902253084764
 10
15384.740385163854
 20
80189.755106544049
 30
0.0
 41
1.0
 10
15384.739406522702
 20
80189.750239401736
 30
0.0
 41
1.0
 10
15384.738427881548
 20
80189.745372259407
 30
0.0
 41
1.0
 10
15384.71036113459
 20
80189.605786005879
 30
0.0
 41
0.9999524761925457
 10
15384.679578165762
 20
80189.466773512773
 30
0.0
 41
1.0
 10
15384.678302058594
 20
80189.461010753497
 30
0.0
 41
1.0
 10
15384.677025951423
 20
80189.455247994221
 30
0.0
 41
1.0
 10
15384.643690768338
 20
80189.304709982884
 30
0.0
 41
0.9999813588726381
 10
15384.608519767442
 20
80189.154590269813
 30
0.0
 41
1.0
 10
15384.606965841984
 20
80189.147957679379
 30
0.0
 41
1.0
 10
15384.605411916527
 20
80189.14132508896
 30
0.0
 41
1.0
 10
15384.567133064989
 20
80188.977940196157
 30
0.0
 41
0.9999955237647192
 10
15384.527877186762
 20
80188.814787291529
 30
0.0
 41
1.0
 10
15384.515595551165
 20
80188.763743101168
 30
0.0
 41
1.0
 10
15384.503313915571
 20
80188.712698910807
 30
0.0
 41
1.0
 10
15384.439494766362
 20
80188.447457626316
 30
0.0
 41
0.9999993604799227
 10
15384.375075819218
 20
80188.182361375744
 30
0.0
 41
1.0
 10
15384.370356983638
 20
80188.162942467563
 30
0.0
 41
1.0
 10
15384.365638148058
 20
80188.143523559382
 30
0.0
 41
1.0
 10
15384.29178152987
 20
80187.839589492898
 30
0.0
 41
0.9999659914723728
 10
15384.212921933895
 20
80187.536914946002
 30
0.0
 41
1.0
 10
15384.207969244973
 20
80187.517905808854
 30
0.0
 41
1.0
 10
15384.203016556052
 20
80187.498896671706
 30
0.0
 41
1.0
 10
15384.114251582312
 20
80187.158203850791
 30
0.0
 41
0.9999441976021638
 10
15384.018308549343
 20
80186.819462425497
 30
0.0
 41
1.0
 10
15384.001608030918
 20
80186.760498712974
 30
0.0
 41
1.0
 10
15383.984907512491
 20
80186.701535000437
 30
0.0
 41
1.0
 10
15383.855563442623
 20
80186.244866149922
 30
0.0
 41
0.9999625120736723
 10
15383.718330675372
 20
80185.79050561614
 30
0.0
 41
1.0
 10
15383.682540732261
 20
80185.672009589427
 30
0.0
 41
1.0
 10
15383.646750789152
 20
80185.553513562714
 30
0.0
 41
1.0
 10
15383.572230585172
 20
80185.306786484784
 30
0.0
 41
0.9999793386300553
 10
15383.494544562011
 20
80185.061037845488
 30
0.0
 41
1.0
 10
15383.416858538872
 20
80184.81528920625
 30
0.0
 41
1.0
 10
15383.406078980001
 20
80184.781271301879
 30
0.0
 41
1.0
 10
15381.555705926732
 20
80178.8941993794
 30
0.0
 41
1.0
 10
15379.705332873464
 20
80173.007127456935
 30
0.0
 41
1.0
 10
15378.74407618344
 20
80173.007127456935
 30
0.0
 41
1.0
 10
15377.782819493415
 20
80173.007127456935
 30
0.0
 41
1.0
 10
15379.401764272094
 20
80178.155155958724
 30
0.0
 41
1.0
 10
15381.020709050772
 20
80183.303184460514
 30
0.0
 41
1.0
 10
15381.065874873939
 20
80183.447215682769
 30
0.0
 41
1.0
 10
15381.111040697106
 20
80183.591246905009
 30
0.0
 41
1.0
 10
15381.28134511435
 20
80184.134337933807
 30
0.0
 41
0.9999911657895779
 10
15381.447077926165
 20
80184.678841465589
 30
0.0
 41
1.0
 10
15381.476773869734
 20
80184.776405405864
 30
0.0
 41
1.0
 10
15381.506469813305
 20
80184.873969346154
 30
0.0
 41
1.0
 10
15381.612810737832
 20
80185.223344996906
 30
0.0
 41
0.9999952428152943
 10
15381.716994327169
 20
80185.573370021302
 30
0.0
 41
1.0
 10
15381.722053797466
 20
80185.590368295467
 30
0.0
 41
1.0
 10
15381.727113267763
 20
80185.607366569617
 30
0.0
 41
1.0
 10
15381.821177916459
 20
80185.923395045538
 30
0.0
 41
0.9999931687536662
 10
15381.912903754368
 20
80186.240110258921
 30
0.0
 41
1.0
 10
15381.917839018843
 20
80186.257150968246
 30
0.0
 41
1.0
 10
15381.922774283315
 20
80186.274191677556
 30
0.0
 41
1.0
 10
15382.004629592408
 20
80186.556825472784
 30
0.0
 41
0.9999893840780196
 10
15382.083876818699
 20
80186.840201601444
 30
0.0
 41
1.0
 10
15382.163124045173
 20
80187.123577730745
 30
0.0
 41
0.9999833980070091
 10
15382.239100285855
 20
80187.407848313553
 30
0.0
 41
1.0
 10
15382.248104222592
 20
80187.441537192091
 30
0.0
 41
1.0
 10
15382.257108159327
 20
80187.475226070615
 30
0.0
 41
1.0
 10
15382.326072708196
 20
80187.733261902948
 30
0.0
 41
0.9999233658069566
 10
15382.388627679429
 20
80187.992926061677
 30
0.0
 41
1.0
 10
15382.45118265065
 20
80188.252590220407
 30
0.0
 41
1.0
 10
15382.490666069507
 20
80188.41639688483
 30
0.0
 41
1.0
 10
15382.495644673494
 20
80188.437051846733
 30
0.0
 41
1.0
 10
15382.500623277481
 20
80188.457706808651
 30
0.0
 41
1.0
 10
15382.530149488335
 20
80188.580203549136
 30
0.0
 41
0.9999868670874053
 10
15382.55841857236
 20
80188.702996494918
 30
0.0
 41
1.0
 10
15382.562316059515
 20
80188.719926082325
 30
0.0
 41
1.0
 10
15382.56621354667
 20
80188.736855669733
 30
0.0
 41
1.0
 10
15382.586687656409
 20
80188.825789440802
 30
0.0
 41
0.9999778173348687
 10
15382.605975254472
 20
80188.914988057775
 30
0.0
 41
1.0
 10
15382.6252628526
 20
80189.004186675069
 30
0.0
 41
0.9999602692864678
 10
15382.642957211243
 20
80189.093714963557
 30
0.0
 41
1.0
 10
15382.646161043307
 20
80189.109925418379
 30
0.0
 41
1.0
 10
15382.649364875373
 20
80189.126135873201
 30
0.0
 41
1.0
 10
15382.673466898168
 20
80189.248085071449
 30
0.0
 41
0.9995617985322385
 10
15382.690310245387
 20
80189.371246819181
 30
0.0
 41
1.0
 10
15382.692774735291
 20
80189.389267636536
 30
0.0
 41
1.0
 10
15382.695239225195
 20
80189.407288453891
 30
0.0
 41
1.0
 10
15382.715522486242
 20
80189.555603503512
 30
0.0
 41
0.9991121410620567
 10
15382.723247839827
 20
80189.705099602361
 30
0.0
 41
1.0
 10
15382.724166629851
 20
80189.722879438923
 30
0.0
 41
1.0
 10
15382.725085419876
 20
80189.740659275485
 30
0.0
 41
1.0
 10
15382.730973193417
 20
80189.854595701123
 30
0.0
 41
0.9989792494901203
 10
15382.726554101297
 20
80189.96859853706
 30
0.0
 41
1.0
 10
15382.725906129424
 20
80189.985314783058
 30
0.0
 41
1.0
 10
15382.725258157554
 20
80190.002031029057
 30
0.0
 41
1.0
 10
15382.722135009175
 20
80190.082601373084
 30
0.0
 41
0.9997820295385382
 10
15382.715651011804
 20
80190.162971094702
 30
0.0
 41
1.0
 10
15382.709167014433
 20
80190.243340816363
 30
0.0
 41
0.9998335105984106
 10
15382.699754818917
 20
80190.323420432906
 30
0.0
 41
1.0
 10
15382.69815989424
 20
80190.336990163385
 30
0.0
 41
1.0
 10
15382.696564969565
 20
80190.350559893865
 30
0.0
 41
1.0
 10
15382.683962924704
 20
80190.457778971235
 30
0.0
 41
0.999687645788657
 10
15382.666019011933
 20
80190.564234398815
 30
0.0
 41
1.0
 10
15382.663787348773
 20
80190.577474134145
 30
0.0
 41
1.0
 10
15382.661555685612
 20
80190.590713869475
 30
0.0
 41
1.0
 10
15382.647759864194
 20
80190.672560013438
 30
0.0
 41
0.9995547496486716
 10
15382.629106542299
 20
80190.753437510633
 30
0.0
 41
1.0
 10
15382.628732585415
 20
80190.755058921393
 30
0.0
 41
1.0
 10
15382.628358628532
 20
80190.756680332153
 30
0.0
 41
1.0
 10
15382.610453220403
 20
80190.834315007844
 30
0.0
 41
0.9994899427170085
 10
15382.587628311727
 20
80190.91064829065
 30
0.0
 41
1.0
 10
15382.587169785
 20
80190.912181740394
 30
0.0
 41
1.0
 10
15382.586711258273
 20
80190.913715190138
 30
0.0
 41
1.0
 10
15382.564803403038
 20
80190.986981573486
 30
0.0
 41
0.9993784877624701
 10
15382.53778776794
 20
80191.058522278647
 30
0.0
 41
1.0
 10
15382.537256076954
 20
80191.059930261399
 30
0.0
 41
1.0
 10
15382.536724385967
 20
80191.061338244137
 30
0.0
 41
1.0
 10
15382.510772132835
 20
80191.130062983822
 30
0.0
 41
0.9992430832222268
 10
15382.479555597674
 20
80191.196562135883
 30
0.0
 41
1.0
 10
15382.478973481626
 20
80191.197802190989
 30
0.0
 41
1.0
 10
15382.478391365579
 20
80191.19904224608
 30
0.0
 41
1.0
 10
15382.448339062519
 20
80191.263061287944
 30
0.0
 41
0.9990789632777487
 10
15382.412908435737
 20
80191.32426789969
 30
0.0
 41
1.0
 10
15382.412312729539
 20
80191.325296985568
 30
0.0
 41
1.0
 10
15382.411717023342
 20
80191.326326071459
 30
0.0
 41
1.0
 10
15382.377477808932
 20
80191.385474511495
 30
0.0
 41
0.9988874801100488
 10
15382.337818532929
 20
80191.44113422386
 30
0.0
 41
1.0
 10
15382.337263006864
 20
80191.441913875533
 30
0.0
 41
1.0
 10
15382.336707480799
 20
80191.442693527206
 30
0.0
 41
1.0
 10
15382.298159256903
 20
80191.496793936269
 30
0.0
 41
0.9986762060685827
 10
15382.254256785622
 20
80191.546647650714
 30
0.0
 41
1.0
 10
15382.253812825302
 20
80191.547151792518
 30
0.0
 41
1.0
 10
15382.253368864982
 20
80191.547655934322
 30
0.0
 41
1.0
 10
15382.210354314324
 20
80191.596501365173
 30
0.0
 41
0.9984621642481313
 10
15382.162196757567
 20
80191.640284665627
 30
0.0
 41
1.0
 10
15382.16195012302
 20
80191.640508897821
 30
0.0
 41
1.0
 10
15382.161703488473
 20
80191.640733130014
 30
0.0
 41
1.0
 10
15382.114039200753
 20
80191.684067966125
 30
0.0
 41
0.9982724693867112
 10
15382.061620568948
 20
80191.72151231661
 30
0.0
 41
1.0
 10
15382.009201937148
 20
80191.758956667109
 30
0.0
 41
0.998139918007952
 10
15381.952615873741
 20
80191.789743186557
 30
0.0
 41
1.0
 10
15381.952570211648
 20
80191.789768029732
 30
0.0
 41
1.0
 10
15381.952524549557
 20
80191.789792872893
 30
0.0
 41
1.0
 10
15381.895847161992
 20
80191.820629078662
 30
0.0
 41
0.9980927086769244
 10
15381.835801810928
 20
80191.844245887492
 30
0.0
 41
1.0
 10
15381.835361641222
 20
80191.84441901336
 30
0.0
 41
1.0
 10
15381.834921471516
 20
80191.844592139241
 30
0.0
 41
1.0
 10
15381.773995780995
 20
80191.868555199864
 30
0.0
 41
0.9981411356563226
 10
15381.710607259567
 20
80191.884927841384
 30
0.0
 41
1.0
 10
15381.709725142895
 20
80191.885155683587
 30
0.0
 41
1.0
 10
15381.708843026223
 20
80191.885383525776
 30
0.0
 41
1.0
 10
15381.643690271352
 20
80191.902211851702
 30
0.0
 41
0.9983031812910828
 10
15381.577022842272
 20
80191.911351212882
 30
0.0
 41
1.0
 10
15381.568151816953
 20
80191.912567331543
 30
0.0
 41
1.0
 10
15381.559280791635
 20
80191.913783450203
 30
0.0
 41
1.0
 10
15381.504931149128
 20
80191.921234180205
 30
0.0
 41
0.998388770825016
 10
15381.450087299823
 20
80191.922478853841
 30
0.0
 41
1.0
 10
15381.442023894529
 20
80191.922661851713
 30
0.0
 41
1.0
 10
15381.433960489236
 20
80191.922844849585
 30
0.0
 41
1.0
 10
15381.395243450454
 20
80191.923723527463
 30
0.0
 41
0.9998869563075649
 10
15381.356517497326
 20
80191.923437658101
 30
0.0
 41
1.0
 10
15381.317791543563
 20
80191.923151788738
 30
0.0
 41
0.9999972320164974
 10
15381.279067363786
 20
80191.92268368919
 30
0.0
 41
1.0
 10
15381.259714347771
 20
80191.922449749109
 30
0.0
 41
1.0
 10
15381.240361331755
 20
80191.922215809027
 30
0.0
 41
1.0
 10
15381.162931119386
 20
80191.92127982933
 30
0.0
 41
0.999730494507126
 10
15381.08562781315
 20
80191.916750735545
 30
0.0
 41
1.0
 10
15381.076578171444
 20
80191.916220529558
 30
0.0
 41
1.0
 10
15381.067528529737
 20
80191.915690323571
 30
0.0
 41
1.0
 10
15380.972125939899
 20
80191.910100817782
 30
0.0
 41
0.9997888306410387
 10
15380.877033603874
 20
80191.900595853265
 30
0.0
 41
1.0
 10
15380.868312542487
 20
80191.899724138653
 30
0.0
 41
1.0
 10
15380.859591481101
 20
80191.898852424041
 30
0.0
 41
1.0
 10
15380.747057022194
 20
80191.8876040303
 30
0.0
 41
0.9984170238234841
 10
15380.636497874908
 20
80191.863787948387
 30
0.0
 41
1.0
 10
15380.600116743808
 20
80191.855950912548
 30
0.0
 41
1.0
 10
15380.56373561271
 20
80191.848113876724
 30
0.0
 41
1.0
 10
15380.448544544317
 20
80191.823300010219
 30
0.0
 41
0.9976592854202945
 10
15380.337816377963
 20
80191.783001333097
 30
0.0
 41
1.0
 10
15380.227088211484
 20
80191.742702655916
 30
0.0
 41
0.9993255074341141
 10
15380.119616412623
 20
80191.694385757379
 30
0.0
 41
1.0
 10
15380.114991233771
 20
80191.692306381214
 30
0.0
 41
1.0
 10
15380.110366054922
 20
80191.690227005049
 30
0.0
 41
1.0
 10
15379.993643898299
 20
80191.637751354167
 30
0.0
 41
0.9976475078274362
 10
15379.885196554016
 20
80191.569803364517
 30
0.0
 41
1.0
 10
15379.866854159711
 20
80191.558310885594
 30
0.0
 41
1.0
 10
15379.848511765404
 20
80191.54681840667
 30
0.0
 41
1.0
 10
15379.764309573959
 20
80191.494061285979
 30
0.0
 41
0.9995131336377192
 10
15379.683561859194
 20
80191.436155074145
 30
0.0
 41
1.0
 10
15379.602814144375
 20
80191.378248862282
 30
0.0
 41
0.9995810107628814
 10
15379.525552496772
 20
80191.315767179942
 30
0.0
 41
1.0
 10
15379.52258246543
 20
80191.313365308364
 30
0.0
 41
1.0
 10
15379.519612434087
 20
80191.310963436801
 30
0.0
 41
1.0
 10
15379.436410724044
 20
80191.243678011495
 30
0.0
 41
0.9996617837953843
 10
15379.35682003691
 20
80191.172157555935
 30
0.0
 41
1.0
 10
15379.344689285952
 20
80191.161256822874
 30
0.0
 41
1.0
 10
15379.332558534994
 20
80191.150356089813
 30
0.0
 41
1.0
 10
15379.264283007566
 20
80191.089003474321
 30
0.0
 41
0.9997267750034462
 10
15379.198949499369
 20
80191.024526937865
 30
0.0
 41
1.0
 10
15379.133615991146
 20
80190.960050401409
 30
0.0
 41
0.9999667288966558
 10
15379.069343048053
 20
80190.894516594562
 30
0.0
 41
1.0
 10
15379.000515600221
 20
80190.824338935752
 30
0.0
 41
1.0
 10
15378.931688152388
 20
80190.754161276927
 30
0.0
 41
1.0
 10
15378.729760313727
 20
80190.548272152562
 30
0.0
 41
0.9988205335170928
 10
15378.548754696729
 20
80190.323767920476
 30
0.0
 41
1.0
 10
15378.518114731814
 20
80190.285764670029
 30
0.0
 41
1.0
 10
15378.487474766902
 20
80190.247761419596
 30
0.0
 41
1.0
 10
15378.245189220161
 20
80189.947250686731
 30
0.0
 41
0.9997077826758819
 10
15378.017711269025
 20
80189.635380892491
 30
0.0
 41
1.0
 10
15378.015987853887
 20
80189.633018109103
 30
0.0
 41
1.0
 10
15378.014264438747
 20
80189.630655325702
 30
0.0
 41
1.0
 10
15377.783339657419
 20
80189.314059964789
 30
0.0
 41
0.9989147567081157
 10
15377.5828761545
 20
80188.977350503555
 30
0.0
 41
1.0
 10
15377.558135009231
 20
80188.935793923069
 30
0.0
 41
1.0
 10
15377.533393863961
 20
80188.894237342567
 30
0.0
 41
1.0
 10
15377.37818256535
 20
80188.633535958157
 30
0.0
 41
0.9997476598189341
 10
15377.234837577736
 20
80188.36612620941
 30
0.0
 41
1.0
 10
15377.09149259028
 20
80188.098716460911
 30
0.0
 41
0.999625896711812
 10
15376.962984338279
 20
80187.823868524167
 30
0.0
 41
1.0
 10
15376.949784428816
 20
80187.795637124043
 30
0.0
 41
1.0
 10
15376.936584519352
 20
80187.76740572392
 30
0.0
 41
1.0
 10
15376.796375798289
 20
80187.467533325835
 30
0.0
 41
0.9998735413944041
 10
15376.665774451676
 20
80187.163353726588
 30
0.0
 41
1.0
 10
15376.662331623644
 20
80187.1553351412
 30
0.0
 41
1.0
 10
15376.658888795613
 20
80187.147316555798
 30
0.0
 41
1.0
 10
15376.535173104925
 20
80186.859174127036
 30
0.0
 41
0.9999377418860469
 10
15376.417918302781
 20
80186.568342659433
 30
0.0
 41
1.0
 10
15376.300663500611
 20
80186.277511191758
 30
0.0
 41
0.9999508299508144
 10
15376.18919955723
 20
80185.984411514946
 30
0.0
 41
1.0
 10
15376.186118788566
 20
80185.976310488972
 30
0.0
 41
1.0
 10
15376.183038019903
 20
80185.968209463012
 30
0.0
 41
1.0
 10
15376.065412539228
 20
80185.658907734352
 30
0.0
 41
0.9999609228429163
 10
15375.953273936315
 20
80185.347574718224
 30
0.0
 41
1.0
 10
15375.95031792597
 20
80185.339367877838
 30
0.0
 41
1.0
 10
15375.947361915627
 20
80185.331161037437
 30
0.0
 41
1.0
 10
15375.829311292204
 20
80185.003414341001
 30
0.0
 41
0.9999674607401531
 10
15375.716563765993
 20
80184.673805720609
 30
0.0
 41
1.0
 10
15375.665165375416
 20
80184.523546524884
 30
0.0
 41
1.0
 10
15375.613766984841
 20
80184.373287329159
 30
0.0
 41
1.0
 10
15375.497756378019
 20
80184.034139346477
 30
0.0
 41
0.9999287532308168
 10
15375.389874974131
 20
80183.692318607733
 30
0.0
 41
1.0
 10
15375.343397717796
 20
80183.545056062736
 30
0.0
 41
1.0
 10
15375.29692046146
 20
80183.397793517739
 30
0.0
 41
1.0
 10
15375.281993569526
 20
80183.350497866719
 30
0.0
 41
0.9999998222790393
 10
15375.267123061431
 20
80183.303184460514
 30
0.0
 41
1.0
 10
15373.646466924634
 20
80178.155155958724
 30
0.0
 41
1.0
 10
15372.02581078784
 20
80173.007127456935
 30
0.0
 41
1.0
 10
15371.120502343949
 20
80173.007127456935
 30
0.0
 41
1.0
 10
15370.215193900058
 20
80173.007127456935
 30
0.0
 41
1.0
 10
15372.067278311444
 20
80178.8941993794
 30
0.0
 41
1.0
 10
15373.919362722831
 20
80184.781271301879
 30
0.0
 41
1.0
 10
15373.929484481134
 20
80184.813314515326
 30
0.0
 41
1.0
 10
15374.002092149984
 20
80185.043614057155
 30
0.0
 41
1.0
 10
15374.074699818832
 20
80185.273913598998
 30
0.0
 41
0.9999825681969066
 10
15374.144582858135
 20
80185.505054494337
 30
0.0
 41
1.0
 10
15374.192873920249
 20
80185.664779077691
 30
0.0
 41
1.0
 10
15374.241164982363
 20
80185.824503661031
 30
0.0
 41
1.0
 10
15374.338317335685
 20
80186.145838882803
 30
0.0
 41
0.9999672528968066
 10
15374.430256141306
 20
80186.468704428393
 30
0.0
 41
1.0
 10
15374.433045024958
 20
80186.478498273718
 30
0.0
 41
1.0
 10
15374.43583390861
 20
80186.488292119044
 30
0.0
 41
1.0
 10
15374.522194947025
 20
80186.791569974303
 30
0.0
 41
0.9999899749179811
 10
15374.605836556464
 20
80187.095609062439
 30
0.0
 41
1.0
 10
15374.615942475468
 20
80187.132344300073
 30
0.0
 41
1.0
 10
15374.626048394472
 20
80187.169079537693
 30
0.0
 41
1.0
 10
15374.689478165916
 20
80187.39964815056
 30
0.0
 41
0.9999214200504021
 10
15374.747107594376
 20
80187.631734493101
 30
0.0
 41
1.0
 10
15374.759873446535
 20
80187.683145378411
 30
0.0
 41
1.0
 10
15374.772639298695
 20
80187.73455626372
 30
0.0
 41
1.0
 10
15374.804737022809
 20
80187.863820835511
 30
0.0
 41
0.9999828681675005
 10
15374.835319274749
 20
80187.993452309776
 30
0.0
 41
1.0
 10
15374.865901526733
 20
80188.12308378423
 30
0.0
 41
0.9999389844489306
 10
15374.893612515534
 20
80188.253359240145
 30
0.0
 41
1.0
 10
15374.900750259254
 20
80188.286915343982
 30
0.0
 41
1.0
 10
15374.907888002974
 20
80188.32047144782
 30
0.0
 41
1.0
 10
15374.949874479242
 20
80188.51785911154
 30
0.0
 41
0.9998933699432852
 10
15374.986078743612
 20
80188.716388719185
 30
0.0
 41
1.0
 10
15374.987451568824
 20
80188.723916739866
 30
0.0
 41
1.0
 10
15374.988824394039
 20
80188.731444760546
 30
0.0
 41
1.0
 10
15375.027774308872
 20
80188.945030409712
 30
0.0
 41
0.9996850305199777
 10
15375.055957985129
 20
80189.160301415104
 30
0.0
 41
1.0
 10
15375.057953018502
 20
80189.175539769261
 30
0.0
 41
1.0
 10
15375.059948051874
 20
80189.190778123404
 30
0.0
 41
1.0
 10
15375.087355914337
 20
80189.400123350628
 30
0.0
 41
0.9994697936709321
 10
15375.101080473549
 20
80189.610808545855
 30
0.0
 41
1.0
 10
15375.101557542799
 20
80189.618132018091
 30
0.0
 41
1.0
 10
15375.102034612051
 20
80189.625455490328
 30
0.0
 41
1.0
 10
15375.114805032767
 20
80189.821493741227
 30
0.0
 41
0.9991804893144531
 10
15375.111676716497
 20
80190.017922591156
 30
0.0
 41
1.0
 10
15375.111592837675
 20
80190.023189392537
 30
0.0
 41
1.0
 10
15375.111508958853
 20
80190.028456193919
 30
0.0
 41
1.0
 10
15375.108548400221
 20
80190.214351441115
 30
0.0
 41
0.9988448329325871
 10
15375.087756854598
 20
80190.399104030963
 30
0.0
 41
1.0
 10
15375.086162780897
 20
80190.41326888671
 30
0.0
 41
1.0
 10
15375.084568707196
 20
80190.427433742472
 30
0.0
 41
1.0
 10
15375.06696530899
 20
80190.583856620724
 30
0.0
 41
0.998550320944796
 10
15375.032649036675
 20
80190.737480804892
 30
0.0
 41
1.0
 10
15375.025063044603
 20
80190.771441132296
 30
0.0
 41
1.0
 10
15375.017477052532
 20
80190.8054014597
 30
0.0
 41
1.0
 10
15374.998332764384
 20
80190.891104988928
 30
0.0
 41
0.9991036781406573
 10
15374.972007902725
 20
80190.974882076305
 30
0.0
 41
1.0
 10
15374.968025677306
 20
80190.987555238695
 30
0.0
 41
1.0
 10
15374.96404345189
 20
80191.000228401084
 30
0.0
 41
1.0
 10
15374.945683041122
 20
80191.058659163464
 30
0.0
 41
0.9998874504382603
 10
15374.925577833397
 20
80191.116512765846
 30
0.0
 41
1.0
 10
15374.905472625745
 20
80191.174366368024
 30
0.0
 41
0.9994041637512192
 10
15374.881424012834
 20
80191.230695071848
 30
0.0
 41
1.0
 10
15374.877227228571
 20
80191.240525136411
 30
0.0
 41
1.0
 10
15374.873030444307
 20
80191.250355200988
 30
0.0
 41
1.0
 10
15374.845151613315
 20
80191.315655366954
 30
0.0
 41
0.9991846840663673
 10
15374.812095256648
 20
80191.378493398166
 30
0.0
 41
1.0
 10
15374.810958650269
 20
80191.380654014589
 30
0.0
 41
1.0
 10
15374.809822043891
 20
80191.382814631012
 30
0.0
 41
1.0
 10
15374.779038899962
 20
80191.441331429422
 30
0.0
 41
0.9989253167974883
 10
15374.742969475899
 20
80191.49674635785
 30
0.0
 41
1.0
 10
15374.741915351224
 20
80191.498365852603
 30
0.0
 41
1.0
 10
15374.74086122655
 20
80191.499985347371
 30
0.0
 41
1.0
 10
15374.706900051839
 20
80191.55216128625
 30
0.0
 41
0.9986467172824581
 10
15374.667702899207
 20
80191.600527319868
 30
0.0
 41
1.0
 10
15374.666828770529
 20
80191.601605922129
 30
0.0
 41
1.0
 10
15374.665954641849
 20
80191.602684524376
 30
0.0
 41
1.0
 10
15374.62850574657
 20
80191.6488933535
 30
0.0
 41
0.9984001104278527
 10
15374.586079016053
 20
80191.690578460868
 30
0.0
 41
1.0
 10
15374.585491877911
 20
80191.691155335779
 30
0.0
 41
1.0
 10
15374.584904739768
 20
80191.691732210704
 30
0.0
 41
1.0
 10
15374.543652285516
 20
80191.73226356825
 30
0.0
 41
0.9982442159060079
 10
15374.497896184199
 20
80191.767632129486
 30
0.0
 41
1.0
 10
15374.497681388755
 20
80191.767798162124
 30
0.0
 41
1.0
 10
15374.497466593311
 20
80191.767964194747
 30
0.0
 41
1.0
 10
15374.452140082898
 20
80191.803000690721
 30
0.0
 41
0.9982450060797352
 10
15374.402989103792
 20
80191.832432473777
 30
0.0
 41
1.0
 10
15374.353838124734
 20
80191.861864256804
 30
0.0
 41
0.9983922639624363
 10
15374.301671818581
 20
80191.885543891462
 30
0.0
 41
1.0
 10
15374.301444941244
 20
80191.885646876952
 30
0.0
 41
1.0
 10
15374.301218063905
 20
80191.885749862442
 30
0.0
 41
1.0
 10
15374.248598002983
 20
80191.909635468095
 30
0.0
 41
0.9986517147188043
 10
15374.193785030035
 20
80191.92793658725
 30
0.0
 41
1.0
 10
15374.193107108702
 20
80191.928162933647
 30
0.0
 41
1.0
 10
15374.192429187369
 20
80191.928389280045
 30
0.0
 41
1.0
 10
15374.136260371644
 20
80191.947143092024
 30
0.0
 41
0.9989435598941511
 10
15374.078606984485
 20
80191.960660794255
 30
0.0
 41
1.0
 10
15374.077526864909
 20
80191.96091404451
 30
0.0
 41
1.0
 10
15374.07644674533
 20
80191.961167294765
 30
0.0
 41
1.0
 10
15374.016633119139
 20
80191.975191497477
 30
0.0
 41
0.9992249241290055
 10
15373.955901610343
 20
80191.984466840193
 30
0.0
 41
1.0
 10
15373.954487921939
 20
80191.984682748618
 30
0.0
 41
1.0
 10
15373.953074233537
 20
80191.984898657043
 30
0.0
 41
1.0
 10
15373.889515348073
 20
80191.994605816566
 30
0.0
 41
0.9994396597832227
 10
15373.825449411539
 20
80192.000038738901
 30
0.0
 41
1.0
 10
15373.806308744051
 20
80192.00166190663
 30
0.0
 41
1.0
 10
15373.787168076564
 20
80192.003285074345
 30
0.0
 41
1.0
 10
15373.684820805109
 20
80192.011964332138
 30
0.0
 41
0.9987693403100514
 10
15373.582117181559
 20
80192.010461268685
 30
0.0
 41
1.0
 10
15373.571862847335
 20
80192.010311196907
 30
0.0
 41
1.0
 10
15373.561608513111
 20
80192.010161125145
 30
0.0
 41
1.0
 10
15373.452052746892
 20
80192.00855778085
 30
0.0
 41
0.9989753644980818
 10
15373.343090746836
 20
80191.997054773921
 30
0.0
 41
1.0
 10
15373.234128746779
 20
80191.985551766993
 30
0.0
 41
0.998319006732463
 10
15373.127229935752
 20
80191.961516775191
 30
0.0
 41
1.0
 10
15373.118328984196
 20
80191.959515496637
 30
0.0
 41
1.0
 10
15373.10942803264
 20
80191.957514218084
 30
0.0
 41
1.0
 10
15372.984727318468
 20
80191.929476669175
 30
0.0
 41
0.9985539388279467
 10
15372.86375756477
 20
80191.888212993115
 30
0.0
 41
1.0
 10
15372.861412133818
 20
80191.887412949305
 30
0.0
 41
1.0
 10
15372.859066702864
 20
80191.886612905495
 30
0.0
 41
1.0
 10
15372.733406087298
 20
80191.84374914183
 30
0.0
 41
0.9988468746507495
 10
15372.612435744981
 20
80191.78903105676
 30
0.0
 41
1.0
 10
15372.609252922985
 20
80191.787591382192
 30
0.0
 41
1.0
 10
15372.606070100988
 20
80191.786151707638
 30
0.0
 41
1.0
 10
15372.478734114642
 20
80191.728554273417
 30
0.0
 41
0.9991322885925023
 10
15372.356633530591
 20
80191.660558941236
 30
0.0
 41
1.0
 10
15372.33903151959
 20
80191.650756739269
 30
0.0
 41
1.0
 10
15372.321429508587
 20
80191.640954537303
 30
0.0
 41
1.0
 10
15372.219252827488
 20
80191.584054421503
 30
0.0
 41
0.9993860037851513
 10
15372.121311823434
 20
80191.520138405933
 30
0.0
 41
1.0
 10
15372.115693510621
 20
80191.516471911265
 30
0.0
 41
1.0
 10
15372.110075197808
 20
80191.512805416598
 30
0.0
 41
1.0
 10
15372.023370819283
 20
80191.45622239029
 30
0.0
 41
0.9998821494956057
 10
15371.938444443549
 20
80191.397004160259
 30
0.0
 41
1.0
 10
15371.853518067659
 20
80191.337785930125
 30
0.0
 41
0.999797648274539
 10
15371.771042437309
 20
80191.275199522133
 30
0.0
 41
1.0
 10
15371.756406172515
 20
80191.264092832367
 30
0.0
 41
1.0
 10
15371.741769907721
 20
80191.252986142586
 30
0.0
 41
1.0
 10
15371.630021747656
 20
80191.168186354931
 30
0.0
 41
0.9998091630805838
 10
15371.521671469531
 20
80191.079086004145
 30
0.0
 41
1.0
 10
15371.508665717129
 20
80191.068390903762
 30
0.0
 41
1.0
 10
15371.495659964727
 20
80191.057695803378
 30
0.0
 41
1.0
 10
15371.361298181817
 20
80190.947205251854
 30
0.0
 41
0.9995035112311427
 10
15371.234162304047
 20
80190.828471434841
 30
0.0
 41
1.0
 10
15371.224514993639
 20
80190.819461688661
 30
0.0
 41
1.0
 10
15371.214867683229
 20
80190.810451942481
 30
0.0
 41
1.0
 10
15371.091444620481
 20
80190.695185570745
 30
0.0
 41
0.9994630424303097
 10
15370.975836214657
 20
80190.572082827464
 30
0.0
 41
1.0
 10
15370.972153375895
 20
80190.568161247968
 30
0.0
 41
1.0
 10
15370.968470537133
 20
80190.564239668456
 30
0.0
 41
1.0
 10
15370.860227808846
 20
80190.448980084184
 30
0.0
 41
0.9995160693763625
 10
15370.759361779341
 20
80190.327212666365
 30
0.0
 41
1.0
 10
15370.757428059216
 20
80190.3248782421
 30
0.0
 41
1.0
 10
15370.755494339091
 20
80190.322543817849
 30
0.0
 41
1.0
 10
15370.658495749805
 20
80190.205445248488
 30
0.0
 41
0.999656147050875
 10
15370.567769531142
 20
80190.08342248603
 30
0.0
 41
1.0
 10
15370.561611865212
 20
80190.07514069695
 30
0.0
 41
1.0
 10
15370.555454199282
 20
80190.06685890787
 30
0.0
 41
1.0
 10
15370.477043312516
 20
80189.961399723645
 30
0.0
 41
0.9998349055169093
 10
15370.402516030545
 20
80189.853161139923
 30
0.0
 41
1.0
 10
15370.327988748539
 20
80189.744922556158
 30
0.0
 41
0.9999728109561759
 10
15370.255065853014
 20
80189.635596631168
 30
0.0
 41
1.0
 10
15370.253750637447
 20
80189.633624861424
 30
0.0
 41
1.0
 10
15370.252435421879
 20
80189.631653091696
 30
0.0
 41
1.0
 10
15370.1768820956
 20
80189.51838362783
 30
0.0
 41
0.9999972147312484
 10
15370.101864284625
 20
80189.404758784091
 30
0.0
 41
1.0
 10
15370.096892742076
 20
80189.397228695729
 30
0.0
 41
1.0
 10
15370.091921199528
 20
80189.389698607367
 30
0.0
 41
1.0
 10
15370.006960303839
 20
80189.261013587486
 30
0.0
 41
0.9999371979003009
 10
15369.924904954507
 20
80189.130456673811
 30
0.0
 41
1.0
 10
15369.921396070144
 20
80189.12487374575
 30
0.0
 41
1.0
 10
15369.91788718578
 20
80189.119290817674
 30
0.0
 41
1.0
 10
15369.828814067652
 20
80188.977568047761
 30
0.0
 41
0.9998272025615548
 10
15369.745070676763
 20
80188.832632171019
 30
0.0
 41
1.0
 10
15369.729855504742
 20
80188.806299056567
 30
0.0
 41
1.0
 10
15369.714640332721
 20
80188.779965942114
 30
0.0
 41
1.0
 10
15369.600466597776
 20
80188.582363836424
 30
0.0
 41
0.9995217214847796
 10
15369.498726908218
 20
80188.378081508563
 30
0.0
 41
1.0
 10
15369.491083345565
 20
80188.362734058814
 30
0.0
 41
1.0
 10
15369.483439782911
 20
80188.347386609079
 30
0.0
 41
1.0
 10
15369.396534490301
 20
80188.172890150963
 30
0.0
 41
0.9998269762599397
 10
15369.316180024103
 20
80187.99528186438
 30
0.0
 41
1.0
 10
15369.235825557873
 20
80187.817673577752
 30
0.0
 41
0.9998944747387424
 10
15369.1606647633
 20
80187.637805852108
 30
0.0
 41
1.0
 10
15369.155711093699
 20
80187.625951197173
 30
0.0
 41
1.0
 10
15369.150757424097
 20
80187.614096542224
 30
0.0
 41
1.0
 10
15369.070110363478
 20
80187.421099602027
 30
0.0
 41
0.9999506734416891
 10
15368.993312834627
 20
80187.226538797317
 30
0.0
 41
1.0
 10
15368.978712869308
 20
80187.189550875395
 30
0.0
 41
1.0
 10
15368.964112903988
 20
80187.152562953459
 30
0.0
 41
1.0
 10
15368.916515305811
 20
80187.031977992694
 30
0.0
 41
0.9999912393956177
 10
15368.869928861703
 20
80186.910998789768
 30
0.0
 41
1.0
 10
15368.823342417756
 20
80186.790019587264
 30
0.0
 41
0.9999927113924746
 10
15368.777681123274
 20
80186.668688179547
 30
0.0
 41
1.0
 10
15368.763712691882
 20
80186.631571197562
 30
0.0
 41
1.0
 10
15368.749744260489
 20
80186.594454215578
 30
0.0
 41
1.0
 10
15368.676146103249
 20
80186.398888843934
 30
0.0
 41
0.9999487550947042
 10
15368.606522478343
 20
80186.201873478931
 30
0.0
 41
1.0
 10
15368.582928868369
 20
80186.135110168529
 30
0.0
 41
1.0
 10
15368.559335258395
 20
80186.068346858126
 30
0.0
 41
1.0
 10
15368.464649624239
 20
80185.800413023913
 30
0.0
 41
0.9999808436950477
 10
15368.373288035442
 20
80185.531327592209
 30
0.0
 41
1.0
 10
15368.281926446734
 20
80185.262242160738
 30
0.0
 41
0.9999873932921812
 10
15368.193271738159
 20
80184.992252806158
 30
0.0
 41
1.0
 10
15368.173179381251
 20
80184.931063473283
 30
0.0
 41
1.0
 10
15368.153087024344
 20
80184.869874140422
 30
0.0
 41
1.0
 10
15368.024247601983
 20
80184.47750612018
 30
0.0
 41
0.9999794883046833
 10
15367.900444816862
 20
80184.083519913416
 30
0.0
 41
1.0
 10
15367.889292557535
 20
80184.048029303522
 30
0.0
 41
1.0
 10
15367.878140298208
 20
80184.012538693642
 30
0.0
 41
1.0
 10
15367.735582133813
 20
80183.558865939995
 30
0.0
 41
0.9999982761839794
 10
15367.594709694142
 20
80183.104666918953
 30
0.0
 41
1.0
 10
15366.006569361569
 20
80178.055897187936
 30
0.0
 41
1.0
 10
15364.418429028996
 20
80173.007127456935
 30
0.0
 41
1.0
 10
15363.469678417519
 20
80173.007127456935
 30
0.0
 41
1.0
 10
15362.520927806043
 20
80173.007127456935
 30
0.0
 41
1.0
 10
15365.759212292196
 20
80183.33444965689
 30
0.0
 41
1.0
 10
15368.997496778349
 20
80193.66177185683
 30
0.0
 41
1.0
  0
LWPOLYLINE
  5
129
100
AcDbEntity
  8
0
370
              15
390
0
  6
Continuous
 62
               7
100
AcDbPolyline
 90
      232
 70
             128
 10
15343.293951004522
 20
80192.577429025318
 42
0.0004370800726091
 10
15343.241073829442
 20
80192.50876238475
 10
15343.201789599323
 20
80192.457655273174
 42
0.0030481992035508
 10
15343.071450882197
 20
80192.285933580803
 10
15343.032939210454
 20
80192.23454679703
 42
0.0042058245590492
 10
15342.828954159999
 20
80191.957541052252
 10
15342.776549037284
 20
80191.88510820517
 42
0.0120948898750907
 10
15342.480505120466
 20
80191.454358600546
 10
15342.384312621401
 20
80191.306877865412
 42
0.0141601263975933
 10
15342.080668574477
 20
80190.81120852867
 10
15342.041131307093
 20
80190.742364561316
 42
0.0071131081054584
 10
15341.835858983814
 20
80190.3728617624
 42
0.0068458791187874
 10
15341.640979456988
 20
80189.997770198956
 10
15341.634167594511
 20
80189.984208485199
 42
0.0064120880261472
 10
15341.43602534443
 20
80189.576784010205
 10
15341.428490658951
 20
80189.560772153563
 42
0.0058857236415811
 10
15341.225735267171
 20
80189.116396042737
 10
15341.217560340785
 20
80189.097905888892
 42
0.0053189741914253
 10
15341.008856028046
 20
80188.611942414806
 10
15341.000108222437
 20
80188.590960536778
 42
0.0047503650391481
 10
15340.784134496307
 20
80188.058761103632
 10
15340.774866247937
 20
80188.035284727463
 42
0.0042071762101092
 10
15340.55031886424
 20
80187.452191133474
 10
15340.54056946186
 20
80187.42622495853
 42
0.0036680086516779
 10
15340.306114818473
 20
80186.787589573782
 10
15340.295907038701
 20
80186.759141039642
 42
0.0032573142598472
 10
15340.050274752741
 20
80186.060288379915
 10
15339.981624231859
 20
80185.860825295735
 42
0.0026133366579092
 10
15339.633179033135
 20
80184.830962012173
 10
15339.569922245575
 20
80184.640731176609
 42
0.0020592950745226
 10
15339.356059176669
 20
80183.988627524159
 10
15339.353007385505
 20
80183.979191035745
 42
0.0025609928596734
 10
15339.151186884019
 20
80183.344045813385
 10
15339.148595516919
 20
80183.335743472533
 42
0.0031362356226954
 10
15338.959104731217
 20
80182.714980616263
 10
15338.956973688322
 20
80182.707839310169
 42
0.0037229917903955
 10
15338.780173301362
 20
80182.098854008073
 10
15338.778494712154
 20
80182.092907117898
 42
0.0043077623678383
 10
15338.614753910089
 20
80181.493088386138
 42
0.0047654161869707
 10
15338.461925187567
 20
80180.890402297198
 10
15338.427460578736
 20
80180.748840520086
 42
0.0112969368418291
 10
15338.231596220579
 20
80179.857148359413
 10
15338.203589831493
 20
80179.71432031336
 42
0.013005676263602
 10
15338.002752587847
 20
80178.527379241714
 10
15337.982212837705
 20
80178.383301128284
 42
0.013872153220366
 10
15337.878509833163
 20
80177.476471642411
 10
15337.85921434525
 20
80177.252973920433
 42
0.0071254697151198
 10
15337.825867699332
 20
80176.789786911642
 10
15337.820906725159
 20
80176.703782916898
 42
0.0028881799033454
 10
15337.805768431881
 20
80176.412041207237
 42
0.0060297297275424
 10
15337.795836232102
 20
80176.120092271012
 10
15337.79477395044
 20
80176.071699899228
 42
0.0229523163991359
 10
15337.802504978223
 20
80175.74894505291
 10
15337.806730751743
 20
80175.688541518903
 42
0.0123673300919281
 10
15337.825809398262
 20
80175.48742079371
 42
0.0128577674587388
 10
15337.855004788647
 20
80175.287522943923
 10
15337.862130662055
 20
80175.246194129199
 42
0.0285717853700228
 10
15337.926624663745
 20
80174.968077977886
 10
15337.940293187423
 20
80174.921423208376
 42
0.0316283098979241
 10
15338.056103767332
 20
80174.602408706574
 10
15338.059152459076
 20
80174.595422334271
 42
0.0338984824097462
 10
15338.208584170054
 20
80174.307856370055
 10
15338.210892899382
 20
80174.304065340839
 42
0.0350228718069956
 10
15338.393253190097
 20
80174.047013356118
 10
15338.394138441807
 20
80174.045934278431
 42
0.0347476747442527
 10
15338.608563129113
 20
80173.818749231112
 42
0.033133770202341
 10
15338.851806454964
 20
80173.622620568975
 10
15338.852906553375
 20
80173.62184786587
 42
0.030523331911159
 10
15339.12145124895
 20
80173.45671969578
 10
15339.12468129345
 20
80173.454995683918
 42
0.0273744480841152
 10
15339.417235004987
 20
80173.318857540027
 10
15339.42233954016
 20
80173.316813955549
 42
0.0240964405998202
 10
15339.737816615743
 20
80173.207830229294
 10
15339.744399945017
 20
80173.205905489594
 42
0.0209636179693715
 10
15340.081800097496
 20
80173.122437341721
 10
15340.089432558118
 20
80173.120885428682
 42
0.0181388704623684
 10
15340.447754949833
 20
80173.061469335502
 10
15340.456035798496
 20
80173.060403151641
 42
0.0156086547684499
 10
15340.834223162701
 20
80173.023666965062
 10
15340.87741841531
 20
80173.02082846257
 42
0.0137148329211615
 10
15341.20509156031
 20
80173.008308207325
 10
15341.251027750812
 20
80173.007813774209
 42
0.0051057823948657
 10
15341.487173336827
 20
80173.007683519812
 42
0.0052256693039234
 10
15341.723270619421
 20
80173.012432344243
 10
15341.793497404356
 20
80173.014579310286
 42
0.0161507178707793
 10
15342.169234482053
 20
80173.038229680576
 10
15342.189247442831
 20
80173.040139875899
 42
0.0101216737877916
 10
15342.603274664605
 20
80173.088132806311
 10
15342.637327953747
 20
80173.092780503081
 42
0.0245291776442859
 10
15343.114117609286
 20
80173.181855581162
 10
15343.198940924785
 20
80173.202051501503
 42
0.0143509212719619
 10
15343.555572028763
 20
80173.297856135279
 42
0.0156557856932297
 10
15343.905788093671
 20
80173.414867351152
 10
15343.913289307984
 20
80173.417637512845
 42
0.01701373335116
 10
15344.269885303611
 20
80173.563295127693
 10
15344.276989226073
 20
80173.566482963288
 42
0.0183105364412238
 10
15344.636338894386
 20
80173.743818005198
 10
15344.643285658878
 20
80173.747568439983
 42
0.0194899958196584
 10
15345.001766399797
 20
80173.959547421837
 10
15345.008780279199
 20
80173.964072764167
 42
0.0204869852920084
 10
15345.362794581295
 20
80174.213592779255
 10
15345.37006018988
 20
80174.219172844605
 42
0.0212516938465097
 10
15345.716050121018
 20
80174.509076841525
 10
15345.76256681497
 20
80174.551544151502
 42
0.0215248918093865
 10
15346.022592983951
 20
80174.810308430577
 10
15346.067622718307
 20
80174.8591525519
 42
0.0114578554727544
 10
15346.222414872009
 20
80175.034975485396
 10
15346.23360940782
 20
80175.048294248729
 42
0.0061531305116008
 10
15346.360084053991
 20
80175.202583782244
 42
0.0006325587158913
 10
15346.484462538081
 20
80175.358587157854
 10
15346.507502673194
 20
80175.387560678588
 42
0.004189776141672
 10
15346.67595807738
 20
80175.60308005492
 10
15346.734420197059
 20
80175.679181401618
 42
0.0092993880153434
 10
15347.011032124345
 20
80176.053460165596
 10
15347.093426617444
 20
80176.16939716904
 42
0.0159321726995431
 10
15347.440033100123
 20
80176.691571389834
 10
15347.484389235507
 20
80176.763250954071
 42
0.0085547317062721
 10
15347.718901000839
 20
80177.157125903308
 42
0.0084601156785996
 10
15347.939877178225
 20
80177.558752752229
 10
15347.947992652111
 20
80177.57411243461
 42
0.0081429654285802
 10
15348.171241922477
 20
80178.013833947014
 10
15348.180102086731
 20
80178.032012789175
 42
0.0076574581458198
 10
15348.40650959734
 20
80178.515195664528
 10
15348.415989238023
 20
80178.536260142733
 42
0.0070682724252218
 10
15348.646434145843
 20
80179.068297447549
 10
15348.656424429812
 20
80179.092286636529
 42
0.0064559514447221
 10
15348.891757637992
 20
80179.678598903018
 10
15348.902166996158
 20
80179.70553382847
 42
0.0058311413821149
 10
15349.143213732914
 20
80180.351565922843
 10
15349.153968810308
 20
80180.381450264016
 42
0.005231242574575
 10
15349.401550088382
 20
80181.092652677966
 10
15349.412593924728
 20
80181.125479389928
 42
0.0046680544730748
 10
15349.66752235248
 20
80181.907305705725
 10
15349.70951450252
 20
80182.040288943012
 42
0.0041666856381171
 10
15349.912800514901
 20
80182.703257717978
 10
15349.950462955601
 20
80182.829838825754
 42
0.0015170975007116
 10
15350.071649533978
 20
80183.241707177134
 42
-0.0004887993197518
 10
15350.191989307476
 20
80183.653825590445
 10
15350.268466564597
 20
80183.914782975116
 42
0.000258337890126
 10
15350.541681134822
 20
80184.848839678845
 10
15350.623453984488
 20
80185.128938938738
 42
0.0006636169756429
 10
15350.817321744249
 20
80185.796291861465
 10
15350.822418398468
 20
80185.8139234439
 42
0.0010589131315661
 10
15351.003867099513
 20
80186.446654787404
 10
15351.008849169984
 20
80186.464167694387
 42
0.001565552446494
 10
15351.177119377175
 20
80187.062784373615
 10
15351.181949577574
 20
80187.080176532501
 42
0.0021640440406038
 10
15351.336239549577
 20
80187.645203550579
 10
15351.340873769039
 20
80187.662468280687
 42
0.0028763871868407
 10
15351.48038948706
 20
80188.19443623141
 10
15351.484775351231
 20
80188.211560209587
 42
0.0037310511915826
 10
15351.608732043063
 20
80188.711007803591
 10
15351.612807263338
 20
80188.727968074774
 42
0.0047652197881952
 10
15351.720431163862
 20
80189.195445843128
 10
15351.724121763167
 20
80189.212205398202
 42
0.0060276699131141
 10
15351.814651862338
 20
80189.648281193426
 10
15351.817870552635
 20
80189.664782407781
 42
0.0075824337521327
 10
15351.890559862044
 20
80190.070049572169
 10
15351.89320523943
 20
80190.086204519655
 42
0.0095130624719907
 10
15351.947320475054
 20
80190.461293872679
 10
15351.954306698937
 20
80190.517227430799
 42
0.0121054653478612
 10
15351.980898029515
 20
80190.782123259269
 10
15351.981764519269
 20
80190.793526702124
 42
0.0069050827496406
 10
15351.996853337312
 20
80191.036467929051
 10
15351.997988636973
 20
80191.05999418594
 42
0.0169063976559323
 10
15352.000815915962
 20
80191.256186913408
 10
15351.99964526443
 20
80191.316522674766
 42
0.0052007733814374
 10
15351.997391815838
 20
80191.392116064904
 42
0.0054038123710168
 10
15351.977428304033
 20
80191.512134360702
 10
15351.972342448127
 20
80191.540792847489
 42
0.011205046056236
 10
15351.936958086089
 20
80191.717119285735
 10
15351.919133124029
 20
80191.796660872555
 42
0.0240764467806599
 10
15351.82823575789
 20
80192.12689790802
 10
15351.809676995066
 20
80192.183518073041
 42
0.0256812331949869
 10
15351.666314074879
 20
80192.555242279312
 10
15351.660904649088
 20
80192.567373614234
 42
0.0268360500994265
 10
15351.491477408208
 20
80192.898366748312
 10
15351.485941000587
 20
80192.907886418601
 42
0.0274670231601137
 10
15351.293740024159
 20
80193.200173793535
 10
15351.288358724141
 20
80193.207452941147
 42
0.0275035967336894
 10
15351.076785844634
 20
80193.462968831387
 10
15351.071716343722
 20
80193.46844791896
 42
0.0269557673468647
 10
15350.844312800229
 20
80193.689090204978
 10
15350.839569742308
 20
80193.693220159563
 42
0.0259124802367246
 10
15350.600014911015
 20
80193.880910686596
 10
15350.595484065841
 20
80193.884096188922
 42
0.0245162153126815
 10
15350.347567712739
 20
80194.040829198042
 10
15350.343041166459
 20
80194.043389395214
 42
0.0229282588919961
 10
15350.090621609586
 20
80194.171257587732
 10
15350.085841115904
 20
80194.173409887429
 42
0.0212984135510707
 10
15349.832803163288
 20
80194.274608804742
 10
15349.827498878371
 20
80194.276472367477
 42
0.0197555462666172
 10
15349.577720540596
 20
80194.35328778546
 42
0.0183511897003252
 10
15349.322791815222
 20
80194.410870692402
 10
15349.236426618312
 20
80194.427073482831
 42
0.033805787734251
 10
15348.950919269151
 20
80194.460881887964
 10
15348.859913863795
 20
80194.465461543223
 42
0.0091990525035238
 10
15348.754066755475
 20
80194.468837399138
 42
0.0028333980728158
 10
15348.648152838492
 20
80194.469665506665
 10
15348.647237386433
 20
80194.469667476485
 42
-0.0023619827902487
 10
15348.539491370648
 20
80194.47040831756
 10
15348.50308620115
 20
80194.470830624021
 42
0.0008824598807844
 10
15348.322530211068
 20
80194.472606402254
 10
15348.278668778894
 20
80194.472960363782
 42
0.0038132665934565
 10
15348.010385883324
 20
80194.47307929986
 10
15347.993852228221
 20
80194.47296053372
 42
0.0060665569046649
 10
15347.692571736523
 20
80194.467140234294
 10
15347.678321404605
 20
80194.466691926325
 42
0.0080356953041904
 10
15347.348862688308
 20
80194.45102420426
 10
15347.336792673179
 20
80194.450255621312
 42
0.0098996399209491
 10
15346.984029587988
 20
80194.420770392069
 10
15346.973983879154
 20
80194.41973009592
 42
0.0117740981525303
 10
15346.602827020643
 20
80194.37243784836
 10
15346.594604324322
 20
80194.371192731807
 42
0.0137435215133564
 10
15346.210015504666
 20
80194.302095758219
 10
15346.203358465715
 20
80194.300709862015
 42
0.0158359869175389
 10
15345.81036137206
 20
80194.205817773589
 10
15345.804948185043
 20
80194.204327832675
 42
0.0180554123871439
 10
15345.40863314052
 20
80194.07968981647
 10
15345.404076352348
 20
80194.078073780169
 42
0.0203657431186267
 10
15345.009598834395
 20
80193.919813438581
 10
15345.00545529553
 20
80193.917951817202
 42
0.0226819684632252
 10
15344.618019239315
 20
80193.722309238525
 10
15344.613819448306
 20
80193.719943646603
 42
0.0248634984629467
 10
15344.238637507142
 20
80193.483317000675
 10
15344.190442578387
 20
80193.449459958865
 42
0.0267044190764759
 10
15343.916149881425
 20
80193.234019582975
 42
0.0139303002468257
 10
15343.659982715497
 20
80192.996780742062
 10
15343.655129329767
 20
80192.992028079199
 42
0.0283460963520395
 10
15343.411056735597
 20
80192.724297418827
 10
15343.371388230382
 20
80192.675495841278
 42
0.007069536507089
 10
15343.293951004522
 20
80192.577429025318
 42
0.007069536507089
  0
LWPOLYLINE
  5
12A
100
AcDbEntity
  8
0
370
              15
390
0
  6
Continuous
 62
               7
100
AcDbPolyline
 90
      226
 70
             128
 10
15339.765130567275
 20
80176.855840219141
 42
-0.0026277635616722
 10
15339.765052683477
 20
80176.922612145121
 10
15339.765270041707
 20
80176.975767362324
 42
-0.0088680296779471
 10
15339.769046658001
 20
80177.148783144759
 10
15339.771393017112
 20
80177.208063170183
 42
-0.0077381705371729
 10
15339.787439127873
 20
80177.49932366595
 10
15339.788307039049
 20
80177.511611899667
 42
-0.0068872530402064
 10
15339.814939118782
 20
80177.826833651561
 10
15339.816143342985
 20
80177.839074630756
 42
-0.0062130021497563
 10
15339.853737059802
 20
80178.177944321913
 10
15339.855240963347
 20
80178.190118193903
 42
-0.005672692952344
 10
15339.904162822853
 20
80178.552313416047
 10
15339.905936268493
 20
80178.564407216269
 42
-0.0052341884511076
 10
15339.966546854743
 20
80178.949600471708
 10
15339.96856484353
 20
80178.961605401768
 42
-0.004976844994287
 10
15340.041303524966
 20
80179.369449969265
 10
15340.06555253968
 20
80179.497997952218
 42
-0.0089029805551777
 10
15340.202633391493
 20
80180.159773399719
 10
15340.235378766793
 20
80180.304804830157
 42
-0.0080318257016107
 10
15340.464927381146
 20
80181.250514462066
 10
15340.47691230758
 20
80181.296645097202
 42
-0.0074265721302273
 10
15340.760923846428
 20
80182.326709675588
 10
15340.780803389553
 20
80182.394843736212
 42
-0.0069711922657246
 10
15341.108107968053
 20
80183.461111476499
 10
15341.168059915166
 20
80183.647132834885
 42
-0.0052070422900528
 10
15341.397485140418
 20
80184.334404911904
 10
15341.414766332593
 20
80184.384432192528
 42
-0.0009167004362858
 10
15341.617858219881
 20
80184.968888040661
 42
-0.0025162727025172
 10
15341.824955850156
 20
80185.551929304871
 10
15341.862180461998
 20
80185.655078850876
 42
-0.0028212681375457
 10
15342.110356380912
 20
80186.330809482912
 10
15342.120187143648
 20
80186.357116927553
 42
-0.003196491686468
 10
15342.356479401325
 20
80186.977321689716
 10
15342.366113855252
 20
80187.002131679677
 42
-0.00362818363339
 10
15342.591219816426
 20
80187.56957236075
 10
15342.600658226644
 20
80187.592869792396
 42
-0.0041269167020386
 10
15342.815275923242
 20
80188.110310688236
 10
15342.847908879659
 20
80188.18718913458
 42
-0.0047472213096428
 10
15343.004953685217
 20
80188.547610602473
 10
15343.011847766542
 20
80188.563031200072
 42
-0.0025651659838012
 10
15343.160205800274
 20
80188.890359255558
 42
-0.0057144634774459
 10
15343.313955494004
 20
80189.215168928844
 10
15343.34198619945
 20
80189.272677311325
 42
-0.0065388068448984
 10
15343.525453227187
 20
80189.636909807974
 10
15343.533911682955
 20
80189.653169387326
 42
-0.0074510843041572
 10
15343.710093928843
 20
80189.97985766847
 10
15343.718273599321
 20
80189.994498445638
 42
-0.0084648980069428
 10
15343.887907452474
 20
80190.286407456704
 10
15343.89576357901
 20
80190.29941444844
 42
-0.0095638542518657
 10
15344.059599026556
 20
80190.559303320333
 10
15344.067073970218
 20
80190.570672681773
 42
-0.0107191626430595
 10
15344.225875550615
 20
80190.801283916328
 10
15344.232892284366
 20
80190.811020008725
 42
-0.0118458573774301
 10
15344.387440382859
 20
80191.015092204005
 42
-0.0129184518289984
 10
15344.551893006379
 20
80191.211252720081
 10
15344.58203777881
 20
80191.245378799053
 42
-0.0217742579798794
 10
15344.758650101157
 20
80191.428585569331
 10
15344.769395645722
 20
80191.438802402627
 42
-0.0097266568793808
 10
15344.935453264476
 20
80191.590649976977
 42
-0.0187720905170848
 10
15345.109800840501
 20
80191.732718830463
 10
15345.140506830941
 20
80191.755877912685
 42
-0.0179428207495144
 10
15345.372927551034
 20
80191.918430089863
 10
15345.376579877724
 20
80191.920794024598
 42
-0.0170047878016331
 10
15345.61234351548
 20
80192.062254538905
 10
15345.616126504385
 20
80192.064352844027
 42
-0.0160190788297416
 10
15345.853035051863
 20
80192.186004145929
 42
-0.0151102861579972
 10
15346.097066834312
 20
80192.292686921981
 10
15346.149453336522
 20
80192.313727054876
 42
-0.0271945441760512
 10
15346.508115895567
 20
80192.435591865578
 10
15346.577180696127
 20
80192.454941406861
 42
-0.0237596593978911
 10
15346.99297754309
 20
80192.550392118836
 10
15347.061040396848
 20
80192.562646806968
 42
-0.0213715440350468
 10
15347.346915328266
 20
80192.601593838466
 10
15347.407062494278
 20
80192.607183553147
 42
-0.0101465655760586
 10
15347.574555026476
 20
80192.619327096443
 10
15347.583895412441
 20
80192.619814011428
 42
-0.0100375910990188
 10
15347.733049513237
 20
80192.624589829356
 10
15347.743308782814
 20
80192.624712268371
 42
-0.0103625633139815
 10
15347.872016777574
 20
80192.623580834843
 10
15347.894282428853
 20
80192.622923476374
 42
-0.0115689250621316
 10
15347.978333166368
 20
80192.618493970134
 42
-0.0072438037996258
 10
15348.062171445388
 20
80192.610904770423
 10
15348.078971955281
 20
80192.60913822765
 42
-0.0217917313756002
 10
15348.195541718544
 20
80192.591718334937
 10
15348.261141809175
 20
80192.578971726514
 42
-0.0332943556757107
 10
15348.465533974191
 20
80192.524931435211
 10
15348.495706542531
 20
80192.514763358166
 42
-0.0184824084835969
 10
15348.634211599205
 20
80192.462312342715
 42
-0.0198002051041114
 10
15348.768285939526
 20
80192.399428282602
 10
15348.770172577082
 20
80192.398450495632
 42
-0.0212242342712551
 10
15348.902311519561
 20
80192.322687756794
 10
15348.904126815027
 20
80192.321541954632
 42
-0.0226090605768646
 10
15349.032630716334
 20
80192.232062310999
 10
15349.034475157985
 20
80192.230650058074
 42
-0.0238457052782121
 10
15349.15765723925
 20
80192.126654162246
 10
15349.159609967837
 20
80192.124839284457
 42
-0.0248160564551467
 10
15349.275811475123
 20
80192.005564683248
 10
15349.277915108541
 20
80192.003179349529
 42
-0.0254109592366772
 10
15349.385520326374
 20
80191.867890963607
 10
15349.387768348321
 20
80191.864749415166
 42
-0.0255528488364842
 10
15349.485215027082
 20
80191.712722361
 10
15349.487546127035
 20
80191.708640749333
 42
-0.02521467928155
 10
15349.573327153032
 20
80191.539138503373
 10
15349.575629392202
 20
80191.533956421423
 42
-0.024426563587682
 10
15349.64828408599
 20
80191.346209849289
 10
15349.657530487468
 20
80191.318344430911
 42
-0.0231319612619025
 10
15349.703453266422
 20
80191.155043384235
 42
-0.0112130424134757
 10
15349.738089288909
 20
80190.988839784317
 10
15349.739291814072
 20
80190.98234319716
 42
-0.0210527880667426
 10
15349.764978289453
 20
80190.801287551629
 10
15349.768488884267
 20
80190.765882003165
 42
-0.0190029892339197
 10
15349.783930357809
 20
80190.512346156946
 10
15349.784740334255
 20
80190.476870542523
 42
-0.0137974553858996
 10
15349.783191481418
 20
80190.151839135739
 10
15349.782346026464
 20
80190.12572039121
 42
-0.0081336634253285
 10
15349.76748669124
 20
80189.820372923597
 42
-0.0073526923446645
 10
15349.743178157856
 20
80189.515624679218
 10
15349.741916734083
 20
80189.502288004645
 42
-0.00668861388381
 10
15349.706181148043
 20
80189.171701961226
 10
15349.704524058567
 20
80189.158080342168
 42
-0.0061359187153005
 10
15349.656673456528
 20
80188.801316362136
 10
15349.654635955443
 20
80188.787421559231
 42
-0.0056698609993878
 10
15349.593985624653
 20
80188.404142990257
 10
15349.591580191354
 20
80188.389983871166
 42
-0.0052721077458541
 10
15349.517447990555
 20
80187.979856531485
 10
15349.514684841712
 20
80187.965439896099
 42
-0.0049289272152174
 10
15349.426390723573
 20
80187.528131384795
 10
15349.423278228929
 20
80187.513462532166
 42
-0.0047415956650849
 10
15349.320040237395
 20
80187.048665774739
 10
15349.285272027038
 20
80186.898858679371
 42
-0.008440447105172
 10
15349.095255583454
 20
80186.138634654795
 10
15349.089128895481
 20
80186.115770530683
 42
-0.0039635940137067
 10
15348.867675211206
 20
80185.314781666471
 10
15348.854298416016
 20
80185.267850049844
 42
-0.0072475040861996
 10
15348.58685152814
 20
80184.37863033342
 10
15348.516639201383
 20
80184.156889983671
 42
-0.0051345458827991
 10
15348.229879829267
 20
80183.282564795663
 10
15348.208353562562
 20
80183.219138528715
 42
-0.0019150016595329
 10
15347.952820155633
 20
80182.475589408306
 10
15347.946352551231
 20
80182.457001943374
 42
-0.0021524362837828
 10
15347.697874500172
 20
80181.752676121687
 10
15347.688664079355
 20
80181.72692254305
 42
-0.0024331286713382
 10
15347.452408820442
 20
80181.076323235262
 10
15347.443360867883
 20
80181.051779928879
 42
-0.0027449721787338
 10
15347.218746297054
 20
80180.452650049992
 10
15347.209856289623
 20
80180.429327460035
 42
-0.0031083229669949
 10
15346.996313803051
 20
80179.879403422558
 10
15346.987577671431
 20
80179.857313706845
 42
-0.0035311343454139
 10
15346.784536485786
 20
80179.354330580973
 10
15346.77595114665
 20
80179.333487857497
 42
-0.0040245640919858
 10
15346.582839342842
 20
80178.875178534858
 10
15346.574403229279
 20
80178.855599166884
 42
-0.0046015135721103
 10
15346.390646936075
 20
80178.439694137152
 10
15346.382360758154
 20
80178.421396997495
 42
-0.0052768638158583
 10
15346.207383239293
 20
80178.045624113438
 10
15346.199251028575
 20
80178.028630774701
 42
-0.0060672675642694
 10
15346.0324714159
 20
80177.690715151781
 10
15346.024501935341
 20
80177.675049892627
 42
-0.0069904648938013
 10
15345.865333541416
 20
80177.372714086116
 10
15345.857542141805
 20
80177.358403536884
 42
-0.008063702300829
 10
15345.705390281459
 20
80177.089368233719
 10
15345.69780124892
 20
80177.076440368284
 42
-0.0093006455537996
 10
15345.552060572296
 20
80176.838425969618
 10
15345.544709905555
 20
80176.826908000454
 42
-0.0107060777955582
 10
15345.404761362115
 20
80176.61763768307
 10
15345.397699593799
 20
80176.607552140456
 42
-0.0122723111797047
 10
15345.262905875636
 20
80176.424758811016
 10
15345.262579652061
 20
80176.424338423181
 42
-0.0141836319775687
 10
15345.118998049107
 20
80176.249768665381
 10
15345.112050293428
 20
80176.241793665089
 42
-0.0175957477258929
 10
15344.972144125422
 20
80176.092172776713
 42
-0.0080466359701539
 10
15344.82468036036
 20
80175.949850248537
 10
15344.778645815873
 20
80175.906829810468
 42
-0.0269600260511925
 10
15344.525365569893
 20
80175.694506551954
 10
15344.458798433627
 20
80175.644555137362
 42
-0.0178362840146197
 10
15344.218853943938
 20
80175.477537211089
 10
15344.211608972788
 20
80175.472868698795
 42
-0.0174650732686709
 10
15343.975272775497
 20
80175.33200773393
 42
-0.0169240130077822
 10
15343.729806529742
 20
80175.207715474186
 10
15343.683820374081
 20
80175.186353518569
 42
-0.0318883036880249
 10
15343.333469518466
 20
80175.050015209068
 10
15343.265103983087
 20
80175.028314588519
 42
-0.0284435909728358
 10
15342.889053857005
 20
80174.932097153127
 10
15342.853895696357
 20
80174.925203557272
 42
-0.0243909341026747
 10
15342.540452235589
 20
80174.879482526259
 10
15342.490171508984
 20
80174.874636979381
 42
-0.0196639293312528
 10
15342.274575931289
 20
80174.862388693844
 10
15342.222751860239
 20
80174.86148543311
 42
-0.0100501510398353
 10
15342.110328578463
 20
80174.861785831454
 10
15342.07866871785
 20
80174.86250690333
 42
-0.0019752031300254
 10
15342.029576380435
 20
80174.863819063554
 10
15342.026816077378
 20
80174.86390375538
 42
0.0065378750761156
 10
15341.98323950246
 20
80174.864670646595
 42
-0.0167974693115969
 10
15341.939708679311
 20
80174.866330545134
 10
15341.935629340267
 20
80174.866623556009
 42
-0.0081283277023837
 10
15341.884069542741
 20
80174.871170549639
 10
15341.87232996865
 20
80174.87239846724
 42
-0.0126703439744919
 10
15341.79761167256
 20
80174.882133258347
 10
15341.774823805179
 20
80174.88569151421
 42
-0.011785208861266
 10
15341.655284819444
 20
80174.907254509351
 10
15341.599904367584
 20
80174.918598049611
 42
-0.0251774592705482
 10
15341.373060328518
 20
80174.977096059069
 10
15341.328341138977
 20
80174.991062878296
 42
-0.0146525199948908
 10
15341.141948151186
 20
80175.055329405572
 42
-0.0166929436306194
 10
15340.959970494931
 20
80175.131136538694
 10
15340.955313863786
 20
80175.133261439245
 42
-0.0191684358372411
 10
15340.770130232415
 20
80175.226497523094
 10
15340.766797646778
 20
80175.228338770583
 42
-0.0221181781138136
 10
15340.583487342763
 20
80175.340472269017
 10
15340.581137538869
 20
80175.342056566937
 42
-0.0254984685464344
 10
15340.404847388474
 20
80175.474467716922
 10
15340.382365240746
 20
80175.493220025877
 42
-0.0292492648763847
 10
15340.257596301937
 20
80175.610312825505
 42
-0.0159048957677387
 10
15340.143756304464
 20
80175.738332817127
 10
15340.142437513909
 20
80175.739914430116
 42
-0.034381337964759
 10
15340.039800252289
 20
80175.881785755875
 10
15340.008308720915
 20
80175.932289147982
 42
-0.0369117275443251
 10
15339.922416219024
 20
80176.095766388928
 42
-0.0191751379599018
 10
15339.855222833488
 20
80176.268170994867
 10
15339.853459509708
 20
80176.273264339601
 42
-0.0378178042086595
 10
15339.803664790927
 20
80176.462205115677
 10
15339.797669495174
 20
80176.494765733994
 42
-0.0184846046670448
 10
15339.776952295899
 20
80176.636518554427
 42
-0.0179866351088227
 10
15339.766619290825
 20
80176.779409367518
 10
15339.766562848379
 20
80176.780967054132
 42
-0.0085497186007279
 10
15339.765130567275
 20
80176.855840219141
 42
-0.0085497186007279
  0
ENDBLK
  5
12B
100
AcDbEntity
  8
template
390
0
100
AcDbBlockEnd
  0
BLOCK
  5
12C
100
AcDbEntity
  8
template
390
0
100
AcDbBlockBegin
  2
*D19
 70
               1
 10
0.0
 20
0.0
 30
0.0
  3
*D19
  1

  0
LINE
  5
12D
100
AcDbEntity
  8
0
370
              -2
390
0
  6
Continuous
 62
               0
100
AcDbLine
 10
-422.61883674670389
 20
693.12461030729173
 30
0.0
 11
-292.00000000000182
 21
806.0
 31
0.0
  0
CIRCLE
  5
12E
102
{ACAD_REACTORS
330
12F
102
}
100
AcDbEntity
  8
0
370
              -2
390
0
  6
Continuous
 62
               0
100
AcDbCircle
 10
-422.61883674670389
 20
693.12461030729173
 30
0.0
 40
1.9998779296875
  0
HATCH
  5
12F
100
AcDbEntity
  8
0
370
              -2
390
0
  6
Continuous
 62
               0
100
AcDbHatch
 10
0.0
 20
0.0
 30
0.0
210
0.0
220
0.0
230
1.0
  2
SOLID
 70
               1
 71
               1
 91
        1
 92
        1
 93
        1
 72
               2
 10
-422.61883674670389
 20
693.12461030729173
 40
1.9998779296875
 50
0.0
 51
360.0
 73
               0
 97
        1
330
12E
 75
               0
 76
               1
 98
        1
 10
0.0
 20
0.0
  0
LINE
  5
130
100
AcDbEntity
  8
0
370
              -2
390
0
  6
Continuous
 62
               0
100
AcDbLine
 10
-292.00000000000182
 20
806.0
 30
0.0
 11
-218.50000000000182
 21
806.0
 31
0.0
  0
MTEXT
  5
131
100
AcDbEntity
  8
0
390
0
 62
               0
100
AcDbMText
 10
-282.00000000000182
 20
839.87761718750698
 30
0.0
 40
24.432617187500004
 41
0.0
 71
               1
 72
               1
  1
φ37
  7
ＭＳ ゴシック
 73
               1
 44
0.7828267384257843
  0
POINT
  5
132
100
AcDbEntity
  8
Defpoints
370
               0
390
0
 62
               0
100
AcDbPoint
 10
-450.61405472501065
 20
668.93230223337014
 30
0.0
  0
POINT
  5
133
100
AcDbEntity
  8
Defpoints
370
               0
390
0
 62
               0
100
AcDbPoint
 10
-422.61883674670389
 20
693.12461030729173
 30
0.0
  0
ENDBLK
  5
134
100
AcDbEntity
  8
template
390
0
100
AcDbBlockEnd
  0
ENDSEC
  0
SECTION
  2
ENTITIES
  0
CIRCLE
  5
135
100
AcDbEntity
  8
lavabo incasso DOLCEVITA
370
              15
390
0
  6
Continuous
 62
               7
100
AcDbCircle
 10
-436.67819815166513
 20
560.94734959410562
 30
0.0
 40
36.986523437499272
  0
SPLINE
  5
136
100
AcDbEntity
  8
lavabo incasso DOLCEVITA
370
              15
390
0
  6
Continuous
 62
               7
100
AcDbSpline
210
0.0
220
0.0
230
1.0
 70
               9
 71
               2
 72
              17
 73
              14
 74
               0
 42
0.000001
 43
0.000001
 40
0.0
 40
0.0
 40
0.0
 40
1.0
 40
2.0
 40
3.0
 40
4.0
 40
5.0
 40
6.0
 40
7.0
 40
8.0
 40
9.0
 40
10.0
 40
11.0
 40
12.0
 40
12.0
 40
12.0
 10
-216.67794424541717
 20
489.02736912538239
 30
0.0
 10
-216.67794424541717
 20
527.8800020278868
 30
0.0
 10
-275.6267665802643
 20
595.17473622287798
 30
0.0
 10
-377.72912191057003
 20
634.02736912538239
 30
0.0
 10
-495.6267665802643
 20
634.02736912538239
 30
0.0
 10
-597.72912191057003
 20
595.17473622287798
 30
0.0
 10
-656.67794424541717
 20
527.8800020278868
 30
0.0
 10
-656.67794424541717
 20
450.17473622284888
 30
0.0
 10
-597.72912191057003
 20
382.8800020278868
 30
0.0
 10
-495.6267665802643
 20
344.02736912538239
 30
0.0
 10
-377.72912191057003
 20
344.02736912538239
 30
0.0
 10
-275.6267665802643
 20
382.8800020278868
 30
0.0
 10
-216.67794424541717
 20
450.17473622284888
 30
0.0
 10
-216.67794424541717
 20
489.02736912538239
 30
0.0
  0
SPLINE
  5
137
100
AcDbEntity
  8
lavabo incasso DOLCEVITA
370
              15
390
0
  6
Continuous
 62
               7
100
AcDbSpline
210
0.0
220
0.0
230
1.0
 70
               9
 71
               2
 72
              17
 73
              14
 74
               0
 42
0.000001
 43
0.000001
 40
0.0
 40
0.0
 40
0.0
 40
1.0
 40
2.0
 40
3.0
 40
4.0
 40
5.0
 40
6.0
 40
7.0
 40
8.0
 40
9.0
 40
10.0
 40
11.0
 40
12.0
 40
12.0
 40
12.0
 10
-164.77862783916498
 20
530.95848240661144
 30
0.0
 10
-164.77862783916498
 20
581.04645521660859
 30
0.0
 10
-237.63389812676905
 20
667.80136897163175
 30
0.0
 10
-363.82292786406106
 20
717.8893417816289
 30
0.0
 10
-509.5334684392692
 20
717.8893417816289
 30
0.0
 10
-635.7224981765612
 20
667.80136897163175
 30
0.0
 10
-708.57776846416527
 20
581.04645521660859
 30
0.0
 10
-708.57776846416527
 20
480.87050959664339
 30
0.0
 10
-635.72249817656484
 20
394.11559584162023
 30
0.0
 10
-509.53346843927284
 20
344.02762303162308
 30
0.0
 10
-363.8229278640647
 20
344.02762303162308
 30
0.0
 10
-237.63389812677269
 20
394.11559584162023
 30
0.0
 10
-164.77862783916498
 20
480.87050959664339
 30
0.0
 10
-164.77862783916498
 20
530.95848240661144
 30
0.0
  0
CIRCLE
  5
138
100
AcDbEntity
  8
lavabo incasso DOLCEVITA
370
              15
390
0
  6
Continuous
 62
               7
100
AcDbCircle
 10
-436.67819815166513
 20
560.94734959410562
 30
0.0
 40
24.491035156250291
  0
CIRCLE
  5
139
100
AcDbEntity
  8
lavabo incasso DOLCEVITA
370
              15
390
0
  6
Continuous
 62
               7
100
AcDbCircle
 10
-436.61644573585181
 20
681.02845627033093
 30
0.0
 40
18.5
  0
LWPOLYLINE
  5
13A
100
AcDbEntity
  8
lavabo incasso DOLCEVITA
370
               9
390
0
  6
STYLE_11
 62
               7
100
AcDbPolyline
 90
        4
 70
             128
 10
624.4266955857529
 20
-543.36805574575556
 10
622.58122541382363
 20
-549.84723295652657
 42
-0.1922172627802293
 10
607.3048519496042
 20
-569.64134188694879
 10
605.78235964825944
 20
-570.54099850673811
  0
LWPOLYLINE
  5
13B
100
AcDbEntity
  8
lavabo incasso DOLCEVITA
370
               9
390
0
  6
Continuous
 62
               7
100
AcDbPolyline
 90
        2
 70
             128
 10
628.56300850558546
 20
-557.48118074572994
 42
-0.1169492668139365
 10
612.87929324196557
 20
-571.36807527701603
 42
-0.1169492668139365
  0
LINE
  5
13C
100
AcDbEntity
  8
lavabo incasso DOLCEVITA
370
               9
390
0
  6
Continuous
 62
               7
100
AcDbLine
 10
612.87929324201104
 20
-571.36807527698693
 30
0.0
 11
608.40038699200886
 21
-575.84698152699275
 31
0.0
  0
LINE
  5
13D
100
AcDbEntity
  8
lavabo incasso DOLCEVITA
370
               9
390
0
  6
Continuous
 62
               7
100
AcDbLine
 10
753.8332385545109
 20
-476.57245027698809
 30
0.0
 11
313.86372683575973
 21
-476.57245027698809
 31
0.0
  0
LINE
  5
13E
100
AcDbEntity
  8
lavabo incasso DOLCEVITA
370
               9
390
0
  6
Continuous
 62
               7
100
AcDbLine
 10
768.40542605450901
 20
-416.61325105823926
 30
0.0
 11
298.76468386701163
 21
-416.53403230824915
 31
0.0
  0
LWPOLYLINE
  5
13F
100
AcDbEntity
  8
lavabo incasso DOLCEVITA
370
               9
390
0
  6
Continuous
 62
               7
100
AcDbPolyline
 90
        2
 70
             128
 10
755.83275027326272
 20
-463.14741121449333
 42
-0.207210270185694
 10
772.24769003873371
 20
-425.23870543306111
 42
-0.207210270185694
  0
LWPOLYLINE
  5
140
100
AcDbEntity
  8
lavabo incasso DOLCEVITA
370
               9
390
0
  6
Continuous
 62
               7
100
AcDbPolyline
 90
        2
 70
             128
 10
768.40543615730712
 20
-416.61334449675633
 42
-0.7111404054002807
 10
772.24744309063317
 20
-425.23870314657688
 42
-0.7111404054002807
  0
LWPOLYLINE
  5
141
100
AcDbEntity
  8
lavabo incasso DOLCEVITA
370
               9
390
0
  6
STYLE_11
 62
               7
100
AcDbPolyline
 90
        2
 70
             128
 10
637.46309307988304
 20
-476.57245027698809
 42
-0.0777467186096333
 10
624.42669558576017
 20
-543.368055745741
 42
-0.0777467186096333
  0
LWPOLYLINE
  5
142
100
AcDbEntity
  8
lavabo incasso DOLCEVITA
370
               9
390
0
  6
Continuous
 62
               7
100
AcDbPolyline
 90
        2
 70
             128
 10
649.34518713980833
 20
-476.57245027698809
 42
-0.0919999488497616
 10
628.56300850557454
 20
-557.4811807457445
 42
-0.0919999488497616
  0
LINE
  5
143
100
AcDbEntity
  8
lavabo incasso DOLCEVITA
370
               9
390
0
  6
Continuous
 62
               7
100
AcDbLine
 10
755.83249636701294
 20
-474.57319246449333
 30
0.0
 11
755.83249636701294
 21
-463.14741121449333
 31
0.0
  0
LWPOLYLINE
  5
144
100
AcDbEntity
  8
lavabo incasso DOLCEVITA
370
               9
390
0
  6
Continuous
 62
               7
100
AcDbPolyline
 90
        2
 70
             128
 10
755.83249636701294
 20
-474.57319246449333
 42
-0.4142135623709632
 10
753.83323855451272
 20
-476.57245027698809
 42
-0.4142135623709632
  0
LWPOLYLINE
  5
145
100
AcDbEntity
  8
lavabo incasso DOLCEVITA
370
               9
390
0
  6
Continuous
 62
               7
100
AcDbPolyline
 90
        2
 70
             128
 10
527.15365763135742
 20
-599.17081424796197
 42
-0.2402137068329401
 10
339.39142144020116
 20
-476.57245027698809
 42
-0.2402137068329401
  0
LWPOLYLINE
  5
146
100
AcDbEntity
  8
lavabo incasso DOLCEVITA
370
               9
390
0
  6
Continuous
 62
               7
100
AcDbPolyline
 90
        2
 70
             128
 10
295.45013396404465
 20
-425.23846650747873
 42
-0.2072102246769633
 10
311.86497683378366
 20
-463.1478648386983
 42
-0.2072102246769633
  0
LWPOLYLINE
  5
147
100
AcDbEntity
  8
lavabo incasso DOLCEVITA
370
               9
390
0
  6
Continuous
 62
               7
100
AcDbPolyline
 90
        2
 70
             128
 10
295.44923658421612
 20
-425.23867330331996
 42
-0.6654883373381042
 10
298.76468386701163
 20
-416.53403230824915
 42
-0.6654883373381042
  0
LINE
  5
148
100
AcDbEntity
  8
lavabo incasso DOLCEVITA
370
               9
390
0
  6
STYLE_11
 62
               7
100
AcDbLine
 10
593.28712527325843
 20
-584.0
 30
0.0
 11
593.28712527325843
 21
-611.48221590199682
 31
0.0
  0
LINE
  5
149
100
AcDbEntity
  8
lavabo incasso DOLCEVITA
370
               9
390
0
  6
STYLE_11
 62
               7
100
AcDbLine
 10
605.78235964825944
 20
-570.54099850673811
 30
0.0
 11
593.28712527325843
 21
-583.03648678798345
 31
0.0
  0
LINE
  5
14A
100
AcDbEntity
  8
lavabo incasso DOLCEVITA
370
               9
390
0
  6
STYLE_11
 62
               7
100
AcDbLine
 10
531.81032839826003
 20
-571.67105873467517
 30
0.0
 11
544.30556277326104
 21
-584.16654701592051
 31
0.0
  0
LINE
  5
14B
100
AcDbEntity
  8
lavabo incasso DOLCEVITA
370
               9
390
0
  6
STYLE_11
 62
               7
100
AcDbLine
 10
544.30556277326104
 20
-584.0
 30
0.0
 11
544.30556277326104
 21
-611.48221590199682
 31
0.0
  0
LWPOLYLINE
  5
14C
100
AcDbEntity
  8
lavabo incasso DOLCEVITA
370
               9
390
0
  6
STYLE_11
 62
               7
100
AcDbPolyline
 90
        3
 70
             128
 10
531.81032839826003
 20
-571.67105873467517
 42
-0.2422341481657032
 10
375.37810958702903
 20
-482.40103102862486
 10
371.58505496076032
 20
-476.57245027698809
  0
LINE
  5
14D
100
AcDbEntity
  8
lavabo incasso DOLCEVITA
370
               9
390
0
  6
Continuous
 62
               7
100
AcDbLine
 10
605.28267214825973
 20
-611.57970805783407
 30
0.0
 11
608.40038699200886
 21
-575.84698152699275
 31
0.0
  0
LINE
  5
14E
100
AcDbEntity
  8
lavabo incasso DOLCEVITA
370
               9
390
0
  6
Continuous
 62
               7
100
AcDbLine
 10
532.30976199200995
 20
-611.57945415157883
 30
0.0
 11
605.28267214825973
 21
-611.57970805783407
 31
0.0
  0
LINE
  5
14F
100
AcDbEntity
  8
lavabo incasso DOLCEVITA
370
               9
390
0
  6
Continuous
 62
               7
100
AcDbLine
 10
532.30976199200995
 20
-611.57945415157883
 30
0.0
 11
531.66229780668618
 21
-603.71128830361704
 31
0.0
  0
LWPOLYLINE
  5
150
100
AcDbEntity
  8
lavabo incasso DOLCEVITA
370
               9
390
0
  6
Continuous
 62
               7
100
AcDbPolyline
 90
        2
 70
             128
 10
527.15365763135742
 20
-599.17081424796197
 42
-0.3619955386931471
 10
531.66229780668618
 20
-603.71128830361704
 42
-0.3619955386931471
  0
LWPOLYLINE
  5
151
100
AcDbEntity
  8
lavabo incasso DOLCEVITA
370
               9
390
0
  6
Continuous
 62
               7
100
AcDbPolyline
 90
        2
 70
             128
 10
313.86372683576155
 20
-476.57245027698809
 42
-0.4142135623754934
 10
311.86446902326134
 20
-474.57319246449333
 42
-0.4142135623754934
  0
LINE
  5
152
100
AcDbEntity
  8
lavabo incasso DOLCEVITA
370
               9
390
0
  6
Continuous
 62
               7
100
AcDbLine
 10
311.86446902326134
 20
-474.57319246449333
 30
0.0
 11
311.86446902326134
 21
-463.14741121449333
 31
0.0
  0
LWPOLYLINE
  5
153
100
AcDbEntity
  8
lavabo incasso DOLCEVITA
370
              15
390
0
  6
Continuous
 62
               7
100
AcDbPolyline
 90
      208
 70
             128
 10
-761.61977492533515
 20
525.94716940421495
 42
0.0015382923149824
 10
-761.61644573585181
 20
524.86506635743717
 10
-761.60145204433502
 20
522.42835228881449
 42
0.0153043070921759
 10
-761.3826783955119
 20
516.47952927464212
 10
-761.11530260574727
 20
512.51651031171787
 42
0.0237725014975169
 10
-759.52351714644828
 20
498.72407153730455
 10
-759.27968800928102
 20
497.23623480903916
 42
0.0185089906058079
 10
-756.60463865532074
 20
484.00252436651499
 42
0.0182287367756052
 10
-752.9653611423837
 20
471.00059575222258
 10
-752.92950237404875
 20
470.88840924730175
 42
0.0181965176760695
 10
-748.27382969523933
 20
457.9643207697809
 10
-748.21077070708634
 20
457.80742171358725
 42
0.0178901226439621
 10
-742.49805557110267
 20
444.94349309461541
 10
-742.44285855391172
 20
444.8302987049683
 42
0.0174302132883635
 10
-735.71816192217921
 20
432.17894613301905
 10
-735.63754880348461
 20
432.03926141404372
 42
0.0171594922088135
 10
-727.88374822320111
 20
419.609217378209
 10
-727.7821660249665
 20
419.45817159465514
 42
0.0166026743455151
 10
-718.99413339856619
 20
407.28410707633884
 10
-718.90909788526915
 20
407.17418930731947
 42
0.0160912498841136
 10
-709.1671599936144
 20
395.3857805118023
 10
-709.05680228276105
 20
395.26066625589738
 42
0.0156050100018179
 10
-698.35906786975283
 20
383.86958789199707
 10
-698.239824460401
 20
383.75030366361898
 42
0.0150442206823549
 10
-686.61857987740223
 20
372.80435896545532
 10
-686.49757582649181
 20
372.69706927792868
 42
0.0146044063969388
 10
-673.99973190632954
 20
362.25141455829726
 10
-673.84720544715492
 20
362.13132193998899
 42
0.0141571165367608
 10
-660.45759533715864
 20
352.1897995849431
 10
-660.31328462227611
 20
352.08886101454846
 42
0.0136942072426121
 10
-646.09670198441381
 20
342.71409674985625
 10
-645.97530662032477
 20
342.63873248970776
 42
0.0132592014843347
 10
-631.02732460861262
 20
333.89914870703069
 10
-630.90652491961373
 20
333.83275473918184
 42
0.0128213551684802
 10
-615.27804191813811
 20
325.75767188541067
 10
-615.16012127716749
 20
325.70052503875922
 42
0.0124877754524009
 10
-598.90428537096159
 20
318.31803282485635
 10
-598.7911937285935
 20
318.27004230495368
 42
0.0121502153348121
 10
-581.96281622513379
 20
311.60662803167361
 10
-581.85655334985677
 20
311.56751092639752
 42
0.0118452419501123
 10
-564.51339411487606
 20
305.64578513409651
 10
-564.41576655549034
 20
305.61501286397106
 42
0.0116311122932285
 10
-546.61703534331537
 20
300.45676212549733
 10
-546.52952282862316
 20
300.43359235567914
 42
0.0113972592933844
 10
-528.3360023533769
 20
296.05786259789602
 10
-528.2600721515264
 20
296.04142176223104
 42
0.0112650523059775
 10
-509.73434864375849
 20
292.46501621320203
 10
-504.94698374027575
 20
291.6522208256356
 42
0.022071780815401
 10
-476.60990608619613
 20
288.11917318728229
 10
-476.54886032007198
 20
288.11428504990181
 42
0.0109189829632967
 10
-447.89727729944752
 20
286.44873726060905
 10
-447.83381153736264
 20
286.44643697548599
 42
0.0217977969627511
 10
-419.03526780259926
 20
286.65839937591227
 10
-414.20708457312139
 20
286.90470620946144
 42
0.0109512258305254
 10
-395.11178978560201
 20
288.29868273800821
 10
-395.0717045568399
 20
288.30249316502886
 42
0.0110343490212608
 10
-376.13617065989092
 20
290.52506624112721
 10
-376.08194587196522
 20
290.53264737417339
 42
0.0111218904824149
 10
-357.37158153847304
 20
293.5742323838349
 10
-357.30393832135996
 20
293.58677876726142
 42
0.0112944503292088
 10
-338.88347829301711
 20
297.43566277138598
 10
-338.80348316244454
 20
297.45427252436639
 42
0.0114735425895374
 10
-320.73651136979061
 20
302.09672697485075
 10
-320.6454728169083
 20
302.1223605783016
 42
0.0116776423884382
 10
-302.99368253125976
 20
307.54050556226866
 10
-302.89290123401588
 20
307.57403446211538
 42
0.0119697660882608
 10
-285.71707244391291
 20
313.74868068881915
 10
-285.60831446078009
 20
313.79074482852593
 42
0.0122503215434271
 10
-268.96715450575357
 20
320.70028331884532
 10
-268.85225172808896
 20
320.75132679236413
 42
0.0125812236254851
 10
-252.80195794765677
 20
328.37048725955538
 10
-252.68276710586179
 20
328.43078778761264
 42
0.0129932492054101
 10
-237.27840080371971
 20
336.73364893927646
 10
-237.15720017848071
 20
336.80309837426466
 42
0.0133813202912812
 10
-222.45081618434779
 20
345.76108594544348
 10
-222.32973120625866
 20
345.83935886110703
 42
0.0138451250156828
 10
-208.37066998438968
 20
355.42105675974744
 10
-208.25192861242795
 20
355.50749436565093
 42
0.0143636412949708
 10
-195.08804274193426
 20
365.68116176067269
 10
-194.97384498654537
 20
365.77477930740861
 42
0.0148583849301348
 10
-182.64963751866526
 20
376.50576882401947
 10
-182.54245137253019
 20
376.60484862593876
 42
0.0154382617865554
 10
-171.09909977168354
 20
387.8574101961276
 10
-171.00071931108869
 20
387.96031385089736
 42
0.0160144138976518
 10
-160.47767972777547
 20
399.69761034238036
 10
-160.38984279745819
 20
399.80213178922713
 42
0.0165791274525159
 10
-150.82257355842194
 20
411.98483364318963
 10
-150.74661224090596
 20
412.08845662536623
 42
0.0172201979477772
 10
-142.16900780894866
 20
424.67673740815371
 10
-142.10596209055802
 20
424.77647640441137
 42
0.0177695482917458
 10
-134.54860542677488
 20
437.72944937601278
 10
-134.43988662214724
 20
437.93199499996263
 42
0.0183263461377893
 10
-128.03897363942087
 20
450.98323270077526
 10
-127.92227338248995
 20
451.24503094627289
 42
0.0182220624253129
 10
-122.70548449876151
 20
464.19754612646648
 10
-122.65691862536551
 20
464.33207552086969
 42
0.0181958852202004
 10
-118.48364169417619
 20
477.3576396034332
 10
-118.46608703829042
 20
477.42017548192234
 42
0.0185568217747128
 10
-115.29106568259522
 20
490.59046824640245
 10
-115.28106216283231
 20
490.63995660377259
 42
0.0187475275862282
 10
-113.11276768188327
 20
503.91047876188532
 10
-113.11034914210904
 20
503.92980902139971
 42
0.0188594118405063
 10
-111.94863615986105
 20
517.28683360427385
 42
0.0189807418889844
 10
-111.80002781861731
 20
530.69333565143461
 10
-111.80034334298762
 20
530.70507432224986
 42
0.018992281749995
 10
-112.67075383974407
 20
544.10762304454693
 10
-112.67354436537789
 20
544.1346639157855
 42
0.0188404064385902
 10
-114.56211631581391
 20
557.48703209245286
 10
-114.57060832577008
 20
557.53418494893413
 42
0.0187462764454045
 10
-117.4770400163743
 20
570.8006627914292
 10
-117.50006186855535
 20
570.88964906334877
 42
0.0185317508994251
 10
-121.43911942616251
 20
584.07904617524764
 10
-121.46872928164157
 20
584.16626514284872
 42
0.0181498605459392
 10
-126.42943903178275
 20
597.2039230484952
 10
-126.47403507830859
 20
597.30944038732559
 42
0.0178881014031769
 10
-132.45738614406582
 20
610.16387115235557
 10
-132.52547928769854
 20
610.29745285582612
 42
0.017434519234408
 10
-139.54671231546854
 20
622.96001884421275
 10
-139.61301605190056
 20
623.0703429694986
 42
0.0169274231510753
 10
-147.62732232093185
 20
635.43725825056026
 10
-147.71316803239824
 20
635.56038583896589
 42
0.0164918924859499
 10
-156.71535568452236
 20
647.60514842072735
 10
-156.81783004664612
 20
647.73322266101604
 42
0.0159136225833197
 10
-166.79439322418511
 20
659.41951976693235
 10
-166.89336863719291
 20
659.52825146002579
 42
0.015421161142979
 10
-177.78698091574734
 20
670.7783407773386
 10
-177.92934237372538
 20
670.91656527947634
 42
0.0150235719409
 10
-189.78035239009841
 20
681.75086998693587
 10
-189.92848309485635
 20
681.87833829360898
 42
0.014487079241681
 10
-202.70168730377372
 20
692.24123968840286
 10
-202.81777108698589
 20
692.32996817812091
 42
0.0140124397681848
 10
-216.39786658902449
 20
702.11950073803018
 10
-216.51728082573027
 20
702.20059741495061
 42
0.0135055666025658
 10
-230.85871443108954
 20
711.38421900266258
 10
-230.97912421419096
 20
711.45681521261577
 42
0.013093175964486
 10
-246.03333795038452
 20
720.0038976445212
 10
-246.1526280335911
 20
720.06755412998609
 42
0.0127095655955325
 10
-261.86962595911973
 20
727.94809002440888
 10
-261.98566716035566
 20
728.00262797457981
 42
0.0123249967303196
 10
-278.31229552456898
 20
735.19015036597557
 10
-278.42297814089397
 20
735.23565391037846
 42
0.012041183057414
 10
-295.30399264880725
 20
741.70507724034542
 10
-295.40757933319765
 20
741.74194021258154
 42
0.011755799025155
 10
-312.78627947448149
 20
747.46983827477379
 10
-312.88100589828173
 20
747.4986089818849
 42
0.0115000693447421
 10
-330.69810477467399
 20
752.46554102154914
 10
-330.78242629915439
 20
752.48697053025535
 42
0.0113325013035593
 10
-348.97734535522613
 20
756.67447078302212
 10
-349.05003752560515
 20
756.68947459096671
 42
0.0111764741844276
 10
-367.56107647759745
 20
760.08071361308976
 10
-372.33610678506739
 20
760.84562137929606
 42
0.021948443488714
 10
-400.61642166873753
 20
764.11083183537994
 10
-400.67242271192663
 20
764.11481797821762
 42
0.010853411476124
 10
-429.23877346563495
 20
765.52582684159279
 10
-429.2929020524407
 20
765.52732377055509
 42
0.0217224795802537
 10
-457.96691141471092
 20
765.07452005657251
 10
-462.77577434465456
 20
764.78919740548008
 42
0.0109085336519392
 10
-481.76715521047299
 20
763.24600478424691
 10
-481.80951165588885
 20
763.24163104619947
 42
0.0109982604597751
 10
-500.63052631293249
 20
760.87875342968618
 10
-500.68678420303877
 20
760.87042993675277
 42
0.0111244031885234
 10
-519.27267875383768
 20
757.69658723076282
 10
-519.34193076658266
 20
757.68316937658528
 42
0.0112527154403049
 10
-537.62929118976899
 20
753.71098018367775
 10
-537.71059299164517
 20
753.69139494016417
 42
0.0114665438955952
 10
-555.63686326513198
 20
748.93560039802105
 10
-555.72891073921164
 20
748.90890679597214
 42
0.0116888282788108
 10
-573.2328783488083
 20
743.38608300854685
 10
-573.33413880136322
 20
743.35151087571285
 42
0.0119344928558605
 10
-590.3567938320557
 20
737.08220230432926
 10
-590.46578001671696
 20
737.03908269027306
 42
0.0122699683406813
 10
-606.9491411074323
 20
730.04508041206282
 10
-607.06390303464832
 20
729.9930273891805
 42
0.0125936334707578
 10
-622.95224271952975
 20
722.29832227982115
 10
-623.07079877383694
 20
722.23717311292421
 42
0.0129664636034321
 10
-638.31114515477748
 20
713.86922575172503
 10
-638.43152789041233
 20
713.79900532339525
 42
0.0134214047763572
 10
-652.97208428996419
 20
704.78582585834374
 10
-653.09194704752554
 20
704.70699725956365
 42
0.0138489640097876
 10
-666.88406879530521
 20
695.07900880783563
 10
-667.00126979729612
 20
694.99226895371976
 42
0.0143500767226291
 10
-679.99918233884091
 20
684.78255481392262
 10
-680.11153919478056
 20
684.68896413396578
 42
0.0149027902177063
 10
-692.2709331737824
 20
673.930814131425
 10
-692.37626640191593
 20
673.83186941883469
 42
0.0154213452440554
 10
-703.65656664595735
 20
662.56111296871677
 10
-703.75293783861162
 20
662.45869328091794
 42
0.0160235089142453
 10
-714.11626796361816
 20
650.71257951896405
 10
-714.20204153172563
 20
650.60884264444758
 42
0.0166135530553059
 10
-723.61236228698181
 20
638.42523946083384
 10
-724.78107592325978
 20
636.80346783713321
 42
0.0172041659440773
 10
-731.12305034178462
 20
627.33236248031608
 10
-731.16940319645437
 20
627.25770635373192
 42
0.0087995662071644
 10
-736.92299811475095
 20
617.61636576161254
 42
0.0180529198113675
 10
-742.14820480079834
 20
607.68503706880438
 10
-742.96942454397868
 20
605.97728674893733
 42
0.0185464243937882
 10
-748.80260016847387
 20
592.59822734296904
 10
-748.85354799394554
 20
592.46843618871935
 42
0.0190231227881109
 10
-753.57398652875781
 20
578.95285556087038
 10
-753.60747518281096
 20
578.84381340027903
 42
0.0191162954443025
 10
-757.2257853274823
 20
565.22826917175553
 10
-757.22879452326561
 20
565.21490760853339
 42
0.0193982818408669
 10
-759.7837209256104
 20
551.38853888548329
 10
-759.90396481929201
 20
550.55890385223029
 42
0.019796780259515
 10
-761.19390689587453
 20
538.24155209375022
 10
-761.24894305196358
 20
537.3928511437407
 42
0.0151064603976929
 10
-761.61811967589892
 20
526.71065141136933
 42
0.0010837932242975
 10
-761.61977492533515
 20
525.94716940421495
 42
0.0010837932242975
  0
CIRCLE
  5
154
100
AcDbEntity
  8
lavabo incasso DOLCEVITA
370
              15
390
0
  6
STYLE_11
 62
               7
100
AcDbCircle
 10
-336.61644573575904
 20
681.02845627033093
 30
0.0
 40
17.5
  0
CIRCLE
  5
155
100
AcDbEntity
  8
lavabo incasso DOLCEVITA
370
              15
390
0
  6
STYLE_11
 62
               7
100
AcDbCircle
 10
-536.61644573575904
 20
681.02845627033093
 30
0.0
 40
17.5
  0
SPLINE
  5
156
100
AcDbEntity
  8
lavabo incasso DOLCEVITA
370
               5
390
0
  6
STYLE_11
 62
               7
100
AcDbSpline
210
0.0
220
0.0
230
1.0
 70
               8
 71
               2
 72
               7
 73
               4
 74
               0
 42
0.000001
 43
0.000001
 40
0.0
 40
0.0
 40
0.0
 40
1.0
 40
2.0
 40
2.0
 40
2.0
 10
637.46309307988122
 20
-476.57245027698809
 30
0.0
 10
638.88717837051627
 20
-446.84292821864074
 30
0.0
 10
647.77214781943258
 20
-437.52546396301477
 30
0.0
 10
655.58505496076032
 20
-437.5784581767075
 30
0.0
  0
SPLINE
  5
157
100
AcDbEntity
  8
lavabo incasso DOLCEVITA
370
               5
390
0
  6
STYLE_11
 62
               7
100
AcDbSpline
210
0.0
220
0.0
230
1.0
 70
               8
 71
               2
 72
               7
 73
               4
 74
               0
 42
0.000001
 43
0.000001
 40
0.0
 40
0.0
 40
0.0
 40
1.0
 40
2.0
 40
2.0
 40
2.0
 10
726.19881848287332
 20
-437.52546396301477
 30
0.0
 10
730.00672259131716
 20
-437.52546396301477
 30
0.0
 10
760.61780237714265
 20
-416.59293840546161
 30
0.0
 10
768.52365182338872
 20
-416.59293840546161
 30
0.0
  0
LINE
  5
158
100
AcDbEntity
  8
lavabo incasso DOLCEVITA
370
              15
390
0
  6
Continuous
 62
               7
100
AcDbLine
 10
706.352340926127
 20
-437.52546396301477
 30
0.0
 11
706.352340926127
 21
-452.52546396301477
 31
0.0
  0
LINE
  5
159
100
AcDbEntity
  8
lavabo incasso DOLCEVITA
370
              15
390
0
  6
Continuous
 62
               7
100
AcDbLine
 10
671.352340926127
 20
-437.52546396301477
 30
0.0
 11
671.352340926127
 21
-452.52546396301477
 31
0.0
  0
LINE
  5
15A
100
AcDbEntity
  8
lavabo incasso DOLCEVITA
370
               5
390
0
  6
STYLE_11
 62
               7
100
AcDbLine
 10
726.19881848287332
 20
-437.52546396301477
 30
0.0
 11
361.0
 21
-437.52546396301477
 31
0.0
  0
SPLINE
  5
15B
100
AcDbEntity
  8
lavabo incasso DOLCEVITA
370
               5
390
0
  6
STYLE_11
 62
               7
100
AcDbSpline
210
0.0
220
0.0
230
1.0
 70
               8
 71
               2
 72
               7
 73
               4
 74
               0
 42
0.000001
 43
0.000001
 40
0.0
 40
0.0
 40
0.0
 40
1.0
 40
2.0
 40
2.0
 40
2.0
 10
341.50586336938068
 20
-437.52546396301477
 30
0.0
 10
337.69795926093684
 20
-437.52546396301477
 30
0.0
 10
307.08687947511135
 20
-416.59293840546161
 30
0.0
 10
299.18103002886528
 20
-416.59293840546161
 30
0.0
  0
LINE
  5
15C
100
AcDbEntity
  8
lavabo incasso DOLCEVITA
370
               5
390
0
  6
STYLE_11
 62
               7
100
AcDbLine
 10
341.50586336938068
 20
-437.52546396301477
 30
0.0
 11
351.851253781173
 21
-437.52546396301477
 31
0.0
  0
SPLINE
  5
15D
100
AcDbEntity
  8
lavabo incasso DOLCEVITA
370
               5
390
0
  6
STYLE_11
 62
               7
100
AcDbSpline
210
0.0
220
0.0
230
1.0
 70
               8
 71
               2
 72
               7
 73
               4
 74
               0
 42
0.000001
 43
0.000001
 40
0.0
 40
0.0
 40
0.0
 40
1.0
 40
2.0
 40
2.0
 40
2.0
 10
371.58505496076032
 20
-476.57245027698809
 30
0.0
 10
366.58505496076032
 20
-466.80252474722511
 30
0.0
 10
363.46333252742079
 20
-440.80252474722511
 30
0.0
 10
351.17696837544645
 20
-437.52546396301477
 30
0.0
  0
LWPOLYLINE
  5
15E
100
AcDbEntity
  8
lavabo incasso DOLCEVITA
370
               9
390
0
  6
Continuous
 62
               7
100
AcDbPolyline
 90
        3
 70
             128
 10
-479.2601601783681
 20
-599.17081424796197
 10
-502.26488617415453
 20
-597.08749966004689
 42
-0.2446167301357138
 10
-690.23327110075479
 20
-476.57245027698809
 42
-0.2446167301357138
  0
LWPOLYLINE
  5
15F
100
AcDbEntity
  8
lavabo incasso DOLCEVITA
370
               9
390
0
  6
Continuous
 62
               7
100
AcDbPolyline
 90
        2
 70
             128
 10
-760.0941093253532
 20
-425.23846650746418
 42
-0.20721022467699
 10
-743.67926645561602
 20
-463.14786483868374
 42
-0.20721022467699
  0
LWPOLYLINE
  5
160
100
AcDbEntity
  8
lavabo incasso DOLCEVITA
370
               9
390
0
  6
Continuous
 62
               7
100
AcDbPolyline
 90
        2
 70
             128
 10
-760.09500670518173
 20
-425.23867330331996
 42
-0.665488337338881
 10
-756.77955942238805
 20
-416.53403230824915
 42
-0.665488337338881
  0
LINE
  5
161
100
AcDbEntity
  8
lavabo incasso DOLCEVITA
370
               9
390
0
  6
STYLE_11
 62
               7
100
AcDbLine
 10
-473.66404862644413
 20
-561.50066334354051
 30
0.0
 11
-461.16881425144311
 21
-573.99615162478585
 31
0.0
  0
LINE
  5
162
100
AcDbEntity
  8
lavabo incasso DOLCEVITA
370
               9
390
0
  6
STYLE_11
 62
               7
100
AcDbLine
 10
-461.16881425144311
 20
-573.99615162478585
 30
0.0
 11
-461.16881425144311
 21
-611.48236256229575
 31
0.0
  0
LWPOLYLINE
  5
163
100
AcDbEntity
  8
lavabo incasso DOLCEVITA
370
               9
390
0
  6
STYLE_11
 62
               7
100
AcDbPolyline
 90
        4
 70
             128
 10
-473.6611355286841
 20
-561.41157888744783
 10
-491.74268742027925
 20
-560.7773612747842
 42
-0.2181503393638803
 10
-643.51917398773185
 20
-484.70231853828591
 10
-650.04781070692479
 20
-476.57245027698809
  0
LINE
  5
164
100
AcDbEntity
  8
lavabo incasso DOLCEVITA
370
               9
390
0
  6
Continuous
 62
               7
100
AcDbLine
 10
-473.16461503269602
 20
-611.57960081187775
 30
0.0
 11
-400.19170487644442
 21
-611.57985471813299
 31
0.0
  0
LINE
  5
165
100
AcDbEntity
  8
lavabo incasso DOLCEVITA
370
               9
390
0
  6
Continuous
 62
               7
100
AcDbLine
 10
-473.16461503269602
 20
-611.57960081187775
 30
0.0
 11
-473.81207921801979
 21
-603.71143496391596
 31
0.0
  0
LWPOLYLINE
  5
166
100
AcDbEntity
  8
lavabo incasso DOLCEVITA
370
               9
390
0
  6
Continuous
 62
               7
100
AcDbPolyline
 90
        2
 70
             128
 10
-478.32071939334855
 20
-599.17096090826089
 42
-0.3619955386924044
 10
-473.81207921801979
 20
-603.71143496391596
 42
-0.3619955386924044
  0
LWPOLYLINE
  5
167
100
AcDbEntity
  8
lavabo incasso DOLCEVITA
370
               9
390
0
  6
Continuous
 62
               7
100
AcDbPolyline
 90
        2
 70
             128
 10
-741.68051645363812
 20
-476.57245027698809
 42
-0.414213562374161
 10
-743.67977426613834
 20
-474.57319246449333
 42
-0.414213562374161
  0
LINE
  5
168
100
AcDbEntity
  8
lavabo incasso DOLCEVITA
370
               9
390
0
  6
Continuous
 62
               7
100
AcDbLine
 10
-743.67977426613834
 20
-474.57319246449333
 30
0.0
 11
-743.67977426613834
 21
-463.14741121449333
 31
0.0
  0
SPLINE
  5
169
100
AcDbEntity
  8
lavabo incasso DOLCEVITA
370
               5
390
0
  6
STYLE_11
 62
               7
100
AcDbSpline
210
0.0
220
0.0
230
1.0
 70
               8
 71
               2
 72
               7
 73
               4
 74
               0
 42
0.000001
 43
0.000001
 40
0.0
 40
0.0
 40
0.0
 40
1.0
 40
2.0
 40
2.0
 40
2.0
 10
-706.11882917157345
 20
-437.52546396301477
 30
0.0
 10
-710.63924381938341
 20
-437.52546396301477
 30
0.0
 10
-746.97807208511767
 20
-416.59293840546161
 30
0.0
 10
-756.36321326053439
 20
-416.59293840546161
 30
0.0
  0
LINE
  5
16A
100
AcDbEntity
  8
lavabo incasso DOLCEVITA
370
               5
390
0
  6
STYLE_11
 62
               7
100
AcDbLine
 10
-706.11882917157345
 20
-437.52546396301477
 30
0.0
 11
-670.45589729223866
 21
-437.52546396301477
 31
0.0
  0
SPLINE
  5
16B
100
AcDbEntity
  8
lavabo incasso DOLCEVITA
370
               5
390
0
  6
STYLE_11
 62
               7
100
AcDbSpline
210
0.0
220
0.0
230
1.0
 70
               8
 71
               2
 72
               7
 73
               4
 74
               0
 42
0.000001
 43
0.000001
 40
0.0
 40
0.0
 40
0.0
 40
1.0
 40
2.0
 40
2.0
 40
2.0
 10
-650.04781070692479
 20
-476.57245027698809
 30
0.0
 10
-655.04781070692479
 20
-466.80252474722511
 30
0.0
 10
-658.1695331402625
 20
-440.80252474722511
 30
0.0
 10
-670.45589729223866
 20
-437.52546396301477
 30
0.0
  0
LINE
  5
16C
100
AcDbEntity
  8
lavabo incasso DOLCEVITA
370
               5
390
0
  6
Continuous
 62
               7
100
AcDbLine
 10
-741.68051645363812
 20
-476.57245027698809
 30
0.0
 11
-131.67586376615145
 21
-476.57245027692989
 31
0.0
  0
LWPOLYLINE
  5
16D
100
AcDbEntity
  8
lavabo incasso DOLCEVITA
370
               9
390
0
  6
Continuous
 62
               7
100
AcDbPolyline
 90
        3
 70
             128
 10
-394.09623612496216
 20
-599.17081424796197
 10
-371.09151012918664
 20
-597.08749966004689
 42
0.2446167301357154
 10
-183.12312520257547
 20
-476.57245027698809
 42
0.2446167301357154
  0
LWPOLYLINE
  5
16E
100
AcDbEntity
  8
lavabo incasso DOLCEVITA
370
               9
390
0
  6
Continuous
 62
               7
100
AcDbPolyline
 90
        2
 70
             128
 10
-113.26228697797524
 20
-425.23846650747873
 42
0.2072102246771328
 10
-129.6771298477106
 20
-463.1478648386983
 42
0.2072102246771328
  0
LWPOLYLINE
  5
16F
100
AcDbEntity
  8
lavabo incasso DOLCEVITA
370
               9
390
0
  6
Continuous
 62
               7
100
AcDbPolyline
 90
        2
 70
             128
 10
-113.26138959814671
 20
-425.23867330331996
 42
0.6654883373395534
 10
-116.57683688094039
 20
-416.53403230824915
 42
0.6654883373395534
  0
LINE
  5
170
100
AcDbEntity
  8
lavabo incasso DOLCEVITA
370
               9
390
0
  6
STYLE_11
 62
               7
100
AcDbLine
 10
-399.69234767688431
 20
-561.50066334354051
 30
0.0
 11
-412.18758205188533
 21
-573.99615162478585
 31
0.0
  0
LINE
  5
171
100
AcDbEntity
  8
lavabo incasso DOLCEVITA
370
               9
390
0
  6
STYLE_11
 62
               7
100
AcDbLine
 10
-412.18758205188533
 20
-573.99615162478585
 30
0.0
 11
-412.18758205188533
 21
-611.48236256229575
 31
0.0
  0
LWPOLYLINE
  5
172
100
AcDbEntity
  8
lavabo incasso DOLCEVITA
370
               9
390
0
  6
STYLE_11
 62
               7
100
AcDbPolyline
 90
        4
 70
             128
 10
-399.69526077464434
 20
-561.41157888744783
 10
-381.61370888304555
 20
-560.77736127476965
 42
0.2181503393639149
 10
-229.8372223155875
 20
-484.7023185382568
 10
-223.30858559640546
 20
-476.57245027698809
  0
LINE
  5
173
100
AcDbEntity
  8
lavabo incasso DOLCEVITA
370
               9
390
0
  6
Continuous
 62
               7
100
AcDbLine
 10
-400.19178127063424
 20
-611.57960081187775
 30
0.0
 11
-399.54431708531047
 21
-603.71143496391596
 31
0.0
  0
LWPOLYLINE
  5
174
100
AcDbEntity
  8
lavabo incasso DOLCEVITA
370
               9
390
0
  6
Continuous
 62
               7
100
AcDbPolyline
 90
        2
 70
             128
 10
-395.0356769099817
 20
-599.17096090826089
 42
0.361995538692124
 10
-399.54431708531047
 20
-603.71143496391596
 42
0.361995538692124
  0
LWPOLYLINE
  5
175
100
AcDbEntity
  8
lavabo incasso DOLCEVITA
370
               9
390
0
  6
Continuous
 62
               7
100
AcDbPolyline
 90
        2
 70
             128
 10
-131.67587984969032
 20
-476.57245027698809
 42
0.414213562373095
 10
-129.6766220371901
 20
-474.57319246449333
 42
0.414213562373095
  0
LINE
  5
176
100
AcDbEntity
  8
lavabo incasso DOLCEVITA
370
               9
390
0
  6
Continuous
 62
               7
100
AcDbLine
 10
-129.6766220371901
 20
-474.57319246449333
 30
0.0
 11
-129.6766220371901
 21
-463.14741121449333
 31
0.0
  0
SPLINE
  5
177
100
AcDbEntity
  8
lavabo incasso DOLCEVITA
370
               5
390
0
  6
STYLE_11
 62
               7
100
AcDbSpline
210
0.0
220
0.0
230
1.0
 70
               8
 71
               2
 72
               7
 73
               4
 74
               0
 42
0.000001
 43
0.000001
 40
0.0
 40
0.0
 40
0.0
 40
1.0
 40
2.0
 40
2.0
 40
2.0
 10
-167.2375671317568
 20
-437.52546396301477
 30
0.0
 10
-162.71715248394503
 20
-437.52546396301477
 30
0.0
 10
-126.37832421821076
 20
-416.59293840546161
 30
0.0
 10
-116.99318304279586
 20
-416.59293840546161
 30
0.0
  0
LINE
  5
178
100
AcDbEntity
  8
lavabo incasso DOLCEVITA
370
               5
390
0
  6
STYLE_11
 62
               7
100
AcDbLine
 10
-167.2375671317568
 20
-437.52546396301477
 30
0.0
 11
-202.9004990110916
 21
-437.52546396301477
 31
0.0
  0
SPLINE
  5
179
100
AcDbEntity
  8
lavabo incasso DOLCEVITA
370
               5
390
0
  6
STYLE_11
 62
               7
100
AcDbSpline
210
0.0
220
0.0
230
1.0
 70
               8
 71
               2
 72
               7
 73
               4
 74
               0
 42
0.000001
 43
0.000001
 40
0.0
 40
0.0
 40
0.0
 40
1.0
 40
2.0
 40
2.0
 40
2.0
 10
-223.30858559640546
 20
-476.57245027698809
 30
0.0
 10
-218.30858559640546
 20
-466.80252474722511
 30
0.0
 10
-215.18686316306594
 20
-440.80252474722511
 30
0.0
 10
-202.9004990110916
 20
-437.52546396301477
 30
0.0
  0
LINE
  5
17A
100
AcDbEntity
  8
lavabo incasso DOLCEVITA
370
               5
390
0
  6
Continuous
 62
               7
100
AcDbLine
 10
-756.77955942238805
 20
-416.53403230824915
 30
0.0
 11
-116.57683688093675
 21
-416.53403230824915
 31
0.0
  0
CIRCLE
  5
17B
100
AcDbEntity
  8
lavabo incasso DOLCEVITA
370
              15
390
0
  6
STYLE_11
 62
               7
100
AcDbCircle
 10
503.94010432076539
 20
560.94734959410562
 30
0.0
 40
24.491035156250291
  0
CIRCLE
  5
17C
100
AcDbEntity
  8
lavabo incasso DOLCEVITA
370
              15
390
0
  6
STYLE_11
 62
               7
100
AcDbCircle
 10
504.0018567365787
 20
681.02845627033093
 30
0.0
 40
18.5
  0
LWPOLYLINE
  5
17D
100
AcDbEntity
  8
lavabo incasso DOLCEVITA
370
              15
390
0
  6
STYLE_11
 62
               7
100
AcDbPolyline
 90
      208
 70
             128
 10
178.99852754709536
 20
525.94716940421495
 42
0.0015382923149914
 10
179.0018567365787
 20
524.86506635743717
 10
179.01685042809549
 20
522.42835228881449
 42
0.0153043070918165
 10
179.23562407692771
 20
516.4795292745257
 10
179.50299986668324
 20
512.51651031171787
 42
0.0237725014976827
 10
181.09478532597677
 20
498.72407153733366
 10
181.33861446312221
 20
497.23623480921378
 42
0.0185089906055398
 10
184.01366381710977
 20
484.00252436651499
 42
0.0182287367757615
 10
187.6529413300741
 20
471.00059575213527
 10
187.68880009838176
 20
470.88840924730175
 42
0.0181965176760794
 10
192.34447277719119
 20
457.9643207697809
 10
192.40753176534417
 20
457.80742171358725
 42
0.0178901226439329
 10
198.12024690131329
 20
444.94349309464451
 10
198.17544391851879
 20
444.8302987049683
 42
0.0174302132882742
 10
204.90014055028223
 20
432.17894613296085
 10
204.98075366894591
 20
432.03926141404372
 42
0.0171594922092467
 10
212.73455424923122
 20
419.609217378209
 10
212.83613644746401
 20
419.45817159465514
 42
0.0166026743457888
 10
221.62416907386068
 20
407.28410707635339
 10
221.70920458716137
 20
407.17418930731947
 42
0.0160912498838585
 10
231.45114247875972
 20
395.3857805118605
 10
231.56150018966946
 20
395.26066625589738
 42
0.0156050100019256
 10
242.25923460276681
 20
383.86958789190976
 10
242.37847801202952
 20
383.75030366361898
 42
0.0150442206822257
 10
253.99972259486458
 20
372.80435896560084
 10
254.1207266459387
 20
372.69706927792868
 42
0.0146044063968836
 10
266.61857056603367
 20
362.25141455835546
 10
266.77109702527559
 20
362.13132193998899
 42
0.0141571165367328
 10
280.16070713539375
 20
352.18979958485579
 10
280.3050178501544
 20
352.08886101454846
 42
0.0136942072422891
 10
294.5216004877966
 20
342.71409674998722
 10
294.64299585210574
 20
342.63873248970776
 42
0.0132592014842803
 10
309.59097786397069
 20
333.89914870694338
 10
309.71177755281678
 20
333.83275473918184
 42
0.0128213551683941
 10
325.34026055405593
 20
325.75767188552709
 10
325.45818119526302
 20
325.70052503875922
 42
0.0124877754526711
 10
341.71401710172358
 20
318.31803282475448
 10
341.82710874383702
 20
318.27004230495368
 42
0.012150215334551
 10
358.65548624690382
 20
311.60662803181913
 10
358.76174912257375
 20
311.56751092639752
 42
0.0118452419501586
 10
376.1049083578182
 20
305.6457851340092
 10
376.20253591694018
 20
305.61501286397106
 42
0.0116311122928799
 10
394.00126712885503
 20
300.45676212555554
 10
394.08877964380736
 20
300.43359235567914
 42
0.0113972592931675
 10
412.28230011878804
 20
296.05786259795423
 10
412.35823032090411
 20
296.04142176223104
 42
0.0112650523060755
 10
430.88395382854833
 20
292.46501621323114
 10
435.67131873215476
 20
291.6522208256356
 42
0.0220717808152773
 10
464.00839638606521
 20
288.11917318729684
 10
464.06944215235853
 20
288.11428504990181
 42
0.0109189829633387
 10
492.72102517327039
 20
286.4487372605945
 10
492.78449093506788
 20
286.44643697548599
 42
0.0217977969627476
 10
521.58303466983125
 20
286.65839937591227
 10
526.4112178990581
 20
286.90470620944689
 42
0.0109512258303378
 10
545.5065126868285
 20
288.29868273800821
 10
545.54659791598715
 20
288.30249316507252
 42
0.0110343490215854
 10
564.48213181253959
 20
290.52506624112721
 10
564.53635659983411
 20
290.53264737408608
 42
0.0111218904820492
 10
583.24672093395748
 20
293.5742323838349
 10
583.31436415084681
 20
293.58677876721777
 42
0.0112944503289881
 10
601.73482417941341
 20
297.43566277138598
 10
601.81481931078633
 20
297.45427252455556
 42
0.011473542590125
 10
619.88179110263991
 20
302.09672697485075
 10
619.97282965500744
 20
302.12236057815608
 42
0.0116776423881546
 10
637.62461994117075
 20
307.54050556226866
 10
637.72540123891304
 20
307.57403446229
 42
0.0119697660886176
 10
654.9012300285176
 20
313.74868068881915
 10
655.00998801156493
 20
313.79074482849683
 42
0.0122503215434923
 10
671.65114796667694
 20
320.70028331884532
 10
671.76605074391955
 20
320.75132679217495
 42
0.0125812236251165
 10
687.81634452477374
 20
328.37048725955538
 10
687.93553536687614
 20
328.43078778777272
 42
0.0129932492058012
 10
703.33990166871081
 20
336.73364893927646
 10
703.46110229395163
 20
336.80309837426466
 42
0.0133813202914976
 10
718.16748628808273
 20
345.76108594544348
 10
718.28857126636467
 20
345.839358861238
 42
0.0138451250158723
 10
732.24763248804084
 20
355.42105675974744
 10
732.36637386010261
 20
355.50749436572369
 42
0.0143636412950462
 10
745.53025973049625
 20
365.68116176067269
 10
745.64445748581602
 20
365.7747793073504
 42
0.0148583849303783
 10
757.96866495376526
 20
376.50576882401947
 10
758.07585110016953
 20
376.60484862618614
 42
0.0154382617864065
 10
769.51920270074697
 20
387.8574101961276
 10
769.61758316147461
 20
387.96031385104288
 42
0.0160144138980339
 10
780.14062274465505
 20
399.69761034238036
 10
780.22845967481226
 20
399.80213178903796
 42
0.0165791274522695
 10
789.79572891400858
 20
411.98483364318963
 10
789.87169023160095
 20
412.08845662548265
 42
0.0172201979475057
 10
798.44929466348185
 20
424.67673740815371
 10
798.51234038191069
 20
424.77647640446958
 42
0.0177695482916106
 10
806.06969704565563
 20
437.72944937601278
 10
806.17841585026872
 20
437.93199499993352
 42
0.0183263461376998
 10
812.57932883300964
 20
450.98323270077526
 10
812.69602908996603
 20
451.24503094631655
 42
0.0182220624251043
 10
817.91281797366901
 20
464.19754612646648
 10
817.96138384706319
 20
464.33207552086969
 42
0.0181958852202061
 10
822.13466077825433
 20
477.3576396034332
 10
822.15221543412372
 20
477.42017548187869
 42
0.0185568217746967
 10
825.3272367898353
 20
490.59046824640245
 10
825.33724030959274
 20
490.63995660374349
 42
0.0187475275864505
 10
827.50553479054724
 20
503.91047876188532
 10
827.50795333032147
 20
503.92980902139971
 42
0.0188594118405195
 10
828.66966631256946
 20
517.28683360427385
 42
0.0189807418889299
 10
828.81827465381684
 20
530.69333565131819
 10
828.8179591294429
 20
530.70507432224986
 42
0.0189922817499763
 10
827.94754863268645
 20
544.10762304454693
 10
827.94475810705262
 20
544.1346639157855
 42
0.0188404064386946
 10
826.05618615660205
 20
557.48703209254018
 10
826.04769414666043
 20
557.53418494893413
 42
0.0187462764454286
 10
823.14126245605621
 20
570.8006627914292
 10
823.11824060387517
 20
570.88964906334877
 42
0.0185317508994356
 10
819.17918304626983
 20
584.07904617524764
 10
819.14957319078894
 20
584.16626514284872
 42
0.0181498605458921
 10
814.1888634406605
 20
597.20392304846609
 10
814.14426739412193
 20
597.30944038732559
 42
0.0178881014031509
 10
808.16091632837924
 20
610.16387115232646
 10
808.09282318473197
 20
610.29745285582612
 42
0.0174345192344961
 10
801.0715901569929
 20
622.96001884415455
 10
801.00528642052996
 20
623.0703429694986
 42
0.0169274231511792
 10
792.99098015132222
 20
635.4372582508222
 10
792.90513444003227
 20
635.56038583896589
 42
0.016491892486067
 10
783.9029467878554
 20
647.60514842080011
 10
783.80047242578439
 20
647.73322266101604
 42
0.0159136225830993
 10
773.82390924830179
 20
659.41951976687415
 10
773.72493383523761
 20
659.52825146002579
 42
0.0154211611429466
 10
762.83132155677413
 20
670.77834077725129
 10
762.68896009870514
 20
670.91656527947634
 42
0.0150235719411372
 10
750.83795008209745
 20
681.75086998713959
 10
750.68981937757417
 20
681.87833829360898
 42
0.0144870792416628
 10
737.91661516872409
 20
692.24123968834465
 10
737.80053138544463
 20
692.32996817812091
 42
0.0140124397682899
 10
724.22043588342603
 20
702.11950073801563
 10
724.10102164670025
 20
702.20059741495061
 42
0.0135055666025658
 10
709.75958804134643
 20
711.38421900266258
 10
709.63917825823955
 20
711.45681521261577
 42
0.0130931759647347
 10
694.58496452180771
 20
720.00389764465217
 10
694.46567443883941
 20
720.06755412998609
 42
0.0127095655951561
 10
678.74867651353998
 20
727.94809002430702
 10
678.63263531207485
 20
728.00262797457981
 42
0.0123249967302931
 10
662.3060069475996
 20
735.19015036609198
 10
662.19532433153654
 20
735.23565391037846
 42
0.0120411830577144
 10
645.31430982309939
 20
741.70507724053459
 10
645.21072313923287
 20
741.74194021258154
 42
0.0117557990245627
 10
627.83202299827826
 20
747.46983827468648
 10
627.73729657414879
 20
747.4986089818849
 42
0.0115000693446183
 10
609.92019769793478
 20
752.46554102150549
 10
609.83587617327612
 20
752.48697053025535
 42
0.0113325013035869
 10
591.64095711707341
 20
756.67447078305122
 10
591.56826494682537
 20
756.68947459096671
 42
0.0111764741844301
 10
573.05722599482579
 20
760.08071361308976
 10
568.28219568736313
 20
760.84562137929606
 42
0.0219484434886164
 10
540.00188080387306
 20
764.11083183536539
 10
539.94587976050389
 20
764.11481797821762
 42
0.010853411476053
 10
511.37952900687924
 20
765.52582684159279
 10
511.32540041998982
 20
765.52732377055509
 42
0.021722479580254
 10
482.65139105771959
 20
765.07452005657251
 10
477.8425281281543
 20
764.78919740549463
 42
0.0109085336519322
 10
458.85114726195752
 20
763.24600478424691
 10
458.80879081735657
 20
763.24163104628678
 42
0.0109982604592152
 10
439.98777615949803
 20
760.87875342968618
 10
439.93151826944268
 20
760.87042993676732
 42
0.0111244031882207
 10
421.34562371859283
 20
757.69658723076282
 10
421.27637170599701
 20
757.68316937661439
 42
0.0112527154403444
 10
402.98901128266152
 20
753.71098018367775
 10
402.90770948051431
 20
753.69139494009141
 42
0.0114665438958289
 10
384.98143920729854
 20
748.93560039802105
 10
384.88939173347535
 20
748.9089067960449
 42
0.0116888282785162
 10
367.38542412362222
 20
743.38608300854685
 10
367.28416367060709
 20
743.35151087555278
 42
0.01193449285622
 10
350.26150864037481
 20
737.08220230432926
 10
350.15252245529882
 20
737.03908269011299
 42
0.0122699683409597
 10
333.66916136499822
 20
730.04508041206282
 10
333.55439943748206
 20
729.99302738903498
 42
0.0125936334711795
 10
317.66605975290076
 20
722.29832227982115
 10
317.54750369856811
 20
722.23717311290966
 42
0.0129664636034578
 10
302.30715731765304
 20
713.86922575172503
 10
302.18677458196544
 20
713.79900532336615
 42
0.0134214047762869
 10
287.64621818246633
 20
704.78582585834374
 10
287.52635542487224
 20
704.7069972595491
 42
0.0138489640099641
 10
273.7342336771253
 20
695.07900880783563
 10
273.61703267517805
 20
694.99226895374886
 42
0.0143500767231678
 10
260.6191201335896
 20
684.78255481392262
 10
260.50676327751717
 20
684.68896413384937
 42
0.0149027902180292
 10
248.34736929864812
 20
673.930814131425
 10
248.24203607036361
 20
673.83186941870372
 42
0.0154213452444225
 10
236.96173582647316
 20
662.56111296871677
 10
236.86536463395714
 20
662.45869328106346
 42
0.0160235089145838
 10
226.50203450881236
 20
650.71257951896405
 10
226.41626094065577
 20
650.60884264438937
 42
0.0166135530547845
 10
217.00594018544871
 20
638.42523946083384
 10
215.83722654924713
 20
636.80346783723508
 42
0.0172041659438778
 10
209.49525213064589
 20
627.33236248031608
 10
209.44889927592158
 20
627.25770635364461
 42
0.008799566206546
 10
203.69530435767956
 20
617.61636576161254
 42
0.018052919811456
 10
198.47009767160125
 20
607.68503706874617
 10
197.64887792842273
 20
605.97728674887912
 42
0.0185464243938306
 10
191.81570230395664
 20
592.59822734296904
 10
191.7647544785068
 20
592.46843618877756
 42
0.0190231227877905
 10
187.0443159436727
 20
578.95285556087038
 10
187.01082728961956
 20
578.84381340027903
 42
0.0191162954442967
 10
183.39251714494821
 20
565.22826917175553
 10
183.38950794917764
 20
565.2149076085916
 42
0.0193982818397983
 10
180.83458154682012
 20
551.38853888548329
 10
180.71433765314214
 20
550.55890385225939
 42
0.0197967802592706
 10
179.42439557655598
 20
538.24155209375022
 10
179.36935942046875
 20
537.3928511437698
 42
0.0151064603989237
 10
179.00018279653159
 20
526.71065141136933
 42
0.0010837932242783
 10
178.99852754709536
 20
525.94716940421495
 42
0.0010837932242783
  0
CIRCLE
  5
17E
100
AcDbEntity
  8
lavabo incasso DOLCEVITA
370
              15
390
0
  6
STYLE_11
 62
               7
100
AcDbCircle
 10
604.00185673667147
 20
681.02845627033093
 30
0.0
 40
18.5
  0
CIRCLE
  5
17F
100
AcDbEntity
  8
lavabo incasso DOLCEVITA
370
              15
390
0
  6
STYLE_11
 62
               7
100
AcDbCircle
 10
404.00185673667147
 20
681.02845627033093
 30
0.0
 40
18.5
  0
LWPOLYLINE
  5
180
100
AcDbEntity
  8
lavabo incasso DOLCEVITA
370
              15
390
0
  6
Continuous
 62
               7
100
AcDbPolyline
 90
      208
 70
             128
 10
238.99852754709536
 20
525.94239374622703
 42
0.0015843776640958
 10
239.00124211385446
 20
525.08572932753304
 10
239.01346774237209
 20
523.15666352986591
 42
0.0157612982805917
 10
239.19183008197251
 20
518.44749995926395
 10
239.40986651537423
 20
515.3097886313335
 42
0.0244643424398921
 10
240.70718204693912
 20
504.39434020216868
 10
240.90582184814957
 20
503.21750461804913
 42
0.0190177470302518
 10
243.08779250572297
 20
492.73621642471699
 42
0.0186919546528222
 10
246.05328472646761
 20
482.44885103015986
 10
246.08444208891342
 20
482.3542086219968
 42
0.0186113893409569
 10
249.87768178036094
 20
472.12970269689686
 10
249.93202329428459
 20
471.99842682448798
 42
0.0182431161239346
 10
254.58606804563533
 20
461.82247809124237
 10
254.63509012687064
 20
461.72487110932707
 42
0.0177149118472721
 10
260.11324741437784
 20
451.71772457794577
 10
260.18403500029672
 20
451.59863325400511
 42
0.0173774233893208
 10
266.5002289346794
 20
441.76703981148603
 10
266.58919326585783
 20
441.63860381365521
 42
0.0167510166060291
 10
273.74779574353852
 20
432.00961808887951
 10
273.82415651822521
 20
431.91378450285993
 42
0.01617413799197
 10
281.75985543559727
 20
422.58980000908196
 10
281.85756677873178
 20
422.48224542048411
 42
0.015627138642433
 10
290.57204848289439
 20
413.47235645819455
 10
290.67756408004243
 20
413.36987503492855
 42
0.0150112063890963
 10
300.14473983880816
 20
404.71174610310118
 10
300.25201296615342
 20
404.61939781291585
 42
0.0145220343205788
 10
310.43376604617151
 20
396.35664573311806
 10
310.56693035238095
 20
396.25484783705906
 42
0.0140312342537947
 10
321.47578387486828
 20
388.39047151734121
 10
321.6022811788207
 20
388.30456627107924
 42
0.0135310284355677
 10
333.18560829653143
 20
380.88809515867615
 10
333.29324785733479
 20
380.82321452224278
 42
0.0130643934046579
 10
345.47329159588116
 20
373.90881229109073
 10
345.58010062868198
 20
373.85181546973763
 42
0.0126007011115127
 10
358.3154978356888
 20
367.46272452494304
 10
358.41947590636846
 20
367.41380029023276
 42
0.0122446338898107
 10
371.66694362821909
 20
361.57233114390692
 10
371.76644759982264
 20
361.53133479264216
 42
0.0118892490139283
 10
385.48139561348398
 20
356.25850934564369
 10
385.57469283171667
 20
356.22516411796096
 42
0.0115700202347761
 10
399.7100865202865
 20
351.53895255930547
 10
399.79564206404575
 20
351.5127698185388
 42
0.0113432493357339
 10
414.3032248383297
 20
347.43049876388977
 10
414.37981002595188
 20
347.41081191613921
 42
0.0111006096690609
 10
429.21008394450109
 20
343.94762651764904
 10
429.27643903958597
 20
343.93367686298734
 42
0.0109600246002368
 10
444.37837651588052
 20
341.10295787766518
 10
448.28557266722055
 20
340.45889278818504
 42
0.0214491614778118
 10
471.38397699981033
 20
337.66245749658265
 10
471.4409656098469
 20
337.65802696572791
 42
0.0106034903919191
 10
494.80132928879357
 20
336.33952799317194
 10
494.85477461728806
 20
336.33764724014327
 42
0.0211639943337141
 10
518.33666412409366
 20
336.50545080716256
 10
522.27491220933007
 20
336.70051413749752
 42
0.0106359807600795
 10
537.84350004564476
 20
337.80400846881093
 10
537.8784531504698
 20
337.80723439842404
 42
0.0107218078296371
 10
553.31592794814787
 20
339.56656207545893
 10
553.36323726645787
 20
339.57298396443366
 42
0.0108144118455437
 10
568.61628523176842
 20
341.98048527174979
 10
568.67536002345696
 20
341.991123672502
 42
0.0109923536408194
 10
583.69120018575632
 20
345.03745099523803
 10
583.76113948682723
 20
345.05324812520121
 42
0.0111795724316109
 10
598.48795783084643
 20
348.72746015631128
 10
598.56765689218446
 20
348.74924815641134
 42
0.0113942840259597
 10
612.95518749918847
 20
353.03711820469471
 10
613.04357029959101
 20
353.06566694589856
 42
0.0116984218639537
 10
627.04226957040737
 20
357.95192351320293
 10
627.13781931219273
 20
357.98780415725196
 42
0.0119951819307163
 10
640.69989496613925
 20
363.45527559530456
 10
640.80105741610714
 20
363.49890797279659
 42
0.0123454968482674
 10
653.88074754428089
 20
369.52752038171457
 10
653.9859535881078
 20
369.57919755669718
 42
0.0127803160921285
 10
666.53841721548815
 20
376.14835671149194
 10
666.64567037410416
 20
376.20802640319744
 42
0.0131968999110587
 10
678.62860159744014
 20
383.29507767470204
 10
678.73607238545992
 20
383.36252916097874
 42
0.0136938926817419
 10
690.10933619125171
 20
390.94255456935207
 10
690.21507815246878
 20
391.01729022938525
 42
0.0142514067060201
 10
700.93978609663827
 20
399.06513769508456
 10
701.04180623289722
 20
399.14633945350943
 42
0.0147919092103913
 10
711.08187035561059
 20
407.63461828690197
 10
711.17800882855227
 20
407.72090094964369
 42
0.0154239052342452
 10
720.50000113391798
 20
416.62133437316515
 10
720.58858166263235
 20
416.71129242934694
 42
0.016058979160867
 10
729.16054363126023
 20
425.99482615561283
 10
729.23993412110212
 20
426.08654880503309
 42
0.0166886183836738
 10
737.03316866165551
 20
435.72221126874501
 10
737.10211931505182
 20
435.81353461790422
 42
0.0174004662515327
 10
744.08915304199581
 20
445.76996841601795
 10
744.14660496717988
 20
445.85821417202533
 42
0.0180233947336674
 10
750.30271190745952
 20
456.10336539056152
 10
750.39623591647069
 20
456.2725345367071
 42
0.018655194319518
 10
755.61056551868751
 20
466.5959438560094
 10
755.70924766450844
 20
466.81088192870084
 42
0.0186097596809844
 10
759.9594105103024
 20
477.05727531801676
 10
760.00142949577094
 20
477.17028389139159
 42
0.0186352226759654
 10
763.40183618173251
 20
487.47568265395239
 10
763.41767873500248
 20
487.53047778335167
 42
0.0190487969330649
 10
766.00501354502194
 20
497.95167199629941
 10
766.01395672419858
 20
497.99462781321199
 42
0.0192783204233416
 10
767.78116422252424
 20
508.49668032105546
 10
767.78340471816409
 20
508.51406667033734
 42
0.0194151533110589
 10
768.7303791558661
 20
519.086294571287
 42
0.0195488215952309
 10
768.85154459800651
 20
529.70004674047232
 10
768.85129483731725
 20
529.70906847300648
 42
0.0195558614932395
 10
768.14174331112008
 20
540.31784080177022
 10
768.13930015752157
 20
540.34082690122887
 42
0.0193813382799547
 10
766.60000575016056
 20
550.90811943633889
 10
766.59246338981757
 20
550.9487810524588
 42
0.0192539097240134
 10
764.22392092428163
 20
561.44646599708358
 10
764.20383203954589
 20
561.52185680970433
 42
0.0189920453204449
 10
760.99420180429661
 20
571.95712327347428
 10
760.96784168733757
 20
572.03251120599452
 42
0.0185506803621055
 10
756.92617593416435
 20
582.34659173968248
 10
756.88659234543957
 20
582.4375249411969
 42
0.01822641234878
 10
752.01217851709589
 20
592.60572375870834
 10
751.95233783624644
 20
592.71970147875254
 42
0.0177035084801971
 10
746.23271802704949
 20
602.73553236975567
 10
746.17326939774284
 20
602.83157281874446
 42
0.0171264073111161
 10
739.64486304812817
 20
612.61322453971661
 10
739.56853009056795
 20
612.7195234237297
 42
0.0166235858562555
 10
732.2354871275711
 20
622.24622068091412
 10
732.14472875587126
 20
622.35635257454123
 42
0.0159806528286183
 10
724.01784304280955
 20
631.59963105921634
 10
723.92928959742858
 20
631.69408370708697
 42
0.0154291098072605
 10
715.05513808199612
 20
640.59254953642085
 10
714.93072639686943
 20
640.70983214747685
 42
0.0149775214053705
 10
705.27632711673868
 20
649.27969464422495
 10
705.14681165502407
 20
649.38790245032578
 42
0.0143932668998674
 10
694.74058979378606
 20
657.58529659772466
 10
694.63708452298124
 20
657.66210944222985
 42
0.0138769545076487
 10
683.57285366657743
 20
665.40637334875646
 10
683.46671504369806
 20
665.47635758806427
 42
0.0133351059564177
 10
671.78142791234859
 20
672.74175065859163
 10
671.67475043464401
 20
672.80419667786919
 42
0.0128925685120066
 10
659.40791040448858
 20
679.56642253872997
 10
659.3025088588256
 20
679.62103165412555
 42
0.0124837243907388
 10
646.49476895685257
 20
685.85629457779578
 10
646.39249234008093
 20
685.90296511443739
 42
0.0120789819076006
 10
633.08708271784781
 20
691.5902641700668
 10
632.98976184825369
 20
691.62911064692889
 42
0.0117774721394319
 10
619.23169300919108
 20
696.74850864546897
 10
619.14077933760746
 20
696.77992063618149
 42
0.011478402216328
 10
604.97620490404552
 20
701.3128109001409
 10
604.89321613838547
 20
701.33728341187816
 42
0.0112119805263266
 10
590.37043191154225
 20
705.26820319473336
 10
590.29667334998157
 20
705.28640297101811
 42
0.0110347579662295
 10
575.46506124365806
 20
708.600656653638
 10
575.40154419610553
 20
708.61338535242248
 42
0.0108716852105079
 10
560.3113747715397
 20
711.29758014224353
 10
556.41444156915895
 20
711.90366822649958
 42
0.0213266659851971
 10
533.36174772588856
 20
714.48816763004288
 10
533.30944550572167
 20
714.49178220063914
 42
0.010539248328022
 10
510.01831203624351
 20
715.60879250246217
 10
509.97274696653221
 20
715.610015952916
 42
0.0210906575054634
 10
486.59240087114267
 20
715.25154634601495
 10
482.66976181680366
 20
715.02557568992779
 42
0.0105952815408085
 10
467.186048237676
 20
713.80397175540566
 10
467.14911195655077
 20
713.80026864829415
 42
0.0106879224350731
 10
451.80514564643818
 20
711.92989776638569
 10
451.75605079579509
 20
711.92284534970531
 42
0.0108184628809267
 10
436.60462134846966
 20
709.41068285891379
 10
436.54413630700947
 20
709.39930452966655
 42
0.0109537623840598
 10
421.63692197763339
 20
706.25541061330296
 10
421.56582285171316
 20
706.2387813537207
 42
0.0111752065208013
 10
406.95382474695361
 20
702.47490161632595
 10
406.87321662029171
 20
702.45220537290152
 42
0.0114081130097335
 10
392.60630475564903
 20
698.08153368298372
 10
392.51748717730698
 20
698.05209183384432
 42
0.0116673079414775
 10
378.64372751546216
 20
693.09096145881631
 10
378.54793787452763
 20
693.05416535738914
 42
0.0120182554486239
 10
365.11458281399973
 20
687.51990662743628
 10
365.01350551884207
 20
687.47539416905784
 42
0.012362029301895
 10
352.0658999610605
 20
681.38705643941648
 10
351.96122838842894
 20
681.33463904814562
 42
0.0127588024769853
 10
339.5424872061667
 20
674.71402168800705
 10
339.43589862098088
 20
674.65365604794351
 42
0.0132417949209908
 10
327.58818298824372
 20
667.52299677241535
 10
327.48175300956063
 20
667.45503833830298
 42
0.0137035946047703
 10
316.24456485312112
 20
659.83843327409704
 10
316.14015782620663
 20
659.76340984024864
 42
0.0142443107953863
 10
305.55070304069886
 20
651.68707386223832
 10
305.45025021314723
 20
651.60583290411159
 42
0.0148429719245857
 10
295.54450620605348
 20
643.09611248859437
 10
295.45000347437417
 20
643.00992357514042
 42
0.0154142597053411
 10
286.26083583643413
 20
634.09509906811581
 10
286.1740226882448
 20
634.00552102598886
 42
0.0160756274965269
 10
277.73215630049526
 20
624.715010087064
 10
277.65458157808825
 20
624.62391818748438
 42
0.0167310323884484
 10
269.98918708298515
 20
614.98753254105395
 10
269.03108281656387
 20
613.69668721585185
 42
0.0173920507129768
 10
263.86508759214485
 20
606.20567159814527
 10
263.82505473689707
 20
606.1430700057681
 42
0.0089207088528954
 10
259.13589940803286
 20
598.51384086250619
 42
0.0183516197976614
 10
254.87180300673572
 20
590.64438500387769
 10
254.20152007188881
 20
589.29105720635562
 42
0.018918041781189
 10
249.44945465653655
 20
578.70781461440492
 10
249.40486406725904
 20
578.59752299835964
 42
0.019464027950935
 10
245.55893962430491
 20
567.90522862024955
 10
245.52969681460308
 20
567.81278100782947
 42
0.0196099711731224
 10
242.58131906534618
 20
557.0399310622015
 10
242.57780649904998
 20
557.02478808730666
 42
0.0199389843017517
 10
240.49561773148707
 20
546.08347791890264
 10
240.39721190976525
 20
545.42426654738665
 42
0.0203759654444191
 10
239.34577378650283
 20
535.67544670877396
 10
239.30086239525554
 20
535.00302310546977
 42
0.0155576985927897
 10
238.99987721201978
 20
526.54681700188667
 42
0.0011162624213221
 10
238.99852754709536
 20
525.94239374622703
 42
0.0011162624213221
  0
DIMENSION
  5
181
100
AcDbEntity
  8
lavabo incasso DOLCEVITA
370
               5
390
0
  6
Continuous
 62
               7
100
AcDbDimension
  2
*D2
 10
-571.625
 20
-437.52546396301477
 30
0.0
 11
-566.625
 21
-400.0
 31
0.0
 70
             128
 71
               5
 72
               1
 41
1.0
 42
0.0
  1
17
  3
tfrom線あり
100
AcDbAlignedDimension
 13
-677.0
 23
-416.53403230824915
 33
0.0
 14
-677.0
 24
-437.52546396301477
 34
0.0
 50
90.0
100
AcDbRotatedDimension
1001
ACAD
1000
DSTYLE
1002
{
1070
             279
1070
               2
1070
             340
1005
35
1070
             174
1070
               0
1070
             147
1040
5.0
1002
}
  0
SPLINE
  5
182
100
AcDbEntity
  8
lavabo incasso DOLCEVITA
370
               5
390
0
  6
STYLE_11
 62
               7
100
AcDbSpline
210
0.0
220
0.0
230
1.0
 70
               8
 71
               2
 72
               7
 73
               4
 74
               0
 42
0.000001
 43
0.000001
 40
0.0
 40
0.0
 40
0.0
 40
1.0
 40
2.0
 40
2.0
 40
2.0
 10
637.46309307988122
 20
-476.57245027698809
 30
0.0
 10
638.88717837051627
 20
-446.84292821864074
 30
0.0
 10
647.77214781943258
 20
-437.52546396301477
 30
0.0
 10
655.58505496076032
 20
-437.5784581767075
 30
0.0
  0
DIMENSION
  5
183
100
AcDbEntity
  8
notes
370
               5
390
0
  6
Continuous
 62
               7
100
AcDbDimension
  2
*D3
 10
-761.61644573585181
 20
916.02845627014176
 30
0.0
 11
-436.61644573585181
 21
916.02845627014176
 31
0.0
 71
               5
 72
               1
 41
1.0
 42
0.0
  3
tfrom線あり
100
AcDbAlignedDimension
 13
-111.61644573585181
 23
524.86506635714613
 33
0.0
 14
-761.61644573585181
 24
524.86506635714613
 34
0.0
100
AcDbRotatedDimension
1001
ACAD
1000
DSTYLE
1002
{
1070
             279
1070
               2
1070
             340
1005
35
1070
             147
1040
5.0
1002
}
  0
DIMENSION
  5
184
100
AcDbEntity
  8
notes
370
               5
390
0
  6
Continuous
 62
               7
100
AcDbDimension
  2
*D4
 10
-436.61644573575904
 20
866.02845627017086
 30
0.0
 11
-386.61644573575904
 21
866.02845627017086
 31
0.0
 71
               5
 72
               1
 41
1.0
 42
0.0
  3
tfrom線あり
100
AcDbAlignedDimension
 13
-336.61644573575904
 23
694.92782069217355
 33
0.0
 14
-436.61644573575904
 24
694.92782069217355
 34
0.0
100
AcDbRotatedDimension
1001
ACAD
1000
DSTYLE
1002
{
1070
             279
1070
               2
1070
             340
1005
35
1070
             147
1040
5.0
1002
}
  0
DIMENSION
  5
185
100
AcDbEntity
  8
notes
370
               5
390
0
  6
Continuous
 62
               7
100
AcDbDimension
  2
*D5
 10
-436.61644573575904
 20
866.02845627017086
 30
0.0
 11
-486.61644573575904
 21
866.02845627017086
 31
0.0
 71
               5
 72
               1
 41
1.0
 42
0.0
  3
tfrom線あり
100
AcDbAlignedDimension
 13
-536.61644573575904
 23
694.92782069217355
 33
0.0
 14
-436.61644573575904
 24
694.92782069217355
 34
0.0
100
AcDbRotatedDimension
1001
ACAD
1000
DSTYLE
1002
{
1070
             279
1070
               2
1070
             340
1005
35
1070
             147
1040
5.0
1002
}
  0
MTEXT
  5
186
100
AcDbEntity
  8
notes
390
0
 62
               7
100
AcDbMText
 10
-833.55528602512459
 20
84.934692134062061
 30
0.0
 40
24.432617187500004
 41
833.92979864183906
 71
               1
 72
               1
  1
＝φ30もしくはφ35の水栓取付用穴あけ加工を承ります。\P  必要な場合、ご注文の際にご指示ください。
  7
ＭＳ ゴシック
 73
               1
 44
1.0437689845677123
  0
CIRCLE
  5
187
100
AcDbEntity
  8
notes
370
               5
390
0
  6
STYLE_11
 62
               7
100
AcDbCircle
 10
-856.2067101739467
 20
71.977991082807421
 30
0.0
 40
17.5
  0
MTEXT
  5
188
100
AcDbEntity
  8
notes
390
0
 62
               7
100
AcDbMText
 10
365.4331589571193
 20
999.61859182483749
 30
0.0
 40
24.432617187500004
 41
0.0
 71
               1
 72
               1
  1
カウンター切込寸法
  7
ＭＳ ゴシック
 73
               1
 44
0.7828267384257843
  0
MTEXT
  5
189
100
AcDbEntity
  8
notes
390
0
 62
               7
100
AcDbMText
 10
129.14983410040804
 20
84.934692134062061
 30
0.0
 40
24.432617187500004
 41
764.7717154610109
 71
               1
 72
               1
  1
※陶器製品には寸法公差があります。\P  洗面器の収め方をご確認の上、必ず現物を合わせて\P  カウンターに切込を行ってください。
  7
ＭＳ ゴシック
 73
               1
 44
1.0437689845677123
  0
DIMENSION
  5
18A
100
AcDbEntity
  8
notes
370
               5
390
0
  6
Continuous
 62
               7
100
AcDbDimension
  2
*D6
 10
-11.616445735666275
 20
766.0
 30
0.0
 11
-11.616445735666275
 21
526.01422813517274
 31
0.0
 71
               5
 72
               1
 41
1.0
 42
0.0
  3
tfrom線あり
100
AcDbAlignedDimension
 13
-406.0
 23
286.02845627033093
 33
0.0
 14
-400.0
 24
766.0
 34
0.0
 50
90.0
100
AcDbRotatedDimension
1001
ACAD
1000
DSTYLE
1002
{
1070
             279
1070
               2
1070
             340
1005
35
1070
             147
1040
5.0
1002
}
  0
DIMENSION
  5
18B
100
AcDbEntity
  8
notes
370
               5
390
0
  6
Continuous
 62
               7
100
AcDbDimension
  2
*D7
 10
-861.61644573555532
 20
766.02845627033093
 30
0.0
 11
-861.61644573555532
 21
701.02845627033093
 31
0.0
 71
               5
 72
               1
 41
1.0
 42
0.0
  3
tfrom線あり
100
AcDbAlignedDimension
 13
-725.31657700979122
 23
636.02845627033093
 33
0.0
 14
-487.0
 24
766.02845627033093
 34
0.0
 50
90.0
100
AcDbRotatedDimension
1001
ACAD
1000
DSTYLE
1002
{
1070
             279
1070
               2
1070
             340
1005
35
1070
             147
1040
5.0
1002
}
  0
DIMENSION
  5
18C
100
AcDbEntity
  8
notes
370
               5
390
0
  6
Continuous
 62
               7
100
AcDbDimension
  2
*D8
 10
-861.61644573555714
 20
636.02845627033093
 30
0.0
 11
-861.61644573555714
 21
491.02845627033093
 31
0.0
 71
               5
 72
               1
 41
1.0
 42
0.0
  3
tfrom線あり
100
AcDbAlignedDimension
 13
-650.96973880090627
 23
346.02845627033093
 33
0.0
 14
-725.31657700979122
 24
636.02845627033093
 34
0.0
 50
90.0
100
AcDbRotatedDimension
1001
ACAD
1000
DSTYLE
1002
{
1070
             279
1070
               2
1070
             340
1005
35
1070
             147
1040
5.0
1002
}
  0
DIMENSION
  5
18D
100
AcDbEntity
  8
notes
370
               5
390
0
  6
Continuous
 62
               7
100
AcDbDimension
  2
*D9
 10
-656.61644573585181
 20
186.02845627059287
 30
0.0
 11
-436.61644573585181
 21
186.02845627059287
 31
0.0
 71
               5
 72
               1
 41
1.0
 42
0.0
  3
tfrom線あり
100
AcDbAlignedDimension
 13
-216.61644573585181
 23
348.49980666859483
 33
0.0
 14
-656.61644573585181
 24
348.49980666859483
 34
0.0
100
AcDbRotatedDimension
1001
ACAD
1000
DSTYLE
1002
{
1070
             279
1070
               2
1070
             340
1005
35
1070
             147
1040
5.0
1002
}
  0
DIMENSION
  5
18E
100
AcDbEntity
  8
notes
370
               5
390
0
  6
Continuous
 62
               7
100
AcDbDimension
  2
*D10
 10
239.0012421138581
 20
181.29966820089612
 30
0.0
 11
504.0012421138581
 21
181.29966820089612
 31
0.0
 71
               5
 72
               1
 41
1.0
 42
0.0
  3
tfrom線あり
100
AcDbAlignedDimension
 13
769.0012421138581
 23
524.28890012568445
 33
0.0
 14
239.0012421138581
 24
525.08572932683455
 34
0.0
100
AcDbRotatedDimension
1001
ACAD
1000
DSTYLE
1002
{
1070
             279
1070
               2
1070
             340
1005
35
1070
             147
1040
5.0
1002
}
  0
DIMENSION
  5
18F
100
AcDbEntity
  8
notes
370
               5
390
0
  6
Continuous
 62
               7
100
AcDbDimension
  2
*D11
 10
875.0
 20
715.47932604077505
 30
0.0
 11
875.0
 21
525.47932604077505
 31
0.0
 71
               5
 72
               1
 41
1.0
 42
0.0
  3
tfrom線あり
100
AcDbAlignedDimension
 13
504.12437405703349
 23
335.47932604077505
 33
0.0
 14
504.12437405703349
 24
715.47932604077505
 34
0.0
 50
90.0
100
AcDbRotatedDimension
1001
ACAD
1000
DSTYLE
1002
{
1070
             279
1070
               2
1070
             340
1005
35
1070
             147
1040
5.0
1002
}
  0
DIMENSION
  5
190
100
AcDbEntity
  8
notes
370
               5
390
0
  6
Continuous
 62
               7
100
AcDbDimension
  2
*D12
 10
546.78547851037001
 20
-437.419193197813
 30
0.0
 11
541.78547851037001
 21
-506.53687077152426
 31
0.0
 70
             128
 71
               5
 72
               1
 41
1.0
 42
0.0
  3
tfrom線あり
100
AcDbAlignedDimension
 13
600.88439505725182
 23
-572.419193197813
 33
0.0
 14
600.90315608408491
 24
-437.419193197813
 34
0.0
 50
90.0
100
AcDbRotatedDimension
1001
ACAD
1000
DSTYLE
1002
{
1070
             279
1070
               2
1070
             340
1005
35
1070
               3
1000
<>(深さ)
1070
             147
1040
5.0
1002
}
  0
DIMENSION
  5
191
100
AcDbEntity
  8
notes
370
               5
390
0
  6
Continuous
 62
               7
100
AcDbDimension
  2
*D13
 10
688.852340926127
 20
-317.80252474722511
 30
0.0
 11
731.352340926127
 21
-317.80252474722511
 31
0.0
 71
               5
 72
               1
 41
1.0
 42
0.0
  3
tfrom線あり
100
AcDbAlignedDimension
 13
773.852340926127
 23
-437.52546396301477
 33
0.0
 14
688.852340926127
 24
-437.52546396301477
 34
0.0
100
AcDbRotatedDimension
1001
ACAD
1000
DSTYLE
1002
{
1070
             279
1070
               2
1070
             340
1005
35
1070
             147
1040
5.0
1002
}
  0
DIMENSION
  5
192
100
AcDbEntity
  8
notes
370
               5
390
0
  6
Continuous
 62
               7
100
AcDbDimension
  2
*D14
 10
193.85234092639621
 20
-416.53403230824915
 30
0.0
 11
193.85234092639621
 21
-446.5532412926259
 31
0.0
 71
               5
 72
               1
 41
1.0
 42
0.0
  3
tfrom線あり
100
AcDbAlignedDimension
 13
313.86372683576155
 23
-476.57245027698809
 33
0.0
 14
298.76468386701163
 24
-416.53403230824915
 34
0.0
 50
90.0
100
AcDbRotatedDimension
1001
ACAD
1000
DSTYLE
1002
{
1070
             279
1070
               2
1070
             340
1005
35
1070
             147
1040
5.0
1002
}
  0
DIMENSION
  5
193
100
AcDbEntity
  8
notes
370
               5
390
0
  6
Continuous
 62
               7
100
AcDbDimension
  2
*D15
 10
193.85234092639621
 20
-476.57245027698809
 30
0.0
 11
193.85234092639621
 21
-544.07595221427619
 31
0.0
 71
               5
 72
               1
 41
1.0
 42
0.0
  3
tfrom線あり
100
AcDbAlignedDimension
 13
532.30976199200995
 23
-611.57945415157883
 33
0.0
 14
313.86372683575973
 24
-476.57245027698809
 34
0.0
 50
90.0
100
AcDbRotatedDimension
1001
ACAD
1000
DSTYLE
1002
{
1070
             279
1070
               2
1070
             340
1005
35
1070
             147
1040
5.0
1002
}
  0
DIMENSION
  5
194
100
AcDbEntity
  8
notes
370
               5
390
0
  6
Continuous
 62
               7
100
AcDbDimension
  2
*D16
 10
568.79621707013393
 20
-711.57958110469917
 30
0.0
 11
671.29621707013393
 21
-711.57958110469917
 31
0.0
 71
               5
 72
               1
 41
1.0
 42
0.0
  3
tfrom線あり
100
AcDbAlignedDimension
 13
773.79621707013393
 23
-421.80252474722511
 33
0.0
 14
568.79621707013393
 24
-611.57958110469917
 34
0.0
100
AcDbRotatedDimension
1001
ACAD
1000
DSTYLE
1002
{
1070
             279
1070
               2
1070
             340
1005
35
1070
             147
1040
5.0
1002
}
  0
DIMENSION
  5
195
100
AcDbEntity
  8
notes
370
               5
390
0
  6
Continuous
 62
               7
100
AcDbDimension
  2
*D17
 10
-11.616445735668094
 20
-416.53403230824915
 30
0.0
 11
-11.616445735668094
 21
-514.05681656007073
 31
0.0
 71
               5
 72
               1
 41
1.0
 42
0.0
  3
tfrom線あり
100
AcDbAlignedDimension
 13
-400.19178127063424
 23
-611.57960081187775
 33
0.0
 14
-116.57683688093675
 24
-416.53403230824915
 34
0.0
 50
90.0
100
AcDbRotatedDimension
1001
ACAD
1000
DSTYLE
1002
{
1070
             279
1070
               2
1070
             340
1005
35
1070
             147
1040
5.0
1002
}
  0
MTEXT
  5
196
100
AcDbEntity
  8
template
390
0
 62
               7
100
AcDbMText
 10
-967.99999999975989
 20
-1147.4176292336924
 30
0.0
 40
16.288411458333332
 41
0.0
 71
               1
 72
               1
  1
品名
  7
ＭＳ ゴシック
 73
               1
 44
0.7828267384257843
  0
MTEXT
  5
197
100
AcDbEntity
  8
template
390
0
 62
               7
100
AcDbMText
 10
-967.99999999975989
 20
-1232.4176292336924
 30
0.0
 40
16.288411458333332
 41
0.0
 71
               1
 72
               1
  1
仕様
  7
ＭＳ ゴシック
 73
               1
 44
0.7828267384257843
  0
MTEXT
  5
198
100
AcDbEntity
  8
template
390
0
 62
               7
100
AcDbMText
 10
-914.99999999975989
 20
-1176.0000901711901
 30
0.0
 40
24.432617187500004
 41
0.0
 71
               1
 72
               1
  1
洗面器  -HATRIA,Dolcevita-
  7
ＭＳ ゴシック
 73
               1
 44
0.7828267384257843
  0
LINE
  5
199
100
AcDbEntity
  8
template
370
               5
390
0
  6
Continuous
 62
               7
100
AcDbLine
 10
974.99999999975807
 20
-1224.0027073586971
 30
0.0
 11
-975.00000000024193
 21
-1224.0027073586971
 31
0.0
  0
LWPOLYLINE
  5
19A
100
AcDbEntity
  8
template
370
               5
390
0
  6
Continuous
 62
               7
100
AcDbPolyline
 90
        5
 70
             128
 10
975.00000000024193
 20
1405.9972926413029
 10
-974.99999999975989
 20
1405.9972926413029
 10
-974.99999999975989
 20
-1394.0027073586971
 10
975.00000000024193
 20
-1394.0027073586971
 10
975.00000000024193
 20
1405.9972926413029
  0
LINE
  5
19B
100
AcDbEntity
  8
template
370
               5
390
0
  6
Continuous
 62
               7
100
AcDbLine
 10
974.99999999975807
 20
-1139.0027073586971
 30
0.0
 11
-975.00000000024193
 21
-1139.0027073586971
 31
0.0
  0
LINE
  5
19C
100
AcDbEntity
  8
template
370
               5
390
0
  6
Continuous
 62
               7
100
AcDbLine
 10
975.00000000024193
 20
-1309.0027073586971
 30
0.0
 11
222.00000000024193
 21
-1309.0027073586971
 31
0.0
  0
MTEXT
  5
19D
100
AcDbEntity
  8
template
390
0
 62
               7
100
AcDbMText
 10
-914.99999999975989
 20
-1261.0000901711901
 30
0.0
 40
24.432617187500004
 41
0.0
 71
               1
 72
               1
  1
オーバーカウンター/オーバーフロー付き/\P陶器/ホワイト
  7
ＭＳ ゴシック
 73
               1
 44
1.1307497332816883
  0
MTEXT
  5
19E
100
AcDbEntity
  8
template
390
0
 62
               7
100
AcDbMText
 10
-974.99999999955617
 20
-1405.856529415556
 30
0.0
 40
21.717881944444446
 41
0.0
 71
               1
 72
               1
  1
110928HS
  7
ＭＳ ゴシック
 73
               1
 44
0.7828267384257843
  0
MTEXT
  5
19F
100
AcDbEntity
  8
template
390
0
 62
               7
100
AcDbMText
 10
251.8714062525014
 20
-1338.913101832004
 30
0.0
 40
24.432617187500004
 41
0.0
 71
               1
 72
               1
  1
大洋金物株式会社 ティーフォルム事業部
  7
ＭＳ ゴシック
 73
               1
 44
0.7828267384257843
  0
INSERT
  5
1A0
100
AcDbEntity
  8
template
390
0
 62
               7
100
AcDbBlockReference
  2
グループ
 10
-14438.697625129538
 20
-81537.945200247981
 30
0.0
  0
MTEXT
  5
1A1
100
AcDbEntity
  8
template
390
0
 62
               7
100
AcDbMText
 10
784.00000000050022
 20
-1261.0000901711901
 30
0.0
 40
24.432617187500004
 41
0.0
 71
               1
 72
               1
  1
1:10
  7
ＭＳ ゴシック
 73
               1
 44
0.7828267384257843
  0
MTEXT
  5
1A2
100
AcDbEntity
  8
template
390
0
 62
               7
100
AcDbMText
 10
731.00000000050022
 20
-1232.4176292336924
 30
0.0
 40
16.288411458333332
 41
0.0
 71
               1
 72
               1
  1
縮尺
  7
ＭＳ ゴシック
 73
               1
 44
0.7828267384257843
  0
LINE
  5
1A3
100
AcDbEntity
  8
template
370
               5
390
0
  6
Continuous
 62
               7
100
AcDbLine
 10
724.00000000050022
 20
-1309.0027073586971
 30
0.0
 11
724.00000000050022
 21
-1224.0027073586971
 31
0.0
  0
MTEXT
  5
1A4
100
AcDbEntity
  8
template
390
0
 62
               7
100
AcDbMText
 10
480.00000000050022
 20
-1232.4176292336924
 30
0.0
 40
16.288411458333332
 41
0.0
 71
               1
 72
               1
  1
容量
  7
ＭＳ ゴシック
 73
               1
 44
0.7828267384257843
  0
MTEXT
  5
1A5
100
AcDbEntity
  8
template
390
0
 62
               7
100
AcDbMText
 10
533.00000000050022
 20
-1261.0000901711901
 30
0.0
 40
24.432617187500004
 41
0.0
 71
               1
 72
               1
  1
4.5L
  7
ＭＳ ゴシック
 73
               1
 44
0.7828267384257843
  0
LINE
  5
1A6
100
AcDbEntity
  8
template
370
               5
390
0
  6
Continuous
 62
               7
100
AcDbLine
 10
473.00000000050022
 20
-1309.0027073586971
 30
0.0
 11
473.00000000050022
 21
-1224.0027073586971
 31
0.0
  0
MTEXT
  5
1A7
100
AcDbEntity
  8
template
390
0
 62
               7
100
AcDbMText
 10
229.00000000050022
 20
-1147.4176292336924
 30
0.0
 40
16.288411458333332
 41
0.0
 71
               1
 72
               1
  1
品番
  7
ＭＳ ゴシック
 73
               1
 44
0.7828267384257843
  0
MTEXT
  5
1A8
100
AcDbEntity
  8
template
390
0
 62
               7
100
AcDbMText
 10
229.00000000050022
 20
-1232.4176292336924
 30
0.0
 40
16.288411458333332
 41
0.0
 71
               1
 72
               1
  1
重量
  7
ＭＳ ゴシック
 73
               1
 44
0.7828267384257843
  0
MTEXT
  5
1A9
100
AcDbEntity
  8
template
390
0
 62
               7
100
AcDbMText
 10
282.00000000050022
 20
-1176.0000901711901
 30
0.0
 40
24.432617187500004
 41
0.0
 71
               1
 72
               1
  1
ABA70-0006
  7
ＭＳ ゴシック
 73
               1
 44
0.7828267384257843
  0
MTEXT
  5
1AA
100
AcDbEntity
  8
template
390
0
 62
               7
100
AcDbMText
 10
282.00000000050022
 20
-1261.0000901711901
 30
0.0
 40
24.432617187500004
 41
0.0
 71
               1
 72
               1
  1
12.5kg
  7
ＭＳ ゴシック
 73
               1
 44
0.7828267384257843
  0
LINE
  5
1AB
100
AcDbEntity
  8
template
370
               5
390
0
  6
Continuous
 62
               7
100
AcDbLine
 10
222.00000000050022
 20
-1394.0027073586971
 30
0.0
 11
222.00000000050022
 21
-1139.0027073586971
 31
0.0
  0
DIMENSION
  5
1AC
100
AcDbEntity
  8
template
370
               5
390
0
  6
Continuous
 62
               7
100
AcDbDimension
  2
*D19
 10
-450.61405472501065
 20
668.93230223337014
 30
0.0
 11
-281.99999999999636
 21
806.0
 31
0.0
 70
               3
 71
               5
 72
               1
 41
1.0
 42
0.0
  3
tfrom線あり
100
AcDbDiametricDimension
 15
-422.61883674670389
 25
693.12461030729173
 35
0.0
 40
172.63294619319581
1001
ACAD
1000
DSTYLE
1002
{
1070
             289
1070
               0
1070
             342
1005
45
1070
             340
1005
35
1070
              73
1070
               1
1070
              74
1070
               1
1070
              75
1070
               1
1070
              76
1070
               1
1070
               3
1000

1070
             174
1070
               0
1070
             147
1040
5.0
1002
}
  0
ENDSEC
  0
SECTION
  2
OBJECTS
  0
DICTIONARY
  5
19
100
AcDbDictionary
280
               0
281
               1
  3
ACAD_GROUP
350
1A
  3
ACAD_MLINESTYLE
350
1B
  3
ACAD_LAYOUT
350
1E
  3
ACAD_PLOTSETTINGS
350
22
  3
ACAD_PLOTSTYLENAME
350
1F
  0
DICTIONARY
  5
1A
102
{ACAD_REACTORS
330
19
102
}
100
AcDbDictionary
280
               0
281
               1
  0
DICTIONARY
  5
1B
102
{ACAD_REACTORS
330
19
102
}
100
AcDbDictionary
280
               0
281
               1
  3
Standard
350
1C
  0
MLINESTYLE
  5
1C
102
{ACAD_REACTORS
330
1B
102
}
100
AcDbMlineStyle
  2
Standard
 70
               0
  3

 62
               0
 51
90.0
 52
90.0
 71
               2
 49
0.5
 62
             256
  6
ByLayer
 49
-0.5
 62
             256
  6
ByLayer
  0
ACDBDICTIONARYWDFLT
  5
1F
102
{ACAD_REACTORS
330
19
102
}
100
AcDbDictionary
281
               1
  3
Normal
350
1D
100
AcDbDictionaryWithDefault
340
1D
  0
ACDBPLACEHOLDER
  5
1D
102
{ACAD_REACTORS
330
1F
102
}
  0
LAYOUT
  5
20
102
{ACAD_REACTORS
330
1E
102
}
100
AcDbPlotSettings
  1

  2

  4

  6

 40
0.0
 41
0.0
 42
0.0
 43
0.0
 44
0.0
 45
0.0
 46
0.0
 47
0.0
 48
0.0
 49
0.0
140
0.0
141
0.0
142
1.0
143
1.0
 70
            1024
 72
               0
 73
               0
 74
               0
  7

 75
               0
147
1.0
148
0.0
149
0.0
100
AcDbLayout
  1
Model
 70
               0
 71
               0
 10
0.0
 20
0.0
 11
0.0
 21
0.0
 12
0.0
 22
0.0
 32
0.0
 14
0.0
 24
0.0
 34
0.0
 15
0.0
 25
0.0
 35
0.0
146
0.0
 13
0.0
 23
0.0
 33
0.0
 16
0.0
 26
0.0
 36
0.0
 17
0.0
 27
0.0
 37
0.0
 76
               0
330
A
331
0
345
0
346
0
  0
LAYOUT
  5
21
102
{ACAD_REACTORS
330
1E
102
}
100
AcDbPlotSettings
  1

  2

  4

  6

 40
0.0
 41
0.0
 42
0.0
 43
0.0
 44
0.0
 45
0.0
 46
0.0
 47
0.0
 48
0.0
 49
0.0
140
0.0
141
0.0
142
1.0
143
1.0
 70
               0
 72
               0
 73
               0
 74
               0
  7

 75
               0
147
1.0
148
0.0
149
0.0
100
AcDbLayout
  1
Layout1
 70
               0
 71
               0
 10
0.0
 20
0.0
 11
0.0
 21
0.0
 12
0.0
 22
0.0
 32
0.0
 14
0.0
 24
0.0
 34
0.0
 15
0.0
 25
0.0
 35
0.0
146
0.0
 13
0.0
 23
0.0
 33
0.0
 16
0.0
 26
0.0
 36
0.0
 17
0.0
 27
0.0
 37
0.0
 76
               0
330
B
331
0
345
0
346
0
  0
DICTIONARY
  5
1E
102
{ACAD_REACTORS
330
19
102
}
100
AcDbDictionary
280
               0
281
               1
  3
Layout1
350
21
  3
Model
350
20
  0
DICTIONARY
  5
22
102
{ACAD_REACTORS
330
19
102
}
100
AcDbDictionary
280
               0
281
               1
  0
ENDSEC
  0
EOF
