  0
SECTION
  2
HEADER
  9
$ACADVER
  1
AC1015
  9
$ACADMAINTVER
 70
               6
  9
$DWGCODEPAGE
  3
ANSI_932
  9
$INSBASE
 10
0.0
 20
0.0
 30
0.0
  9
$EXTMIN
 10
-1050.0000000002328
 20
-1485.0
 30
-14.428611111111241
  9
$EXTMAX
 10
1049.9999999997672
 20
1485.0
 30
14.428611111111241
  9
$LIMMIN
 10
0.0
 20
0.0
  9
$LIMMAX
 10
0.0
 20
0.0
  9
$ORTHOMODE
 70
               0
  9
$REGENMODE
 70
               1
  9
$FILLMODE
 70
               1
  9
$QTEXTMODE
 70
               0
  9
$MIRRTEXT
 70
               1
  9
$LTSCALE
 40
50.799999999999997
  9
$ATTMODE
 70
               1
  9
$TEXTSIZE
 40
0.2
  9
$TRACEWID
 40
1.0
  9
$TEXTSTYLE
  7
Standard
  9
$CLAYER
  8
notes
  9
$CELTYPE
  6
Continuous
  9
$CECOLOR
 62
             256
  9
$CELTSCALE
 40
1.0
  9
$DISPSILH
 70
               0
  9
$DIMSCALE
 40
1.0
  9
$DIMASZ
 40
9.9993896484374982
  9
$DIMEXO
 40
24.999999999999996
  9
$DIMDLI
 40
0.9999999999999999
  9
$DIMRND
 40
0.0
  9
$DIMDLE
 40
0.0
  9
$DIMEXE
 40
0.0
  9
$DIMTP
 40
0.0
  9
$DIMTM
 40
0.0
  9
$DIMTXT
 40
24.432617187500004
  9
$DIMCEN
 40
0.0
  9
$DIMTSZ
 40
0.0
  9
$DIMTOL
 70
               0
  9
$DIMLIM
 70
               0
  9
$DIMTIH
 70
               0
  9
$DIMTOH
 70
               0
  9
$DIMSE1
 70
               0
  9
$DIMSE2
 70
               0
  9
$DIMTAD
 70
               1
  9
$DIMZIN
 70
              11
  9
$DIMBLK
  1
_DOT
  9
$DIMASO
 70
               1
  9
$DIMSHO
 70
               1
  9
$DIMPOST
  1
<>
  9
$DIMAPOST
  1
[]
  9
$DIMALT
 70
               0
  9
$DIMALTD
 70
               3
  9
$DIMALTF
 40
0.0393700787401575
  9
$DIMLFAC
 40
1.0
  9
$DIMTOFL
 70
               0
  9
$DIMTVP
 40
0.0
  9
$DIMTIX
 70
               1
  9
$DIMSOXD
 70
               0
  9
$DIMSAH
 70
               0
  9
$DIMBLK1
  1

  9
$DIMBLK2
  1

  9
$DIMSTYLE
  2
tfrom線あり
  9
$DIMCLRD
 70
               0
  9
$DIMCLRE
 70
               0
  9
$DIMCLRT
 70
               0
  9
$DIMTFAC
 40
1.0
  9
$DIMGAP
 40
0.4999999999999999
  9
$DIMJUST
 70
               0
  9
$DIMSD1
 70
               0
  9
$DIMSD2
 70
               0
  9
$DIMTOLJ
 70
               1
  9
$DIMTZIN
 70
              11
  9
$DIMALTZ
 70
              15
  9
$DIMALTTZ
 70
              15
  9
$DIMUPT
 70
               0
  9
$DIMDEC
 70
               1
  9
$DIMTDEC
 70
               1
  9
$DIMALTU
 70
               4
  9
$DIMALTTD
 70
               2
  9
$DIMTXSTY
  7
ＭＳ ゴシック
  9
$DIMAUNIT
 70
               0
  9
$DIMADEC
 70
               2
  9
$DIMALTRND
 40
0.0
  9
$DIMAZIN
 70
               0
  9
$DIMDSEP
 70
              46
  9
$DIMATFIT
 70
               0
  9
$DIMFRAC
 70
               2
  9
$DIMLDRBLK
  1

  9
$DIMLUNIT
 70
               2
  9
$DIMLWD
 70
              -2
  9
$DIMLWE
 70
              -2
  9
$DIMTMOVE
 70
               0
  9
$LUNITS
 70
               2
  9
$LUPREC
 70
               4
  9
$SKETCHINC
 40
0.1
  9
$FILLETRAD
 40
0.0
  9
$AUNITS
 70
               0
  9
$AUPREC
 70
               0
  9
$MENU
  1
acad
  9
$ELEVATION
 40
0.0
  9
$PELEVATION
 40
0.0
  9
$THICKNESS
 40
0.0
  9
$LIMCHECK
 70
               0
  9
$CHAMFERA
 40
0.0
  9
$CHAMFERB
 40
0.0
  9
$CHAMFERC
 40
0.0
  9
$CHAMFERD
 40
0.0
  9
$SKPOLY
 70
               0
  9
$TDCREATE
 40
2456021.663877315
  9
$TDUCREATE
 40
0.000000000
  9
$TDUPDATE
 40
2456021.663877315
  9
$TDUUPDATE
 40
0.000000000
  9
$TDINDWG
 40
0.0000000000
  9
$TDUSRTIMER
 40
0.0000000000
  9
$USRTIMER
 70
               1
  9
$ANGBASE
 50
0.0
  9
$ANGDIR
 70
               0
  9
$PDMODE
 70
               1
  9
$PDSIZE
 40
-2.0
  9
$PLINEWID
 40
0.0
  9
$SPLFRAME
 70
               0
  9
$SPLINETYPE
 70
               6
  9
$SPLINESEGS
 70
               8
  9
$HANDSEED
  5
1DC
  9
$SURFTAB1
 70
               6
  9
$SURFTAB2
 70
               6
  9
$SURFTYPE
 70
               6
  9
$SURFU
 70
               6
  9
$SURFV
 70
               6
  9
$UCSBASE
  2

  9
$UCSNAME
  2

  9
$UCSORG
 10
0.0
 20
0.0
 30
0.0
  9
$UCSXDIR
 10
1.0
 20
0.0
 30
0.0
  9
$UCSYDIR
 10
0.0
 20
1.0
 30
0.0
  9
$UCSORTHOREF
  2

  9
$UCSORTHOVIEW
 70
               0
  9
$UCSORGTOP
 10
0.0
 20
0.0
 30
0.0
  9
$UCSORGBOTTOM
 10
0.0
 20
0.0
 30
0.0
  9
$UCSORGLEFT
 10
0.0
 20
0.0
 30
0.0
  9
$UCSORGRIGHT
 10
0.0
 20
0.0
 30
0.0
  9
$UCSORGFRONT
 10
0.0
 20
0.0
 30
0.0
  9
$UCSORGBACK
 10
0.0
 20
0.0
 30
0.0
  9
$PUCSBASE
  2

  9
$PUCSNAME
  2

  9
$PUCSORG
 10
0.0
 20
0.0
 30
0.0
  9
$PUCSXDIR
 10
1.0
 20
0.0
 30
0.0
  9
$PUCSYDIR
 10
0.0
 20
1.0
 30
0.0
  9
$PUCSORTHOREF
  2

  9
$PUCSORTHOVIEW
 70
               0
  9
$PUCSORGTOP
 10
0.0
 20
0.0
 30
0.0
  9
$PUCSORGBOTTOM
 10
0.0
 20
0.0
 30
0.0
  9
$PUCSORGLEFT
 10
0.0
 20
0.0
 30
0.0
  9
$PUCSORGRIGHT
 10
0.0
 20
0.0
 30
0.0
  9
$PUCSORGFRONT
 10
0.0
 20
0.0
 30
0.0
  9
$PUCSORGBACK
 10
0.0
 20
0.0
 30
0.0
  9
$USERI1
 70
               0
  9
$USERI2
 70
               0
  9
$USERI3
 70
               0
  9
$USERI4
 70
               0
  9
$USERI5
 70
               0
  9
$USERR1
 40
0.0
  9
$USERR2
 40
0.0
  9
$USERR3
 40
0.0
  9
$USERR4
 40
0.0
  9
$USERR5
 40
0.0
  9
$WORLDVIEW
 70
               1
  9
$SHADEDGE
 70
               3
  9
$SHADEDIF
 70
              70
  9
$TILEMODE
 70
               1
  9
$MAXACTVP
 70
              64
  9
$PINSBASE
 10
0.0
 20
0.0
 30
0.0
  9
$PLIMCHECK
 70
               0
  9
$PEXTMIN
 10
1.0000000000000000E+20
 20
1.0000000000000000E+20
 30
1.0000000000000000E+20
  9
$PEXTMAX
 10
-1.0000000000000000E+20
 20
-1.0000000000000000E+20
 30
-1.0000000000000000E+20
  9
$PLIMMIN
 10
0.0
 20
0.0
  9
$PLIMMAX
 10
12.0
 20
9.0
  9
$UNITMODE
 70
               0
  9
$VISRETAIN
 70
               0
  9
$PLINEGEN
 70
               1
  9
$PSLTSCALE
 70
               0
  9
$TREEDEPTH
 70
            3020
  9
$CMLSTYLE
  2
Standard
  9
$CMLJUST
 70
               0
  9
$CMLSCALE
 40
1.0
  9
$PROXYGRAPHICS
 70
               0
  9
$MEASUREMENT
 70
               1
  9
$CELWEIGHT
370
               0
  9
$ENDCAPS
280
               0
  9
$JOINSTYLE
280
               0
  9
$LWDISPLAY
290
               1
  9
$INSUNITS
 70
               4
  9
$HYPERLINKBASE
  1

  9
$STYLESHEET
  1

  9
$XEDIT
290
               1
  9
$CEPSNTYPE
380
               0
  9
$PSTYLEMODE
290
               1
  9
$FINGERPRINTGUID
  2

  9
$VERSIONGUID
  2

  9
$EXTNAMES
290
               1
  9
$PSVPSCALE
 40
0.0
  0
ENDSEC
  0
SECTION
  2
CLASSES
  0
CLASS
  1
LWPOLYLINE
  2
AcDbPolyline
  3
AutoCAD 2000
 90
        0
280
               0
281
               1
  0
CLASS
  1
IMAGE
  2
AcDbRasterImage
  3
ISM
 90
      127
280
               0
281
               1
  0
CLASS
  1
OLE2FRAME
  2
AcDbOle2Frame
  3
AutoCAD 2000
 90
        0
280
               0
281
               1
  0
CLASS
  1
HATCH
  2
AcDbHatch
  3
AutoCAD 2000
 90
        0
280
               0
281
               1
  0
CLASS
  1
DICTIONARYVAR
  2
AcDbDictionaryVar
  3
AutoCAD 2000
 90
        0
280
               0
281
               0
  0
CLASS
  1
RASTERVARIABLES
  2
AcDbRasterVariables
  3
ISM
 90
        0
280
               0
281
               0
  0
CLASS
  1
IMAGEDEF
  2
AcDbRasterImageDef
  3
ISM
 90
        0
280
               0
281
               0
  0
CLASS
  1
IMAGEDEF_REACTOR
  2
AcDbRasterImageDefReactor
  3
ISM
 90
        1
280
               0
281
               0
  0
CLASS
  1
IDBUFFER
  2
AcDbIdBuffer
  3
AutoCAD 2000
 90
        0
280
               0
281
               0
  0
CLASS
  1
SPATIAL_FILTER
  2
AcDbSpatialFilter
  3
AutoCAD 2000
 90
        0
280
               0
281
               0
  0
CLASS
  1
XRECORD
  2
AcDbXrecord
  3
AutoCAD 2000
 90
        0
280
               0
281
               0
  0
CLASS
  1
SORTENTSTABLE
  2
AcDbSortentsTable
  3
AutoCAD 2000
 90
        0
280
               0
281
               0
  0
CLASS
  1
LAYER_INDEX
  2
AcDbLayerIndex
  3
AutoCAD 2000
 90
        0
280
               0
281
               0
  0
CLASS
  1
SPATIAL_INDEX
  2
AcDbSpatialIndex
  3
AutoCAD 2000
 90
        0
280
               0
281
               0
  0
CLASS
  1
OBJECT_PTR
  2
CAseDLPNTableRecord
  3
"ASE-LPNTableRecord"
 90
        1
280
               0
281
               0
  0
CLASS
  1
LAYOUT
  2
AcDbLayout
  3
AutoCAD 2000
 90
        0
280
               0
281
               0
  0
CLASS
  1
PLOTSETTINGS
  2
AcDbPlotSettings
  3
AutoCAD 2000
 90
        0
280
               0
281
               0
  0
CLASS
  1
ACDBDICTIONARYWDFLT
  2
AcDbDictionaryWithDefault
  3
AutoCAD 2000
 90
        0
280
               0
281
               0
  0
CLASS
  1
ACDBPLACEHOLDER
  2
AcDbPlaceHolder
  3
AutoCAD 2000
 90
        0
280
               0
281
               0
  0
ENDSEC
  0
SECTION
  2
TABLES
  0
TABLE
  2
VPORT
  5
7
100
AcDbSymbolTable
 70
               1
  0
VPORT
  5
15
100
AcDbSymbolTableRecord
100
AcDbViewportTableRecord
  2
*ACTIVE
 70
               0
 10
0.0
 20
0.0
 11
1.0
 21
1.0
 12
-0.0000000002328306
 22
0.0
 13
0.0
 23
0.0
 14
1.0
 24
1.0
 15
0.0
 25
0.0
 16
0.0
 26
0.0
 36
1.0
 17
0.0
 27
0.0
 37
0.0
 40
2970.0
 41
0.688564
 42
50.0
 43
0.0
 44
0.0
 50
0.0
 51
0.0
 71
               0
 72
            2000
 73
               1
 74
               1
 75
               0
 76
               0
 77
               0
 78
               0
281
               0
 65
               0
110
0.0
120
0.0
130
0.0
111
1.0
121
0.0
131
0.0
112
0.0
122
1.0
132
0.0
345
0
346
0
 79
               0
146
0.0
  0
ENDTAB
  0
TABLE
  2
LTYPE
  5
4
100
AcDbSymbolTable
 70
              14
  0
LTYPE
  5
11
100
AcDbSymbolTableRecord
100
AcDbLinetypeTableRecord
  2
ByBlock
 70
              64
  3

 72
              65
 73
               0
 40
0.0
  0
LTYPE
  5
12
100
AcDbSymbolTableRecord
100
AcDbLinetypeTableRecord
  2
ByLayer
 70
              64
  3

 72
              65
 73
               0
 40
0.0
  0
LTYPE
  5
13
100
AcDbSymbolTableRecord
100
AcDbLinetypeTableRecord
  2
Continuous
 70
              64
  3
Solid line
 72
              65
 73
               0
 40
0.0
  0
LTYPE
  5
38
100
AcDbSymbolTableRecord
100
AcDbLinetypeTableRecord
  2
STYLE_01
 70
               0
  3

 72
              65
 73
               2
 40
0.41664
 49
0.20828
 74
               0
 49
-0.20836
 74
               0
  0
LTYPE
  5
39
100
AcDbSymbolTableRecord
100
AcDbLinetypeTableRecord
  2
STYLE_02
 70
               0
  3

 72
              65
 73
               2
 40
0.6944250000000001
 49
0.48607
 74
               0
 49
-0.2083550000000001
 74
               0
  0
LTYPE
  5
3A
100
AcDbSymbolTableRecord
100
AcDbLinetypeTableRecord
  2
STYLE_03
 70
               0
  3

 72
              65
 73
               2
 40
1.25
 49
1.0416400000000001
 74
               0
 49
-0.2083599999999999
 74
               0
  0
LTYPE
  5
3B
100
AcDbSymbolTableRecord
100
AcDbLinetypeTableRecord
  2
STYLE_04
 70
               0
  3

 72
              65
 73
               2
 40
1.5277099999999999
 49
1.3194249999999998
 74
               0
 49
-0.208285
 74
               0
  0
LTYPE
  5
3C
100
AcDbSymbolTableRecord
100
AcDbLinetypeTableRecord
  2
STYLE_05
 70
               0
  3

 72
              65
 73
               2
 40
0.20828
 49
0.069425
 74
               0
 49
-0.138855
 74
               0
  0
LTYPE
  5
3D
100
AcDbSymbolTableRecord
100
AcDbLinetypeTableRecord
  2
STYLE_06
 70
               0
  3

 72
              65
 73
               4
 40
1.0416400000000001
 49
0.625
 74
               0
 49
-0.20828
 74
               0
 49
0.06943
 74
               0
 49
-0.13893
 74
               0
  0
LTYPE
  5
3E
100
AcDbSymbolTableRecord
100
AcDbLinetypeTableRecord
  2
STYLE_07
 70
               0
  3

 72
              65
 73
               6
 40
1.875
 49
0.625
 74
               0
 49
-0.20828
 74
               0
 49
0.6250000000000001
 74
               0
 49
-0.2083599999999999
 74
               0
 49
0.06943
 74
               0
 49
-0.1389299999999999
 74
               0
  0
LTYPE
  5
3F
100
AcDbSymbolTableRecord
100
AcDbLinetypeTableRecord
  2
STYLE_08
 70
               0
  3

 72
              65
 73
               6
 40
1.25
 49
0.625
 74
               0
 49
-0.20828
 74
               0
 49
0.06943
 74
               0
 49
-0.13893
 74
               0
 49
0.0694299999999999
 74
               0
 49
-0.13893
 74
               0
  0
LTYPE
  5
40
100
AcDbSymbolTableRecord
100
AcDbLinetypeTableRecord
  2
STYLE_09
 70
               0
  3

 72
              65
 73
               4
 40
5.0
 49
3.75
 74
               0
 49
-0.2777849999999998
 74
               0
 49
0.6944300000000003
 74
               0
 49
-0.2777849999999998
 74
               0
  0
LTYPE
  5
41
100
AcDbSymbolTableRecord
100
AcDbLinetypeTableRecord
  2
STYLE_10
 70
               0
  3

 72
              65
 73
               6
 40
5.9375
 49
3.75
 74
               0
 49
-0.2777849999999998
 74
               0
 49
0.6944300000000003
 74
               0
 49
-0.2777849999999998
 74
               0
 49
0.625
 74
               0
 49
-0.3125
 74
               0
  0
LTYPE
  5
42
100
AcDbSymbolTableRecord
100
AcDbLinetypeTableRecord
  2
STYLE_11
 70
               0
  3

 72
              65
 73
               2
 40
0.3937007874015748
 49
0.1968503937007874
 74
               0
 49
-0.1968503937007874
 74
               0
  0
ENDTAB
  0
TABLE
  2
LAYER
  5
2
100
AcDbSymbolTable
 70
               5
  0
LAYER
  5
14
100
AcDbSymbolTableRecord
100
AcDbLayerTableRecord
  2
0
 70
               0
 62
               7
  6
Continuous
290
               1
370
              -3
390
1D
  0
LAYER
  5
43
100
AcDbSymbolTableRecord
100
AcDbLayerTableRecord
  2
Defpoints
 70
               0
 62
               7
  6
Continuous
290
               0
370
              -3
390
1D
  0
LAYER
  5
44
100
AcDbSymbolTableRecord
100
AcDbLayerTableRecord
  2
template
 70
               0
 62
               7
  6
Continuous
290
               1
370
              -3
390
1D
  0
LAYER
  5
45
100
AcDbSymbolTableRecord
100
AcDbLayerTableRecord
  2
notes
 70
               0
 62
               7
  6
Continuous
290
               1
370
              -3
390
1D
  0
LAYER
  5
46
100
AcDbSymbolTableRecord
100
AcDbLayerTableRecord
  2
ABA70-0102
 70
               0
 62
               7
  6
Continuous
290
               1
370
              -3
390
1D
  0
ENDTAB
  0
TABLE
  2
STYLE
  5
3
100
AcDbSymbolTable
 70
               2
  0
STYLE
  5
17
100
AcDbSymbolTableRecord
100
AcDbTextStyleTableRecord
  2
Standard
 70
               0
 40
0.0
 41
1.0
 50
0.0
 71
               0
 42
0.0
  3
txt
  4
BIGFONT.SHX
  0
STYLE
  5
37
100
AcDbSymbolTableRecord
100
AcDbTextStyleTableRecord
  2
ＭＳ ゴシック
 70
               0
 40
0.0
 41
1.0
 50
0.0
 71
               0
 42
0.0
  3

  4
ＭＳ ゴシック
1001
ACAD
1000
ＭＳ ゴシック
1071
        0
  0
ENDTAB
  0
TABLE
  2
VIEW
  5
5
100
AcDbSymbolTable
 70
               0
  0
ENDTAB
  0
TABLE
  2
UCS
  5
6
100
AcDbSymbolTable
 70
               0
  0
ENDTAB
  0
TABLE
  2
APPID
  5
8
100
AcDbSymbolTable
 70
               1
  0
APPID
  5
16
100
AcDbSymbolTableRecord
100
AcDbRegAppTableRecord
  2
ACAD
 70
               0
  0
ENDTAB
  0
TABLE
  2
DIMSTYLE
  5
9
100
AcDbSymbolTable
 70
               2
100
AcDbDimStyleTable
 71
               0
  0
DIMSTYLE
105
18
100
AcDbSymbolTableRecord
100
AcDbDimStyleTableRecord
  2
Standard
 70
               0
  3

  4

 40
1.0
 41
0.18
 42
0.0625
 43
0.38
 44
0.18
 45
0.0
 46
0.0
 47
0.0
 48
0.0
 71
               0
 72
               0
 73
               1
 74
               1
 75
               0
 76
               0
 77
               0
 78
               0
 79
               0
140
0.18
141
0.09
142
0.0
143
25.399999999999999
144
1.0
145
0.0
146
1.0
147
0.09
148
0.0
170
               0
171
               2
172
               0
173
               0
174
               0
175
               0
176
               0
177
               0
178
               0
179
               0
271
               4
272
               4
273
               2
274
               2
275
               0
276
               0
277
               2
278
              46
279
               0
280
               0
281
               0
282
               0
283
               1
284
               0
285
               0
286
               0
288
               0
289
               3
340
17
341
0
342
0
343
0
344
0
371
              -2
372
              -2
  0
DIMSTYLE
105
4F
100
AcDbSymbolTableRecord
100
AcDbDimStyleTableRecord
  2
tfrom線あり
 70
               0
  3
<>
  4
[]
 40
1.0
 41
9.9993896484374982
 42
24.999999999999996
 43
0.9999999999999999
 44
0.0
 45
0.0
 46
0.0
 47
0.0
 48
0.0
 71
               0
 72
               0
 73
               0
 74
               0
 75
               0
 76
               0
 77
               1
 78
              11
 79
               0
140
24.432617187500004
141
0.0
142
0.0
143
0.0393700787401575
144
1.0
145
0.0
146
1.0
147
0.4999999999999999
148
0.0
170
               0
171
               3
172
               0
173
               0
174
               1
175
               0
176
               0
177
               0
178
               0
179
               2
271
               1
272
               1
273
               4
274
               2
275
               0
276
               2
277
               2
278
              46
279
               0
280
               0
281
               0
282
               0
283
               1
284
              11
285
              15
286
              15
288
               0
289
               0
340
37
341
47
342
47
343
0
344
0
371
              -2
372
              -2
  0
ENDTAB
  0
TABLE
  2
BLOCK_RECORD
  5
1
100
AcDbSymbolTable
 70
              21
  0
BLOCK_RECORD
  5
A
100
AcDbSymbolTableRecord
100
AcDbBlockTableRecord
  2
*MODEL_SPACE
340
20
  0
BLOCK_RECORD
  5
B
100
AcDbSymbolTableRecord
100
AcDbBlockTableRecord
  2
*PAPER_SPACE
340
21
  0
BLOCK_RECORD
  5
47
100
AcDbSymbolTableRecord
100
AcDbBlockTableRecord
  2
_DOT
340
0
  0
BLOCK_RECORD
  5
23
100
AcDbSymbolTableRecord
100
AcDbBlockTableRecord
  2
グループ
340
0
102
{BLKREFS
331
14D
102
}
  0
BLOCK_RECORD
  5
24
100
AcDbSymbolTableRecord
100
AcDbBlockTableRecord
  2
*D2
340
0
  0
BLOCK_RECORD
  5
25
100
AcDbSymbolTableRecord
100
AcDbBlockTableRecord
  2
*D3
340
0
  0
BLOCK_RECORD
  5
26
100
AcDbSymbolTableRecord
100
AcDbBlockTableRecord
  2
*D4
340
0
  0
BLOCK_RECORD
  5
27
100
AcDbSymbolTableRecord
100
AcDbBlockTableRecord
  2
*D5
340
0
  0
BLOCK_RECORD
  5
28
100
AcDbSymbolTableRecord
100
AcDbBlockTableRecord
  2
*D6
340
0
  0
BLOCK_RECORD
  5
29
100
AcDbSymbolTableRecord
100
AcDbBlockTableRecord
  2
*D7
340
0
  0
BLOCK_RECORD
  5
2A
100
AcDbSymbolTableRecord
100
AcDbBlockTableRecord
  2
*D8
340
0
  0
BLOCK_RECORD
  5
2B
100
AcDbSymbolTableRecord
100
AcDbBlockTableRecord
  2
*D9
340
0
  0
BLOCK_RECORD
  5
2C
100
AcDbSymbolTableRecord
100
AcDbBlockTableRecord
  2
*D10
340
0
  0
BLOCK_RECORD
  5
2D
100
AcDbSymbolTableRecord
100
AcDbBlockTableRecord
  2
*D11
340
0
  0
BLOCK_RECORD
  5
2E
100
AcDbSymbolTableRecord
100
AcDbBlockTableRecord
  2
*D12
340
0
  0
BLOCK_RECORD
  5
2F
100
AcDbSymbolTableRecord
100
AcDbBlockTableRecord
  2
*D13
340
0
  0
BLOCK_RECORD
  5
30
100
AcDbSymbolTableRecord
100
AcDbBlockTableRecord
  2
*D14
340
0
  0
BLOCK_RECORD
  5
31
100
AcDbSymbolTableRecord
100
AcDbBlockTableRecord
  2
*D15
340
0
  0
BLOCK_RECORD
  5
32
100
AcDbSymbolTableRecord
100
AcDbBlockTableRecord
  2
*D16
340
0
  0
BLOCK_RECORD
  5
33
100
AcDbSymbolTableRecord
100
AcDbBlockTableRecord
  2
*D17
340
0
  0
BLOCK_RECORD
  5
34
100
AcDbSymbolTableRecord
100
AcDbBlockTableRecord
  2
*D18
340
0
  0
BLOCK_RECORD
  5
35
100
AcDbSymbolTableRecord
100
AcDbBlockTableRecord
  2
*D19
340
0
  0
BLOCK_RECORD
  5
36
100
AcDbSymbolTableRecord
100
AcDbBlockTableRecord
  2
グループ-1
340
0
102
{BLKREFS
331
17D
102
}
  0
ENDTAB
  0
ENDSEC
  0
SECTION
  2
BLOCKS
  0
BLOCK
  5
D
100
AcDbEntity
  8
0
390
0
100
AcDbBlockBegin
  2
*MODEL_SPACE
 70
               0
 10
0.0
 20
0.0
 30
0.0
  3
*MODEL_SPACE
  1

  0
ENDBLK
  5
E
100
AcDbEntity
  8
0
390
0
100
AcDbBlockEnd
  0
BLOCK
  5
F
100
AcDbEntity
 67
               1
  8
0
390
0
100
AcDbBlockBegin
  2
*PAPER_SPACE
 70
               0
 10
0.0
 20
0.0
 30
0.0
  3
*PAPER_SPACE
  1

  0
ENDBLK
  5
10
100
AcDbEntity
 67
               1
  8
0
390
0
100
AcDbBlockEnd
  0
BLOCK
  5
48
100
AcDbEntity
  8
0
390
0
100
AcDbBlockBegin
  2
_DOT
 70
               0
 10
0.0
 20
0.0
 30
0.0
  3
_DOT
  1

  0
POLYLINE
  5
49
100
AcDbEntity
  8
0
370
              -2
390
0
  6
ByBlock
 62
               0
100
AcDb2dPolyline
 66
               1
 10
0.0
 20
0.0
 30
0.0
 70
               1
 40
0.5
 41
0.5
  0
VERTEX
  5
4A
100
AcDbEntity
  8
0
370
              -2
390
0
  6
ByBlock
 62
               0
100
AcDbVertex
100
AcDb2dVertex
 10
-0.25
 20
0.0
 30
0.0
 42
1.0
  0
VERTEX
  5
4B
100
AcDbEntity
  8
0
370
              -2
390
0
  6
ByBlock
 62
               0
100
AcDbVertex
100
AcDb2dVertex
 10
0.25
 20
0.0
 30
0.0
 42
1.0
  0
SEQEND
  5
4C
100
AcDbEntity
  8
0
390
0
  0
LINE
  5
4D
100
AcDbEntity
  8
0
370
              -2
390
0
  6
ByBlock
 62
               0
100
AcDbLine
 10
-0.5
 20
0.0
 30
0.0
 11
-1.0
 21
0.0
 31
0.0
  0
ENDBLK
  5
4E
100
AcDbEntity
  8
0
390
0
100
AcDbBlockEnd
  0
BLOCK
  5
50
100
AcDbEntity
  8
template
390
0
100
AcDbBlockBegin
  2
グループ
 70
               0
 10
0.0
 20
0.0
 30
0.0
  3
グループ
  1

  0
LWPOLYLINE
  5
51
100
AcDbEntity
  8
0
370
              15
390
0
  6
Continuous
 62
               7
100
AcDbPolyline
 90
        8
 70
             129
 10
175343.6493770075
 20
499186.26234700269
 10
175343.6493770075
 20
499180.26495830913
 10
175334.14818008951
 20
499180.26495830913
 10
175334.14818008951
 20
499155.81399504561
 10
175325.79280282772
 20
499155.81399504561
 10
175325.79280282772
 20
499180.26495830913
 10
175316.45984588141
 20
499180.26495830913
 10
175316.45984588141
 20
499186.26234700269
  0
LWPOLYLINE
  5
52
100
AcDbEntity
  8
0
370
              15
390
0
  6
Continuous
 62
               7
100
AcDbPolyline
 90
      101
 70
             128
 10
175356.37766883807
 20
499185.53409850976
 10
175356.39301886738
 20
499185.53845926659
 42
-0.0222221608842615
 10
175356.68302344353
 20
499185.60708373168
 10
175356.69881720832
 20
499185.6100871549
 42
-0.0146883564943082
 10
175356.96151991276
 20
499185.65209034178
 42
-0.0127458844604248
 10
175357.22615887929
 20
499185.67962730979
 10
175357.28861395823
 20
499185.68452073244
 42
-0.0198099018718958
 10
175357.67946306849
 20
499185.69960588979
 10
175357.73127453713
 20
499185.69955211412
 42
-0.0147617383501333
 10
175358.22589799768
 20
499185.68443208886
 10
175358.29858945185
 20
499185.68005948205
 42
-0.0162624550019247
 10
175358.68874308246
 20
499185.64382660674
 10
175358.810275475
 20
499185.62854004762
 42
-0.0080020874159609
 10
175358.95585450478
 20
499185.60785720043
 10
175358.99417397927
 20
499185.60178592202
 42
-0.0053821926020717
 10
175359.06265808071
 20
499185.59017839882
 10
175358.3362523815
 20
499183.40924994316
 42
0.010866775679436
 10
175358.26893530929
 20
499183.4224370587
 10
175358.23146728816
 20
499183.4289348009
 42
0.0170663202493086
 10
175358.08825050309
 20
499183.44876439805
 10
175358.02037516859
 20
499183.45581156883
 42
0.0220162375727068
 10
175357.73999576111
 20
499183.47249392956
 10
175357.66214019369
 20
499183.47369329684
 42
0.0282606916058724
 10
175357.32650387008
 20
499183.45989001985
 10
175357.28259059737
 20
499183.45559002995
 42
0.0169677213750698
 10
175357.03666610137
 20
499183.42305298033
 42
0.0190576270913948
 10
175356.79375813805
 20
499183.37290610804
 10
175356.78749895067
 20
499183.37136313412
 42
0.0213685643155129
 10
175356.53711446651
 20
499183.2981628491
 10
175356.5316245713
 20
499183.29629985295
 42
0.0237595297742812
 10
175356.27812968619
 20
499183.19661533093
 10
175356.27302761236
 20
499183.19432355557
 42
0.026185746759408
 10
175356.02085683672
 20
499183.06478721852
 10
175356.01043064723
 20
499183.05872174382
 42
0.0272553062183432
 10
175355.77400087181
 20
499182.90334953775
 10
175355.73923785862
 20
499182.87768838991
 42
0.0325996893045063
 10
175355.58908251463
 20
499182.75094051671
 10
175355.56537308471
 20
499182.72812248743
 42
0.0138050962067705
 10
175355.47348992931
 20
499182.63467282668
 42
0.0125280104030282
 10
175355.38664739687
 20
499182.53650950053
 10
175355.36296695156
 20
499182.50835100189
 42
0.0205218022876082
 10
175355.23786687612
 20
499182.34655768779
 10
175355.21540053556
 20
499182.31489795784
 42
0.0163110129343702
 10
175355.05969015625
 20
499182.07956752268
 10
175355.05696626025
 20
499182.07514376077
 42
0.0131897342988328
 10
175354.91016573922
 20
499181.82201166812
 10
175354.908465644
 20
499181.81889342924
 42
0.0107895575924002
 10
175354.77068894217
 20
499181.55267822044
 10
175354.76995605225
 20
499181.55118398694
 42
0.009137150726371
 10
175354.64147610325
 20
499181.27665878844
 10
175354.61173047218
 20
499181.20995228208
 42
0.0135418325641528
 10
175354.44001653319
 20
499180.79501449695
 10
175354.40641172457
 20
499180.70714835415
 42
0.0092834542802018
 10
175354.23518266476
 20
499180.23324985616
 10
175354.20956553688
 20
499180.15800878592
 42
0.0054261043315726
 10
175354.10192738875
 20
499179.83024481335
 10
175354.08440140489
 20
499179.77485665854
 42
0.000822509045029
 10
175354.01573135075
 20
499179.55658789299
 10
175353.03104221882
 20
499176.53169659973
 10
175356.26366605889
 20
499176.53169659973
 10
175355.75947362903
 20
499174.62721830135
 10
175352.50341734706
 20
499174.62721830135
 10
175346.6742683147
 20
499155.81399523537
 10
175344.8491707044
 20
499155.81399523537
 10
175350.68384873989
 20
499174.62721830135
 10
175348.27873237085
 20
499174.62721830135
 10
175348.7829248007
 20
499176.53169659973
 10
175351.21147361165
 20
499176.53169659973
 10
175352.07162852984
 20
499179.16810960043
 42
-0.0005863559080726
 10
175352.10836321351
 20
499179.28493603814
 10
175352.18445104168
 20
499179.52592832013
 42
-0.0087522378747597
 10
175352.383919185
 20
499180.12120440672
 10
175352.47618346059
 20
499180.38134457573
 42
-0.0077400954163436
 10
175352.73411711969
 20
499181.07434925332
 10
175352.74988209122
 20
499181.11478013656
 42
-0.0082369946147481
 10
175352.99696656188
 20
499181.71885920287
 42
-0.0085725237732539
 10
175353.26421265805
 20
499182.31428524252
 10
175353.36584225905
 20
499182.53070634446
 42
-0.0168109410839448
 10
175353.65278668763
 20
499183.09191387024
 10
175353.77863007487
 20
499183.31887789752
 42
-0.0007817725915232
 10
175353.83291442815
 20
499183.41642214829
 10
175353.83304273445
 20
499183.41665185755
 42
-0.0036626142917189
 10
175353.88793059817
 20
499183.51324973698
 42
-0.0080221149004405
 10
175353.94505485368
 20
499183.6085289719
 10
175353.97575480497
 20
499183.65791992086
 42
-0.0202139325526459
 10
175354.10341054454
 20
499183.84590152121
 10
175354.15747800993
 20
499183.91898038576
 42
-0.0249323791916933
 10
175354.41664080389
 20
499184.23502562818
 10
175354.44078061779
 20
499184.26163990085
 42
-0.0242132122286934
 10
175354.78046135913
 20
499184.60152338684
 10
175354.82837293181
 20
499184.64503252297
 42
-0.0251017527622017
 10
175355.11235463273
 20
499184.87802526902
 10
175355.11380010884
 20
499184.87909452606
 42
-0.0130868069033928
 10
175355.4120607595
 20
499185.08787499508
 10
175355.41362257866
 20
499185.08890843537
 42
-0.0290329526868028
 10
175355.72473372007
 20
499185.26973393699
 10
175355.75457928184
 20
499185.28483631974
 42
-0.0160250191208872
 10
175356.02048369579
 20
499185.40885243006
 42
-0.0267600375388457
 10
175356.295759773
 20
499185.50960075058
 10
175356.32249569279
 20
499185.51779330947
 42
-0.0049981590443356
 10
175356.37766883807
 20
499185.53409850976
 42
-0.0049981590443356
  0
LWPOLYLINE
  5
53
100
AcDbEntity
  8
0
370
              15
390
0
  6
Continuous
 62
               7
100
AcDbPolyline
 90
      118
 70
             128
 10
175376.19203640253
 20
499176.4577132719
 10
175378.067158327
 20
499176.4577132719
 10
175377.22911942142
 20
499173.77614674548
 42
-0.0010587222614243
 10
175377.26057523518
 20
499173.81305127672
 10
175377.3187693276
 20
499173.881033535
 42
-0.0071874742580435
 10
175377.46914454471
 20
499174.05167422589
 10
175377.61086731899
 20
499174.20791036834
 42
-0.0148118053733131
 10
175378.06099661163
 20
499174.67552421434
 10
175378.14821894575
 20
499174.76092153438
 42
-0.0086273359364888
 10
175378.48376774759
 20
499175.07829716924
 10
175378.52760146579
 20
499175.11834681535
 42
-0.0103138321555992
 10
175378.78562516606
 20
499175.34450995096
 10
175378.83139957365
 20
499175.38299199927
 42
-0.0060206748305128
 10
175379.00424763648
 20
499175.52478664892
 10
175379.00627876661
 20
499175.52641235397
 42
-0.0067069027542778
 10
175379.17857158204
 20
499175.66056298837
 10
175379.18112034767
 20
499175.66249315802
 42
-0.0076184351472579
 10
175379.35202561383
 20
499175.78786803351
 42
-0.0089652860688634
 10
175379.52698657691
 20
499175.90750129404
 10
175379.56333829751
 20
499175.93141250784
 42
-0.0156916244908244
 10
175379.75929779391
 20
499176.05167499377
 42
-0.0023299011419877
 10
175379.95955983622
 20
499176.16485293244
 10
175379.97494397027
 20
499176.17345292843
 42
-0.0107669341481197
 10
175380.20918079439
 20
499176.29785306129
 10
175380.23144559644
 20
499176.30906981172
 42
-0.007805804491547
 10
175380.51503571621
 20
499176.44643126818
 10
175380.52494280209
 20
499176.45104039519
 42
-0.018182933056631
 10
175380.83525220698
 20
499176.5819041364
 10
175380.88930764946
 20
499176.60241925629
 42
-0.0208411535506217
 10
175381.23839261671
 20
499176.71850971872
 10
175381.25274871584
 20
499176.72262816341
 42
-0.0222799816880149
 10
175381.58146851076
 20
499176.80126972985
 10
175381.59035747434
 20
499176.8029817405
 42
-0.0215509523447121
 10
175381.9068284423
 20
499176.84989742894
 10
175381.94931040209
 20
499176.85433495563
 42
-0.0182545925208825
 10
175382.18341918263
 20
499176.8701787811
 10
175382.22282020177
 20
499176.87140332622
 42
-0.0072962856411493
 10
175382.37874307868
 20
499176.87397265469
 10
175382.40784274935
 20
499176.87402749009
 42
-0.0059227515900344
 10
175382.5055922484
 20
499176.87305377831
 10
175382.53483444962
 20
499176.87241601205
 42
-0.001183312320822
 10
175382.5740857496
 20
499176.87146700738
 10
175381.77869915398
 20
499174.33273306233
 42
0.0143932037776854
 10
175381.75229777445
 20
499174.34293203132
 10
175381.7450257992
 20
499174.34550325118
 42
0.0234388605617579
 10
175381.7031949333
 20
499174.35812248697
 10
175381.69451327037
 20
499174.36030344898
 42
0.0199162741615303
 10
175381.63422443633
 20
499174.37292018428
 10
175381.61341049848
 20
499174.37641738367
 42
0.0293643550023523
 10
175381.5103356399
 20
499174.38756742934
 10
175381.48565045901
 20
499174.38877904636
 42
0.0214606686313038
 10
175381.33250954418
 20
499174.38971760683
 10
175381.32313763222
 20
499174.38937269524
 42
0.0167564054057139
 10
175381.15161744162
 20
499174.37729565287
 10
175381.14315764839
 20
499174.3764143124
 42
0.0137677554005988
 10
175380.9558043358
 20
499174.35166500398
 10
175380.94845259559
 20
499174.3504870839
 42
0.0118497261278055
 10
175380.74795483315
 20
499174.3134697341
 10
175380.74180482424
 20
499174.31218287104
 42
0.0106421144105968
 10
175380.53092393628
 20
499174.26335049525
 10
175380.52601512856
 20
499174.26210315275
 42
0.0099746379163481
 10
175380.30755665951
 20
499174.20192862448
 10
175380.24600861923
 20
499174.18364674581
 42
0.019161367626398
 10
175379.91002415659
 20
499174.06966936542
 10
175379.82196438476
 20
499174.03598245548
 42
0.0205274079678159
 10
175379.4366576121
 20
499173.87015404738
 10
175379.37900833075
 20
499173.8424860831
 42
0.0181256911132228
 10
175379.12073138944
 20
499173.70680226386
 10
175379.06777600714
 20
499173.67648465122
 42
0.0140709241124577
 10
175378.92282107149
 20
499173.58798997721
 10
175378.89657220274
 20
499173.57093315839
 42
0.0086667881598617
 10
175378.80764604133
 20
499173.51093049056
 42
0.003640819215047
 10
175378.7202128043
 20
499173.44874963351
 10
175378.68498592882
 20
499173.42330868688
 42
0.0052260781276942
 10
175378.52875723227
 20
499173.30797630089
 10
175378.51255037519
 20
499173.29574818967
 42
0.005002443518497
 10
175378.32654703449
 20
499173.15246562322
 10
175378.31122887559
 20
499173.1404195989
 42
0.0136138711905656
 10
175378.10078760664
 20
499172.96545309341
 10
175378.06711973148
 20
499172.93587412126
 42
0.0172815186913717
 10
175377.80271619052
 20
499172.68687744933
 10
175377.80015384397
 20
499172.68429163151
 42
0.0189403857277032
 10
175377.54957204516
 20
499172.41148636647
 10
175377.51694055207
 20
499172.37314243545
 42
0.0185044199771708
 10
175377.32498411287
 20
499172.12989385414
 42
0.008856524277292
 10
175377.14652400586
 20
499171.87637743336
 10
175377.1373460266
 20
499171.86283605418
 42
0.0157195348479357
 10
175376.95412542039
 20
499171.57331384515
 10
175376.90804247849
 20
499171.49516164814
 42
0.0095451878457764
 10
175376.74295692821
 20
499171.20256700553
 10
175376.7318090091
 20
499171.18189633306
 42
0.0100351707066464
 10
175376.59976526012
 20
499170.92484077287
 42
0.0086935914559672
 10
175376.47743410806
 20
499170.66300762683
 10
175376.47411336692
 20
499170.65556530445
 42
0.0072580175597508
 10
175376.35376691492
 20
499170.37497331278
 10
175376.35050528165
 20
499170.36705328687
 42
0.0060005123311073
 10
175376.23130461306
 20
499170.06744361564
 10
175376.22809363497
 20
499170.05908208841
 42
0.0049017787692139
 10
175376.1091934763
 20
499169.74015310826
 10
175376.10602766974
 20
499169.7314001706
 42
0.0039415168115349
 10
175375.98659139164
 20
499169.3928581081
 10
175375.98346028902
 20
499169.38375490729
 42
0.0031035838600472
 10
175375.8626555026
 20
499169.02531504334
 10
175375.85954545878
 20
499169.01589442411
 42
0.0025070746278998
 10
175375.73664410718
 20
499168.63724720635
 10
175375.69935021104
 20
499168.52035554196
 42
0.0029081909800679
 10
175375.50733191177
 20
499167.90619187884
 10
175375.46652874473
 20
499167.77296864137
 42
0.0009266453565503
 10
175375.1981113705
 20
499166.89074418176
 10
175375.17722389739
 20
499166.82163230097
 42
-0.0005809993684939
 10
175374.89988721715
 20
499165.90782419557
 10
175374.83360541883
 20
499165.69033926318
 42
-0.0012018708023407
 10
175374.68662110946
 20
499165.21217659884
 10
175374.63430126806
 20
499165.04341749079
 42
-0.0002691057732081
 10
175374.59073177673
 20
499164.90314983769
 10
175371.75777587845
 20
499155.81399523537
 10
175369.93978698648
 20
499155.81399523537
 10
175376.19203640253
 20
499176.4577132719
  0
SPLINE
  5
54
100
AcDbEntity
  8
0
370
              15
390
0
  6
Continuous
 62
               7
100
AcDbSpline
210
0.0
220
0.0
230
1.0
 70
              13
 71
               2
 72
             782
 73
             779
 74
               0
 42
0.000001
 43
0.000001
 40
0.0
 40
0.0
 40
0.0
 40
1.0
 40
1.0
 40
2.0
 40
2.0
 40
3.0
 40
3.0
 40
4.0
 40
4.0
 40
5.0
 40
5.0
 40
6.0
 40
6.0
 40
7.0
 40
7.0
 40
8.0
 40
8.0
 40
9.0
 40
9.0
 40
10.0
 40
10.0
 40
11.0
 40
11.0
 40
12.0
 40
12.0
 40
13.0
 40
13.0
 40
14.0
 40
14.0
 40
15.0
 40
15.0
 40
16.0
 40
16.0
 40
17.0
 40
17.0
 40
18.0
 40
18.0
 40
19.0
 40
19.0
 40
20.0
 40
20.0
 40
21.0
 40
21.0
 40
22.0
 40
22.0
 40
23.0
 40
23.0
 40
24.0
 40
24.0
 40
25.0
 40
25.0
 40
26.0
 40
26.0
 40
27.0
 40
27.0
 40
28.0
 40
28.0
 40
29.0
 40
29.0
 40
30.0
 40
30.0
 40
31.0
 40
31.0
 40
32.0
 40
32.0
 40
33.0
 40
33.0
 40
34.0
 40
34.0
 40
35.0
 40
35.0
 40
36.0
 40
36.0
 40
37.0
 40
37.0
 40
38.0
 40
38.0
 40
39.0
 40
39.0
 40
40.0
 40
40.0
 40
41.0
 40
41.0
 40
42.0
 40
42.0
 40
43.0
 40
43.0
 40
44.0
 40
44.0
 40
45.0
 40
45.0
 40
46.0
 40
46.0
 40
47.0
 40
47.0
 40
48.0
 40
48.0
 40
49.0
 40
49.0
 40
50.0
 40
50.0
 40
51.0
 40
51.0
 40
52.0
 40
52.0
 40
53.0
 40
53.0
 40
54.0
 40
54.0
 40
55.0
 40
55.0
 40
56.0
 40
56.0
 40
57.0
 40
57.0
 40
58.0
 40
58.0
 40
59.0
 40
59.0
 40
60.0
 40
60.0
 40
61.0
 40
61.0
 40
62.0
 40
62.0
 40
63.0
 40
63.0
 40
64.0
 40
64.0
 40
65.0
 40
65.0
 40
66.0
 40
66.0
 40
67.0
 40
67.0
 40
68.0
 40
68.0
 40
69.0
 40
69.0
 40
70.0
 40
70.0
 40
71.0
 40
71.0
 40
72.0
 40
72.0
 40
73.0
 40
73.0
 40
74.0
 40
74.0
 40
75.0
 40
75.0
 40
76.0
 40
76.0
 40
77.0
 40
77.0
 40
78.0
 40
78.0
 40
79.0
 40
79.0
 40
80.0
 40
80.0
 40
81.0
 40
81.0
 40
82.0
 40
82.0
 40
83.0
 40
83.0
 40
84.0
 40
84.0
 40
85.0
 40
85.0
 40
86.0
 40
86.0
 40
87.0
 40
87.0
 40
88.0
 40
88.0
 40
89.0
 40
89.0
 40
90.0
 40
90.0
 40
91.0
 40
91.0
 40
92.0
 40
92.0
 40
93.0
 40
93.0
 40
94.0
 40
94.0
 40
95.0
 40
95.0
 40
96.0
 40
96.0
 40
97.0
 40
97.0
 40
98.0
 40
98.0
 40
99.0
 40
99.0
 40
100.0
 40
100.0
 40
101.0
 40
101.0
 40
102.0
 40
102.0
 40
103.0
 40
103.0
 40
104.0
 40
104.0
 40
105.0
 40
105.0
 40
106.0
 40
106.0
 40
107.0
 40
107.0
 40
108.0
 40
108.0
 40
109.0
 40
109.0
 40
110.0
 40
110.0
 40
111.0
 40
111.0
 40
112.0
 40
112.0
 40
113.0
 40
113.0
 40
114.0
 40
114.0
 40
115.0
 40
115.0
 40
116.0
 40
116.0
 40
117.0
 40
117.0
 40
118.0
 40
118.0
 40
119.0
 40
119.0
 40
120.0
 40
120.0
 40
121.0
 40
121.0
 40
122.0
 40
122.0
 40
123.0
 40
123.0
 40
124.0
 40
124.0
 40
125.0
 40
125.0
 40
126.0
 40
126.0
 40
127.0
 40
127.0
 40
128.0
 40
128.0
 40
129.0
 40
129.0
 40
130.0
 40
130.0
 40
131.0
 40
131.0
 40
132.0
 40
132.0
 40
133.0
 40
133.0
 40
134.0
 40
134.0
 40
135.0
 40
135.0
 40
136.0
 40
136.0
 40
137.0
 40
137.0
 40
138.0
 40
138.0
 40
139.0
 40
139.0
 40
140.0
 40
140.0
 40
141.0
 40
141.0
 40
142.0
 40
142.0
 40
143.0
 40
143.0
 40
144.0
 40
144.0
 40
145.0
 40
145.0
 40
146.0
 40
146.0
 40
147.0
 40
147.0
 40
148.0
 40
148.0
 40
149.0
 40
149.0
 40
150.0
 40
150.0
 40
151.0
 40
151.0
 40
152.0
 40
152.0
 40
153.0
 40
153.0
 40
154.0
 40
154.0
 40
155.0
 40
155.0
 40
156.0
 40
156.0
 40
157.0
 40
157.0
 40
158.0
 40
158.0
 40
159.0
 40
159.0
 40
160.0
 40
160.0
 40
161.0
 40
161.0
 40
162.0
 40
162.0
 40
163.0
 40
163.0
 40
164.0
 40
164.0
 40
165.0
 40
165.0
 40
166.0
 40
166.0
 40
167.0
 40
167.0
 40
168.0
 40
168.0
 40
169.0
 40
169.0
 40
170.0
 40
170.0
 40
171.0
 40
171.0
 40
172.0
 40
172.0
 40
173.0
 40
173.0
 40
174.0
 40
174.0
 40
175.0
 40
175.0
 40
176.0
 40
176.0
 40
177.0
 40
177.0
 40
178.0
 40
178.0
 40
179.0
 40
179.0
 40
180.0
 40
180.0
 40
181.0
 40
181.0
 40
182.0
 40
182.0
 40
183.0
 40
183.0
 40
184.0
 40
184.0
 40
185.0
 40
185.0
 40
186.0
 40
186.0
 40
187.0
 40
187.0
 40
188.0
 40
188.0
 40
189.0
 40
189.0
 40
190.0
 40
190.0
 40
191.0
 40
191.0
 40
192.0
 40
192.0
 40
193.0
 40
193.0
 40
194.0
 40
194.0
 40
195.0
 40
195.0
 40
196.0
 40
196.0
 40
197.0
 40
197.0
 40
198.0
 40
198.0
 40
199.0
 40
199.0
 40
200.0
 40
200.0
 40
201.0
 40
201.0
 40
202.0
 40
202.0
 40
203.0
 40
203.0
 40
204.0
 40
204.0
 40
205.0
 40
205.0
 40
206.0
 40
206.0
 40
207.0
 40
207.0
 40
208.0
 40
208.0
 40
209.0
 40
209.0
 40
210.0
 40
210.0
 40
211.0
 40
211.0
 40
212.0
 40
212.0
 40
213.0
 40
213.0
 40
214.0
 40
214.0
 40
215.0
 40
215.0
 40
216.0
 40
216.0
 40
217.0
 40
217.0
 40
218.0
 40
218.0
 40
219.0
 40
219.0
 40
220.0
 40
220.0
 40
221.0
 40
221.0
 40
222.0
 40
222.0
 40
223.0
 40
223.0
 40
224.0
 40
224.0
 40
225.0
 40
225.0
 40
226.0
 40
226.0
 40
227.0
 40
227.0
 40
228.0
 40
228.0
 40
229.0
 40
229.0
 40
230.0
 40
230.0
 40
231.0
 40
231.0
 40
232.0
 40
232.0
 40
233.0
 40
233.0
 40
234.0
 40
234.0
 40
235.0
 40
235.0
 40
236.0
 40
236.0
 40
237.0
 40
237.0
 40
238.0
 40
238.0
 40
239.0
 40
239.0
 40
240.0
 40
240.0
 40
241.0
 40
241.0
 40
242.0
 40
242.0
 40
243.0
 40
243.0
 40
244.0
 40
244.0
 40
245.0
 40
245.0
 40
246.0
 40
246.0
 40
247.0
 40
247.0
 40
248.0
 40
248.0
 40
249.0
 40
249.0
 40
250.0
 40
250.0
 40
251.0
 40
251.0
 40
252.0
 40
252.0
 40
253.0
 40
253.0
 40
254.0
 40
254.0
 40
255.0
 40
255.0
 40
256.0
 40
256.0
 40
257.0
 40
257.0
 40
258.0
 40
258.0
 40
259.0
 40
259.0
 40
260.0
 40
260.0
 40
261.0
 40
261.0
 40
262.0
 40
262.0
 40
263.0
 40
263.0
 40
264.0
 40
264.0
 40
265.0
 40
265.0
 40
266.0
 40
266.0
 40
267.0
 40
267.0
 40
268.0
 40
268.0
 40
269.0
 40
269.0
 40
270.0
 40
270.0
 40
271.0
 40
271.0
 40
272.0
 40
272.0
 40
273.0
 40
273.0
 40
274.0
 40
274.0
 40
275.0
 40
275.0
 40
276.0
 40
276.0
 40
277.0
 40
277.0
 40
278.0
 40
278.0
 40
279.0
 40
279.0
 40
280.0
 40
280.0
 40
281.0
 40
281.0
 40
282.0
 40
282.0
 40
283.0
 40
283.0
 40
284.0
 40
284.0
 40
285.0
 40
285.0
 40
286.0
 40
286.0
 40
287.0
 40
287.0
 40
288.0
 40
288.0
 40
289.0
 40
289.0
 40
290.0
 40
290.0
 40
291.0
 40
291.0
 40
292.0
 40
292.0
 40
293.0
 40
293.0
 40
294.0
 40
294.0
 40
295.0
 40
295.0
 40
296.0
 40
296.0
 40
297.0
 40
297.0
 40
298.0
 40
298.0
 40
299.0
 40
299.0
 40
300.0
 40
300.0
 40
301.0
 40
301.0
 40
302.0
 40
302.0
 40
303.0
 40
303.0
 40
304.0
 40
304.0
 40
305.0
 40
305.0
 40
306.0
 40
306.0
 40
307.0
 40
307.0
 40
308.0
 40
308.0
 40
309.0
 40
309.0
 40
310.0
 40
310.0
 40
311.0
 40
311.0
 40
312.0
 40
312.0
 40
313.0
 40
313.0
 40
314.0
 40
314.0
 40
315.0
 40
315.0
 40
316.0
 40
316.0
 40
317.0
 40
317.0
 40
318.0
 40
318.0
 40
319.0
 40
319.0
 40
320.0
 40
320.0
 40
321.0
 40
321.0
 40
322.0
 40
322.0
 40
323.0
 40
323.0
 40
324.0
 40
324.0
 40
325.0
 40
325.0
 40
326.0
 40
326.0
 40
327.0
 40
327.0
 40
328.0
 40
328.0
 40
329.0
 40
329.0
 40
330.0
 40
330.0
 40
331.0
 40
331.0
 40
332.0
 40
332.0
 40
333.0
 40
333.0
 40
334.0
 40
334.0
 40
335.0
 40
335.0
 40
336.0
 40
336.0
 40
337.0
 40
337.0
 40
338.0
 40
338.0
 40
339.0
 40
339.0
 40
340.0
 40
340.0
 40
341.0
 40
341.0
 40
342.0
 40
342.0
 40
343.0
 40
343.0
 40
344.0
 40
344.0
 40
345.0
 40
345.0
 40
346.0
 40
346.0
 40
347.0
 40
347.0
 40
348.0
 40
348.0
 40
349.0
 40
349.0
 40
350.0
 40
350.0
 40
351.0
 40
351.0
 40
352.0
 40
352.0
 40
353.0
 40
353.0
 40
354.0
 40
354.0
 40
355.0
 40
355.0
 40
356.0
 40
356.0
 40
357.0
 40
357.0
 40
358.0
 40
358.0
 40
359.0
 40
359.0
 40
360.0
 40
360.0
 40
361.0
 40
361.0
 40
362.0
 40
362.0
 40
363.0
 40
363.0
 40
364.0
 40
364.0
 40
365.0
 40
365.0
 40
366.0
 40
366.0
 40
367.0
 40
367.0
 40
368.0
 40
368.0
 40
369.0
 40
369.0
 40
370.0
 40
370.0
 40
371.0
 40
371.0
 40
372.0
 40
372.0
 40
373.0
 40
373.0
 40
374.0
 40
374.0
 40
375.0
 40
375.0
 40
376.0
 40
376.0
 40
377.0
 40
377.0
 40
378.0
 40
378.0
 40
379.0
 40
379.0
 40
380.0
 40
380.0
 40
381.0
 40
381.0
 40
382.0
 40
382.0
 40
383.0
 40
383.0
 40
384.0
 40
384.0
 40
385.0
 40
385.0
 40
386.0
 40
386.0
 40
387.0
 40
387.0
 40
388.0
 40
388.0
 40
389.0
 40
389.0
 40
389.0
 10
175386.52074085324
 20
499176.46863963525
 30
0.0
 41
1.0
 10
175387.33916496197
 20
499176.46863963525
 30
0.0
 41
1.0
 10
175388.1575890707
 20
499176.46863963525
 30
0.0
 41
1.0
 10
175387.74383533519
 20
499175.12601337099
 30
0.0
 41
1.0
 10
175387.33008159965
 20
499173.78338710673
 30
0.0
 41
1.0
 10
175387.34842109034
 20
499173.81208787282
 30
0.0
 41
0.9999957264333995
 10
175387.36692808734
 20
499173.84068092314
 30
0.0
 41
1.0
 10
175387.39735741363
 20
499173.88769380486
 30
0.0
 41
1.0
 10
175387.42778673992
 20
499173.93470668659
 30
0.0
 41
1.0
 10
175387.50715238525
 20
499174.05732549384
 30
0.0
 41
0.9995394069041961
 10
175387.59381077703
 20
499174.17490355583
 30
0.0
 41
1.0
 10
175387.62956763926
 20
499174.22341844835
 30
0.0
 41
1.0
 10
175387.66532450146
 20
499174.27193334087
 30
0.0
 41
1.0
 10
175387.79905116913
 20
499174.45337361575
 30
0.0
 41
0.9994460617185691
 10
175387.9445516502
 20
499174.62551601313
 30
0.0
 41
1.0
 10
175387.94893983117
 20
499174.63070769352
 30
0.0
 41
1.0
 10
175387.95332801217
 20
499174.63589937391
 30
0.0
 41
1.0
 10
175388.09005213156
 20
499174.7976584108
 30
0.0
 41
0.9994359394984967
 10
175388.23732636185
 20
499174.94987461198
 30
0.0
 41
1.0
 10
175388.23970971542
 20
499174.95233794197
 30
0.0
 41
1.0
 10
175388.24209306898
 20
499174.9548012719
 30
0.0
 41
1.0
 10
175388.38460059182
 20
499175.10209081281
 30
0.0
 41
0.999529368856097
 10
175388.53587227318
 20
499175.24036402535
 30
0.0
 41
1.0
 10
175388.55516603254
 20
499175.25799991109
 30
0.0
 41
1.0
 10
175388.57445979191
 20
499175.27563579683
 30
0.0
 41
1.0
 10
175388.68714395424
 20
499175.37863723759
 30
0.0
 41
0.9997087614797472
 10
175388.80466684312
 20
499175.47608151828
 30
0.0
 41
1.0
 10
175388.82383291566
 20
499175.49197309627
 30
0.0
 41
1.0
 10
175388.8429989882
 20
499175.50786467426
 30
0.0
 41
1.0
 10
175388.92218973226
 20
499175.57352579921
 30
0.0
 41
0.9999595338706088
 10
175389.00254900294
 20
499175.63775152975
 30
0.0
 41
1.0
 10
175389.08290827362
 20
499175.70197726029
 30
0.0
 41
0.9999749417496344
 10
175389.16416880992
 20
499175.76505881577
 30
0.0
 41
1.0
 10
175389.18515495292
 20
499175.78135010065
 30
0.0
 41
1.0
 10
175389.20614109593
 20
499175.79764138546
 30
0.0
 41
1.0
 10
175389.29070898346
 20
499175.86329039704
 30
0.0
 41
0.9999792037137331
 10
175389.37611658554
 20
499175.92784318043
 30
0.0
 41
1.0
 10
175389.39694140496
 20
499175.94358299777
 30
0.0
 41
1.0
 10
175389.41776622439
 20
499175.95932281512
 30
0.0
 41
1.0
 10
175389.46152417886
 20
499175.99239595718
 30
0.0
 41
0.999999337383977
 10
175389.50520587145
 20
499176.0255697575
 30
0.0
 41
1.0
 10
175389.54888755811
 20
499176.05874355335
 30
0.0
 41
0.9999160953811124
 10
175389.59341396851
 20
499176.09077461815
 30
0.0
 41
1.0
 10
175389.62623585592
 20
499176.11438577372
 30
0.0
 41
1.0
 10
175389.65905774332
 20
499176.13799692929
 30
0.0
 41
1.0
 10
175389.76922792889
 20
499176.21725030552
 30
0.0
 41
0.9980964527256588
 10
175389.88831692218
 20
499176.28233777825
 30
0.0
 41
1.0
 10
175389.92534952931
 20
499176.30257775798
 30
0.0
 41
1.0
 10
175389.96238213644
 20
499176.32281773764
 30
0.0
 41
1.0
 10
175390.14170914973
 20
499176.42082798842
 30
0.0
 41
0.998457281045666
 10
175390.3307977161
 20
499176.49835024972
 30
0.0
 41
1.0
 10
175390.33444398554
 20
499176.49984514207
 30
0.0
 41
1.0
 10
175390.33809025498
 20
499176.50134003442
 30
0.0
 41
1.0
 10
175390.51988628251
 20
499176.57587251108
 30
0.0
 41
0.998783852795312
 10
175390.70813894103
 20
499176.63213815121
 30
0.0
 41
1.0
 10
175390.71237689047
 20
499176.63340480498
 30
0.0
 41
1.0
 10
175390.71661483991
 20
499176.63467145874
 30
0.0
 41
1.0
 10
175390.89639159988
 20
499176.68840379146
 30
0.0
 41
0.9990652816232144
 10
175391.08013753127
 20
499176.72640747094
 30
0.0
 41
1.0
 10
175391.085325933
 20
499176.72748057416
 30
0.0
 41
1.0
 10
175391.09051433476
 20
499176.72855367744
 30
0.0
 41
1.0
 10
175391.26388346378
 20
499176.76441115059
 30
0.0
 41
0.9992909934338479
 10
175391.43945922947
 20
499176.78712158295
 30
0.0
 41
1.0
 10
175391.6150349963
 20
499176.80983201542
 30
0.0
 41
0.9994553539480408
 10
175391.79172642983
 20
499176.82091131969
 30
0.0
 41
1.0
 10
175391.8271608373
 20
499176.82313320774
 30
0.0
 41
1.0
 10
175391.86259524478
 20
499176.82535509573
 30
0.0
 41
1.0
 10
175392.02882101125
 20
499176.83577815816
 30
0.0
 41
0.9990928098309011
 10
175392.19533080305
 20
499176.83201851696
 30
0.0
 41
1.0
 10
175392.23389263987
 20
499176.83114782535
 30
0.0
 41
1.0
 10
175392.27245447671
 20
499176.83027713379
 30
0.0
 41
1.0
 10
175392.36184059654
 20
499176.82825887558
 30
0.0
 41
0.9998382089273291
 10
175392.45109627774
 20
499176.82302674919
 30
0.0
 41
1.0
 10
175392.45152618282
 20
499176.82300154836
 30
0.0
 41
1.0
 10
175392.45195608793
 20
499176.82297634752
 30
0.0
 41
1.0
 10
175392.54035195941
 20
499176.81779462274
 30
0.0
 41
0.9997558016743369
 10
175392.62843253775
 20
499176.80871210725
 30
0.0
 41
1.0
 10
175392.62890867633
 20
499176.80866300978
 30
0.0
 41
1.0
 10
175392.62938481491
 20
499176.80861391226
 30
0.0
 41
1.0
 10
175392.71651311513
 20
499176.79962959187
 30
0.0
 41
0.9996565144223426
 10
175392.8030509683
 20
499176.78609228518
 30
0.0
 41
1.0
 10
175392.80351689432
 20
499176.78601939935
 30
0.0
 41
1.0
 10
175392.80398282033
 20
499176.78594651353
 30
0.0
 41
1.0
 10
175392.88958882238
 20
499176.77255497832
 30
0.0
 41
0.9995321806972423
 10
175392.97421590198
 20
499176.75395449006
 30
0.0
 41
1.0
 10
175392.97460509653
 20
499176.75386894762
 30
0.0
 41
1.0
 10
175392.97499429109
 20
499176.75378340512
 30
0.0
 41
1.0
 10
175393.05884298225
 20
499176.73535400163
 30
0.0
 41
0.9993819199268029
 10
175393.14118951646
 20
499176.71107861842
 30
0.0
 41
1.0
 10
175393.14142794965
 20
499176.71100832941
 30
0.0
 41
1.0
 10
175393.14166638287
 20
499176.71093804034
 30
0.0
 41
1.0
 10
175393.22353605047
 20
499176.68680323521
 30
0.0
 41
0.9992088568413838
 10
175393.30322856968
 20
499176.65623799933
 30
0.0
 41
1.0
 10
175393.38290956058
 20
499176.62567839859
 30
0.0
 41
0.9990226101704504
 10
175393.45958023047
 20
499176.588200967
 30
0.0
 41
1.0
 10
175393.5362393719
 20
499176.55072917067
 30
0.0
 41
0.998842427403093
 10
175393.60894299907
 20
499176.50606439548
 30
0.0
 41
1.0
 10
175393.60921070765
 20
499176.5058999313
 30
0.0
 41
1.0
 10
175393.60947841621
 20
499176.50573546707
 30
0.0
 41
1.0
 10
175393.68271745977
 20
499176.46074176393
 30
0.0
 41
0.9986928844513872
 10
175393.75098032635
 20
499176.40850602981
 30
0.0
 41
1.0
 10
175393.75156161888
 20
499176.40806121635
 30
0.0
 41
1.0
 10
175393.75214291137
 20
499176.4076164029
 30
0.0
 41
1.0
 10
175393.82156836282
 20
499176.3544910418
 30
0.0
 41
0.9986007262603934
 10
175393.88499453291
 20
499176.29433027183
 30
0.0
 41
1.0
 10
175393.88588894805
 20
499176.29348190431
 30
0.0
 41
1.0
 10
175393.88678336318
 20
499176.2926335368
 30
0.0
 41
1.0
 10
175393.9519983638
 20
499176.2307760315
 30
0.0
 41
0.9985581491458326
 10
175394.01020597576
 20
499176.16228354099
 30
0.0
 41
1.0
 10
175394.01946442926
 20
499176.15138918336
 30
0.0
 41
1.0
 10
175394.02872288277
 20
499176.14049482578
 30
0.0
 41
1.0
 10
175394.10544740153
 20
499176.0502136203
 30
0.0
 41
0.9970460233562144
 10
175394.16743930249
 20
499175.94924653653
 30
0.0
 41
1.0
 10
175394.18190866761
 20
499175.9256800774
 30
0.0
 41
1.0
 10
175394.19637803271
 20
499175.90211361827
 30
0.0
 41
1.0
 10
175394.23611473289
 20
499175.83739389398
 30
0.0
 41
0.9988468816517618
 10
175394.26946110374
 20
499175.76916144131
 30
0.0
 41
1.0
 10
175394.27649712603
 20
499175.75476452062
 30
0.0
 41
1.0
 10
175394.28353314829
 20
499175.74036759994
 30
0.0
 41
1.0
 10
175394.30280747431
 20
499175.70092898933
 30
0.0
 41
0.9998431189934867
 10
175394.32067280199
 20
499175.66083243443
 30
0.0
 41
1.0
 10
175394.33853813447
 20
499175.62073586887
 30
0.0
 41
0.9999989989878199
 10
175394.35651686293
 20
499175.58069002006
 30
0.0
 41
1.0
 10
175394.36268916953
 20
499175.56694181438
 30
0.0
 41
1.0
 10
175394.3688614761
 20
499175.55319360876
 30
0.0
 41
1.0
 10
175394.39918482275
 20
499175.48565133743
 30
0.0
 41
0.9998790356299886
 10
175394.42739270293
 20
499175.41719858535
 30
0.0
 41
1.0
 10
175394.43422788434
 20
499175.40061148361
 30
0.0
 41
1.0
 10
175394.44106306578
 20
499175.38402438181
 30
0.0
 41
1.0
 10
175394.46462072793
 20
499175.32685642742
 30
0.0
 41
0.9998227574660352
 10
175394.48600947618
 20
499175.26884211961
 30
0.0
 41
1.0
 10
175394.50739822423
 20
499175.21082781238
 30
0.0
 41
0.9996797970993285
 10
175394.52582450886
 20
499175.15180569433
 30
0.0
 41
1.0
 10
175394.52972831193
 20
499175.13930123509
 30
0.0
 41
1.0
 10
175394.533632115
 20
499175.12679677585
 30
0.0
 41
1.0
 10
175394.55986600523
 20
499175.04276574112
 30
0.0
 41
0.9979274938574911
 10
175394.57509052867
 20
499174.95606138272
 30
0.0
 41
1.0
 10
175394.57731421609
 20
499174.94339738099
 30
0.0
 41
1.0
 10
175394.57953790351
 20
499174.93073337933
 30
0.0
 41
1.0
 10
175394.5904678432
 20
499174.86848687194
 30
0.0
 41
0.9994985982152942
 10
175394.59743600828
 20
499174.80567337165
 30
0.0
 41
1.0
 10
175394.60440417344
 20
499174.74285986996
 30
0.0
 41
0.9996372611437808
 10
175394.60798003923
 20
499174.67976229166
 30
0.0
 41
1.0
 10
175394.60814861671
 20
499174.67678767466
 30
0.0
 41
1.0
 10
175394.60831719419
 20
499174.67381305771
 30
0.0
 41
1.0
 10
175394.61223021496
 20
499174.604766245
 30
0.0
 41
0.9997730630691418
 10
175394.61319852844
 20
499174.53561542107
 30
0.0
 41
1.0
 10
175394.61325563485
 20
499174.53153724177
 30
0.0
 41
1.0
 10
175394.61331274128
 20
499174.52745906252
 30
0.0
 41
1.0
 10
175394.61439526762
 20
499174.45015188213
 30
0.0
 41
0.9998772614028794
 10
175394.6130551809
 20
499174.37284873566
 30
0.0
 41
1.0
 10
175394.61296591768
 20
499174.36769957084
 30
0.0
 41
1.0
 10
175394.61287665446
 20
499174.36255040602
 30
0.0
 41
1.0
 10
175394.61135804135
 20
499174.2749489327
 30
0.0
 41
0.9999415567331583
 10
175394.60794573117
 20
499174.18740077195
 30
0.0
 41
1.0
 10
175394.60770441045
 20
499174.18120931124
 30
0.0
 41
1.0
 10
175394.60746308975
 20
499174.17501785059
 30
0.0
 41
1.0
 10
175394.60356813809
 20
499174.07508676773
 30
0.0
 41
0.9999716810412707
 10
175394.59816955504
 20
499173.97522563161
 30
0.0
 41
1.0
 10
175394.59495675634
 20
499173.91579638323
 30
0.0
 41
1.0
 10
175394.5917439576
 20
499173.85636713484
 30
0.0
 41
1.0
 10
175394.58367004836
 20
499173.70701873209
 30
0.0
 41
0.9999819129893739
 10
175394.57380025665
 20
499173.55777825293
 30
0.0
 41
1.0
 10
175394.56393046505
 20
499173.40853777522
 30
0.0
 41
1.0
 10
175394.5614911445
 20
499173.37134472933
 30
0.0
 41
1.0
 10
175394.584189377
 20
499173.41008572455
 30
0.0
 41
0.9999982128175977
 10
175394.60703393447
 20
499173.44874061627
 30
0.0
 41
1.0
 10
175394.63394349563
 20
499173.49427383253
 30
0.0
 41
1.0
 10
175394.66085305682
 20
499173.53980704874
 30
0.0
 41
1.0
 10
175394.73751673513
 20
499173.66952837049
 30
0.0
 41
0.999860919002752
 10
175394.81846404864
 20
499173.79662075336
 30
0.0
 41
1.0
 10
175394.84811236992
 20
499173.84317048604
 30
0.0
 41
1.0
 10
175394.87776069119
 20
499173.88972021866
 30
0.0
 41
1.0
 10
175394.96003291139
 20
499174.01889278862
 30
0.0
 41
0.9999067609716654
 10
175395.0458019209
 20
499174.14577047812
 30
0.0
 41
1.0
 10
175395.04820662388
 20
499174.1493277438
 30
0.0
 41
1.0
 10
175395.05061132685
 20
499174.15288500953
 30
0.0
 41
1.0
 10
175395.13157092969
 20
499174.27264816663
 30
0.0
 41
0.9998784952128652
 10
175395.21622454002
 20
499174.38982938428
 30
0.0
 41
1.0
 10
175395.30087814963
 20
499174.50701060082
 30
0.0
 41
0.99985329683383
 10
175395.38949577027
 20
499174.62122350908
 30
0.0
 41
1.0
 10
175395.40945755961
 20
499174.64695083059
 30
0.0
 41
1.0
 10
175395.42941934895
 20
499174.67267815204
 30
0.0
 41
1.0
 10
175395.54790339855
 20
499174.82538376271
 30
0.0
 41
0.9991551975862022
 10
175395.67852784792
 20
499174.96784332453
 30
0.0
 41
1.0
 10
175395.68203746382
 20
499174.97167092608
 30
0.0
 41
1.0
 10
175395.68554707969
 20
499174.97549852758
 30
0.0
 41
1.0
 10
175395.80915229747
 20
499175.11030288652
 30
0.0
 41
0.9997418144201046
 10
175395.93875443723
 20
499175.23935229721
 30
0.0
 41
1.0
 10
175396.06835657713
 20
499175.36840170802
 30
0.0
 41
0.9989238204649514
 10
175396.20935912561
 20
499175.48488667025
 30
0.0
 41
1.0
 10
175396.25460680405
 20
499175.5222666621
 30
0.0
 41
1.0
 10
175396.29985448247
 20
499175.55964665388
 30
0.0
 41
1.0
 10
175396.44009453923
 20
499175.67550170672
 30
0.0
 41
0.99908250841527
 10
175396.58973447129
 20
499175.77893070423
 30
0.0
 41
1.0
 10
175396.59977983471
 20
499175.78587391687
 30
0.0
 41
1.0
 10
175396.60982519813
 20
499175.79281712952
 30
0.0
 41
1.0
 10
175396.73937440291
 20
499175.88235970138
 30
0.0
 41
0.9998164899865779
 10
175396.87225860727
 20
499175.96687394357
 30
0.0
 41
1.0
 10
175396.88410416711
 20
499175.97440770967
 30
0.0
 41
1.0
 10
175396.89594972698
 20
499175.98194147577
 30
0.0
 41
1.0
 10
175397.00514280965
 20
499176.05138818448
 30
0.0
 41
0.999747344913391
 10
175397.11734676789
 20
499176.1158571429
 30
0.0
 41
1.0
 10
175397.22955072598
 20
499176.1803261012
 30
0.0
 41
0.9999327861126803
 10
175397.34321933653
 20
499176.2421760927
 30
0.0
 41
1.0
 10
175397.34377133878
 20
499176.24247645121
 30
0.0
 41
1.0
 10
175397.34432334104
 20
499176.24277680973
 30
0.0
 41
1.0
 10
175397.45909595783
 20
499176.30522751925
 30
0.0
 41
0.9996956420478059
 10
175397.57680928451
 20
499176.36194098659
 30
0.0
 41
1.0
 10
175397.60724968812
 20
499176.3766069627
 30
0.0
 41
1.0
 10
175397.63769009174
 20
499176.39127293881
 30
0.0
 41
1.0
 10
175397.74066719887
 20
499176.4408865975
 30
0.0
 41
0.9998070570161318
 10
175397.84551358823
 20
499176.48641718458
 30
0.0
 41
1.0
 10
175397.95035997653
 20
499176.53194777126
 30
0.0
 41
0.9997827436110922
 10
175398.0570129129
 20
499176.57306894247
 30
0.0
 41
1.0
 10
175398.07623576297
 20
499176.58048051631
 30
0.0
 41
1.0
 10
175398.09545861304
 20
499176.58789209009
 30
0.0
 41
1.0
 10
175398.2405572492
 20
499176.64383640868
 30
0.0
 41
0.9988031842150739
 10
175398.39042761209
 20
499176.68533647299
 30
0.0
 41
1.0
 10
175398.41534485979
 20
499176.6922362186
 30
0.0
 41
1.0
 10
175398.4402621075
 20
499176.69913596421
 30
0.0
 41
1.0
 10
175398.60753213344
 20
499176.74545410677
 30
0.0
 41
0.9984748040427014
 10
175398.77888904256
 20
499176.77304833906
 30
0.0
 41
1.0
 10
175398.78362817885
 20
499176.77381149959
 30
0.0
 41
1.0
 10
175398.78836731514
 20
499176.77457466011
 30
0.0
 41
1.0
 10
175398.95024595124
 20
499176.80064257135
 30
0.0
 41
0.9984436495452933
 10
175399.11402069492
 20
499176.80852052517
 30
0.0
 41
1.0
 10
175399.13571790257
 20
499176.80956421234
 30
0.0
 41
1.0
 10
175399.15741511024
 20
499176.8106078995
 30
0.0
 41
1.0
 10
175399.27779543819
 20
499176.81639847899
 30
0.0
 41
0.9987954789211058
 10
175399.39816368354
 20
499176.81036195124
 30
0.0
 41
1.0
 10
175399.41812847718
 20
499176.80936070683
 30
0.0
 41
1.0
 10
175399.43809327082
 20
499176.80835946242
 30
0.0
 41
1.0
 10
175399.51853192961
 20
499176.80432542338
 30
0.0
 41
0.9997941595864762
 10
175399.59874070657
 20
499176.79703135754
 30
0.0
 41
1.0
 10
175399.67894948486
 20
499176.78973729163
 30
0.0
 41
0.9998589466246446
 10
175399.75886803196
 20
499176.77975343715
 30
0.0
 41
1.0
 10
175399.79127423355
 20
499176.77570508025
 30
0.0
 41
1.0
 10
175399.82368043513
 20
499176.77165672334
 30
0.0
 41
1.0
 10
175399.96841138549
 20
499176.75357615505
 30
0.0
 41
0.9993495063281358
 10
175400.11146262931
 20
499176.72511044535
 30
0.0
 41
1.0
 10
175400.14439632575
 20
499176.71855698223
 30
0.0
 41
1.0
 10
175400.17733002215
 20
499176.71200351918
 30
0.0
 41
1.0
 10
175400.28662384624
 20
499176.69025518489
 30
0.0
 41
0.9996788715464084
 10
175400.39467541882
 20
499176.66299738537
 30
0.0
 41
1.0
 10
175400.39673842129
 20
499176.66247695882
 30
0.0
 41
1.0
 10
175400.39880142375
 20
499176.66195653228
 30
0.0
 41
1.0
 10
175400.50272699085
 20
499176.63573958603
 30
0.0
 41
0.999548065445201
 10
175400.60488922603
 20
499176.60332462937
 30
0.0
 41
1.0
 10
175400.60657886928
 20
499176.60278852412
 30
0.0
 41
1.0
 10
175400.6082685125
 20
499176.60225241882
 30
0.0
 41
1.0
 10
175400.70705146223
 20
499176.57090967236
 30
0.0
 41
0.9993867959482778
 10
175400.8033986197
 20
499176.53273030347
 30
0.0
 41
1.0
 10
175400.80464156938
 20
499176.5322377613
 30
0.0
 41
1.0
 10
175400.8058845191
 20
499176.5317452192
 30
0.0
 41
1.0
 10
175400.89974577885
 20
499176.49455093389
 30
0.0
 41
0.9992050256520388
 10
175400.99034545314
 20
499176.44999703497
 30
0.0
 41
1.0
 10
175400.99108013511
 20
499176.44963574287
 30
0.0
 41
1.0
 10
175400.99181481707
 20
499176.44927445077
 30
0.0
 41
1.0
 10
175401.08094512761
 20
499176.40544313606
 30
0.0
 41
0.9990222350674979
 10
175401.16585518958
 20
499176.35390986805
 30
0.0
 41
1.0
 10
175401.16603907465
 20
499176.35379826522
 30
0.0
 41
1.0
 10
175401.16622295976
 20
499176.35368666245
 30
0.0
 41
1.0
 10
175401.25076525079
 20
499176.30237660045
 30
0.0
 41
0.998864274387292
 10
175401.33003978559
 20
499176.24325241282
 30
0.0
 41
1.0
 10
175401.40931432016
 20
499176.18412822537
 30
0.0
 41
0.9987681233203815
 10
175401.48233810472
 20
499176.11743753369
 30
0.0
 41
1.0
 10
175401.48266703257
 20
499176.11713713256
 30
0.0
 41
1.0
 10
175401.48299596042
 20
499176.11683673144
 30
0.0
 41
1.0
 10
175401.55667760034
 20
499176.04954523797
 30
0.0
 41
0.998749657059971
 10
175401.62327140558
 20
499175.97523242392
 30
0.0
 41
1.0
 10
175401.62404357555
 20
499175.97437075037
 30
0.0
 41
1.0
 10
175401.62481574548
 20
499175.97350907681
 30
0.0
 41
1.0
 10
175401.69295389036
 20
499175.89747291594
 30
0.0
 41
0.9988147669883977
 10
175401.75337614465
 20
499175.81517190905
 30
0.0
 41
1.0
 10
175401.75449547067
 20
499175.81364727777
 30
0.0
 41
1.0
 10
175401.75561479671
 20
499175.81212264649
 30
0.0
 41
1.0
 10
175401.81827570329
 20
499175.72677237663
 30
0.0
 41
0.9989452636136892
 10
175401.87284261634
 20
499175.63603368722
 30
0.0
 41
1.0
 10
175401.87419134227
 20
499175.63379090646
 30
0.0
 41
1.0
 10
175401.8755400682
 20
499175.6315481257
 30
0.0
 41
1.0
 10
175401.93280443363
 20
499175.53632387391
 30
0.0
 41
0.999104643620566
 10
175401.9818136472
 20
499175.43659944041
 30
0.0
 41
1.0
 10
175401.98327750852
 20
499175.43362076086
 30
0.0
 41
1.0
 10
175401.98474136984
 20
499175.43064208131
 30
0.0
 41
1.0
 10
175402.03667830644
 20
499175.32496028795
 30
0.0
 41
0.9992763831076837
 10
175402.08043143508
 20
499175.21563622577
 30
0.0
 41
1.0
 10
175402.08191070467
 20
499175.21194003848
 30
0.0
 41
1.0
 10
175402.08338997423
 20
499175.20824385114
 30
0.0
 41
1.0
 10
175402.13010164225
 20
499175.09152741369
 30
0.0
 41
0.9994163472959067
 10
175402.16873467335
 20
499174.97189382551
 30
0.0
 41
1.0
 10
175402.16997282562
 20
499174.96805968165
 30
0.0
 41
1.0
 10
175402.17121097789
 20
499174.96422553778
 30
0.0
 41
1.0
 10
175402.21109453886
 20
499174.84071947646
 30
0.0
 41
0.9997268055893346
 10
175402.24516259471
 20
499174.71548444463
 30
0.0
 41
1.0
 10
175402.24609277479
 20
499174.71206507925
 30
0.0
 41
1.0
 10
175402.24702295489
 20
499174.70864571381
 30
0.0
 41
1.0
 10
175402.27923065034
 20
499174.59024941397
 30
0.0
 41
0.9996701318959214
 10
175402.30531626742
 20
499174.47035545943
 30
0.0
 41
1.0
 10
175402.33140188412
 20
499174.35046150663
 30
0.0
 41
0.9995785451004386
 10
175402.35048546136
 20
499174.22925574606
 30
0.0
 41
1.0
 10
175402.3547052436
 20
499174.20245459076
 30
0.0
 41
1.0
 10
175402.35892502588
 20
499174.17565343546
 30
0.0
 41
1.0
 10
175402.38550000178
 20
499174.00686746207
 30
0.0
 41
0.997992510124123
 10
175402.39052558772
 20
499173.83607613383
 30
0.0
 41
1.0
 10
175402.39135040017
 20
499173.80804540962
 30
0.0
 41
1.0
 10
175402.39217521259
 20
499173.78001468536
 30
0.0
 41
1.0
 10
175402.39555117366
 20
499173.665284805
 30
0.0
 41
0.9995314902194149
 10
175402.39190098151
 20
499173.55056332203
 30
0.0
 41
1.0
 10
175402.38825078931
 20
499173.43584183755
 30
0.0
 41
0.9996245486980688
 10
175402.37832169421
 20
499173.32149256684
 30
0.0
 41
1.0
 10
175402.37815864623
 20
499173.31961481087
 30
0.0
 41
1.0
 10
175402.37799559825
 20
499173.31773705484
 30
0.0
 41
1.0
 10
175402.36774040709
 20
499173.19963227108
 30
0.0
 41
0.9997286095002629
 10
175402.35199508365
 20
499173.082133363
 30
0.0
 41
1.0
 10
175402.35160159098
 20
499173.07919693808
 30
0.0
 41
1.0
 10
175402.35120809829
 20
499173.07626051316
 30
0.0
 41
1.0
 10
175402.33467578964
 20
499172.952888756
 30
0.0
 41
0.9998265533914524
 10
175402.3135603308
 20
499172.83021828072
 30
0.0
 41
1.0
 10
175402.3128837886
 20
499172.82628790184
 30
0.0
 41
1.0
 10
175402.3122072464
 20
499172.82235752302
 30
0.0
 41
1.0
 10
175402.28973870358
 20
499172.6918262922
 30
0.0
 41
0.9999022530845213
 10
175402.26362923876
 20
499172.56197432242
 30
0.0
 41
1.0
 10
175402.26265059761
 20
499172.55710718012
 30
0.0
 41
1.0
 10
175402.26167195645
 20
499172.55224003782
 30
0.0
 41
1.0
 10
175402.23360520974
 20
499172.41265378532
 30
0.0
 41
0.9999524761921964
 10
175402.20282224045
 20
499172.27364129014
 30
0.0
 41
1.0
 10
175402.20154613338
 20
499172.26787853142
 30
0.0
 41
1.0
 10
175402.20027002634
 20
499172.2621157727
 30
0.0
 41
1.0
 10
175402.16693484326
 20
499172.11157776148
 30
0.0
 41
0.9999813588732859
 10
175402.1317638426
 20
499171.96145804937
 30
0.0
 41
1.0
 10
175402.13020991703
 20
499171.95482545835
 30
0.0
 41
1.0
 10
175402.12865599143
 20
499171.94819286739
 30
0.0
 41
1.0
 10
175402.09037714091
 20
499171.78480797901
 30
0.0
 41
0.9999955237690182
 10
175402.05112126202
 20
499171.62165507145
 30
0.0
 41
1.0
 10
175402.03883962624
 20
499171.57061088039
 30
0.0
 41
1.0
 10
175402.02655799047
 20
499171.51956668927
 30
0.0
 41
1.0
 10
175401.96273884235
 20
499171.25432540913
 30
0.0
 41
0.99999936043199
 10
175401.89831989625
 20
499170.98922916292
 30
0.0
 41
1.0
 10
175401.89360105962
 20
499170.96981025039
 30
0.0
 41
1.0
 10
175401.88888222296
 20
499170.95039133786
 30
0.0
 41
1.0
 10
175401.81502560497
 20
499170.64645727212
 30
0.0
 41
0.999965991473482
 10
175401.73616600852
 20
499170.3437827233
 30
0.0
 41
1.0
 10
175401.73121331973
 20
499170.3247735867
 30
0.0
 41
1.0
 10
175401.72626063094
 20
499170.30576445011
 30
0.0
 41
1.0
 10
175401.63749565728
 20
499169.96507162967
 30
0.0
 41
0.9999441976031323
 10
175401.54155262376
 20
499169.62633020227
 30
0.0
 41
1.0
 10
175401.52485210559
 20
499169.56736649061
 30
0.0
 41
1.0
 10
175401.50815158739
 20
499169.50840277888
 30
0.0
 41
1.0
 10
175401.37880751718
 20
499169.05173392716
 30
0.0
 41
0.9999625120739141
 10
175401.24157474941
 20
499168.59737339168
 30
0.0
 41
1.0
 10
175401.20578480692
 20
499168.47887736704
 30
0.0
 41
1.0
 10
175401.16999486444
 20
499168.36038134241
 30
0.0
 41
1.0
 10
175401.09547466022
 20
499168.11365426367
 30
0.0
 41
0.9999793386310172
 10
175401.01778863691
 20
499167.86790562392
 30
0.0
 41
1.0
 10
175400.94010261376
 20
499167.6221569847
 30
0.0
 41
1.0
 10
175400.92932305491
 20
499167.58813908027
 30
0.0
 41
1.0
 10
175399.07895000163
 20
499161.70106715779
 30
0.0
 41
1.0
 10
175397.22857694837
 20
499155.81399523537
 30
0.0
 41
1.0
 10
175396.26732025834
 20
499155.81399523537
 30
0.0
 41
1.0
 10
175395.30606356831
 20
499155.81399523537
 30
0.0
 41
1.0
 10
175396.925008347
 20
499160.96202373714
 30
0.0
 41
1.0
 10
175398.54395312569
 20
499166.11005223892
 30
0.0
 41
1.0
 10
175398.58911894853
 20
499166.25408346014
 30
0.0
 41
1.0
 10
175398.63428477137
 20
499166.39811468136
 30
0.0
 41
1.0
 10
175398.80458918805
 20
499166.94120570837
 30
0.0
 41
0.9999911657926007
 10
175398.97032200109
 20
499167.48570924398
 30
0.0
 41
1.0
 10
175399.00001794452
 20
499167.58327318385
 30
0.0
 41
1.0
 10
175399.02971388795
 20
499167.68083712371
 30
0.0
 41
1.0
 10
175399.13605481401
 20
499168.03021277941
 30
0.0
 41
0.9999952428125164
 10
175399.24023840207
 20
499168.38023779972
 30
0.0
 41
1.0
 10
175399.24529787246
 20
499168.3972360742
 30
0.0
 41
1.0
 10
175399.25035734288
 20
499168.41423434875
 30
0.0
 41
1.0
 10
175399.34442199036
 20
499168.73026282067
 30
0.0
 41
0.9999931687512373
 10
175399.43614782926
 20
499169.04697803734
 30
0.0
 41
1.0
 10
175399.44108309358
 20
499169.06401874614
 30
0.0
 41
1.0
 10
175399.44601835791
 20
499169.08105945494
 30
0.0
 41
1.0
 10
175399.52787366614
 20
499169.36369324726
 30
0.0
 41
0.9999893840839232
 10
175399.6071208936
 20
499169.6470693798
 30
0.0
 41
1.0
 10
175399.68636811912
 20
499169.93044550566
 30
0.0
 41
0.9999833980072324
 10
175399.76234436026
 20
499170.21471609018
 30
0.0
 41
1.0
 10
175399.77134829736
 20
499170.2484049701
 30
0.0
 41
1.0
 10
175399.78035223449
 20
499170.28209385002
 30
0.0
 41
1.0
 10
175399.84931678319
 20
499170.54012968182
 30
0.0
 41
0.9999233658080866
 10
175399.91187175433
 20
499170.79979384015
 30
0.0
 41
1.0
 10
175399.97442672556
 20
499171.05945799884
 30
0.0
 41
1.0
 10
175400.01391014439
 20
499171.22326466325
 30
0.0
 41
1.0
 10
175400.01888874848
 20
499171.24391962553
 30
0.0
 41
1.0
 10
175400.02386735257
 20
499171.26457458787
 30
0.0
 41
1.0
 10
175400.05339356337
 20
499171.38707132806
 30
0.0
 41
0.999986867084775
 10
175400.08166264725
 20
499171.50986427331
 30
0.0
 41
1.0
 10
175400.0855601345
 20
499171.52679386112
 30
0.0
 41
1.0
 10
175400.08945762174
 20
499171.54372344894
 30
0.0
 41
1.0
 10
175400.10993173087
 20
499171.63265721733
 30
0.0
 41
0.9999778173353636
 10
175400.12921932936
 20
499171.72185583622
 30
0.0
 41
1.0
 10
175400.14850692777
 20
499171.81105445494
 30
0.0
 41
0.9999602692871136
 10
175400.16620128608
 20
499171.90058274171
 30
0.0
 41
1.0
 10
175400.16940511815
 20
499171.91679319669
 30
0.0
 41
1.0
 10
175400.17260895026
 20
499171.93300365162
 30
0.0
 41
1.0
 10
175400.19671097302
 20
499172.05495284946
 30
0.0
 41
0.9995617985300254
 10
175400.21355432019
 20
499172.17811459681
 30
0.0
 41
1.0
 10
175400.21601881008
 20
499172.19613541412
 30
0.0
 41
1.0
 10
175400.21848329998
 20
499172.21415623144
 30
0.0
 41
1.0
 10
175400.238766561
 20
499172.3624712812
 30
0.0
 41
0.9991121410794022
 10
175400.24649191473
 20
499172.51196738076
 30
0.0
 41
1.0
 10
175400.24741070479
 20
499172.52974721778
 30
0.0
 41
1.0
 10
175400.24832949482
 20
499172.54752705473
 30
0.0
 41
1.0
 10
175400.25421726838
 20
499172.66146347998
 30
0.0
 41
0.9989792494717751
 10
175400.2497981762
 20
499172.77546631545
 30
0.0
 41
1.0
 10
175400.2491502043
 20
499172.79218256183
 30
0.0
 41
1.0
 10
175400.24850223243
 20
499172.80889880826
 30
0.0
 41
1.0
 10
175400.24537908405
 20
499172.88946915185
 30
0.0
 41
0.9997820295347417
 10
175400.23889508669
 20
499172.96983887313
 30
0.0
 41
1.0
 10
175400.23241108927
 20
499173.05020859599
 30
0.0
 41
0.999833510582034
 10
175400.22299889373
 20
499173.1302882118
 30
0.0
 41
1.0
 10
175400.2214039691
 20
499173.14385794208
 30
0.0
 41
1.0
 10
175400.21980904444
 20
499173.1574276723
 30
0.0
 41
1.0
 10
175400.20720699959
 20
499173.26464674959
 30
0.0
 41
0.9996876457851446
 10
175400.18926308662
 20
499173.37110217835
 30
0.0
 41
1.0
 10
175400.18703142344
 20
499173.38434191386
 30
0.0
 41
1.0
 10
175400.18479976023
 20
499173.39758164936
 30
0.0
 41
1.0
 10
175400.17100393906
 20
499173.47942779213
 30
0.0
 41
0.9995547496313711
 10
175400.15235061719
 20
499173.56030528905
 30
0.0
 41
1.0
 10
175400.1519766603
 20
499173.56192669983
 30
0.0
 41
1.0
 10
175400.15160270341
 20
499173.5635481106
 30
0.0
 41
1.0
 10
175400.13369729539
 20
499173.64118278585
 30
0.0
 41
0.9994899427154507
 10
175400.11087238661
 20
499173.71751606907
 30
0.0
 41
1.0
 10
175400.11041385986
 20
499173.71904951887
 30
0.0
 41
1.0
 10
175400.10995533312
 20
499173.72058296867
 30
0.0
 41
1.0
 10
175400.08804747794
 20
499173.79384935193
 30
0.0
 41
0.9993784877545656
 10
175400.06103184284
 20
499173.86539005709
 30
0.0
 41
1.0
 10
175400.06050015194
 20
499173.86679803964
 30
0.0
 41
1.0
 10
175400.05996846102
 20
499173.86820602213
 30
0.0
 41
1.0
 10
175400.03401620779
 20
499173.93693076196
 30
0.0
 41
0.9992430832421861
 10
175400.00279967257
 20
499174.00342991424
 30
0.0
 41
1.0
 10
175400.00221755682
 20
499174.00466996868
 30
0.0
 41
1.0
 10
175400.00163544109
 20
499174.00591002312
 30
0.0
 41
1.0
 10
175399.97158313775
 20
499174.06992906565
 30
0.0
 41
0.9990789632979896
 10
175399.93615251064
 20
499174.13113567809
 30
0.0
 41
1.0
 10
175399.93555680435
 20
499174.13216476416
 30
0.0
 41
1.0
 10
175399.93496109804
 20
499174.13319385023
 30
0.0
 41
1.0
 10
175399.9007218839
 20
499174.19234228978
 30
0.0
 41
0.9988874801341233
 10
175399.86106260784
 20
499174.24800200225
 30
0.0
 41
1.0
 10
175399.8605070819
 20
499174.24878165376
 30
0.0
 41
1.0
 10
175399.85995155596
 20
499174.24956130527
 30
0.0
 41
1.0
 10
175399.82140333194
 20
499174.30366171454
 30
0.0
 41
0.9986762060519371
 10
175399.77750086051
 20
499174.35351542913
 30
0.0
 41
1.0
 10
175399.77705690006
 20
499174.3540195711
 30
0.0
 41
1.0
 10
175399.7766129396
 20
499174.354523713
 30
0.0
 41
1.0
 10
175399.73359838914
 20
499174.40336914366
 30
0.0
 41
0.998462164230542
 10
175399.68544083246
 20
499174.44715244405
 30
0.0
 41
1.0
 10
175399.68519419769
 20
499174.44737667643
 30
0.0
 41
1.0
 10
175399.68494756296
 20
499174.44760090881
 30
0.0
 41
1.0
 10
175399.63728327534
 20
499174.49093574483
 30
0.0
 41
0.998272469345882
 10
175399.58486464387
 20
499174.52838009503
 30
0.0
 41
1.0
 10
175399.53244601167
 20
499174.5658244458
 30
0.0
 41
0.9981399179833878
 10
175399.47585994806
 20
499174.59661096532
 30
0.0
 41
1.0
 10
175399.47581428627
 20
499174.59663580835
 30
0.0
 41
1.0
 10
175399.47576862446
 20
499174.59666065132
 30
0.0
 41
1.0
 10
175399.41909123698
 20
499174.62749685702
 30
0.0
 41
0.9980927086749821
 10
175399.35904588611
 20
499174.65111366578
 30
0.0
 41
1.0
 10
175399.35860571626
 20
499174.65128679172
 30
0.0
 41
1.0
 10
175399.35816554641
 20
499174.65145991766
 30
0.0
 41
1.0
 10
175399.29723985572
 20
499174.67542297841
 30
0.0
 41
0.9981411356082458
 10
175399.23385133405
 20
499174.6917956199
 30
0.0
 41
1.0
 10
175399.23296921758
 20
499174.69202346203
 30
0.0
 41
1.0
 10
175399.23208710112
 20
499174.69225130416
 30
0.0
 41
1.0
 10
175399.16693434562
 20
499174.70907963027
 30
0.0
 41
0.9983031812607278
 10
175399.10026691604
 20
499174.71821899147
 30
0.0
 41
1.0
 10
175399.0913958918
 20
499174.71943510999
 30
0.0
 41
1.0
 10
175399.08252486752
 20
499174.7206512285
 30
0.0
 41
1.0
 10
175399.02817522452
 20
499174.72810195858
 30
0.0
 41
0.9983887708442421
 10
175398.97333137473
 20
499174.72934663226
 30
0.0
 41
1.0
 10
175398.96526796906
 20
499174.72952963016
 30
0.0
 41
1.0
 10
175398.9572045634
 20
499174.729712628
 30
0.0
 41
1.0
 10
175398.91848752496
 20
499174.73059130588
 30
0.0
 41
0.9998869563043892
 10
175398.87976157223
 20
499174.73030543653
 30
0.0
 41
1.0
 10
175398.84103561318
 20
499174.73001956713
 30
0.0
 41
0.9999972320096401
 10
175398.80231142818
 20
499174.72955146752
 30
0.0
 41
1.0
 10
175398.78295841743
 20
499174.7293175275
 30
0.0
 41
1.0
 10
175398.76360540665
 20
499174.72908358747
 30
0.0
 41
1.0
 10
175398.68617519451
 20
499174.72814760776
 30
0.0
 41
0.9997304945053075
 10
175398.60887188846
 20
499174.72361851396
 30
0.0
 41
1.0
 10
175398.59982224653
 20
499174.723088308
 30
0.0
 41
1.0
 10
175398.59077260463
 20
499174.72255810199
 30
0.0
 41
1.0
 10
175398.49537001445
 20
499174.71696859616
 30
0.0
 41
0.999788830641982
 10
175398.4002776781
 20
499174.70746363164
 30
0.0
 41
1.0
 10
175398.39155661705
 20
499174.70659191709
 30
0.0
 41
1.0
 10
175398.382835556
 20
499174.70572020247
 30
0.0
 41
1.0
 10
175398.27030109736
 20
499174.69447180879
 30
0.0
 41
0.9984170238221077
 10
175398.15974195031
 20
499174.67065572692
 30
0.0
 41
1.0
 10
175398.12336081866
 20
499174.66281869099
 30
0.0
 41
1.0
 10
175398.08697968698
 20
499174.65498165501
 30
0.0
 41
1.0
 10
175397.97178861889
 20
499174.63016778859
 30
0.0
 41
0.9976592854096151
 10
175397.86106045288
 20
499174.58986911154
 30
0.0
 41
1.0
 10
175397.75033228652
 20
499174.54957043438
 30
0.0
 41
0.9993255074379148
 10
175397.64286048748
 20
499174.5012535358
 30
0.0
 41
1.0
 10
175397.63823530864
 20
499174.4991741596
 30
0.0
 41
1.0
 10
175397.63361012982
 20
499174.49709478347
 30
0.0
 41
1.0
 10
175397.516887973
 20
499174.4446191325
 30
0.0
 41
0.9976475078216117
 10
175397.40844062876
 20
499174.37667114282
 30
0.0
 41
1.0
 10
175397.3900982347
 20
499174.3651786641
 30
0.0
 41
1.0
 10
175397.37175584064
 20
499174.35368618532
 30
0.0
 41
1.0
 10
175397.2875536489
 20
499174.3009290644
 30
0.0
 41
0.9995131336481851
 10
175397.20680593408
 20
499174.24302285258
 30
0.0
 41
1.0
 10
175397.12605821935
 20
499174.18511664076
 30
0.0
 41
0.9995810107660151
 10
175397.04879657185
 20
499174.12263495848
 30
0.0
 41
1.0
 10
175397.04582654042
 20
499174.12023308687
 30
0.0
 41
1.0
 10
175397.04285650898
 20
499174.1178312152
 30
0.0
 41
1.0
 10
175396.95965479899
 20
499174.05054578994
 30
0.0
 41
0.9996617838000675
 10
175396.88006411196
 20
499173.97902533453
 30
0.0
 41
1.0
 10
175396.86793336133
 20
499173.96812460176
 30
0.0
 41
1.0
 10
175396.85580261072
 20
499173.95722386899
 30
0.0
 41
1.0
 10
175396.7875270829
 20
499173.89587125316
 30
0.0
 41
0.9997267750026208
 10
175396.72219357427
 20
499173.83139471628
 30
0.0
 41
1.0
 10
175396.65686006451
 20
499173.7669181783
 30
0.0
 41
0.9999667288925016
 10
175396.5925871217
 20
499173.70138437167
 30
0.0
 41
1.0
 10
175396.52375967451
 20
499173.6312067135
 30
0.0
 41
1.0
 10
175396.45493222729
 20
499173.56102905533
 30
0.0
 41
1.0
 10
175396.25300438865
 20
499173.35513993097
 30
0.0
 41
0.998820533525528
 10
175396.07199877166
 20
499173.13063569897
 30
0.0
 41
1.0
 10
175396.04135880672
 20
499173.09263244853
 30
0.0
 41
1.0
 10
175396.0107188418
 20
499173.05462919804
 30
0.0
 41
1.0
 10
175395.76843329519
 20
499172.75411846535
 30
0.0
 41
0.9997077826761907
 10
175395.54095534433
 20
499172.44224867149
 30
0.0
 41
1.0
 10
175395.539231929
 20
499172.43988588778
 30
0.0
 41
1.0
 10
175395.53750851366
 20
499172.43752310413
 30
0.0
 41
1.0
 10
175395.30658373213
 20
499172.12092774297
 30
0.0
 41
0.9989147567025102
 10
175395.10612022917
 20
499171.78421828157
 30
0.0
 41
1.0
 10
175395.08137908397
 20
499171.74266170117
 30
0.0
 41
1.0
 10
175395.05663793875
 20
499171.70110512082
 30
0.0
 41
1.0
 10
175394.90142664043
 20
499171.44040373689
 30
0.0
 41
0.9997476598201236
 10
175394.75808165263
 20
499171.1729939878
 30
0.0
 41
1.0
 10
175394.61473666487
 20
499170.90558423876
 30
0.0
 41
0.9996258967067389
 10
175394.48622841315
 20
499170.63073630247
 30
0.0
 41
1.0
 10
175394.47302850374
 20
499170.6025049024
 30
0.0
 41
1.0
 10
175394.45982859432
 20
499170.5742735024
 30
0.0
 41
1.0
 10
175394.31961987366
 20
499170.27440110518
 30
0.0
 41
0.999873541395877
 10
175394.18901852658
 20
499169.97022150503
 30
0.0
 41
1.0
 10
175394.18557569844
 20
499169.96220291941
 30
0.0
 41
1.0
 10
175394.18213287034
 20
499169.95418433379
 30
0.0
 41
1.0
 10
175394.0584171798
 20
499169.66604190535
 30
0.0
 41
0.9999377418866667
 10
175393.94116237768
 20
499169.37521043787
 30
0.0
 41
1.0
 10
175393.82390757569
 20
499169.08437897073
 30
0.0
 41
0.9999508299492583
 10
175393.71244363251
 20
499168.79127929435
 30
0.0
 41
1.0
 10
175393.70936286368
 20
499168.78317826788
 30
0.0
 41
1.0
 10
175393.70628209482
 20
499168.77507724147
 30
0.0
 41
1.0
 10
175393.5886566136
 20
499168.46577551146
 30
0.0
 41
0.999960922842405
 10
175393.47651801133
 20
499168.15444249695
 30
0.0
 41
1.0
 10
175393.47356200093
 20
499168.1462356564
 30
0.0
 41
1.0
 10
175393.47060599053
 20
499168.13802881585
 30
0.0
 41
1.0
 10
175393.35255536769
 20
499167.81028212101
 30
0.0
 41
0.999967460740702
 10
175393.23980784114
 20
499167.48067349975
 30
0.0
 41
1.0
 10
175393.18840945035
 20
499167.33041430346
 30
0.0
 41
1.0
 10
175393.13701105959
 20
499167.18015510711
 30
0.0
 41
1.0
 10
175393.02100045327
 20
499166.84100712591
 30
0.0
 41
0.9999287532307666
 10
175392.91311904904
 20
499166.49918638618
 30
0.0
 41
1.0
 10
175392.86664179037
 20
499166.35192383383
 30
0.0
 41
1.0
 10
175392.8201645317
 20
499166.20466128143
 30
0.0
 41
1.0
 10
175392.80523764953
 20
499166.15736566141
 30
0.0
 41
0.9999998224379333
 10
175392.79036713633
 20
499166.11005223892
 30
0.0
 41
1.0
 10
175391.16971099953
 20
499160.96202373714
 30
0.0
 41
1.0
 10
175389.54905486273
 20
499155.81399523537
 30
0.0
 41
1.0
 10
175388.64374641885
 20
499155.81399523537
 30
0.0
 41
1.0
 10
175387.73843797497
 20
499155.81399523537
 30
0.0
 41
1.0
 10
175389.59052238637
 20
499161.70106715779
 30
0.0
 41
1.0
 10
175391.44260679773
 20
499167.58813908027
 30
0.0
 41
1.0
 10
175391.45272855603
 20
499167.62018229376
 30
0.0
 41
1.0
 10
175391.52533622488
 20
499167.85048183554
 30
0.0
 41
1.0
 10
175391.5979438925
 20
499168.0807813736
 30
0.0
 41
0.9999825681986695
 10
175391.66782693201
 20
499168.31192226941
 30
0.0
 41
1.0
 10
175391.71611799477
 20
499168.47164685489
 30
0.0
 41
1.0
 10
175391.76440905753
 20
499168.63137144031
 30
0.0
 41
1.0
 10
175391.86156141074
 20
499168.9527066616
 30
0.0
 41
0.9999672528958178
 10
175391.95350021622
 20
499169.27557220683
 30
0.0
 41
1.0
 10
175391.95628909997
 20
499169.28536605247
 30
0.0
 41
1.0
 10
175391.95907798372
 20
499169.29515989812
 30
0.0
 41
1.0
 10
175392.0454390228
 20
499169.59843775566
 30
0.0
 41
0.9999899749136928
 10
175392.12908063136
 20
499169.90247684089
 30
0.0
 41
1.0
 10
175392.1391865504
 20
499169.93921207869
 30
0.0
 41
1.0
 10
175392.14929246946
 20
499169.9759473165
 30
0.0
 41
1.0
 10
175392.21272224124
 20
499170.20651593048
 30
0.0
 41
0.9999214200486694
 10
175392.27035166929
 20
499170.43860227149
 30
0.0
 41
1.0
 10
175392.28311752155
 20
499170.49001315725
 30
0.0
 41
1.0
 10
175392.29588337379
 20
499170.54142404295
 30
0.0
 41
1.0
 10
175392.32798109716
 20
499170.67068861169
 30
0.0
 41
0.9999828681665886
 10
175392.35856334964
 20
499170.80032008816
 30
0.0
 41
1.0
 10
175392.38914560201
 20
499170.92995156412
 30
0.0
 41
0.9999389844464055
 10
175392.41685659051
 20
499171.06022701884
 30
0.0
 41
1.0
 10
175392.42399433418
 20
499171.09378312249
 30
0.0
 41
1.0
 10
175392.43113207788
 20
499171.12733922619
 30
0.0
 41
1.0
 10
175392.47311855434
 20
499171.32472689089
 30
0.0
 41
0.9998933699428769
 10
175392.50932281857
 20
499171.52325649792
 30
0.0
 41
1.0
 10
175392.51069564375
 20
499171.53078451846
 30
0.0
 41
1.0
 10
175392.51206846893
 20
499171.53831253893
 30
0.0
 41
1.0
 10
175392.5510183837
 20
499171.75189818791
 30
0.0
 41
0.9996850305246808
 10
175392.57920205998
 20
499171.96716919303
 30
0.0
 41
1.0
 10
175392.58119709339
 20
499171.98240754742
 30
0.0
 41
1.0
 10
175392.5831921268
 20
499171.99764590187
 30
0.0
 41
1.0
 10
175392.61059998922
 20
499172.20699112897
 30
0.0
 41
0.99946979367338
 10
175392.62432454844
 20
499172.41767632426
 30
0.0
 41
1.0
 10
175392.62480161773
 20
499172.42499979725
 30
0.0
 41
1.0
 10
175392.62527868702
 20
499172.43232327019
 30
0.0
 41
1.0
 10
175392.63804910769
 20
499172.62836152007
 30
0.0
 41
0.9991804893075409
 10
175392.63492079137
 20
499172.8247903696
 30
0.0
 41
1.0
 10
175392.63483691256
 20
499172.830057171
 30
0.0
 41
1.0
 10
175392.63475303372
 20
499172.83532397239
 30
0.0
 41
1.0
 10
175392.63179247509
 20
499173.0212192199
 30
0.0
 41
0.9988448329318364
 10
175392.61100092949
 20
499173.2059718094
 30
0.0
 41
1.0
 10
175392.60940685577
 20
499173.22013666516
 30
0.0
 41
1.0
 10
175392.60781278208
 20
499173.23430152098
 30
0.0
 41
1.0
 10
175392.59020938387
 20
499173.39072439953
 30
0.0
 41
0.9985503209298217
 10
175392.55589311157
 20
499173.54434858332
 30
0.0
 41
1.0
 10
175392.5483071194
 20
499173.57830891118
 30
0.0
 41
1.0
 10
175392.54072112721
 20
499173.61226923903
 30
0.0
 41
1.0
 10
175392.52157683918
 20
499173.69797276787
 30
0.0
 41
0.9991036781120967
 10
175392.49525197761
 20
499173.78174985474
 30
0.0
 41
1.0
 10
175392.49126975244
 20
499173.79442301631
 30
0.0
 41
1.0
 10
175392.4872875273
 20
499173.80709617789
 30
0.0
 41
1.0
 10
175392.46892711625
 20
499173.86552694114
 30
0.0
 41
0.9998874504402934
 10
175392.44882190827
 20
499173.92338054429
 30
0.0
 41
1.0
 10
175392.42871670055
 20
499173.98123414657
 30
0.0
 41
0.9994041637624453
 10
175392.40466808793
 20
499174.03756284982
 30
0.0
 41
1.0
 10
175392.40047130373
 20
499174.0473929143
 30
0.0
 41
1.0
 10
175392.3962745195
 20
499174.05722297879
 30
0.0
 41
1.0
 10
175392.36839568836
 20
499174.12252314505
 30
0.0
 41
0.9991846840744534
 10
175392.33533933153
 20
499174.18536117661
 30
0.0
 41
1.0
 10
175392.33420272532
 20
499174.18752179272
 30
0.0
 41
1.0
 10
175392.33306611911
 20
499174.18968240882
 30
0.0
 41
1.0
 10
175392.30228297503
 20
499174.24819920753
 30
0.0
 41
0.9989253168324429
 10
175392.26621355081
 20
499174.3036141363
 30
0.0
 41
1.0
 10
175392.26515942632
 20
499174.30523363082
 30
0.0
 41
1.0
 10
175392.26410530179
 20
499174.30685312534
 30
0.0
 41
1.0
 10
175392.23014412704
 20
499174.35902906425
 30
0.0
 41
0.9986467172819179
 10
175392.19094697409
 20
499174.40739509824
 30
0.0
 41
1.0
 10
175392.19007284543
 20
499174.40847370046
 30
0.0
 41
1.0
 10
175392.18919871681
 20
499174.40955230268
 30
0.0
 41
1.0
 10
175392.15174982141
 20
499174.45576113195
 30
0.0
 41
0.9984001104009261
 10
175392.10932309093
 20
499174.49744623923
 30
0.0
 41
1.0
 10
175392.10873595258
 20
499174.4980231144
 30
0.0
 41
1.0
 10
175392.10814881421
 20
499174.49859998951
 30
0.0
 41
1.0
 10
175392.06689636034
 20
499174.53913134674
 30
0.0
 41
0.9982442158873357
 10
175392.02114025911
 20
499174.5744999079
 30
0.0
 41
1.0
 10
175392.02092546353
 20
499174.57466594066
 30
0.0
 41
1.0
 10
175392.02071066794
 20
499174.57483197341
 30
0.0
 41
1.0
 10
175391.97538415762
 20
499174.6098684693
 30
0.0
 41
0.9982450060977665
 10
175391.9262331787
 20
499174.63930025219
 30
0.0
 41
1.0
 10
175391.87708219964
 20
499174.66873203526
 30
0.0
 41
0.9983922639438012
 10
175391.82491589349
 20
499174.69241166988
 30
0.0
 41
1.0
 10
175391.82468901615
 20
499174.69251465535
 30
0.0
 41
1.0
 10
175391.82446213881
 20
499174.69261764083
 30
0.0
 41
1.0
 10
175391.77184207796
 20
499174.71650324645
 30
0.0
 41
0.9986517147253806
 10
175391.7170291052
 20
499174.73480436555
 30
0.0
 41
1.0
 10
175391.71635118371
 20
499174.73503071198
 30
0.0
 41
1.0
 10
175391.71567326225
 20
499174.73525705846
 30
0.0
 41
1.0
 10
175391.65950444678
 20
499174.75401087041
 30
0.0
 41
0.9989435598826904
 10
175391.60185105979
 20
499174.76752857259
 30
0.0
 41
1.0
 10
175391.60077094001
 20
499174.76778182288
 30
0.0
 41
1.0
 10
175391.59969082024
 20
499174.76803507318
 30
0.0
 41
1.0
 10
175391.53987719282
 20
499174.78205927619
 30
0.0
 41
0.9992249241023913
 10
175391.4791456828
 20
499174.79133461905
 30
0.0
 41
1.0
 10
175391.47773199563
 20
499174.79155052727
 30
0.0
 41
1.0
 10
175391.47631830844
 20
499174.79176643549
 30
0.0
 41
1.0
 10
175391.41275942294
 20
499174.80147359497
 30
0.0
 41
0.9994396598085777
 10
175391.34869348645
 20
499174.80690651736
 30
0.0
 41
1.0
 10
175391.32955281896
 20
499174.80852968508
 30
0.0
 41
1.0
 10
175391.31041215145
 20
499174.81015285279
 30
0.0
 41
1.0
 10
175391.20806487984
 20
499174.81883211056
 30
0.0
 41
0.9987693403083507
 10
175391.10536125614
 20
499174.81732904707
 30
0.0
 41
1.0
 10
175391.09510692226
 20
499174.81717897533
 30
0.0
 41
1.0
 10
175391.08485258842
 20
499174.81702890352
 30
0.0
 41
1.0
 10
175390.97529682197
 20
499174.81542555924
 30
0.0
 41
0.9989753645003284
 10
175390.86633482174
 20
499174.80392255232
 30
0.0
 41
1.0
 10
175390.75737282165
 20
499174.79241954541
 30
0.0
 41
0.9983190067158413
 10
175390.65047401056
 20
499174.76838455355
 30
0.0
 41
1.0
 10
175390.64157305905
 20
499174.76638327504
 30
0.0
 41
1.0
 10
175390.63267210755
 20
499174.76438199647
 30
0.0
 41
1.0
 10
175390.50797139312
 20
499174.73634444753
 30
0.0
 41
0.9985539388245994
 10
175390.38700163932
 20
499174.69508077146
 30
0.0
 41
1.0
 10
175390.38465620854
 20
499174.69428072771
 30
0.0
 41
1.0
 10
175390.38231077776
 20
499174.69348068396
 30
0.0
 41
1.0
 10
175390.25665016222
 20
499174.65061692026
 30
0.0
 41
0.9988468746446962
 10
175390.13567981985
 20
499174.59589883516
 30
0.0
 41
1.0
 10
175390.13249699786
 20
499174.59445916058
 30
0.0
 41
1.0
 10
175390.12931417587
 20
499174.59301948606
 30
0.0
 41
1.0
 10
175390.00197818954
 20
499174.53542205179
 30
0.0
 41
0.999132288592272
 10
175389.87987760542
 20
499174.46742671955
 30
0.0
 41
1.0
 10
175389.86227559444
 20
499174.45762451761
 30
0.0
 41
1.0
 10
175389.84467358343
 20
499174.44782231568
 30
0.0
 41
1.0
 10
175389.74249690256
 20
499174.39092219999
 30
0.0
 41
0.9993860037948067
 10
175389.64455589833
 20
499174.32700618438
 30
0.0
 41
1.0
 10
175389.6389375861
 20
499174.32333969011
 30
0.0
 41
1.0
 10
175389.63331927385
 20
499174.31967319577
 30
0.0
 41
1.0
 10
175389.54661489444
 20
499174.26309016888
 30
0.0
 41
0.9998821494960997
 10
175389.46168851847
 20
499174.20387193869
 30
0.0
 41
1.0
 10
175389.37676214316
 20
499174.14465370897
 30
0.0
 41
0.9997976482763245
 10
175389.29428651329
 20
499174.08206730138
 30
0.0
 41
1.0
 10
175389.27965024795
 20
499174.07096061122
 30
0.0
 41
1.0
 10
175389.26501398263
 20
499174.059853921
 30
0.0
 41
1.0
 10
175389.15326582262
 20
499173.97505413339
 30
0.0
 41
0.9998091630768938
 10
175389.04491554387
 20
499173.88595378207
 30
0.0
 41
1.0
 10
175389.03190979175
 20
499173.87525868195
 30
0.0
 41
1.0
 10
175389.01890403964
 20
499173.86456358177
 30
0.0
 41
1.0
 10
175388.88454225654
 20
499173.75407303008
 30
0.0
 41
0.9995035112298776
 10
175388.75740637913
 20
499173.63533921342
 30
0.0
 41
1.0
 10
175388.74775906879
 20
499173.62632946728
 30
0.0
 41
1.0
 10
175388.73811175846
 20
499173.6173197212
 30
0.0
 41
1.0
 10
175388.61468869526
 20
499173.50205334905
 30
0.0
 41
0.999463042426921
 10
175388.49908028956
 20
499173.37895060587
 30
0.0
 41
1.0
 10
175388.4953974509
 20
499173.37502902647
 30
0.0
 41
1.0
 10
175388.49171461223
 20
499173.37110744708
 30
0.0
 41
1.0
 10
175388.38347188412
 20
499173.25584786304
 30
0.0
 41
0.9995160693783382
 10
175388.28260585424
 20
499173.13408044475
 30
0.0
 41
1.0
 10
175388.2806721339
 20
499173.13174602028
 30
0.0
 41
1.0
 10
175388.27873841359
 20
499173.12941159576
 30
0.0
 41
1.0
 10
175388.1817398245
 20
499173.01231302664
 30
0.0
 41
0.9996561470510285
 10
175388.09101360606
 20
499172.89029026445
 30
0.0
 41
1.0
 10
175388.08485594031
 20
499172.88200847566
 30
0.0
 41
1.0
 10
175388.07869827459
 20
499172.87372668687
 30
0.0
 41
1.0
 10
175388.00028738717
 20
499172.76826750173
 30
0.0
 41
0.9998349055177511
 10
175387.92576010543
 20
499172.66002891836
 30
0.0
 41
1.0
 10
175387.851232824
 20
499172.55179033539
 30
0.0
 41
0.9999728109576832
 10
175387.77830992671
 20
499172.44246440782
 30
0.0
 41
1.0
 10
175387.77699471172
 20
499172.44049263897
 30
0.0
 41
1.0
 10
175387.77567949676
 20
499172.43852087011
 30
0.0
 41
1.0
 10
175387.7001261705
 20
499172.32525140618
 30
0.0
 41
0.9999972147368558
 10
175387.62510835487
 20
499172.21162655548
 30
0.0
 41
1.0
 10
175387.62013681466
 20
499172.20409647061
 30
0.0
 41
1.0
 10
175387.61516527442
 20
499172.1965663858
 30
0.0
 41
1.0
 10
175387.53020437979
 20
499172.06788136746
 30
0.0
 41
0.9999371979030244
 10
175387.44814903007
 20
499171.93732445326
 30
0.0
 41
1.0
 10
175387.44464014535
 20
499171.93174152466
 30
0.0
 41
1.0
 10
175387.44113126065
 20
499171.92615859606
 30
0.0
 41
1.0
 10
175387.35205814245
 20
499171.78443582606
 30
0.0
 41
0.9998272025620246
 10
175387.26831475145
 20
499171.63949994912
 30
0.0
 41
1.0
 10
175387.25309957954
 20
499171.61316683481
 30
0.0
 41
1.0
 10
175387.23788440763
 20
499171.58683372056
 30
0.0
 41
1.0
 10
175387.12371067263
 20
499171.38923161471
 30
0.0
 41
0.9995217214859384
 10
175387.02197098295
 20
499171.18494928663
 30
0.0
 41
1.0
 10
175387.01432742015
 20
499171.16960183665
 30
0.0
 41
1.0
 10
175387.00668385738
 20
499171.15425438667
 30
0.0
 41
1.0
 10
175386.91977856474
 20
499170.97975792846
 30
0.0
 41
0.9998269762579226
 10
175386.83942409902
 20
499170.80214964278
 30
0.0
 41
1.0
 10
175386.75906963309
 20
499170.62454135687
 30
0.0
 41
0.9998944747395643
 10
175386.68390883817
 20
499170.44467363041
 30
0.0
 41
1.0
 10
175386.67895516873
 20
499170.43281897588
 30
0.0
 41
1.0
 10
175386.67400149928
 20
499170.4209643213
 30
0.0
 41
1.0
 10
175386.5933544391
 20
499170.22796738218
 30
0.0
 41
0.9999506734423261
 10
175386.51655690954
 20
499170.03340657573
 30
0.0
 41
1.0
 10
175386.50195694476
 20
499169.99641865515
 30
0.0
 41
1.0
 10
175386.48735697995
 20
499169.95943073451
 30
0.0
 41
1.0
 10
175386.43975938106
 20
499169.83884577197
 30
0.0
 41
0.9999912393916427
 10
175386.3931729366
 20
499169.71786656819
 30
0.0
 41
1.0
 10
175386.34658649226
 20
499169.59688736463
 30
0.0
 41
0.9999927113926981
 10
175386.30092519763
 20
499169.47555595648
 30
0.0
 41
1.0
 10
175386.2869567665
 20
499169.43843897525
 30
0.0
 41
1.0
 10
175386.2729883354
 20
499169.40132199402
 30
0.0
 41
1.0
 10
175386.19939017767
 20
499169.20575662109
 30
0.0
 41
0.9999487550933022
 10
175386.12976655315
 20
499169.00874125701
 30
0.0
 41
1.0
 10
175386.10617294296
 20
499168.94197794603
 30
0.0
 41
1.0
 10
175386.08257933275
 20
499168.87521463505
 30
0.0
 41
1.0
 10
175385.98789369868
 20
499168.60728080105
 30
0.0
 41
0.999980843694197
 10
175385.89653211035
 20
499168.33819537063
 30
0.0
 41
1.0
 10
175385.80517052169
 20
499168.06910993945
 30
0.0
 41
0.9999873932910884
 10
175385.71651581302
 20
499167.7991205845
 30
0.0
 41
1.0
 10
175385.69642345613
 20
499167.7379312517
 30
0.0
 41
1.0
 10
175385.67633109924
 20
499167.6767419189
 30
0.0
 41
1.0
 10
175385.54749167708
 20
499167.28437389934
 30
0.0
 41
0.9999794883039185
 10
175385.42368889245
 20
499166.890387694
 30
0.0
 41
1.0
 10
175385.41253663457
 20
499166.85489708872
 30
0.0
 41
1.0
 10
175385.40138437669
 20
499166.81940648344
 30
0.0
 41
1.0
 10
175385.25882621092
 20
499166.36573372543
 30
0.0
 41
0.9999982761813914
 10
175385.11795376905
 20
499165.91153469734
 30
0.0
 41
1.0
 10
175383.52981343647
 20
499160.86276496632
 30
0.0
 41
1.0
 10
175381.94167310389
 20
499155.81399523537
 30
0.0
 41
1.0
 10
175380.99292249241
 20
499155.81399523537
 30
0.0
 41
1.0
 10
175380.04417188093
 20
499155.81399523537
 30
0.0
 41
1.0
 10
175383.2824563671
 20
499166.14131743531
 30
0.0
 41
1.0
 10
175386.52074085324
 20
499176.46863963525
 30
0.0
 41
1.0
  0
LWPOLYLINE
  5
55
100
AcDbEntity
  8
0
370
              15
390
0
  6
Continuous
 62
               7
100
AcDbPolyline
 90
      232
 70
             128
 10
175360.81719507943
 20
499175.38429680374
 42
0.0004370800386036
 10
175360.76431791004
 20
499175.31563017057
 10
175360.72503367421
 20
499175.26452305156
 42
0.0030481993457987
 10
175360.59469495938
 20
499175.09280136222
 10
175360.55618328537
 20
499175.04141457548
 42
0.0042058247013191
 10
175360.3521982356
 20
499174.76440883166
 10
175360.29979311218
 20
499174.69197598362
 42
0.0120948899049948
 10
175360.00374919549
 20
499174.26122637914
 10
175359.90755669621
 20
499174.1137456437
 42
0.0141601263620759
 10
175359.60391264939
 20
499173.61807630712
 10
175359.56437538154
 20
499173.54923233896
 42
0.0071131080146612
 10
175359.3591030587
 20
499173.17972954083
 42
0.0068458791479335
 10
175359.16422353112
 20
499172.80463797587
 10
175359.15741166941
 20
499172.79107626365
 42
0.0064120880378678
 10
175358.95926941896
 20
499172.38365178782
 10
175358.95173473386
 20
499172.36763993197
 42
0.0058857236100425
 10
175358.74897934261
 20
499171.92326382239
 10
175358.74080441569
 20
499171.90477366734
 42
0.0053189741762177
 10
175358.53210010336
 20
499171.41881019418
 10
175358.52335229734
 20
499171.39782831515
 42
0.0047503650344749
 10
175358.30737857128
 20
499170.86562888219
 10
175358.29811032285
 20
499170.84215250588
 42
0.0042071762587967
 10
175358.07356293933
 20
499170.25905891234
 10
175358.06381353678
 20
499170.23309273692
 42
0.0036680086898703
 10
175357.82935889368
 20
499169.594457353
 10
175357.81915111362
 20
499169.56600881804
 42
0.0032573143008733
 10
175357.57351882764
 20
499168.86715615826
 10
175357.50486830628
 20
499168.6676930727
 42
0.002613336634527
 10
175357.15642310804
 20
499167.63782979059
 10
175357.09316632227
 20
499167.44759896043
 42
0.0020592950802475
 10
175356.87930325157
 20
499166.79549530253
 10
175356.87625145883
 20
499166.78605880932
 42
0.0025609928484072
 10
175356.67443095893
 20
499166.15091359179
 10
175356.67183959146
 20
499166.14261124982
 42
0.0031362356244146
 10
175356.48234880611
 20
499165.52184839465
 10
175356.48021776372
 20
499165.51470709022
 42
0.0037229917760603
 10
175356.30341737624
 20
499164.90572178655
 10
175356.30173878718
 20
499164.89977489685
 42
0.0043077623436328
 10
175356.137997985
 20
499164.29995616456
 42
0.0047654161802647
 10
175355.98516926242
 20
499163.69727007538
 10
175355.95070465363
 20
499163.55570829846
 42
0.0112969368324949
 10
175355.75484029559
 20
499162.66401613847
 10
175355.72683390637
 20
499162.52118809178
 42
0.0130056762763181
 10
175355.52599666273
 20
499161.33424702013
 10
175355.50545691242
 20
499161.19016890542
 42
0.0138721531797252
 10
175355.40175390808
 20
499160.2833394208
 10
175355.38245842003
 20
499160.05984169722
 42
0.0071254697302413
 10
175355.34911177424
 20
499159.5966546901
 10
175355.34415079991
 20
499159.51065069262
 42
0.0028881799761873
 10
175355.32901250676
 20
499159.21890898567
 42
0.0060297298238088
 10
175355.319080307
 20
499158.92696004943
 10
175355.31801802534
 20
499158.87856767769
 42
0.0229523163901411
 10
175355.32574905313
 20
499158.55581283133
 10
175355.32997482672
 20
499158.49540929648
 42
0.0123673300010786
 10
175355.34905347315
 20
499158.29428857216
 42
0.0128577676360703
 10
175355.37824886348
 20
499158.09439072257
 10
175355.38537473694
 20
499158.05306190759
 42
0.0285717853139628
 10
175355.44986873851
 20
499157.77494575671
 10
175355.46353726232
 20
499157.72829098674
 42
0.0316283098600183
 10
175355.57934784223
 20
499157.40927648498
 10
175355.58239653398
 20
499157.40229011269
 42
0.033898482474813
 10
175355.73182824496
 20
499157.11472414847
 10
175355.7341369745
 20
499157.11093311891
 42
0.0350228717910742
 10
175355.91649726499
 20
499156.85388113454
 10
175355.9173825164
 20
499156.85280205717
 42
0.0347476745897535
 10
175356.13180720402
 20
499156.62561700953
 42
0.0331337702935322
 10
175356.37505053027
 20
499156.42948834709
 10
175356.37615062826
 20
499156.42871564429
 42
0.0305233318122492
 10
175356.64469532383
 20
499156.26358747418
 10
175356.64792536834
 20
499156.26186346234
 42
0.0273744480389759
 10
175356.94047907909
 20
499156.12572531879
 10
175356.94558361504
 20
499156.12368173397
 42
0.0240964406707301
 10
175357.26106069141
 20
499156.01469800749
 10
175357.26764401991
 20
499156.01277326804
 42
0.0209636179803777
 10
175357.60504417287
 20
499155.92930512002
 10
175357.612676633
 20
499155.9277532071
 42
0.0181388704633655
 10
175357.97099902484
 20
499155.86833711393
 10
175357.97927987337
 20
499155.86727093009
 42
0.0156086548257763
 10
175358.35746723725
 20
499155.83053474349
 10
175358.40066248982
 20
499155.82769624097
 42
0.0137148328391075
 10
175358.72833563521
 20
499155.8151759858
 10
175358.77427182349
 20
499155.8146815527
 42
0.0051057824792198
 10
175359.01041741174
 20
499155.81455129827
 42
0.0052256694039425
 10
175359.24651469628
 20
499155.81930012273
 10
175359.31674147927
 20
499155.82144708873
 42
0.0161507180108855
 10
175359.69247855726
 20
499155.84509745904
 10
175359.71249151771
 20
499155.84700765432
 42
0.0101216737848061
 10
175360.12651874058
 20
499155.89500058489
 10
175360.16057202866
 20
499155.89964828151
 42
0.0245291776348676
 10
175360.63736168423
 20
499155.98872335959
 10
175360.72218500034
 20
499156.00891928008
 42
0.0143509213039321
 10
175361.07881610366
 20
499156.10472391371
 42
0.015655785732495
 10
175361.42903216873
 20
499156.2217351296
 10
175361.43653338289
 20
499156.22450529126
 42
0.0170137332919378
 10
175361.79312937855
 20
499156.37016290613
 10
175361.80023330098
 20
499156.37335074169
 42
0.0183105363824648
 10
175362.15958296851
 20
499156.55068578321
 10
175362.16652973377
 20
499156.5544362184
 42
0.0194899958522548
 10
175362.52501047502
 20
499156.76641520043
 10
175362.53202435409
 20
499156.77094054257
 42
0.0204869852997267
 10
175362.88603865617
 20
499157.02046055766
 10
175362.89330426475
 20
499157.02604062302
 42
0.0212516938551046
 10
175363.23929419578
 20
499157.31594461983
 10
175363.28581089058
 20
499157.35841193056
 42
0.0215248917832652
 10
175363.54583705886
 20
499157.61717620899
 10
175363.5908667935
 20
499157.66602033062
 42
0.0114578555174907
 10
175363.74565894692
 20
499157.84184326383
 10
175363.7568534842
 20
499157.85516202892
 42
0.0061531306943725
 10
175363.8833281289
 20
499158.00945156068
 42
0.0006325587609653
 10
175364.00770660964
 20
499158.16545493202
 10
175364.03074674809
 20
499158.19442845695
 42
0.0041897761379338
 10
175364.1992021515
 20
499158.40994783235
 10
175364.25766427195
 20
499158.48604918004
 42
0.0092993879173706
 10
175364.53427619903
 20
499158.86032794369
 10
175364.61667069254
 20
499158.97626494773
 42
0.0159321727413072
 10
175364.96327717503
 20
499159.49843916827
 10
175365.0076333108
 20
499159.5701187331
 42
0.0085547316232884
 10
175365.24214507572
 20
499159.96399368171
 42
0.0084601157446027
 10
175365.46312125359
 20
499160.36562053161
 10
175365.471236727
 20
499160.38098021306
 42
0.008142965418178
 10
175365.69448599737
 20
499160.82070172543
 10
175365.70334616164
 20
499160.83888056758
 42
0.0076574580952668
 10
175365.92975367245
 20
499161.32206344343
 10
175365.93923331291
 20
499161.34312792111
 42
0.0070682724222752
 10
175366.16967822064
 20
499161.87516522571
 10
175366.17966850472
 20
499161.89915441495
 42
0.0064559514093336
 10
175366.41500171312
 20
499162.48546668206
 10
175366.42541107105
 20
499162.51240160689
 42
0.0058311414474937
 10
175366.66645780811
 20
499163.15843370213
 10
175366.6772128852
 20
499163.18831804243
 42
0.0052312425381631
 10
175366.92479416277
 20
499163.89952045481
 10
175366.93583799963
 20
499163.93234716833
 42
0.004668054525388
 10
175367.1907664277
 20
499164.71417348506
 10
175367.23275857689
 20
499164.84715671971
 42
0.0041666857181832
 10
175367.43604458979
 20
499165.51012549642
 10
175367.47370703067
 20
499165.63670660474
 42
0.0015170975290511
 10
175367.59489360888
 20
499166.04857495555
 42
-0.0004887993283686
 10
175367.71523338376
 20
499166.46069337364
 10
175367.79171063949
 20
499166.72165075352
 42
0.0002583378956591
 10
175368.0649252102
 20
499167.65570745885
 10
175368.14669805873
 20
499167.93580671493
 42
0.0006636169135331
 10
175368.34056581915
 20
499168.60315963987
 10
175368.34566247303
 20
499168.6207912211
 42
0.0010589130751917
 10
175368.52711117442
 20
499169.25352256582
 10
175368.53209324265
 20
499169.271035465
 42
0.0015655523882362
 10
175368.70036345208
 20
499169.86965215206
 10
175368.70519365283
 20
499169.88704431214
 42
0.0021640440551453
 10
175368.85948362446
 20
499170.452071329
 10
175368.86411784453
 20
499170.46933606133
 42
0.0028763872219128
 10
175369.00363356195
 20
499171.00130400981
 10
175369.00801942599
 20
499171.01842798747
 42
0.0037310511337908
 10
175369.13197611796
 20
499171.51787558198
 10
175369.13605133825
 20
499171.53483585321
 42
0.0047652197768129
 10
175369.24367523874
 20
499172.00231362158
 10
175369.24736583824
 20
499172.01907317748
 42
0.0060276698836524
 10
175369.33789593723
 20
499172.45514897187
 10
175369.34111462769
 20
499172.4716501871
 42
0.0075824338935598
 10
175369.41380393694
 20
499172.87691735057
 10
175369.41644931425
 20
499172.89307229756
 42
0.0095130624719914
 10
175369.47056454996
 20
499173.2681616511
 10
175369.47755077397
 20
499173.32409521041
 42
0.0121054654360291
 10
175369.50414210442
 20
499173.58899103769
 10
175369.50500859402
 20
499173.6003944783
 42
0.0069050825160741
 10
175369.52009741223
 20
499173.84333570744
 10
175369.52123271188
 20
499173.86686196394
 42
0.0169063976724517
 10
175369.52405999086
 20
499174.06305469183
 10
175369.52288933928
 20
499174.12339045538
 42
0.0052007738213415
 10
175369.52063589075
 20
499174.19898384332
 42
0.0054038122837319
 10
175369.50067237971
 20
499174.31900213478
 10
175369.49558652303
 20
499174.34766062594
 42
0.0112050459860807
 10
175369.46020216125
 20
499174.5239870628
 10
175369.44237719892
 20
499174.60352865094
 42
0.0240764467447716
 10
175369.35147983258
 20
499174.93376568711
 10
175369.33292107022
 20
499174.99038585072
 42
0.0256812330789087
 10
175369.18955814978
 20
499175.36211005773
 10
175369.18414872381
 20
499175.37424139306
 42
0.0268360501214131
 10
175369.01472148311
 20
499175.70523452671
 10
175369.00918507538
 20
499175.71475419716
 42
0.0274670230726448
 10
175368.81698409904
 20
499176.00704157195
 10
175368.81160279902
 20
499176.01432071958
 42
0.0275035967071073
 10
175368.60002991953
 20
499176.26983660983
 10
175368.59496041841
 20
499176.27531569765
 42
0.0269557672640153
 10
175368.36755687514
 20
499176.49595798342
 10
175368.36281381725
 20
499176.50008793798
 42
0.0259124802345041
 10
175368.12325898593
 20
499176.68777846498
 10
175368.11872814115
 20
499176.69096396706
 42
0.0245162152519412
 10
175367.87081178764
 20
499176.84769697645
 10
175367.86628524147
 20
499176.85025717353
 42
0.0229282588893825
 10
175367.61386568449
 20
499176.97812536615
 10
175367.60908519092
 20
499176.98027766577
 42
0.0212984136904259
 10
175367.35604723817
 20
499177.08147658315
 10
175367.3507429536
 20
499177.08334014576
 42
0.0197555462679279
 10
175367.10096461547
 20
499177.16015556391
 42
0.0183511895891404
 10
175366.84603589046
 20
499177.21773847082
 10
175366.75967069366
 20
499177.23394126119
 42
0.0338057877419399
 10
175366.47416334407
 20
499177.26774966635
 10
175366.38315793709
 20
499177.27232932171
 42
0.0091990526320746
 10
175366.27731083037
 20
499177.27570517757
 42
0.0028333981761508
 10
175366.17139691435
 20
499177.2765332851
 10
175366.17048146133
 20
499177.2765352549
 42
-0.0023619830817701
 10
175366.06273545383
 20
499177.27727609588
 10
175366.02633027604
 20
499177.27769840241
 42
0.0008824599736876
 10
175365.84577430182
 20
499177.27947418054
 10
175365.80191285379
 20
499177.2798281422
 42
0.0038132666260688
 10
175365.53362995174
 20
499177.2799470782
 10
175365.51709630311
 20
499177.27982831211
 42
0.0060665568062967
 10
175365.21581581217
 20
499177.27400801278
 10
175365.20156547951
 20
499177.27355970477
 42
0.0080356952495853
 10
175364.87210676423
 20
499177.25789198279
 10
175364.86003674805
 20
499177.25712339976
 42
0.0098996398255293
 10
175364.50727366295
 20
499177.22763817047
 10
175364.49722795404
 20
499177.22659787431
 42
0.0117740982012435
 10
175364.1260710943
 20
499177.17930562655
 10
175364.11784839921
 20
499177.1780605102
 42
0.0137435215468794
 10
175363.73325958126
 20
499177.10896353697
 10
175363.72660254061
 20
499177.10757764045
 42
0.0158359870079167
 10
175363.33360544548
 20
499177.0126855516
 10
175363.32819225994
 20
499177.01119561109
 42
0.0180554123852106
 10
175362.93187721592
 20
499176.88655759505
 10
175362.92732042726
 20
499176.88494155859
 42
0.0203657431517892
 10
175362.53284290948
 20
499176.72668121709
 10
175362.52869937045
 20
499176.72481959563
 42
0.0226819684403105
 10
175362.14126331423
 20
499176.52917701699
 10
175362.13706352323
 20
499176.52681142505
 42
0.0248634984427688
 10
175361.76188158253
 20
499176.2901847795
 10
175361.71368665321
 20
499176.2563277373
 42
0.0267044191084719
 10
175361.43939395633
 20
499176.04088736139
 42
0.0139303001389987
 10
175361.18322679106
 20
499175.80364852119
 10
175361.17837340466
 20
499175.79889585765
 42
0.0283460963352632
 10
175360.93430081054
 20
499175.53116519732
 10
175360.89463230528
 20
499175.48236361973
 42
0.0070695366019689
 10
175360.81719507943
 20
499175.38429680374
 42
0.0070695366019689
  0
LWPOLYLINE
  5
56
100
AcDbEntity
  8
0
370
              15
390
0
  6
Continuous
 62
               7
100
AcDbPolyline
 90
      226
 70
             128
 10
175357.28837464217
 20
499159.66270799754
 42
-0.0026277648407862
 10
175357.28829675837
 20
499159.72947991773
 10
175357.2885141166
 20
499159.78263514076
 42
-0.0088680298502712
 10
175357.2922907329
 20
499159.95565092296
 10
175357.29463709201
 20
499160.01493094862
 42
-0.0077381706138187
 10
175357.31068320273
 20
499160.3061914437
 10
175357.31155111396
 20
499160.31847967813
 42
-0.0068872528982965
 10
175357.33818319373
 20
499160.63370143052
 10
175357.33938741789
 20
499160.64594240917
 42
-0.0062130020214435
 10
175357.37698113485
 20
499160.98481210141
 10
175357.37848503824
 20
499160.99698597228
 42
-0.0056726928536145
 10
175357.42740689783
 20
499161.35918119492
 10
175357.4291803434
 20
499161.37127499469
 42
-0.0052341883932655
 10
175357.48979092951
 20
499161.75646824937
 10
175357.49180891842
 20
499161.76847318019
 42
-0.0049768451544336
 10
175357.56454759944
 20
499162.17631774535
 10
175357.58879661458
 20
499162.30486573064
 42
-0.0089029804942039
 10
175357.72587746635
 20
499162.96664117806
 10
175357.75862284168
 20
499163.11167260859
 42
-0.008031825692188
 10
175357.9881714558
 20
499164.05738223955
 10
175358.00015638248
 20
499164.10351287562
 42
-0.0074265720898982
 10
175358.2841679214
 20
499165.13357745419
 10
175358.30404746451
 20
499165.20171151479
 42
-0.0069711922858687
 10
175358.63135204295
 20
499166.26797925495
 10
175358.69130399
 20
499166.45400061307
 42
-0.0052070423565087
 10
175358.92072921532
 20
499167.14127269032
 10
175358.93801040834
 20
499167.1912999734
 42
-0.0009167003914747
 10
175359.14110229479
 20
499167.77575581905
 42
-0.0025162727873847
 10
175359.34819992501
 20
499168.35879708314
 10
175359.3854245363
 20
499168.46194662759
 42
-0.0028212681615265
 10
175359.63360045583
 20
499169.13767726137
 10
175359.64343121828
 20
499169.16398470523
 42
-0.0031964916879464
 10
175359.87972347622
 20
499169.78418946813
 10
175359.88935793063
 20
499169.80899945932
 42
-0.0036281836860917
 10
175360.11446389131
 20
499170.37644013914
 10
175360.12390230125
 20
499170.39973757009
 42
-0.004126916663963
 10
175360.33851999813
 20
499170.91717846668
 10
175360.37115295429
 20
499170.99405691243
 42
-0.004747221231347
 10
175360.52819776011
 20
499171.35447838088
 10
175360.53509184139
 20
499171.36989897833
 42
-0.0025651659732675
 10
175360.68344987516
 20
499171.69722703402
 42
-0.0057144635268743
 10
175360.83719956843
 20
499172.02203670627
 10
175360.86523027485
 20
499172.07954509073
 42
-0.0065388068090708
 10
175361.04869730206
 20
499172.44377758639
 10
175361.05715575826
 20
499172.46003716654
 42
-0.0074510843687731
 10
175361.23333800375
 20
499172.78672544693
 10
175361.24151767456
 20
499172.80136622471
 42
-0.0084648979882723
 10
175361.41115152737
 20
499173.09327523515
 10
175361.41900765346
 20
499173.10628222616
 42
-0.009563854186742
 10
175361.58284310147
 20
499173.36617109878
 10
175361.59031804497
 20
499173.37754045997
 42
-0.0107191627073966
 10
175361.74911962551
 20
499173.60815169476
 10
175361.7561363593
 20
499173.61788778717
 42
-0.0118458575315208
 10
175361.91068445775
 20
499173.82195998239
 42
-0.0129184517935736
 10
175362.0751370815
 20
499174.01812049875
 10
175362.10528185361
 20
499174.0522465774
 42
-0.0217742579662187
 10
175362.28189417603
 20
499174.23545334773
 10
175362.29263972148
 20
499174.24567018187
 42
-0.0097266568017368
 10
175362.45869733937
 20
499174.39751775539
 42
-0.0187720906899814
 10
175362.63304491527
 20
499174.53958660871
 10
175362.66375090528
 20
499174.56274569064
 42
-0.0179428208718104
 10
175362.89617162594
 20
499174.72529786825
 10
175362.89982395366
 20
499174.72766180366
 42
-0.0170047878423584
 10
175363.1355875904
 20
499174.86912231729
 10
175363.13937057965
 20
499174.87122062262
 42
-0.016019078881136
 10
175363.37627912677
 20
499174.9928719243
 42
-0.0151102862343069
 10
175363.62031090871
 20
499175.09955470019
 10
175363.67269741144
 20
499175.12059483328
 42
-0.0271945441524164
 10
175364.03135997066
 20
499175.24245964404
 10
175364.10042477123
 20
499175.26180918532
 42
-0.0237596593207211
 10
175364.51622161799
 20
499175.35725989728
 10
175364.5842844717
 20
499175.36951458541
 42
-0.0213715440433946
 10
175364.87015940316
 20
499175.4084616169
 10
175364.93030657002
 20
499175.41405133164
 42
-0.0101465655498605
 10
175365.09779910138
 20
499175.42619487486
 10
175365.10713948641
 20
499175.4266817898
 42
-0.0100375912437587
 10
175365.25629358814
 20
499175.43145760777
 10
175365.26655285718
 20
499175.43158004677
 42
-0.0103625633267277
 10
175365.39526085247
 20
499175.43044861325
 10
175365.41752650472
 20
499175.42979125475
 42
-0.0115689248221182
 10
175365.50157724126
 20
499175.42536174855
 42
-0.007243803427346
 10
175365.5854155228
 20
499175.41777254862
 10
175365.60221603018
 20
499175.41600600607
 42
-0.0217917316444465
 10
175365.71878579291
 20
499175.39858611347
 10
175365.7843858836
 20
499175.38583950506
 42
-0.0332943557571665
 10
175365.9887780491
 20
499175.33179921366
 10
175366.01895061808
 20
499175.32163113641
 42
-0.0184824084521159
 10
175366.15745567411
 20
499175.26918012113
 42
-0.0198002050508116
 10
175366.29153001393
 20
499175.20629606128
 10
175366.29341665198
 20
499175.20531827403
 42
-0.0212242342131012
 10
175366.42555559485
 20
499175.12955553498
 10
175366.42737088993
 20
499175.12840973306
 42
-0.0226090604653503
 10
175366.55587479187
 20
499175.03893008892
 10
175366.55771923286
 20
499175.03751783649
 42
-0.0238457053984645
 10
175366.68090131434
 20
499174.93352194049
 10
175366.68285404274
 20
499174.93170706287
 42
-0.02481605653199
 10
175366.79905554987
 20
499174.81243246183
 10
175366.80115918344
 20
499174.81004712795
 42
-0.0254109587995662
 10
175366.9087644018
 20
499174.67475874134
 10
175366.91101242322
 20
499174.67161719361
 42
-0.0255528486496442
 10
175367.00845910216
 20
499174.51959013916
 10
175367.01079020195
 20
499174.51550852775
 42
-0.0252146794649343
 10
175367.09657122768
 20
499174.34600628231
 10
175367.0988734671
 20
499174.34082419984
 42
-0.0244265636163387
 10
175367.17152816092
 20
499174.15307762759
 10
175367.18077456256
 20
499174.12521220878
 42
-0.0231319614195227
 10
175367.22669734131
 20
499173.96191116265
 42
-0.0112130424297354
 10
175367.26133336392
 20
499173.79570756218
 10
175367.26253588896
 20
499173.78921097558
 42
-0.0210527882229319
 10
175367.2882223643
 20
499173.60815533041
 10
175367.29173295916
 20
499173.5727497816
 42
-0.0190029892613512
 10
175367.30717443273
 20
499173.31921393436
 10
175367.30798440916
 20
499173.28373832093
 42
-0.0137974554661689
 10
175367.30643555633
 20
499172.95870691416
 10
175367.3055901014
 20
499172.93258817057
 42
-0.0081336633445758
 10
175367.29073076614
 20
499172.62724070204
 42
-0.0073526924358949
 10
175367.26642223267
 20
499172.32249245682
 10
175367.26516080898
 20
499172.30915578303
 42
-0.0066886139871108
 10
175367.22942522296
 20
499171.97856973991
 10
175367.22776813345
 20
499171.96494812053
 42
-0.0061359187527129
 10
175367.1799175315
 20
499171.60818414093
 10
175367.17788003036
 20
499171.59428933763
 42
-0.0056698610847444
 10
175367.11722969951
 20
499171.21101076854
 10
175367.11482426623
 20
499171.19685164955
 42
-0.0052721076388996
 10
175367.04069206558
 20
499170.78672431066
 10
175367.0379289166
 20
499170.77230767452
 42
-0.0049289272955551
 10
175366.94963479854
 20
499170.33499916358
 10
175366.94652230383
 20
499170.32033031061
 42
-0.0047415956755258
 10
175366.84328431194
 20
499169.85553355154
 10
175366.80851610194
 20
499169.70572645776
 42
-0.0084404471140647
 10
175366.61849965842
 20
499168.94550243346
 10
175366.61237297038
 20
499168.92263830907
 42
-0.0039635940095591
 10
175366.39091928565
 20
499168.12164944329
 10
175366.37754249093
 20
499168.07471782831
 42
-0.0072475041284814
 10
175366.11009560266
 20
499167.18549811072
 10
175366.03988327659
 20
499166.96375776309
 42
-0.0051345458544165
 10
175365.75312390417
 20
499166.08943257411
 10
175365.73159763738
 20
499166.02600630693
 42
-0.0019150016148009
 10
175365.47606423055
 20
499165.28245718672
 10
175365.4695966256
 20
499165.26386972022
 42
-0.00215243624884
 10
175365.22111857508
 20
499164.55954390008
 10
175365.21190815407
 20
499164.53379032097
 42
-0.0024331287050277
 10
175364.97565289534
 20
499163.88319101371
 10
175364.96660494196
 20
499163.85864770511
 42
-0.002744972152461
 10
175364.74199037196
 20
499163.25951782841
 10
175364.733100365
 20
499163.23619523976
 42
-0.003108323023804
 10
175364.51955787797
 20
499162.686271201
 10
175364.51082174701
 20
499162.66418148694
 42
-0.0035311343722934
 10
175364.30778056069
 20
499162.16119835939
 10
175364.29919522227
 20
499162.14035563765
 42
-0.0040245640965999
 10
175364.10608341772
 20
499161.6820463133
 10
175364.09764730441
 20
499161.66246694588
 42
-0.0046015135448803
 10
175363.91389101098
 20
499161.24656191561
 10
175363.90560483278
 20
499161.22826477536
 42
-0.0052768638055965
 10
175363.73062731419
 20
499160.85249189183
 10
175363.72249510384
 20
499160.83549855388
 42
-0.0060672676446977
 10
175363.55571549077
 20
499160.4975829302
 10
175363.54774601044
 20
499160.48191767145
 42
-0.0069904648138309
 10
175363.38857761631
 20
499160.1795818645
 10
175363.38078621632
 20
499160.16527131462
 42
-0.0080637022847152
 10
175363.22863435635
 20
499159.89623601211
 10
175363.22104532368
 20
499159.88330814644
 42
-0.0093006456894313
 10
175363.07530464721
 20
499159.64529374801
 10
175363.06795398024
 20
499159.63377577852
 42
-0.0107060776974744
 10
175362.92800543702
 20
499159.42450546147
 10
175362.92094366802
 20
499159.41441991791
 42
-0.0122723108523384
 10
175362.78614995052
 20
499159.23162658943
 10
175362.78582372679
 20
499159.23120620137
 42
-0.0141836319874231
 10
175362.64224212401
 20
499159.05663644377
 10
175362.63529436843
 20
499159.04866144358
 42
-0.0175957476979797
 10
175362.49538820033
 20
499158.89904055512
 42
-0.008046635763228
 10
175362.34792443478
 20
499158.75671802647
 10
175362.30188989078
 20
499158.71369758889
 42
-0.0269600260222766
 10
175362.04860964432
 20
499158.50137433002
 10
175361.98204250846
 20
499158.45142291574
 42
-0.0178362839430015
 10
175361.74209801882
 20
499158.28440498951
 10
175361.73485304805
 20
499158.27973647747
 42
-0.0174650732527452
 10
175361.49851685041
 20
499158.13887551229
 42
-0.0169240129022726
 10
175361.25305060408
 20
499158.01458325231
 10
175361.20706444897
 20
499157.99322129699
 42
-0.0318883035665988
 10
175360.85671359327
 20
499157.85688298743
 10
175360.78834805847
 20
499157.83518236707
 42
-0.0284435909939408
 10
175360.41229793191
 20
499157.73896493152
 10
175360.37713977104
 20
499157.7320713356
 42
-0.0243909339984135
 10
175360.06369631048
 20
499157.68635030463
 10
175360.01341558347
 20
499157.68150475773
 42
-0.0196639292902851
 10
175359.79782000621
 20
499157.66925647226
 10
175359.74599593502
 20
499157.66835321154
 42
-0.0100501509746789
 10
175359.63357265337
 20
499157.66865360987
 10
175359.60191279181
 20
499157.66937468178
 42
-0.0019752034753765
 10
175359.55282045534
 20
499157.67068684194
 10
175359.55006014989
 20
499157.67077153386
 42
0.0065378747701581
 10
175359.50648357737
 20
499157.67153842503
 42
-0.0167974689889207
 10
175359.46295275353
 20
499157.67319832358
 10
175359.45887341516
 20
499157.67349133443
 42
-0.0081283275782097
 10
175359.40731361628
 20
499157.67803832819
 10
175359.39557404356
 20
499157.67926624563
 42
-0.0126703439679526
 10
175359.32085574709
 20
499157.68900103681
 10
175359.2980678801
 20
499157.69255929266
 42
-0.0117852087434528
 10
175359.17852889455
 20
499157.7141222877
 10
175359.12314844248
 20
499157.72546582803
 42
-0.0251774595118181
 10
175358.89630440483
 20
499157.78396383708
 10
175358.85158521144
 20
499157.79793065751
 42
-0.0146525198299672
 10
175358.66519222606
 20
499157.862197184
 42
-0.016692943790092
 10
175358.48321457181
 20
499157.93800431624
 10
175358.47855793868
 20
499157.94012921769
 42
-0.0191684359240268
 10
175358.29337430812
 20
499158.03336530103
 10
175358.29004172166
 20
499158.03520654899
 42
-0.0221181781002897
 10
175358.1067314182
 20
499158.14734004711
 10
175358.10438161378
 20
499158.14892434538
 42
-0.0254984685464524
 10
175357.92809146296
 20
499158.2813354957
 10
175357.90560931584
 20
499158.30008780415
 42
-0.0292492650477032
 10
175357.78084037683
 20
499158.41718060389
 42
-0.0159048958003884
 10
175357.6670003793
 20
499158.54520059557
 10
175357.66568158881
 20
499158.54678220849
 42
-0.0343813379542789
 10
175357.56304432711
 20
499158.68865353439
 10
175357.53155279564
 20
499158.73915692663
 42
-0.0369117272651074
 10
175357.44566029392
 20
499158.90263416735
 42
-0.0191751380083824
 10
175357.37846690815
 20
499159.075038774
 10
175357.3767035846
 20
499159.08013211808
 42
-0.0378178042306636
 10
175357.3269088658
 20
499159.26907289424
 10
175357.32091357021
 20
499159.30163351173
 42
-0.0184846048198825
 10
175357.30019637081
 20
499159.44338633283
 42
-0.0179866349875833
 10
175357.2898633657
 20
499159.58627714647
 10
175357.28980692328
 20
499159.58783483255
 42
-0.0085497182181446
 10
175357.28837464217
 20
499159.66270799754
 42
-0.0085497182181446
  0
ENDBLK
  5
57
100
AcDbEntity
  8
template
390
0
100
AcDbBlockEnd
  0
BLOCK
  5
58
100
AcDbEntity
  8
notes
390
0
100
AcDbBlockBegin
  2
*D2
 70
               1
 10
0.0
 20
0.0
 30
0.0
  3
*D2
  1

  0
LINE
  5
59
100
AcDbEntity
  8
0
370
              -2
390
0
  6
Continuous
 62
               0
100
AcDbLine
 10
-655.81717026297702
 20
829.93028189474717
 30
0.0
 11
-898.4707014359883
 21
829.93028189474717
 31
0.0
  0
LINE
  5
5A
100
AcDbEntity
  8
0
370
              -2
390
0
  6
Continuous
 62
               0
100
AcDbLine
 10
-757.04017779300921
 20
679.93028189474717
 30
0.0
 11
-898.4707014359883
 21
679.93028189474717
 31
0.0
  0
LINE
  5
5B
100
AcDbEntity
  8
0
370
              -2
390
0
  6
Continuous
 62
               0
100
AcDbLine
 10
-898.4707014359883
 20
829.93028189474717
 30
0.0
 11
-898.4707014359883
 21
679.93028189474717
 31
0.0
  0
CIRCLE
  5
5C
102
{ACAD_REACTORS
330
5D
102
}
100
AcDbEntity
  8
0
370
              -2
390
0
  6
Continuous
 62
               0
100
AcDbCircle
 10
-898.4707014359883
 20
829.93028189474717
 30
0.0
 40
4.99969482421875
  0
HATCH
  5
5D
100
AcDbEntity
  8
0
370
              -2
390
0
  6
Continuous
 62
               0
100
AcDbHatch
 10
0.0
 20
0.0
 30
0.0
210
0.0
220
0.0
230
1.0
  2
SOLID
 70
               1
 71
               1
 91
        1
 92
        1
 93
        1
 72
               2
 10
-898.4707014359883
 20
829.93028189474717
 40
4.99969482421875
 50
0.0
 51
360.0
 73
               0
 97
        1
330
5C
 75
               0
 76
               1
 98
        1
 10
0.0
 20
0.0
  0
CIRCLE
  5
5E
102
{ACAD_REACTORS
330
5F
102
}
100
AcDbEntity
  8
0
370
              -2
390
0
  6
Continuous
 62
               0
100
AcDbCircle
 10
-898.4707014359883
 20
679.93028189474717
 30
0.0
 40
4.99969482421875
  0
HATCH
  5
5F
100
AcDbEntity
  8
0
370
              -2
390
0
  6
Continuous
 62
               0
100
AcDbHatch
 10
0.0
 20
0.0
 30
0.0
210
0.0
220
0.0
230
1.0
  2
SOLID
 70
               1
 71
               1
 91
        1
 92
        1
 93
        1
 72
               2
 10
-898.4707014359883
 20
679.93028189474717
 40
4.99969482421875
 50
0.0
 51
360.0
 73
               0
 97
        1
330
5E
 75
               0
 76
               1
 98
        1
 10
0.0
 20
0.0
  0
MTEXT
  5
60
100
AcDbEntity
  8
0
390
0
 62
               0
100
AcDbMText
 10
-932.34831862349529
 20
731.11778021254577
 30
0.0
 40
24.432617187500004
 41
0.0
 71
               1
 72
               1
  1
150
  7
ＭＳ ゴシック
 11
0.0
 21
1.0
 31
0.0
 73
               1
 44
0.7828267384257843
  0
POINT
  5
61
100
AcDbEntity
  8
Defpoints
370
               0
390
0
 62
               0
100
AcDbPoint
 10
-732.04017779300921
 20
679.93028189474717
 30
0.0
  0
POINT
  5
62
100
AcDbEntity
  8
Defpoints
370
               0
390
0
 62
               0
100
AcDbPoint
 10
-630.81717026297702
 20
829.93028189474717
 30
0.0
  0
POINT
  5
63
100
AcDbEntity
  8
Defpoints
370
               0
390
0
 62
               0
100
AcDbPoint
 10
-898.4707014359883
 20
829.93028189474717
 30
0.0
  0
ENDBLK
  5
64
100
AcDbEntity
  8
notes
390
0
100
AcDbBlockEnd
  0
BLOCK
  5
65
100
AcDbEntity
  8
notes
390
0
100
AcDbBlockBegin
  2
*D3
 70
               1
 10
0.0
 20
0.0
 30
0.0
  3
*D3
  1

  0
LINE
  5
66
100
AcDbEntity
  8
0
370
              -2
390
0
  6
Continuous
 62
               0
100
AcDbLine
 10
-171.12423260891228
 20
829.93028189474717
 30
0.0
 11
71.529298564099008
 21
829.93028189474717
 31
0.0
  0
LINE
  5
67
100
AcDbEntity
  8
0
370
              -2
390
0
  6
Continuous
 62
               0
100
AcDbLine
 10
-344.04494144732598
 20
254.93028189474717
 30
0.0
 11
71.529298564099008
 21
254.93028189474717
 31
0.0
  0
LINE
  5
68
100
AcDbEntity
  8
0
370
              -2
390
0
  6
Continuous
 62
               0
100
AcDbLine
 10
71.529298564099008
 20
829.93028189474717
 30
0.0
 11
71.529298564099008
 21
254.93028189474717
 31
0.0
  0
CIRCLE
  5
69
102
{ACAD_REACTORS
330
6A
102
}
100
AcDbEntity
  8
0
370
              -2
390
0
  6
Continuous
 62
               0
100
AcDbCircle
 10
71.529298564099008
 20
829.93028189474717
 30
0.0
 40
4.99969482421875
  0
HATCH
  5
6A
100
AcDbEntity
  8
0
370
              -2
390
0
  6
Continuous
 62
               0
100
AcDbHatch
 10
0.0
 20
0.0
 30
0.0
210
0.0
220
0.0
230
1.0
  2
SOLID
 70
               1
 71
               1
 91
        1
 92
        1
 93
        1
 72
               2
 10
71.529298564099008
 20
829.93028189474717
 40
4.99969482421875
 50
0.0
 51
360.0
 73
               0
 97
        1
330
69
 75
               0
 76
               1
 98
        1
 10
0.0
 20
0.0
  0
CIRCLE
  5
6B
102
{ACAD_REACTORS
330
6C
102
}
100
AcDbEntity
  8
0
370
              -2
390
0
  6
Continuous
 62
               0
100
AcDbCircle
 10
71.529298564099008
 20
254.93028189474717
 30
0.0
 40
4.99969482421875
  0
HATCH
  5
6C
100
AcDbEntity
  8
0
370
              -2
390
0
  6
Continuous
 62
               0
100
AcDbHatch
 10
0.0
 20
0.0
 30
0.0
210
0.0
220
0.0
230
1.0
  2
SOLID
 70
               1
 71
               1
 91
        1
 92
        1
 93
        1
 72
               2
 10
71.529298564099008
 20
254.93028189474717
 40
4.99969482421875
 50
0.0
 51
360.0
 73
               0
 97
        1
330
6B
 75
               0
 76
               1
 98
        1
 10
0.0
 20
0.0
  0
MTEXT
  5
6D
100
AcDbEntity
  8
0
390
0
 62
               0
100
AcDbMText
 10
37.651681376592023
 20
518.61778021254577
 30
0.0
 40
24.432617187500004
 41
0.0
 71
               1
 72
               1
  1
575
  7
ＭＳ ゴシック
 11
0.0
 21
1.0
 31
0.0
 73
               1
 44
0.7828267384257843
  0
POINT
  5
6E
100
AcDbEntity
  8
Defpoints
370
               0
390
0
 62
               0
100
AcDbPoint
 10
-369.04494144732598
 20
254.93028189474717
 30
0.0
  0
POINT
  5
6F
100
AcDbEntity
  8
Defpoints
370
               0
390
0
 62
               0
100
AcDbPoint
 10
-196.12423260891228
 20
829.93028189474717
 30
0.0
  0
POINT
  5
70
100
AcDbEntity
  8
Defpoints
370
               0
390
0
 62
               0
100
AcDbPoint
 10
71.529298564099008
 20
829.93028189474717
 30
0.0
  0
ENDBLK
  5
71
100
AcDbEntity
  8
notes
390
0
100
AcDbBlockEnd
  0
BLOCK
  5
72
100
AcDbEntity
  8
notes
390
0
100
AcDbBlockBegin
  2
*D4
 70
               1
 10
0.0
 20
0.0
 30
0.0
  3
*D4
  1

  0
LINE
  5
73
100
AcDbEntity
  8
0
370
              -2
390
0
  6
Continuous
 62
               0
100
AcDbLine
 10
-798.4707014359301
 20
544.0
 30
0.0
 11
-798.4707014359301
 21
1017.0
 31
0.0
  0
LINE
  5
74
100
AcDbEntity
  8
0
370
              -2
390
0
  6
Continuous
 62
               0
100
AcDbLine
 10
-28.470701435930096
 20
544.0
 30
0.0
 11
-28.470701435930096
 21
1017.0
 31
0.0
  0
LINE
  5
75
100
AcDbEntity
  8
0
370
              -2
390
0
  6
Continuous
 62
               0
100
AcDbLine
 10
-798.4707014359301
 20
1017.0
 30
0.0
 11
-28.470701435930096
 21
1017.0
 31
0.0
  0
CIRCLE
  5
76
102
{ACAD_REACTORS
330
77
102
}
100
AcDbEntity
  8
0
370
              -2
390
0
  6
Continuous
 62
               0
100
AcDbCircle
 10
-798.4707014359301
 20
1017.0
 30
0.0
 40
4.99969482421875
  0
HATCH
  5
77
100
AcDbEntity
  8
0
370
              -2
390
0
  6
Continuous
 62
               0
100
AcDbHatch
 10
0.0
 20
0.0
 30
0.0
210
0.0
220
0.0
230
1.0
  2
SOLID
 70
               1
 71
               1
 91
        1
 92
        1
 93
        1
 72
               2
 10
-798.4707014359301
 20
1017.0
 40
4.99969482421875
 50
0.0
 51
360.0
 73
               0
 97
        1
330
76
 75
               0
 76
               1
 98
        1
 10
0.0
 20
0.0
  0
CIRCLE
  5
78
102
{ACAD_REACTORS
330
79
102
}
100
AcDbEntity
  8
0
370
              -2
390
0
  6
Continuous
 62
               0
100
AcDbCircle
 10
-28.470701435930096
 20
1017.0
 30
0.0
 40
4.99969482421875
  0
HATCH
  5
79
100
AcDbEntity
  8
0
370
              -2
390
0
  6
Continuous
 62
               0
100
AcDbHatch
 10
0.0
 20
0.0
 30
0.0
210
0.0
220
0.0
230
1.0
  2
SOLID
 70
               1
 71
               1
 91
        1
 92
        1
 93
        1
 72
               2
 10
-28.470701435930096
 20
1017.0
 40
4.99969482421875
 50
0.0
 51
360.0
 73
               0
 97
        1
330
78
 75
               0
 76
               1
 98
        1
 10
0.0
 20
0.0
  0
MTEXT
  5
7A
100
AcDbEntity
  8
0
390
0
 62
               0
100
AcDbMText
 10
-437.28320311810239
 20
1050.877617187507
 30
0.0
 40
24.432617187500004
 41
0.0
 71
               1
 72
               1
  1
770
  7
ＭＳ ゴシック
 73
               1
 44
0.7828267384257843
  0
POINT
  5
7B
100
AcDbEntity
  8
Defpoints
370
               0
390
0
 62
               0
100
AcDbPoint
 10
-28.470701435930096
 20
519.0
 30
0.0
  0
POINT
  5
7C
100
AcDbEntity
  8
Defpoints
370
               0
390
0
 62
               0
100
AcDbPoint
 10
-798.4707014359301
 20
519.0
 30
0.0
  0
POINT
  5
7D
100
AcDbEntity
  8
Defpoints
370
               0
390
0
 62
               0
100
AcDbPoint
 10
-798.4707014359301
 20
1017.0
 30
0.0
  0
ENDBLK
  5
7E
100
AcDbEntity
  8
notes
390
0
100
AcDbBlockEnd
  0
BLOCK
  5
7F
100
AcDbEntity
  8
notes
390
0
100
AcDbBlockBegin
  2
*D5
 70
               1
 10
0.0
 20
0.0
 30
0.0
  3
*D5
  1

  0
LINE
  5
80
100
AcDbEntity
  8
0
370
              -2
390
0
  6
Continuous
 62
               0
100
AcDbLine
 10
-757.04017779300921
 20
679.93028189474717
 30
0.0
 11
-898.4707014359883
 21
679.93028189474717
 31
0.0
  0
LINE
  5
81
100
AcDbEntity
  8
0
370
              -2
390
0
  6
Continuous
 62
               0
100
AcDbLine
 10
-687.75641264644219
 20
319.93028189474717
 30
0.0
 11
-898.4707014359883
 21
319.93028189474717
 31
0.0
  0
LINE
  5
82
100
AcDbEntity
  8
0
370
              -2
390
0
  6
Continuous
 62
               0
100
AcDbLine
 10
-898.4707014359883
 20
679.93028189474717
 30
0.0
 11
-898.4707014359883
 21
319.93028189474717
 31
0.0
  0
CIRCLE
  5
83
102
{ACAD_REACTORS
330
84
102
}
100
AcDbEntity
  8
0
370
              -2
390
0
  6
Continuous
 62
               0
100
AcDbCircle
 10
-898.4707014359883
 20
679.93028189474717
 30
0.0
 40
4.99969482421875
  0
HATCH
  5
84
100
AcDbEntity
  8
0
370
              -2
390
0
  6
Continuous
 62
               0
100
AcDbHatch
 10
0.0
 20
0.0
 30
0.0
210
0.0
220
0.0
230
1.0
  2
SOLID
 70
               1
 71
               1
 91
        1
 92
        1
 93
        1
 72
               2
 10
-898.4707014359883
 20
679.93028189474717
 40
4.99969482421875
 50
0.0
 51
360.0
 73
               0
 97
        1
330
83
 75
               0
 76
               1
 98
        1
 10
0.0
 20
0.0
  0
CIRCLE
  5
85
102
{ACAD_REACTORS
330
86
102
}
100
AcDbEntity
  8
0
370
              -2
390
0
  6
Continuous
 62
               0
100
AcDbCircle
 10
-898.4707014359883
 20
319.93028189474717
 30
0.0
 40
4.99969482421875
  0
HATCH
  5
86
100
AcDbEntity
  8
0
370
              -2
390
0
  6
Continuous
 62
               0
100
AcDbHatch
 10
0.0
 20
0.0
 30
0.0
210
0.0
220
0.0
230
1.0
  2
SOLID
 70
               1
 71
               1
 91
        1
 92
        1
 93
        1
 72
               2
 10
-898.4707014359883
 20
319.93028189474717
 40
4.99969482421875
 50
0.0
 51
360.0
 73
               0
 97
        1
330
85
 75
               0
 76
               1
 98
        1
 10
0.0
 20
0.0
  0
MTEXT
  5
87
100
AcDbEntity
  8
0
390
0
 62
               0
100
AcDbMText
 10
-932.34831862349529
 20
476.11778021254577
 30
0.0
 40
24.432617187500004
 41
0.0
 71
               1
 72
               1
  1
360
  7
ＭＳ ゴシック
 11
0.0
 21
1.0
 31
0.0
 73
               1
 44
0.7828267384257843
  0
POINT
  5
88
100
AcDbEntity
  8
Defpoints
370
               0
390
0
 62
               0
100
AcDbPoint
 10
-662.75641264644219
 20
319.93028189474717
 30
0.0
  0
POINT
  5
89
100
AcDbEntity
  8
Defpoints
370
               0
390
0
 62
               0
100
AcDbPoint
 10
-732.04017779300921
 20
679.93028189474717
 30
0.0
  0
POINT
  5
8A
100
AcDbEntity
  8
Defpoints
370
               0
390
0
 62
               0
100
AcDbPoint
 10
-898.4707014359883
 20
679.93028189474717
 30
0.0
  0
ENDBLK
  5
8B
100
AcDbEntity
  8
notes
390
0
100
AcDbBlockEnd
  0
BLOCK
  5
8C
100
AcDbEntity
  8
notes
390
0
100
AcDbBlockBegin
  2
*D6
 70
               1
 10
0.0
 20
0.0
 30
0.0
  3
*D6
  1

  0
LINE
  5
8D
100
AcDbEntity
  8
0
370
              -2
390
0
  6
Continuous
 62
               0
100
AcDbLine
 10
-728.4707014359301
 20
346.0
 30
0.0
 11
-728.4707014359301
 21
154.93028189498
 31
0.0
  0
LINE
  5
8E
100
AcDbEntity
  8
0
370
              -2
390
0
  6
Continuous
 62
               0
100
AcDbLine
 10
-98.470701435930096
 20
346.0
 30
0.0
 11
-98.470701435930096
 21
154.93028189498
 31
0.0
  0
LINE
  5
8F
100
AcDbEntity
  8
0
370
              -2
390
0
  6
Continuous
 62
               0
100
AcDbLine
 10
-728.4707014359301
 20
154.93028189498
 30
0.0
 11
-98.470701435930096
 21
154.93028189498
 31
0.0
  0
CIRCLE
  5
90
102
{ACAD_REACTORS
330
91
102
}
100
AcDbEntity
  8
0
370
              -2
390
0
  6
Continuous
 62
               0
100
AcDbCircle
 10
-728.4707014359301
 20
154.93028189498
 30
0.0
 40
4.99969482421875
  0
HATCH
  5
91
100
AcDbEntity
  8
0
370
              -2
390
0
  6
Continuous
 62
               0
100
AcDbHatch
 10
0.0
 20
0.0
 30
0.0
210
0.0
220
0.0
230
1.0
  2
SOLID
 70
               1
 71
               1
 91
        1
 92
        1
 93
        1
 72
               2
 10
-728.4707014359301
 20
154.93028189498
 40
4.99969482421875
 50
0.0
 51
360.0
 73
               0
 97
        1
330
90
 75
               0
 76
               1
 98
        1
 10
0.0
 20
0.0
  0
CIRCLE
  5
92
102
{ACAD_REACTORS
330
93
102
}
100
AcDbEntity
  8
0
370
              -2
390
0
  6
Continuous
 62
               0
100
AcDbCircle
 10
-98.470701435930096
 20
154.93028189498
 30
0.0
 40
4.99969482421875
  0
HATCH
  5
93
100
AcDbEntity
  8
0
370
              -2
390
0
  6
Continuous
 62
               0
100
AcDbHatch
 10
0.0
 20
0.0
 30
0.0
210
0.0
220
0.0
230
1.0
  2
SOLID
 70
               1
 71
               1
 91
        1
 92
        1
 93
        1
 72
               2
 10
-98.470701435930096
 20
154.93028189498
 40
4.99969482421875
 50
0.0
 51
360.0
 73
               0
 97
        1
330
92
 75
               0
 76
               1
 98
        1
 10
0.0
 20
0.0
  0
MTEXT
  5
94
100
AcDbEntity
  8
0
390
0
 62
               0
100
AcDbMText
 10
-437.28320311810239
 20
188.80789908248698
 30
0.0
 40
24.432617187500004
 41
0.0
 71
               1
 72
               1
  1
630
  7
ＭＳ ゴシック
 73
               1
 44
0.7828267384257843
  0
POINT
  5
95
100
AcDbEntity
  8
Defpoints
370
               0
390
0
 62
               0
100
AcDbPoint
 10
-98.470701435930096
 20
371.0
 30
0.0
  0
POINT
  5
96
100
AcDbEntity
  8
Defpoints
370
               0
390
0
 62
               0
100
AcDbPoint
 10
-728.4707014359301
 20
371.0
 30
0.0
  0
POINT
  5
97
100
AcDbEntity
  8
Defpoints
370
               0
390
0
 62
               0
100
AcDbPoint
 10
-728.4707014359301
 20
154.93028189498
 30
0.0
  0
ENDBLK
  5
98
100
AcDbEntity
  8
notes
390
0
100
AcDbBlockEnd
  0
BLOCK
  5
99
100
AcDbEntity
  8
notes
390
0
100
AcDbBlockBegin
  2
*D7
 70
               1
 10
0.0
 20
0.0
 30
0.0
  3
*D7
  1

  0
LINE
  5
9A
100
AcDbEntity
  8
0
370
              -2
390
0
  6
Continuous
 62
               0
100
AcDbLine
 10
641.19399390020408
 20
-330.0
 30
0.0
 11
624.24628443276742
 21
-330.0
 31
0.0
  0
LINE
  5
9B
100
AcDbEntity
  8
0
370
              -2
390
0
  6
Continuous
 62
               0
100
AcDbLine
 10
641.19399390020408
 20
-530.0
 30
0.0
 11
624.24628443276742
 21
-530.0
 31
0.0
  0
LINE
  5
9C
100
AcDbEntity
  8
0
370
              -2
390
0
  6
Continuous
 62
               0
100
AcDbLine
 10
624.24628443276742
 20
-330.0
 30
0.0
 11
624.24628443276742
 21
-530.0
 31
0.0
  0
CIRCLE
  5
9D
102
{ACAD_REACTORS
330
9E
102
}
100
AcDbEntity
  8
0
370
              -2
390
0
  6
Continuous
 62
               0
100
AcDbCircle
 10
624.24628443276742
 20
-330.0
 30
0.0
 40
4.99969482421875
  0
HATCH
  5
9E
100
AcDbEntity
  8
0
370
              -2
390
0
  6
Continuous
 62
               0
100
AcDbHatch
 10
0.0
 20
0.0
 30
0.0
210
0.0
220
0.0
230
1.0
  2
SOLID
 70
               1
 71
               1
 91
        1
 92
        1
 93
        1
 72
               2
 10
624.24628443276742
 20
-330.0
 40
4.99969482421875
 50
0.0
 51
360.0
 73
               0
 97
        1
330
9D
 75
               0
 76
               1
 98
        1
 10
0.0
 20
0.0
  0
CIRCLE
  5
9F
102
{ACAD_REACTORS
330
A0
102
}
100
AcDbEntity
  8
0
370
              -2
390
0
  6
Continuous
 62
               0
100
AcDbCircle
 10
624.24628443276742
 20
-530.0
 30
0.0
 40
4.99969482421875
  0
HATCH
  5
A0
100
AcDbEntity
  8
0
370
              -2
390
0
  6
Continuous
 62
               0
100
AcDbHatch
 10
0.0
 20
0.0
 30
0.0
210
0.0
220
0.0
230
1.0
  2
SOLID
 70
               1
 71
               1
 91
        1
 92
        1
 93
        1
 72
               2
 10
624.24628443276742
 20
-530.0
 40
4.99969482421875
 50
0.0
 51
360.0
 73
               0
 97
        1
330
9F
 75
               0
 76
               1
 98
        1
 10
0.0
 20
0.0
  0
MTEXT
  5
A1
100
AcDbEntity
  8
0
390
0
 62
               0
100
AcDbMText
 10
590.36866724526044
 20
-503.4375
 30
0.0
 40
24.432617187500004
 41
0.0
 71
               1
 72
               1
  1
(深さ)200
  7
ＭＳ ゴシック
 11
0.0
 21
1.0
 31
0.0
 73
               1
 44
0.7828267384257843
  0
POINT
  5
A2
100
AcDbEntity
  8
Defpoints
370
               0
390
0
 62
               0
100
AcDbPoint
 10
666.19399390020408
 20
-530.0
 30
0.0
  0
POINT
  5
A3
100
AcDbEntity
  8
Defpoints
370
               0
390
0
 62
               0
100
AcDbPoint
 10
666.19399390020408
 20
-330.0
 30
0.0
  0
POINT
  5
A4
100
AcDbEntity
  8
Defpoints
370
               0
390
0
 62
               0
100
AcDbPoint
 10
624.24628443276742
 20
-330.0
 30
0.0
  0
ENDBLK
  5
A5
100
AcDbEntity
  8
notes
390
0
100
AcDbBlockEnd
  0
BLOCK
  5
A6
100
AcDbEntity
  8
notes
390
0
100
AcDbBlockBegin
  2
*D8
 70
               1
 10
0.0
 20
0.0
 30
0.0
  3
*D8
  1

  0
LINE
  5
A7
100
AcDbEntity
  8
0
370
              -2
390
0
  6
Continuous
 62
               0
100
AcDbLine
 10
-403.02525681399857
 20
745.1992925585364
 30
0.0
 11
-305.54322578926804
 21
887.69721630570712
 31
0.0
  0
CIRCLE
  5
A8
102
{ACAD_REACTORS
330
A9
102
}
100
AcDbEntity
  8
0
370
              -2
390
0
  6
Continuous
 62
               0
100
AcDbCircle
 10
-403.02525681399857
 20
745.1992925585364
 30
0.0
 40
4.99969482421875
  0
HATCH
  5
A9
100
AcDbEntity
  8
0
370
              -2
390
0
  6
Continuous
 62
               0
100
AcDbHatch
 10
0.0
 20
0.0
 30
0.0
210
0.0
220
0.0
230
1.0
  2
SOLID
 70
               1
 71
               1
 91
        1
 92
        1
 93
        1
 72
               2
 10
-403.02525681399857
 20
745.1992925585364
 40
4.99969482421875
 50
0.0
 51
360.0
 73
               0
 97
        1
330
A8
 75
               0
 76
               1
 98
        1
 10
0.0
 20
0.0
  0
LINE
  5
AA
100
AcDbEntity
  8
0
370
              -2
390
0
  6
Continuous
 62
               0
100
AcDbLine
 10
-305.54322578926804
 20
887.69721630570712
 30
0.0
 11
-232.04322578926804
 21
887.69721630570712
 31
0.0
  0
MTEXT
  5
AB
100
AcDbEntity
  8
0
390
0
 62
               0
100
AcDbMText
 10
-295.54322578926804
 20
921.5748334932141
 30
0.0
 40
24.432617187500004
 41
0.0
 71
               1
 72
               1
  1
φ37
  7
ＭＳ ゴシック
 73
               1
 44
0.7828267384257843
  0
POINT
  5
AC
100
AcDbEntity
  8
Defpoints
370
               0
390
0
 62
               0
100
AcDbPoint
 10
-423.91614605786162
 20
714.66127123095794
 30
0.0
  0
POINT
  5
AD
100
AcDbEntity
  8
Defpoints
370
               0
390
0
 62
               0
100
AcDbPoint
 10
-403.02525681399857
 20
745.1992925585364
 30
0.0
  0
ENDBLK
  5
AE
100
AcDbEntity
  8
notes
390
0
100
AcDbBlockEnd
  0
BLOCK
  5
AF
100
AcDbEntity
  8
notes
390
0
100
AcDbBlockBegin
  2
*D9
 70
               1
 10
0.0
 20
0.0
 30
0.0
  3
*D9
  1

  0
LINE
  5
B0
100
AcDbEntity
  8
0
370
              -2
390
0
  6
Continuous
 62
               0
100
AcDbLine
 10
906.19399390020408
 20
-330.0
 30
0.0
 11
906.19399390020408
 21
-230.0
 31
0.0
  0
LINE
  5
B1
100
AcDbEntity
  8
0
370
              -2
390
0
  6
Continuous
 62
               0
100
AcDbLine
 10
806.19399390020408
 20
-305.0
 30
0.0
 11
806.19399390020408
 21
-230.0
 31
0.0
  0
LINE
  5
B2
100
AcDbEntity
  8
0
370
              -2
390
0
  6
Continuous
 62
               0
100
AcDbLine
 10
906.19399390020408
 20
-230.0
 30
0.0
 11
806.19399390020408
 21
-230.0
 31
0.0
  0
CIRCLE
  5
B3
102
{ACAD_REACTORS
330
B4
102
}
100
AcDbEntity
  8
0
370
              -2
390
0
  6
Continuous
 62
               0
100
AcDbCircle
 10
906.19399390020408
 20
-230.0
 30
0.0
 40
4.99969482421875
  0
HATCH
  5
B4
100
AcDbEntity
  8
0
370
              -2
390
0
  6
Continuous
 62
               0
100
AcDbHatch
 10
0.0
 20
0.0
 30
0.0
210
0.0
220
0.0
230
1.0
  2
SOLID
 70
               1
 71
               1
 91
        1
 92
        1
 93
        1
 72
               2
 10
906.19399390020408
 20
-230.0
 40
4.99969482421875
 50
0.0
 51
360.0
 73
               0
 97
        1
330
B3
 75
               0
 76
               1
 98
        1
 10
0.0
 20
0.0
  0
CIRCLE
  5
B5
102
{ACAD_REACTORS
330
B6
102
}
100
AcDbEntity
  8
0
370
              -2
390
0
  6
Continuous
 62
               0
100
AcDbCircle
 10
806.19399390020408
 20
-230.0
 30
0.0
 40
4.99969482421875
  0
HATCH
  5
B6
100
AcDbEntity
  8
0
370
              -2
390
0
  6
Continuous
 62
               0
100
AcDbHatch
 10
0.0
 20
0.0
 30
0.0
210
0.0
220
0.0
230
1.0
  2
SOLID
 70
               1
 71
               1
 91
        1
 92
        1
 93
        1
 72
               2
 10
806.19399390020408
 20
-230.0
 40
4.99969482421875
 50
0.0
 51
360.0
 73
               0
 97
        1
330
B5
 75
               0
 76
               1
 98
        1
 10
0.0
 20
0.0
  0
MTEXT
  5
B7
100
AcDbEntity
  8
0
390
0
 62
               0
100
AcDbMText
 10
832.38149221803178
 20
-196.12238281249302
 30
0.0
 40
24.432617187500004
 41
0.0
 71
               1
 72
               1
  1
100
  7
ＭＳ ゴシック
 73
               1
 44
0.7828267384257843
  0
POINT
  5
B8
100
AcDbEntity
  8
Defpoints
370
               0
390
0
 62
               0
100
AcDbPoint
 10
806.19399390020408
 20
-330.0
 30
0.0
  0
POINT
  5
B9
100
AcDbEntity
  8
Defpoints
370
               0
390
0
 62
               0
100
AcDbPoint
 10
906.19399390020408
 20
-355.0
 30
0.0
  0
POINT
  5
BA
100
AcDbEntity
  8
Defpoints
370
               0
390
0
 62
               0
100
AcDbPoint
 10
906.19399390020408
 20
-230.0
 30
0.0
  0
ENDBLK
  5
BB
100
AcDbEntity
  8
notes
390
0
100
AcDbBlockEnd
  0
BLOCK
  5
BC
100
AcDbEntity
  8
notes
390
0
100
AcDbBlockBegin
  2
*D10
 70
               1
 10
0.0
 20
0.0
 30
0.0
  3
*D10
  1

  0
LINE
  5
BD
100
AcDbEntity
  8
0
370
              -2
390
0
  6
Continuous
 62
               0
100
AcDbLine
 10
906.19399390020408
 20
-550.0
 30
0.0
 11
906.19399390020408
 21
-675.0
 31
0.0
  0
LINE
  5
BE
100
AcDbEntity
  8
0
370
              -2
390
0
  6
Continuous
 62
               0
100
AcDbLine
 10
666.19399390020408
 20
-600.0
 30
0.0
 11
666.19399390020408
 21
-675.0
 31
0.0
  0
LINE
  5
BF
100
AcDbEntity
  8
0
370
              -2
390
0
  6
Continuous
 62
               0
100
AcDbLine
 10
906.19399390020408
 20
-675.0
 30
0.0
 11
666.19399390020408
 21
-675.0
 31
0.0
  0
CIRCLE
  5
C0
102
{ACAD_REACTORS
330
C1
102
}
100
AcDbEntity
  8
0
370
              -2
390
0
  6
Continuous
 62
               0
100
AcDbCircle
 10
906.19399390020408
 20
-675.0
 30
0.0
 40
4.99969482421875
  0
HATCH
  5
C1
100
AcDbEntity
  8
0
370
              -2
390
0
  6
Continuous
 62
               0
100
AcDbHatch
 10
0.0
 20
0.0
 30
0.0
210
0.0
220
0.0
230
1.0
  2
SOLID
 70
               1
 71
               1
 91
        1
 92
        1
 93
        1
 72
               2
 10
906.19399390020408
 20
-675.0
 40
4.99969482421875
 50
0.0
 51
360.0
 73
               0
 97
        1
330
C0
 75
               0
 76
               1
 98
        1
 10
0.0
 20
0.0
  0
CIRCLE
  5
C2
102
{ACAD_REACTORS
330
C3
102
}
100
AcDbEntity
  8
0
370
              -2
390
0
  6
Continuous
 62
               0
100
AcDbCircle
 10
666.19399390020408
 20
-675.0
 30
0.0
 40
4.99969482421875
  0
HATCH
  5
C3
100
AcDbEntity
  8
0
370
              -2
390
0
  6
Continuous
 62
               0
100
AcDbHatch
 10
0.0
 20
0.0
 30
0.0
210
0.0
220
0.0
230
1.0
  2
SOLID
 70
               1
 71
               1
 91
        1
 92
        1
 93
        1
 72
               2
 10
666.19399390020408
 20
-675.0
 40
4.99969482421875
 50
0.0
 51
360.0
 73
               0
 97
        1
330
C2
 75
               0
 76
               1
 98
        1
 10
0.0
 20
0.0
  0
MTEXT
  5
C4
100
AcDbEntity
  8
0
390
0
 62
               0
100
AcDbMText
 10
762.38149221803178
 20
-641.12238281249302
 30
0.0
 40
24.432617187500004
 41
0.0
 71
               1
 72
               1
  1
240
  7
ＭＳ ゴシック
 73
               1
 44
0.7828267384257843
  0
POINT
  5
C5
100
AcDbEntity
  8
Defpoints
370
               0
390
0
 62
               0
100
AcDbPoint
 10
666.19399390020408
 20
-575.0
 30
0.0
  0
POINT
  5
C6
100
AcDbEntity
  8
Defpoints
370
               0
390
0
 62
               0
100
AcDbPoint
 10
906.19399390020408
 20
-525.0
 30
0.0
  0
POINT
  5
C7
100
AcDbEntity
  8
Defpoints
370
               0
390
0
 62
               0
100
AcDbPoint
 10
906.19399390020408
 20
-675.0
 30
0.0
  0
ENDBLK
  5
C8
100
AcDbEntity
  8
notes
390
0
100
AcDbBlockEnd
  0
BLOCK
  5
C9
100
AcDbEntity
  8
notes
390
0
100
AcDbBlockBegin
  2
*D11
 70
               1
 10
0.0
 20
0.0
 30
0.0
  3
*D11
  1

  0
LINE
  5
CA
100
AcDbEntity
  8
0
370
              -2
390
0
  6
Continuous
 62
               0
100
AcDbLine
 10
-324.39464352669893
 20
-375.0
 30
0.0
 11
-324.39464352669893
 21
-230.0
 31
0.0
  0
LINE
  5
CB
100
AcDbEntity
  8
0
370
              -2
390
0
  6
Continuous
 62
               0
100
AcDbLine
 10
-494.39464352669893
 20
-375.0
 30
0.0
 11
-494.39464352669893
 21
-230.0
 31
0.0
  0
LINE
  5
CC
100
AcDbEntity
  8
0
370
              -2
390
0
  6
Continuous
 62
               0
100
AcDbLine
 10
-324.39464352669893
 20
-230.0
 30
0.0
 11
-494.39464352669893
 21
-230.0
 31
0.0
  0
CIRCLE
  5
CD
102
{ACAD_REACTORS
330
CE
102
}
100
AcDbEntity
  8
0
370
              -2
390
0
  6
Continuous
 62
               0
100
AcDbCircle
 10
-324.39464352669893
 20
-230.0
 30
0.0
 40
4.99969482421875
  0
HATCH
  5
CE
100
AcDbEntity
  8
0
370
              -2
390
0
  6
Continuous
 62
               0
100
AcDbHatch
 10
0.0
 20
0.0
 30
0.0
210
0.0
220
0.0
230
1.0
  2
SOLID
 70
               1
 71
               1
 91
        1
 92
        1
 93
        1
 72
               2
 10
-324.39464352669893
 20
-230.0
 40
4.99969482421875
 50
0.0
 51
360.0
 73
               0
 97
        1
330
CD
 75
               0
 76
               1
 98
        1
 10
0.0
 20
0.0
  0
CIRCLE
  5
CF
102
{ACAD_REACTORS
330
D0
102
}
100
AcDbEntity
  8
0
370
              -2
390
0
  6
Continuous
 62
               0
100
AcDbCircle
 10
-494.39464352669893
 20
-230.0
 30
0.0
 40
4.99969482421875
  0
HATCH
  5
D0
100
AcDbEntity
  8
0
370
              -2
390
0
  6
Continuous
 62
               0
100
AcDbHatch
 10
0.0
 20
0.0
 30
0.0
210
0.0
220
0.0
230
1.0
  2
SOLID
 70
               1
 71
               1
 91
        1
 92
        1
 93
        1
 72
               2
 10
-494.39464352669893
 20
-230.0
 40
4.99969482421875
 50
0.0
 51
360.0
 73
               0
 97
        1
330
CF
 75
               0
 76
               1
 98
        1
 10
0.0
 20
0.0
  0
MTEXT
  5
D1
100
AcDbEntity
  8
0
390
0
 62
               0
100
AcDbMText
 10
-433.20714520887122
 20
-196.12238281249302
 30
0.0
 40
24.432617187500004
 41
0.0
 71
               1
 72
               1
  1
170
  7
ＭＳ ゴシック
 73
               1
 44
0.7828267384257843
  0
POINT
  5
D2
100
AcDbEntity
  8
Defpoints
370
               0
390
0
 62
               0
100
AcDbPoint
 10
-494.39464352669893
 20
-400.0
 30
0.0
  0
POINT
  5
D3
100
AcDbEntity
  8
Defpoints
370
               0
390
0
 62
               0
100
AcDbPoint
 10
-324.39464352669893
 20
-400.0
 30
0.0
  0
POINT
  5
D4
100
AcDbEntity
  8
Defpoints
370
               0
390
0
 62
               0
100
AcDbPoint
 10
-324.39464352669893
 20
-230.0
 30
0.0
  0
ENDBLK
  5
D5
100
AcDbEntity
  8
notes
390
0
100
AcDbBlockEnd
  0
BLOCK
  5
D6
100
AcDbEntity
  8
notes
390
0
100
AcDbBlockBegin
  2
*D12
 70
               1
 10
0.0
 20
0.0
 30
0.0
  3
*D12
  1

  0
LINE
  5
D7
100
AcDbEntity
  8
0
370
              -2
390
0
  6
Continuous
 62
               0
100
AcDbLine
 10
-539.39464352669893
 20
-420.0
 30
0.0
 11
-898.4707014359883
 21
-420.0
 31
0.0
  0
LINE
  5
D8
100
AcDbEntity
  8
0
370
              -2
390
0
  6
Continuous
 62
               0
100
AcDbLine
 10
-809.66825140942819
 20
-330.0
 30
0.0
 11
-898.4707014359883
 21
-330.0
 31
0.0
  0
LINE
  5
D9
100
AcDbEntity
  8
0
370
              -2
390
0
  6
Continuous
 62
               0
100
AcDbLine
 10
-898.4707014359883
 20
-420.0
 30
0.0
 11
-898.4707014359883
 21
-330.0
 31
0.0
  0
CIRCLE
  5
DA
102
{ACAD_REACTORS
330
DB
102
}
100
AcDbEntity
  8
0
370
              -2
390
0
  6
Continuous
 62
               0
100
AcDbCircle
 10
-898.4707014359883
 20
-420.0
 30
0.0
 40
4.99969482421875
  0
HATCH
  5
DB
100
AcDbEntity
  8
0
370
              -2
390
0
  6
Continuous
 62
               0
100
AcDbHatch
 10
0.0
 20
0.0
 30
0.0
210
0.0
220
0.0
230
1.0
  2
SOLID
 70
               1
 71
               1
 91
        1
 92
        1
 93
        1
 72
               2
 10
-898.4707014359883
 20
-420.0
 40
4.99969482421875
 50
0.0
 51
360.0
 73
               0
 97
        1
330
DA
 75
               0
 76
               1
 98
        1
 10
0.0
 20
0.0
  0
CIRCLE
  5
DC
102
{ACAD_REACTORS
330
DD
102
}
100
AcDbEntity
  8
0
370
              -2
390
0
  6
Continuous
 62
               0
100
AcDbCircle
 10
-898.4707014359883
 20
-330.0
 30
0.0
 40
4.99969482421875
  0
HATCH
  5
DD
100
AcDbEntity
  8
0
370
              -2
390
0
  6
Continuous
 62
               0
100
AcDbHatch
 10
0.0
 20
0.0
 30
0.0
210
0.0
220
0.0
230
1.0
  2
SOLID
 70
               1
 71
               1
 91
        1
 92
        1
 93
        1
 72
               2
 10
-898.4707014359883
 20
-330.0
 40
4.99969482421875
 50
0.0
 51
360.0
 73
               0
 97
        1
330
DC
 75
               0
 76
               1
 98
        1
 10
0.0
 20
0.0
  0
MTEXT
  5
DE
100
AcDbEntity
  8
0
390
0
 62
               0
100
AcDbMText
 10
-932.34831862349529
 20
-390.875
 30
0.0
 40
24.432617187500004
 41
0.0
 71
               1
 72
               1
  1
90
  7
ＭＳ ゴシック
 11
0.0
 21
1.0
 31
0.0
 73
               1
 44
0.7828267384257843
  0
POINT
  5
DF
100
AcDbEntity
  8
Defpoints
370
               0
390
0
 62
               0
100
AcDbPoint
 10
-784.66825140942819
 20
-330.0
 30
0.0
  0
POINT
  5
E0
100
AcDbEntity
  8
Defpoints
370
               0
390
0
 62
               0
100
AcDbPoint
 10
-514.39464352669893
 20
-420.0
 30
0.0
  0
POINT
  5
E1
100
AcDbEntity
  8
Defpoints
370
               0
390
0
 62
               0
100
AcDbPoint
 10
-898.4707014359883
 20
-420.0
 30
0.0
  0
ENDBLK
  5
E2
100
AcDbEntity
  8
notes
390
0
100
AcDbBlockEnd
  0
BLOCK
  5
E3
100
AcDbEntity
  8
notes
390
0
100
AcDbBlockBegin
  2
*D13
 70
               1
 10
0.0
 20
0.0
 30
0.0
  3
*D13
  1

  0
LINE
  5
E4
100
AcDbEntity
  8
0
370
              -2
390
0
  6
Continuous
 62
               0
100
AcDbLine
 10
464.24628443276742
 20
-530.27637443313142
 30
0.0
 11
242.24628443285474
 21
-530.27637443313142
 31
0.0
  0
LINE
  5
E5
100
AcDbEntity
  8
0
370
              -2
390
0
  6
Continuous
 62
               0
100
AcDbLine
 10
319.95760272326879
 20
-330.27637443313142
 30
0.0
 11
242.24628443285474
 21
-330.27637443313142
 31
0.0
  0
LINE
  5
E6
100
AcDbEntity
  8
0
370
              -2
390
0
  6
Continuous
 62
               0
100
AcDbLine
 10
242.24628443285474
 20
-530.27637443313142
 30
0.0
 11
242.24628443285474
 21
-330.27637443313142
 31
0.0
  0
CIRCLE
  5
E7
102
{ACAD_REACTORS
330
E8
102
}
100
AcDbEntity
  8
0
370
              -2
390
0
  6
Continuous
 62
               0
100
AcDbCircle
 10
242.24628443285474
 20
-530.27637443313142
 30
0.0
 40
4.99969482421875
  0
HATCH
  5
E8
100
AcDbEntity
  8
0
370
              -2
390
0
  6
Continuous
 62
               0
100
AcDbHatch
 10
0.0
 20
0.0
 30
0.0
210
0.0
220
0.0
230
1.0
  2
SOLID
 70
               1
 71
               1
 91
        1
 92
        1
 93
        1
 72
               2
 10
242.24628443285474
 20
-530.27637443313142
 40
4.99969482421875
 50
0.0
 51
360.0
 73
               0
 97
        1
330
E7
 75
               0
 76
               1
 98
        1
 10
0.0
 20
0.0
  0
CIRCLE
  5
E9
102
{ACAD_REACTORS
330
EA
102
}
100
AcDbEntity
  8
0
370
              -2
390
0
  6
Continuous
 62
               0
100
AcDbCircle
 10
242.24628443285474
 20
-330.27637443313142
 30
0.0
 40
4.99969482421875
  0
HATCH
  5
EA
100
AcDbEntity
  8
0
370
              -2
390
0
  6
Continuous
 62
               0
100
AcDbHatch
 10
0.0
 20
0.0
 30
0.0
210
0.0
220
0.0
230
1.0
  2
SOLID
 70
               1
 71
               1
 91
        1
 92
        1
 93
        1
 72
               2
 10
242.24628443285474
 20
-330.27637443313142
 40
4.99969482421875
 50
0.0
 51
360.0
 73
               0
 97
        1
330
E9
 75
               0
 76
               1
 98
        1
 10
0.0
 20
0.0
  0
MTEXT
  5
EB
100
AcDbEntity
  8
0
390
0
 62
               0
100
AcDbMText
 10
208.36866724534775
 20
-454.08887611533282
 30
0.0
 40
24.432617187500004
 41
0.0
 71
               1
 72
               1
  1
200
  7
ＭＳ ゴシック
 11
0.0
 21
1.0
 31
0.0
 73
               1
 44
0.7828267384257843
  0
POINT
  5
EC
100
AcDbEntity
  8
Defpoints
370
               0
390
0
 62
               0
100
AcDbPoint
 10
344.95760272326879
 20
-330.27637443313142
 30
0.0
  0
POINT
  5
ED
100
AcDbEntity
  8
Defpoints
370
               0
390
0
 62
               0
100
AcDbPoint
 10
489.24628443276742
 20
-530.27637443313142
 30
0.0
  0
POINT
  5
EE
100
AcDbEntity
  8
Defpoints
370
               0
390
0
 62
               0
100
AcDbPoint
 10
242.24628443285474
 20
-530.27637443313142
 30
0.0
  0
ENDBLK
  5
EF
100
AcDbEntity
  8
notes
390
0
100
AcDbBlockEnd
  0
BLOCK
  5
F0
100
AcDbEntity
  8
notes
390
0
100
AcDbBlockBegin
  2
*D14
 70
               1
 10
0.0
 20
0.0
 30
0.0
  3
*D14
  1

  0
LINE
  5
F1
100
AcDbEntity
  8
0
370
              -2
390
0
  6
Continuous
 62
               0
100
AcDbLine
 10
-15.470701435930096
 20
-330.00287974794628
 30
0.0
 11
71.296136587072397
 21
-330.00287974794628
 31
0.0
  0
LINE
  5
F2
100
AcDbEntity
  8
0
370
              -2
390
0
  6
Continuous
 62
               0
100
AcDbLine
 10
-351.89455594052561
 20
-575.00009040557779
 30
0.0
 11
71.296136587072397
 21
-575.00009040557779
 31
0.0
  0
LINE
  5
F3
100
AcDbEntity
  8
0
370
              -2
390
0
  6
Continuous
 62
               0
100
AcDbLine
 10
71.296136587072397
 20
-330.00287974794628
 30
0.0
 11
71.296136587072397
 21
-575.00009040557779
 31
0.0
  0
CIRCLE
  5
F4
102
{ACAD_REACTORS
330
F5
102
}
100
AcDbEntity
  8
0
370
              -2
390
0
  6
Continuous
 62
               0
100
AcDbCircle
 10
71.296136587072397
 20
-330.00287974794628
 30
0.0
 40
4.99969482421875
  0
HATCH
  5
F5
100
AcDbEntity
  8
0
370
              -2
390
0
  6
Continuous
 62
               0
100
AcDbHatch
 10
0.0
 20
0.0
 30
0.0
210
0.0
220
0.0
230
1.0
  2
SOLID
 70
               1
 71
               1
 91
        1
 92
        1
 93
        1
 72
               2
 10
71.296136587072397
 20
-330.00287974794628
 40
4.99969482421875
 50
0.0
 51
360.0
 73
               0
 97
        1
330
F4
 75
               0
 76
               1
 98
        1
 10
0.0
 20
0.0
  0
CIRCLE
  5
F6
102
{ACAD_REACTORS
330
F7
102
}
100
AcDbEntity
  8
0
370
              -2
390
0
  6
Continuous
 62
               0
100
AcDbCircle
 10
71.296136587072397
 20
-575.00009040557779
 30
0.0
 40
4.99969482421875
  0
HATCH
  5
F7
100
AcDbEntity
  8
0
370
              -2
390
0
  6
Continuous
 62
               0
100
AcDbHatch
 10
0.0
 20
0.0
 30
0.0
210
0.0
220
0.0
230
1.0
  2
SOLID
 70
               1
 71
               1
 91
        1
 92
        1
 93
        1
 72
               2
 10
71.296136587072397
 20
-575.00009040557779
 40
4.99969482421875
 50
0.0
 51
360.0
 73
               0
 97
        1
330
F6
 75
               0
 76
               1
 98
        1
 10
0.0
 20
0.0
  0
MTEXT
  5
F8
100
AcDbEntity
  8
0
390
0
 62
               0
100
AcDbMText
 10
37.418519399565412
 20
-476.31398675899254
 30
0.0
 40
24.432617187500004
 41
0.0
 71
               1
 72
               1
  1
245
  7
ＭＳ ゴシック
 11
0.0
 21
1.0
 31
0.0
 73
               1
 44
0.7828267384257843
  0
POINT
  5
F9
100
AcDbEntity
  8
Defpoints
370
               0
390
0
 62
               0
100
AcDbPoint
 10
-376.89455594052561
 20
-575.00009040557779
 30
0.0
  0
POINT
  5
FA
100
AcDbEntity
  8
Defpoints
370
               0
390
0
 62
               0
100
AcDbPoint
 10
-40.470701435930096
 20
-330.00287974794628
 30
0.0
  0
POINT
  5
FB
100
AcDbEntity
  8
Defpoints
370
               0
390
0
 62
               0
100
AcDbPoint
 10
71.296136587072397
 20
-330.00287974794628
 30
0.0
  0
ENDBLK
  5
FC
100
AcDbEntity
  8
notes
390
0
100
AcDbBlockEnd
  0
BLOCK
  5
FD
100
AcDbEntity
  8
notes
390
0
100
AcDbBlockBegin
  2
*D15
 70
               1
 10
0.0
 20
0.0
 30
0.0
  3
*D15
  1

  0
LINE
  5
FE
100
AcDbEntity
  8
0
370
              -2
390
0
  6
Continuous
 62
               0
100
AcDbLine
 10
433.01753798461868
 20
824.93028189474717
 30
0.0
 11
433.01753798461868
 21
896.0
 31
0.0
  0
LINE
  5
FF
100
AcDbEntity
  8
0
370
              -2
390
0
  6
Continuous
 62
               0
100
AcDbLine
 10
633.01753798461868
 20
824.93028189474717
 30
0.0
 11
633.01753798461868
 21
896.0
 31
0.0
  0
LINE
  5
100
100
AcDbEntity
  8
0
370
              -2
390
0
  6
Continuous
 62
               0
100
AcDbLine
 10
433.01753798461868
 20
896.0
 30
0.0
 11
633.01753798461868
 21
896.0
 31
0.0
  0
CIRCLE
  5
101
102
{ACAD_REACTORS
330
102
102
}
100
AcDbEntity
  8
0
370
              -2
390
0
  6
Continuous
 62
               0
100
AcDbCircle
 10
433.01753798461868
 20
896.0
 30
0.0
 40
4.99969482421875
  0
HATCH
  5
102
100
AcDbEntity
  8
0
370
              -2
390
0
  6
Continuous
 62
               0
100
AcDbHatch
 10
0.0
 20
0.0
 30
0.0
210
0.0
220
0.0
230
1.0
  2
SOLID
 70
               1
 71
               1
 91
        1
 92
        1
 93
        1
 72
               2
 10
433.01753798461868
 20
896.0
 40
4.99969482421875
 50
0.0
 51
360.0
 73
               0
 97
        1
330
101
 75
               0
 76
               1
 98
        1
 10
0.0
 20
0.0
  0
CIRCLE
  5
103
102
{ACAD_REACTORS
330
104
102
}
100
AcDbEntity
  8
0
370
              -2
390
0
  6
Continuous
 62
               0
100
AcDbCircle
 10
633.01753798461868
 20
896.0
 30
0.0
 40
4.99969482421875
  0
HATCH
  5
104
100
AcDbEntity
  8
0
370
              -2
390
0
  6
Continuous
 62
               0
100
AcDbHatch
 10
0.0
 20
0.0
 30
0.0
210
0.0
220
0.0
230
1.0
  2
SOLID
 70
               1
 71
               1
 91
        1
 92
        1
 93
        1
 72
               2
 10
633.01753798461868
 20
896.0
 40
4.99969482421875
 50
0.0
 51
360.0
 73
               0
 97
        1
330
103
 75
               0
 76
               1
 98
        1
 10
0.0
 20
0.0
  0
MTEXT
  5
105
100
AcDbEntity
  8
0
390
0
 62
               0
100
AcDbMText
 10
509.20503630244639
 20
929.87761718750698
 30
0.0
 40
24.432617187500004
 41
0.0
 71
               1
 72
               1
  1
200
  7
ＭＳ ゴシック
 73
               1
 44
0.7828267384257843
  0
POINT
  5
106
100
AcDbEntity
  8
Defpoints
370
               0
390
0
 62
               0
100
AcDbPoint
 10
633.01753798461868
 20
799.93028189474717
 30
0.0
  0
POINT
  5
107
100
AcDbEntity
  8
Defpoints
370
               0
390
0
 62
               0
100
AcDbPoint
 10
433.01753798461868
 20
799.93028189474717
 30
0.0
  0
POINT
  5
108
100
AcDbEntity
  8
Defpoints
370
               0
390
0
 62
               0
100
AcDbPoint
 10
433.01753798461868
 20
896.0
 30
0.0
  0
ENDBLK
  5
109
100
AcDbEntity
  8
notes
390
0
100
AcDbBlockEnd
  0
BLOCK
  5
10A
100
AcDbEntity
  8
notes
390
0
100
AcDbBlockBegin
  2
*D16
 70
               1
 10
0.0
 20
0.0
 30
0.0
  3
*D16
  1

  0
LINE
  5
10B
100
AcDbEntity
  8
0
370
              -2
390
0
  6
Continuous
 62
               0
100
AcDbLine
 10
658.01753798461868
 20
799.93028189474717
 30
0.0
 11
848.125
 21
799.93028189474717
 31
0.0
  0
LINE
  5
10C
100
AcDbEntity
  8
0
370
              -2
390
0
  6
Continuous
 62
               0
100
AcDbLine
 10
658.01753798461868
 20
499.93028189474717
 30
0.0
 11
848.125
 21
499.93028189474717
 31
0.0
  0
LINE
  5
10D
100
AcDbEntity
  8
0
370
              -2
390
0
  6
Continuous
 62
               0
100
AcDbLine
 10
848.125
 20
799.93028189474717
 30
0.0
 11
848.125
 21
499.93028189474717
 31
0.0
  0
CIRCLE
  5
10E
102
{ACAD_REACTORS
330
10F
102
}
100
AcDbEntity
  8
0
370
              -2
390
0
  6
Continuous
 62
               0
100
AcDbCircle
 10
848.125
 20
799.93028189474717
 30
0.0
 40
4.99969482421875
  0
HATCH
  5
10F
100
AcDbEntity
  8
0
370
              -2
390
0
  6
Continuous
 62
               0
100
AcDbHatch
 10
0.0
 20
0.0
 30
0.0
210
0.0
220
0.0
230
1.0
  2
SOLID
 70
               1
 71
               1
 91
        1
 92
        1
 93
        1
 72
               2
 10
848.125
 20
799.93028189474717
 40
4.99969482421875
 50
0.0
 51
360.0
 73
               0
 97
        1
330
10E
 75
               0
 76
               1
 98
        1
 10
0.0
 20
0.0
  0
CIRCLE
  5
110
102
{ACAD_REACTORS
330
111
102
}
100
AcDbEntity
  8
0
370
              -2
390
0
  6
Continuous
 62
               0
100
AcDbCircle
 10
848.125
 20
499.93028189474717
 30
0.0
 40
4.99969482421875
  0
HATCH
  5
111
100
AcDbEntity
  8
0
370
              -2
390
0
  6
Continuous
 62
               0
100
AcDbHatch
 10
0.0
 20
0.0
 30
0.0
210
0.0
220
0.0
230
1.0
  2
SOLID
 70
               1
 71
               1
 91
        1
 92
        1
 93
        1
 72
               2
 10
848.125
 20
499.93028189474717
 40
4.99969482421875
 50
0.0
 51
360.0
 73
               0
 97
        1
330
110
 75
               0
 76
               1
 98
        1
 10
0.0
 20
0.0
  0
MTEXT
  5
112
100
AcDbEntity
  8
0
390
0
 62
               0
100
AcDbMText
 10
814.24738281249302
 20
639.32253648887854
 30
0.0
 40
24.432617187500004
 41
0.0
 71
               1
 72
               1
  1
300
  7
ＭＳ ゴシック
 11
0.0
 21
1.0
 31
0.0
 73
               1
 44
0.7828267384257843
  0
POINT
  5
113
100
AcDbEntity
  8
Defpoints
370
               0
390
0
 62
               0
100
AcDbPoint
 10
633.01753798461868
 20
499.93028189474717
 30
0.0
  0
POINT
  5
114
100
AcDbEntity
  8
Defpoints
370
               0
390
0
 62
               0
100
AcDbPoint
 10
633.01753798461868
 20
799.93028189474717
 30
0.0
  0
POINT
  5
115
100
AcDbEntity
  8
Defpoints
370
               0
390
0
 62
               0
100
AcDbPoint
 10
848.125
 20
799.93028189474717
 30
0.0
  0
ENDBLK
  5
116
100
AcDbEntity
  8
notes
390
0
100
AcDbBlockEnd
  0
BLOCK
  5
117
100
AcDbEntity
  8
notes
390
0
100
AcDbBlockBegin
  2
*D17
 70
               1
 10
0.0
 20
0.0
 30
0.0
  3
*D17
  1

  0
LINE
  5
118
100
AcDbEntity
  8
0
370
              -2
390
0
  6
Continuous
 62
               0
100
AcDbLine
 10
658.01753798461868
 20
829.93028189474717
 30
0.0
 11
848.125
 21
829.93028189474717
 31
0.0
  0
LINE
  5
119
100
AcDbEntity
  8
0
370
              -2
390
0
  6
Continuous
 62
               0
100
AcDbLine
 10
658.01753798461868
 20
799.93028189474717
 30
0.0
 11
848.125
 21
799.93028189474717
 31
0.0
  0
LINE
  5
11A
100
AcDbEntity
  8
0
370
              -2
390
0
  6
Continuous
 62
               0
100
AcDbLine
 10
848.125
 20
829.93028189474717
 30
0.0
 11
848.125
 21
895.75
 31
0.0
  0
LINE
  5
11B
100
AcDbEntity
  8
0
370
              -2
390
0
  6
Continuous
 62
               0
100
AcDbLine
 10
848.125
 20
829.93028189474717
 30
0.0
 11
848.125
 21
799.93028189474717
 31
0.0
  0
CIRCLE
  5
11C
102
{ACAD_REACTORS
330
11D
102
}
100
AcDbEntity
  8
0
370
              -2
390
0
  6
Continuous
 62
               0
100
AcDbCircle
 10
848.125
 20
829.93028189474717
 30
0.0
 40
4.99969482421875
  0
HATCH
  5
11D
100
AcDbEntity
  8
0
370
              -2
390
0
  6
Continuous
 62
               0
100
AcDbHatch
 10
0.0
 20
0.0
 30
0.0
210
0.0
220
0.0
230
1.0
  2
SOLID
 70
               1
 71
               1
 91
        1
 92
        1
 93
        1
 72
               2
 10
848.125
 20
829.93028189474717
 40
4.99969482421875
 50
0.0
 51
360.0
 73
               0
 97
        1
330
11C
 75
               0
 76
               1
 98
        1
 10
0.0
 20
0.0
  0
CIRCLE
  5
11E
102
{ACAD_REACTORS
330
11F
102
}
100
AcDbEntity
  8
0
370
              -2
390
0
  6
Continuous
 62
               0
100
AcDbCircle
 10
848.125
 20
799.93028189474717
 30
0.0
 40
4.99969482421875
  0
HATCH
  5
11F
100
AcDbEntity
  8
0
370
              -2
390
0
  6
Continuous
 62
               0
100
AcDbHatch
 10
0.0
 20
0.0
 30
0.0
210
0.0
220
0.0
230
1.0
  2
SOLID
 70
               1
 71
               1
 91
        1
 92
        1
 93
        1
 72
               2
 10
848.125
 20
799.93028189474717
 40
4.99969482421875
 50
0.0
 51
360.0
 73
               0
 97
        1
330
11E
 75
               0
 76
               1
 98
        1
 10
0.0
 20
0.0
  0
MTEXT
  5
120
100
AcDbEntity
  8
0
390
0
 62
               0
100
AcDbMText
 10
814.24738281249302
 20
864.0
 30
0.0
 40
24.432617187500004
 41
0.0
 71
               1
 72
               1
  1
30
  7
ＭＳ ゴシック
 11
0.0
 21
1.0
 31
0.0
 73
               1
 44
0.7828267384257843
  0
POINT
  5
121
100
AcDbEntity
  8
Defpoints
370
               0
390
0
 62
               0
100
AcDbPoint
 10
633.01753798461868
 20
799.93028189474717
 30
0.0
  0
POINT
  5
122
100
AcDbEntity
  8
Defpoints
370
               0
390
0
 62
               0
100
AcDbPoint
 10
633.01753798461868
 20
829.93028189474717
 30
0.0
  0
POINT
  5
123
100
AcDbEntity
  8
Defpoints
370
               0
390
0
 62
               0
100
AcDbPoint
 10
848.125
 20
829.93028189474717
 30
0.0
  0
ENDBLK
  5
124
100
AcDbEntity
  8
notes
390
0
100
AcDbBlockEnd
  0
BLOCK
  5
125
100
AcDbEntity
  8
notes
390
0
100
AcDbBlockBegin
  2
*D18
 70
               1
 10
0.0
 20
0.0
 30
0.0
  3
*D18
  1

  0
LINE
  5
126
100
AcDbEntity
  8
0
370
              -2
390
0
  6
Continuous
 62
               0
100
AcDbLine
 10
858.93940626541735
 20
-330.0
 30
0.0
 11
950.0
 21
-330.0
 31
0.0
  0
LINE
  5
127
100
AcDbEntity
  8
0
370
              -2
390
0
  6
Continuous
 62
               0
100
AcDbLine
 10
931.19399390020408
 20
-345.0
 30
0.0
 11
950.0
 21
-345.0
 31
0.0
  0
LINE
  5
128
100
AcDbEntity
  8
0
370
              -2
390
0
  6
Continuous
 62
               0
100
AcDbLine
 10
950.0
 20
-330.0
 30
0.0
 11
950.0
 21
-279.25
 31
0.0
  0
LINE
  5
129
100
AcDbEntity
  8
0
370
              -2
390
0
  6
Continuous
 62
               0
100
AcDbLine
 10
950.0
 20
-330.0
 30
0.0
 11
950.0
 21
-345.0
 31
0.0
  0
CIRCLE
  5
12A
102
{ACAD_REACTORS
330
12B
102
}
100
AcDbEntity
  8
0
370
              -2
390
0
  6
Continuous
 62
               0
100
AcDbCircle
 10
950.0
 20
-330.0
 30
0.0
 40
4.99969482421875
  0
HATCH
  5
12B
100
AcDbEntity
  8
0
370
              -2
390
0
  6
Continuous
 62
               0
100
AcDbHatch
 10
0.0
 20
0.0
 30
0.0
210
0.0
220
0.0
230
1.0
  2
SOLID
 70
               1
 71
               1
 91
        1
 92
        1
 93
        1
 72
               2
 10
950.0
 20
-330.0
 40
4.99969482421875
 50
0.0
 51
360.0
 73
               0
 97
        1
330
12A
 75
               0
 76
               1
 98
        1
 10
0.0
 20
0.0
  0
CIRCLE
  5
12C
102
{ACAD_REACTORS
330
12D
102
}
100
AcDbEntity
  8
0
370
              -2
390
0
  6
Continuous
 62
               0
100
AcDbCircle
 10
950.0
 20
-345.0
 30
0.0
 40
4.99969482421875
  0
HATCH
  5
12D
100
AcDbEntity
  8
0
370
              -2
390
0
  6
Continuous
 62
               0
100
AcDbHatch
 10
0.0
 20
0.0
 30
0.0
210
0.0
220
0.0
230
1.0
  2
SOLID
 70
               1
 71
               1
 91
        1
 92
        1
 93
        1
 72
               2
 10
950.0
 20
-345.0
 40
4.99969482421875
 50
0.0
 51
360.0
 73
               0
 97
        1
330
12C
 75
               0
 76
               1
 98
        1
 10
0.0
 20
0.0
  0
MTEXT
  5
12E
100
AcDbEntity
  8
0
390
0
 62
               0
100
AcDbMText
 10
916.12238281249302
 20
-311.0
 30
0.0
 40
24.432617187500004
 41
0.0
 71
               1
 72
               1
  1
15
  7
ＭＳ ゴシック
 11
0.0
 21
1.0
 31
0.0
 73
               1
 44
0.7828267384257843
  0
POINT
  5
12F
100
AcDbEntity
  8
Defpoints
370
               0
390
0
 62
               0
100
AcDbPoint
 10
906.19399390020408
 20
-345.0
 30
0.0
  0
POINT
  5
130
100
AcDbEntity
  8
Defpoints
370
               0
390
0
 62
               0
100
AcDbPoint
 10
833.93940626541735
 20
-330.0
 30
0.0
  0
POINT
  5
131
100
AcDbEntity
  8
Defpoints
370
               0
390
0
 62
               0
100
AcDbPoint
 10
950.0
 20
-330.0
 30
0.0
  0
ENDBLK
  5
132
100
AcDbEntity
  8
notes
390
0
100
AcDbBlockEnd
  0
BLOCK
  5
133
100
AcDbEntity
  8
notes
390
0
100
AcDbBlockBegin
  2
*D19
 70
               1
 10
0.0
 20
0.0
 30
0.0
  3
*D19
  1

  0
LINE
  5
134
100
AcDbEntity
  8
0
370
              -2
390
0
  6
Continuous
 62
               0
100
AcDbLine
 10
-634.17470795358531
 20
843.0
 30
0.0
 11
-634.17470795358531
 21
952.31763818062609
 31
0.0
  0
LINE
  5
135
100
AcDbEntity
  8
0
370
              -2
390
0
  6
Continuous
 62
               0
100
AcDbLine
 10
-192.76669491830398
 20
843.0
 30
0.0
 11
-192.76669491830398
 21
952.31763818062609
 31
0.0
  0
LINE
  5
136
100
AcDbEntity
  8
0
370
              -2
390
0
  6
Continuous
 62
               0
100
AcDbLine
 10
-634.17470795358531
 20
952.31763818062609
 30
0.0
 11
-192.76669491830398
 21
952.31763818062609
 31
0.0
  0
CIRCLE
  5
137
102
{ACAD_REACTORS
330
138
102
}
100
AcDbEntity
  8
0
370
              -2
390
0
  6
Continuous
 62
               0
100
AcDbCircle
 10
-634.17470795358531
 20
952.31763818062609
 30
0.0
 40
4.99969482421875
  0
HATCH
  5
138
100
AcDbEntity
  8
0
370
              -2
390
0
  6
Continuous
 62
               0
100
AcDbHatch
 10
0.0
 20
0.0
 30
0.0
210
0.0
220
0.0
230
1.0
  2
SOLID
 70
               1
 71
               1
 91
        1
 92
        1
 93
        1
 72
               2
 10
-634.17470795358531
 20
952.31763818062609
 40
4.99969482421875
 50
0.0
 51
360.0
 73
               0
 97
        1
330
137
 75
               0
 76
               1
 98
        1
 10
0.0
 20
0.0
  0
CIRCLE
  5
139
102
{ACAD_REACTORS
330
13A
102
}
100
AcDbEntity
  8
0
370
              -2
390
0
  6
Continuous
 62
               0
100
AcDbCircle
 10
-192.76669491830398
 20
952.31763818062609
 30
0.0
 40
4.99969482421875
  0
HATCH
  5
13A
100
AcDbEntity
  8
0
370
              -2
390
0
  6
Continuous
 62
               0
100
AcDbHatch
 10
0.0
 20
0.0
 30
0.0
210
0.0
220
0.0
230
1.0
  2
SOLID
 70
               1
 71
               1
 91
        1
 92
        1
 93
        1
 72
               2
 10
-192.76669491830398
 20
952.31763818062609
 40
4.99969482421875
 50
0.0
 51
360.0
 73
               0
 97
        1
330
139
 75
               0
 76
               1
 98
        1
 10
0.0
 20
0.0
  0
MTEXT
  5
13B
100
AcDbEntity
  8
0
390
0
 62
               0
100
AcDbMText
 10
-425.34223595421645
 20
986.19525536813308
 30
0.0
 40
24.432617187500004
 41
0.0
 71
               1
 72
               1
  1
440
  7
ＭＳ ゴシック
 73
               1
 44
0.7828267384257843
  0
POINT
  5
13C
100
AcDbEntity
  8
Defpoints
370
               0
390
0
 62
               0
100
AcDbPoint
 10
-192.76669491830398
 20
818.0
 30
0.0
  0
POINT
  5
13D
100
AcDbEntity
  8
Defpoints
370
               0
390
0
 62
               0
100
AcDbPoint
 10
-634.17470795358531
 20
818.0
 30
0.0
  0
POINT
  5
13E
100
AcDbEntity
  8
Defpoints
370
               0
390
0
 62
               0
100
AcDbPoint
 10
-634.17470795358531
 20
952.31763818062609
 30
0.0
  0
ENDBLK
  5
13F
100
AcDbEntity
  8
notes
390
0
100
AcDbBlockEnd
  0
BLOCK
  5
140
100
AcDbEntity
  8
ABA70-0102
390
0
100
AcDbBlockBegin
  2
グループ-1
 70
               0
 10
0.0
 20
0.0
 30
0.0
  3
グループ-1
  1

  0
SPLINE
  5
141
100
AcDbEntity
  8
0
370
              15
390
0
  6
Continuous
 62
               7
100
AcDbSpline
210
0.0
220
0.0
230
1.0
 70
               9
 71
               2
 72
              17
 73
              14
 74
               0
 42
0.000001
 43
0.000001
 40
0.0
 40
0.0
 40
0.0
 40
1.0
 40
2.0
 40
3.0
 40
4.0
 40
5.0
 40
6.0
 40
7.0
 40
8.0
 40
9.0
 40
10.0
 40
11.0
 40
12.0
 40
12.0
 40
12.0
 10
174077.75019527916
 20
501110.50873743586
 30
0.0
 10
174077.75019527916
 20
501119.88695973641
 30
0.0
 10
174068.37196617268
 20
501136.13051724568
 30
0.0
 10
174052.12839687525
 20
501145.50873954629
 30
0.0
 10
174033.37193866228
 20
501145.50873954629
 30
0.0
 10
174017.12836936483
 20
501136.13051724568
 30
0.0
 10
174007.75014025834
 20
501119.88695973641
 30
0.0
 10
174007.75014025834
 20
501101.1305151353
 30
0.0
 10
174017.12836936483
 20
501084.88695762603
 30
0.0
 10
174033.37193866228
 20
501075.50873532542
 30
0.0
 10
174052.12839687525
 20
501075.50873532542
 30
0.0
 10
174068.37196617268
 20
501084.88695762603
 30
0.0
 10
174077.75019527916
 20
501101.1305151353
 30
0.0
 10
174077.75019527916
 20
501110.50873743586
 30
0.0
  0
ENDBLK
  5
142
100
AcDbEntity
  8
ABA70-0102
390
0
100
AcDbBlockEnd
  0
ENDSEC
  0
SECTION
  2
ENTITIES
  0
MTEXT
  5
143
100
AcDbEntity
  8
template
390
0
 62
               7
100
AcDbMText
 10
-968.0
 20
-1147.4176292336779
 30
0.0
 40
16.288411458333332
 41
0.0
 71
               1
 72
               1
  1
品名
  7
ＭＳ ゴシック
 73
               1
 44
0.7828267384257843
  0
MTEXT
  5
144
100
AcDbEntity
  8
template
390
0
 62
               7
100
AcDbMText
 10
-968.0
 20
-1232.4176292336779
 30
0.0
 40
16.288411458333332
 41
0.0
 71
               1
 72
               1
  1
仕様
  7
ＭＳ ゴシック
 73
               1
 44
0.7828267384257843
  0
MTEXT
  5
145
100
AcDbEntity
  8
template
390
0
 62
               7
100
AcDbMText
 10
-915.0
 20
-1176.0000901711755
 30
0.0
 40
24.432617187500004
 41
0.0
 71
               1
 72
               1
  1
洗面器  -HATRIA,Sculture-
  7
ＭＳ ゴシック
 73
               1
 44
0.7828267384257843
  0
LINE
  5
146
100
AcDbEntity
  8
template
370
               5
390
0
  6
Continuous
 62
               7
100
AcDbLine
 10
974.99999999953434
 20
-1224.0027073586825
 30
0.0
 11
-975.00000000046566
 21
-1224.0027073586825
 31
0.0
  0
LWPOLYLINE
  5
147
100
AcDbEntity
  8
template
370
               5
390
0
  6
Continuous
 62
               7
100
AcDbPolyline
 90
        5
 70
             128
 10
975.0
 20
1405.9972926413175
 10
-975.0
 20
1405.9972926413175
 10
-975.0
 20
-1394.0027073586825
 10
975.0
 20
-1394.0027073586825
 10
975.0
 20
1405.9972926413175
  0
LINE
  5
148
100
AcDbEntity
  8
template
370
               5
390
0
  6
Continuous
 62
               7
100
AcDbLine
 10
974.99999999953434
 20
-1139.0027073586825
 30
0.0
 11
-975.00000000046566
 21
-1139.0027073586825
 31
0.0
  0
LINE
  5
149
100
AcDbEntity
  8
template
370
               5
390
0
  6
Continuous
 62
               7
100
AcDbLine
 10
975.0
 20
-1309.0027073586825
 30
0.0
 11
222.0
 21
-1309.0027073586825
 31
0.0
  0
MTEXT
  5
14A
100
AcDbEntity
  8
template
390
0
 62
               7
100
AcDbMText
 10
-915.0
 20
-1261.0000901711755
 30
0.0
 40
24.432617187500004
 41
0.0
 71
               1
 72
               1
  1
壁掛け,カウンタ ー置き/オーバーフロー付き/壁取付ボルト付属/\P陶器/ホワイト
  7
ＭＳ ゴシック
 73
               1
 44
1.1307497332816883
  0
MTEXT
  5
14B
100
AcDbEntity
  8
template
390
0
 62
               7
100
AcDbMText
 10
-974.99999999979627
 20
-1405.8565294155269
 30
0.0
 40
21.717881944444446
 41
0.0
 71
               1
 72
               1
  1
120403HO
  7
ＭＳ ゴシック
 73
               1
 44
0.7828267384257843
  0
MTEXT
  5
14C
100
AcDbEntity
  8
template
390
0
 62
               7
100
AcDbMText
 10
251.87140625226311
 20
-1338.9131018319749
 30
0.0
 40
24.432617187500004
 41
0.0
 71
               1
 72
               1
  1
大洋金物株式会社 ティーフォルム事業部
  7
ＭＳ ゴシック
 73
               1
 44
0.7828267384257843
  0
INSERT
  5
14D
100
AcDbEntity
  8
template
390
0
 62
               7
100
AcDbBlockReference
  2
グループ
 10
-174456.22086920467
 20
-500520.7520680264
 30
0.0
  0
MTEXT
  5
14E
100
AcDbEntity
  8
template
390
0
 62
               7
100
AcDbMText
 10
784.00000000026193
 20
-1261.0000901711755
 30
0.0
 40
24.432617187500004
 41
0.0
 71
               1
 72
               1
  1
1:10
  7
ＭＳ ゴシック
 73
               1
 44
0.7828267384257843
  0
MTEXT
  5
14F
100
AcDbEntity
  8
template
390
0
 62
               7
100
AcDbMText
 10
731.00000000026193
 20
-1232.4176292336779
 30
0.0
 40
16.288411458333332
 41
0.0
 71
               1
 72
               1
  1
縮尺
  7
ＭＳ ゴシック
 73
               1
 44
0.7828267384257843
  0
LINE
  5
150
100
AcDbEntity
  8
template
370
               5
390
0
  6
Continuous
 62
               7
100
AcDbLine
 10
724.00000000026193
 20
-1309.0027073586825
 30
0.0
 11
724.00000000026193
 21
-1224.0027073586825
 31
0.0
  0
MTEXT
  5
151
100
AcDbEntity
  8
template
390
0
 62
               7
100
AcDbMText
 10
480.00000000026193
 20
-1232.4176292336779
 30
0.0
 40
16.288411458333332
 41
0.0
 71
               1
 72
               1
  1
容量
  7
ＭＳ ゴシック
 73
               1
 44
0.7828267384257843
  0
MTEXT
  5
152
100
AcDbEntity
  8
template
390
0
 62
               7
100
AcDbMText
 10
533.00000000026193
 20
-1261.0000901711755
 30
0.0
 40
24.432617187500004
 41
0.0
 71
               1
 72
               1
  1
11.5L
  7
ＭＳ ゴシック
 73
               1
 44
0.7828267384257843
  0
LINE
  5
153
100
AcDbEntity
  8
template
370
               5
390
0
  6
Continuous
 62
               7
100
AcDbLine
 10
473.00000000026193
 20
-1309.0027073586825
 30
0.0
 11
473.00000000026193
 21
-1224.0027073586825
 31
0.0
  0
MTEXT
  5
154
100
AcDbEntity
  8
template
390
0
 62
               7
100
AcDbMText
 10
229.00000000026193
 20
-1147.4176292336779
 30
0.0
 40
16.288411458333332
 41
0.0
 71
               1
 72
               1
  1
品番
  7
ＭＳ ゴシック
 73
               1
 44
0.7828267384257843
  0
MTEXT
  5
155
100
AcDbEntity
  8
template
390
0
 62
               7
100
AcDbMText
 10
229.00000000026193
 20
-1232.4176292336779
 30
0.0
 40
16.288411458333332
 41
0.0
 71
               1
 72
               1
  1
重量
  7
ＭＳ ゴシック
 73
               1
 44
0.7828267384257843
  0
MTEXT
  5
156
100
AcDbEntity
  8
template
390
0
 62
               7
100
AcDbMText
 10
282.00000000026193
 20
-1176.0000901711755
 30
0.0
 40
24.432617187500004
 41
0.0
 71
               1
 72
               1
  1
ABA70-0102
  7
ＭＳ ゴシック
 73
               1
 44
0.7828267384257843
  0
MTEXT
  5
157
100
AcDbEntity
  8
template
390
0
 62
               7
100
AcDbMText
 10
282.00000000026193
 20
-1261.0000901711755
 30
0.0
 40
24.432617187500004
 41
0.0
 71
               1
 72
               1
  1
21kg
  7
ＭＳ ゴシック
 73
               1
 44
0.7828267384257843
  0
LINE
  5
158
100
AcDbEntity
  8
template
370
               5
390
0
  6
Continuous
 62
               7
100
AcDbLine
 10
222.00000000026193
 20
-1394.0027073586825
 30
0.0
 11
222.00000000026193
 21
-1139.0027073586825
 31
0.0
  0
DIMENSION
  5
159
100
AcDbEntity
  8
notes
370
               5
390
0
  6
Continuous
 62
               7
100
AcDbDimension
  2
*D2
 10
-898.4707014359883
 20
829.93028189474717
 30
0.0
 11
-898.4707014359883
 21
754.93028189474717
 31
0.0
 71
               5
 72
               1
 41
1.0
 42
0.0
  3
tfrom線あり
100
AcDbAlignedDimension
 13
-732.04017779300921
 23
679.93028189474717
 33
0.0
 14
-630.81717026297702
 24
829.93028189474717
 34
0.0
 50
90.0
100
AcDbRotatedDimension
1001
ACAD
1000
DSTYLE
1002
{
1070
             279
1070
               2
1070
             340
1005
37
1070
             147
1040
5.0
1002
}
  0
DIMENSION
  5
15A
100
AcDbEntity
  8
notes
370
               5
390
0
  6
Continuous
 62
               7
100
AcDbDimension
  2
*D3
 10
71.529298564099008
 20
829.93028189474717
 30
0.0
 11
71.529298564099008
 21
542.43028189474717
 31
0.0
 71
               5
 72
               1
 41
1.0
 42
0.0
  3
tfrom線あり
100
AcDbAlignedDimension
 13
-369.04494144732598
 23
254.93028189474717
 33
0.0
 14
-196.12423260891228
 24
829.93028189474717
 34
0.0
 50
90.0
100
AcDbRotatedDimension
1001
ACAD
1000
DSTYLE
1002
{
1070
             279
1070
               2
1070
             340
1005
37
1070
             147
1040
5.0
1002
}
  0
DIMENSION
  5
15B
100
AcDbEntity
  8
notes
370
               5
390
0
  6
Continuous
 62
               7
100
AcDbDimension
  2
*D4
 10
-798.4707014359301
 20
1017.0
 30
0.0
 11
-413.4707014359301
 21
1022.0
 31
0.0
 70
             128
 71
               5
 72
               1
 41
1.0
 42
0.0
  3
tfrom線あり
100
AcDbAlignedDimension
 13
-28.470701435930096
 23
519.0
 33
0.0
 14
-798.4707014359301
 24
519.0
 34
0.0
100
AcDbRotatedDimension
1001
ACAD
1000
DSTYLE
1002
{
1070
             279
1070
               2
1070
             340
1005
37
1070
             147
1040
5.0
1002
}
  0
DIMENSION
  5
15C
100
AcDbEntity
  8
notes
370
               5
390
0
  6
Continuous
 62
               7
100
AcDbDimension
  2
*D5
 10
-898.4707014359883
 20
679.93028189474717
 30
0.0
 11
-898.4707014359883
 21
499.93028189474717
 31
0.0
 71
               5
 72
               1
 41
1.0
 42
0.0
  3
tfrom線あり
100
AcDbAlignedDimension
 13
-662.75641264644219
 23
319.93028189474717
 33
0.0
 14
-732.04017779300921
 24
679.93028189474717
 34
0.0
 50
90.0
100
AcDbRotatedDimension
1001
ACAD
1000
DSTYLE
1002
{
1070
             279
1070
               2
1070
             340
1005
37
1070
             147
1040
5.0
1002
}
  0
DIMENSION
  5
15D
100
AcDbEntity
  8
notes
370
               5
390
0
  6
Continuous
 62
               7
100
AcDbDimension
  2
*D6
 10
-728.4707014359301
 20
154.93028189498
 30
0.0
 11
-413.4707014359301
 21
154.93028189498
 31
0.0
 71
               5
 72
               1
 41
1.0
 42
0.0
  3
tfrom線あり
100
AcDbAlignedDimension
 13
-98.470701435930096
 23
371.0
 33
0.0
 14
-728.4707014359301
 24
371.0
 34
0.0
100
AcDbRotatedDimension
1001
ACAD
1000
DSTYLE
1002
{
1070
             279
1070
               2
1070
             340
1005
37
1070
             147
1040
5.0
1002
}
  0
DIMENSION
  5
15E
100
AcDbEntity
  8
notes
370
               5
390
0
  6
Continuous
 62
               7
100
AcDbDimension
  2
*D7
 10
624.24628443276742
 20
-330.0
 30
0.0
 11
619.24628443276742
 21
-432.0
 31
0.0
 70
             128
 71
               5
 72
               1
 41
1.0
 42
0.0
  3
tfrom線あり
100
AcDbAlignedDimension
 13
666.19399390020408
 23
-530.0
 33
0.0
 14
666.19399390020408
 24
-330.0
 34
0.0
 50
90.0
100
AcDbRotatedDimension
1001
ACAD
1000
DSTYLE
1002
{
1070
             279
1070
               2
1070
             340
1005
37
1070
               3
1000
(深さ)<>
1070
             147
1040
5.0
1002
}
  0
DIMENSION
  5
15F
100
AcDbEntity
  8
notes
370
               5
390
0
  6
Continuous
 62
               7
100
AcDbDimension
  2
*D8
 10
-423.91614605786162
 20
714.66127123095794
 30
0.0
 11
-295.54322578941355
 21
887.69721630582353
 31
0.0
 70
               3
 71
               5
 72
               1
 41
1.0
 42
0.0
  1
 
  3
tfrom線あり
100
AcDbDiametricDimension
 15
-403.02525681399857
 25
745.1992925585364
 35
0.0
 40
172.65110670065513
1001
ACAD
1000
DSTYLE
1002
{
1070
             289
1070
               0
1070
             342
1005
47
1070
             340
1005
37
1070
              75
1070
               1
1070
              76
1070
               1
1070
             174
1070
               0
1070
             147
1040
5.0
1002
}
  0
DIMENSION
  5
160
100
AcDbEntity
  8
notes
370
               5
390
0
  6
Continuous
 62
               7
100
AcDbDimension
  2
*D9
 10
906.19399390020408
 20
-230.0
 30
0.0
 11
856.19399390020408
 21
-230.0
 31
0.0
 71
               5
 72
               1
 41
1.0
 42
0.0
  3
tfrom線あり
100
AcDbAlignedDimension
 13
806.19399390020408
 23
-330.0
 33
0.0
 14
906.19399390020408
 24
-355.0
 34
0.0
100
AcDbRotatedDimension
1001
ACAD
1000
DSTYLE
1002
{
1070
             279
1070
               2
1070
             340
1005
37
1070
             147
1040
5.0
1002
}
  0
DIMENSION
  5
161
100
AcDbEntity
  8
notes
370
               5
390
0
  6
Continuous
 62
               7
100
AcDbDimension
  2
*D10
 10
906.19399390020408
 20
-675.0
 30
0.0
 11
786.19399390020408
 21
-675.0
 31
0.0
 71
               5
 72
               1
 41
1.0
 42
0.0
  3
tfrom線あり
100
AcDbAlignedDimension
 13
666.19399390020408
 23
-575.0
 33
0.0
 14
906.19399390020408
 24
-525.0
 34
0.0
100
AcDbRotatedDimension
1001
ACAD
1000
DSTYLE
1002
{
1070
             279
1070
               2
1070
             340
1005
37
1070
             147
1040
5.0
1002
}
  0
MTEXT
  5
162
100
AcDbEntity
  8
notes
390
0
 62
               7
100
AcDbMText
 10
-189.86471580475336
 20
-231.32066120405216
 30
0.0
 40
24.432617187500004
 41
0.0
 71
               1
 72
               1
  1
壁取付ボルト穴(2ヶ所)
  7
ＭＳ ゴシック
 73
               1
 44
0.7828267384257843
  0
LINE
  5
163
100
AcDbEntity
  8
notes
370
               5
390
0
  6
Continuous
 62
               7
100
AcDbLine
 10
-325.14018122569541
 20
-420.66947978973622
 30
0.0
 11
-170.4707014359592
 21
-266.0
 31
0.0
  0
DIMENSION
  5
164
100
AcDbEntity
  8
notes
370
               5
390
0
  6
Continuous
 62
               7
100
AcDbDimension
  2
*D11
 10
-324.39464352669893
 20
-230.0
 30
0.0
 11
-409.39464352669893
 21
-230.0
 31
0.0
 71
               5
 72
               1
 41
1.0
 42
0.0
  3
tfrom線あり
100
AcDbAlignedDimension
 13
-494.39464352669893
 23
-400.0
 33
0.0
 14
-324.39464352669893
 24
-400.0
 34
0.0
100
AcDbRotatedDimension
1001
ACAD
1000
DSTYLE
1002
{
1070
             279
1070
               2
1070
             340
1005
37
1070
             147
1040
5.0
1002
}
  0
DIMENSION
  5
165
100
AcDbEntity
  8
notes
370
               5
390
0
  6
Continuous
 62
               7
100
AcDbDimension
  2
*D12
 10
-898.4707014359883
 20
-420.0
 30
0.0
 11
-898.4707014359883
 21
-375.0
 31
0.0
 71
               5
 72
               1
 41
1.0
 42
0.0
  3
tfrom線あり
100
AcDbAlignedDimension
 13
-784.66825140942819
 23
-330.0
 33
0.0
 14
-514.39464352669893
 24
-420.0
 34
0.0
 50
90.0
100
AcDbRotatedDimension
1001
ACAD
1000
DSTYLE
1002
{
1070
             279
1070
               2
1070
             340
1005
37
1070
             147
1040
5.0
1002
}
  0
DIMENSION
  5
166
100
AcDbEntity
  8
notes
370
               5
390
0
  6
Continuous
 62
               7
100
AcDbDimension
  2
*D13
 10
242.24628443285474
 20
-530.27637443313142
 30
0.0
 11
242.24628443285474
 21
-430.27637443313142
 31
0.0
 71
               5
 72
               1
 41
1.0
 42
0.0
  3
tfrom線あり
100
AcDbAlignedDimension
 13
344.95760272326879
 23
-330.27637443313142
 33
0.0
 14
489.24628443276742
 24
-530.27637443313142
 34
0.0
 50
90.0
100
AcDbRotatedDimension
1001
ACAD
1000
DSTYLE
1002
{
1070
             279
1070
               2
1070
             340
1005
37
1070
             147
1040
5.0
1002
}
  0
DIMENSION
  5
167
100
AcDbEntity
  8
notes
370
               5
390
0
  6
Continuous
 62
               7
100
AcDbDimension
  2
*D14
 10
71.296136587072397
 20
-330.00287974794628
 30
0.0
 11
71.296136587072397
 21
-452.50148507679114
 31
0.0
 71
               5
 72
               1
 41
1.0
 42
0.0
  3
tfrom線あり
100
AcDbAlignedDimension
 13
-376.89455594052561
 23
-575.00009040557779
 33
0.0
 14
-40.470701435930096
 24
-330.00287974794628
 34
0.0
 50
90.0
100
AcDbRotatedDimension
1001
ACAD
1000
DSTYLE
1002
{
1070
             279
1070
               2
1070
             340
1005
37
1070
             147
1040
5.0
1002
}
  0
ARC
  5
168
100
AcDbEntity
  8
notes
370
              15
390
0
  6
Continuous
 62
               7
100
AcDbCircle
 10
900.19399390020408
 20
-524.0
 30
0.0
 40
6.0
100
AcDbArc
 50
270.0
 51
0.0
  0
POLYLINE
  5
169
100
AcDbEntity
  8
notes
370
              15
390
0
  6
Continuous
 62
               7
100
AcDb2dPolyline
 66
               1
 10
0.0
 20
0.0
 30
0.0
 70
               1
 75
               5
  0
VERTEX
  5
16A
100
AcDbEntity
  8
notes
370
              15
390
0
  6
Continuous
 62
               7
100
AcDbVertex
100
AcDb2dVertex
 10
433.01753798461868
 20
799.93028189474717
 30
0.0
  0
VERTEX
  5
16B
100
AcDbEntity
  8
notes
370
              15
390
0
  6
Continuous
 62
               7
100
AcDbVertex
100
AcDb2dVertex
 10
633.01753798461868
 20
799.93028189474717
 30
0.0
  0
VERTEX
  5
16C
100
AcDbEntity
  8
notes
370
              15
390
0
  6
Continuous
 62
               7
100
AcDbVertex
100
AcDb2dVertex
 10
633.01753798461868
 20
499.93028189474717
 30
0.0
  0
VERTEX
  5
16D
100
AcDbEntity
  8
notes
370
              15
390
0
  6
Continuous
 62
               7
100
AcDbVertex
100
AcDb2dVertex
 10
433.01753798461868
 20
499.93028189474717
 30
0.0
  0
SEQEND
  5
16E
100
AcDbEntity
  8
notes
370
              15
390
0
  6
Continuous
 62
               7
  0
DIMENSION
  5
16F
100
AcDbEntity
  8
notes
370
               5
390
0
  6
Continuous
 62
               7
100
AcDbDimension
  2
*D15
 10
433.01753798461868
 20
896.0
 30
0.0
 11
533.01753798461868
 21
896.0
 31
0.0
 71
               5
 72
               1
 41
1.0
 42
0.0
  3
tfrom線あり
100
AcDbAlignedDimension
 13
633.01753798461868
 23
799.93028189474717
 33
0.0
 14
433.01753798461868
 24
799.93028189474717
 34
0.0
100
AcDbRotatedDimension
1001
ACAD
1000
DSTYLE
1002
{
1070
             279
1070
               2
1070
             340
1005
37
1070
             147
1040
5.0
1002
}
  0
DIMENSION
  5
170
100
AcDbEntity
  8
notes
370
               5
390
0
  6
Continuous
 62
               7
100
AcDbDimension
  2
*D16
 10
848.125
 20
799.93028189474717
 30
0.0
 11
853.125
 21
663.13503817107994
 31
0.0
 70
             128
 71
               5
 72
               1
 41
1.0
 42
0.0
  3
tfrom線あり
100
AcDbAlignedDimension
 13
633.01753798461868
 23
499.93028189474717
 33
0.0
 14
633.01753798461868
 24
799.93028189474717
 34
0.0
 50
90.0
100
AcDbRotatedDimension
1001
ACAD
1000
DSTYLE
1002
{
1070
             279
1070
               2
1070
             340
1005
37
1070
             147
1040
5.0
1002
}
  0
DIMENSION
  5
171
100
AcDbEntity
  8
notes
370
               5
390
0
  6
Continuous
 62
               7
100
AcDbDimension
  2
*D17
 10
848.125
 20
829.93028189474717
 30
0.0
 11
853.125
 21
864.0
 31
0.0
 70
             128
 71
               5
 72
               1
 41
1.0
 42
0.0
  3
tfrom線あり
100
AcDbAlignedDimension
 13
633.01753798461868
 23
799.93028189474717
 33
0.0
 14
633.01753798461868
 24
829.93028189474717
 34
0.0
 50
90.0
100
AcDbRotatedDimension
1001
ACAD
1000
DSTYLE
1002
{
1070
             279
1070
               2
1070
             340
1005
37
1070
             174
1070
               0
1070
             147
1040
5.0
1002
}
  0
MTEXT
  5
172
100
AcDbEntity
  8
notes
390
0
 62
               7
100
AcDbMText
 10
384.66263933505979
 20
1067.127617187507
 30
0.0
 40
24.432617187500004
 41
0.0
 71
               1
 72
               1
  1
カウンター切込寸法
  7
ＭＳ ゴシック
 73
               1
 44
0.7828267384257843
  0
MTEXT
  5
173
100
AcDbEntity
  8
notes
390
0
 62
               7
100
AcDbMText
 10
140.0
 20
2.1015084945247509
 30
0.0
 40
24.432617187500004
 41
0.0
 71
               1
 72
               1
  1
※カウンター置きの場合も壁固定が必要です。\P
  7
ＭＳ ゴシック
 73
               1
 44
0.7828267384257843
  0
MTEXT
  5
174
100
AcDbEntity
  8
notes
390
0
 62
               7
100
AcDbMText
 10
140.0
 20
147.12761718744878
 30
0.0
 40
24.432617187500004
 41
792.0
 71
               1
 72
               1
  1
※陶器製品には寸法公差があります。\P　必ず現物を合わせてカウンターに切込を行ってくだ　さい。
  7
ＭＳ ゴシック
 73
               1
 44
1.0437689845677123
  0
ARC
  5
175
100
AcDbEntity
  8
notes
370
              15
390
0
  6
Continuous
 62
               7
100
AcDbCircle
 10
834.46440022604656
 20
-365.26093188457889
 30
0.0
 40
9.9999999999940119
100
AcDbArc
 50
89.923866213131433
 51
163.49990216978654
  0
DIMENSION
  5
176
100
AcDbEntity
  8
notes
370
               5
390
0
  6
Continuous
 62
               7
100
AcDbDimension
  2
*D18
 10
950.0
 20
-330.0
 30
0.0
 11
955.0
 21
-311.0
 31
0.0
 70
             128
 71
               5
 72
               1
 41
1.0
 42
0.0
  3
tfrom線あり
100
AcDbAlignedDimension
 13
906.19399390020408
 23
-345.0
 33
0.0
 14
833.93940626541735
 24
-330.0
 34
0.0
 50
90.0
100
AcDbRotatedDimension
1001
ACAD
1000
DSTYLE
1002
{
1070
             279
1070
               2
1070
             340
1005
37
1070
             174
1070
               0
1070
             147
1040
5.0
1002
}
  0
DIMENSION
  5
177
100
AcDbEntity
  8
notes
370
               5
390
0
  6
Continuous
 62
               7
100
AcDbDimension
  2
*D19
 10
-634.17470795358531
 20
952.31763818062609
 30
0.0
 11
-401.52973427204415
 21
957.31763818062609
 31
0.0
 70
             128
 71
               5
 72
               1
 41
1.0
 42
0.0
  1
440
  3
tfrom線あり
100
AcDbAlignedDimension
 13
-192.76669491830398
 23
818.0
 33
0.0
 14
-634.17470795358531
 24
818.0
 34
0.0
100
AcDbRotatedDimension
1001
ACAD
1000
DSTYLE
1002
{
1070
             279
1070
               2
1070
             340
1005
37
1070
             147
1040
5.0
1002
}
  0
SPLINE
  5
178
100
AcDbEntity
  8
ABA70-0102
370
              15
390
0
  6
Continuous
 62
               7
100
AcDbSpline
210
0.0
220
0.0
230
1.0
 70
               9
 71
               2
 72
              28
 73
              25
 74
               0
 42
0.000001
 43
0.000001
 40
0.0
 40
0.0
 40
0.0
 40
1.0
 40
2.0
 40
3.0
 40
4.0
 40
5.0
 40
5.0
 40
6.0
 40
7.0
 40
8.0
 40
9.0
 40
10.0
 40
10.0
 40
11.0
 40
12.0
 40
13.0
 40
14.0
 40
15.0
 40
15.0
 40
16.0
 40
17.0
 40
18.0
 40
19.0
 40
20.0
 40
20.0
 40
20.0
 10
-28.470701435930096
 20
526.97637176298304
 30
0.0
 10
-28.53964592536795
 20
554.80126772762742
 30
0.0
 10
-48.221546628104988
 20
621.41927842918085
 30
0.0
 10
-102.46900250957697
 20
692.35481010243529
 30
0.0
 10
-184.55754577580956
 20
749.40270078624599
 30
0.0
 10
-320.89778334298171
 20
799.21745674137492
 30
0.0
 10
-413.4707014359301
 20
799.0224616312189
 30
0.0
 10
-506.33083178114612
 20
799.30804219591664
 30
0.0
 10
-642.57907914667157
 20
749.4673230444314
 30
0.0
 10
-724.75571886822581
 20
692.34864832792664
 30
0.0
 10
-778.96465111523867
 20
621.24122068716679
 30
0.0
 10
-798.40175694649224
 20
554.80126772762742
 30
0.0
 10
-798.4707014359301
 20
526.97637176298304
 30
0.0
 10
-798.40175694649224
 20
499.15147579833865
 30
0.0
 10
-778.7198562437552
 20
432.53346509678522
 30
0.0
 10
-724.47240036231233
 20
361.59793342353078
 30
0.0
 10
-642.38385709607974
 20
304.55004273972008
 30
0.0
 10
-506.04361952890758
 20
254.73528678453295
 30
0.0
 10
-413.4707014359301
 20
254.93028189474717
 30
0.0
 10
-320.61057109071407
 20
254.64470133004943
 30
0.0
 10
-184.36232372521772
 20
304.48542048153467
 30
0.0
 10
-102.18568400363438
 20
361.60409519803943
 30
0.0
 10
-47.976751756650629
 20
432.71152283879928
 30
0.0
 10
-28.53964592536795
 20
499.15147579828044
 30
0.0
 10
-28.470701435930096
 20
526.97637176298304
 30
0.0
  0
LINE
  5
179
100
AcDbEntity
  8
ABA70-0102
370
              15
390
0
  6
Continuous
 62
               7
100
AcDbLine
 10
-634.17470795358531
 20
829.93028189474717
 30
0.0
 11
-192.76669491830398
 21
829.93028189474717
 31
0.0
  0
LINE
  5
17A
100
AcDbEntity
  8
ABA70-0102
370
              15
390
0
  6
Continuous
 62
               7
100
AcDbLine
 10
-192.76669491830398
 20
829.93028189474717
 30
0.0
 11
-192.76669491830398
 21
749.22838930925354
 31
0.0
  0
LINE
  5
17B
100
AcDbEntity
  8
ABA70-0102
370
              15
390
0
  6
Continuous
 62
               7
100
AcDbLine
 10
-634.17470795358531
 20
749.39231044106418
 30
0.0
 11
-634.17470795358531
 21
829.93028189474717
 31
0.0
  0
CIRCLE
  5
17C
100
AcDbEntity
  8
ABA70-0102
370
              15
390
0
  6
Continuous
 62
               7
100
AcDbCircle
 10
-413.4707014359301
 20
589.93028189474717
 30
0.0
 40
21.162907890044153
  0
INSERT
  5
17D
100
AcDbEntity
  8
ABA70-0102
390
0
 62
               7
100
AcDbBlockReference
  2
グループ-1
 10
-174456.22086920467
 20
-500520.7520680264
 30
0.0
  0
CIRCLE
  5
17E
100
AcDbEntity
  8
ABA70-0102
370
              15
390
0
  6
Continuous
 62
               7
100
AcDbCircle
 10
-413.4707014359301
 20
729.93028189474717
 30
0.0
 40
18.5
  0
LINE
  5
17F
100
AcDbEntity
  8
ABA70-0102
370
              15
390
0
  6
Continuous
 62
               7
100
AcDbLine
 10
856.08741413266398
 20
-345.0
 30
0.0
 11
906.19399390020408
 21
-345.0
 31
0.0
  0
LINE
  5
180
100
AcDbEntity
  8
ABA70-0102
370
              15
390
0
  6
Continuous
 62
               7
100
AcDbLine
 10
505.96595850214362
 20
-530.0
 30
0.0
 11
900.19399390020408
 21
-530.0
 31
0.0
  0
LINE
  5
181
100
AcDbEntity
  8
ABA70-0102
370
               5
390
0
  6
STYLE_11
 62
               7
100
AcDbLine
 10
725.3013629760826
 20
-487.75534441805212
 30
0.0
 11
731.01542247168254
 21
-405.0
 31
0.0
  0
LWPOLYLINE
  5
182
100
AcDbEntity
  8
ABA70-0102
370
               5
390
0
  6
STYLE_11
 62
               7
100
AcDbPolyline
 90
        3
 70
             128
 10
628.69399390020408
 20
-530.08565402688691
 10
623.71201198268682
 20
-529.79089404729893
 42
-0.1447487447015119
 10
487.52073207893409
 20
-480.60176314349519
 42
-0.1447487447015119
  0
LWPOLYLINE
  5
183
100
AcDbEntity
  8
ABA70-0102
370
               5
390
0
  6
STYLE_11
 62
               7
100
AcDbPolyline
 90
        4
 70
             128
 10
491.24628443276742
 20
-483.29026208695723
 10
487.97237254399806
 20
-480.65922497719293
 42
-0.1045654274391042
 10
388.92171503088321
 20
-359.53268074447988
 10
386.61797807028051
 20
-355.07604797033127
  0
LWPOLYLINE
  5
184
100
AcDbEntity
  8
ABA70-0102
370
              15
390
0
  6
Continuous
 62
               7
100
AcDbPolyline
 90
        2
 70
             128
 10
349.42869198205881
 20
-357.35156209929846
 42
-0.0598218000203603
 10
499.40608685219195
 20
-527.68154049257282
 42
-0.0598218000203603
  0
LWPOLYLINE
  5
185
100
AcDbEntity
  8
ABA70-0102
370
               5
390
0
  6
STYLE_11
 62
               7
100
AcDbPolyline
 90
        2
 70
             128
 10
733.30088226124644
 20
-371.90023752971319
 42
-0.3941631806207426
 10
778.19399390020408
 20
-330.0
 42
-0.3941631806207426
  0
LWPOLYLINE
  5
186
100
AcDbEntity
  8
ABA70-0102
370
               5
390
0
  6
STYLE_11
 62
               7
100
AcDbPolyline
 90
        2
 70
             128
 10
346.26904827635735
 20
-330.0
 42
-0.285424791597896
 10
386.61797807028051
 20
-355.07604797044769
 42
-0.285424791597896
  0
LINE
  5
187
100
AcDbEntity
  8
ABA70-0102
370
              15
390
0
  6
Continuous
 62
               7
100
AcDbLine
 10
346.26904827635735
 20
-330.0
 30
0.0
 11
778.19399390020408
 21
-330.0
 31
0.0
  0
LWPOLYLINE
  5
188
100
AcDbEntity
  8
ABA70-0102
370
              15
390
0
  6
Continuous
 62
               7
100
AcDbPolyline
 90
        8
 70
             128
 10
346.26904827635735
 20
-330.0
 42
0.0510992989636752
 10
336.15827839786652
 20
-331.03601167537272
 42
0.0649481016538926
 10
328.59137874678709
 20
-333.66116523509845
 42
0.104202941763455
 10
322.79518831937457
 20
-338.26553688856075
 42
0.1747045211914228
 10
321.26904827635735
 20
-342.50000000005821
 42
0.1747045211804959
 10
322.79518831940368
 20
-346.73446311143925
 42
0.1042029417673069
 10
328.59137874667067
 20
-351.33883476484334
 42
0.1171151396084732
 10
342.52025508321822
 20
-354.60723454359686
 42
0.1171151396084732
  0
LWPOLYLINE
  5
189
100
AcDbEntity
  8
ABA70-0102
370
              15
390
0
  6
Continuous
 62
               7
100
AcDbPolyline
 90
        2
 70
             128
 10
342.52025508321822
 20
-354.60723454359686
 42
-0.1927429226677886
 10
349.42869198223343
 20
-357.35156209947309
 42
-0.1927429226677886
  0
LINE
  5
18A
100
AcDbEntity
  8
ABA70-0102
370
              15
390
0
  6
STYLE_11
 62
               7
100
AcDbLine
 10
731.01542247168254
 20
-405.0
 30
0.0
 11
732.39637485262938
 21
-385.0
 31
0.0
  0
LINE
  5
18B
100
AcDbEntity
  8
ABA70-0102
370
              15
390
0
  6
Continuous
 62
               7
100
AcDbLine
 10
826.19399390020408
 20
-330.0
 30
0.0
 11
786.19399390020408
 21
-330.0
 31
0.0
  0
LINE
  5
18C
100
AcDbEntity
  8
ABA70-0102
370
              15
390
0
  6
Continuous
 62
               7
100
AcDbLine
 10
826.19399390020408
 20
-330.0
 30
0.0
 11
831.24628443276742
 21
-330.0
 31
0.0
  0
LINE
  5
18D
100
AcDbEntity
  8
ABA70-0102
370
              15
390
0
  6
Continuous
 62
               7
100
AcDbLine
 10
778.19399390020408
 20
-330.0
 30
0.0
 11
786.19399390020408
 21
-330.0
 31
0.0
  0
LINE
  5
18E
100
AcDbEntity
  8
ABA70-0102
370
              15
390
0
  6
Continuous
 62
               7
100
AcDbLine
 10
826.19399390020408
 20
-330.0
 30
0.0
 11
826.19399390020408
 21
-340.0
 31
0.0
  0
LINE
  5
18F
100
AcDbEntity
  8
ABA70-0102
370
              15
390
0
  6
Continuous
 62
               7
100
AcDbLine
 10
786.19399390020408
 20
-330.0
 30
0.0
 11
786.19399390020408
 21
-340.0
 31
0.0
  0
LINE
  5
190
100
AcDbEntity
  8
ABA70-0102
370
              15
390
0
  6
STYLE_11
 62
               7
100
AcDbLine
 10
732.39637485262938
 20
-385.0
 30
0.0
 11
733.30088226124644
 21
-371.90023752965499
 31
0.0
  0
LINE
  5
191
100
AcDbEntity
  8
ABA70-0102
370
               5
390
0
  6
STYLE_11
 62
               7
100
AcDbLine
 10
688.69399390020408
 20
-540.45842788671143
 30
0.0
 11
688.69399390020408
 21
-575.0
 31
0.0
  0
LWPOLYLINE
  5
192
100
AcDbEntity
  8
ABA70-0102
370
              15
390
0
  6
Continuous
 62
               7
100
AcDbPolyline
 90
        3
 70
             128
 10
754.610117395001
 20
-530.0
 42
-0.3017588212817504
 10
728.26567550349864
 20
-550.50785834423732
 10
702.51075653871521
 20
-552.45148126408458
  0
LINE
  5
193
100
AcDbEntity
  8
ABA70-0102
370
               5
390
0
  6
STYLE_11
 62
               7
100
AcDbLine
 10
643.69399390020408
 20
-539.71409681125078
 30
0.0
 11
643.69399390020408
 21
-575.0
 31
0.0
  0
LINE
  5
194
100
AcDbEntity
  8
ABA70-0102
370
              15
390
0
  6
Continuous
 62
               7
100
AcDbLine
 10
633.69399390020408
 20
-542.51869657484349
 30
0.0
 11
633.69399390020408
 21
-575.0
 31
0.0
  0
LINE
  5
195
100
AcDbEntity
  8
ABA70-0102
370
               5
390
0
  6
Continuous
 62
               7
100
AcDbLine
 10
703.69399390020408
 20
-529.58833356178366
 30
0.0
 11
688.69399390020408
 21
-540.45842788671143
 31
0.0
  0
LINE
  5
196
100
AcDbEntity
  8
ABA70-0102
370
               5
390
0
  6
STYLE_11
 62
               7
100
AcDbLine
 10
643.69399390020408
 20
-540.0257060257718
 30
0.0
 11
688.69399390020408
 21
-540.0257060257718
 31
0.0
  0
LINE
  5
197
100
AcDbEntity
  8
ABA70-0102
370
               5
390
0
  6
Continuous
 62
               7
100
AcDbLine
 10
643.69399390020408
 20
-540.0257060257718
 30
0.0
 11
628.69399390020408
 21
-530.0257060257718
 31
0.0
  0
LWPOLYLINE
  5
198
100
AcDbEntity
  8
ABA70-0102
370
              15
390
0
  6
Continuous
 62
               7
100
AcDbPolyline
 90
        2
 70
             128
 10
629.01688582426868
 20
-537.52913338702638
 42
-0.3954100165694139
 10
633.69399390020408
 20
-542.51869657484349
 42
-0.3954100165694139
  0
LWPOLYLINE
  5
199
100
AcDbEntity
  8
ABA70-0102
370
              15
390
0
  6
Continuous
 62
               7
100
AcDbPolyline
 90
        2
 70
             128
 10
503.62619829468895
 20
-530.0
 42
-0.2566044327153186
 10
499.40608685230836
 20
-527.68154049268924
 42
-0.2566044327153186
  0
LINE
  5
19A
100
AcDbEntity
  8
ABA70-0102
370
              15
390
0
  6
Continuous
 62
               7
100
AcDbLine
 10
505.96595850214362
 20
-530.0
 30
0.0
 11
503.62619829468895
 21
-530.0
 31
0.0
  0
LWPOLYLINE
  5
19B
100
AcDbEntity
  8
ABA70-0102
370
               5
390
0
  6
STYLE_11
 62
               7
100
AcDbPolyline
 90
        4
 70
             128
 10
725.3013629760826
 20
-493.21377230470534
 10
725.09578225485166
 20
-498.33976150117815
 42
-0.2710260671083123
 10
705.77070156097761
 20
-528.52810044679791
 10
703.69399390020408
 20
-529.58833356178366
  0
LINE
  5
19C
100
AcDbEntity
  8
ABA70-0102
370
              15
390
0
  6
Continuous
 62
               7
100
AcDbLine
 10
688.69399390020408
 20
-575.0
 30
0.0
 11
698.69399390020408
 21
-575.0
 31
0.0
  0
LINE
  5
19D
100
AcDbEntity
  8
ABA70-0102
370
              15
390
0
  6
Continuous
 62
               7
100
AcDbLine
 10
688.69399390020408
 20
-563.56302895216504
 30
0.0
 11
688.69399390020408
 21
-575.0
 31
0.0
  0
LINE
  5
19E
100
AcDbEntity
  8
ABA70-0102
370
              15
390
0
  6
Continuous
 62
               7
100
AcDbLine
 10
643.69399390020408
 20
-575.0
 30
0.0
 11
688.69399390020408
 21
-575.0
 31
0.0
  0
LINE
  5
19F
100
AcDbEntity
  8
ABA70-0102
370
              15
390
0
  6
Continuous
 62
               7
100
AcDbLine
 10
633.69399390020408
 20
-575.0
 30
0.0
 11
643.69399390020408
 21
-575.0
 31
0.0
  0
LWPOLYLINE
  5
1A0
100
AcDbEntity
  8
ABA70-0102
370
              15
390
0
  6
Continuous
 62
               7
100
AcDbPolyline
 90
        2
 70
             128
 10
698.69399390020408
 20
-557.24112308182521
 42
-0.3837184768357104
 10
703.16882813768461
 20
-552.26877947727917
 42
-0.3837184768357104
  0
LINE
  5
1A1
100
AcDbEntity
  8
ABA70-0102
370
              15
390
0
  6
Continuous
 62
               7
100
AcDbLine
 10
698.69399390020408
 20
-557.0
 30
0.0
 11
698.69399390020408
 21
-575.0
 31
0.0
  0
LINE
  5
1A2
100
AcDbEntity
  8
ABA70-0102
370
              15
390
0
  6
Continuous
 62
               7
100
AcDbLine
 10
906.19399390020408
 20
-345.0
 30
0.0
 11
906.19399390020408
 21
-524.0
 31
0.0
  0
LWPOLYLINE
  5
1A3
100
AcDbEntity
  8
ABA70-0102
370
              15
390
0
  6
Continuous
 62
               7
100
AcDbPolyline
 90
        2
 70
             128
 10
-666.89066911945702
 20
612.3005446572206
 42
0.2328696694480337
 10
-724.99352482179529
 20
521.51517218659865
 42
0.2328696694480337
  0
LWPOLYLINE
  5
1A4
100
AcDbEntity
  8
ABA70-0102
370
              15
390
0
  6
Continuous
 62
               7
100
AcDbPolyline
 90
        2
 70
             128
 10
-103.35995634063147
 20
522.46908942348091
 42
0.2193924711317566
 10
-162.94906840083422
 20
613.17100497317733
 42
0.2193924711317566
  0
LWPOLYLINE
  5
1A5
100
AcDbEntity
  8
ABA70-0102
370
              15
390
0
  6
Continuous
 62
               7
100
AcDbPolyline
 90
        2
 70
             128
 10
-161.60638026695233
 20
612.12693217140622
 42
0.1035283945954068
 10
-298.29865068334038
 20
669.66740730934544
 42
0.1035283945954068
  0
LWPOLYLINE
  5
1A6
100
AcDbEntity
  8
ABA70-0102
370
              15
390
0
  6
Continuous
 62
               7
100
AcDbPolyline
 90
        2
 70
             128
 10
-298.29865068182698
 20
669.6674073090544
 42
0.0884770733824015
 10
-530.29799559910316
 20
669.6674073090544
 42
0.0884770733824015
  0
LWPOLYLINE
  5
1A7
100
AcDbEntity
  8
ABA70-0102
370
              15
390
0
  6
Continuous
 62
               7
100
AcDbPolyline
 90
        2
 70
             128
 10
-530.29799559758976
 20
669.66740730934544
 42
0.1035283945952832
 10
-666.99026601397782
 20
612.12693217140622
 42
0.1035283945952832
  0
LWPOLYLINE
  5
1A8
100
AcDbEntity
  8
ABA70-0102
370
              15
390
0
  6
Continuous
 62
               7
100
AcDbPolyline
 90
      111
 70
             128
 10
-724.88912122827605
 20
522.46908942348091
 42
0.0017795117322727
 10
-724.98561599990353
 20
521.64148841885617
 10
-725.28920648241183
 20
518.95460545527749
 42
0.0253076081044974
 10
-725.67484543807223
 20
512.73336338379886
 10
-725.70840963741648
 20
509.76421246980317
 42
0.0246300087671299
 10
-725.30118311924161
 20
499.03769198962254
 10
-725.27988973833271
 20
498.79411067505134
 42
0.0219227888190477
 10
-723.94083145415061
 20
488.63356500066584
 42
0.0214979389802452
 10
-721.72562605206622
 20
478.62704808154376
 10
-721.7096327219042
 20
478.56713314756053
 42
0.0209540185658482
 10
-718.61687267274829
 20
468.66574353788747
 10
-718.58820111048408
 20
468.58587486977922
 42
0.0201834545437474
 10
-714.62835996772628
 20
458.81432805175427
 10
-714.58482296048896
 20
458.71822821808746
 42
0.0193460879005174
 10
-709.77103822364006
 20
449.10071896517184
 10
-709.71136713947635
 20
448.99220297607826
 42
0.0184981354020013
 10
-704.05665340906125
 20
439.55326221865835
 10
-703.98045458542765
 20
439.4361261218437
 42
0.017540564516701
 10
-697.49989070394076
 20
430.19960357010132
 10
-697.40787132410333
 20
430.0777740238118
 42
0.0166167817075512
 10
-690.11960811141762
 20
421.06728970381664
 10
-690.01294642256107
 20
420.94403504184447
 42
0.0157618542293652
 10
-681.93560965647339
 20
412.1840141377179
 10
-681.81587636671611
 20
412.06210540566826
 42
0.014873429512979
 10
-672.97036944623687
 20
403.57614218862727
 10
-672.83985437842784
 20
403.45818249246804
 42
0.0140642834984145
 10
-663.25044288061326
 20
395.26927392079961
 10
-663.11135072403704
 20
395.15710387792205
 42
0.0133505573997645
 10
-652.8032406696002
 20
387.28893208788941
 10
-652.65775532758562
 20
387.18390940368408
 42
0.0126336355436137
 10
-641.65838258451549
 20
379.65894784225384
 10
-641.50911324651679
 20
379.56227237411076
 42
0.0120014799937004
 10
-629.8491399641789
 20
372.40184256649809
 10
-629.6983220676193
 20
372.31413834629348
 42
0.01146162503038
 10
-617.40950992776197
 20
365.53995081462199
 10
-617.25917760381708
 20
365.46151816280326
 42
0.0109247578051512
 10
-604.37524461193243
 20
359.09374314971501
 10
-604.22770864536869
 20
359.0247933921637
 42
0.0104626946946235
 10
-590.7851850320294
 20
353.08198099612491
 10
-590.64230699621839
 20
353.02235770580592
 42
0.0100807975808865
 10
-576.67877447645878
 20
347.52317526814295
 10
-576.54217466514092
 20
347.47253538202494
 42
0.0096996284593358
 10
-562.0968036953418
 20
342.43388470693026
 10
-561.96829315519426
 20
342.39183708379278
 42
0.0093810566858073
 10
-547.0825234517979
 20
337.82866007264238
 10
-546.96349226427265
 20
337.79460088774795
 42
0.0091888962518388
 10
-531.67921425984241
 20
333.72353359585395
 10
-527.6095152158523
 20
332.71925746224588
 42
0.0175580548963986
 10
-503.93653497160994
 20
327.75211224361556
 10
-499.69889526686165
 20
327.01722801133292
 42
0.0168973976616683
 10
-467.22377973762923
 20
322.50967698905151
 10
-466.97305528697325
 20
322.48347493988695
 42
0.0165171740549437
 10
-433.76597206143197
 20
320.11859685066156
 10
-429.45581509871408
 20
319.95445274200756
 42
0.0163724426418762
 10
-404.25243783299811
 20
319.82030049577588
 10
-404.19481600180734
 20
319.82188083761139
 42
0.0082073460060352
 10
-379.12034263508394
 20
320.92168837116333
 10
-379.04803694220027
 20
320.92604991351254
 42
0.0166326164477473
 10
-354.21372699452331
 20
323.25509955507005
 10
-354.02808855325566
 20
323.27876023651334
 42
0.0084520822358599
 10
-329.70204866473796
 20
326.79807698098011
 10
-329.56001411061152
 20
326.82108293398051
 42
0.0174557606164729
 10
-305.74224256025627
 20
331.53739660972496
 10
-301.65331447051722
 20
332.49649872886948
 42
0.0090792869300767
 10
-286.2491019301815
 20
336.40611783770146
 10
-286.13340891763801
 20
336.43772763415473
 42
0.0092920645854857
 10
-271.11345705689746
 20
340.84302556997864
 10
-270.98790396848926
 20
340.88239796017297
 42
0.0095888475341469
 10
-256.39463715901366
 20
345.76799890043912
 10
-256.26046962151304
 20
345.81579629250336
 42
0.0099577350939234
 10
-242.13582377598505
 20
351.16702026338317
 10
-241.99481359223137
 20
351.22367909131572
 42
0.0103296243181843
 10
-228.3786188942322
 20
357.02424263587454
 10
-228.23242417525034
 20
357.09012274374254
 42
0.0107659869466596
 10
-215.16266084782546
 20
363.32170686736936
 10
-215.01298220621538
 20
363.39706977788592
 42
0.011287826184846
 10
-202.52678693452617
 20
370.04129842942348
 10
-202.37590650958009
 20
370.12601025914773
 42
0.011815734739216
 10
-190.50781217688927
 20
377.16323484602617
 10
-190.35782348044449
 20
377.25703055504709
 42
0.0124184102873615
 10
-179.14006886834977
 20
384.66581972606946
 10
-178.99300737740123
 20
384.76828087808099
 42
0.0131212142843632
 10
-168.45706652180525
 20
392.52734036342008
 10
-167.70055680160294
 20
393.11569074477302
 42
0.0138444724996638
 10
-159.07785235659685
 20
400.21338511328213
 10
-158.9647651934356
 20
400.31184815231245
 42
0.0108591596401257
 10
-150.92367187803029
 20
407.62607542966725
 42
0.0152450107758937
 10
-143.27695143810706
 20
415.34816520364257
 10
-142.73860084329499
 20
415.92603728018003
 42
0.0161154276448227
 10
-134.99420347838895
 20
424.79558022244601
 10
-134.89362224843353
 20
424.91855778172612
 42
0.0169978870144408
 10
-127.94610909663606
 20
434.02807334536919
 10
-127.86065440814127
 20
434.14839140890399
 42
0.0179648529693512
 10
-121.72899630095344
 20
443.47390499035828
 10
-121.65980160079198
 20
443.58785767119844
 42
0.01885876891186
 10
-116.36082438839367
 20
453.10578116908437
 10
-116.30812364746816
 20
453.20945590781048
 42
0.0197014179776052
 10
-111.85547331621638
 20
462.89548058540095
 10
-111.81843944333377
 20
462.98519438854419
 42
0.0205431249625899
 10
-108.22570148122031
 20
472.81498108693631
 10
-108.20274556681397
 20
472.88681031542365
 42
0.0211975675030358
 10
-105.4819464465254
 20
482.83601350692334
 10
-105.44773956848076
 20
482.98577726189978
 42
0.021695851319545
 10
-103.64466256159358
 20
492.82912886858685
 10
-103.52903629638604
 20
493.66299811180215
 42
0.0211753317850063
 10
-102.73567145635025
 20
501.95050125842681
 42
0.0150767215298533
 10
-102.54458653874462
 20
510.27738218352897
 10
-102.54876064707059
 20
510.85652808268787
 42
0.0262550513134725
 10
-103.11431738993269
 20
520.31774605583632
 10
-103.25987999053905
 20
521.60960837401217
 42
0.0018564138003097
 10
-103.35995634060237
 20
522.46908942348091
 42
0.0018564138003097
  0
LINE
  5
1A9
100
AcDbEntity
  8
ABA70-0102
370
              15
390
0
  6
Continuous
 62
               7
100
AcDbLine
 10
-629.39482788316673
 20
-530.27637443313142
 30
0.0
 11
-189.39482788316673
 21
-530.27637443313142
 31
0.0
  0
LINE
  5
1AA
100
AcDbEntity
  8
ABA70-0102
370
              15
390
0
  6
Continuous
 62
               7
100
AcDbLine
 10
-785.81401029293193
 20
-330.0
 30
0.0
 11
-41.127392578928266
 21
-330.0
 31
0.0
  0
LWPOLYLINE
  5
1AB
100
AcDbEntity
  8
ABA70-0102
370
              15
390
0
  6
Continuous
 62
               7
100
AcDbPolyline
 90
        3
 70
             128
 10
-629.39482788316673
 20
-530.27637443313142
 10
-631.25756372240721
 20
-527.42115660943091
 42
0.0658357432948687
 10
-778.32134594849776
 20
-356.16377123456914
 42
0.0658357432948687
  0
LWPOLYLINE
  5
1AC
100
AcDbEntity
  8
ABA70-0102
370
              15
390
0
  6
Continuous
 62
               7
100
AcDbPolyline
 90
        3
 70
             128
 10
-785.81401029293193
 20
-330.0
 42
0.3474020212551519
 10
-798.23753945849603
 20
-340.72201794019202
 42
0.3474020212555852
 10
-790.6790905984526
 20
-355.28826647798996
 42
0.3474020212555852
  0
LINE
  5
1AD
100
AcDbEntity
  8
ABA70-0102
370
              15
390
0
  6
Continuous
 62
               7
100
AcDbLine
 10
-376.89455594052561
 20
-575.00009040557779
 30
0.0
 11
-376.96157294971636
 21
-540.68713542161277
 31
0.0
  0
LINE
  5
1AE
100
AcDbEntity
  8
ABA70-0102
370
              15
390
0
  6
Continuous
 62
               7
100
AcDbLine
 10
-376.89455594052561
 20
-575.00009040557779
 30
0.0
 11
-441.8950355395209
 21
-574.99983671453083
 31
0.0
  0
LINE
  5
1AF
100
AcDbEntity
  8
ABA70-0102
370
              15
390
0
  6
Continuous
 62
               7
100
AcDbLine
 10
-441.8950355395209
 20
-574.99983671453083
 30
0.0
 11
-441.8950355395209
 21
-540.50357934535714
 31
0.0
  0
LWPOLYLINE
  5
1B0
100
AcDbEntity
  8
ABA70-0102
370
              15
390
0
  6
Continuous
 62
               7
100
AcDbPolyline
 90
        3
 70
             128
 10
-50.176021428895183
 20
-356.16377123456914
 42
0.0668313341618345
 10
-187.42220085510053
 20
-527.01006117131328
 10
-189.39482788316673
 20
-530.27637443313142
  0
LWPOLYLINE
  5
1B1
100
AcDbEntity
  8
ABA70-0102
370
              15
390
0
  6
Continuous
 62
               7
100
AcDbPolyline
 90
        3
 70
             128
 10
-36.262312273407588
 20
-355.28826647798996
 42
0.3474020212569414
 10
-28.703863413364161
 20
-340.72201794025023
 42
0.3474020212570195
 10
-41.127392578899162
 20
-330.0
 42
0.3474020212570195
  0
LINE
  5
1B2
100
AcDbEntity
  8
ABA70-0102
370
              15
390
0
  6
Continuous
 62
               7
100
AcDbLine
 10
-790.67909059827798
 20
-355.28826647810638
 30
0.0
 11
-36.262312273582211
 21
-355.28826647810638
 31
0.0
  0
LINE
  5
1B3
100
AcDbEntity
  8
ABA70-0102
370
               5
390
0
  6
STYLE_11
 62
               7
100
AcDbLine
 10
-386.8946630412247
 20
-541.0
 30
0.0
 11
-386.89479574019788
 21
-575.0
 31
0.0
  0
LINE
  5
1B4
100
AcDbEntity
  8
ABA70-0102
370
               5
390
0
  6
STYLE_11
 62
               7
100
AcDbLine
 10
-324.39464352669893
 20
-400.0
 30
0.0
 11
-324.39464352669893
 21
-440.0
 31
0.0
  0
LINE
  5
1B5
100
AcDbEntity
  8
ABA70-0102
370
               5
390
0
  6
STYLE_11
 62
               7
100
AcDbLine
 10
-344.39464352669893
 20
-420.0
 30
0.0
 11
-304.39464352669893
 21
-420.0
 31
0.0
  0
CIRCLE
  5
1B6
100
AcDbEntity
  8
ABA70-0102
370
               5
390
0
  6
STYLE_11
 62
               7
100
AcDbCircle
 10
-324.39464352669893
 20
-420.0
 30
0.0
 40
10.0
  0
LINE
  5
1B7
100
AcDbEntity
  8
ABA70-0102
370
               5
390
0
  6
STYLE_11
 62
               7
100
AcDbLine
 10
-494.39464352669893
 20
-400.0
 30
0.0
 11
-494.39464352669893
 21
-440.0
 31
0.0
  0
LINE
  5
1B8
100
AcDbEntity
  8
ABA70-0102
370
               5
390
0
  6
STYLE_11
 62
               7
100
AcDbLine
 10
-514.39464352669893
 20
-420.0
 30
0.0
 11
-474.39464352669893
 21
-420.0
 31
0.0
  0
CIRCLE
  5
1B9
100
AcDbEntity
  8
ABA70-0102
370
               5
390
0
  6
STYLE_11
 62
               7
100
AcDbCircle
 10
-494.39464352669893
 20
-420.0
 30
0.0
 40
10.0
  0
LINE
  5
1BA
100
AcDbEntity
  8
ABA70-0102
370
              15
390
0
  6
Continuous
 62
               7
100
AcDbLine
 10
775.77484988671495
 20
-528.18312876793789
 30
0.0
 11
824.87620772683294
 21
-362.42076206608908
 31
0.0
  0
LINE
  5
1BB
100
AcDbEntity
  8
ABA70-0102
370
              15
390
0
  6
Continuous
 62
               7
100
AcDbLine
 10
834.47768807466491
 20
-355.26094071293483
 30
0.0
 11
835.0
 21
-355.26163475372596
 31
0.0
  0
LINE
  5
1BC
100
AcDbEntity
  8
ABA70-0102
370
              15
390
0
  6
Continuous
 62
               7
100
AcDbLine
 10
342.52025508348015
 20
-354.60723454359686
 30
0.0
 11
834.47768807466491
 21
-355.26094071293483
 31
0.0
  0
SPLINE
  5
1BD
100
AcDbEntity
  8
ABA70-0102
370
               5
390
0
  6
STYLE_11
 62
               7
100
AcDbSpline
210
0.0
220
0.0
230
1.0
 70
               9
 71
               2
 72
              28
 73
              25
 74
               0
 42
0.000001
 43
0.000001
 40
0.0
 40
0.0
 40
0.0
 40
1.0
 40
2.0
 40
3.0
 40
4.0
 40
5.0
 40
5.0
 40
6.0
 40
7.0
 40
8.0
 40
9.0
 40
10.0
 40
10.0
 40
11.0
 40
12.0
 40
13.0
 40
14.0
 40
15.0
 40
15.0
 40
16.0
 40
17.0
 40
18.0
 40
19.0
 40
20.0
 40
20.0
 40
20.0
 10
919.58747281198157
 20
526.97637176298304
 30
0.0
 10
919.51852832254372
 20
554.80126772762742
 30
0.0
 10
899.83662761980668
 20
621.41927842918085
 30
0.0
 10
845.5891717383347
 20
692.35481010243529
 30
0.0
 10
763.50062847210211
 20
749.40270078624599
 30
0.0
 10
627.16039090492995
 20
799.21745674137492
 30
0.0
 10
534.58747281198157
 20
799.0224616312189
 30
0.0
 10
441.72734246676555
 20
799.30804219591664
 30
0.0
 10
305.47909510124009
 20
749.4673230444314
 30
0.0
 10
223.30245537968585
 20
692.34864832792664
 30
0.0
 10
169.093523132673
 20
621.24122068716679
 30
0.0
 10
149.65641730141942
 20
554.80126772762742
 30
0.0
 10
149.58747281198157
 20
526.97637176298304
 30
0.0
 10
149.65641730141942
 20
499.15147579833865
 30
0.0
 10
169.33831800415646
 20
432.53346509678522
 30
0.0
 10
223.58577388559934
 20
361.59793342353078
 30
0.0
 10
305.67431715183193
 20
304.55004273972008
 30
0.0
 10
442.01455471900408
 20
254.73528678453295
 30
0.0
 10
534.58747281198157
 20
254.93028189474717
 30
0.0
 10
627.44760315719759
 20
254.64470133004943
 30
0.0
 10
763.69585052269395
 20
304.48542048153467
 30
0.0
 10
845.87249024427729
 20
361.60409519803943
 30
0.0
 10
900.08142249126104
 20
432.71152283879928
 30
0.0
 10
919.51852832254372
 20
499.15147579828044
 30
0.0
 10
919.58747281198157
 20
526.97637176298304
 30
0.0
  0
LINE
  5
1BE
100
AcDbEntity
  8
ABA70-0102
370
               5
390
0
  6
STYLE_11
 62
               7
100
AcDbLine
 10
317.24100398493465
 20
829.93028189474717
 30
0.0
 11
751.93394163899939
 21
829.93028189474717
 31
0.0
  0
LINE
  5
1BF
100
AcDbEntity
  8
ABA70-0102
370
               5
390
0
  6
STYLE_11
 62
               7
100
AcDbLine
 10
751.93394163899939
 20
829.93028189474717
 30
0.0
 11
751.93394163899939
 21
749.85288209619466
 31
0.0
  0
LINE
  5
1C0
100
AcDbEntity
  8
ABA70-0102
370
               5
390
0
  6
STYLE_11
 62
               7
100
AcDbLine
 10
317.24100398493465
 20
751.89994061988546
 30
0.0
 11
317.24100398493465
 21
829.93028189474717
 31
0.0
  0
CIRCLE
  5
1C1
100
AcDbEntity
  8
ABA70-0102
370
               5
390
0
  6
STYLE_11
 62
               7
100
AcDbCircle
 10
534.58747281198157
 20
589.93028189474717
 30
0.0
 40
21.162907890044153
  0
CIRCLE
  5
1C2
100
AcDbEntity
  8
ABA70-0102
370
               5
390
0
  6
STYLE_11
 62
               7
100
AcDbCircle
 10
534.58747281198157
 20
729.93028189474717
 30
0.0
 40
18.5
  0
LWPOLYLINE
  5
1C3
100
AcDbEntity
  8
ABA70-0102
370
               5
390
0
  6
STYLE_11
 62
               7
100
AcDbPolyline
 90
        2
 70
             128
 10
281.16750512845465
 20
612.3005446572206
 42
0.2328696694479738
 10
223.06464942611638
 20
521.51517218659865
 42
0.2328696694479738
  0
LWPOLYLINE
  5
1C4
100
AcDbEntity
  8
ABA70-0102
370
               5
390
0
  6
STYLE_11
 62
               7
100
AcDbPolyline
 90
        2
 70
             128
 10
844.6982179073093
 20
522.4690894234227
 42
0.2193924711313711
 10
785.10910584722296
 20
613.17100497306092
 42
0.2193924711313711
  0
LWPOLYLINE
  5
1C5
100
AcDbEntity
  8
ABA70-0102
370
               5
390
0
  6
STYLE_11
 62
               7
100
AcDbPolyline
 90
        2
 70
             128
 10
786.45179398095934
 20
612.12693217140622
 42
0.1035283945954254
 10
649.75952356457128
 20
669.66740730934544
 42
0.1035283945954254
  0
LWPOLYLINE
  5
1C6
100
AcDbEntity
  8
ABA70-0102
370
               5
390
0
  6
STYLE_11
 62
               7
100
AcDbPolyline
 90
        2
 70
             128
 10
649.75952356608468
 20
669.6674073090544
 42
0.0884770733824015
 10
417.76017864880851
 20
669.6674073090544
 42
0.0884770733824015
  0
LWPOLYLINE
  5
1C7
100
AcDbEntity
  8
ABA70-0102
370
               5
390
0
  6
STYLE_11
 62
               7
100
AcDbPolyline
 90
        2
 70
             128
 10
417.7601786503219
 20
669.66740730934544
 42
0.1035283945953204
 10
281.06790823393385
 20
612.12693217140622
 42
0.1035283945953204
  0
LWPOLYLINE
  5
1C8
100
AcDbEntity
  8
ABA70-0102
370
               5
390
0
  6
STYLE_11
 62
               7
100
AcDbPolyline
 90
      111
 70
             128
 10
223.16905301963561
 20
522.46908942348091
 42
0.0017795117352206
 10
223.07255824885215
 20
521.64148842630675
 10
222.76896776549984
 20
518.95460545527749
 42
0.0253076081043635
 10
222.38332880981034
 20
512.73336338286754
 10
222.34976461049519
 20
509.76421247026883
 42
0.0246300087659339
 10
222.75699112867005
 20
499.03769198962254
 10
222.77828450960806
 20
498.79411067481851
 42
0.0219227888185082
 10
224.11734279376105
 20
488.63356500066584
 42
0.0214979389818565
 10
226.33254819602007
 20
478.62704808090348
 10
226.34854152600747
 20
478.56713314756053
 42
0.0209540185671134
 10
229.44130157527979
 20
468.66574353759643
 10
229.46997313742759
 20
468.58587486977922
 42
0.0201834545444988
 10
233.42981428024359
 20
458.81432805163786
 10
233.4733512874227
 20
458.71822821808746
 42
0.0193460878991003
 10
238.2871360242425
 20
449.10071896523004
 10
238.34680710843531
 20
448.99220297607826
 42
0.018498135403494
 10
244.00152083992725
 20
439.55326221697032
 10
244.07771966248401
 20
439.4361261218437
 42
0.0175405645171584
 10
250.55828354484402
 20
430.19960356887896
 10
250.65030292380834
 20
430.0777740238118
 42
0.0166167817090236
 10
257.93856613824028
 20
421.06728970177937
 10
258.04522782535059
 20
420.94403504184447
 42
0.0157618542279172
 10
266.1225645900704
 20
412.18401413911488
 10
266.24229788119555
 20
412.06210540566826
 42
0.0148734295135486
 10
275.08780480260612
 20
403.57614218775416
 10
275.21831986948382
 20
403.45818249246804
 42
0.0140642835007401
 10
284.80773136919015
 20
395.26927391928621
 10
284.94682352387463
 20
395.15710387792205
 42
0.0133505574042349
 10
295.2549335816002
 20
387.28893208550289
 10
295.40041892032605
 20
387.18390940368408
 42
0.0126336355424744
 10
306.39979166351259
 20
379.65894784213742
 10
306.54906100139488
 20
379.56227237411076
 42
0.0120014799959889
 10
318.20903428646852
 20
372.40184256492648
 10
318.35985218029236
 20
372.31413834629348
 42
0.011461625029655
 10
330.64866431968403
 20
365.53995081485482
 10
330.79899664409459
 20
365.46151816280326
 42
0.0109247578067487
 10
343.6829296372598
 20
359.09374314913293
 10
343.83046560254297
 20
359.0247933921637
 42
0.0104626946899937
 10
357.27298921043985
 20
353.08198099839501
 10
357.41586725169327
 20
353.02235770580592
 42
0.0100807975863004
 10
371.3793997768953
 20
347.52317526616389
 10
371.51599958277075
 20
347.47253538202494
 42
0.0096996284604092
 10
385.96137055350118
 20
342.43388470663922
 10
386.08988109271741
 20
342.39183708379278
 42
0.0093810566857007
 10
400.9756507955608
 20
337.828660072817
 10
401.09468198363902
 20
337.79460088774795
 42
0.0091888962510887
 10
416.3789599884185
 20
333.72353359573754
 10
420.44865903205937
 20
332.71925746224588
 42
0.0175580548973336
 10
444.12163927705842
 20
327.75211224349914
 10
448.35927898105001
 20
327.01722801133292
 42
0.0168973976609213
 10
480.83439450993319
 20
322.50967698905151
 10
481.08511896093842
 20
322.48347493988695
 42
0.016517174054868
 10
514.2922021872364
 20
320.11859685060335
 10
518.60235914879013
 20
319.95445274200756
 42
0.016372442641348
 10
543.80573641491355
 20
319.82030049577588
 10
543.86335824237904
 20
319.82188083749497
 42
0.0082073460045358
 10
568.93783161282772
 20
320.92168837116333
 10
569.01013730510022
 20
320.92604991345434
 42
0.0166326164468794
 10
593.84444725338835
 20
323.25509955507005
 10
594.03008569442318
 20
323.27876023651334
 42
0.0084520822364019
 10
618.35612558317371
 20
326.79807698098011
 10
618.49816013744567
 20
326.82108293398051
 42
0.0174557606164244
 10
642.31593168765539
 20
331.53739660972496
 10
646.40485977634671
 20
332.49649872863665
 42
0.0090792869298076
 10
661.80907231773017
 20
336.40611783770146
 10
661.92476532989531
 20
336.43772763403831
 42
0.0092920645851645
 10
676.94471719101421
 20
340.84302556997864
 10
677.07027027936419
 20
340.88239796011476
 42
0.0095888475327989
 10
691.66353708889801
 20
345.76799890043912
 10
691.79770462511806
 20
345.8157962920377
 42
0.0099577350927258
 10
705.92235047192662
 20
351.16702026338317
 10
706.06336065381765
 20
351.22367909061722
 42
0.0103296243183671
 10
719.67955535367946
 20
357.02424263587454
 10
719.82575007574633
 20
357.09012274513952
 42
0.010765986947768
 10
732.8955134000862
 20
363.32170686736936
 10
733.04519204053213
 20
363.39706977730384
 42
0.0112878261829861
 10
745.53138731338549
 20
370.04129842942348
 10
745.68226773969945
 20
370.12601025990443
 42
0.0118157347406556
 10
757.55036207102239
 20
377.16323484602617
 10
757.70035076732165
 20
377.25703055498889
 42
0.0124184102899916
 10
768.91810537956189
 20
384.66581972606946
 10
769.06516687013209
 20
384.76828087778995
 42
0.0131212142850469
 10
779.60110772610642
 20
392.52734036342008
 10
780.35761744569754
 20
393.11569074430736
 42
0.013844472501463
 10
788.98032189131482
 20
400.21338511328213
 10
789.09340905747376
 20
400.31184815493179
 42
0.0108591596470895
 10
797.13450236988137
 20
407.62607542966725
 42
0.0152450107740559
 10
804.78122281012475
 20
415.3481652039336
 10
805.31957340546069
 20
415.92603728105314
 42
0.0161154276468063
 10
813.06397076952271
 20
424.79558022244601
 10
813.1645519992162
 20
424.91855778143508
 42
0.0169978870116993
 10
820.1120651512756
 20
434.02807334536919
 10
820.19751983977039
 20
434.14839140890399
 42
0.0179648529697155
 10
826.32917794695823
 20
443.47390499035828
 10
826.398372647207
 20
443.58785767131485
 42
0.0188587689107155
 10
831.697349859518
 20
453.10578116908437
 10
831.75005060032709
 20
453.20945590757765
 42
0.0197014179774179
 10
836.20270093169529
 20
462.89548058540095
 10
836.23973480472341
 20
462.98519438889343
 42
0.0205431249672167
 10
839.83247276669135
 20
472.81498108693631
 10
839.85542868138873
 20
472.88681031635497
 42
0.0211975674973977
 10
842.57622780138627
 20
482.83601350692334
 10
842.61043467948912
 20
482.98577726213261
 42
0.0216958513194479
 10
844.41351168631809
 20
492.82912886858685
 10
844.52913795152563
 20
493.66299811180215
 42
0.0211753317847538
 10
845.32250279156142
 20
501.95050125842681
 42
0.015076721535829
 10
845.51358770913794
 20
510.27738218539162
 10
845.50941360084107
 20
510.85652808268787
 42
0.0262550513182695
 10
844.94385685792076
 20
520.31774605630198
 10
844.79829425737262
 20
521.60960837401217
 42
0.0018564138003359
 10
844.6982179073093
 20
522.46908942348091
 42
0.0018564138003359
  0
SPLINE
  5
1C9
100
AcDbEntity
  8
ABA70-0102
370
              15
390
0
  6
Continuous
 62
               7
100
AcDbSpline
210
0.0
220
0.0
230
1.0
 70
               8
 71
               2
 72
               6
 73
               3
 74
               0
 42
0.000001
 43
0.000001
 40
0.0
 40
0.0
 40
0.0
 40
1.0
 40
1.0
 40
1.0
 10
629.01688582421048
 20
-537.52913338702638
 30
0.0
 10
599.32185252913041
 20
-535.0
 30
0.0
 10
578.24628443276742
 20
-530.0
 30
0.0
  0
ARC
  5
1CA
100
AcDbEntity
  8
ABA70-0102
370
              15
390
0
  6
Continuous
 62
               7
100
AcDbCircle
 10
900.19399390020408
 20
-524.0
 30
0.0
 40
6.0
100
AcDbArc
 50
270.0
 51
0.0
  0
ARC
  5
1CB
100
AcDbEntity
  8
ABA70-0102
370
              15
390
0
  6
Continuous
 62
               7
100
AcDbCircle
 10
773.0180027167371
 20
-527.00000000005821
 30
0.0
 40
2.9999999999417923
100
AcDbArc
 50
270.00000000055581
 51
300.19851556920128
  0
SPLINE
  5
1CC
100
AcDbEntity
  8
ABA70-0102
370
               5
390
0
  6
STYLE_11
 62
               7
100
AcDbSpline
210
0.0
220
0.0
230
1.0
 70
               8
 71
               2
 72
               9
 73
               6
 74
               0
 42
0.000001
 43
0.000001
 40
0.0
 40
0.0
 40
0.0
 40
1.0
 40
2.0
 40
3.0
 40
4.0
 40
4.0
 40
4.0
 10
-394.05817424791167
 20
-530.27637443313142
 30
0.0
 10
-277.12330972176278
 20
-530.2837932825787
 30
0.0
 10
-174.57918724310002
 20
-438.39709479844896
 30
0.0
 10
-137.10992915206589
 20
-365.97268650121987
 30
0.0
 10
-112.20698903442826
 20
-335.57855326216668
 30
0.0
 10
-86.894599444232881
 20
-335.57855326216668
 30
0.0
  0
SPLINE
  5
1CD
100
AcDbEntity
  8
ABA70-0102
370
               5
390
0
  6
STYLE_11
 62
               7
100
AcDbSpline
210
0.0
220
0.0
230
1.0
 70
               8
 71
               2
 72
               9
 73
               6
 74
               0
 42
0.000001
 43
0.000001
 40
0.0
 40
0.0
 40
0.0
 40
1.0
 40
2.0
 40
3.0
 40
4.0
 40
4.0
 40
4.0
 10
-431.89459944353439
 20
-530.28361765155569
 30
0.0
 10
-541.66647706818185
 20
-530.2828071230324
 30
0.0
 10
-644.210390492226
 20
-438.39535147714196
 30
0.0
 10
-681.67925161021412
 20
-365.97066651686328
 30
0.0
 10
-706.58207428772585
 20
-335.57634940056596
 30
0.0
 10
-731.89459944353439
 20
-335.57616249914281
 30
0.0
  0
LINE
  5
1CE
100
AcDbEntity
  8
ABA70-0102
370
               5
390
0
  6
STYLE_11
 62
               7
100
AcDbLine
 10
-431.8946630411956
 20
-541.0
 30
0.0
 11
-431.89479573944118
 21
-574.99982436891878
 31
0.0
  0
LINE
  5
1CF
100
AcDbEntity
  8
ABA70-0102
370
               5
390
0
  6
STYLE_11
 62
               7
100
AcDbLine
 10
-444.05817424791167
 20
-530.27637443313142
 30
0.0
 11
-431.8946630411956
 21
-541.0
 31
0.0
  0
LINE
  5
1D0
100
AcDbEntity
  8
ABA70-0102
370
               5
390
0
  6
STYLE_11
 62
               7
100
AcDbLine
 10
-373.05817424791167
 20
-530.27637443313142
 30
0.0
 11
-386.8946630412247
 21
-541.0
 31
0.0
  0
LINE
  5
1D1
100
AcDbEntity
  8
ABA70-0102
370
               5
390
0
  6
STYLE_11
 62
               7
100
AcDbLine
 10
-431.8946630411956
 20
-541.0
 30
0.0
 11
-386.8946630412247
 21
-541.0
 31
0.0
  0
SPLINE
  5
1D2
100
AcDbEntity
  8
ABA70-0102
370
               5
390
0
  6
Continuous
 62
               7
100
AcDbSpline
210
0.0
220
0.0
230
1.0
 70
               8
 71
               2
 72
               6
 73
               3
 74
               0
 42
0.000001
 43
0.000001
 40
0.0
 40
0.0
 40
0.0
 40
1.0
 40
1.0
 40
1.0
 10
-444.66168031873531
 20
-537.50867353705689
 30
0.0
 10
-471.05817424791167
 20
-536.90712699806318
 30
0.0
 10
-506.05817424791167
 20
-530.27637443313142
 30
0.0
  0
ARC
  5
1D3
100
AcDbEntity
  8
ABA70-0102
370
              15
390
0
  6
Continuous
 62
               7
100
AcDbCircle
 10
-444.8950355395209
 20
-540.50357934535714
 30
0.0
 40
3.0
100
AcDbArc
 50
0.0
 51
88.036105101941871
  0
SPLINE
  5
1D4
100
AcDbEntity
  8
ABA70-0102
370
               5
390
0
  6
Continuous
 62
               7
100
AcDbSpline
210
0.0
220
0.0
230
1.0
 70
               8
 71
               2
 72
               6
 73
               3
 74
               0
 42
0.000001
 43
0.000001
 40
0.0
 40
0.0
 40
0.0
 40
1.0
 40
1.0
 40
1.0
 10
-374.19492817050195
 20
-537.69222961331252
 30
0.0
 10
-347.79843424132559
 20
-537.07541579607641
 30
0.0
 10
-312.79843424132559
 20
-530.27637443313142
 30
0.0
  0
ARC
  5
1D5
100
AcDbEntity
  8
ABA70-0102
370
              15
390
0
  6
Continuous
 62
               7
100
AcDbCircle
 10
-373.96157294971636
 20
-540.68713542161277
 30
0.0
 40
3.0000000000097313
100
AcDbArc
 50
91.963894898058129
 51
180.0
  0
LINE
  5
1D6
100
AcDbEntity
  8
ABA70-0102
370
               5
390
0
  6
Continuous
 62
               7
100
AcDbLine
 10
248.0
 20
829.93028189474717
 30
0.0
 11
820.0
 21
829.93028189474717
 31
0.0
  0
LINE
  5
1D7
100
AcDbEntity
  8
ABA70-0102
370
               5
390
0
  6
Continuous
 62
               7
100
AcDbLine
 10
260.0
 20
872.0
 30
0.0
 11
284.28896307278774
 21
829.93028189474717
 31
0.0
  0
LINE
  5
1D8
100
AcDbEntity
  8
ABA70-0102
370
               5
390
0
  6
Continuous
 62
               7
100
AcDbLine
 10
279.85551846359158
 20
872.0
 30
0.0
 11
304.14448153637932
 21
829.93028189474717
 31
0.0
  0
LINE
  5
1D9
100
AcDbEntity
  8
ABA70-0102
370
               5
390
0
  6
Continuous
 62
               7
100
AcDbLine
 10
239.85551846359158
 20
872.0
 30
0.0
 11
264.14448153637932
 21
829.93028189474717
 31
0.0
  0
LINE
  5
1DA
100
AcDbEntity
  8
ABA70-0102
370
              15
390
0
  6
Continuous
 62
               7
100
AcDbLine
 10
505.96595850214362
 20
-530.0
 30
0.0
 11
900.19399390020408
 21
-530.0
 31
0.0
  0
LWPOLYLINE
  5
1DB
100
AcDbEntity
  8
ABA70-0102
370
              15
390
0
  6
Continuous
 62
               7
100
AcDbPolyline
 90
       10
 70
             128
 10
831.38517476327252
 20
-330.0
 42
-0.0510992989664634
 10
841.49594464202528
 20
-331.03601167537272
 42
-0.0649481016533912
 10
849.06284429327934
 20
-333.66116523521487
 42
-0.1042029417658892
 10
854.85903472051723
 20
-338.26553688861895
 42
-0.1747045211840992
 10
856.38517476353445
 20
-342.50000000005821
 42
-0.1747045211823791
 10
854.85903472057544
 20
-346.73446311132284
 42
-0.1042029417736733
 10
849.06284429322113
 20
-351.33883476478513
 10
847.7988776039565
 20
-351.97081810946111
 42
-0.0950546662557791
 10
836.56832498047152
 20
-355.12868769193301
 10
835.0
 20
-355.26163475372596
  0
ENDSEC
  0
SECTION
  2
OBJECTS
  0
DICTIONARY
  5
19
100
AcDbDictionary
280
               0
281
               1
  3
ACAD_GROUP
350
1A
  3
ACAD_MLINESTYLE
350
1B
  3
ACAD_LAYOUT
350
1E
  3
ACAD_PLOTSETTINGS
350
22
  3
ACAD_PLOTSTYLENAME
350
1F
  0
DICTIONARY
  5
1A
102
{ACAD_REACTORS
330
19
102
}
100
AcDbDictionary
280
               0
281
               1
  0
DICTIONARY
  5
1B
102
{ACAD_REACTORS
330
19
102
}
100
AcDbDictionary
280
               0
281
               1
  3
Standard
350
1C
  0
MLINESTYLE
  5
1C
102
{ACAD_REACTORS
330
1B
102
}
100
AcDbMlineStyle
  2
Standard
 70
               0
  3

 62
               0
 51
90.0
 52
90.0
 71
               2
 49
0.5
 62
             256
  6
ByLayer
 49
-0.5
 62
             256
  6
ByLayer
  0
ACDBDICTIONARYWDFLT
  5
1F
102
{ACAD_REACTORS
330
19
102
}
100
AcDbDictionary
281
               1
  3
Normal
350
1D
100
AcDbDictionaryWithDefault
340
1D
  0
ACDBPLACEHOLDER
  5
1D
102
{ACAD_REACTORS
330
1F
102
}
  0
LAYOUT
  5
20
102
{ACAD_REACTORS
330
1E
102
}
100
AcDbPlotSettings
  1

  2

  4

  6

 40
0.0
 41
0.0
 42
0.0
 43
0.0
 44
0.0
 45
0.0
 46
0.0
 47
0.0
 48
0.0
 49
0.0
140
0.0
141
0.0
142
1.0
143
1.0
 70
            1024
 72
               0
 73
               0
 74
               0
  7

 75
               0
147
1.0
148
0.0
149
0.0
100
AcDbLayout
  1
Model
 70
               0
 71
               0
 10
0.0
 20
0.0
 11
0.0
 21
0.0
 12
0.0
 22
0.0
 32
0.0
 14
0.0
 24
0.0
 34
0.0
 15
0.0
 25
0.0
 35
0.0
146
0.0
 13
0.0
 23
0.0
 33
0.0
 16
0.0
 26
0.0
 36
0.0
 17
0.0
 27
0.0
 37
0.0
 76
               0
330
A
331
0
345
0
346
0
  0
LAYOUT
  5
21
102
{ACAD_REACTORS
330
1E
102
}
100
AcDbPlotSettings
  1

  2

  4

  6

 40
0.0
 41
0.0
 42
0.0
 43
0.0
 44
0.0
 45
0.0
 46
0.0
 47
0.0
 48
0.0
 49
0.0
140
0.0
141
0.0
142
1.0
143
1.0
 70
               0
 72
               0
 73
               0
 74
               0
  7

 75
               0
147
1.0
148
0.0
149
0.0
100
AcDbLayout
  1
Layout1
 70
               0
 71
               0
 10
0.0
 20
0.0
 11
0.0
 21
0.0
 12
0.0
 22
0.0
 32
0.0
 14
0.0
 24
0.0
 34
0.0
 15
0.0
 25
0.0
 35
0.0
146
0.0
 13
0.0
 23
0.0
 33
0.0
 16
0.0
 26
0.0
 36
0.0
 17
0.0
 27
0.0
 37
0.0
 76
               0
330
B
331
0
345
0
346
0
  0
DICTIONARY
  5
1E
102
{ACAD_REACTORS
330
19
102
}
100
AcDbDictionary
280
               0
281
               1
  3
Layout1
350
21
  3
Model
350
20
  0
DICTIONARY
  5
22
102
{ACAD_REACTORS
330
19
102
}
100
AcDbDictionary
280
               0
281
               1
  0
ENDSEC
  0
EOF
