  0
SECTION
  2
HEADER
  9
$ACADVER
  1
AC1015
  9
$ACADMAINTVER
 70
               6
  9
$DWGCODEPAGE
  3
ANSI_932
  9
$INSBASE
 10
0.0
 20
0.0
 30
0.0
  9
$EXTMIN
 10
-1047.5779173071805
 20
-1482.9349587957513
 30
-14.834305555555552
  9
$EXTMAX
 10
1052.4220826928192
 20
1487.0650412042487
 30
14.834305555555552
  9
$LIMMIN
 10
0.0
 20
0.0
  9
$LIMMAX
 10
0.0
 20
0.0
  9
$ORTHOMODE
 70
               0
  9
$REGENMODE
 70
               1
  9
$FILLMODE
 70
               1
  9
$QTEXTMODE
 70
               0
  9
$MIRRTEXT
 70
               1
  9
$LTSCALE
 40
127.0
  9
$ATTMODE
 70
               1
  9
$TEXTSIZE
 40
0.2
  9
$TRACEWID
 40
1.0
  9
$TEXTSTYLE
  7
Standard
  9
$CLAYER
  8
ABA70-0103
  9
$CELTYPE
  6
Continuous
  9
$CECOLOR
 62
             256
  9
$CELTSCALE
 40
1.0
  9
$DISPSILH
 70
               0
  9
$DIMSCALE
 40
1.0
  9
$DIMASZ
 40
9.9993896484374982
  9
$DIMEXO
 40
24.999999999999996
  9
$DIMDLI
 40
0.9999999999999999
  9
$DIMRND
 40
0.0
  9
$DIMDLE
 40
0.0
  9
$DIMEXE
 40
0.0
  9
$DIMTP
 40
0.0
  9
$DIMTM
 40
0.0
  9
$DIMTXT
 40
24.432617187500004
  9
$DIMCEN
 40
0.0
  9
$DIMTSZ
 40
0.0
  9
$DIMTOL
 70
               0
  9
$DIMLIM
 70
               0
  9
$DIMTIH
 70
               0
  9
$DIMTOH
 70
               0
  9
$DIMSE1
 70
               0
  9
$DIMSE2
 70
               0
  9
$DIMTAD
 70
               1
  9
$DIMZIN
 70
              11
  9
$DIMBLK
  1
_DOT
  9
$DIMASO
 70
               1
  9
$DIMSHO
 70
               1
  9
$DIMPOST
  1
<>
  9
$DIMAPOST
  1
[]
  9
$DIMALT
 70
               0
  9
$DIMALTD
 70
               3
  9
$DIMALTF
 40
0.0393700787401575
  9
$DIMLFAC
 40
1.0
  9
$DIMTOFL
 70
               0
  9
$DIMTVP
 40
0.0
  9
$DIMTIX
 70
               1
  9
$DIMSOXD
 70
               0
  9
$DIMSAH
 70
               0
  9
$DIMBLK1
  1

  9
$DIMBLK2
  1

  9
$DIMSTYLE
  2
tfrom線あり
  9
$DIMCLRD
 70
               0
  9
$DIMCLRE
 70
               0
  9
$DIMCLRT
 70
               0
  9
$DIMTFAC
 40
1.0
  9
$DIMGAP
 40
0.4999999999999999
  9
$DIMJUST
 70
               0
  9
$DIMSD1
 70
               0
  9
$DIMSD2
 70
               0
  9
$DIMTOLJ
 70
               1
  9
$DIMTZIN
 70
              11
  9
$DIMALTZ
 70
              15
  9
$DIMALTTZ
 70
              15
  9
$DIMUPT
 70
               0
  9
$DIMDEC
 70
               1
  9
$DIMTDEC
 70
               1
  9
$DIMALTU
 70
               4
  9
$DIMALTTD
 70
               2
  9
$DIMTXSTY
  7
ＭＳ ゴシック
  9
$DIMAUNIT
 70
               0
  9
$DIMADEC
 70
               2
  9
$DIMALTRND
 40
0.0
  9
$DIMAZIN
 70
               0
  9
$DIMDSEP
 70
              46
  9
$DIMATFIT
 70
               0
  9
$DIMFRAC
 70
               2
  9
$DIMLDRBLK
  1

  9
$DIMLUNIT
 70
               2
  9
$DIMLWD
 70
              -2
  9
$DIMLWE
 70
              -2
  9
$DIMTMOVE
 70
               0
  9
$LUNITS
 70
               2
  9
$LUPREC
 70
               4
  9
$SKETCHINC
 40
0.1
  9
$FILLETRAD
 40
0.0
  9
$AUNITS
 70
               0
  9
$AUPREC
 70
               0
  9
$MENU
  1
acad
  9
$ELEVATION
 40
0.0
  9
$PELEVATION
 40
0.0
  9
$THICKNESS
 40
0.0
  9
$LIMCHECK
 70
               0
  9
$CHAMFERA
 40
0.0
  9
$CHAMFERB
 40
0.0
  9
$CHAMFERC
 40
0.0
  9
$CHAMFERD
 40
0.0
  9
$SKPOLY
 70
               0
  9
$TDCREATE
 40
2456021.665671296
  9
$TDUCREATE
 40
0.000000000
  9
$TDUPDATE
 40
2456021.665671296
  9
$TDUUPDATE
 40
0.000000000
  9
$TDINDWG
 40
0.0000000000
  9
$TDUSRTIMER
 40
0.0000000000
  9
$USRTIMER
 70
               1
  9
$ANGBASE
 50
0.0
  9
$ANGDIR
 70
               0
  9
$PDMODE
 70
               1
  9
$PDSIZE
 40
-2.0
  9
$PLINEWID
 40
0.0
  9
$SPLFRAME
 70
               0
  9
$SPLINETYPE
 70
               6
  9
$SPLINESEGS
 70
               8
  9
$HANDSEED
  5
1DC
  9
$SURFTAB1
 70
               6
  9
$SURFTAB2
 70
               6
  9
$SURFTYPE
 70
               6
  9
$SURFU
 70
               6
  9
$SURFV
 70
               6
  9
$UCSBASE
  2

  9
$UCSNAME
  2

  9
$UCSORG
 10
0.0
 20
0.0
 30
0.0
  9
$UCSXDIR
 10
1.0
 20
0.0
 30
0.0
  9
$UCSYDIR
 10
0.0
 20
1.0
 30
0.0
  9
$UCSORTHOREF
  2

  9
$UCSORTHOVIEW
 70
               0
  9
$UCSORGTOP
 10
0.0
 20
0.0
 30
0.0
  9
$UCSORGBOTTOM
 10
0.0
 20
0.0
 30
0.0
  9
$UCSORGLEFT
 10
0.0
 20
0.0
 30
0.0
  9
$UCSORGRIGHT
 10
0.0
 20
0.0
 30
0.0
  9
$UCSORGFRONT
 10
0.0
 20
0.0
 30
0.0
  9
$UCSORGBACK
 10
0.0
 20
0.0
 30
0.0
  9
$PUCSBASE
  2

  9
$PUCSNAME
  2

  9
$PUCSORG
 10
0.0
 20
0.0
 30
0.0
  9
$PUCSXDIR
 10
1.0
 20
0.0
 30
0.0
  9
$PUCSYDIR
 10
0.0
 20
1.0
 30
0.0
  9
$PUCSORTHOREF
  2

  9
$PUCSORTHOVIEW
 70
               0
  9
$PUCSORGTOP
 10
0.0
 20
0.0
 30
0.0
  9
$PUCSORGBOTTOM
 10
0.0
 20
0.0
 30
0.0
  9
$PUCSORGLEFT
 10
0.0
 20
0.0
 30
0.0
  9
$PUCSORGRIGHT
 10
0.0
 20
0.0
 30
0.0
  9
$PUCSORGFRONT
 10
0.0
 20
0.0
 30
0.0
  9
$PUCSORGBACK
 10
0.0
 20
0.0
 30
0.0
  9
$USERI1
 70
               0
  9
$USERI2
 70
               0
  9
$USERI3
 70
               0
  9
$USERI4
 70
               0
  9
$USERI5
 70
               0
  9
$USERR1
 40
0.0
  9
$USERR2
 40
0.0
  9
$USERR3
 40
0.0
  9
$USERR4
 40
0.0
  9
$USERR5
 40
0.0
  9
$WORLDVIEW
 70
               1
  9
$SHADEDGE
 70
               3
  9
$SHADEDIF
 70
              70
  9
$TILEMODE
 70
               1
  9
$MAXACTVP
 70
              64
  9
$PINSBASE
 10
0.0
 20
0.0
 30
0.0
  9
$PLIMCHECK
 70
               0
  9
$PEXTMIN
 10
1.0000000000000000E+20
 20
1.0000000000000000E+20
 30
1.0000000000000000E+20
  9
$PEXTMAX
 10
-1.0000000000000000E+20
 20
-1.0000000000000000E+20
 30
-1.0000000000000000E+20
  9
$PLIMMIN
 10
0.0
 20
0.0
  9
$PLIMMAX
 10
12.0
 20
9.0
  9
$UNITMODE
 70
               0
  9
$VISRETAIN
 70
               0
  9
$PLINEGEN
 70
               1
  9
$PSLTSCALE
 70
               0
  9
$TREEDEPTH
 70
            3020
  9
$CMLSTYLE
  2
Standard
  9
$CMLJUST
 70
               0
  9
$CMLSCALE
 40
1.0
  9
$PROXYGRAPHICS
 70
               0
  9
$MEASUREMENT
 70
               1
  9
$CELWEIGHT
370
               0
  9
$ENDCAPS
280
               0
  9
$JOINSTYLE
280
               0
  9
$LWDISPLAY
290
               1
  9
$INSUNITS
 70
               4
  9
$HYPERLINKBASE
  1

  9
$STYLESHEET
  1

  9
$XEDIT
290
               1
  9
$CEPSNTYPE
380
               0
  9
$PSTYLEMODE
290
               1
  9
$FINGERPRINTGUID
  2

  9
$VERSIONGUID
  2

  9
$EXTNAMES
290
               1
  9
$PSVPSCALE
 40
0.0
  0
ENDSEC
  0
SECTION
  2
CLASSES
  0
CLASS
  1
LWPOLYLINE
  2
AcDbPolyline
  3
AutoCAD 2000
 90
        0
280
               0
281
               1
  0
CLASS
  1
IMAGE
  2
AcDbRasterImage
  3
ISM
 90
      127
280
               0
281
               1
  0
CLASS
  1
OLE2FRAME
  2
AcDbOle2Frame
  3
AutoCAD 2000
 90
        0
280
               0
281
               1
  0
CLASS
  1
HATCH
  2
AcDbHatch
  3
AutoCAD 2000
 90
        0
280
               0
281
               1
  0
CLASS
  1
DICTIONARYVAR
  2
AcDbDictionaryVar
  3
AutoCAD 2000
 90
        0
280
               0
281
               0
  0
CLASS
  1
RASTERVARIABLES
  2
AcDbRasterVariables
  3
ISM
 90
        0
280
               0
281
               0
  0
CLASS
  1
IMAGEDEF
  2
AcDbRasterImageDef
  3
ISM
 90
        0
280
               0
281
               0
  0
CLASS
  1
IMAGEDEF_REACTOR
  2
AcDbRasterImageDefReactor
  3
ISM
 90
        1
280
               0
281
               0
  0
CLASS
  1
IDBUFFER
  2
AcDbIdBuffer
  3
AutoCAD 2000
 90
        0
280
               0
281
               0
  0
CLASS
  1
SPATIAL_FILTER
  2
AcDbSpatialFilter
  3
AutoCAD 2000
 90
        0
280
               0
281
               0
  0
CLASS
  1
XRECORD
  2
AcDbXrecord
  3
AutoCAD 2000
 90
        0
280
               0
281
               0
  0
CLASS
  1
SORTENTSTABLE
  2
AcDbSortentsTable
  3
AutoCAD 2000
 90
        0
280
               0
281
               0
  0
CLASS
  1
LAYER_INDEX
  2
AcDbLayerIndex
  3
AutoCAD 2000
 90
        0
280
               0
281
               0
  0
CLASS
  1
SPATIAL_INDEX
  2
AcDbSpatialIndex
  3
AutoCAD 2000
 90
        0
280
               0
281
               0
  0
CLASS
  1
OBJECT_PTR
  2
CAseDLPNTableRecord
  3
"ASE-LPNTableRecord"
 90
        1
280
               0
281
               0
  0
CLASS
  1
LAYOUT
  2
AcDbLayout
  3
AutoCAD 2000
 90
        0
280
               0
281
               0
  0
CLASS
  1
PLOTSETTINGS
  2
AcDbPlotSettings
  3
AutoCAD 2000
 90
        0
280
               0
281
               0
  0
CLASS
  1
ACDBDICTIONARYWDFLT
  2
AcDbDictionaryWithDefault
  3
AutoCAD 2000
 90
        0
280
               0
281
               0
  0
CLASS
  1
ACDBPLACEHOLDER
  2
AcDbPlaceHolder
  3
AutoCAD 2000
 90
        0
280
               0
281
               0
  0
ENDSEC
  0
SECTION
  2
TABLES
  0
TABLE
  2
VPORT
  5
7
100
AcDbSymbolTable
 70
               1
  0
VPORT
  5
15
100
AcDbSymbolTableRecord
100
AcDbViewportTableRecord
  2
*ACTIVE
 70
               0
 10
0.0
 20
0.0
 11
1.0
 21
1.0
 12
2.4220826928194583
 22
2.0650412042487005
 13
0.0
 23
0.0
 14
1.0
 24
1.0
 15
0.0
 25
0.0
 16
0.0
 26
0.0
 36
1.0
 17
0.0
 27
0.0
 37
0.0
 40
2970.0
 41
0.688564
 42
50.0
 43
0.0
 44
0.0
 50
0.0
 51
0.0
 71
               0
 72
            2000
 73
               1
 74
               1
 75
               0
 76
               0
 77
               0
 78
               0
281
               0
 65
               0
110
0.0
120
0.0
130
0.0
111
1.0
121
0.0
131
0.0
112
0.0
122
1.0
132
0.0
345
0
346
0
 79
               0
146
0.0
  0
ENDTAB
  0
TABLE
  2
LTYPE
  5
4
100
AcDbSymbolTable
 70
              14
  0
LTYPE
  5
11
100
AcDbSymbolTableRecord
100
AcDbLinetypeTableRecord
  2
ByBlock
 70
              64
  3

 72
              65
 73
               0
 40
0.0
  0
LTYPE
  5
12
100
AcDbSymbolTableRecord
100
AcDbLinetypeTableRecord
  2
ByLayer
 70
              64
  3

 72
              65
 73
               0
 40
0.0
  0
LTYPE
  5
13
100
AcDbSymbolTableRecord
100
AcDbLinetypeTableRecord
  2
Continuous
 70
              64
  3
Solid line
 72
              65
 73
               0
 40
0.0
  0
LTYPE
  5
38
100
AcDbSymbolTableRecord
100
AcDbLinetypeTableRecord
  2
STYLE_01
 70
               0
  3

 72
              65
 73
               2
 40
0.075
 49
0.05
 74
               0
 49
-0.025
 74
               0
  0
LTYPE
  5
39
100
AcDbSymbolTableRecord
100
AcDbLinetypeTableRecord
  2
STYLE_02
 70
               0
  3

 72
              65
 73
               2
 40
1.7921041338582679
 49
1.7921041338582679
 74
               0
 49
-0.0002
 74
               0
  0
LTYPE
  5
3A
100
AcDbSymbolTableRecord
100
AcDbLinetypeTableRecord
  2
STYLE_03
 70
               0
  3

 72
              65
 73
               2
 40
0.5
 49
0.416656
 74
               0
 49
-0.083344
 74
               0
  0
LTYPE
  5
3B
100
AcDbSymbolTableRecord
100
AcDbLinetypeTableRecord
  2
STYLE_04
 70
               0
  3

 72
              65
 73
               2
 40
0.611084
 49
0.52777
 74
               0
 49
-0.083314
 74
               0
  0
LTYPE
  5
3C
100
AcDbSymbolTableRecord
100
AcDbLinetypeTableRecord
  2
STYLE_05
 70
               0
  3

 72
              65
 73
               2
 40
0.083312
 49
0.02777
 74
               0
 49
-0.055542
 74
               0
  0
LTYPE
  5
3D
100
AcDbSymbolTableRecord
100
AcDbLinetypeTableRecord
  2
STYLE_06
 70
               0
  3

 72
              65
 73
               4
 40
0.416656
 49
0.25
 74
               0
 49
-0.083312
 74
               0
 49
0.027772
 74
               0
 49
-0.055572
 74
               0
  0
LTYPE
  5
3E
100
AcDbSymbolTableRecord
100
AcDbLinetypeTableRecord
  2
STYLE_07
 70
               0
  3

 72
              65
 73
               6
 40
0.75
 49
0.25
 74
               0
 49
-0.083312
 74
               0
 49
0.2500000000000001
 74
               0
 49
-0.083344
 74
               0
 49
0.027772
 74
               0
 49
-0.055572
 74
               0
  0
LTYPE
  5
3F
100
AcDbSymbolTableRecord
100
AcDbLinetypeTableRecord
  2
STYLE_08
 70
               0
  3

 72
              65
 73
               6
 40
0.5
 49
0.25
 74
               0
 49
-0.083312
 74
               0
 49
0.027772
 74
               0
 49
-0.055572
 74
               0
 49
0.027772
 74
               0
 49
-0.055572
 74
               0
  0
LTYPE
  5
40
100
AcDbSymbolTableRecord
100
AcDbLinetypeTableRecord
  2
STYLE_09
 70
               0
  3

 72
              65
 73
               4
 40
2.0
 49
1.5
 74
               0
 49
-0.1111139999999999
 74
               0
 49
0.2777720000000001
 74
               0
 49
-0.1111139999999999
 74
               0
  0
LTYPE
  5
41
100
AcDbSymbolTableRecord
100
AcDbLinetypeTableRecord
  2
STYLE_10
 70
               0
  3

 72
              65
 73
               6
 40
2.375
 49
1.5
 74
               0
 49
-0.1111139999999999
 74
               0
 49
0.2777720000000001
 74
               0
 49
-0.1111139999999999
 74
               0
 49
0.25
 74
               0
 49
-0.125
 74
               0
  0
LTYPE
  5
42
100
AcDbSymbolTableRecord
100
AcDbLinetypeTableRecord
  2
STYLE_11
 70
               0
  3

 72
              65
 73
               2
 40
0.1574803149606299
 49
0.078740157480315
 74
               0
 49
-0.078740157480315
 74
               0
  0
ENDTAB
  0
TABLE
  2
LAYER
  5
2
100
AcDbSymbolTable
 70
               5
  0
LAYER
  5
14
100
AcDbSymbolTableRecord
100
AcDbLayerTableRecord
  2
0
 70
               0
 62
               7
  6
Continuous
290
               1
370
              -3
390
1D
  0
LAYER
  5
43
100
AcDbSymbolTableRecord
100
AcDbLayerTableRecord
  2
Defpoints
 70
               0
 62
               7
  6
Continuous
290
               0
370
              -3
390
1D
  0
LAYER
  5
44
100
AcDbSymbolTableRecord
100
AcDbLayerTableRecord
  2
1_10
 70
               0
 62
               7
  6
Continuous
290
               1
370
              -3
390
1D
  0
LAYER
  5
45
100
AcDbSymbolTableRecord
100
AcDbLayerTableRecord
  2
notes
 70
               0
 62
               7
  6
Continuous
290
               1
370
              -3
390
1D
  0
LAYER
  5
46
100
AcDbSymbolTableRecord
100
AcDbLayerTableRecord
  2
ABA70-0103
 70
               0
 62
               7
  6
Continuous
290
               1
370
              -3
390
1D
  0
ENDTAB
  0
TABLE
  2
STYLE
  5
3
100
AcDbSymbolTable
 70
               2
  0
STYLE
  5
17
100
AcDbSymbolTableRecord
100
AcDbTextStyleTableRecord
  2
Standard
 70
               0
 40
0.0
 41
1.0
 50
0.0
 71
               0
 42
0.0
  3
txt
  4
BIGFONT.SHX
  0
STYLE
  5
37
100
AcDbSymbolTableRecord
100
AcDbTextStyleTableRecord
  2
ＭＳ ゴシック
 70
               0
 40
0.0
 41
1.0
 50
0.0
 71
               0
 42
0.0
  3

  4
ＭＳ ゴシック
1001
ACAD
1000
ＭＳ ゴシック
1071
        0
  0
ENDTAB
  0
TABLE
  2
VIEW
  5
5
100
AcDbSymbolTable
 70
               0
  0
ENDTAB
  0
TABLE
  2
UCS
  5
6
100
AcDbSymbolTable
 70
               0
  0
ENDTAB
  0
TABLE
  2
APPID
  5
8
100
AcDbSymbolTable
 70
               1
  0
APPID
  5
16
100
AcDbSymbolTableRecord
100
AcDbRegAppTableRecord
  2
ACAD
 70
               0
  0
ENDTAB
  0
TABLE
  2
DIMSTYLE
  5
9
100
AcDbSymbolTable
 70
               2
100
AcDbDimStyleTable
 71
               0
  0
DIMSTYLE
105
18
100
AcDbSymbolTableRecord
100
AcDbDimStyleTableRecord
  2
Standard
 70
               0
  3

  4

 40
1.0
 41
0.18
 42
0.0625
 43
0.38
 44
0.18
 45
0.0
 46
0.0
 47
0.0
 48
0.0
 71
               0
 72
               0
 73
               1
 74
               1
 75
               0
 76
               0
 77
               0
 78
               0
 79
               0
140
0.18
141
0.09
142
0.0
143
25.399999999999999
144
1.0
145
0.0
146
1.0
147
0.09
148
0.0
170
               0
171
               2
172
               0
173
               0
174
               0
175
               0
176
               0
177
               0
178
               0
179
               0
271
               4
272
               4
273
               2
274
               2
275
               0
276
               0
277
               2
278
              46
279
               0
280
               0
281
               0
282
               0
283
               1
284
               0
285
               0
286
               0
288
               0
289
               3
340
17
341
0
342
0
343
0
344
0
371
              -2
372
              -2
  0
DIMSTYLE
105
4F
100
AcDbSymbolTableRecord
100
AcDbDimStyleTableRecord
  2
tfrom線あり
 70
               0
  3
<>
  4
[]
 40
1.0
 41
9.9993896484374982
 42
24.999999999999996
 43
0.9999999999999999
 44
0.0
 45
0.0
 46
0.0
 47
0.0
 48
0.0
 71
               0
 72
               0
 73
               0
 74
               0
 75
               0
 76
               0
 77
               1
 78
              11
 79
               0
140
24.432617187500004
141
0.0
142
0.0
143
0.0393700787401575
144
1.0
145
0.0
146
1.0
147
0.4999999999999999
148
0.0
170
               0
171
               3
172
               0
173
               0
174
               1
175
               0
176
               0
177
               0
178
               0
179
               2
271
               1
272
               1
273
               4
274
               2
275
               0
276
               2
277
               2
278
              46
279
               0
280
               0
281
               0
282
               0
283
               1
284
              11
285
              15
286
              15
288
               0
289
               0
340
37
341
47
342
47
343
0
344
0
371
              -2
372
              -2
  0
ENDTAB
  0
TABLE
  2
BLOCK_RECORD
  5
1
100
AcDbSymbolTable
 70
              21
  0
BLOCK_RECORD
  5
A
100
AcDbSymbolTableRecord
100
AcDbBlockTableRecord
  2
*MODEL_SPACE
340
20
  0
BLOCK_RECORD
  5
B
100
AcDbSymbolTableRecord
100
AcDbBlockTableRecord
  2
*PAPER_SPACE
340
21
  0
BLOCK_RECORD
  5
47
100
AcDbSymbolTableRecord
100
AcDbBlockTableRecord
  2
_DOT
340
0
  0
BLOCK_RECORD
  5
23
100
AcDbSymbolTableRecord
100
AcDbBlockTableRecord
  2
グループ
340
0
102
{BLKREFS
331
14C
102
}
  0
BLOCK_RECORD
  5
24
100
AcDbSymbolTableRecord
100
AcDbBlockTableRecord
  2
*D2
340
0
  0
BLOCK_RECORD
  5
25
100
AcDbSymbolTableRecord
100
AcDbBlockTableRecord
  2
*D3
340
0
  0
BLOCK_RECORD
  5
26
100
AcDbSymbolTableRecord
100
AcDbBlockTableRecord
  2
*D4
340
0
  0
BLOCK_RECORD
  5
27
100
AcDbSymbolTableRecord
100
AcDbBlockTableRecord
  2
*D5
340
0
  0
BLOCK_RECORD
  5
28
100
AcDbSymbolTableRecord
100
AcDbBlockTableRecord
  2
*D6
340
0
  0
BLOCK_RECORD
  5
29
100
AcDbSymbolTableRecord
100
AcDbBlockTableRecord
  2
*D7
340
0
  0
BLOCK_RECORD
  5
2A
100
AcDbSymbolTableRecord
100
AcDbBlockTableRecord
  2
*D8
340
0
  0
BLOCK_RECORD
  5
2B
100
AcDbSymbolTableRecord
100
AcDbBlockTableRecord
  2
*D9
340
0
  0
BLOCK_RECORD
  5
2C
100
AcDbSymbolTableRecord
100
AcDbBlockTableRecord
  2
*D10
340
0
  0
BLOCK_RECORD
  5
2D
100
AcDbSymbolTableRecord
100
AcDbBlockTableRecord
  2
*D11
340
0
  0
BLOCK_RECORD
  5
2E
100
AcDbSymbolTableRecord
100
AcDbBlockTableRecord
  2
*D12
340
0
  0
BLOCK_RECORD
  5
2F
100
AcDbSymbolTableRecord
100
AcDbBlockTableRecord
  2
*D13
340
0
  0
BLOCK_RECORD
  5
30
100
AcDbSymbolTableRecord
100
AcDbBlockTableRecord
  2
*D14
340
0
  0
BLOCK_RECORD
  5
31
100
AcDbSymbolTableRecord
100
AcDbBlockTableRecord
  2
*D15
340
0
  0
BLOCK_RECORD
  5
32
100
AcDbSymbolTableRecord
100
AcDbBlockTableRecord
  2
グループ-1
340
0
102
{BLKREFS
331
18D
102
}
  0
BLOCK_RECORD
  5
33
100
AcDbSymbolTableRecord
100
AcDbBlockTableRecord
  2
*D17
340
0
  0
BLOCK_RECORD
  5
34
100
AcDbSymbolTableRecord
100
AcDbBlockTableRecord
  2
*D18
340
0
  0
BLOCK_RECORD
  5
35
100
AcDbSymbolTableRecord
100
AcDbBlockTableRecord
  2
*D19
340
0
  0
BLOCK_RECORD
  5
36
100
AcDbSymbolTableRecord
100
AcDbBlockTableRecord
  2
*D20
340
0
  0
ENDTAB
  0
ENDSEC
  0
SECTION
  2
BLOCKS
  0
BLOCK
  5
D
100
AcDbEntity
  8
0
390
0
100
AcDbBlockBegin
  2
*MODEL_SPACE
 70
               0
 10
0.0
 20
0.0
 30
0.0
  3
*MODEL_SPACE
  1

  0
ENDBLK
  5
E
100
AcDbEntity
  8
0
390
0
100
AcDbBlockEnd
  0
BLOCK
  5
F
100
AcDbEntity
 67
               1
  8
0
390
0
100
AcDbBlockBegin
  2
*PAPER_SPACE
 70
               0
 10
0.0
 20
0.0
 30
0.0
  3
*PAPER_SPACE
  1

  0
ENDBLK
  5
10
100
AcDbEntity
 67
               1
  8
0
390
0
100
AcDbBlockEnd
  0
BLOCK
  5
48
100
AcDbEntity
  8
0
390
0
100
AcDbBlockBegin
  2
_DOT
 70
               0
 10
0.0
 20
0.0
 30
0.0
  3
_DOT
  1

  0
POLYLINE
  5
49
100
AcDbEntity
  8
0
370
              -2
390
0
  6
ByBlock
 62
               0
100
AcDb2dPolyline
 66
               1
 10
0.0
 20
0.0
 30
0.0
 70
               1
 40
0.5
 41
0.5
  0
VERTEX
  5
4A
100
AcDbEntity
  8
0
370
              -2
390
0
  6
ByBlock
 62
               0
100
AcDbVertex
100
AcDb2dVertex
 10
-0.25
 20
0.0
 30
0.0
 42
1.0
  0
VERTEX
  5
4B
100
AcDbEntity
  8
0
370
              -2
390
0
  6
ByBlock
 62
               0
100
AcDbVertex
100
AcDb2dVertex
 10
0.25
 20
0.0
 30
0.0
 42
1.0
  0
SEQEND
  5
4C
100
AcDbEntity
  8
0
390
0
  0
LINE
  5
4D
100
AcDbEntity
  8
0
370
              -2
390
0
  6
ByBlock
 62
               0
100
AcDbLine
 10
-0.5
 20
0.0
 30
0.0
 11
-1.0
 21
0.0
 31
0.0
  0
ENDBLK
  5
4E
100
AcDbEntity
  8
0
390
0
100
AcDbBlockEnd
  0
BLOCK
  5
50
100
AcDbEntity
  8
1_10
390
0
100
AcDbBlockBegin
  2
グループ
 70
               0
 10
0.0
 20
0.0
 30
0.0
  3
グループ
  1

  0
LWPOLYLINE
  5
51
100
AcDbEntity
  8
0
370
              15
390
0
  6
Continuous
 62
               7
100
AcDbPolyline
 90
        8
 70
             129
 10
-1601.7593350349694
 20
-10498.300732529962
 10
-1601.7593350349694
 20
-10504.298121223539
 10
-1611.2605319529725
 20
-10504.298121223539
 10
-1611.2605319529725
 20
-10528.749084487048
 10
-1619.6159092147554
 20
-10528.749084487048
 10
-1619.6159092147554
 20
-10504.298121223539
 10
-1628.9488661610649
 20
-10504.298121223539
 10
-1628.9488661610649
 20
-10498.300732529962
  0
LWPOLYLINE
  5
52
100
AcDbEntity
  8
0
370
              15
390
0
  6
Continuous
 62
               7
100
AcDbPolyline
 90
      101
 70
             128
 10
-1589.0310432044125
 20
-10499.028981022901
 10
-1589.0156931756587
 20
-10499.024620266224
 42
-0.0222221607835298
 10
-1588.7256885989564
 20
-10498.95599580097
 10
-1588.7098948349467
 20
-10498.95299237787
 42
-0.0146883565590102
 10
-1588.4471921297386
 20
-10498.910989190925
 42
-0.0127458844219258
 10
-1588.1825531626207
 20
-10498.883452222854
 10
-1588.1200980842727
 20
-10498.878558800263
 42
-0.0198099018576082
 10
-1587.7292489748081
 20
-10498.863473642867
 10
-1587.6774375053521
 20
-10498.863527418533
 42
-0.0147617382769866
 10
-1587.1828140443822
 20
-10498.878647443777
 10
-1587.1101225894749
 20
-10498.883020050665
 42
-0.0162624548980771
 10
-1586.7199689600384
 20
-10498.919252925936
 10
-1586.598436568881
 20
-10498.934539484919
 42
-0.0080020874676692
 10
-1586.4528575376876
 20
-10498.955222332201
 10
-1586.4145380671462
 20
-10498.961293610004
 42
-0.0053821929760399
 10
-1586.3460539617777
 20
-10498.972901133833
 10
-1587.0724596609764
 20
-10501.153829589548
 42
0.0108667757391162
 10
-1587.1397767311589
 20
-10501.140642474318
 10
-1587.1772447542967
 20
-10501.134144731734
 42
0.0170663203339417
 10
-1587.3204615412276
 20
-10501.11431513444
 10
-1587.3883368738952
 20
-10501.107267963855
 42
0.0220162375285527
 10
-1587.6687162817736
 20
-10501.090585603084
 10
-1587.7465718487899
 20
-10501.089386235817
 42
0.0282606915753364
 10
-1588.0822081723804
 20
-10501.103189512785
 10
-1588.1261214461754
 20
-10501.107489502792
 42
0.0169677213688708
 10
-1588.3720459411118
 20
-10501.140026552341
 42
0.0190576269833834
 10
-1588.6149539037117
 20
-10501.190173424451
 10
-1588.6212130918027
 20
-10501.191716398556
 42
0.0213685642803278
 10
-1588.8715975762591
 20
-10501.264916683655
 10
-1588.8770874711968
 20
-10501.266779679721
 42
0.0237595297600024
 10
-1589.1305823560956
 20
-10501.366464201617
 10
-1589.1356844301251
 20
-10501.368755977095
 42
0.0261857468821599
 10
-1589.3878552063752
 20
-10501.49829231448
 10
-1589.3982813954469
 20
-10501.504357788939
 42
0.0272553062024803
 10
-1589.6347111706805
 20
-10501.659729994883
 10
-1589.669474184192
 20
-10501.685391142977
 42
0.0325996893174515
 10
-1589.8196295278412
 20
-10501.812139015947
 10
-1589.843338956967
 20
-10501.834957044462
 42
0.0138050960676624
 10
-1589.9352221131746
 20
-10501.928406706011
 42
0.0125280103870019
 10
-1590.0220646459834
 20
-10502.026570032582
 10
-1590.0457450909166
 20
-10502.054728530798
 42
0.0205218024718301
 10
-1590.1708451664419
 20
-10502.216521845045
 10
-1590.1933115069173
 20
-10502.248181574854
 42
0.016311012960095
 10
-1590.349021886163
 20
-10502.483512009914
 10
-1590.3517457822195
 20
-10502.487935771909
 42
0.0131897341898515
 10
-1590.4985463031278
 20
-10502.741067864277
 10
-1590.500246398492
 20
-10502.744186103409
 42
0.0107895576058256
 10
-1590.6380231006951
 20
-10503.010401313029
 10
-1590.6387559902278
 20
-10503.011895545691
 42
0.0091371507201972
 10
-1590.76723593887
 20
-10503.286420743434
 10
-1590.7969815702866
 20
-10503.35312725061
 42
0.0135418326361016
 10
-1590.96869550936
 20
-10503.768065035883
 10
-1591.0023003177921
 20
-10503.855931178159
 42
0.009283454242907
 10
-1591.1735293777133
 20
-10504.329829676466
 10
-1591.199146505435
 20
-10504.40507074627
 42
0.0054261043560185
 10
-1591.3067846537238
 20
-10504.732834719323
 10
-1591.3243106399561
 20
-10504.788222881727
 42
0.0008225090826463
 10
-1591.3929806917313
 20
-10505.006491639702
 10
-1592.3776698236647
 20
-10508.031382932959
 10
-1589.145045983591
 20
-10508.031382932959
 10
-1589.6492384134444
 20
-10509.935861231312
 10
-1592.9052946954278
 20
-10509.935861231312
 10
-1598.7344437277816
 20
-10528.749084297317
 10
-1600.559541338092
 20
-10528.749084297317
 10
-1594.7248633025911
 20
-10509.935861231312
 10
-1597.1299796716312
 20
-10509.935861231312
 10
-1596.6257872417777
 20
-10508.031382932959
 10
-1594.1972384308278
 20
-10508.031382932959
 10
-1593.3370835126393
 20
-10505.39496993226
 42
-0.0005863560645765
 10
-1593.3003488344498
 20
-10505.278143512014
 10
-1593.2242610007752
 20
-10505.037151212584
 42
-0.0087522378919476
 10
-1593.0247928573187
 20
-10504.441875125438
 10
-1592.9325285818995
 20
-10504.181734956908
 42
-0.0077400953822833
 10
-1592.6745949227738
 20
-10503.488730279376
 10
-1592.6588299512021
 20
-10503.448299396008
 42
-0.0082369946325142
 10
-1592.411745480583
 20
-10502.844220329795
 42
-0.0085725238358044
 10
-1592.1444993845835
 20
-10502.248794290515
 10
-1592.04286978357
 20
-10502.032373188516
 42
-0.0168109410597594
 10
-1591.7559253548429
 20
-10501.471165662417
 10
-1591.6300819643554
 20
-10501.244201629368
 42
-0.0007817726841606
 10
-1591.5757976143273
 20
-10501.146657384388
 10
-1591.5756693082988
 20
-10501.146427675632
 42
-0.003662614209337
 10
-1591.5207814442886
 20
-10501.049829795684
 42
-0.0080221150572032
 10
-1591.4636571888789
 20
-10500.954550560926
 10
-1591.4329572375207
 20
-10500.905159611808
 42
-0.0202139325567555
 10
-1591.3053014977211
 20
-10500.717178011138
 10
-1591.2512340325263
 20
-10500.644099146886
 42
-0.0249323791789418
 10
-1590.9920712388036
 20
-10500.328053904728
 10
-1590.96793142468
 20
-10500.301439631819
 42
-0.0242132121550609
 10
-1590.6282506831424
 20
-10499.961556145619
 10
-1590.580339110388
 20
-10499.918047009431
 42
-0.0251017527877111
 10
-1590.2963574097469
 20
-10499.685054263664
 10
-1590.2949119329087
 20
-10499.683985006066
 42
-0.0130868068995811
 10
-1589.9966512829758
 20
-10499.475204537543
 10
-1589.9950894638441
 20
-10499.474171097276
 42
-0.0290329526416607
 10
-1589.6839783224398
 20
-10499.293345595639
 10
-1589.6541327604421
 20
-10499.278243212793
 42
-0.0160250190052456
 10
-1589.3882283466892
 20
-10499.154227102586
 42
-0.0267600374764946
 10
-1589.1129522692224
 20
-10499.053478782038
 10
-1589.0862163496995
 20
-10499.045286223212
 42
-0.0049981587857422
 10
-1589.0310432044125
 20
-10499.028981022901
 42
-0.0049981587857422
  0
LWPOLYLINE
  5
53
100
AcDbEntity
  8
0
370
              15
390
0
  6
Continuous
 62
               7
100
AcDbPolyline
 90
      118
 70
             128
 10
-1569.2166756399656
 20
-10508.105366260786
 10
-1567.341553715466
 20
-10508.105366260786
 10
-1568.1795926210659
 20
-10510.786932787187
 42
-0.0010587229333459
 10
-1568.1481368055647
 20
-10510.750028253915
 10
-1568.089942714862
 20
-10510.682045997655
 42
-0.0071874740406914
 10
-1567.9395674967918
 20
-10510.511405305659
 10
-1567.7978447235018
 20
-10510.355169164315
 42
-0.0148118053522838
 10
-1567.3477154307889
 20
-10509.887555318301
 10
-1567.260493095891
 20
-10509.80215799745
 42
-0.0086273358682701
 10
-1566.9249442948787
 20
-10509.48478236343
 10
-1566.8811105786162
 20
-10509.444732719063
 42
-0.0103138323085943
 10
-1566.6230868764194
 20
-10509.218569581759
 10
-1566.5773124701495
 20
-10509.180087534547
 42
-0.0060206748570187
 10
-1566.4044644059802
 20
-10509.038292883744
 10
-1566.402433275045
 20
-10509.036667178074
 42
-0.0067069027295735
 10
-1566.2301404604318
 20
-10508.902516544318
 10
-1566.2275916944691
 20
-10508.900586374415
 42
-0.0076184352022996
 10
-1566.0566864286343
 20
-10508.7752114992
 42
-0.0089652861718543
 10
-1565.881725465935
 20
-10508.65557823889
 10
-1565.8453737457571
 20
-10508.631667025385
 42
-0.0156916245951643
 10
-1565.6494142485947
 20
-10508.511404538909
 42
-0.0023299011082797
 10
-1565.449152204669
 20
-10508.3982265994
 10
-1565.4337680722349
 20
-10508.389626604305
 42
-0.010766934150769
 10
-1565.1995312471761
 20
-10508.265226470976
 10
-1565.1772664460586
 20
-10508.254009721004
 42
-0.0078058045859408
 10
-1564.8936763280983
 20
-10508.116648265363
 10
-1564.8837692403968
 20
-10508.112039137497
 42
-0.0181829330475155
 10
-1564.5734598358065
 20
-10507.981175396411
 10
-1564.5194043932122
 20
-10507.960660276458
 42
-0.0208411536031849
 10
-1564.1703194257643
 20
-10507.844569813966
 10
-1564.1559633256495
 20
-10507.840451369017
 42
-0.0222799817150982
 10
-1563.8272435317197
 20
-10507.761809802872
 10
-1563.8183545684822
 20
-10507.760097792287
 42
-0.0215509523894345
 10
-1563.5018836002027
 20
-10507.713182103751
 10
-1563.4594016391495
 20
-10507.708744576959
 42
-0.0182545924814548
 10
-1563.2252928598487
 20
-10507.69290075157
 10
-1563.1858918434875
 20
-10507.69167620649
 42
-0.0072962856593195
 10
-1563.0299689638118
 20
-10507.68910687797
 10
-1563.0008692932865
 20
-10507.689052042566
 42
-0.0059227516380472
 10
-1562.9031197940947
 20
-10507.690025754357
 10
-1562.873877577078
 20
-10507.690663520949
 42
-0.0011833112010866
 10
-1562.8346262928903
 20
-10507.691612525268
 10
-1563.6300128884975
 20
-10510.230346470367
 42
0.0143932051600069
 10
-1563.656414270846
 20
-10510.220147500324
 10
-1563.6636862432654
 20
-10510.217576281466
 42
0.0234388603600547
 10
-1563.705517109187
 20
-10510.204957045753
 10
-1563.7141987721102
 20
-10510.202776083745
 42
0.0199162743092512
 10
-1563.7744876061915
 20
-10510.190159348411
 10
-1563.7953015439964
 20
-10510.186662148983
 42
0.0293643550635934
 10
-1563.8983764027603
 20
-10510.175512103327
 10
-1563.9230615834758
 20
-10510.174300486309
 42
0.0214606686832277
 10
-1564.0762024994347
 20
-10510.173361925892
 10
-1564.0855744102464
 20
-10510.173706837437
 42
0.0167564054149646
 10
-1564.2570946013307
 20
-10510.185783879802
 10
-1564.2655543941137
 20
-10510.186665220232
 42
0.0137677553266216
 10
-1564.4529077073876
 20
-10510.211414528776
 10
-1564.4602594468861
 20
-10510.212592448743
 42
0.0118497261458806
 10
-1564.660757210949
 20
-10510.249609798924
 10
-1564.6669072182349
 20
-10510.250896661651
 42
0.010642114388174
 10
-1564.8777881055585
 20
-10510.299729037237
 10
-1564.8826969139088
 20
-10510.300976379913
 42
0.0099746379671831
 10
-1565.1011553830465
 20
-10510.36115090822
 10
-1565.1627034232415
 20
-10510.379432786858
 42
0.0191613675879033
 10
-1565.4986878857903
 20
-10510.493410167157
 10
-1565.5867476584888
 20
-10510.527097077464
 42
0.0205274080147321
 10
-1565.9720544304034
 20
-10510.692925485295
 10
-1566.0297037123598
 20
-10510.720593449854
 42
0.0181256912164761
 10
-1566.2879806530523
 20
-10510.856277268846
 10
-1566.3409360363264
 20
-10510.886594882037
 42
0.0140709242326366
 10
-1566.4858909709947
 20
-10510.975089555495
 10
-1566.5121398396143
 20
-10510.992146374212
 42
0.0086667884452809
 10
-1566.6010660011557
 20
-10511.052149042094
 42
0.0036408192059289
 10
-1566.688499239079
 20
-10511.114329899807
 10
-1566.7237261136579
 20
-10511.139770845799
 42
0.0052260781289916
 10
-1566.8799548110831
 20
-10511.255103232457
 10
-1566.8961616673084
 20
-10511.26733134305
 42
0.0050024435866867
 10
-1567.0821650103351
 20
-10511.410613911288
 10
-1567.0974831668823
 20
-10511.42265993376
 42
0.0136138710302835
 10
-1567.3079244352198
 20
-10511.597626438683
 10
-1567.3415923110015
 20
-10511.627205411387
 42
0.0172815186903313
 10
-1567.6059958526521
 20
-10511.876202083997
 10
-1567.6085581985064
 20
-10511.878787901156
 42
0.0189403857990596
 10
-1567.8591399970776
 20
-10512.151593165952
 10
-1567.8917714906408
 20
-10512.189937097481
 42
0.0185044199521264
 10
-1568.0837279296015
 20
-10512.433185678581
 42
0.0088565243913176
 10
-1568.2621880362246
 20
-10512.686702098725
 10
-1568.2713660158784
 20
-10512.700243478492
 42
0.0157195347202829
 10
-1568.4545866222204
 20
-10512.989765687818
 10
-1568.5006695641466
 20
-10513.067917884833
 42
0.009545187977767
 10
-1568.6657551142812
 20
-10513.360512527184
 10
-1568.6769030332127
 20
-10513.381183199321
 42
0.0100351706218942
 10
-1568.80894678237
 20
-10513.638238759806
 42
0.0086935915402395
 10
-1568.9312779341576
 20
-10513.900071905198
 10
-1568.9345986755784
 20
-10513.907514228184
 42
0.0072580174871976
 10
-1569.0549451275244
 20
-10514.188106219768
 10
-1569.0582067608298
 20
-10514.196026245783
 42
0.0060005122579578
 10
-1569.1774074291777
 20
-10514.495635916404
 10
-1569.180618407514
 20
-10514.503997444295
 42
0.0049017786997048
 10
-1569.2995185663715
 20
-10514.822926424898
 10
-1569.3026843727621
 20
-10514.831679362129
 42
0.0039415167607072
 10
-1569.4221206508141
 20
-10515.170221424529
 10
-1569.4252517534708
 20
-10515.179324625418
 42
0.0031035838790319
 10
-1569.5460565391677
 20
-10515.537764487204
 10
-1569.5491665836942
 20
-10515.547185108568
 42
0.0025070747163779
 10
-1569.6720679349978
 20
-10515.925832325473
 10
-1569.709361831435
 20
-10516.042723990762
 42
0.0029081910269803
 10
-1569.9013801292442
 20
-10516.656887649047
 10
-1569.9421832977628
 20
-10516.79011089133
 42
0.0009266453744321
 10
-1570.2106006720544
 20
-10517.672335351177
 10
-1570.2314881447219
 20
-10517.741447230503
 42
-0.000580999367013
 10
-1570.5088248253094
 20
-10518.655255337129
 10
-1570.5751066235971
 20
-10518.872740269337
 42
-0.0012018708182293
 10
-1570.7220909330115
 20
-10519.350902933809
 10
-1570.7744107845563
 20
-10519.519662074606
 42
-0.0002691059638624
 10
-1570.8179802657455
 20
-10519.659929695017
 10
-1573.6509361640349
 20
-10528.749084297317
 10
-1575.4689250560134
 20
-10528.749084297317
 10
-1569.2166756399656
 20
-10508.105366260786
  0
SPLINE
  5
54
100
AcDbEntity
  8
0
370
              15
390
0
  6
Continuous
 62
               7
100
AcDbSpline
210
0.0
220
0.0
230
1.0
 70
              13
 71
               2
 72
             782
 73
             779
 74
               0
 42
0.000001
 43
0.000001
 40
0.0
 40
0.0
 40
0.0
 40
1.0
 40
1.0
 40
2.0
 40
2.0
 40
3.0
 40
3.0
 40
4.0
 40
4.0
 40
5.0
 40
5.0
 40
6.0
 40
6.0
 40
7.0
 40
7.0
 40
8.0
 40
8.0
 40
9.0
 40
9.0
 40
10.0
 40
10.0
 40
11.0
 40
11.0
 40
12.0
 40
12.0
 40
13.0
 40
13.0
 40
14.0
 40
14.0
 40
15.0
 40
15.0
 40
16.0
 40
16.0
 40
17.0
 40
17.0
 40
18.0
 40
18.0
 40
19.0
 40
19.0
 40
20.0
 40
20.0
 40
21.0
 40
21.0
 40
22.0
 40
22.0
 40
23.0
 40
23.0
 40
24.0
 40
24.0
 40
25.0
 40
25.0
 40
26.0
 40
26.0
 40
27.0
 40
27.0
 40
28.0
 40
28.0
 40
29.0
 40
29.0
 40
30.0
 40
30.0
 40
31.0
 40
31.0
 40
32.0
 40
32.0
 40
33.0
 40
33.0
 40
34.0
 40
34.0
 40
35.0
 40
35.0
 40
36.0
 40
36.0
 40
37.0
 40
37.0
 40
38.0
 40
38.0
 40
39.0
 40
39.0
 40
40.0
 40
40.0
 40
41.0
 40
41.0
 40
42.0
 40
42.0
 40
43.0
 40
43.0
 40
44.0
 40
44.0
 40
45.0
 40
45.0
 40
46.0
 40
46.0
 40
47.0
 40
47.0
 40
48.0
 40
48.0
 40
49.0
 40
49.0
 40
50.0
 40
50.0
 40
51.0
 40
51.0
 40
52.0
 40
52.0
 40
53.0
 40
53.0
 40
54.0
 40
54.0
 40
55.0
 40
55.0
 40
56.0
 40
56.0
 40
57.0
 40
57.0
 40
58.0
 40
58.0
 40
59.0
 40
59.0
 40
60.0
 40
60.0
 40
61.0
 40
61.0
 40
62.0
 40
62.0
 40
63.0
 40
63.0
 40
64.0
 40
64.0
 40
65.0
 40
65.0
 40
66.0
 40
66.0
 40
67.0
 40
67.0
 40
68.0
 40
68.0
 40
69.0
 40
69.0
 40
70.0
 40
70.0
 40
71.0
 40
71.0
 40
72.0
 40
72.0
 40
73.0
 40
73.0
 40
74.0
 40
74.0
 40
75.0
 40
75.0
 40
76.0
 40
76.0
 40
77.0
 40
77.0
 40
78.0
 40
78.0
 40
79.0
 40
79.0
 40
80.0
 40
80.0
 40
81.0
 40
81.0
 40
82.0
 40
82.0
 40
83.0
 40
83.0
 40
84.0
 40
84.0
 40
85.0
 40
85.0
 40
86.0
 40
86.0
 40
87.0
 40
87.0
 40
88.0
 40
88.0
 40
89.0
 40
89.0
 40
90.0
 40
90.0
 40
91.0
 40
91.0
 40
92.0
 40
92.0
 40
93.0
 40
93.0
 40
94.0
 40
94.0
 40
95.0
 40
95.0
 40
96.0
 40
96.0
 40
97.0
 40
97.0
 40
98.0
 40
98.0
 40
99.0
 40
99.0
 40
100.0
 40
100.0
 40
101.0
 40
101.0
 40
102.0
 40
102.0
 40
103.0
 40
103.0
 40
104.0
 40
104.0
 40
105.0
 40
105.0
 40
106.0
 40
106.0
 40
107.0
 40
107.0
 40
108.0
 40
108.0
 40
109.0
 40
109.0
 40
110.0
 40
110.0
 40
111.0
 40
111.0
 40
112.0
 40
112.0
 40
113.0
 40
113.0
 40
114.0
 40
114.0
 40
115.0
 40
115.0
 40
116.0
 40
116.0
 40
117.0
 40
117.0
 40
118.0
 40
118.0
 40
119.0
 40
119.0
 40
120.0
 40
120.0
 40
121.0
 40
121.0
 40
122.0
 40
122.0
 40
123.0
 40
123.0
 40
124.0
 40
124.0
 40
125.0
 40
125.0
 40
126.0
 40
126.0
 40
127.0
 40
127.0
 40
128.0
 40
128.0
 40
129.0
 40
129.0
 40
130.0
 40
130.0
 40
131.0
 40
131.0
 40
132.0
 40
132.0
 40
133.0
 40
133.0
 40
134.0
 40
134.0
 40
135.0
 40
135.0
 40
136.0
 40
136.0
 40
137.0
 40
137.0
 40
138.0
 40
138.0
 40
139.0
 40
139.0
 40
140.0
 40
140.0
 40
141.0
 40
141.0
 40
142.0
 40
142.0
 40
143.0
 40
143.0
 40
144.0
 40
144.0
 40
145.0
 40
145.0
 40
146.0
 40
146.0
 40
147.0
 40
147.0
 40
148.0
 40
148.0
 40
149.0
 40
149.0
 40
150.0
 40
150.0
 40
151.0
 40
151.0
 40
152.0
 40
152.0
 40
153.0
 40
153.0
 40
154.0
 40
154.0
 40
155.0
 40
155.0
 40
156.0
 40
156.0
 40
157.0
 40
157.0
 40
158.0
 40
158.0
 40
159.0
 40
159.0
 40
160.0
 40
160.0
 40
161.0
 40
161.0
 40
162.0
 40
162.0
 40
163.0
 40
163.0
 40
164.0
 40
164.0
 40
165.0
 40
165.0
 40
166.0
 40
166.0
 40
167.0
 40
167.0
 40
168.0
 40
168.0
 40
169.0
 40
169.0
 40
170.0
 40
170.0
 40
171.0
 40
171.0
 40
172.0
 40
172.0
 40
173.0
 40
173.0
 40
174.0
 40
174.0
 40
175.0
 40
175.0
 40
176.0
 40
176.0
 40
177.0
 40
177.0
 40
178.0
 40
178.0
 40
179.0
 40
179.0
 40
180.0
 40
180.0
 40
181.0
 40
181.0
 40
182.0
 40
182.0
 40
183.0
 40
183.0
 40
184.0
 40
184.0
 40
185.0
 40
185.0
 40
186.0
 40
186.0
 40
187.0
 40
187.0
 40
188.0
 40
188.0
 40
189.0
 40
189.0
 40
190.0
 40
190.0
 40
191.0
 40
191.0
 40
192.0
 40
192.0
 40
193.0
 40
193.0
 40
194.0
 40
194.0
 40
195.0
 40
195.0
 40
196.0
 40
196.0
 40
197.0
 40
197.0
 40
198.0
 40
198.0
 40
199.0
 40
199.0
 40
200.0
 40
200.0
 40
201.0
 40
201.0
 40
202.0
 40
202.0
 40
203.0
 40
203.0
 40
204.0
 40
204.0
 40
205.0
 40
205.0
 40
206.0
 40
206.0
 40
207.0
 40
207.0
 40
208.0
 40
208.0
 40
209.0
 40
209.0
 40
210.0
 40
210.0
 40
211.0
 40
211.0
 40
212.0
 40
212.0
 40
213.0
 40
213.0
 40
214.0
 40
214.0
 40
215.0
 40
215.0
 40
216.0
 40
216.0
 40
217.0
 40
217.0
 40
218.0
 40
218.0
 40
219.0
 40
219.0
 40
220.0
 40
220.0
 40
221.0
 40
221.0
 40
222.0
 40
222.0
 40
223.0
 40
223.0
 40
224.0
 40
224.0
 40
225.0
 40
225.0
 40
226.0
 40
226.0
 40
227.0
 40
227.0
 40
228.0
 40
228.0
 40
229.0
 40
229.0
 40
230.0
 40
230.0
 40
231.0
 40
231.0
 40
232.0
 40
232.0
 40
233.0
 40
233.0
 40
234.0
 40
234.0
 40
235.0
 40
235.0
 40
236.0
 40
236.0
 40
237.0
 40
237.0
 40
238.0
 40
238.0
 40
239.0
 40
239.0
 40
240.0
 40
240.0
 40
241.0
 40
241.0
 40
242.0
 40
242.0
 40
243.0
 40
243.0
 40
244.0
 40
244.0
 40
245.0
 40
245.0
 40
246.0
 40
246.0
 40
247.0
 40
247.0
 40
248.0
 40
248.0
 40
249.0
 40
249.0
 40
250.0
 40
250.0
 40
251.0
 40
251.0
 40
252.0
 40
252.0
 40
253.0
 40
253.0
 40
254.0
 40
254.0
 40
255.0
 40
255.0
 40
256.0
 40
256.0
 40
257.0
 40
257.0
 40
258.0
 40
258.0
 40
259.0
 40
259.0
 40
260.0
 40
260.0
 40
261.0
 40
261.0
 40
262.0
 40
262.0
 40
263.0
 40
263.0
 40
264.0
 40
264.0
 40
265.0
 40
265.0
 40
266.0
 40
266.0
 40
267.0
 40
267.0
 40
268.0
 40
268.0
 40
269.0
 40
269.0
 40
270.0
 40
270.0
 40
271.0
 40
271.0
 40
272.0
 40
272.0
 40
273.0
 40
273.0
 40
274.0
 40
274.0
 40
275.0
 40
275.0
 40
276.0
 40
276.0
 40
277.0
 40
277.0
 40
278.0
 40
278.0
 40
279.0
 40
279.0
 40
280.0
 40
280.0
 40
281.0
 40
281.0
 40
282.0
 40
282.0
 40
283.0
 40
283.0
 40
284.0
 40
284.0
 40
285.0
 40
285.0
 40
286.0
 40
286.0
 40
287.0
 40
287.0
 40
288.0
 40
288.0
 40
289.0
 40
289.0
 40
290.0
 40
290.0
 40
291.0
 40
291.0
 40
292.0
 40
292.0
 40
293.0
 40
293.0
 40
294.0
 40
294.0
 40
295.0
 40
295.0
 40
296.0
 40
296.0
 40
297.0
 40
297.0
 40
298.0
 40
298.0
 40
299.0
 40
299.0
 40
300.0
 40
300.0
 40
301.0
 40
301.0
 40
302.0
 40
302.0
 40
303.0
 40
303.0
 40
304.0
 40
304.0
 40
305.0
 40
305.0
 40
306.0
 40
306.0
 40
307.0
 40
307.0
 40
308.0
 40
308.0
 40
309.0
 40
309.0
 40
310.0
 40
310.0
 40
311.0
 40
311.0
 40
312.0
 40
312.0
 40
313.0
 40
313.0
 40
314.0
 40
314.0
 40
315.0
 40
315.0
 40
316.0
 40
316.0
 40
317.0
 40
317.0
 40
318.0
 40
318.0
 40
319.0
 40
319.0
 40
320.0
 40
320.0
 40
321.0
 40
321.0
 40
322.0
 40
322.0
 40
323.0
 40
323.0
 40
324.0
 40
324.0
 40
325.0
 40
325.0
 40
326.0
 40
326.0
 40
327.0
 40
327.0
 40
328.0
 40
328.0
 40
329.0
 40
329.0
 40
330.0
 40
330.0
 40
331.0
 40
331.0
 40
332.0
 40
332.0
 40
333.0
 40
333.0
 40
334.0
 40
334.0
 40
335.0
 40
335.0
 40
336.0
 40
336.0
 40
337.0
 40
337.0
 40
338.0
 40
338.0
 40
339.0
 40
339.0
 40
340.0
 40
340.0
 40
341.0
 40
341.0
 40
342.0
 40
342.0
 40
343.0
 40
343.0
 40
344.0
 40
344.0
 40
345.0
 40
345.0
 40
346.0
 40
346.0
 40
347.0
 40
347.0
 40
348.0
 40
348.0
 40
349.0
 40
349.0
 40
350.0
 40
350.0
 40
351.0
 40
351.0
 40
352.0
 40
352.0
 40
353.0
 40
353.0
 40
354.0
 40
354.0
 40
355.0
 40
355.0
 40
356.0
 40
356.0
 40
357.0
 40
357.0
 40
358.0
 40
358.0
 40
359.0
 40
359.0
 40
360.0
 40
360.0
 40
361.0
 40
361.0
 40
362.0
 40
362.0
 40
363.0
 40
363.0
 40
364.0
 40
364.0
 40
365.0
 40
365.0
 40
366.0
 40
366.0
 40
367.0
 40
367.0
 40
368.0
 40
368.0
 40
369.0
 40
369.0
 40
370.0
 40
370.0
 40
371.0
 40
371.0
 40
372.0
 40
372.0
 40
373.0
 40
373.0
 40
374.0
 40
374.0
 40
375.0
 40
375.0
 40
376.0
 40
376.0
 40
377.0
 40
377.0
 40
378.0
 40
378.0
 40
379.0
 40
379.0
 40
380.0
 40
380.0
 40
381.0
 40
381.0
 40
382.0
 40
382.0
 40
383.0
 40
383.0
 40
384.0
 40
384.0
 40
385.0
 40
385.0
 40
386.0
 40
386.0
 40
387.0
 40
387.0
 40
388.0
 40
388.0
 40
389.0
 40
389.0
 40
389.0
 10
-1558.8879711892328
 20
-10508.094439897424
 30
0.0
 41
1.0
 10
-1558.0695470805124
 20
-10508.094439897424
 30
0.0
 41
1.0
 10
-1557.251122971792
 20
-10508.094439897424
 30
0.0
 41
1.0
 10
-1557.6648767073088
 20
-10509.437066161674
 30
0.0
 41
1.0
 10
-1558.0786304428254
 20
-10510.779692425924
 30
0.0
 41
1.0
 10
-1558.0602909476352
 20
-10510.750991652978
 30
0.0
 41
0.9999957264347169
 10
-1558.0417839508173
 20
-10510.722398602846
 30
0.0
 41
1.0
 10
-1558.0113546266848
 20
-10510.675385724477
 30
0.0
 41
1.0
 10
-1557.9809253025521
 20
-10510.628372846109
 30
0.0
 41
1.0
 10
-1557.9015596574573
 20
-10510.505754039224
 30
0.0
 41
0.9995394069082803
 10
-1557.8149012659078
 20
-10510.388175977485
 30
0.0
 41
1.0
 10
-1557.7791444036486
 20
-10510.339661084892
 30
0.0
 41
1.0
 10
-1557.7433875413894
 20
-10510.291146192299
 30
0.0
 41
1.0
 10
-1557.6096608735604
 20
-10510.109705917155
 30
0.0
 41
0.999446061714101
 10
-1557.4641603922685
 20
-10509.937563519503
 30
0.0
 41
1.0
 10
-1557.4597722112935
 20
-10509.932371839121
 30
0.0
 41
1.0
 10
-1557.4553840303183
 20
-10509.927180158738
 30
0.0
 41
1.0
 10
-1557.3186599109843
 20
-10509.765421121856
 30
0.0
 41
0.9994359394933129
 10
-1557.1713856806291
 20
-10509.613204920686
 30
0.0
 41
1.0
 10
-1557.1690023266715
 20
-10509.61074159031
 30
0.0
 41
1.0
 10
-1557.1666189727139
 20
-10509.608278259931
 30
0.0
 41
1.0
 10
-1557.0241114502694
 20
-10509.460988719513
 30
0.0
 41
0.9995293688567283
 10
-1556.8728397692955
 20
-10509.322715507358
 30
0.0
 41
1.0
 10
-1556.8535460100297
 20
-10509.305079621705
 30
0.0
 41
1.0
 10
-1556.8342522507637
 20
-10509.287443736052
 30
0.0
 41
1.0
 10
-1556.7215680883121
 20
-10509.184442295193
 30
0.0
 41
0.9997087614803621
 10
-1556.6040451993583
 20
-10509.086998014396
 30
0.0
 41
1.0
 10
-1556.5848791262247
 20
-10509.071106435924
 30
0.0
 41
1.0
 10
-1556.565713053091
 20
-10509.05521485745
 30
0.0
 41
1.0
 10
-1556.4865223104521
 20
-10508.989553733638
 30
0.0
 41
0.9999595338699672
 10
-1556.4061630395481
 20
-10508.925328002944
 30
0.0
 41
1.0
 10
-1556.3258037686207
 20
-10508.861102272233
 30
0.0
 41
0.9999749417509612
 10
-1556.2445432342361
 20
-10508.798020718254
 30
0.0
 41
1.0
 10
-1556.2235570881949
 20
-10508.781729431046
 30
0.0
 41
1.0
 10
-1556.2025709421537
 20
-10508.765438143839
 30
0.0
 41
1.0
 10
-1556.1180030567702
 20
-10508.699789133934
 30
0.0
 41
0.9999792037118404
 10
-1556.0325954569471
 20
-10508.635236352249
 30
0.0
 41
1.0
 10
-1556.0117706311796
 20
-10508.6194965301
 30
0.0
 41
1.0
 10
-1555.9909458054121
 20
-10508.603756707951
 30
0.0
 41
1.0
 10
-1555.9471878571844
 20
-10508.570683570611
 30
0.0
 41
0.9999993374161673
 10
-1555.9035061710345
 20
-10508.537509775182
 30
0.0
 41
1.0
 10
-1555.859824484897
 20
-10508.504335979762
 30
0.0
 41
0.9999160953816261
 10
-1555.8152980739569
 20
-10508.472304914549
 30
0.0
 41
1.0
 10
-1555.7824761865447
 20
-10508.448693758968
 30
0.0
 41
1.0
 10
-1555.7496542991325
 20
-10508.425082603389
 30
0.0
 41
1.0
 10
-1555.6394841133683
 20
-10508.345829227019
 30
0.0
 41
0.9980964527233452
 10
-1555.5203951198562
 20
-10508.280741754157
 30
0.0
 41
1.0
 10
-1555.4833625129368
 20
-10508.260501774568
 30
0.0
 41
1.0
 10
-1555.4463299060171
 20
-10508.240261794979
 30
0.0
 41
1.0
 10
-1555.2670028927471
 20
-10508.142251544279
 30
0.0
 41
0.9984572810572892
 10
-1555.0779143263853
 20
-10508.064729282933
 30
0.0
 41
1.0
 10
-1555.0742680569897
 20
-10508.063234390595
 30
0.0
 41
1.0
 10
-1555.0706217875943
 20
-10508.061739498256
 30
0.0
 41
1.0
 10
-1554.8888257600261
 20
-10507.987207021586
 30
0.0
 41
0.9987838528035893
 10
-1554.7005731014674
 20
-10507.930941381419
 30
0.0
 41
1.0
 10
-1554.6963351522772
 20
-10507.929674727731
 30
0.0
 41
1.0
 10
-1554.6920972030869
 20
-10507.928408074044
 30
0.0
 41
1.0
 10
-1554.5123204429181
 20
-10507.874675741255
 30
0.0
 41
0.9990652816206085
 10
-1554.3285745111921
 20
-10507.836672061712
 30
0.0
 41
1.0
 10
-1554.323386110166
 20
-10507.835598958607
 30
0.0
 41
1.0
 10
-1554.3181977091399
 20
-10507.834525855502
 30
0.0
 41
1.0
 10
-1554.1448285794795
 20
-10507.798668382171
 30
0.0
 41
0.9992909934271808
 10
-1553.9692528130181
 20
-10507.775957949703
 30
0.0
 41
1.0
 10
-1553.793677046559
 20
-10507.753247517237
 30
0.0
 41
0.9994553539448581
 10
-1553.6169856134632
 20
-10507.742168213032
 30
0.0
 41
1.0
 10
-1553.5815512056686
 20
-10507.739946324984
 30
0.0
 41
1.0
 10
-1553.546116797874
 20
-10507.737724436936
 30
0.0
 41
1.0
 10
-1553.3798910313055
 20
-10507.727301374523
 30
0.0
 41
0.9990928098291072
 10
-1553.2133812394031
 20
-10507.731061015758
 30
0.0
 41
1.0
 10
-1553.1748194041397
 20
-10507.731931707291
 30
0.0
 41
1.0
 10
-1553.1362575688761
 20
-10507.732802398825
 30
0.0
 41
1.0
 10
-1553.046871447508
 20
-10507.734820656993
 30
0.0
 41
0.9998382089206477
 10
-1552.9576157647143
 20
-10507.74005278352
 30
0.0
 41
1.0
 10
-1552.9571858585125
 20
-10507.740077984421
 30
0.0
 41
1.0
 10
-1552.9567559523107
 20
-10507.740103185322
 30
0.0
 41
1.0
 10
-1552.8683600819452
 20
-10507.745284910046
 30
0.0
 41
0.9997558016756079
 10
-1552.7802795047273
 20
-10507.754367425416
 30
0.0
 41
1.0
 10
-1552.7798033662991
 20
-10507.754416522897
 30
0.0
 41
1.0
 10
-1552.7793272278709
 20
-10507.754465620381
 30
0.0
 41
1.0
 10
-1552.6921989275288
 20
-10507.763449940781
 30
0.0
 41
0.9996565144178805
 10
-1552.6056610741844
 20
-10507.776987247471
 30
0.0
 41
1.0
 10
-1552.6051951487966
 20
-10507.777060133205
 30
0.0
 41
1.0
 10
-1552.6047292234091
 20
-10507.777133018937
 30
0.0
 41
1.0
 10
-1552.5191232208304
 20
-10507.790524554162
 30
0.0
 41
0.999532180686839
 10
-1552.4344961405145
 20
-10507.80912504259
 30
0.0
 41
1.0
 10
-1552.4341069459385
 20
-10507.809210585056
 30
0.0
 41
1.0
 10
-1552.4337177513626
 20
-10507.809296127523
 30
0.0
 41
1.0
 10
-1552.3498690601834
 20
-10507.82772553102
 30
0.0
 41
0.9993819199218919
 10
-1552.2675225259902
 20
-10507.852000914279
 30
0.0
 41
1.0
 10
-1552.2672840924861
 20
-10507.85207120339
 30
0.0
 41
1.0
 10
-1552.2670456589819
 20
-10507.852141492502
 30
0.0
 41
1.0
 10
-1552.1851759917886
 20
-10507.876276297542
 30
0.0
 41
0.9992088568505996
 10
-1552.1054834728056
 20
-10507.906841533335
 30
0.0
 41
1.0
 10
-1552.0258024819241
 20
-10507.937401134068
 30
0.0
 41
0.9990226101769552
 10
-1551.9491318120195
 20
-10507.974878565681
 30
0.0
 41
1.0
 10
-1551.8724726702219
 20
-10508.012350362234
 30
0.0
 41
0.9988424273964157
 10
-1551.7997690430077
 20
-10508.05701513749
 30
0.0
 41
1.0
 10
-1551.799501334629
 20
-10508.057179601561
 30
0.0
 41
1.0
 10
-1551.7992336262505
 20
-10508.057344065634
 30
0.0
 41
1.0
 10
-1551.7259945822761
 20
-10508.102337769033
 30
0.0
 41
0.9986928844492268
 10
-1551.6577317155577
 20
-10508.15457350332
 30
0.0
 41
1.0
 10
-1551.6571504233411
 20
-10508.155018316542
 30
0.0
 41
1.0
 10
-1551.6565691311243
 20
-10508.155463129766
 30
0.0
 41
1.0
 10
-1551.5871436799648
 20
-10508.208588490505
 30
0.0
 41
0.9986007262275589
 10
-1551.5237175102004
 20
-10508.268749260198
 30
0.0
 41
1.0
 10
-1551.5228230947441
 20
-10508.269597628032
 30
0.0
 41
1.0
 10
-1551.5219286792878
 20
-10508.270445995866
 30
0.0
 41
1.0
 10
-1551.4567136786025
 20
-10508.332303501234
 30
0.0
 41
0.9985581491382057
 10
-1551.398506066902
 20
-10508.400795991503
 30
0.0
 41
1.0
 10
-1551.3892476133078
 20
-10508.411690349203
 30
0.0
 41
1.0
 10
-1551.3799891597134
 20
-10508.422584706903
 30
0.0
 41
1.0
 10
-1551.3032646408199
 20
-10508.512865912578
 30
0.0
 41
0.9970460233518957
 10
-1551.2412727396647
 20
-10508.613832996754
 30
0.0
 41
1.0
 10
-1551.2268033745843
 20
-10508.637399455838
 30
0.0
 41
1.0
 10
-1551.2123340095038
 20
-10508.66096591492
 30
0.0
 41
1.0
 10
-1551.1725973094876
 20
-10508.725685638959
 30
0.0
 41
0.9988468816638899
 10
-1551.1392509387379
 20
-10508.793918091382
 30
0.0
 41
1.0
 10
-1551.1322149162525
 20
-10508.808315012506
 30
0.0
 41
1.0
 10
-1551.125178893767
 20
-10508.822711933632
 30
0.0
 41
1.0
 10
-1551.1059045679917
 20
-10508.862150543797
 30
0.0
 41
0.9998431189995904
 10
-1551.0880392404915
 20
-10508.902247098251
 30
0.0
 41
1.0
 10
-1551.0701739130479
 20
-10508.942343652579
 30
0.0
 41
0.9999989989865136
 10
-1551.0521951896142
 20
-10508.982389490187
 30
0.0
 41
1.0
 10
-1551.046022878
 20
-10508.996137707043
 30
0.0
 41
1.0
 10
-1551.0398505663859
 20
-10509.009885923901
 30
0.0
 41
1.0
 10
-1551.0095272197734
 20
-10509.077428195116
 30
0.0
 41
0.9998790356322699
 10
-1550.9813193396424
 20
-10509.145880947035
 30
0.0
 41
1.0
 10
-1550.9744841583624
 20
-10509.162468048451
 30
0.0
 41
1.0
 10
-1550.9676489770827
 20
-10509.179055149867
 30
0.0
 41
1.0
 10
-1550.9440913147007
 20
-10509.236223104754
 30
0.0
 41
0.9998227574558821
 10
-1550.9227025662992
 20
-10509.294237413065
 30
0.0
 41
1.0
 10
-1550.90131381791
 20
-10509.352251721341
 30
0.0
 41
0.999679797103767
 10
-1550.8828875329566
 20
-10509.411273840442
 30
0.0
 41
1.0
 10
-1550.8789837302279
 20
-10509.42377829862
 30
0.0
 41
1.0
 10
-1550.8750799274994
 20
-10509.436282756798
 30
0.0
 41
1.0
 10
-1550.8488460370866
 20
-10509.520313792264
 30
0.0
 41
0.9979274938733717
 10
-1550.833621513608
 20
-10509.607018150926
 30
0.0
 41
1.0
 10
-1550.8313978263486
 20
-10509.619682151737
 30
0.0
 41
1.0
 10
-1550.8291741390892
 20
-10509.632346152546
 30
0.0
 41
1.0
 10
-1550.8182441993883
 20
-10509.694592659855
 30
0.0
 41
0.9994985982137929
 10
-1550.8112760342126
 20
-10509.757406160988
 30
0.0
 41
1.0
 10
-1550.8043078690362
 20
-10509.820219662111
 30
0.0
 41
0.9996372611196445
 10
-1550.8007320032682
 20
-10509.883317240809
 30
0.0
 41
1.0
 10
-1550.8005634257788
 20
-10509.886291857893
 30
0.0
 41
1.0
 10
-1550.8003948482892
 20
-10509.889266474976
 30
0.0
 41
1.0
 10
-1550.7964818275427
 20
-10509.958313287836
 30
0.0
 41
0.9997730630738108
 10
-1550.7955135140544
 20
-10510.027464111876
 30
0.0
 41
1.0
 10
-1550.7954564076363
 20
-10510.03154229101
 30
0.0
 41
1.0
 10
-1550.7953993012184
 20
-10510.035620470142
 30
0.0
 41
1.0
 10
-1550.7943167748949
 20
-10510.11292765249
 30
0.0
 41
0.9998772614072844
 10
-1550.7956568616264
 20
-10510.190230799051
 30
0.0
 41
1.0
 10
-1550.795746124825
 20
-10510.195379962872
 30
0.0
 41
1.0
 10
-1550.7958353880235
 20
-10510.200529126694
 30
0.0
 41
1.0
 10
-1550.7973540011528
 20
-10510.288130600908
 30
0.0
 41
0.9999415567323586
 10
-1550.8007663113985
 20
-10510.375678762604
 30
0.0
 41
1.0
 10
-1550.8010076320738
 20
-10510.38187022234
 30
0.0
 41
1.0
 10
-1550.8012489527491
 20
-10510.388061682077
 30
0.0
 41
1.0
 10
-1550.8051439043463
 20
-10510.487992763239
 30
0.0
 41
0.9999716810418117
 10
-1550.8105424874657
 20
-10510.587853901479
 30
0.0
 41
1.0
 10
-1550.8137552862534
 20
-10510.647283151113
 30
0.0
 41
1.0
 10
-1550.816968085041
 20
-10510.706712400748
 30
0.0
 41
1.0
 10
-1550.8250419941928
 20
-10510.856060802022
 30
0.0
 41
0.9999819129913019
 10
-1550.8349117858113
 20
-10511.005301279762
 30
0.0
 41
1.0
 10
-1550.844781577428
 20
-10511.154541757474
 30
0.0
 41
1.0
 10
-1550.8472208979917
 20
-10511.191734803324
 30
0.0
 41
1.0
 10
-1550.824522664248
 20
-10511.152993806143
 30
0.0
 41
0.9999982128092232
 10
-1550.8016781054139
 20
-10511.11433891205
 30
0.0
 41
1.0
 10
-1550.7747685455247
 20
-10511.068805697989
 30
0.0
 41
1.0
 10
-1550.7478589856355
 20
-10511.023272483926
 30
0.0
 41
1.0
 10
-1550.6711953071197
 20
-10510.893551161873
 30
0.0
 41
0.9998609190058329
 10
-1550.5902479942547
 20
-10510.766458779937
 30
0.0
 41
1.0
 10
-1550.5605996727686
 20
-10510.719909046973
 30
0.0
 41
1.0
 10
-1550.5309513512825
 20
-10510.673359314009
 30
0.0
 41
1.0
 10
-1550.4486791310458
 20
-10510.544186744015
 30
0.0
 41
0.9999067609732537
 10
-1550.3629101215834
 20
-10510.417309054576
 30
0.0
 41
1.0
 10
-1550.360505418384
 20
-10510.413751788523
 30
0.0
 41
1.0
 10
-1550.3581007151849
 20
-10510.41019452247
 30
0.0
 41
1.0
 10
-1550.2771411121316
 20
-10510.290431365151
 30
0.0
 41
0.9998784952150278
 10
-1550.1924875024379
 20
-10510.173250148426
 30
0.0
 41
1.0
 10
-1550.1078338927537
 20
-10510.056068931714
 30
0.0
 41
0.9998532968285495
 10
-1550.0192162719229
 20
-10509.941856023233
 30
0.0
 41
1.0
 10
-1549.9992544829383
 20
-10509.916128702222
 30
0.0
 41
1.0
 10
-1549.9792926939538
 20
-10509.89040138121
 30
0.0
 41
1.0
 10
-1549.8608086441984
 20
-10509.737695770245
 30
0.0
 41
0.9991551975795038
 10
-1549.7301841945696
 20
-10509.595236208155
 30
0.0
 41
1.0
 10
-1549.7266745785946
 20
-10509.591408606535
 30
0.0
 41
1.0
 10
-1549.7231649626194
 20
-10509.587581004917
 30
0.0
 41
1.0
 10
-1549.5995597449437
 20
-10509.452776646067
 30
0.0
 41
0.9997418144180765
 10
-1549.4699576052453
 20
-10509.323727235458
 30
0.0
 41
1.0
 10
-1549.3403554655349
 20
-10509.194677824837
 30
0.0
 41
0.9989238204633629
 10
-1549.1993529172851
 20
-10509.0781928628
 30
0.0
 41
1.0
 10
-1549.1541052391522
 20
-10509.040812871197
 30
0.0
 41
1.0
 10
-1549.1088575610192
 20
-10509.003432879594
 30
0.0
 41
1.0
 10
-1548.9686175037943
 20
-10508.887577826299
 30
0.0
 41
0.9990825084097567
 10
-1548.8189775711892
 20
-10508.784148828465
 30
0.0
 41
1.0
 10
-1548.8089322071469
 20
-10508.777205615395
 30
0.0
 41
1.0
 10
-1548.7988868431046
 20
-10508.770262402326
 30
0.0
 41
1.0
 10
-1548.6693376386024
 20
-10508.680719830643
 30
0.0
 41
0.9998164899824442
 10
-1548.5364534352088
 20
-10508.596205589116
 30
0.0
 41
1.0
 10
-1548.5246078746893
 20
-10508.588671822594
 30
0.0
 41
1.0
 10
-1548.5127623141698
 20
-10508.581138056072
 30
0.0
 41
1.0
 10
-1548.403569231843
 20
-10508.511691347605
 30
0.0
 41
0.9997473449131981
 10
-1548.2913652745833
 20
-10508.447222389783
 30
0.0
 41
1.0
 10
-1548.1791613173343
 20
-10508.382753431968
 30
0.0
 41
0.9999327861146843
 10
-1548.0654927065777
 20
-10508.32090344029
 30
0.0
 41
1.0
 10
-1548.0649407040132
 20
-10508.320603081609
 30
0.0
 41
1.0
 10
-1548.0643887014489
 20
-10508.320302722928
 30
0.0
 41
1.0
 10
-1547.9496160855576
 20
-10508.257852013885
 30
0.0
 41
0.9996956420484104
 10
-1547.8319027597258
 20
-10508.201138546914
 30
0.0
 41
1.0
 10
-1547.8014623548283
 20
-10508.186472570182
 30
0.0
 41
1.0
 10
-1547.7710219499309
 20
-10508.171806593451
 30
0.0
 41
1.0
 10
-1547.668044843193
 20
-10508.12219293501
 30
0.0
 41
0.9998070570176402
 10
-1547.5631984542536
 20
-10508.07666234811
 30
0.0
 41
1.0
 10
-1547.4583520653193
 20
-10508.03113176121
 30
0.0
 41
0.9997827436146445
 10
-1547.351699128727
 20
-10507.990010589907
 30
0.0
 41
1.0
 10
-1547.3324762790835
 20
-10507.98259901627
 30
0.0
 41
1.0
 10
-1547.31325342944
 20
-10507.975187442633
 30
0.0
 41
1.0
 10
-1547.1681547935709
 20
-10507.919243124057
 30
0.0
 41
0.9988031841973774
 10
-1547.018284430965
 20
-10507.877743059889
 30
0.0
 41
1.0
 10
-1546.9933671825959
 20
-10507.870843314082
 30
0.0
 41
1.0
 10
-1546.9684499342268
 20
-10507.863943568273
 30
0.0
 41
1.0
 10
-1546.8011799085853
 20
-10507.817625425867
 30
0.0
 41
0.9984748040546994
 10
-1546.6298229999402
 20
-10507.790031193603
 30
0.0
 41
1.0
 10
-1546.6250838636947
 20
-10507.78926803309
 30
0.0
 41
1.0
 10
-1546.6203447274495
 20
-10507.788504872577
 30
0.0
 41
1.0
 10
-1546.4584660912949
 20
-10507.762436961337
 30
0.0
 41
0.9984436495476871
 10
-1546.2946913475662
 20
-10507.754559007519
 30
0.0
 41
1.0
 10
-1546.2729941394268
 20
-10507.753515320319
 30
0.0
 41
1.0
 10
-1546.2512969312875
 20
-10507.752471633119
 30
0.0
 41
1.0
 10
-1546.1309166038334
 20
-10507.746681053701
 30
0.0
 41
0.9987954789337445
 10
-1546.0105483589318
 20
-10507.752717581443
 30
0.0
 41
1.0
 10
-1545.9905835664651
 20
-10507.753718825781
 30
0.0
 41
1.0
 10
-1545.9706187739985
 20
-10507.754720070117
 30
0.0
 41
1.0
 10
-1545.8901801140507
 20
-10507.758754109183
 30
0.0
 41
0.9997941595877197
 10
-1545.8099713359277
 20
-10507.766048175106
 30
0.0
 41
1.0
 10
-1545.729762557819
 20
-10507.773342241029
 30
0.0
 41
0.9998589466237434
 10
-1545.6498440109544
 20
-10507.783326095481
 30
0.0
 41
1.0
 10
-1545.6174378091582
 20
-10507.787374452399
 30
0.0
 41
1.0
 10
-1545.5850316073618
 20
-10507.791422809316
 30
0.0
 41
1.0
 10
-1545.4403006568848
 20
-10507.809503377606
 30
0.0
 41
0.9993495063248985
 10
-1545.2972494131172
 20
-10507.837969087348
 30
0.0
 41
1.0
 10
-1545.2643157159489
 20
-10507.844522550567
 30
0.0
 41
1.0
 10
-1545.2313820187806
 20
-10507.851076013785
 30
0.0
 41
1.0
 10
-1545.1220881956003
 20
-10507.872824347915
 30
0.0
 41
0.9996788715561309
 10
-1545.0140366236596
 20
-10507.900082147273
 30
0.0
 41
1.0
 10
-1545.0119736211116
 20
-10507.900602573849
 30
0.0
 41
1.0
 10
-1545.0099106185635
 20
-10507.901123000423
 30
0.0
 41
1.0
 10
-1544.9059850516924
 20
-10507.92733994664
 30
0.0
 41
0.9995480654493871
 10
-1544.8038228164737
 20
-10507.959754903261
 30
0.0
 41
1.0
 10
-1544.8021331743489
 20
-10507.960291008174
 30
0.0
 41
1.0
 10
-1544.8004435322241
 20
-10507.960827113086
 30
0.0
 41
1.0
 10
-1544.701660581251
 20
-10507.992169859881
 30
0.0
 41
0.9993867959453101
 10
-1544.6053134228016
 20
-10508.030349229175
 30
0.0
 41
1.0
 10
-1544.6040704737165
 20
-10508.030841771071
 30
0.0
 41
1.0
 10
-1544.6028275246317
 20
-10508.031334312967
 30
0.0
 41
1.0
 10
-1544.5089662643627
 20
-10508.068528598464
 30
0.0
 41
0.9992050256522821
 10
-1544.4183665893258
 20
-10508.113082497704
 30
0.0
 41
1.0
 10
-1544.4176319066037
 20
-10508.113443790171
 30
0.0
 41
1.0
 10
-1544.4168972238813
 20
-10508.113805082636
 30
0.0
 41
1.0
 10
-1544.3277669142847
 20
-10508.157636396947
 30
0.0
 41
0.9990222350740897
 10
-1544.242856852899
 20
-10508.20916966464
 30
0.0
 41
1.0
 10
-1544.2426729676104
 20
-10508.209281267547
 30
0.0
 41
1.0
 10
-1544.2424890823218
 20
-10508.209392870456
 30
0.0
 41
1.0
 10
-1544.1579467914999
 20
-10508.260702932343
 30
0.0
 41
0.9988642743809508
 10
-1544.078672256886
 20
-10508.319827119863
 30
0.0
 41
1.0
 10
-1543.999397722268
 20
-10508.37895130739
 30
0.0
 41
0.9987681233312935
 10
-1543.9263739379876
 20
-10508.445641998795
 30
0.0
 41
1.0
 10
-1543.9260450100235
 20
-10508.445942400007
 30
0.0
 41
1.0
 10
-1543.9257160820594
 20
-10508.446242801219
 30
0.0
 41
1.0
 10
-1543.8520344418482
 20
-10508.513534295051
 30
0.0
 41
0.998749657089668
 10
-1543.7854406365147
 20
-10508.587847109146
 30
0.0
 41
1.0
 10
-1543.7846684667593
 20
-10508.588708782498
 30
0.0
 41
1.0
 10
-1543.7838962970036
 20
-10508.58957045585
 30
0.0
 41
1.0
 10
-1543.7157581521631
 20
-10508.665606616643
 30
0.0
 41
0.9988147669823788
 10
-1543.6553358979388
 20
-10508.747907623485
 30
0.0
 41
1.0
 10
-1543.654216571857
 20
-10508.749432254843
 30
0.0
 41
1.0
 10
-1543.6530972457751
 20
-10508.750956886201
 30
0.0
 41
1.0
 10
-1543.5904363394013
 20
-10508.836307155734
 30
0.0
 41
0.9989452636208485
 10
-1543.5358694264423
 20
-10508.92704584489
 30
0.0
 41
1.0
 10
-1543.534520700352
 20
-10508.929288625925
 30
0.0
 41
1.0
 10
-1543.5331719742619
 20
-10508.931531406957
 30
0.0
 41
1.0
 10
-1543.4759076091289
 20
-10509.026755658169
 30
0.0
 41
0.9991046436072911
 10
-1543.4268983958023
 20
-10509.126480091205
 30
0.0
 41
1.0
 10
-1543.4254345342149
 20
-10509.129458771273
 30
0.0
 41
1.0
 10
-1543.4239706726275
 20
-10509.132437451339
 30
0.0
 41
1.0
 10
-1543.3720337361253
 20
-10509.23811924451
 30
0.0
 41
0.9992763831101482
 10
-1543.3282806075711
 20
-10509.347443306464
 30
0.0
 41
1.0
 10
-1543.3268013379075
 20
-10509.351139493998
 30
0.0
 41
1.0
 10
-1543.3253220682441
 20
-10509.354835681532
 30
0.0
 41
1.0
 10
-1543.2786104003587
 20
-10509.471552118566
 30
0.0
 41
0.9994163472884244
 10
-1543.2399773691702
 20
-10509.591185707028
 30
0.0
 41
1.0
 10
-1543.2387392169228
 20
-10509.595019850811
 30
0.0
 41
1.0
 10
-1543.2375010646754
 20
-10509.598853994596
 30
0.0
 41
1.0
 10
-1543.1976175036584
 20
-10509.722360056079
 30
0.0
 41
0.9997268055893387
 10
-1543.1635494477498
 20
-10509.847595088013
 30
0.0
 41
1.0
 10
-1543.1626192674798
 20
-10509.851014454123
 30
0.0
 41
1.0
 10
-1543.1616890872097
 20
-10509.854433820234
 30
0.0
 41
1.0
 10
-1543.1294813918369
 20
-10509.972830119967
 30
0.0
 41
0.9996701318999756
 10
-1543.1033957750674
 20
-10510.092724073227
 30
0.0
 41
1.0
 10
-1543.0773101582977
 20
-10510.212618026488
 30
0.0
 41
0.9995785451110025
 10
-1543.0582265809599
 20
-10510.333823787505
 30
0.0
 41
1.0
 10
-1543.0540067987849
 20
-10510.360624942279
 30
0.0
 41
1.0
 10
-1543.0497870166098
 20
-10510.387426097053
 30
0.0
 41
1.0
 10
-1543.0232120406708
 20
-10510.556212070762
 30
0.0
 41
0.9979925101216578
 10
-1543.0181864547449
 20
-10510.727003398848
 30
0.0
 41
1.0
 10
-1543.0173616423203
 20
-10510.755034122329
 30
0.0
 41
1.0
 10
-1543.0165368298956
 20
-10510.783064845808
 30
0.0
 41
1.0
 10
-1543.013160868818
 20
-10510.897794726927
 30
0.0
 41
0.9995314902262262
 10
-1543.016811060957
 20
-10511.012516210692
 30
0.0
 41
1.0
 10
-1543.0204612530958
 20
-10511.127237694451
 30
0.0
 41
0.9996245486943602
 10
-1543.0303903482263
 20
-10511.241586965567
 30
0.0
 41
1.0
 10
-1543.0305533962205
 20
-10511.243464721701
 30
0.0
 41
1.0
 10
-1543.0307164442147
 20
-10511.245342477838
 30
0.0
 41
1.0
 10
-1543.0409716353365
 20
-10511.363447261248
 30
0.0
 41
0.999728609500218
 10
-1543.056716958906
 20
-10511.48094617013
 30
0.0
 41
1.0
 10
-1543.0571104515561
 20
-10511.48388259483
 30
0.0
 41
1.0
 10
-1543.0575039442062
 20
-10511.48681901953
 30
0.0
 41
1.0
 10
-1543.0740362530757
 20
-10511.610190777814
 30
0.0
 41
0.9998265533968653
 10
-1543.0951517118103
 20
-10511.732861252613
 30
0.0
 41
1.0
 10
-1543.0958282539477
 20
-10511.736791631123
 30
0.0
 41
1.0
 10
-1543.0965047960854
 20
-10511.740722009632
 30
0.0
 41
1.0
 10
-1543.1189733390895
 20
-10511.871253241425
 30
0.0
 41
0.9999022530850337
 10
-1543.1450828037036
 20
-10512.00110521008
 30
0.0
 41
1.0
 10
-1543.1460614448683
 20
-10512.005972352465
 30
0.0
 41
1.0
 10
-1543.147040086033
 20
-10512.010839494847
 30
0.0
 41
1.0
 10
-1543.175106832965
 20
-10512.150425748223
 30
0.0
 41
0.9999524761936178
 10
-1543.2058898018108
 20
-10512.289438241436
 30
0.0
 41
1.0
 10
-1543.2071659089852
 20
-10512.295201000732
 30
0.0
 41
1.0
 10
-1543.2084420161593
 20
-10512.30096376003
 30
0.0
 41
1.0
 10
-1543.2417771993603
 20
-10512.451501771864
 30
0.0
 41
0.9999813588712521
 10
-1543.2769482001379
 20
-10512.601621484446
 30
0.0
 41
1.0
 10
-1543.2785021255959
 20
-10512.608254074874
 30
0.0
 41
1.0
 10
-1543.2800560510539
 20
-10512.614886665302
 30
0.0
 41
1.0
 10
-1543.3183349027452
 20
-10512.778271558727
 30
0.0
 41
0.9999955237672541
 10
-1543.3575907807437
 20
-10512.941424462411
 30
0.0
 41
1.0
 10
-1543.3698724163778
 20
-10512.992468652934
 30
0.0
 41
1.0
 10
-1543.3821540520121
 20
-10513.043512843455
 30
0.0
 41
1.0
 10
-1543.4459732012626
 20
-10513.308754128115
 30
0.0
 41
0.9999993604429537
 10
-1543.5103921484433
 20
-10513.573850378851
 30
0.0
 41
1.0
 10
-1543.5151109839833
 20
-10513.593269286863
 30
0.0
 41
1.0
 10
-1543.5198298195232
 20
-10513.612688194873
 30
0.0
 41
1.0
 10
-1543.5936864377968
 20
-10513.916622261682
 30
0.0
 41
0.99996599147316
 10
-1543.6725460336745
 20
-10514.219296808211
 30
0.0
 41
1.0
 10
-1543.6774987226026
 20
-10514.238305945382
 30
0.0
 41
1.0
 10
-1543.6824514115306
 20
-10514.257315082556
 30
0.0
 41
1.0
 10
-1543.7712163852839
 20
-10514.598007903505
 30
0.0
 41
0.9999441976025127
 10
-1543.8671594182408
 20
-10514.936749328779
 30
0.0
 41
1.0
 10
-1543.8838599366654
 20
-10514.995713041304
 30
0.0
 41
1.0
 10
-1543.9005604550903
 20
-10515.054676753829
 30
0.0
 41
1.0
 10
-1544.0299045249103
 20
-10515.5113456042
 30
0.0
 41
0.9999625120736186
 10
-1544.1671372922233
 20
-10515.965706138162
 30
0.0
 41
1.0
 10
-1544.2029272353122
 20
-10516.08420216481
 30
0.0
 41
1.0
 10
-1544.2387171784012
 20
-10516.202698191455
 30
0.0
 41
1.0
 10
-1544.3132373824576
 20
-10516.449425269608
 30
0.0
 41
0.9999793386306848
 10
-1544.3909234055727
 20
-10516.695173908771
 30
0.0
 41
1.0
 10
-1544.4686094287104
 20
-10516.940922548007
 30
0.0
 41
1.0
 10
-1544.4793889875812
 20
-10516.974940452383
 30
0.0
 41
1.0
 10
-1546.3297620408503
 20
-10522.86201237485
 30
0.0
 41
1.0
 10
-1548.1801350941196
 20
-10528.749084297317
 30
0.0
 41
1.0
 10
-1549.141391784143
 20
-10528.749084297317
 30
0.0
 41
1.0
 10
-1550.1026484741665
 20
-10528.749084297317
 30
0.0
 41
1.0
 10
-1548.4837036954882
 20
-10523.601055795527
 30
0.0
 41
1.0
 10
-1546.8647589168097
 20
-10518.453027293737
 30
0.0
 41
1.0
 10
-1546.819593093634
 20
-10518.308996071464
 30
0.0
 41
1.0
 10
-1546.7744272704585
 20
-10518.164964849189
 30
0.0
 41
1.0
 10
-1546.6041228531119
 20
-10517.621873820079
 30
0.0
 41
0.9999911657889786
 10
-1546.4383900414182
 20
-10517.077370288673
 30
0.0
 41
1.0
 10
-1546.4086940979162
 20
-10516.979806348616
 30
0.0
 41
1.0
 10
-1546.3789981544141
 20
-10516.882242408561
 30
0.0
 41
1.0
 10
-1546.2726572297252
 20
-10516.53286675727
 30
0.0
 41
0.9999952428173754
 10
-1546.1684736404129
 20
-10516.18284173296
 30
0.0
 41
1.0
 10
-1546.163414170089
 20
-10516.165843458713
 30
0.0
 41
1.0
 10
-1546.1583546997651
 20
-10516.148845184467
 30
0.0
 41
1.0
 10
-1546.0642900510697
 20
-10515.832816708546
 30
0.0
 41
0.9999931687540558
 10
-1545.9725642132144
 20
-10515.516101495337
 30
0.0
 41
1.0
 10
-1545.9676289487525
 20
-10515.499060786058
 30
0.0
 41
1.0
 10
-1545.9626936842906
 20
-10515.482020076779
 30
0.0
 41
1.0
 10
-1545.8808383753453
 20
-10515.199386282082
 30
0.0
 41
0.9999893840785328
 10
-1545.801591148884
 20
-10514.916010152821
 30
0.0
 41
1.0
 10
-1545.722343922439
 20
-10514.632634023619
 30
0.0
 41
0.9999833980065804
 10
-1545.6463676816918
 20
-10514.348363440569
 30
0.0
 41
1.0
 10
-1545.6373637449665
 20
-10514.31467456208
 30
0.0
 41
1.0
 10
-1545.6283598082414
 20
-10514.280985683592
 30
0.0
 41
1.0
 10
-1545.5593952593752
 20
-10514.022949851294
 30
0.0
 41
0.9999233658064514
 10
-1545.4968402881536
 20
-10513.763285692568
 30
0.0
 41
1.0
 10
-1545.4342853169333
 20
-10513.503621533846
 30
0.0
 41
1.0
 10
-1545.3948018980757
 20
-10513.33981486942
 30
0.0
 41
1.0
 10
-1545.3898232940992
 20
-10513.319159907551
 30
0.0
 41
1.0
 10
-1545.3848446901225
 20
-10513.298504945684
 30
0.0
 41
1.0
 10
-1545.3553184792174
 20
-10513.176008204991
 30
0.0
 41
0.9999868670877824
 10
-1545.3270493952218
 20
-10513.053215259348
 30
0.0
 41
1.0
 10
-1545.3231519080618
 20
-10513.03628567192
 30
0.0
 41
1.0
 10
-1545.3192544209016
 20
-10513.019356084493
 30
0.0
 41
1.0
 10
-1545.2987803112139
 20
-10512.930422313646
 30
0.0
 41
0.9999778173353765
 10
-1545.2794927131104
 20
-10512.841223696472
 30
0.0
 41
1.0
 10
-1545.2602051149913
 20
-10512.752025079226
 30
0.0
 41
0.9999602692863288
 10
-1545.2425107563624
 20
-10512.662496790806
 30
0.0
 41
1.0
 10
-1545.2393069242858
 20
-10512.646286335927
 30
0.0
 41
1.0
 10
-1545.2361030922089
 20
-10512.630075881045
 30
0.0
 41
1.0
 10
-1545.2120010694202
 20
-10512.508126682833
 30
0.0
 41
0.9995617985319166
 10
-1545.1951577222048
 20
-10512.384964935145
 30
0.0
 41
1.0
 10
-1545.1926932322986
 20
-10512.366944117781
 30
0.0
 41
1.0
 10
-1545.1902287423923
 20
-10512.348923300415
 30
0.0
 41
1.0
 10
-1545.1699454813447
 20
-10512.200608250716
 30
0.0
 41
0.9991121410641776
 10
-1545.1622201277551
 20
-10512.051112151901
 30
0.0
 41
1.0
 10
-1545.16130133773
 20
-10512.033332315317
 30
0.0
 41
1.0
 10
-1545.1603825477052
 20
-10512.015552478735
 30
0.0
 41
1.0
 10
-1545.1544947741656
 20
-10511.901616053088
 30
0.0
 41
0.998979249490123
 10
-1545.1589138662841
 20
-10511.787613217197
 30
0.0
 41
1.0
 10
-1545.1595618381525
 20
-10511.770896971273
 30
0.0
 41
1.0
 10
-1545.1602098100211
 20
-10511.754180725349
 30
0.0
 41
1.0
 10
-1545.1633329584015
 20
-10511.673610381313
 30
0.0
 41
0.9997820295396654
 10
-1545.1698169557772
 20
-10511.593240659555
 30
0.0
 41
1.0
 10
-1545.1763009531551
 20
-10511.512870937795
 30
0.0
 41
0.9998335105974523
 10
-1545.1857131486627
 20
-10511.432791321376
 30
0.0
 41
1.0
 10
-1545.1873080733399
 20
-10511.419221590884
 30
0.0
 41
1.0
 10
-1545.1889029980173
 20
-10511.405651860394
 30
0.0
 41
1.0
 10
-1545.2015050428813
 20
-10511.29843278298
 30
0.0
 41
0.9996876457879071
 10
-1545.2194489556782
 20
-10511.191977355273
 30
0.0
 41
1.0
 10
-1545.2216806188258
 20
-10511.178737620019
 30
0.0
 41
1.0
 10
-1545.2239122819731
 20
-10511.165497884766
 30
0.0
 41
1.0
 10
-1545.2377081033924
 20
-10511.083651740813
 30
0.0
 41
0.9995547496492793
 10
-1545.2563614252842
 20
-10511.002774243629
 30
0.0
 41
1.0
 10
-1545.2567353821555
 20
-10511.001152832923
 30
0.0
 41
1.0
 10
-1545.2571093390268
 20
-10510.999531422218
 30
0.0
 41
1.0
 10
-1545.2750147471743
 20
-10510.921896746453
 30
0.0
 41
0.999489942718042
 10
-1545.2978396558563
 20
-10510.845563463605
 30
0.0
 41
1.0
 10
-1545.2982981825971
 20
-10510.844030013815
 30
0.0
 41
1.0
 10
-1545.2987567093382
 20
-10510.842496564026
 30
0.0
 41
1.0
 10
-1545.320664564533
 20
-10510.769230180775
 30
0.0
 41
0.9993784877586532
 10
-1545.3476801996421
 20
-10510.69768947561
 30
0.0
 41
1.0
 10
-1545.3482118906163
 20
-10510.696281492896
 30
0.0
 41
1.0
 10
-1545.3487435815903
 20
-10510.694873510183
 30
0.0
 41
1.0
 10
-1545.3746958347485
 20
-10510.626148770449
 30
0.0
 41
0.9992430832250696
 10
-1545.405912369908
 20
-10510.559649618383
 30
0.0
 41
1.0
 10
-1545.4064944859681
 20
-10510.558409563258
 30
0.0
 41
1.0
 10
-1545.4070766020282
 20
-10510.557169508133
 30
0.0
 41
1.0
 10
-1545.4371289050732
 20
-10510.493150466304
 30
0.0
 41
0.999078963280148
 10
-1545.4725595318441
 20
-10510.431943854564
 30
0.0
 41
1.0
 10
-1545.4731552380256
 20
-10510.430914768705
 30
0.0
 41
1.0
 10
-1545.473750944207
 20
-10510.429885682848
 30
0.0
 41
1.0
 10
-1545.5079901586196
 20
-10510.370737242818
 30
0.0
 41
0.9988874801123995
 10
-1545.5476494346531
 20
-10510.315077530398
 30
0.0
 41
1.0
 10
-1545.5482049607194
 20
-10510.314297878722
 30
0.0
 41
1.0
 10
-1545.548760486786
 20
-10510.313518227043
 30
0.0
 41
1.0
 10
-1545.5873087106897
 20
-10510.259417817973
 30
0.0
 41
0.9986762060682356
 10
-1545.6312111819611
 20
-10510.209564103541
 30
0.0
 41
1.0
 10
-1545.6316551422983
 20
-10510.209059961719
 30
0.0
 41
1.0
 10
-1545.6320991026357
 20
-10510.208555819896
 30
0.0
 41
1.0
 10
-1545.6751136532414
 20
-10510.159710389096
 30
0.0
 41
0.9984621642484985
 10
-1545.7232712100149
 20
-10510.115927088631
 30
0.0
 41
1.0
 10
-1545.7235178445344
 20
-10510.115702856465
 30
0.0
 41
1.0
 10
-1545.7237644790541
 20
-10510.115478624299
 30
0.0
 41
1.0
 10
-1545.7714287667936
 20
-10510.072143788157
 30
0.0
 41
0.9982724693840457
 10
-1545.8238473986344
 20
-10510.034699437641
 30
0.0
 41
1.0
 10
-1545.8762660304737
 20
-10509.997255087126
 30
0.0
 41
0.9981399180164831
 10
-1545.9328520938609
 20
-10509.966468567685
 30
0.0
 41
1.0
 10
-1545.9328977559435
 20
-10509.966443724526
 30
0.0
 41
1.0
 10
-1545.9329434180258
 20
-10509.966418881366
 30
0.0
 41
1.0
 10
-1545.9896208055768
 20
-10509.935582675609
 30
0.0
 41
0.9980927086844128
 10
-1546.0496661566415
 20
-10509.911965866757
 30
0.0
 41
1.0
 10
-1546.0501063263537
 20
-10509.911792740881
 30
0.0
 41
1.0
 10
-1546.0505464960661
 20
-10509.911619615006
 30
0.0
 41
1.0
 10
-1546.1114721865617
 20
-10509.887656554401
 30
0.0
 41
0.9981411356558274
 10
-1546.1748607079726
 20
-10509.871283912893
 30
0.0
 41
1.0
 10
-1546.1757428246653
 20
-10509.87105607069
 30
0.0
 41
1.0
 10
-1546.1766249413581
 20
-10509.870828228486
 30
0.0
 41
1.0
 10
-1546.2417776961556
 20
-10509.853999902572
 30
0.0
 41
0.998303181293979
 10
-1546.3084451251459
 20
-10509.844860541396
 30
0.0
 41
1.0
 10
-1546.3173161505592
 20
-10509.843644422723
 30
0.0
 41
1.0
 10
-1546.3261871759726
 20
-10509.842428304051
 30
0.0
 41
1.0
 10
-1546.3805368184721
 20
-10509.834977574061
 30
0.0
 41
0.9983887708253721
 10
-1546.43538066776
 20
-10509.833732900428
 30
0.0
 41
1.0
 10
-1546.4434440729642
 20
-10509.833549902552
 30
0.0
 41
1.0
 10
-1546.4515074781682
 20
-10509.833366904679
 30
0.0
 41
1.0
 10
-1546.4902245170395
 20
-10509.832488226793
 30
0.0
 41
0.9998869563076941
 10
-1546.5289504702555
 20
-10509.832774096154
 30
0.0
 41
1.0
 10
-1546.5676764235366
 20
-10509.833059965513
 30
0.0
 41
0.9999972320222875
 10
-1546.6064006028244
 20
-10509.833528065043
 30
0.0
 41
1.0
 10
-1546.6257536193266
 20
-10509.833762005132
 30
0.0
 41
1.0
 10
-1546.6451066358288
 20
-10509.833995945221
 30
0.0
 41
1.0
 10
-1546.7225368481641
 20
-10509.834931924928
 30
0.0
 41
0.9997304945087303
 10
-1546.7998401543671
 20
-10509.839461018712
 30
0.0
 41
1.0
 10
-1546.8088897961065
 20
-10509.839991224704
 30
0.0
 41
1.0
 10
-1546.8179394378458
 20
-10509.840521430695
 30
0.0
 41
1.0
 10
-1546.9133420274852
 20
-10509.846110936462
 30
0.0
 41
0.9997888306417609
 10
-1547.0084343633193
 20
-10509.855615900948
 30
0.0
 41
1.0
 10
-1547.0171554248996
 20
-10509.85648761558
 30
0.0
 41
1.0
 10
-1547.0258764864798
 20
-10509.857359330214
 30
0.0
 41
1.0
 10
-1547.1384109454614
 20
-10509.868607723967
 30
0.0
 41
0.9984170238195151
 10
-1547.2489700928043
 20
-10509.892423805899
 30
0.0
 41
1.0
 10
-1547.2853512237975
 20
-10509.900260841707
 30
0.0
 41
1.0
 10
-1547.3217323547906
 20
-10509.908097877515
 30
0.0
 41
1.0
 10
-1547.4369234232126
 20
-10509.932911744025
 30
0.0
 41
0.9976592854199679
 10
-1547.5476515896187
 20
-10509.973210421173
 30
0.0
 41
1.0
 10
-1547.6583797560261
 20
-10510.013509098322
 30
0.0
 41
0.9993255074354949
 10
-1547.7658515548239
 20
-10510.061825996816
 30
0.0
 41
1.0
 10
-1547.7704767337425
 20
-10510.063905373014
 30
0.0
 41
1.0
 10
-1547.7751019126611
 20
-10510.065984749212
 30
0.0
 41
1.0
 10
-1547.8918240692906
 20
-10510.118460400099
 30
0.0
 41
0.9976475078274391
 10
-1548.0002714135937
 20
-10510.186408389753
 30
0.0
 41
1.0
 10
-1548.0186138077388
 20
-10510.197900868574
 30
0.0
 41
1.0
 10
-1548.0369562018836
 20
-10510.209393347393
 30
0.0
 41
1.0
 10
-1548.1211583934326
 20
-10510.262150468161
 30
0.0
 41
0.9995131336406152
 10
-1548.2019061083879
 20
-10510.320056680113
 30
0.0
 41
1.0
 10
-1548.2826538233455
 20
-10510.377962892066
 30
0.0
 41
0.9995810107604424
 10
-1548.3599154710801
 20
-10510.440444574537
 30
0.0
 41
1.0
 10
-1548.3628855022871
 20
-10510.442846446
 30
0.0
 41
1.0
 10
-1548.3658555334944
 20
-10510.445248317461
 30
0.0
 41
1.0
 10
-1548.4490572436559
 20
-10510.512533742865
 30
0.0
 41
0.9996617837950828
 10
-1548.528647930794
 20
-10510.584054198429
 30
0.0
 41
1.0
 10
-1548.5407786816791
 20
-10510.594954931426
 30
0.0
 41
1.0
 10
-1548.5529094325639
 20
-10510.605855664424
 30
0.0
 41
1.0
 10
-1548.6211849599558
 20
-10510.667208279894
 30
0.0
 41
0.9997267750051095
 10
-1548.6865184682138
 20
-10510.731684816396
 30
0.0
 41
1.0
 10
-1548.7518519764901
 20
-10510.796161352913
 30
0.0
 41
0.9999667288963354
 10
-1548.8161249196703
 20
-10510.861695159841
 30
0.0
 41
1.0
 10
-1548.8849523674323
 20
-10510.931872818586
 30
0.0
 41
1.0
 10
-1548.9537798151944
 20
-10511.002050477331
 30
0.0
 41
1.0
 10
-1549.1557076538818
 20
-10511.207939601733
 30
0.0
 41
0.9988205335176733
 10
-1549.3367132708588
 20
-10511.432443833788
 30
0.0
 41
1.0
 10
-1549.3673532357693
 20
-10511.470447084226
 30
0.0
 41
1.0
 10
-1549.39799320068
 20
-10511.508450334662
 30
0.0
 41
1.0
 10
-1549.6402787474651
 20
-10511.80896106758
 30
0.0
 41
0.9997077826755401
 10
-1549.8677566985848
 20
-10512.120830861813
 30
0.0
 41
1.0
 10
-1549.8694801137099
 20
-10512.123193645186
 30
0.0
 41
1.0
 10
-1549.8712035288352
 20
-10512.125556428558
 30
0.0
 41
1.0
 10
-1550.1021283101993
 20
-10512.44215178953
 30
0.0
 41
0.998914756707829
 10
-1550.302591813087
 20
-10512.778861250723
 30
0.0
 41
1.0
 10
-1550.3273329583876
 20
-10512.820417831264
 30
0.0
 41
1.0
 10
-1550.3520741036884
 20
-10512.861974411806
 30
0.0
 41
1.0
 10
-1550.5072854023281
 20
-10513.122675796261
 30
0.0
 41
0.999747659818141
 10
-1550.6506303898457
 20
-10513.390085544859
 30
0.0
 41
1.0
 10
-1550.7939753773612
 20
-10513.657495293453
 30
0.0
 41
0.9996258967109838
 10
-1550.9224836292908
 20
-10513.932343230075
 30
0.0
 41
1.0
 10
-1550.9356835387391
 20
-10513.960574630168
 30
0.0
 41
1.0
 10
-1550.9488834481874
 20
-10513.98880603026
 30
0.0
 41
1.0
 10
-1551.0890921691896
 20
-10514.288678428218
 30
0.0
 41
0.9998735413944271
 10
-1551.2196935159068
 20
-10514.592858027678
 30
0.0
 41
1.0
 10
-1551.2231363439741
 20
-10514.600876613158
 30
0.0
 41
1.0
 10
-1551.2265791720417
 20
-10514.608895198638
 30
0.0
 41
1.0
 10
-1551.3502948626447
 20
-10514.897037627186
 30
0.0
 41
0.9999377418858793
 10
-1551.4675496648019
 20
-10515.187869094822
 30
0.0
 41
1.0
 10
-1551.5848044669642
 20
-10515.478700562466
 30
0.0
 41
0.9999508299504227
 10
-1551.6962684103526
 20
-10515.771800239314
 30
0.0
 41
1.0
 10
-1551.6993491790158
 20
-10515.779901265279
 30
0.0
 41
1.0
 10
-1551.7024299476793
 20
-10515.788002291247
 30
0.0
 41
1.0
 10
-1551.8200554283753
 20
-10516.097304019975
 30
0.0
 41
0.9999609228428238
 10
-1551.9321940312434
 20
-10516.408637035976
 30
0.0
 41
1.0
 10
-1551.9351500415992
 20
-10516.416843876403
 30
0.0
 41
1.0
 10
-1551.9381060519549
 20
-10516.425050716829
 30
0.0
 41
1.0
 10
-1552.0561566755177
 20
-10516.752797413637
 30
0.0
 41
0.9999674607400949
 10
-1552.168904201596
 20
-10517.082406033656
 30
0.0
 41
1.0
 10
-1552.2203025921619
 20
-10517.23266522936
 30
0.0
 41
1.0
 10
-1552.2717009827279
 20
-10517.382924425061
 30
0.0
 41
1.0
 10
-1552.3877115894709
 20
-10517.722072407521
 30
0.0
 41
0.9999287532308898
 10
-1552.4955929934499
 20
-10518.063893146522
 30
0.0
 41
1.0
 10
-1552.542070249583
 20
-10518.211155690875
 30
0.0
 41
1.0
 10
-1552.5885475057164
 20
-10518.358418235228
 30
0.0
 41
1.0
 10
-1552.6034743973103
 20
-10518.405713885148
 30
0.0
 41
0.9999998222633365
 10
-1552.6183449061512
 20
-10518.453027293737
 30
0.0
 41
1.0
 10
-1554.2390010429467
 20
-10523.601055795527
 30
0.0
 41
1.0
 10
-1555.859657179742
 20
-10528.749084297317
 30
0.0
 41
1.0
 10
-1556.7649656236331
 20
-10528.749084297317
 30
0.0
 41
1.0
 10
-1557.6702740675239
 20
-10528.749084297317
 30
0.0
 41
1.0
 10
-1555.8181896561377
 20
-10522.86201237485
 30
0.0
 41
1.0
 10
-1553.9661052447518
 20
-10516.974940452383
 30
0.0
 41
1.0
 10
-1553.955983486449
 20
-10516.942897238932
 30
0.0
 41
1.0
 10
-1553.8833758175992
 20
-10516.712597697107
 30
0.0
 41
1.0
 10
-1553.810768148757
 20
-10516.482298155304
 30
0.0
 41
0.9999825681971005
 10
-1553.7408851095413
 20
-10516.251157260225
 30
0.0
 41
1.0
 10
-1553.6925940473811
 20
-10516.091432676731
 30
0.0
 41
1.0
 10
-1553.6443029852207
 20
-10515.931708093238
 30
0.0
 41
1.0
 10
-1553.5471506319022
 20
-10515.610372871459
 30
0.0
 41
0.9999672528961865
 10
-1553.4552118262773
 20
-10515.287507325866
 30
0.0
 41
1.0
 10
-1553.4524229426083
 20
-10515.277713480478
 30
0.0
 41
1.0
 10
-1553.4496340589392
 20
-10515.267919635091
 30
0.0
 41
1.0
 10
-1553.3632730206334
 20
-10514.964641780211
 30
0.0
 41
0.9999899749172521
 10
-1553.2796314111192
 20
-10514.660602691827
 30
0.0
 41
1.0
 10
-1553.2695254921
 20
-10514.623867454142
 30
0.0
 41
1.0
 10
-1553.259419573081
 20
-10514.587132216458
 30
0.0
 41
1.0
 10
-1553.1959898015925
 20
-10514.356563603405
 30
0.0
 41
0.9999214200504032
 10
-1553.1383603732068
 20
-10514.124477261164
 30
0.0
 41
1.0
 10
-1553.1255945210235
 20
-10514.073066375757
 30
0.0
 41
1.0
 10
-1553.1128286688402
 20
-10514.021655490351
 30
0.0
 41
1.0
 10
-1553.0807309448307
 20
-10513.892390918965
 30
0.0
 41
0.9999828681658851
 10
-1553.0501486928338
 20
-10513.762759444489
 30
0.0
 41
1.0
 10
-1553.0195664408316
 20
-10513.63312796999
 30
0.0
 41
0.9999389844480616
 10
-1552.991855452048
 20
-10513.502852514115
 30
0.0
 41
1.0
 10
-1552.9847177083284
 20
-10513.46929641028
 30
0.0
 41
1.0
 10
-1552.9775799646086
 20
-10513.435740306446
 30
0.0
 41
1.0
 10
-1552.9355934883838
 20
-10513.238352642895
 30
0.0
 41
0.9998933699438238
 10
-1552.8993892239766
 20
-10513.039823035113
 30
0.0
 41
1.0
 10
-1552.8980163987603
 20
-10513.032295014416
 30
0.0
 41
1.0
 10
-1552.896643573544
 20
-10513.02476699372
 30
0.0
 41
1.0
 10
-1552.8576936587083
 20
-10512.811181344563
 30
0.0
 41
0.9996850305193563
 10
-1552.82950998245
 20
-10512.595910339129
 30
0.0
 41
1.0
 10
-1552.8275149490805
 20
-10512.580671985006
 30
0.0
 41
1.0
 10
-1552.8255199157113
 20
-10512.565433630883
 30
0.0
 41
1.0
 10
-1552.7981120532527
 20
-10512.356088403734
 30
0.0
 41
0.9994697936706534
 10
-1552.7843874940331
 20
-10512.145403208402
 30
0.0
 41
1.0
 10
-1552.7839104247832
 20
-10512.138079736189
 30
0.0
 41
1.0
 10
-1552.7834333555336
 20
-10512.130756263976
 30
0.0
 41
1.0
 10
-1552.7706629348127
 20
-10511.934718013068
 30
0.0
 41
0.9991804893135459
 10
-1552.7737912510863
 20
-10511.738289163099
 30
0.0
 41
1.0
 10
-1552.7738751299084
 20
-10511.733022361683
 30
0.0
 41
1.0
 10
-1552.7739590087306
 20
-10511.727755560267
 30
0.0
 41
1.0
 10
-1552.7769195673584
 20
-10511.541860313118
 30
0.0
 41
0.9988448329318895
 10
-1552.7977111129828
 20
-10511.357107723292
 30
0.0
 41
1.0
 10
-1552.7993051866858
 20
-10511.342942867521
 30
0.0
 41
1.0
 10
-1552.8008992603889
 20
-10511.32877801175
 30
0.0
 41
1.0
 10
-1552.8185026586057
 20
-10511.17235513346
 30
0.0
 41
0.9985503209456624
 10
-1552.8528189309061
 20
-10511.018730949369
 30
0.0
 41
1.0
 10
-1552.8604049229771
 20
-10510.98477062197
 30
0.0
 41
1.0
 10
-1552.8679909150483
 20
-10510.950810294569
 30
0.0
 41
1.0
 10
-1552.8871352032065
 20
-10510.865106765274
 30
0.0
 41
0.9991036781367827
 10
-1552.9134600648567
 20
-10510.781329677953
 30
0.0
 41
1.0
 10
-1552.9174422903166
 20
-10510.768656515431
 30
0.0
 41
1.0
 10
-1552.9214245157762
 20
-10510.755983352909
 30
0.0
 41
1.0
 10
-1552.9397849265138
 20
-10510.697552590609
 30
0.0
 41
0.9998874504367136
 10
-1552.9598901341865
 20
-10510.639698988405
 30
0.0
 41
1.0
 10
-1552.9799953418644
 20
-10510.581845386187
 30
0.0
 41
0.9994041637548797
 10
-1553.004043954799
 20
-10510.525516682294
 30
0.0
 41
1.0
 10
-1553.0082407390212
 20
-10510.515686617815
 30
0.0
 41
1.0
 10
-1553.0124375232433
 20
-10510.505856553338
 30
0.0
 41
1.0
 10
-1553.0403163542405
 20
-10510.440556387364
 30
0.0
 41
0.9991846840701406
 10
-1553.073372710935
 20
-10510.377718356081
 30
0.0
 41
1.0
 10
-1553.0745093173286
 20
-10510.37555773963
 30
0.0
 41
1.0
 10
-1553.0756459237223
 20
-10510.373397123178
 30
0.0
 41
1.0
 10
-1553.1064290676281
 20
-10510.3148803248
 30
0.0
 41
0.9989253167919554
 10
-1553.142498491683
 20
-10510.259465396412
 30
0.0
 41
1.0
 10
-1553.1435526163598
 20
-10510.257845901644
 30
0.0
 41
1.0
 10
-1553.1446067410366
 20
-10510.256226406878
 30
0.0
 41
1.0
 10
-1553.1785679157438
 20
-10510.204050468014
 30
0.0
 41
0.9986467172840932
 10
-1553.2177650683752
 20
-10510.15568443439
 30
0.0
 41
1.0
 10
-1553.2186391970722
 20
-10510.154605832116
 30
0.0
 41
1.0
 10
-1553.2195133257692
 20
-10510.153527229842
 30
0.0
 41
1.0
 10
-1553.2569622210115
 20
-10510.107318400764
 30
0.0
 41
0.9984001104280253
 10
-1553.2993889515299
 20
-10510.065633293392
 30
0.0
 41
1.0
 10
-1553.2999760896409
 20
-10510.065056418509
 30
0.0
 41
1.0
 10
-1553.300563227752
 20
-10510.064479543626
 30
0.0
 41
1.0
 10
-1553.3418156820487
 20
-10510.023948186021
 30
0.0
 41
0.9982442159085698
 10
-1553.3875717833826
 20
-10509.988579624762
 30
0.0
 41
1.0
 10
-1553.3877865788477
 20
-10509.988413592117
 30
0.0
 41
1.0
 10
-1553.388001374313
 20
-10509.98824755947
 30
0.0
 41
1.0
 10
-1553.4333278847264
 20
-10509.953211063497
 30
0.0
 41
0.9982450060836315
 10
-1553.48247886379
 20
-10509.923779280471
 30
0.0
 41
1.0
 10
-1553.5316298428604
 20
-10509.894347497437
 30
0.0
 41
0.9983922639635759
 10
-1553.5837961490267
 20
-10509.870667862782
 30
0.0
 41
1.0
 10
-1553.5840230263511
 20
-10509.870564877301
 30
0.0
 41
1.0
 10
-1553.5842499036755
 20
-10509.87046189182
 30
0.0
 41
1.0
 10
-1553.6368699644879
 20
-10509.846576286203
 30
0.0
 41
0.9986517147145954
 10
-1553.6916829373595
 20
-10509.828275167079
 30
0.0
 41
1.0
 10
-1553.6923608587863
 20
-10509.828048820647
 30
0.0
 41
1.0
 10
-1553.6930387802131
 20
-10509.827822474217
 30
0.0
 41
1.0
 10
-1553.7492075959328
 20
-10509.809068662234
 30
0.0
 41
0.9989435598954616
 10
-1553.806860983085
 20
-10509.79555096
 30
0.0
 41
1.0
 10
-1553.8079411026683
 20
-10509.795297709747
 30
0.0
 41
1.0
 10
-1553.8090212222514
 20
-10509.795044459494
 30
0.0
 41
1.0
 10
-1553.8688348485732
 20
-10509.781020256751
 30
0.0
 41
0.9992249241236445
 10
-1553.929566357481
 20
-10509.771744914035
 30
0.0
 41
1.0
 10
-1553.9309800457631
 20
-10509.771529005629
 30
0.0
 41
1.0
 10
-1553.9323937340455
 20
-10509.771313097222
 30
0.0
 41
1.0
 10
-1553.9959526195182
 20
-10509.761605937692
 30
0.0
 41
0.9994396597835401
 10
-1554.060018556052
 20
-10509.756173015345
 30
0.0
 41
1.0
 10
-1554.0791592235348
 20
-10509.754549847625
 30
0.0
 41
1.0
 10
-1554.0982998910176
 20
-10509.752926679907
 30
0.0
 41
1.0
 10
-1554.2006471624993
 20
-10509.744247422126
 30
0.0
 41
0.998769340312431
 10
-1554.3033507860748
 20
-10509.745750485577
 30
0.0
 41
1.0
 10
-1554.313605120313
 20
-10509.745900557351
 30
0.0
 41
1.0
 10
-1554.3238594545512
 20
-10509.746050629125
 30
0.0
 41
1.0
 10
-1554.4334152207302
 20
-10509.747653973413
 30
0.0
 41
0.9989753644968583
 10
-1554.5423772207471
 20
-10509.759156980337
 30
0.0
 41
1.0
 10
-1554.6513392207528
 20
-10509.770659987262
 30
0.0
 41
0.9983190067315967
 10
-1554.7582380317062
 20
-10509.794694979044
 30
0.0
 41
1.0
 10
-1554.767138983324
 20
-10509.79669625761
 30
0.0
 41
1.0
 10
-1554.776039934942
 20
-10509.798697536175
 30
0.0
 41
1.0
 10
-1554.9007406491314
 20
-10509.826735085089
 30
0.0
 41
0.9985539388302313
 10
-1555.0217104028238
 20
-10509.867998761141
 30
0.0
 41
1.0
 10
-1555.0240558337714
 20
-10509.868798804953
 30
0.0
 41
1.0
 10
-1555.026401264719
 20
-10509.869598848763
 30
0.0
 41
1.0
 10
-1555.1520618803188
 20
-10509.912462612441
 30
0.0
 41
0.9988468746494597
 10
-1555.2730322226187
 20
-10509.967180697504
 30
0.0
 41
1.0
 10
-1555.2762150446069
 20
-10509.968620372063
 30
0.0
 41
1.0
 10
-1555.2793978665952
 20
-10509.970060046624
 30
0.0
 41
1.0
 10
-1555.4067338528805
 20
-10510.02765748081
 30
0.0
 41
0.9991322885921475
 10
-1555.5288344369417
 20
-10510.095652812994
 30
0.0
 41
1.0
 10
-1555.546436447971
 20
-10510.105455014975
 30
0.0
 41
1.0
 10
-1555.5640384590004
 20
-10510.115257216958
 30
0.0
 41
1.0
 10
-1555.6662151400637
 20
-10510.172157332743
 30
0.0
 41
0.9993860037853801
 10
-1555.7641561441483
 20
-10510.236073348337
 30
0.0
 41
1.0
 10
-1555.7697744569757
 20
-10510.239739843015
 30
0.0
 41
1.0
 10
-1555.7753927698031
 20
-10510.243406337693
 30
0.0
 41
1.0
 10
-1555.8620971482103
 20
-10510.299989363919
 30
0.0
 41
0.9998821494955309
 10
-1555.9470235240342
 20
-10510.359207594003
 30
0.0
 41
1.0
 10
-1556.0319498998761
 20
-10510.418425824098
 30
0.0
 41
0.999797648274134
 10
-1556.1144255302843
 20
-10510.481012232145
 30
0.0
 41
1.0
 10
-1556.1290617950724
 20
-10510.492118921913
 30
0.0
 41
1.0
 10
-1556.1436980598605
 20
-10510.503225611679
 30
0.0
 41
1.0
 10
-1556.25544621987
 20
-10510.588025399278
 30
0.0
 41
0.9998091630801257
 10
-1556.3637964979175
 20
-10510.677125749995
 30
0.0
 41
1.0
 10
-1556.3768022503868
 20
-10510.687820850435
 30
0.0
 41
1.0
 10
-1556.3898080028564
 20
-10510.698515950875
 30
0.0
 41
1.0
 10
-1556.5241697858328
 20
-10510.809006502463
 30
0.0
 41
0.9995035112316599
 10
-1556.6513056635858
 20
-10510.927740319468
 30
0.0
 41
1.0
 10
-1556.6609529739794
 20
-10510.936750065632
 30
0.0
 41
1.0
 10
-1556.6706002843732
 20
-10510.945759811795
 30
0.0
 41
1.0
 10
-1556.7940233471415
 20
-10511.061026183555
 30
0.0
 41
0.9994630424300161
 10
-1556.9096317529261
 20
-10511.18412892679
 30
0.0
 41
1.0
 10
-1556.9133145916912
 20
-10511.188050506298
 30
0.0
 41
1.0
 10
-1556.9169974304566
 20
-10511.191972085804
 30
0.0
 41
1.0
 10
-1557.025240158709
 20
-10511.307231670025
 30
0.0
 41
0.9995160693751493
 10
-1557.1261061882419
 20
-10511.428999087897
 30
0.0
 41
1.0
 10
-1557.1280399083153
 20
-10511.431333512097
 30
0.0
 41
1.0
 10
-1557.1299736283884
 20
-10511.433667936295
 30
0.0
 41
1.0
 10
-1557.2269722177693
 20
-10511.550766505765
 30
0.0
 41
0.9996561470514617
 10
-1557.3176984364395
 20
-10511.672789268219
 30
0.0
 41
1.0
 10
-1557.3238561023463
 20
-10511.681071057268
 30
0.0
 41
1.0
 10
-1557.3300137682534
 20
-10511.689352846317
 30
0.0
 41
1.0
 10
-1557.4084246551008
 20
-10511.794812030663
 30
0.0
 41
0.9998349055174192
 10
-1557.4829519370378
 20
-10511.903050614332
 30
0.0
 41
1.0
 10
-1557.5574792189327
 20
-10512.011289197939
 30
0.0
 41
0.9999728109570831
 10
-1557.6304021148617
 20
-10512.120615123522
 30
0.0
 41
1.0
 10
-1557.6317173302828
 20
-10512.122586893038
 30
0.0
 41
1.0
 10
-1557.6330325457036
 20
-10512.124558662556
 30
0.0
 41
1.0
 10
-1557.7085858724561
 20
-10512.237828127145
 30
0.0
 41
0.9999972147435061
 10
-1557.7836036827596
 20
-10512.351452969873
 30
0.0
 41
1.0
 10
-1557.7885752254078
 20
-10512.358983058384
 30
0.0
 41
1.0
 10
-1557.7935467680561
 20
-10512.366513146897
 30
0.0
 41
1.0
 10
-1557.8785076637014
 20
-10512.495198166716
 30
0.0
 41
0.9999371979006434
 10
-1557.9605630131084
 20
-10512.625755080502
 30
0.0
 41
1.0
 10
-1557.9640718974556
 20
-10512.631338008545
 30
0.0
 41
1.0
 10
-1557.967580781803
 20
-10512.636920936586
 30
0.0
 41
1.0
 10
-1558.0566538999387
 20
-10512.778643706506
 30
0.0
 41
0.9998272025609313
 10
-1558.1403972908136
 20
-10512.923579583236
 30
0.0
 41
1.0
 10
-1558.1556124628378
 20
-10512.949912697692
 30
0.0
 41
1.0
 10
-1558.1708276348618
 20
-10512.97624581215
 30
0.0
 41
1.0
 10
-1558.2850013698005
 20
-10513.173847917822
 30
0.0
 41
0.9995217214837561
 10
-1558.3867410593546
 20
-10513.378130245683
 30
0.0
 41
1.0
 10
-1558.3943846219854
 20
-10513.393477695377
 30
0.0
 41
1.0
 10
-1558.4020281846163
 20
-10513.408825145072
 30
0.0
 41
1.0
 10
-1558.4889334772174
 20
-10513.583321603173
 30
0.0
 41
0.9998269762605702
 10
-1558.5692879434794
 20
-10513.760929889879
 30
0.0
 41
1.0
 10
-1558.6496424097622
 20
-10513.938538176626
 30
0.0
 41
0.9998944747386965
 10
-1558.7248032043146
 20
-10514.118405902229
 30
0.0
 41
1.0
 10
-1558.7297568738995
 20
-10514.130260557131
 30
0.0
 41
1.0
 10
-1558.7347105434844
 20
-10514.142115212033
 30
0.0
 41
1.0
 10
-1558.8153576040349
 20
-10514.335112152048
 30
0.0
 41
0.9999506734413509
 10
-1558.8921551329552
 20
-10514.529672956942
 30
0.0
 41
1.0
 10
-1558.9067550982311
 20
-10514.566660878761
 30
0.0
 41
1.0
 10
-1558.921355063507
 20
-10514.603648800579
 30
0.0
 41
1.0
 10
-1558.9689526618386
 20
-10514.724233761748
 30
0.0
 41
0.999991239391344
 10
-1559.0155391058811
 20
-10514.845212964494
 30
0.0
 41
1.0
 10
-1559.0621255499486
 20
-10514.966192167305
 30
0.0
 41
0.999992711392826
 10
-1559.1077868443049
 20
-10515.08752357471
 30
0.0
 41
1.0
 10
-1559.1217552756991
 20
-10515.1246405567
 30
0.0
 41
1.0
 10
-1559.1357237070933
 20
-10515.161757538688
 30
0.0
 41
1.0
 10
-1559.2093218642988
 20
-10515.357322910229
 30
0.0
 41
0.9999487550946411
 10
-1559.2789454892616
 20
-10515.554338275389
 30
0.0
 41
1.0
 10
-1559.3025390991957
 20
-10515.621101585675
 30
0.0
 41
1.0
 10
-1559.32613270913
 20
-10515.687864895961
 30
0.0
 41
1.0
 10
-1559.4208183434873
 20
-10515.955798730749
 30
0.0
 41
0.9999808436944464
 10
-1559.5121799321405
 20
-10516.224884162046
 30
0.0
 41
1.0
 10
-1559.603541520813
 20
-10516.493969593399
 30
0.0
 41
0.9999873932893997
 10
-1559.6921962295046
 20
-10516.763958948337
 30
0.0
 41
1.0
 10
-1559.7122885863716
 20
-10516.825148281083
 30
0.0
 41
1.0
 10
-1559.7323809432387
 20
-10516.886337613829
 30
0.0
 41
1.0
 10
-1559.8612203657231
 20
-10517.278705634431
 30
0.0
 41
0.9999794883026404
 10
-1559.9850231506675
 20
-10517.672691840671
 30
0.0
 41
1.0
 10
-1559.9961754100777
 20
-10517.70818245082
 30
0.0
 41
1.0
 10
-1560.0073276694879
 20
-10517.743673060972
 30
0.0
 41
1.0
 10
-1560.149885833418
 20
-10518.197345813162
 30
0.0
 41
0.9999982761823231
 10
-1560.2907582734413
 20
-10518.651544835309
 30
0.0
 41
1.0
 10
-1561.878898606014
 20
-10523.700314566313
 30
0.0
 41
1.0
 10
-1563.4670389385865
 20
-10528.749084297317
 30
0.0
 41
1.0
 10
-1564.415789550063
 20
-10528.749084297317
 30
0.0
 41
1.0
 10
-1565.3645401615393
 20
-10528.749084297317
 30
0.0
 41
1.0
 10
-1562.1262556753859
 20
-10518.42176209737
 30
0.0
 41
1.0
 10
-1558.8879711892328
 20
-10508.094439897424
 30
0.0
 41
1.0
  0
LWPOLYLINE
  5
55
100
AcDbEntity
  8
0
370
              15
390
0
  6
Continuous
 62
               7
100
AcDbPolyline
 90
      232
 70
             128
 10
-1584.5915169630598
 20
-10509.178782728939
 42
0.0004370800611311
 10
-1584.6443941374114
 20
-10509.247449368559
 10
-1584.6836783682593
 20
-10509.298556481092
 42
0.0030481992132258
 10
-1584.814017085354
 20
-10509.470278173405
 10
-1584.852528757129
 20
-10509.521664957225
 42
0.0042058245766096
 10
-1585.0565138078673
 20
-10509.798670702394
 10
-1585.1089189302995
 20
-10509.87110354908
 42
0.0120948898723813
 10
-1585.4049628470518
 20
-10510.301853153615
 10
-1585.5011553461889
 20
-10510.449333888862
 42
0.0141601263950951
 10
-1585.804799393105
 20
-10510.945003225588
 10
-1585.8443366605309
 20
-10511.01384719302
 42
0.0071131081276127
 10
-1586.0496089837693
 20
-10511.383349991858
 42
0.0068458791001288
 10
-1586.244488510612
 20
-10511.758441555336
 10
-1586.2513003730701
 20
-10511.772003269059
 42
0.0064120880290013
 10
-1586.4494426231195
 20
-10512.179427743988
 10
-1586.4569773086314
 20
-10512.195439600699
 42
0.0058857236467278
 10
-1586.6597327004956
 20
-10512.639815711716
 10
-1586.6679076267969
 20
-10512.658305865367
 42
0.0053189741872176
 10
-1586.8766119394613
 20
-10513.144269339276
 10
-1586.8853597451459
 20
-10513.165251217481
 42
0.004750365041094
 10
-1587.101333471305
 20
-10513.697450650712
 10
-1587.1106017196448
 20
-10513.720927026799
 42
0.0042071762175678
 10
-1587.3351491033791
 20
-10514.304020620884
 10
-1587.3448985057212
 20
-10514.329986795738
 42
0.0036680086494985
 10
-1587.5793531490449
 20
-10514.9686221803
 10
-1587.5895609288812
 20
-10514.997070714613
 42
0.0032573142611659
 10
-1587.8351932148496
 20
-10515.695923374373
 10
-1587.9038437356894
 20
-10515.895386458424
 42
0.0026133366648793
 10
-1588.2522889344464
 20
-10516.925249742093
 10
-1588.3155457219464
 20
-10517.115480577484
 42
0.0020592950745158
 10
-1588.5294087909142
 20
-10517.767584230098
 10
-1588.532460582074
 20
-10517.777020718497
 42
0.0025609928535716
 10
-1588.734281083563
 20
-10518.412165940874
 10
-1588.736872450691
 20
-10518.420468281818
 42
0.0031362356239588
 10
-1588.9263632363668
 20
-10519.041231137995
 10
-1588.9284942792954
 20
-10519.048372444209
 42
0.0037229918026022
 10
-1589.1052946662205
 20
-10519.657357746179
 10
-1589.1069732554299
 20
-10519.663304636364
 42
0.0043077623718897
 10
-1589.2707140574921
 20
-10520.263123368124
 42
0.0047654161812113
 10
-1589.4235427800058
 20
-10520.865809457016
 10
-1589.4580073888471
 20
-10521.007371234175
 42
0.0112969368443893
 10
-1589.6538717469916
 20
-10521.899063394803
 10
-1589.6818781360873
 20
-10522.041891440897
 42
0.0130056762564025
 10
-1589.8827153797338
 20
-10523.228832512541
 10
-1589.9032551298808
 20
-10523.372910626016
 42
0.0138721532158061
 10
-1590.0069581344189
 20
-10524.279740111844
 10
-1590.0262536223281
 20
-10524.503237833784
 42
0.0071254697000859
 10
-1590.0596002682496
 20
-10524.966424842616
 10
-1590.0645612424116
 20
-10525.052428837156
 42
0.0028881799224917
 10
-1590.0796995357027
 20
-10525.34417054702
 42
0.0060297297118147
 10
-1590.0896317354782
 20
-10525.636119483142
 10
-1590.0906940171451
 20
-10525.68451185507
 42
0.0229523164166379
 10
-1590.0829629893594
 20
-10526.007266701352
 10
-1590.0787372158402
 20
-10526.06767023535
 42
0.0123673300631913
 10
-1590.0596585693206
 20
-10526.268790960541
 42
0.0128577674533467
 10
-1590.0304631789127
 20
-10526.468688810481
 10
-1590.0233373055275
 20
-10526.510017625065
 42
0.0285717853727225
 10
-1589.958843303833
 20
-10526.788133776376
 10
-1589.9451747801652
 20
-10526.834788545859
 42
0.0316283099153246
 10
-1589.8293642002511
 20
-10527.153803047682
 10
-1589.8263155084944
 20
-10527.16078942001
 42
0.0338984824262606
 10
-1589.6768837975285
 20
-10527.448355384196
 10
-1589.6745750681591
 20
-10527.452146413472
 42
0.0350228718333323
 10
-1589.4922147774851
 20
-10527.70919839815
 10
-1589.4913295257029
 20
-10527.710277475922
 42
0.0347476747586954
 10
-1589.2769048384698
 20
-10527.937462523134
 42
0.0331337701879408
 10
-1589.0336615127378
 20
-10528.133591185202
 10
-1589.0325614142073
 20
-10528.134363888385
 42
0.0305233319066468
 10
-1588.7640167186446
 20
-10528.299492058468
 10
-1588.7607866741328
 20
-10528.301216070337
 42
0.0273744481129658
 10
-1588.4682329625718
 20
-10528.437354214224
 10
-1588.463128427421
 20
-10528.439397798698
 42
0.0240964406213303
 10
-1588.1476513517764
 20
-10528.548381524977
 10
-1588.1410680225654
 20
-10528.550306264653
 42
0.0209636179830787
 10
-1587.8036678699016
 20
-10528.633774412589
 10
-1587.7960354094639
 20
-10528.635326325588
 42
0.0181388704693475
 10
-1587.4377130174698
 20
-10528.694742418802
 10
-1587.4294321690872
 20
-10528.695808602619
 42
0.0156086547576429
 10
-1587.051244804928
 20
-10528.732544789193
 10
-1587.0080495526208
 20
-10528.735383291671
 42
0.0137148328983137
 10
-1586.6803764072724
 20
-10528.747903546926
 10
-1586.6344402173418
 20
-10528.74839798004
 42
0.0051057823887426
 10
-1586.3982946307542
 20
-10528.74852823445
 42
0.005225669328632
 10
-1586.1621973469328
 20
-10528.743779409986
 10
-1586.0919705632264
 20
-10528.741632443973
 42
0.0161507179015564
 10
-1585.7162334851771
 20
-10528.717982073651
 10
-1585.6962205247519
 20
-10528.716071878358
 42
0.0101216737861929
 10
-1585.282193303176
 20
-10528.66807894798
 10
-1585.2481400138345
 20
-10528.663431251181
 42
0.0245291776394298
 10
-1584.7713503583022
 20
-10528.574356173111
 10
-1584.6865270427284
 20
-10528.554160252754
 42
0.0143509212570191
 10
-1584.3298959388198
 20
-10528.458355618983
 42
0.0156557857022696
 10
-1583.9796798740856
 20
-10528.341344403159
 10
-1583.9721786595978
 20
-10528.338574241408
 42
0.0170137333635237
 10
-1583.6155826638922
 20
-10528.192916626527
 10
-1583.6084787415089
 20
-10528.189728790974
 42
0.018310536440532
 10
-1583.2491290733535
 20
-10528.012393749157
 10
-1583.2421823087038
 20
-10528.008643314279
 42
0.0194899958144009
 10
-1582.8837015677066
 20
-10527.796664332378
 10
-1582.8766876883833
 20
-10527.792138990091
 42
0.0204869852977437
 10
-1582.5226733862942
 20
-10527.542618975009
 10
-1582.5154077777022
 20
-10527.537038909657
 42
0.0212516938571447
 10
-1582.1694178465943
 20
-10527.247134912763
 10
-1582.1229011525213
 20
-10527.204667602673
 42
0.0215248918245477
 10
-1581.8628749836309
 20
-10526.945903323674
 10
-1581.8178452492361
 20
-10526.897059202309
 42
0.0114578555005988
 10
-1581.6630530955731
 20
-10526.721236268866
 10
-1581.6518585595779
 20
-10526.707917505311
 42
0.0061531305143912
 10
-1581.5253839135921
 20
-10526.553627972015
 42
0.0006325587085965
 10
-1581.4010054295684
 20
-10526.397624596502
 10
-1581.3779652943888
 20
-10526.368651075682
 42
0.0041897761544385
 10
-1581.209509890386
 20
-10526.153131699581
 10
-1581.1510477705237
 20
-10526.077030352633
 42
0.0092993880035387
 10
-1580.8744358432898
 20
-10525.702751588735
 10
-1580.792041350107
 20
-10525.586814585189
 42
0.0159321727076739
 10
-1580.4454348674587
 20
-10525.064640364424
 10
-1580.4010787320719
 20
-10524.992960800178
 42
0.0085547317024036
 10
-1580.1665669667441
 20
-10524.59908585095
 42
0.0084601156890945
 10
-1579.9455907892955
 20
-10524.197459001905
 10
-1579.9374753154716
 20
-10524.182099319645
 42
0.0081429654287387
 10
-1579.7142260450378
 20
-10523.742377807112
 10
-1579.70536588085
 20
-10523.724198965085
 42
0.0076574581319378
 10
-1579.4789583702845
 20
-10523.241016089834
 10
-1579.4694787295598
 20
-10523.219951611529
 42
0.0070682724183182
 10
-1579.2390338217476
 20
-10522.687914306736
 10
-1579.2290435377713
 20
-10522.663925117737
 42
0.0064559514460336
 10
-1578.9937103295792
 20
-10522.07761285119
 10
-1578.9833009714246
 20
-10522.050677925774
 42
0.0058311413901531
 10
-1578.742254234659
 20
-10521.404645831384
 10
-1578.7314991572744
 20
-10521.374761490231
 42
0.0052312425826366
 10
-1578.4839178792397
 20
-10520.663559076414
 10
-1578.4728740428536
 20
-10520.630732364327
 42
0.0046680544802431
 10
-1578.21794561512
 20
-10519.848906048574
 10
-1578.1759534650735
 20
-10519.715922811272
 42
0.0041666856436547
 10
-1577.9726674526805
 20
-10519.052954036273
 10
-1577.9350050120222
 20
-10518.926372928638
 42
0.001517097516752
 10
-1577.8138184336037
 20
-10518.514504577126
 42
-0.0004887993086223
 10
-1577.6934786604947
 20
-10518.102386165132
 10
-1577.6170014029856
 20
-10517.841428779142
 42
0.0002583378927045
 10
-1577.3437868329418
 20
-10516.907372076033
 10
-1577.2620139833421
 20
-10516.627272816371
 42
0.0006636169667865
 10
-1577.0681462233333
 20
-10515.959919892794
 10
-1577.0630495690025
 20
-10515.942288309971
 42
0.0010589131324376
 10
-1576.8816008680697
 20
-10515.309556966866
 10
-1576.8766187975796
 20
-10515.292044059812
 42
0.001565552445776
 10
-1576.7083485904063
 20
-10514.693427380644
 10
-1576.703518389995
 20
-10514.676035221721
 42
0.0021640440474368
 10
-1576.5492284180054
 20
-10514.11100820369
 10
-1576.5445941985731
 20
-10514.093743473688
 42
0.0028763871852991
 10
-1576.4050784805224
 20
-10513.561775522849
 10
-1576.4006926163522
 20
-10513.544651544682
 42
0.0037310511968535
 10
-1576.2767359245183
 20
-10513.045203950671
 10
-1576.2726607042284
 20
-10513.028243679422
 42
0.0047652197772032
 10
-1576.1650368037208
 20
-10512.560765911121
 10
-1576.1613462043977
 20
-10512.544006355973
 42
0.0060276699314618
 10
-1576.0708161052439
 20
-10512.107930560825
 10
-1576.0675974149538
 20
-10512.09142934651
 42
0.0075824337763233
 10
-1575.9949081055393
 20
-10511.68616218209
 10
-1575.9922627281569
 20
-10511.670007234627
 42
0.0095130624605859
 10
-1575.9381474925278
 20
-10511.294917881569
 10
-1575.9311612686458
 20
-10511.238984323456
 42
0.0121054653239182
 10
-1575.9045699380672
 20
-10510.974088494979
 10
-1575.9037034483069
 20
-10510.96268505204
 42
0.0069050827369554
 10
-1575.8886146302702
 20
-10510.719743825204
 10
-1575.8874793306015
 20
-10510.696217568158
 42
0.0169063976722196
 10
-1575.8846520516213
 20
-10510.50002484086
 10
-1575.8858227031521
 20
-10510.439689079532
 42
0.0052007732857233
 10
-1575.8880761517455
 20
-10510.364095689358
 42
0.0054038123283176
 10
-1575.9080396635843
 20
-10510.244077393347
 10
-1575.9131255194548
 20
-10510.215418906766
 42
0.0112050460409795
 10
-1575.9485098815126
 20
-10510.039092468433
 10
-1575.966334843554
 20
-10509.959550881707
 42
0.0240764468010912
 10
-1576.0572322097025
 20
-10509.629313846199
 10
-1576.0757909725121
 20
-10509.572693681217
 42
0.0256812331845055
 10
-1576.2191538927032
 20
-10509.200969474954
 10
-1576.2245633185291
 20
-10509.188838139955
 42
0.0268360501222945
 10
-1576.3939905593743
 20
-10508.857845005943
 10
-1576.3995269670072
 20
-10508.848325335633
 42
0.0274670231696057
 10
-1576.5917279434227
 20
-10508.556037960716
 10
-1576.5971092433745
 20
-10508.548758813189
 42
0.0275035967082595
 10
-1576.8086821229472
 20
-10508.293242922869
 10
-1576.813751623921
 20
-10508.287763835231
 42
0.0269557673561861
 10
-1577.0411551673533
 20
-10508.067121549277
 10
-1577.0458982251337
 20
-10508.062991594818
 42
0.0259124802180293
 10
-1577.2854530565667
 20
-10507.875301067663
 10
-1577.2899839017634
 20
-10507.872115565322
 42
0.0245162153046164
 10
-1577.5379002548434
 20
-10507.715382556224
 10
-1577.5424268011634
 20
-10507.712822359024
 42
0.0229282588829086
 10
-1577.7948463579951
 20
-10507.584954166523
 10
-1577.7996268518593
 20
-10507.582801866749
 42
0.0212984135747304
 10
-1578.0526648042935
 20
-10507.48160294952
 10
-1578.0579690892387
 20
-10507.479739386768
 42
0.0197555462362137
 10
-1578.307747426986
 20
-10507.402923968795
 42
0.0183511896822079
 10
-1578.5626761524782
 20
-10507.345341061824
 10
-1578.6490413491676
 20
-10507.329138271445
 42
0.0338057877168607
 10
-1578.9345486984325
 20
-10507.295329866303
 10
-1579.0255541035019
 20
-10507.290750211041
 42
0.0091990524562151
 10
-1579.1314012121084
 20
-10507.287374355121
 42
0.002833398074562
 10
-1579.2373151279855
 20
-10507.286546247602
 10
-1579.2382305811507
 20
-10507.286544277778
 42
-0.0023619827724867
 10
-1579.3459765962846
 20
-10507.2858034367
 10
-1579.3823817664324
 20
-10507.285381130238
 42
0.0008824598499766
 10
-1579.5629377564926
 20
-10507.283605351997
 10
-1579.6067991886882
 20
-10507.283251390472
 42
0.0038132665733644
 10
-1579.8750820844489
 20
-10507.283132454406
 10
-1579.8916157393605
 20
-10507.28325122055
 42
0.0060665569350382
 10
-1580.1928962310528
 20
-10507.289071519976
 10
-1580.2071465629772
 20
-10507.28951982794
 42
0.0080356953360095
 10
-1580.5366052793649
 20
-10507.30518755001
 10
-1580.5486752944037
 20
-10507.305956132946
 42
0.0098996399110685
 10
-1580.9014383790516
 20
-10507.335441362144
 10
-1580.9114840884292
 20
-10507.336481658342
 42
0.0117740981378813
 10
-1581.2826409468209
 20
-10507.38377390588
 10
-1581.2908636432605
 20
-10507.385019022444
 42
0.0137435215163128
 10
-1581.6754524627527
 20
-10507.454115996006
 10
-1581.682109501869
 20
-10507.455501892238
 42
0.0158359869389015
 10
-1582.0751065956692
 20
-10507.55039398072
 10
-1582.0805197825387
 20
-10507.551883921591
 42
0.0180554124033064
 10
-1582.4768348271375
 20
-10507.676521937825
 10
-1582.4813916152343
 20
-10507.678137974095
 42
0.0203657431282167
 10
-1582.8758691330372
 20
-10507.836398315607
 10
-1582.880012672053
 20
-10507.838259937052
 42
0.0226819684644637
 10
-1583.2674487282491
 20
-10508.033902515719
 10
-1583.271648519275
 20
-10508.036268107644
 42
0.02486349846037
 10
-1583.6468304604505
 20
-10508.272894753585
 10
-1583.6950253892358
 20
-10508.306751795413
 42
0.0267044190880523
 10
-1583.9693180861566
 20
-10508.522192171284
 42
0.0139303002186887
 10
-1584.2254852520705
 20
-10508.759431012171
 10
-1584.2303386378162
 20
-10508.764183675055
 42
0.0283460963436554
 10
-1584.4744112320407
 20
-10509.031914335497
 10
-1584.5140797372001
 20
-10509.080715912974
 42
0.0070695364834139
 10
-1584.5915169630598
 20
-10509.178782728939
 42
0.0070695364834139
  0
LWPOLYLINE
  5
56
100
AcDbEntity
  8
0
370
              15
390
0
  6
Continuous
 62
               7
100
AcDbPolyline
 90
      226
 70
             128
 10
-1588.1203374003062
 20
-10524.900371535125
 42
-0.0026277636544262
 10
-1588.1204152841062
 20
-10524.83359960929
 10
-1588.1201979258742
 20
-10524.780444391938
 42
-0.0088680296713739
 10
-1588.1164213095813
 20
-10524.607428609532
 10
-1588.1140749504689
 20
-10524.548148584081
 42
-0.0077381705594095
 10
-1588.0980288397061
 20
-10524.256888088292
 10
-1588.0971609285325
 20
-10524.244599854597
 42
-0.0068872530543816
 10
-1588.0705288487841
 20
-10523.929378102524
 10
-1588.0693246245983
 20
-10523.91713712351
 42
-0.0062130021479881
 10
-1588.0317309077716
 20
-10523.57826743228
 10
-1588.0302270042353
 20
-10523.566093560356
 42
-0.005672692967099
 10
-1587.9813051447331
 20
-10523.203898338241
 10
-1587.9795316990887
 20
-10523.191804537995
 42
-0.0052341884505826
 10
-1587.9189211128273
 20
-10522.806611282469
 10
-1587.9169031240522
 20
-10522.794606352485
 42
-0.0049768450149641
 10
-1587.8441644426289
 20
-10522.38676178507
 10
-1587.8199154279041
 20
-10522.258213802048
 42
-0.0089029805636664
 10
-1587.6828345761087
 20
-10521.596438354622
 10
-1587.6500892007907
 20
-10521.451406924101
 42
-0.0080318257111042
 10
-1587.4205405864509
 20
-10520.505697292252
 10
-1587.4085556600016
 20
-10520.459566657057
 42
-0.0074265721318805
 10
-1587.1245441211504
 20
-10519.429502078672
 10
-1587.1046645780341
 20
-10519.361368018084
 42
-0.0069711922697237
 10
-1586.7773599995285
 20
-10518.295100277759
 10
-1586.7174080524196
 20
-10518.109078919379
 42
-0.0052070422893824
 10
-1586.4879828271637
 20
-10517.421806842358
 10
-1586.4707016350037
 20
-10517.371779561776
 42
-0.0009167004455962
 10
-1586.267609747702
 20
-10516.787323713586
 42
-0.0025162726936127
 10
-1586.060512117439
 20
-10516.204282449422
 10
-1586.0232875056374
 20
-10516.101132903528
 42
-0.002821268144526
 10
-1585.7751115866708
 20
-10515.425402271347
 10
-1585.7652808239136
 20
-10515.399094826653
 42
-0.0031964916808303
 10
-1585.5289885662578
 20
-10514.778890064543
 10
-1585.5193541122403
 20
-10514.754080074352
 42
-0.0036281836438405
 10
-1585.2942481511577
 20
-10514.186639393509
 10
-1585.2848097409985
 20
-10514.163341962001
 42
-0.0041269166817851
 10
-1585.0701920443412
 20
-10513.645901066026
 10
-1585.0375590879223
 20
-10513.569022619669
 42
-0.0047472213040821
 10
-1584.8805142823667
 20
-10513.208601151782
 10
-1584.8736202011605
 20
-10513.193180554455
 42
-0.0025651659999778
 10
-1584.7252621673083
 20
-10512.8658524987
 42
-0.0057144634992121
 10
-1584.5715124735366
 20
-10512.54104282534
 10
-1584.5434817681332
 20
-10512.483534442941
 42
-0.0065388068388051
 10
-1584.3600147403961
 20
-10512.119301946281
 10
-1584.3515562846067
 20
-10512.103042366891
 42
-0.0074510843048884
 10
-1584.1753740387396
 20
-10511.776354085789
 10
-1584.1671943682013
 20
-10511.761713308508
 42
-0.0084648979855287
 10
-1583.9975605151085
 20
-10511.469804297558
 10
-1583.9897043886333
 20
-10511.456797305927
 42
-0.0095638542805928
 10
-1583.8258689410263
 20
-10511.196908433929
 10
-1583.818393997363
 20
-10511.185539072487
 42
-0.0107191626849555
 10
-1583.6595924169669
 20
-10510.954927837927
 10
-1583.6525756832436
 20
-10510.945191745574
 42
-0.0118458573896027
 10
-1583.4980275847233
 20
-10510.741119550254
 42
-0.0129184518203615
 10
-1583.3335749611181
 20
-10510.544959034078
 10
-1583.3034301887612
 20
-10510.510832955186
 42
-0.0217742579659288
 10
-1583.1268178664234
 20
-10510.327626184933
 10
-1583.1160723219846
 20
-10510.31740935175
 42
-0.0097266568609577
 10
-1582.9500147031072
 20
-10510.165561777292
 42
-0.0187720905727217
 10
-1582.7756671272164
 20
-10510.023492923903
 10
-1582.7449611365325
 20
-10510.000333841499
 42
-0.017942820748376
 10
-1582.5125404165474
 20
-10509.837781664395
 10
-1582.5088880896508
 20
-10509.83541772952
 42
-0.0170047877689011
 10
-1582.2731244521012
 20
-10509.693957215357
 10
-1582.269341463342
 20
-10509.691858910313
 42
-0.0160190788363203
 10
-1582.0324329157193
 20
-10509.570207608333
 42
-0.0151102861472105
 10
-1581.7884011332733
 20
-10509.463524832277
 10
-1581.7360146310609
 20
-10509.442484699382
 42
-0.0271945441866629
 10
-1581.3773520719806
 20
-10509.320619888671
 10
-1581.3082872715177
 20
-10509.301270347411
 42
-0.0237596594031955
 10
-1580.8924904244921
 20
-10509.20581963543
 10
-1580.8244275707898
 20
-10509.193564947309
 42
-0.021371544058147
 10
-1580.5385526393163
 20
-10509.154617915792
 10
-1580.478405473081
 20
-10509.149028201089
 42
-0.0101465655750768
 10
-1580.3109129411041
 20
-10509.136884657828
 10
-1580.3015725548955
 20
-10509.13639774283
 42
-0.0100375910894032
 10
-1580.1524184543434
 20
-10509.131621924906
 10
-1580.1421591846256
 20
-10509.131499485891
 42
-0.0103625633387678
 10
-1580.0134511900083
 20
-10509.132630919416
 10
-1579.9911855387309
 20
-10509.133288277881
 42
-0.0115689250229835
 10
-1579.9071348012133
 20
-10509.137717784128
 42
-0.0072438037476906
 10
-1579.8232965217687
 20
-10509.145306983877
 10
-1579.8064960123013
 20
-10509.147073526601
 42
-0.0217917313201047
 10
-1579.6899262489792
 20
-10509.164493419323
 10
-1579.6243261584225
 20
-10509.177240027735
 42
-0.0332943556697281
 10
-1579.4199339933928
 20
-10509.231280319043
 10
-1579.3897614248394
 20
-10509.241448396162
 42
-0.0184824084821604
 10
-1579.2512563683772
 20
-10509.293899411548
 42
-0.0198002050676528
 10
-1579.1171820278728
 20
-10509.356783471751
 10
-1579.1152953905012
 20
-10509.357761258627
 42
-0.0212242342958985
 10
-1578.9831564480987
 20
-10509.433523997421
 10
-1578.9813411525556
 20
-10509.43466979963
 42
-0.0226090605777036
 10
-1578.8528372513219
 20
-10509.524149443201
 10
-1578.8509928095964
 20
-10509.52556169618
 42
-0.0238457052172734
 10
-1578.7278107283066
 20
-10509.629557592039
 10
-1578.7258579997444
 20
-10509.631372469808
 42
-0.0248160564167013
 10
-1578.6096564924444
 20
-10509.750647071018
 10
-1578.6075528590418
 20
-10509.753032404722
 42
-0.0254109591457826
 10
-1578.499947641176
 20
-10509.888320790687
 10
-1578.4976996192618
 20
-10509.891462339088
 42
-0.0255528488240125
 10
-1578.4002529404586
 20
-10510.043489393331
 10
-1578.3979218405484
 20
-10510.047571004929
 42
-0.025214679321416
 10
-1578.3121408145421
 20
-10510.21707325092
 10
-1578.3098385753817
 20
-10510.222255332839
 42
-0.0244265635897826
 10
-1578.2371838816177
 20
-10510.410001904893
 10
-1578.2279374801542
 20
-10510.437867323215
 42
-0.0231319612867108
 10
-1578.1820147011599
 20
-10510.601168370025
 42
-0.0112130424388974
 10
-1578.14737867862
 20
-10510.767371970222
 10
-1578.146176153509
 20
-10510.773868557102
 42
-0.0210527881293619
 10
-1578.1204896781387
 20
-10510.954924202537
 10
-1578.1169790833164
 20
-10510.99032975109
 42
-0.019002989240432
 10
-1578.1015376097719
 20
-10511.24386559736
 10
-1578.1007276333278
 20
-10511.279341211732
 42
-0.0137974553675037
 10
-1578.1022764861627
 20
-10511.604372618443
 10
-1578.1031219411188
 20
-10511.630491363057
 42
-0.0081336634218452
 10
-1578.1179812763414
 20
-10511.935838830657
 42
-0.007352692356657
 10
-1578.1422898097151
 20
-10512.24058707493
 10
-1578.1435512334988
 20
-10512.253923749608
 42
-0.0066886138700866
 10
-1578.1792868195473
 20
-10512.584509793121
 10
-1578.1809439090152
 20
-10512.598131412096
 42
-0.0061359187343041
 10
-1578.2287945110652
 20
-10512.954895392191
 10
-1578.2308320121388
 20
-10512.968790195026
 42
-0.0056698610045983
 10
-1578.2914823429041
 20
-10513.352068763854
 10
-1578.293887776229
 20
-10513.366227883094
 42
-0.0052721077259424
 10
-1578.3680199770242
 20
-10513.77635522275
 10
-1578.3707831258705
 20
-10513.790771858159
 42
-0.0049289272174884
 10
-1578.4590772439676
 20
-10514.228080369267
 10
-1578.462189738653
 20
-10514.242749222096
 42
-0.0047415956723133
 10
-1578.5654277301815
 20
-10514.707545979491
 10
-1578.6001959405451
 20
-10514.857353074891
 42
-0.0084404470898412
 10
-1578.7902123841179
 20
-10515.617577099427
 10
-1578.7963390721025
 20
-10515.640441223575
 42
-0.0039635940243058
 10
-1579.0177927563898
 20
-10516.441430087834
 10
-1579.0311695515661
 20
-10516.488361704414
 42
-0.007247504084022
 10
-1579.2986164394301
 20
-10517.377581420807
 10
-1579.3688287662494
 20
-10517.599321770755
 42
-0.0051345458826518
 10
-1579.6555881383156
 20
-10518.473646958588
 10
-1579.6771144050967
 20
-10518.537073225758
 42
-0.0019150016597069
 10
-1579.9326478119497
 20
-10519.280622345945
 10
-1579.9391154163272
 20
-10519.299209810813
 42
-0.0021524362762198
 10
-1580.1875934674099
 20
-10520.003535632573
 10
-1580.1968038881087
 20
-10520.029289210881
 42
-0.0024331286819016
 10
-1580.4330591471421
 20
-10520.679888518993
 10
-1580.4421070996973
 20
-10520.704431825359
 42
-0.0027449721794618
 10
-1580.6667216705282
 20
-10521.303561704271
 10
-1580.6756116779254
 20
-10521.326884294138
 42
-0.0031083229750541
 10
-1580.8891541645303
 20
-10521.876808331705
 10
-1580.8978902961835
 20
-10521.898898047506
 42
-0.0035311343288987
 10
-1581.1009314817977
 20
-10522.401881173291
 10
-1581.1095168209652
 20
-10522.422723896849
 42
-0.0040245640933359
 10
-1581.3026286247398
 20
-10522.881033219393
 10
-1581.3110647383362
 20
-10522.900612587449
 42
-0.0046015135859998
 10
-1581.4948210315065
 20
-10523.31651761711
 10
-1581.5031072093354
 20
-10523.334814756563
 42
-0.005276863824275
 10
-1581.6780847282903
 20
-10523.710587640831
 10
-1581.6862169389124
 20
-10523.727580979365
 42
-0.0060672675605017
 10
-1581.8529965516832
 20
-10524.065496602489
 10
-1581.8609660321529
 20
-10524.081161861463
 42
-0.0069904648838682
 10
-1582.0201344261664
 20
-10524.38349766815
 10
-1582.0279258257731
 20
-10524.397808217371
 42
-0.0080637022770374
 10
-1582.180077686123
 20
-10524.66684352053
 10
-1582.1876667187585
 20
-10524.679771386138
 42
-0.0093006455664886
 10
-1582.3334073952858
 20
-10524.917785784633
 10
-1582.3407580620251
 20
-10524.929303753799
 42
-0.010706077807473
 10
-1582.480706605468
 20
-10525.138574071185
 10
-1582.4877683737539
 20
-10525.14865961376
 42
-0.0122723111362511
 10
-1582.6225620919456
 20
-10525.331452943239
 10
-1582.622888315477
 20
-10525.331873331019
 42
-0.0141836319710588
 10
-1582.7664699184738
 20
-10525.50644308888
 10
-1582.7734176741462
 20
-10525.514418089168
 42
-0.0175957477192861
 10
-1582.9133238421605
 20
-10525.664038977549
 42
-0.0080466359699978
 10
-1583.0607876071858
 20
-10525.806361505696
 10
-1583.106822151708
 20
-10525.849381943792
 42
-0.0269600260396651
 10
-1583.3601023976819
 20
-10526.061705202294
 10
-1583.4266695339609
 20
-10526.111656616904
 42
-0.0178362839771373
 10
-1583.6666140236439
 20
-10526.278674543177
 10
-1583.6738589946483
 20
-10526.283343055384
 42
-0.0174650732642265
 10
-1583.9101951920857
 20
-10526.424204020341
 42
-0.0169240130167609
 10
-1584.1556614379458
 20
-10526.54849628012
 10
-1584.2016475935011
 20
-10526.569858235685
 42
-0.0318883036842639
 10
-1584.5519984491191
 20
-10526.706196545194
 10
-1584.6203639842993
 20
-10526.727897165676
 42
-0.0284435909880562
 10
-1584.996414110577
 20
-10526.824114601146
 10
-1585.0315722710886
 20
-10526.831008196978
 42
-0.0243909341002771
 10
-1585.3450157319944
 20
-10526.876729228004
 10
-1585.3952964587425
 20
-10526.881574774905
 42
-0.019663929291099
 10
-1585.6108920362926
 20
-10526.89382306042
 10
-1585.6627161074396
 20
-10526.894726321156
 42
-0.0100501510714655
 10
-1585.7751393891203
 20
-10526.894425922805
 10
-1585.8067992505987
 20
-10526.893704850916
 42
-0.0019752031018683
 10
-1585.8558915871458
 20
-10526.892392690708
 10
-1585.8586518902889
 20
-10526.892307998884
 42
0.0065378751854138
 10
-1585.9022284651228
 20
-10526.891541107667
 42
-0.0167974694860874
 10
-1585.9457592880212
 20
-10526.889881209143
 10
-1585.9498386273167
 20
-10526.889588198246
 42
-0.0081283276230118
 10
-1586.0013984250577
 20
-10526.885041204609
 10
-1586.0131379989339
 20
-10526.88381328703
 42
-0.0126703440012189
 10
-1586.0878562947798
 20
-10526.87407849595
 10
-1586.1106441624042
 20
-10526.870520240042
 42
-0.0117852088515593
 10
-1586.2301831481925
 20
-10526.848957244894
 10
-1586.2855635999995
 20
-10526.837613704651
 42
-0.0251774592253054
 10
-1586.5124076390248
 20
-10526.779115695213
 10
-1586.5571268288504
 20
-10526.765148875886
 42
-0.0146525199923892
 10
-1586.7435198163969
 20
-10526.700882348685
 42
-0.016692943579962
 10
-1586.9254974725231
 20
-10526.625075215632
 10
-1586.9301541037967
 20
-10526.622950315017
 42
-0.0191684358394816
 10
-1587.1153377350731
 20
-10526.529714231212
 10
-1587.1186703208029
 20
-10526.527872983674
 42
-0.0221181781844584
 10
-1587.301980624693
 20
-10526.41573948531
 10
-1587.3043304287135
 20
-10526.414155187311
 42
-0.0254984685380697
 10
-1587.4806205791087
 20
-10526.281744037335
 10
-1587.5031027267942
 20
-10526.262991728412
 42
-0.0292492648791422
 10
-1587.6278716656439
 20
-10526.145898928762
 42
-0.0159048957532528
 10
-1587.7417116631111
 20
-10526.017878937142
 10
-1587.7430304536733
 20
-10526.016297324142
 42
-0.034381337953094
 10
-1587.8456677152997
 20
-10525.874425998374
 10
-1587.8771592466603
 20
-10525.82392260628
 42
-0.0369117275692045
 10
-1587.9630517485575
 20
-10525.660445365331
 42
-0.0191751379930579
 10
-1588.0302451341113
 20
-10525.488040759335
 10
-1588.0320084578741
 20
-10525.48294741465
 42
-0.0378178042209779
 10
-1588.0818031766598
 20
-10525.294006638562
 10
-1588.0877984723884
 20
-10525.261446020375
 42
-0.0184846046458955
 10
-1588.1085156716831
 20
-10525.119693199827
 42
-0.0179866351351546
 10
-1588.1188486767564
 20
-10524.976802386756
 10
-1588.1189051192025
 20
-10524.975244700134
 42
-0.0085497186019221
 10
-1588.1203374003062
 20
-10524.900371535125
 42
-0.0085497186019221
  0
ENDBLK
  5
57
100
AcDbEntity
  8
1_10
390
0
100
AcDbBlockEnd
  0
BLOCK
  5
58
100
AcDbEntity
  8
notes
390
0
100
AcDbBlockBegin
  2
*D2
 70
               1
 10
0.0
 20
0.0
 30
0.0
  3
*D2
  1

  0
LINE
  5
59
100
AcDbEntity
  8
0
370
              -2
390
0
  6
Continuous
 62
               0
100
AcDbLine
 10
-752.95916560141268
 20
585.03477525428025
 30
0.0
 11
-752.95916560141268
 21
1015.6858284237296
 31
0.0
  0
LINE
  5
5A
100
AcDbEntity
  8
0
370
              -2
390
0
  6
Continuous
 62
               0
100
AcDbLine
 10
-102.95916560141268
 20
585.03477525428025
 30
0.0
 11
-102.95916560141268
 21
1015.6858284237296
 31
0.0
  0
LINE
  5
5B
100
AcDbEntity
  8
0
370
              -2
390
0
  6
Continuous
 62
               0
100
AcDbLine
 10
-752.95916560141268
 20
1015.6858284237296
 30
0.0
 11
-102.95916560141268
 21
1015.6858284237296
 31
0.0
  0
CIRCLE
  5
5C
102
{ACAD_REACTORS
330
5D
102
}
100
AcDbEntity
  8
0
370
              -2
390
0
  6
Continuous
 62
               0
100
AcDbCircle
 10
-752.95916560141268
 20
1015.6858284237296
 30
0.0
 40
4.99969482421875
  0
HATCH
  5
5D
100
AcDbEntity
  8
0
370
              -2
390
0
  6
Continuous
 62
               0
100
AcDbHatch
 10
0.0
 20
0.0
 30
0.0
210
0.0
220
0.0
230
1.0
  2
SOLID
 70
               1
 71
               1
 91
        1
 92
        1
 93
        1
 72
               2
 10
-752.95916560141268
 20
1015.6858284237296
 40
4.99969482421875
 50
0.0
 51
360.0
 73
               0
 97
        1
330
5C
 75
               0
 76
               1
 98
        1
 10
0.0
 20
0.0
  0
CIRCLE
  5
5E
102
{ACAD_REACTORS
330
5F
102
}
100
AcDbEntity
  8
0
370
              -2
390
0
  6
Continuous
 62
               0
100
AcDbCircle
 10
-102.95916560141268
 20
1015.6858284237296
 30
0.0
 40
4.99969482421875
  0
HATCH
  5
5F
100
AcDbEntity
  8
0
370
              -2
390
0
  6
Continuous
 62
               0
100
AcDbHatch
 10
0.0
 20
0.0
 30
0.0
210
0.0
220
0.0
230
1.0
  2
SOLID
 70
               1
 71
               1
 91
        1
 92
        1
 93
        1
 72
               2
 10
-102.95916560141268
 20
1015.6858284237296
 40
4.99969482421875
 50
0.0
 51
360.0
 73
               0
 97
        1
330
5E
 75
               0
 76
               1
 98
        1
 10
0.0
 20
0.0
  0
MTEXT
  5
60
100
AcDbEntity
  8
0
390
0
 62
               0
100
AcDbMText
 10
-451.77166728358816
 20
1049.5634456112293
 30
0.0
 40
24.432617187500004
 41
0.0
 71
               1
 72
               1
  1
650
  7
ＭＳ ゴシック
 73
               1
 44
0.7828267384257843
  0
POINT
  5
61
100
AcDbEntity
  8
Defpoints
370
               0
390
0
 62
               0
100
AcDbPoint
 10
-102.95916560141268
 20
560.03477525428025
 30
0.0
  0
POINT
  5
62
100
AcDbEntity
  8
Defpoints
370
               0
390
0
 62
               0
100
AcDbPoint
 10
-752.95916560141268
 20
560.03477525428025
 30
0.0
  0
POINT
  5
63
100
AcDbEntity
  8
Defpoints
370
               0
390
0
 62
               0
100
AcDbPoint
 10
-752.95916560141268
 20
1015.6858284237296
 30
0.0
  0
ENDBLK
  5
64
100
AcDbEntity
  8
notes
390
0
100
AcDbBlockEnd
  0
BLOCK
  5
65
100
AcDbEntity
  8
notes
390
0
100
AcDbBlockBegin
  2
*D3
 70
               1
 10
0.0
 20
0.0
 30
0.0
  3
*D3
  1

  0
LINE
  5
66
100
AcDbEntity
  8
0
370
              -2
390
0
  6
Continuous
 62
               0
100
AcDbLine
 10
834.59620219959311
 20
-457.0
 30
0.0
 11
834.59620219959311
 21
-348.72194708421921
 31
0.0
  0
LINE
  5
67
100
AcDbEntity
  8
0
370
              -2
390
0
  6
Continuous
 62
               0
100
AcDbLine
 10
734.59620219959311
 20
-423.72194708421921
 30
0.0
 11
734.59620219959311
 21
-348.72194708421921
 31
0.0
  0
LINE
  5
68
100
AcDbEntity
  8
0
370
              -2
390
0
  6
Continuous
 62
               0
100
AcDbLine
 10
834.59620219959311
 20
-348.72194708421921
 30
0.0
 11
734.59620219959311
 21
-348.72194708421921
 31
0.0
  0
CIRCLE
  5
69
102
{ACAD_REACTORS
330
6A
102
}
100
AcDbEntity
  8
0
370
              -2
390
0
  6
Continuous
 62
               0
100
AcDbCircle
 10
834.59620219959311
 20
-348.72194708421921
 30
0.0
 40
4.99969482421875
  0
HATCH
  5
6A
100
AcDbEntity
  8
0
370
              -2
390
0
  6
Continuous
 62
               0
100
AcDbHatch
 10
0.0
 20
0.0
 30
0.0
210
0.0
220
0.0
230
1.0
  2
SOLID
 70
               1
 71
               1
 91
        1
 92
        1
 93
        1
 72
               2
 10
834.59620219959311
 20
-348.72194708421921
 40
4.99969482421875
 50
0.0
 51
360.0
 73
               0
 97
        1
330
69
 75
               0
 76
               1
 98
        1
 10
0.0
 20
0.0
  0
CIRCLE
  5
6B
102
{ACAD_REACTORS
330
6C
102
}
100
AcDbEntity
  8
0
370
              -2
390
0
  6
Continuous
 62
               0
100
AcDbCircle
 10
734.59620219959311
 20
-348.72194708421921
 30
0.0
 40
4.99969482421875
  0
HATCH
  5
6C
100
AcDbEntity
  8
0
370
              -2
390
0
  6
Continuous
 62
               0
100
AcDbHatch
 10
0.0
 20
0.0
 30
0.0
210
0.0
220
0.0
230
1.0
  2
SOLID
 70
               1
 71
               1
 91
        1
 92
        1
 93
        1
 72
               2
 10
734.59620219959311
 20
-348.72194708421921
 40
4.99969482421875
 50
0.0
 51
360.0
 73
               0
 97
        1
330
6B
 75
               0
 76
               1
 98
        1
 10
0.0
 20
0.0
  0
MTEXT
  5
6D
100
AcDbEntity
  8
0
390
0
 62
               0
100
AcDbMText
 10
760.78370051741763
 20
-314.8443298967195
 30
0.0
 40
24.432617187500004
 41
0.0
 71
               1
 72
               1
  1
100
  7
ＭＳ ゴシック
 73
               1
 44
0.7828267384257843
  0
POINT
  5
6E
100
AcDbEntity
  8
Defpoints
370
               0
390
0
 62
               0
100
AcDbPoint
 10
734.59620219959311
 20
-448.72194708421921
 30
0.0
  0
POINT
  5
6F
100
AcDbEntity
  8
Defpoints
370
               0
390
0
 62
               0
100
AcDbPoint
 10
834.59620219959311
 20
-482.0
 30
0.0
  0
POINT
  5
70
100
AcDbEntity
  8
Defpoints
370
               0
390
0
 62
               0
100
AcDbPoint
 10
834.59620219959311
 20
-348.72194708421921
 30
0.0
  0
ENDBLK
  5
71
100
AcDbEntity
  8
notes
390
0
100
AcDbBlockEnd
  0
BLOCK
  5
72
100
AcDbEntity
  8
notes
390
0
100
AcDbBlockBegin
  2
*D4
 70
               1
 10
0.0
 20
0.0
 30
0.0
  3
*D4
  1

  0
LINE
  5
73
100
AcDbEntity
  8
0
370
              -2
390
0
  6
Continuous
 62
               0
100
AcDbLine
 10
-424.36504503187325
 20
778.17495508745014
 30
0.0
 11
-374.63281146972486
 21
953.07888966372775
 31
0.0
  0
CIRCLE
  5
74
102
{ACAD_REACTORS
330
75
102
}
100
AcDbEntity
  8
0
370
              -2
390
0
  6
Continuous
 62
               0
100
AcDbCircle
 10
-424.36504503187325
 20
778.17495508745014
 30
0.0
 40
4.99969482421875
  0
HATCH
  5
75
100
AcDbEntity
  8
0
370
              -2
390
0
  6
Continuous
 62
               0
100
AcDbHatch
 10
0.0
 20
0.0
 30
0.0
210
0.0
220
0.0
230
1.0
  2
SOLID
 70
               1
 71
               1
 91
        1
 92
        1
 93
        1
 72
               2
 10
-424.36504503187325
 20
778.17495508745014
 40
4.99969482421875
 50
0.0
 51
360.0
 73
               0
 97
        1
330
74
 75
               0
 76
               1
 98
        1
 10
0.0
 20
0.0
  0
MTEXT
  5
76
100
AcDbEntity
  8
0
390
0
 62
               0
100
AcDbMText
 10
-424.58594082307673
 20
901.26549550632808
 30
0.0
 40
24.432617187500004
 41
0.0
 71
               1
 72
               1
  1
φ37
  7
ＭＳ ゴシック
 11
0.2734990319728463
 21
0.9618722781689448
 31
0.0
 73
               1
 44
0.7828267384257843
  0
POINT
  5
77
100
AcDbEntity
  8
Defpoints
370
               0
390
0
 62
               0
100
AcDbPoint
 10
-434.48450921445556
 20
742.58568079665201
 30
0.0
  0
POINT
  5
78
100
AcDbEntity
  8
Defpoints
370
               0
390
0
 62
               0
100
AcDbPoint
 10
-424.36504503187325
 20
778.17495508745014
 30
0.0
  0
ENDBLK
  5
79
100
AcDbEntity
  8
notes
390
0
100
AcDbBlockEnd
  0
BLOCK
  5
7A
100
AcDbEntity
  8
notes
390
0
100
AcDbBlockBegin
  2
*D5
 70
               1
 10
0.0
 20
0.0
 30
0.0
  3
*D5
  1

  0
LINE
  5
7B
100
AcDbEntity
  8
0
370
              -2
390
0
  6
Continuous
 62
               0
100
AcDbLine
 10
-647.77204510208321
 20
885.38031794204835
 30
0.0
 11
-647.77204510208321
 21
960.38031794204835
 31
0.0
  0
LINE
  5
7C
100
AcDbEntity
  8
0
370
              -2
390
0
  6
Continuous
 62
               0
100
AcDbLine
 10
-207.77204510208321
 20
885.38031794204835
 30
0.0
 11
-207.77204510208321
 21
960.38031794204835
 31
0.0
  0
LINE
  5
7D
100
AcDbEntity
  8
0
370
              -2
390
0
  6
Continuous
 62
               0
100
AcDbLine
 10
-647.77204510208321
 20
960.38031794204835
 30
0.0
 11
-207.77204510208321
 21
960.38031794204835
 31
0.0
  0
CIRCLE
  5
7E
102
{ACAD_REACTORS
330
7F
102
}
100
AcDbEntity
  8
0
370
              -2
390
0
  6
Continuous
 62
               0
100
AcDbCircle
 10
-647.77204510208321
 20
960.38031794204835
 30
0.0
 40
4.99969482421875
  0
HATCH
  5
7F
100
AcDbEntity
  8
0
370
              -2
390
0
  6
Continuous
 62
               0
100
AcDbHatch
 10
0.0
 20
0.0
 30
0.0
210
0.0
220
0.0
230
1.0
  2
SOLID
 70
               1
 71
               1
 91
        1
 92
        1
 93
        1
 72
               2
 10
-647.77204510208321
 20
960.38031794204835
 40
4.99969482421875
 50
0.0
 51
360.0
 73
               0
 97
        1
330
7E
 75
               0
 76
               1
 98
        1
 10
0.0
 20
0.0
  0
CIRCLE
  5
80
102
{ACAD_REACTORS
330
81
102
}
100
AcDbEntity
  8
0
370
              -2
390
0
  6
Continuous
 62
               0
100
AcDbCircle
 10
-207.77204510208321
 20
960.38031794204835
 30
0.0
 40
4.99969482421875
  0
HATCH
  5
81
100
AcDbEntity
  8
0
370
              -2
390
0
  6
Continuous
 62
               0
100
AcDbHatch
 10
0.0
 20
0.0
 30
0.0
210
0.0
220
0.0
230
1.0
  2
SOLID
 70
               1
 71
               1
 91
        1
 92
        1
 93
        1
 72
               2
 10
-207.77204510208321
 20
960.38031794204835
 40
4.99969482421875
 50
0.0
 51
360.0
 73
               0
 97
        1
330
80
 75
               0
 76
               1
 98
        1
 10
0.0
 20
0.0
  0
MTEXT
  5
82
100
AcDbEntity
  8
0
390
0
 62
               0
100
AcDbMText
 10
-451.58454678425869
 20
994.25793512954806
 30
0.0
 40
24.432617187500004
 41
0.0
 71
               1
 72
               1
  1
440
  7
ＭＳ ゴシック
 73
               1
 44
0.7828267384257843
  0
POINT
  5
83
100
AcDbEntity
  8
Defpoints
370
               0
390
0
 62
               0
100
AcDbPoint
 10
-207.77204510208321
 20
860.38031794204835
 30
0.0
  0
POINT
  5
84
100
AcDbEntity
  8
Defpoints
370
               0
390
0
 62
               0
100
AcDbPoint
 10
-647.77204510208321
 20
860.38031794204835
 30
0.0
  0
POINT
  5
85
100
AcDbEntity
  8
Defpoints
370
               0
390
0
 62
               0
100
AcDbPoint
 10
-647.77204510208321
 20
960.38031794204835
 30
0.0
  0
ENDBLK
  5
86
100
AcDbEntity
  8
notes
390
0
100
AcDbBlockEnd
  0
BLOCK
  5
87
100
AcDbEntity
  8
notes
390
0
100
AcDbBlockBegin
  2
*D6
 70
               1
 10
0.0
 20
0.0
 30
0.0
  3
*D6
  1

  0
LINE
  5
88
100
AcDbEntity
  8
0
370
              -2
390
0
  6
Continuous
 62
               0
100
AcDbLine
 10
-183.22494091283124
 20
860.38031794204835
 30
0.0
 11
-2.9591656012507883
 21
860.38031794204835
 31
0.0
  0
LINE
  5
89
100
AcDbEntity
  8
0
370
              -2
390
0
  6
Continuous
 62
               0
100
AcDbLine
 10
-394.42477712316486
 20
285.38031794204835
 30
0.0
 11
-2.9591656012507883
 21
285.38031794204835
 31
0.0
  0
LINE
  5
8A
100
AcDbEntity
  8
0
370
              -2
390
0
  6
Continuous
 62
               0
100
AcDbLine
 10
-2.9591656012507883
 20
860.38031794204835
 30
0.0
 11
-2.9591656012507883
 21
285.38031794204835
 31
0.0
  0
CIRCLE
  5
8B
102
{ACAD_REACTORS
330
8C
102
}
100
AcDbEntity
  8
0
370
              -2
390
0
  6
Continuous
 62
               0
100
AcDbCircle
 10
-2.9591656012507883
 20
860.38031794204835
 30
0.0
 40
4.99969482421875
  0
HATCH
  5
8C
100
AcDbEntity
  8
0
370
              -2
390
0
  6
Continuous
 62
               0
100
AcDbHatch
 10
0.0
 20
0.0
 30
0.0
210
0.0
220
0.0
230
1.0
  2
SOLID
 70
               1
 71
               1
 91
        1
 92
        1
 93
        1
 72
               2
 10
-2.9591656012507883
 20
860.38031794204835
 40
4.99969482421875
 50
0.0
 51
360.0
 73
               0
 97
        1
330
8B
 75
               0
 76
               1
 98
        1
 10
0.0
 20
0.0
  0
CIRCLE
  5
8D
102
{ACAD_REACTORS
330
8E
102
}
100
AcDbEntity
  8
0
370
              -2
390
0
  6
Continuous
 62
               0
100
AcDbCircle
 10
-2.9591656012507883
 20
285.38031794204835
 30
0.0
 40
4.99969482421875
  0
HATCH
  5
8E
100
AcDbEntity
  8
0
370
              -2
390
0
  6
Continuous
 62
               0
100
AcDbHatch
 10
0.0
 20
0.0
 30
0.0
210
0.0
220
0.0
230
1.0
  2
SOLID
 70
               1
 71
               1
 91
        1
 92
        1
 93
        1
 72
               2
 10
-2.9591656012507883
 20
285.38031794204835
 40
4.99969482421875
 50
0.0
 51
360.0
 73
               0
 97
        1
330
8D
 75
               0
 76
               1
 98
        1
 10
0.0
 20
0.0
  0
MTEXT
  5
8F
100
AcDbEntity
  8
0
390
0
 62
               0
100
AcDbMText
 10
-36.836782788750952
 20
549.06781625987242
 30
0.0
 40
24.432617187500004
 41
0.0
 71
               1
 72
               1
  1
575
  7
ＭＳ ゴシック
 11
0.0
 21
1.0
 31
0.0
 73
               1
 44
0.7828267384257843
  0
POINT
  5
90
100
AcDbEntity
  8
Defpoints
370
               0
390
0
 62
               0
100
AcDbPoint
 10
-419.42477712316486
 20
285.38031794204835
 30
0.0
  0
POINT
  5
91
100
AcDbEntity
  8
Defpoints
370
               0
390
0
 62
               0
100
AcDbPoint
 10
-208.22494091283124
 20
860.38031794204835
 30
0.0
  0
POINT
  5
92
100
AcDbEntity
  8
Defpoints
370
               0
390
0
 62
               0
100
AcDbPoint
 10
-2.9591656012507883
 20
860.38031794204835
 30
0.0
  0
ENDBLK
  5
93
100
AcDbEntity
  8
notes
390
0
100
AcDbBlockEnd
  0
BLOCK
  5
94
100
AcDbEntity
  8
notes
390
0
100
AcDbBlockBegin
  2
*D7
 70
               1
 10
0.0
 20
0.0
 30
0.0
  3
*D7
  1

  0
LINE
  5
95
100
AcDbEntity
  8
0
370
              -2
390
0
  6
Continuous
 62
               0
100
AcDbLine
 10
-177.95916560141268
 20
351.83073380254427
 30
0.0
 11
-177.95916560141268
 21
185.38031794154449
 31
0.0
  0
LINE
  5
96
100
AcDbEntity
  8
0
370
              -2
390
0
  6
Continuous
 62
               0
100
AcDbLine
 10
-677.95916560141268
 20
351.83073380254427
 30
0.0
 11
-677.95916560141268
 21
185.38031794154449
 31
0.0
  0
LINE
  5
97
100
AcDbEntity
  8
0
370
              -2
390
0
  6
Continuous
 62
               0
100
AcDbLine
 10
-177.95916560141268
 20
185.38031794154449
 30
0.0
 11
-677.95916560141268
 21
185.38031794154449
 31
0.0
  0
CIRCLE
  5
98
102
{ACAD_REACTORS
330
99
102
}
100
AcDbEntity
  8
0
370
              -2
390
0
  6
Continuous
 62
               0
100
AcDbCircle
 10
-177.95916560141268
 20
185.38031794154449
 30
0.0
 40
4.99969482421875
  0
HATCH
  5
99
100
AcDbEntity
  8
0
370
              -2
390
0
  6
Continuous
 62
               0
100
AcDbHatch
 10
0.0
 20
0.0
 30
0.0
210
0.0
220
0.0
230
1.0
  2
SOLID
 70
               1
 71
               1
 91
        1
 92
        1
 93
        1
 72
               2
 10
-177.95916560141268
 20
185.38031794154449
 40
4.99969482421875
 50
0.0
 51
360.0
 73
               0
 97
        1
330
98
 75
               0
 76
               1
 98
        1
 10
0.0
 20
0.0
  0
CIRCLE
  5
9A
102
{ACAD_REACTORS
330
9B
102
}
100
AcDbEntity
  8
0
370
              -2
390
0
  6
Continuous
 62
               0
100
AcDbCircle
 10
-677.95916560141268
 20
185.38031794154449
 30
0.0
 40
4.99969482421875
  0
HATCH
  5
9B
100
AcDbEntity
  8
0
370
              -2
390
0
  6
Continuous
 62
               0
100
AcDbHatch
 10
0.0
 20
0.0
 30
0.0
210
0.0
220
0.0
230
1.0
  2
SOLID
 70
               1
 71
               1
 91
        1
 92
        1
 93
        1
 72
               2
 10
-677.95916560141268
 20
185.38031794154449
 40
4.99969482421875
 50
0.0
 51
360.0
 73
               0
 97
        1
330
9A
 75
               0
 76
               1
 98
        1
 10
0.0
 20
0.0
  0
MTEXT
  5
9C
100
AcDbEntity
  8
0
390
0
 62
               0
100
AcDbMText
 10
-451.77166728358816
 20
219.2579351290442
 30
0.0
 40
24.432617187500004
 41
0.0
 71
               1
 72
               1
  1
500
  7
ＭＳ ゴシック
 73
               1
 44
0.7828267384257843
  0
POINT
  5
9D
100
AcDbEntity
  8
Defpoints
370
               0
390
0
 62
               0
100
AcDbPoint
 10
-677.95916560141268
 20
376.83073380254427
 30
0.0
  0
POINT
  5
9E
100
AcDbEntity
  8
Defpoints
370
               0
390
0
 62
               0
100
AcDbPoint
 10
-177.95916560141268
 20
376.83073380254427
 30
0.0
  0
POINT
  5
9F
100
AcDbEntity
  8
Defpoints
370
               0
390
0
 62
               0
100
AcDbPoint
 10
-177.95916560141268
 20
185.38031794154449
 30
0.0
  0
ENDBLK
  5
A0
100
AcDbEntity
  8
notes
390
0
100
AcDbBlockEnd
  0
BLOCK
  5
A1
100
AcDbEntity
  8
notes
390
0
100
AcDbBlockBegin
  2
*D8
 70
               1
 10
0.0
 20
0.0
 30
0.0
  3
*D8
  1

  0
LINE
  5
A2
100
AcDbEntity
  8
0
370
              -2
390
0
  6
Continuous
 62
               0
100
AcDbLine
 10
-729.8030062296466
 20
710.38031794204835
 30
0.0
 11
-852.95916560164642
 21
710.38031794204835
 31
0.0
  0
LINE
  5
A3
100
AcDbEntity
  8
0
370
              -2
390
0
  6
Continuous
 62
               0
100
AcDbLine
 10
-631.31664848571654
 20
350.38031794204835
 30
0.0
 11
-852.95916560164642
 21
350.38031794204835
 31
0.0
  0
LINE
  5
A4
100
AcDbEntity
  8
0
370
              -2
390
0
  6
Continuous
 62
               0
100
AcDbLine
 10
-852.95916560164642
 20
710.38031794204835
 30
0.0
 11
-852.95916560164642
 21
350.38031794204835
 31
0.0
  0
CIRCLE
  5
A5
102
{ACAD_REACTORS
330
A6
102
}
100
AcDbEntity
  8
0
370
              -2
390
0
  6
Continuous
 62
               0
100
AcDbCircle
 10
-852.95916560164642
 20
710.38031794204835
 30
0.0
 40
4.99969482421875
  0
HATCH
  5
A6
100
AcDbEntity
  8
0
370
              -2
390
0
  6
Continuous
 62
               0
100
AcDbHatch
 10
0.0
 20
0.0
 30
0.0
210
0.0
220
0.0
230
1.0
  2
SOLID
 70
               1
 71
               1
 91
        1
 92
        1
 93
        1
 72
               2
 10
-852.95916560164642
 20
710.38031794204835
 40
4.99969482421875
 50
0.0
 51
360.0
 73
               0
 97
        1
330
A5
 75
               0
 76
               1
 98
        1
 10
0.0
 20
0.0
  0
CIRCLE
  5
A7
102
{ACAD_REACTORS
330
A8
102
}
100
AcDbEntity
  8
0
370
              -2
390
0
  6
Continuous
 62
               0
100
AcDbCircle
 10
-852.95916560164642
 20
350.38031794204835
 30
0.0
 40
4.99969482421875
  0
HATCH
  5
A8
100
AcDbEntity
  8
0
370
              -2
390
0
  6
Continuous
 62
               0
100
AcDbHatch
 10
0.0
 20
0.0
 30
0.0
210
0.0
220
0.0
230
1.0
  2
SOLID
 70
               1
 71
               1
 91
        1
 92
        1
 93
        1
 72
               2
 10
-852.95916560164642
 20
350.38031794204835
 40
4.99969482421875
 50
0.0
 51
360.0
 73
               0
 97
        1
330
A7
 75
               0
 76
               1
 98
        1
 10
0.0
 20
0.0
  0
MTEXT
  5
A9
100
AcDbEntity
  8
0
390
0
 62
               0
100
AcDbMText
 10
-886.83678278914658
 20
506.56781625987242
 30
0.0
 40
24.432617187500004
 41
0.0
 71
               1
 72
               1
  1
360
  7
ＭＳ ゴシック
 11
0.0
 21
1.0
 31
0.0
 73
               1
 44
0.7828267384257843
  0
POINT
  5
AA
100
AcDbEntity
  8
Defpoints
370
               0
390
0
 62
               0
100
AcDbPoint
 10
-606.31664848571654
 20
350.38031794204835
 30
0.0
  0
POINT
  5
AB
100
AcDbEntity
  8
Defpoints
370
               0
390
0
 62
               0
100
AcDbPoint
 10
-704.8030062296466
 20
710.38031794204835
 30
0.0
  0
POINT
  5
AC
100
AcDbEntity
  8
Defpoints
370
               0
390
0
 62
               0
100
AcDbPoint
 10
-852.95916560164642
 20
710.38031794204835
 30
0.0
  0
ENDBLK
  5
AD
100
AcDbEntity
  8
notes
390
0
100
AcDbBlockEnd
  0
BLOCK
  5
AE
100
AcDbEntity
  8
notes
390
0
100
AcDbBlockBegin
  2
*D9
 70
               1
 10
0.0
 20
0.0
 30
0.0
  3
*D9
  1

  0
LINE
  5
AF
100
AcDbEntity
  8
0
370
              -2
390
0
  6
Continuous
 62
               0
100
AcDbLine
 10
-673.22494091283124
 20
860.38031794204835
 30
0.0
 11
-852.95916560118212
 21
860.38031794204835
 31
0.0
  0
LINE
  5
B0
100
AcDbEntity
  8
0
370
              -2
390
0
  6
Continuous
 62
               0
100
AcDbLine
 10
-703.82609429077274
 20
710.38031794204835
 30
0.0
 11
-852.95916560118212
 21
710.38031794204835
 31
0.0
  0
LINE
  5
B1
100
AcDbEntity
  8
0
370
              -2
390
0
  6
Continuous
 62
               0
100
AcDbLine
 10
-852.95916560118212
 20
860.38031794204835
 30
0.0
 11
-852.95916560118212
 21
710.38031794204835
 31
0.0
  0
CIRCLE
  5
B2
102
{ACAD_REACTORS
330
B3
102
}
100
AcDbEntity
  8
0
370
              -2
390
0
  6
Continuous
 62
               0
100
AcDbCircle
 10
-852.95916560118212
 20
860.38031794204835
 30
0.0
 40
4.99969482421875
  0
HATCH
  5
B3
100
AcDbEntity
  8
0
370
              -2
390
0
  6
Continuous
 62
               0
100
AcDbHatch
 10
0.0
 20
0.0
 30
0.0
210
0.0
220
0.0
230
1.0
  2
SOLID
 70
               1
 71
               1
 91
        1
 92
        1
 93
        1
 72
               2
 10
-852.95916560118212
 20
860.38031794204835
 40
4.99969482421875
 50
0.0
 51
360.0
 73
               0
 97
        1
330
B2
 75
               0
 76
               1
 98
        1
 10
0.0
 20
0.0
  0
CIRCLE
  5
B4
102
{ACAD_REACTORS
330
B5
102
}
100
AcDbEntity
  8
0
370
              -2
390
0
  6
Continuous
 62
               0
100
AcDbCircle
 10
-852.95916560118212
 20
710.38031794204835
 30
0.0
 40
4.99969482421875
  0
HATCH
  5
B5
100
AcDbEntity
  8
0
370
              -2
390
0
  6
Continuous
 62
               0
100
AcDbHatch
 10
0.0
 20
0.0
 30
0.0
210
0.0
220
0.0
230
1.0
  2
SOLID
 70
               1
 71
               1
 91
        1
 92
        1
 93
        1
 72
               2
 10
-852.95916560118212
 20
710.38031794204835
 40
4.99969482421875
 50
0.0
 51
360.0
 73
               0
 97
        1
330
B4
 75
               0
 76
               1
 98
        1
 10
0.0
 20
0.0
  0
MTEXT
  5
B6
100
AcDbEntity
  8
0
390
0
 62
               0
100
AcDbMText
 10
-886.83678278868229
 20
761.56781625987242
 30
0.0
 40
24.432617187500004
 41
0.0
 71
               1
 72
               1
  1
150
  7
ＭＳ ゴシック
 11
0.0
 21
1.0
 31
0.0
 73
               1
 44
0.7828267384257843
  0
POINT
  5
B7
100
AcDbEntity
  8
Defpoints
370
               0
390
0
 62
               0
100
AcDbPoint
 10
-678.82609429077274
 20
710.38031794204835
 30
0.0
  0
POINT
  5
B8
100
AcDbEntity
  8
Defpoints
370
               0
390
0
 62
               0
100
AcDbPoint
 10
-648.22494091283124
 20
860.38031794204835
 30
0.0
  0
POINT
  5
B9
100
AcDbEntity
  8
Defpoints
370
               0
390
0
 62
               0
100
AcDbPoint
 10
-852.95916560118212
 20
860.38031794204835
 30
0.0
  0
ENDBLK
  5
BA
100
AcDbEntity
  8
notes
390
0
100
AcDbBlockEnd
  0
BLOCK
  5
BB
100
AcDbEntity
  8
notes
390
0
100
AcDbBlockBegin
  2
*D10
 70
               1
 10
0.0
 20
0.0
 30
0.0
  3
*D10
  1

  0
LINE
  5
BC
100
AcDbEntity
  8
0
370
              -2
390
0
  6
Continuous
 62
               0
100
AcDbLine
 10
-512.9640876878143
 20
-498.72194708422285
 30
0.0
 11
-512.9640876878143
 21
-348.72194708422285
 31
0.0
  0
LINE
  5
BD
100
AcDbEntity
  8
0
370
              -2
390
0
  6
Continuous
 62
               0
100
AcDbLine
 10
-342.9640876878143
 20
-498.72194708422285
 30
0.0
 11
-342.9640876878143
 21
-348.72194708422285
 31
0.0
  0
LINE
  5
BE
100
AcDbEntity
  8
0
370
              -2
390
0
  6
Continuous
 62
               0
100
AcDbLine
 10
-512.9640876878143
 20
-348.72194708422285
 30
0.0
 11
-342.9640876878143
 21
-348.72194708422285
 31
0.0
  0
CIRCLE
  5
BF
102
{ACAD_REACTORS
330
C0
102
}
100
AcDbEntity
  8
0
370
              -2
390
0
  6
Continuous
 62
               0
100
AcDbCircle
 10
-512.9640876878143
 20
-348.72194708422285
 30
0.0
 40
4.99969482421875
  0
HATCH
  5
C0
100
AcDbEntity
  8
0
370
              -2
390
0
  6
Continuous
 62
               0
100
AcDbHatch
 10
0.0
 20
0.0
 30
0.0
210
0.0
220
0.0
230
1.0
  2
SOLID
 70
               1
 71
               1
 91
        1
 92
        1
 93
        1
 72
               2
 10
-512.9640876878143
 20
-348.72194708422285
 40
4.99969482421875
 50
0.0
 51
360.0
 73
               0
 97
        1
330
BF
 75
               0
 76
               1
 98
        1
 10
0.0
 20
0.0
  0
CIRCLE
  5
C1
102
{ACAD_REACTORS
330
C2
102
}
100
AcDbEntity
  8
0
370
              -2
390
0
  6
Continuous
 62
               0
100
AcDbCircle
 10
-342.9640876878143
 20
-348.72194708422285
 30
0.0
 40
4.99969482421875
  0
HATCH
  5
C2
100
AcDbEntity
  8
0
370
              -2
390
0
  6
Continuous
 62
               0
100
AcDbHatch
 10
0.0
 20
0.0
 30
0.0
210
0.0
220
0.0
230
1.0
  2
SOLID
 70
               1
 71
               1
 91
        1
 92
        1
 93
        1
 72
               2
 10
-342.9640876878143
 20
-348.72194708422285
 40
4.99969482421875
 50
0.0
 51
360.0
 73
               0
 97
        1
330
C1
 75
               0
 76
               1
 98
        1
 10
0.0
 20
0.0
  0
MTEXT
  5
C3
100
AcDbEntity
  8
0
390
0
 62
               0
100
AcDbMText
 10
-451.77658936998978
 20
-314.84432989672314
 30
0.0
 40
24.432617187500004
 41
0.0
 71
               1
 72
               1
  1
170
  7
ＭＳ ゴシック
 73
               1
 44
0.7828267384257843
  0
POINT
  5
C4
100
AcDbEntity
  8
Defpoints
370
               0
390
0
 62
               0
100
AcDbPoint
 10
-342.9640876878143
 20
-523.72194708422285
 30
0.0
  0
POINT
  5
C5
100
AcDbEntity
  8
Defpoints
370
               0
390
0
 62
               0
100
AcDbPoint
 10
-512.9640876878143
 20
-523.72194708422285
 30
0.0
  0
POINT
  5
C6
100
AcDbEntity
  8
Defpoints
370
               0
390
0
 62
               0
100
AcDbPoint
 10
-512.9640876878143
 20
-348.72194708422285
 30
0.0
  0
ENDBLK
  5
C7
100
AcDbEntity
  8
notes
390
0
100
AcDbBlockEnd
  0
BLOCK
  5
C8
100
AcDbEntity
  8
notes
390
0
100
AcDbBlockBegin
  2
*D11
 70
               1
 10
0.0
 20
0.0
 30
0.0
  3
*D11
  1

  0
LINE
  5
C9
100
AcDbEntity
  8
0
370
              -2
390
0
  6
Continuous
 62
               0
100
AcDbLine
 10
834.59620219959311
 20
-668.72194708421921
 30
0.0
 11
834.59620219959311
 21
-793.72194708421921
 31
0.0
  0
LINE
  5
CA
100
AcDbEntity
  8
0
370
              -2
390
0
  6
Continuous
 62
               0
100
AcDbLine
 10
584.59620219959311
 20
-718.72194708421921
 30
0.0
 11
584.59620219959311
 21
-793.72194708421921
 31
0.0
  0
LINE
  5
CB
100
AcDbEntity
  8
0
370
              -2
390
0
  6
Continuous
 62
               0
100
AcDbLine
 10
834.59620219959311
 20
-793.72194708421921
 30
0.0
 11
584.59620219959311
 21
-793.72194708421921
 31
0.0
  0
CIRCLE
  5
CC
102
{ACAD_REACTORS
330
CD
102
}
100
AcDbEntity
  8
0
370
              -2
390
0
  6
Continuous
 62
               0
100
AcDbCircle
 10
834.59620219959311
 20
-793.72194708421921
 30
0.0
 40
4.99969482421875
  0
HATCH
  5
CD
100
AcDbEntity
  8
0
370
              -2
390
0
  6
Continuous
 62
               0
100
AcDbHatch
 10
0.0
 20
0.0
 30
0.0
210
0.0
220
0.0
230
1.0
  2
SOLID
 70
               1
 71
               1
 91
        1
 92
        1
 93
        1
 72
               2
 10
834.59620219959311
 20
-793.72194708421921
 40
4.99969482421875
 50
0.0
 51
360.0
 73
               0
 97
        1
330
CC
 75
               0
 76
               1
 98
        1
 10
0.0
 20
0.0
  0
CIRCLE
  5
CE
102
{ACAD_REACTORS
330
CF
102
}
100
AcDbEntity
  8
0
370
              -2
390
0
  6
Continuous
 62
               0
100
AcDbCircle
 10
584.59620219959311
 20
-793.72194708421921
 30
0.0
 40
4.99969482421875
  0
HATCH
  5
CF
100
AcDbEntity
  8
0
370
              -2
390
0
  6
Continuous
 62
               0
100
AcDbHatch
 10
0.0
 20
0.0
 30
0.0
210
0.0
220
0.0
230
1.0
  2
SOLID
 70
               1
 71
               1
 91
        1
 92
        1
 93
        1
 72
               2
 10
584.59620219959311
 20
-793.72194708421921
 40
4.99969482421875
 50
0.0
 51
360.0
 73
               0
 97
        1
330
CE
 75
               0
 76
               1
 98
        1
 10
0.0
 20
0.0
  0
MTEXT
  5
D0
100
AcDbEntity
  8
0
390
0
 62
               0
100
AcDbMText
 10
685.78370051741763
 20
-759.8443298967195
 30
0.0
 40
24.432617187500004
 41
0.0
 71
               1
 72
               1
  1
250
  7
ＭＳ ゴシック
 73
               1
 44
0.7828267384257843
  0
POINT
  5
D1
100
AcDbEntity
  8
Defpoints
370
               0
390
0
 62
               0
100
AcDbPoint
 10
584.59620219959311
 20
-693.72194708421921
 30
0.0
  0
POINT
  5
D2
100
AcDbEntity
  8
Defpoints
370
               0
390
0
 62
               0
100
AcDbPoint
 10
834.59620219959311
 20
-643.72194708421921
 30
0.0
  0
POINT
  5
D3
100
AcDbEntity
  8
Defpoints
370
               0
390
0
 62
               0
100
AcDbPoint
 10
834.59620219959311
 20
-793.72194708421921
 30
0.0
  0
ENDBLK
  5
D4
100
AcDbEntity
  8
notes
390
0
100
AcDbBlockEnd
  0
BLOCK
  5
D5
100
AcDbEntity
  8
notes
390
0
100
AcDbBlockBegin
  2
*D12
 70
               1
 10
0.0
 20
0.0
 30
0.0
  3
*D12
  1

  0
LINE
  5
D6
100
AcDbEntity
  8
0
370
              -2
390
0
  6
Continuous
 62
               0
100
AcDbLine
 10
-557.9640876878143
 20
-543.72194708422285
 30
0.0
 11
-852.73584779681414
 21
-543.72194708422285
 31
0.0
  0
LINE
  5
D7
100
AcDbEntity
  8
0
370
              -2
390
0
  6
Continuous
 62
               0
100
AcDbLine
 10
-765.31231863127823
 20
-448.72194708422285
 30
0.0
 11
-852.73584779681414
 21
-448.72194708422285
 31
0.0
  0
LINE
  5
D8
100
AcDbEntity
  8
0
370
              -2
390
0
  6
Continuous
 62
               0
100
AcDbLine
 10
-852.73584779681414
 20
-543.72194708422285
 30
0.0
 11
-852.73584779681414
 21
-448.72194708422285
 31
0.0
  0
CIRCLE
  5
D9
102
{ACAD_REACTORS
330
DA
102
}
100
AcDbEntity
  8
0
370
              -2
390
0
  6
Continuous
 62
               0
100
AcDbCircle
 10
-852.73584779681414
 20
-543.72194708422285
 30
0.0
 40
4.99969482421875
  0
HATCH
  5
DA
100
AcDbEntity
  8
0
370
              -2
390
0
  6
Continuous
 62
               0
100
AcDbHatch
 10
0.0
 20
0.0
 30
0.0
210
0.0
220
0.0
230
1.0
  2
SOLID
 70
               1
 71
               1
 91
        1
 92
        1
 93
        1
 72
               2
 10
-852.73584779681414
 20
-543.72194708422285
 40
4.99969482421875
 50
0.0
 51
360.0
 73
               0
 97
        1
330
D9
 75
               0
 76
               1
 98
        1
 10
0.0
 20
0.0
  0
CIRCLE
  5
DB
102
{ACAD_REACTORS
330
DC
102
}
100
AcDbEntity
  8
0
370
              -2
390
0
  6
Continuous
 62
               0
100
AcDbCircle
 10
-852.73584779681414
 20
-448.72194708422285
 30
0.0
 40
4.99969482421875
  0
HATCH
  5
DC
100
AcDbEntity
  8
0
370
              -2
390
0
  6
Continuous
 62
               0
100
AcDbHatch
 10
0.0
 20
0.0
 30
0.0
210
0.0
220
0.0
230
1.0
  2
SOLID
 70
               1
 71
               1
 91
        1
 92
        1
 93
        1
 72
               2
 10
-852.73584779681414
 20
-448.72194708422285
 40
4.99969482421875
 50
0.0
 51
360.0
 73
               0
 97
        1
330
DB
 75
               0
 76
               1
 98
        1
 10
0.0
 20
0.0
  0
MTEXT
  5
DD
100
AcDbEntity
  8
0
390
0
 62
               0
100
AcDbMText
 10
-886.61346498431431
 20
-512.09694708422285
 30
0.0
 40
24.432617187500004
 41
0.0
 71
               1
 72
               1
  1
95
  7
ＭＳ ゴシック
 11
0.0
 21
1.0
 31
0.0
 73
               1
 44
0.7828267384257843
  0
POINT
  5
DE
100
AcDbEntity
  8
Defpoints
370
               0
390
0
 62
               0
100
AcDbPoint
 10
-740.31231863127823
 20
-448.72194708422285
 30
0.0
  0
POINT
  5
DF
100
AcDbEntity
  8
Defpoints
370
               0
390
0
 62
               0
100
AcDbPoint
 10
-532.9640876878143
 20
-543.72194708422285
 30
0.0
  0
POINT
  5
E0
100
AcDbEntity
  8
Defpoints
370
               0
390
0
 62
               0
100
AcDbPoint
 10
-852.73584779681414
 20
-543.72194708422285
 30
0.0
  0
ENDBLK
  5
E1
100
AcDbEntity
  8
notes
390
0
100
AcDbBlockEnd
  0
BLOCK
  5
E2
100
AcDbEntity
  8
notes
390
0
100
AcDbBlockBegin
  2
*D13
 70
               1
 10
0.0
 20
0.0
 30
0.0
  3
*D13
  1

  0
LINE
  5
E3
100
AcDbEntity
  8
0
370
              -2
390
0
  6
Continuous
 62
               0
100
AcDbLine
 10
-90.615856744350367
 20
-448.72194708422285
 30
0.0
 11
-3.1923275783501595
 21
-448.72194708422285
 31
0.0
  0
LINE
  5
E4
100
AcDbEntity
  8
0
370
              -2
390
0
  6
Continuous
 62
               0
100
AcDbLine
 10
-371.8486316276626
 20
-683.72201568222772
 30
0.0
 11
-3.1923275783501595
 21
-683.72201568222772
 31
0.0
  0
LINE
  5
E5
100
AcDbEntity
  8
0
370
              -2
390
0
  6
Continuous
 62
               0
100
AcDbLine
 10
-3.1923275783501595
 20
-448.72194708422285
 30
0.0
 11
-3.1923275783501595
 21
-683.72201568222772
 31
0.0
  0
CIRCLE
  5
E6
102
{ACAD_REACTORS
330
E7
102
}
100
AcDbEntity
  8
0
370
              -2
390
0
  6
Continuous
 62
               0
100
AcDbCircle
 10
-3.1923275783501595
 20
-448.72194708422285
 30
0.0
 40
4.99969482421875
  0
HATCH
  5
E7
100
AcDbEntity
  8
0
370
              -2
390
0
  6
Continuous
 62
               0
100
AcDbHatch
 10
0.0
 20
0.0
 30
0.0
210
0.0
220
0.0
230
1.0
  2
SOLID
 70
               1
 71
               1
 91
        1
 92
        1
 93
        1
 72
               2
 10
-3.1923275783501595
 20
-448.72194708422285
 40
4.99969482421875
 50
0.0
 51
360.0
 73
               0
 97
        1
330
E6
 75
               0
 76
               1
 98
        1
 10
0.0
 20
0.0
  0
CIRCLE
  5
E8
102
{ACAD_REACTORS
330
E9
102
}
100
AcDbEntity
  8
0
370
              -2
390
0
  6
Continuous
 62
               0
100
AcDbCircle
 10
-3.1923275783501595
 20
-683.72201568222772
 30
0.0
 40
4.99969482421875
  0
HATCH
  5
E9
100
AcDbEntity
  8
0
370
              -2
390
0
  6
Continuous
 62
               0
100
AcDbHatch
 10
0.0
 20
0.0
 30
0.0
210
0.0
220
0.0
230
1.0
  2
SOLID
 70
               1
 71
               1
 91
        1
 92
        1
 93
        1
 72
               2
 10
-3.1923275783501595
 20
-683.72201568222772
 40
4.99969482421875
 50
0.0
 51
360.0
 73
               0
 97
        1
330
E8
 75
               0
 76
               1
 98
        1
 10
0.0
 20
0.0
  0
MTEXT
  5
EA
100
AcDbEntity
  8
0
390
0
 62
               0
100
AcDbMText
 10
-37.069944765850323
 20
-590.03448306540122
 30
0.0
 40
24.432617187500004
 41
0.0
 71
               1
 72
               1
  1
235
  7
ＭＳ ゴシック
 11
0.0
 21
1.0
 31
0.0
 73
               1
 44
0.7828267384257843
  0
POINT
  5
EB
100
AcDbEntity
  8
Defpoints
370
               0
390
0
 62
               0
100
AcDbPoint
 10
-396.8486316276626
 20
-683.72201568222772
 30
0.0
  0
POINT
  5
EC
100
AcDbEntity
  8
Defpoints
370
               0
390
0
 62
               0
100
AcDbPoint
 10
-115.61585674435037
 20
-448.72194708422285
 30
0.0
  0
POINT
  5
ED
100
AcDbEntity
  8
Defpoints
370
               0
390
0
 62
               0
100
AcDbPoint
 10
-3.1923275783501595
 20
-448.72194708422285
 30
0.0
  0
ENDBLK
  5
EE
100
AcDbEntity
  8
notes
390
0
100
AcDbBlockEnd
  0
BLOCK
  5
EF
100
AcDbEntity
  8
notes
390
0
100
AcDbBlockBegin
  2
*D14
 70
               1
 10
0.0
 20
0.0
 30
0.0
  3
*D14
  1

  0
LINE
  5
F0
100
AcDbEntity
  8
0
370
              -2
390
0
  6
Continuous
 62
               0
100
AcDbLine
 10
387.23713309679806
 20
-649.07907599724422
 30
0.0
 11
201.23713309679806
 21
-649.07907599724422
 31
0.0
  0
LINE
  5
F1
100
AcDbEntity
  8
0
370
              -2
390
0
  6
Continuous
 62
               0
100
AcDbLine
 10
259.93488211672184
 20
-449.07907599724422
 30
0.0
 11
201.23713309679806
 21
-449.07907599724422
 31
0.0
  0
LINE
  5
F2
100
AcDbEntity
  8
0
370
              -2
390
0
  6
Continuous
 62
               0
100
AcDbLine
 10
201.23713309679806
 20
-649.07907599724422
 30
0.0
 11
201.23713309679806
 21
-449.07907599724422
 31
0.0
  0
CIRCLE
  5
F3
102
{ACAD_REACTORS
330
F4
102
}
100
AcDbEntity
  8
0
370
              -2
390
0
  6
Continuous
 62
               0
100
AcDbCircle
 10
201.23713309679806
 20
-649.07907599724422
 30
0.0
 40
4.99969482421875
  0
HATCH
  5
F4
100
AcDbEntity
  8
0
370
              -2
390
0
  6
Continuous
 62
               0
100
AcDbHatch
 10
0.0
 20
0.0
 30
0.0
210
0.0
220
0.0
230
1.0
  2
SOLID
 70
               1
 71
               1
 91
        1
 92
        1
 93
        1
 72
               2
 10
201.23713309679806
 20
-649.07907599724422
 40
4.99969482421875
 50
0.0
 51
360.0
 73
               0
 97
        1
330
F3
 75
               0
 76
               1
 98
        1
 10
0.0
 20
0.0
  0
CIRCLE
  5
F5
102
{ACAD_REACTORS
330
F6
102
}
100
AcDbEntity
  8
0
370
              -2
390
0
  6
Continuous
 62
               0
100
AcDbCircle
 10
201.23713309679806
 20
-449.07907599724422
 30
0.0
 40
4.99969482421875
  0
HATCH
  5
F6
100
AcDbEntity
  8
0
370
              -2
390
0
  6
Continuous
 62
               0
100
AcDbHatch
 10
0.0
 20
0.0
 30
0.0
210
0.0
220
0.0
230
1.0
  2
SOLID
 70
               1
 71
               1
 91
        1
 92
        1
 93
        1
 72
               2
 10
201.23713309679806
 20
-449.07907599724422
 40
4.99969482421875
 50
0.0
 51
360.0
 73
               0
 97
        1
330
F5
 75
               0
 76
               1
 98
        1
 10
0.0
 20
0.0
  0
MTEXT
  5
F7
100
AcDbEntity
  8
0
390
0
 62
               0
100
AcDbMText
 10
167.3595159092979
 20
-572.89157767942015
 30
0.0
 40
24.432617187500004
 41
0.0
 71
               1
 72
               1
  1
200
  7
ＭＳ ゴシック
 11
0.0
 21
1.0
 31
0.0
 73
               1
 44
0.7828267384257843
  0
POINT
  5
F8
100
AcDbEntity
  8
Defpoints
370
               0
390
0
 62
               0
100
AcDbPoint
 10
284.93488211672184
 20
-449.07907599724422
 30
0.0
  0
POINT
  5
F9
100
AcDbEntity
  8
Defpoints
370
               0
390
0
 62
               0
100
AcDbPoint
 10
412.23713309679761
 20
-649.07907599724422
 30
0.0
  0
POINT
  5
FA
100
AcDbEntity
  8
Defpoints
370
               0
390
0
 62
               0
100
AcDbPoint
 10
201.23713309679761
 20
-649.07907599724422
 30
0.0
  0
ENDBLK
  5
FB
100
AcDbEntity
  8
notes
390
0
100
AcDbBlockEnd
  0
BLOCK
  5
FC
100
AcDbEntity
  8
notes
390
0
100
AcDbBlockBegin
  2
*D15
 70
               1
 10
0.0
 20
0.0
 30
0.0
  3
*D15
  1

  0
LINE
  5
FD
100
AcDbEntity
  8
0
370
              -2
390
0
  6
Continuous
 62
               0
100
AcDbLine
 10
607.81235597363116
 20
-448.72194708421921
 30
0.0
 11
588.06235597363116
 21
-448.72194708421921
 31
0.0
  0
LINE
  5
FE
100
AcDbEntity
  8
0
370
              -2
390
0
  6
Continuous
 62
               0
100
AcDbLine
 10
607.81235597363116
 20
-638.72194708421921
 30
0.0
 11
588.06235597363116
 21
-638.72194708421921
 31
0.0
  0
LINE
  5
FF
100
AcDbEntity
  8
0
370
              -2
390
0
  6
Continuous
 62
               0
100
AcDbLine
 10
588.06235597363116
 20
-448.72194708421921
 30
0.0
 11
588.06235597363116
 21
-638.72194708421921
 31
0.0
  0
CIRCLE
  5
100
102
{ACAD_REACTORS
330
101
102
}
100
AcDbEntity
  8
0
370
              -2
390
0
  6
Continuous
 62
               0
100
AcDbCircle
 10
588.06235597363116
 20
-448.72194708421921
 30
0.0
 40
4.99969482421875
  0
HATCH
  5
101
100
AcDbEntity
  8
0
370
              -2
390
0
  6
Continuous
 62
               0
100
AcDbHatch
 10
0.0
 20
0.0
 30
0.0
210
0.0
220
0.0
230
1.0
  2
SOLID
 70
               1
 71
               1
 91
        1
 92
        1
 93
        1
 72
               2
 10
588.06235597363116
 20
-448.72194708421921
 40
4.99969482421875
 50
0.0
 51
360.0
 73
               0
 97
        1
330
100
 75
               0
 76
               1
 98
        1
 10
0.0
 20
0.0
  0
CIRCLE
  5
102
102
{ACAD_REACTORS
330
103
102
}
100
AcDbEntity
  8
0
370
              -2
390
0
  6
Continuous
 62
               0
100
AcDbCircle
 10
588.06235597363116
 20
-638.72194708421921
 30
0.0
 40
4.99969482421875
  0
HATCH
  5
103
100
AcDbEntity
  8
0
370
              -2
390
0
  6
Continuous
 62
               0
100
AcDbHatch
 10
0.0
 20
0.0
 30
0.0
210
0.0
220
0.0
230
1.0
  2
SOLID
 70
               1
 71
               1
 91
        1
 92
        1
 93
        1
 72
               2
 10
588.06235597363116
 20
-638.72194708421921
 40
4.99969482421875
 50
0.0
 51
360.0
 73
               0
 97
        1
330
102
 75
               0
 76
               1
 98
        1
 10
0.0
 20
0.0
  0
MTEXT
  5
104
100
AcDbEntity
  8
0
390
0
 62
               0
100
AcDbMText
 10
554.18473878613122
 20
-621.4375
 30
0.0
 40
24.432617187500004
 41
0.0
 71
               1
 72
               1
  1
(深さ)190
  7
ＭＳ ゴシック
 11
0.0
 21
1.0
 31
0.0
 73
               1
 44
0.7828267384257843
  0
POINT
  5
105
100
AcDbEntity
  8
Defpoints
370
               0
390
0
 62
               0
100
AcDbPoint
 10
582.81235597363116
 20
-638.72194708421921
 30
0.0
  0
POINT
  5
106
100
AcDbEntity
  8
Defpoints
370
               0
390
0
 62
               0
100
AcDbPoint
 10
582.81235597363116
 20
-448.72194708421921
 30
0.0
  0
POINT
  5
107
100
AcDbEntity
  8
Defpoints
370
               0
390
0
 62
               0
100
AcDbPoint
 10
588.06235597363116
 20
-448.72194708421921
 30
0.0
  0
ENDBLK
  5
108
100
AcDbEntity
  8
notes
390
0
100
AcDbBlockEnd
  0
BLOCK
  5
109
100
AcDbEntity
  8
ABA70-0103
390
0
100
AcDbBlockBegin
  2
グループ-1
 70
               0
 10
0.0
 20
0.0
 30
0.0
  3
グループ-1
  1

  0
SPLINE
  5
10A
100
AcDbEntity
  8
0
370
              15
390
0
  6
Continuous
 62
               7
100
AcDbSpline
210
0.0
220
0.0
230
1.0
 70
               9
 71
               2
 72
              17
 73
              14
 74
               0
 42
0.000001
 43
0.000001
 40
0.0
 40
0.0
 40
0.0
 40
1.0
 40
2.0
 40
3.0
 40
4.0
 40
5.0
 40
6.0
 40
7.0
 40
8.0
 40
9.0
 40
10.0
 40
11.0
 40
12.0
 40
12.0
 40
12.0
 10
-2886.0346751436182
 20
-8555.6693472537481
 30
0.0
 10
-2886.0346751436182
 20
-8546.2911249531771
 30
0.0
 10
-2895.4129042500999
 20
-8530.0475674439094
 30
0.0
 10
-2911.6564735475472
 20
-8520.6693451433366
 30
0.0
 10
-2930.4129317605102
 20
-8520.6693451433366
 30
0.0
 10
-2946.6565010579575
 20
-8530.0475674439094
 30
0.0
 10
-2956.0347301644388
 20
-8546.2911249531771
 30
0.0
 10
-2956.0347301644388
 20
-8565.0475695543209
 30
0.0
 10
-2946.6565010579575
 20
-8581.2911270635886
 30
0.0
 10
-2930.4129317605102
 20
-8590.6693493641596
 30
0.0
 10
-2911.6564735475476
 20
-8590.6693493641596
 30
0.0
 10
-2895.4129042500999
 20
-8581.2911270635886
 30
0.0
 10
-2886.0346751436182
 20
-8565.0475695543209
 30
0.0
 10
-2886.0346751436182
 20
-8555.6693472537481
 30
0.0
  0
ENDBLK
  5
10B
100
AcDbEntity
  8
ABA70-0103
390
0
100
AcDbBlockEnd
  0
BLOCK
  5
10C
100
AcDbEntity
  8
ABA70-0103
390
0
100
AcDbBlockBegin
  2
*D17
 70
               1
 10
0.0
 20
0.0
 30
0.0
  3
*D17
  1

  0
LINE
  5
10D
100
AcDbEntity
  8
0
370
              -2
390
0
  6
Continuous
 62
               0
100
AcDbLine
 10
804.5962021995856
 20
-448.72194708421921
 30
0.0
 11
884.36213309679601
 21
-448.72194708421921
 31
0.0
  0
LINE
  5
10E
100
AcDbEntity
  8
0
370
              -2
390
0
  6
Continuous
 62
               0
100
AcDbLine
 10
848.23713309679601
 20
-463.72194708421921
 30
0.0
 11
884.36213309679601
 21
-463.72194708421921
 31
0.0
  0
LINE
  5
10F
100
AcDbEntity
  8
0
370
              -2
390
0
  6
Continuous
 62
               0
100
AcDbLine
 10
884.36213309679601
 20
-448.72194708421921
 30
0.0
 11
884.36213309679601
 21
-399.25
 31
0.0
  0
LINE
  5
110
100
AcDbEntity
  8
0
370
              -2
390
0
  6
Continuous
 62
               0
100
AcDbLine
 10
884.36213309679601
 20
-448.72194708421921
 30
0.0
 11
884.36213309679601
 21
-463.72194708421921
 31
0.0
  0
CIRCLE
  5
111
102
{ACAD_REACTORS
330
112
102
}
100
AcDbEntity
  8
0
370
              -2
390
0
  6
Continuous
 62
               0
100
AcDbCircle
 10
884.36213309679601
 20
-448.72194708421921
 30
0.0
 40
4.99969482421875
  0
HATCH
  5
112
100
AcDbEntity
  8
0
370
              -2
390
0
  6
Continuous
 62
               0
100
AcDbHatch
 10
0.0
 20
0.0
 30
0.0
210
0.0
220
0.0
230
1.0
  2
SOLID
 70
               1
 71
               1
 91
        1
 92
        1
 93
        1
 72
               2
 10
884.36213309679601
 20
-448.72194708421921
 40
4.99969482421875
 50
0.0
 51
360.0
 73
               0
 97
        1
330
111
 75
               0
 76
               1
 98
        1
 10
0.0
 20
0.0
  0
CIRCLE
  5
113
102
{ACAD_REACTORS
330
114
102
}
100
AcDbEntity
  8
0
370
              -2
390
0
  6
Continuous
 62
               0
100
AcDbCircle
 10
884.36213309679601
 20
-463.72194708421921
 30
0.0
 40
4.99969482421875
  0
HATCH
  5
114
100
AcDbEntity
  8
0
370
              -2
390
0
  6
Continuous
 62
               0
100
AcDbHatch
 10
0.0
 20
0.0
 30
0.0
210
0.0
220
0.0
230
1.0
  2
SOLID
 70
               1
 71
               1
 91
        1
 92
        1
 93
        1
 72
               2
 10
884.36213309679601
 20
-463.72194708421921
 40
4.99969482421875
 50
0.0
 51
360.0
 73
               0
 97
        1
330
113
 75
               0
 76
               1
 98
        1
 10
0.0
 20
0.0
  0
MTEXT
  5
115
100
AcDbEntity
  8
0
390
0
 62
               0
100
AcDbMText
 10
850.48451590929608
 20
-431.0
 30
0.0
 40
24.432617187500004
 41
0.0
 71
               1
 72
               1
  1
15
  7
ＭＳ ゴシック
 11
0.0
 21
1.0
 31
0.0
 73
               1
 44
0.7828267384257843
  0
POINT
  5
116
100
AcDbEntity
  8
Defpoints
370
               0
390
0
 62
               0
100
AcDbPoint
 10
823.23713309679601
 20
-463.72194708421921
 30
0.0
  0
POINT
  5
117
100
AcDbEntity
  8
Defpoints
370
               0
390
0
 62
               0
100
AcDbPoint
 10
779.5962021995856
 20
-448.72194708421921
 30
0.0
  0
POINT
  5
118
100
AcDbEntity
  8
Defpoints
370
               0
390
0
 62
               0
100
AcDbPoint
 10
884.36213309679601
 20
-448.72194708421921
 30
0.0
  0
ENDBLK
  5
119
100
AcDbEntity
  8
ABA70-0103
390
0
100
AcDbBlockEnd
  0
BLOCK
  5
11A
100
AcDbEntity
  8
ABA70-0103
390
0
100
AcDbBlockBegin
  2
*D18
 70
               1
 10
0.0
 20
0.0
 30
0.0
  3
*D18
  1

  0
LINE
  5
11B
100
AcDbEntity
  8
0
370
              -2
390
0
  6
Continuous
 62
               0
100
AcDbLine
 10
777.23320327023112
 20
860.38031794204835
 30
0.0
 11
808.23320327023112
 21
860.38031794204835
 31
0.0
  0
LINE
  5
11C
100
AcDbEntity
  8
0
370
              -2
390
0
  6
Continuous
 62
               0
100
AcDbLine
 10
606.01872836754433
 20
830.38031794204835
 30
0.0
 11
808.23320327023112
 21
830.38031794204835
 31
0.0
  0
LINE
  5
11D
100
AcDbEntity
  8
0
370
              -2
390
0
  6
Continuous
 62
               0
100
AcDbLine
 10
808.23320327023112
 20
860.38031794204835
 30
0.0
 11
808.23320327023112
 21
927.13031794204835
 31
0.0
  0
LINE
  5
11E
100
AcDbEntity
  8
0
370
              -2
390
0
  6
Continuous
 62
               0
100
AcDbLine
 10
808.23320327023112
 20
860.38031794204835
 30
0.0
 11
808.23320327023112
 21
830.38031794204835
 31
0.0
  0
CIRCLE
  5
11F
102
{ACAD_REACTORS
330
120
102
}
100
AcDbEntity
  8
0
370
              -2
390
0
  6
Continuous
 62
               0
100
AcDbCircle
 10
808.23320327023112
 20
860.38031794204835
 30
0.0
 40
4.99969482421875
  0
HATCH
  5
120
100
AcDbEntity
  8
0
370
              -2
390
0
  6
Continuous
 62
               0
100
AcDbHatch
 10
0.0
 20
0.0
 30
0.0
210
0.0
220
0.0
230
1.0
  2
SOLID
 70
               1
 71
               1
 91
        1
 92
        1
 93
        1
 72
               2
 10
808.23320327023112
 20
860.38031794204835
 40
4.99969482421875
 50
0.0
 51
360.0
 73
               0
 97
        1
330
11F
 75
               0
 76
               1
 98
        1
 10
0.0
 20
0.0
  0
CIRCLE
  5
121
102
{ACAD_REACTORS
330
122
102
}
100
AcDbEntity
  8
0
370
              -2
390
0
  6
Continuous
 62
               0
100
AcDbCircle
 10
808.23320327023112
 20
830.38031794204835
 30
0.0
 40
4.99969482421875
  0
HATCH
  5
122
100
AcDbEntity
  8
0
370
              -2
390
0
  6
Continuous
 62
               0
100
AcDbHatch
 10
0.0
 20
0.0
 30
0.0
210
0.0
220
0.0
230
1.0
  2
SOLID
 70
               1
 71
               1
 91
        1
 92
        1
 93
        1
 72
               2
 10
808.23320327023112
 20
830.38031794204835
 40
4.99969482421875
 50
0.0
 51
360.0
 73
               0
 97
        1
330
121
 75
               0
 76
               1
 98
        1
 10
0.0
 20
0.0
  0
MTEXT
  5
123
100
AcDbEntity
  8
0
390
0
 62
               0
100
AcDbMText
 10
774.35558608273118
 20
895.38031794204835
 30
0.0
 40
24.432617187500004
 41
0.0
 71
               1
 72
               1
  1
30
  7
ＭＳ ゴシック
 11
0.0
 21
1.0
 31
0.0
 73
               1
 44
0.7828267384257843
  0
POINT
  5
124
100
AcDbEntity
  8
Defpoints
370
               0
390
0
 62
               0
100
AcDbPoint
 10
581.01872836754433
 20
830.38031794204835
 30
0.0
  0
POINT
  5
125
100
AcDbEntity
  8
Defpoints
370
               0
390
0
 62
               0
100
AcDbPoint
 10
752.23320327023112
 20
860.38031794204835
 30
0.0
  0
POINT
  5
126
100
AcDbEntity
  8
Defpoints
370
               0
390
0
 62
               0
100
AcDbPoint
 10
808.23320327023112
 20
860.38031794204835
 30
0.0
  0
ENDBLK
  5
127
100
AcDbEntity
  8
ABA70-0103
390
0
100
AcDbBlockEnd
  0
BLOCK
  5
128
100
AcDbEntity
  8
ABA70-0103
390
0
100
AcDbBlockBegin
  2
*D19
 70
               1
 10
0.0
 20
0.0
 30
0.0
  3
*D19
  1

  0
LINE
  5
129
100
AcDbEntity
  8
0
370
              -2
390
0
  6
Continuous
 62
               0
100
AcDbLine
 10
578.10408833572615
 20
830.38031794204835
 30
0.0
 11
808.23320327023112
 21
830.38031794204835
 31
0.0
  0
LINE
  5
12A
100
AcDbEntity
  8
0
370
              -2
390
0
  6
Continuous
 62
               0
100
AcDbLine
 10
578.10408833572615
 20
530.38031794204835
 30
0.0
 11
808.23320327023112
 21
530.38031794204835
 31
0.0
  0
LINE
  5
12B
100
AcDbEntity
  8
0
370
              -2
390
0
  6
Continuous
 62
               0
100
AcDbLine
 10
808.23320327023112
 20
830.38031794204835
 30
0.0
 11
808.23320327023112
 21
530.38031794204835
 31
0.0
  0
CIRCLE
  5
12C
102
{ACAD_REACTORS
330
12D
102
}
100
AcDbEntity
  8
0
370
              -2
390
0
  6
Continuous
 62
               0
100
AcDbCircle
 10
808.23320327023112
 20
830.38031794204835
 30
0.0
 40
4.99969482421875
  0
HATCH
  5
12D
100
AcDbEntity
  8
0
370
              -2
390
0
  6
Continuous
 62
               0
100
AcDbHatch
 10
0.0
 20
0.0
 30
0.0
210
0.0
220
0.0
230
1.0
  2
SOLID
 70
               1
 71
               1
 91
        1
 92
        1
 93
        1
 72
               2
 10
808.23320327023112
 20
830.38031794204835
 40
4.99969482421875
 50
0.0
 51
360.0
 73
               0
 97
        1
330
12C
 75
               0
 76
               1
 98
        1
 10
0.0
 20
0.0
  0
CIRCLE
  5
12E
102
{ACAD_REACTORS
330
12F
102
}
100
AcDbEntity
  8
0
370
              -2
390
0
  6
Continuous
 62
               0
100
AcDbCircle
 10
808.23320327023112
 20
530.38031794204835
 30
0.0
 40
4.99969482421875
  0
HATCH
  5
12F
100
AcDbEntity
  8
0
370
              -2
390
0
  6
Continuous
 62
               0
100
AcDbHatch
 10
0.0
 20
0.0
 30
0.0
210
0.0
220
0.0
230
1.0
  2
SOLID
 70
               1
 71
               1
 91
        1
 92
        1
 93
        1
 72
               2
 10
808.23320327023112
 20
530.38031794204835
 40
4.99969482421875
 50
0.0
 51
360.0
 73
               0
 97
        1
330
12E
 75
               0
 76
               1
 98
        1
 10
0.0
 20
0.0
  0
MTEXT
  5
130
100
AcDbEntity
  8
0
390
0
 62
               0
100
AcDbMText
 10
774.35558608273118
 20
656.56781625987242
 30
0.0
 40
24.432617187500004
 41
0.0
 71
               1
 72
               1
  1
300
  7
ＭＳ ゴシック
 11
0.0
 21
1.0
 31
0.0
 73
               1
 44
0.7828267384257843
  0
POINT
  5
131
100
AcDbEntity
  8
Defpoints
370
               0
390
0
 62
               0
100
AcDbPoint
 10
553.10408833572615
 20
530.38031794204835
 30
0.0
  0
POINT
  5
132
100
AcDbEntity
  8
Defpoints
370
               0
390
0
 62
               0
100
AcDbPoint
 10
553.10408833572615
 20
830.38031794204835
 30
0.0
  0
POINT
  5
133
100
AcDbEntity
  8
Defpoints
370
               0
390
0
 62
               0
100
AcDbPoint
 10
808.23320327023112
 20
830.38031794204835
 30
0.0
  0
ENDBLK
  5
134
100
AcDbEntity
  8
ABA70-0103
390
0
100
AcDbBlockEnd
  0
BLOCK
  5
135
100
AcDbEntity
  8
ABA70-0103
390
0
100
AcDbBlockBegin
  2
*D20
 70
               1
 10
0.0
 20
0.0
 30
0.0
  3
*D20
  1

  0
LINE
  5
136
100
AcDbEntity
  8
0
370
              -2
390
0
  6
Continuous
 62
               0
100
AcDbLine
 10
353.10408833572546
 20
855.38031794204835
 30
0.0
 11
353.10408833572546
 21
919.99343680924176
 31
0.0
  0
LINE
  5
137
100
AcDbEntity
  8
0
370
              -2
390
0
  6
Continuous
 62
               0
100
AcDbLine
 10
553.10408833572615
 20
855.38031794204835
 30
0.0
 11
553.10408833572615
 21
919.99343680924176
 31
0.0
  0
LINE
  5
138
100
AcDbEntity
  8
0
370
              -2
390
0
  6
Continuous
 62
               0
100
AcDbLine
 10
353.10408833572546
 20
919.99343680924176
 30
0.0
 11
553.10408833572615
 21
919.99343680924176
 31
0.0
  0
CIRCLE
  5
139
102
{ACAD_REACTORS
330
13A
102
}
100
AcDbEntity
  8
0
370
              -2
390
0
  6
Continuous
 62
               0
100
AcDbCircle
 10
353.10408833572546
 20
919.99343680924176
 30
0.0
 40
4.99969482421875
  0
HATCH
  5
13A
100
AcDbEntity
  8
0
370
              -2
390
0
  6
Continuous
 62
               0
100
AcDbHatch
 10
0.0
 20
0.0
 30
0.0
210
0.0
220
0.0
230
1.0
  2
SOLID
 70
               1
 71
               1
 91
        1
 92
        1
 93
        1
 72
               2
 10
353.10408833572546
 20
919.99343680924176
 40
4.99969482421875
 50
0.0
 51
360.0
 73
               0
 97
        1
330
139
 75
               0
 76
               1
 98
        1
 10
0.0
 20
0.0
  0
CIRCLE
  5
13B
102
{ACAD_REACTORS
330
13C
102
}
100
AcDbEntity
  8
0
370
              -2
390
0
  6
Continuous
 62
               0
100
AcDbCircle
 10
553.10408833572615
 20
919.99343680924176
 30
0.0
 40
4.99969482421875
  0
HATCH
  5
13C
100
AcDbEntity
  8
0
370
              -2
390
0
  6
Continuous
 62
               0
100
AcDbHatch
 10
0.0
 20
0.0
 30
0.0
210
0.0
220
0.0
230
1.0
  2
SOLID
 70
               1
 71
               1
 91
        1
 92
        1
 93
        1
 72
               2
 10
553.10408833572615
 20
919.99343680924176
 40
4.99969482421875
 50
0.0
 51
360.0
 73
               0
 97
        1
330
13B
 75
               0
 76
               1
 98
        1
 10
0.0
 20
0.0
  0
MTEXT
  5
13D
100
AcDbEntity
  8
0
390
0
 62
               0
100
AcDbMText
 10
429.29158665354998
 20
953.87105399674147
 30
0.0
 40
24.432617187500004
 41
0.0
 71
               1
 72
               1
  1
200
  7
ＭＳ ゴシック
 73
               1
 44
0.7828267384257843
  0
POINT
  5
13E
100
AcDbEntity
  8
Defpoints
370
               0
390
0
 62
               0
100
AcDbPoint
 10
553.10408833572615
 20
830.38031794204835
 30
0.0
  0
POINT
  5
13F
100
AcDbEntity
  8
Defpoints
370
               0
390
0
 62
               0
100
AcDbPoint
 10
353.10408833572546
 20
830.38031794204835
 30
0.0
  0
POINT
  5
140
100
AcDbEntity
  8
Defpoints
370
               0
390
0
 62
               0
100
AcDbPoint
 10
353.10408833572546
 20
919.99343680924176
 30
0.0
  0
ENDBLK
  5
141
100
AcDbEntity
  8
ABA70-0103
390
0
100
AcDbBlockEnd
  0
ENDSEC
  0
SECTION
  2
ENTITIES
  0
MTEXT
  5
142
100
AcDbEntity
  8
1_10
390
0
 62
               7
100
AcDbMText
 10
-965.57791730693953
 20
-1145.3525880294528
 30
0.0
 40
16.288411458333332
 41
0.0
 71
               1
 72
               1
  1
品名
  7
ＭＳ ゴシック
 73
               1
 44
0.7828267384257843
  0
MTEXT
  5
143
100
AcDbEntity
  8
1_10
390
0
 62
               7
100
AcDbMText
 10
-965.57791730693953
 20
-1230.3525880294528
 30
0.0
 40
16.288411458333332
 41
0.0
 71
               1
 72
               1
  1
仕様
  7
ＭＳ ゴシック
 73
               1
 44
0.7828267384257843
  0
MTEXT
  5
144
100
AcDbEntity
  8
1_10
390
0
 62
               7
100
AcDbMText
 10
-912.57791730693953
 20
-1173.9350489669523
 30
0.0
 40
24.432617187500004
 41
0.0
 71
               1
 72
               1
  1
洗面器  -HATRIA,Sculture-
  7
ＭＳ ゴシック
 73
               1
 44
0.7828267384257843
  0
LINE
  5
145
100
AcDbEntity
  8
1_10
370
               5
390
0
  6
Continuous
 62
               7
100
AcDbLine
 10
977.42208269257821
 20
-1221.937666154452
 30
0.0
 11
-972.57791730742156
 21
-1221.937666154452
 31
0.0
  0
LWPOLYLINE
  5
146
100
AcDbEntity
  8
1_10
370
               5
390
0
  6
Continuous
 62
               7
100
AcDbPolyline
 90
        5
 70
             128
 10
977.4220826930607
 20
1408.062333845548
 10
-972.57791730693953
 20
1408.062333845548
 10
-972.57791730693953
 20
-1391.937666154452
 10
977.4220826930607
 20
-1391.937666154452
 10
977.4220826930607
 20
1408.062333845548
  0
LINE
  5
147
100
AcDbEntity
  8
1_10
370
               5
390
0
  6
Continuous
 62
               7
100
AcDbLine
 10
977.42208269257821
 20
-1136.937666154452
 30
0.0
 11
-972.57791730742156
 21
-1136.937666154452
 31
0.0
  0
LINE
  5
148
100
AcDbEntity
  8
1_10
370
               5
390
0
  6
Continuous
 62
               7
100
AcDbLine
 10
977.4220826930607
 20
-1306.937666154452
 30
0.0
 11
224.42208269306047
 21
-1306.937666154452
 31
0.0
  0
MTEXT
  5
149
100
AcDbEntity
  8
1_10
390
0
 62
               7
100
AcDbMText
 10
-912.57791730693953
 20
-1258.8642818246553
 30
0.0
 40
23.830668697325656
 41
0.0
 71
               1
 72
               1
  1
壁掛け,カウンタ ー置き/オーバーフロー付き/壁取付ボルト付属/\P陶器/ホワイト
  7
ＭＳ ゴシック
 73
               1
 44
1.1593117977104697
  0
MTEXT
  5
14A
100
AcDbEntity
  8
1_10
390
0
 62
               7
100
AcDbMText
 10
-972.57791730673671
 20
-1403.7914882113073
 30
0.0
 40
21.717881944444446
 41
0.0
 71
               1
 72
               1
  1
120403HS
  7
ＭＳ ゴシック
 73
               1
 44
0.7828267384257843
  0
MTEXT
  5
14B
100
AcDbEntity
  8
1_10
390
0
 62
               7
100
AcDbMText
 10
254.29348894532041
 20
-1336.848060627759
 30
0.0
 40
24.432617187500004
 41
0.0
 71
               1
 72
               1
  1
大洋金物株式会社 ティーフォルム事業部
  7
ＭＳ ゴシック
 73
               1
 44
0.7828267384257843
  0
INSERT
  5
14C
100
AcDbEntity
  8
1_10
390
0
 62
               7
100
AcDbBlockReference
  2
グループ
 10
2491.6099255308636
 20
9165.876052710526
 30
0.0
  0
MTEXT
  5
14D
100
AcDbEntity
  8
1_10
390
0
 62
               7
100
AcDbMText
 10
786.42208269331945
 20
-1258.9350489669523
 30
0.0
 40
24.432617187500004
 41
0.0
 71
               1
 72
               1
  1
1:10
  7
ＭＳ ゴシック
 73
               1
 44
0.7828267384257843
  0
MTEXT
  5
14E
100
AcDbEntity
  8
1_10
390
0
 62
               7
100
AcDbMText
 10
733.42208269331945
 20
-1230.3525880294528
 30
0.0
 40
16.288411458333332
 41
0.0
 71
               1
 72
               1
  1
縮尺
  7
ＭＳ ゴシック
 73
               1
 44
0.7828267384257843
  0
LINE
  5
14F
100
AcDbEntity
  8
1_10
370
               5
390
0
  6
Continuous
 62
               7
100
AcDbLine
 10
726.42208269331945
 20
-1306.937666154452
 30
0.0
 11
726.42208269331945
 21
-1221.937666154452
 31
0.0
  0
MTEXT
  5
150
100
AcDbEntity
  8
1_10
390
0
 62
               7
100
AcDbMText
 10
482.42208269331968
 20
-1230.3525880294528
 30
0.0
 40
16.288411458333332
 41
0.0
 71
               1
 72
               1
  1
容量
  7
ＭＳ ゴシック
 73
               1
 44
0.7828267384257843
  0
MTEXT
  5
151
100
AcDbEntity
  8
1_10
390
0
 62
               7
100
AcDbMText
 10
535.42208269331945
 20
-1258.9350489669523
 30
0.0
 40
24.432617187500004
 41
0.0
 71
               1
 72
               1
  1
8.5L
  7
ＭＳ ゴシック
 73
               1
 44
0.7828267384257843
  0
LINE
  5
152
100
AcDbEntity
  8
1_10
370
               5
390
0
  6
Continuous
 62
               7
100
AcDbLine
 10
475.42208269331968
 20
-1306.937666154452
 30
0.0
 11
475.42208269331968
 21
-1221.937666154452
 31
0.0
  0
MTEXT
  5
153
100
AcDbEntity
  8
1_10
390
0
 62
               7
100
AcDbMText
 10
231.42208269331968
 20
-1145.3525880294528
 30
0.0
 40
16.288411458333332
 41
0.0
 71
               1
 72
               1
  1
品番
  7
ＭＳ ゴシック
 73
               1
 44
0.7828267384257843
  0
MTEXT
  5
154
100
AcDbEntity
  8
1_10
390
0
 62
               7
100
AcDbMText
 10
231.42208269331968
 20
-1230.3525880294528
 30
0.0
 40
16.288411458333332
 41
0.0
 71
               1
 72
               1
  1
重量
  7
ＭＳ ゴシック
 73
               1
 44
0.7828267384257843
  0
MTEXT
  5
155
100
AcDbEntity
  8
1_10
390
0
 62
               7
100
AcDbMText
 10
284.42208269331968
 20
-1173.9350489669523
 30
0.0
 40
24.432617187500004
 41
0.0
 71
               1
 72
               1
  1
ABA70-0103
  7
ＭＳ ゴシック
 73
               1
 44
0.7828267384257843
  0
MTEXT
  5
156
100
AcDbEntity
  8
1_10
390
0
 62
               7
100
AcDbMText
 10
284.42208269331968
 20
-1258.9350489669523
 30
0.0
 40
24.432617187500004
 41
0.0
 71
               1
 72
               1
  1
20kg
  7
ＭＳ ゴシック
 73
               1
 44
0.7828267384257843
  0
LINE
  5
157
100
AcDbEntity
  8
1_10
370
               5
390
0
  6
Continuous
 62
               7
100
AcDbLine
 10
224.42208269331968
 20
-1391.937666154452
 30
0.0
 11
224.42208269331968
 21
-1136.937666154452
 31
0.0
  0
DIMENSION
  5
158
100
AcDbEntity
  8
notes
370
               5
390
0
  6
Continuous
 62
               7
100
AcDbDimension
  2
*D2
 10
-752.95916560141268
 20
1015.6858284237296
 30
0.0
 11
-427.95916560141268
 21
1015.6858284237296
 31
0.0
 71
               5
 72
               1
 41
1.0
 42
0.0
  3
tfrom線あり
100
AcDbAlignedDimension
 13
-102.95916560141268
 23
560.03477525428025
 33
0.0
 14
-752.95916560141268
 24
560.03477525428025
 34
0.0
100
AcDbRotatedDimension
1001
ACAD
1000
DSTYLE
1002
{
1070
             279
1070
               2
1070
             340
1005
37
1070
             147
1040
5.0
1002
}
  0
DIMENSION
  5
159
100
AcDbEntity
  8
notes
370
               5
390
0
  6
Continuous
 62
               7
100
AcDbDimension
  2
*D3
 10
834.59620219959311
 20
-348.72194708421921
 30
0.0
 11
784.59620219959311
 21
-348.72194708421921
 31
0.0
 71
               5
 72
               1
 41
1.0
 42
0.0
  3
tfrom線あり
100
AcDbAlignedDimension
 13
734.59620219959311
 23
-448.72194708421921
 33
0.0
 14
834.59620219959311
 24
-482.0
 34
0.0
100
AcDbRotatedDimension
1001
ACAD
1000
DSTYLE
1002
{
1070
             279
1070
               2
1070
             340
1005
37
1070
             147
1040
5.0
1002
}
  0
DIMENSION
  5
15A
100
AcDbEntity
  8
notes
370
               5
390
0
  6
Continuous
 62
               7
100
AcDbDimension
  2
*D4
 10
-434.48450921445556
 20
742.58568079665201
 30
0.0
 11
-332.00000000000136
 21
892.0
 31
0.0
 70
               3
 71
               5
 72
               1
 41
1.0
 42
0.0
  3
tfrom線あり
100
AcDbDiametricDimension
 15
-424.36504503187325
 25
778.17495508745014
 35
0.0
 40
118.33696374869172
1001
ACAD
1000
DSTYLE
1002
{
1070
             289
1070
               0
1070
             342
1005
47
1070
             340
1005
37
1070
              75
1070
               1
1070
              76
1070
               1
1070
               3
1000

1070
             174
1070
               0
1070
             147
1040
5.0
1002
}
  0
DIMENSION
  5
15B
100
AcDbEntity
  8
notes
370
               5
390
0
  6
Continuous
 62
               7
100
AcDbDimension
  2
*D5
 10
-647.77204510208321
 20
960.38031794204835
 30
0.0
 11
-427.77204510208321
 21
960.38031794204835
 31
0.0
 71
               5
 72
               1
 41
1.0
 42
0.0
  3
tfrom線あり
100
AcDbAlignedDimension
 13
-207.77204510208321
 23
860.38031794204835
 33
0.0
 14
-647.77204510208321
 24
860.38031794204835
 34
0.0
100
AcDbRotatedDimension
1001
ACAD
1000
DSTYLE
1002
{
1070
             271
1070
               0
1070
             279
1070
               2
1070
             340
1005
37
1070
             147
1040
5.0
1002
}
  0
DIMENSION
  5
15C
100
AcDbEntity
  8
notes
370
               5
390
0
  6
Continuous
 62
               7
100
AcDbDimension
  2
*D6
 10
-2.9591656012507883
 20
860.38031794204835
 30
0.0
 11
-2.9591656012507883
 21
572.88031794204835
 31
0.0
 71
               5
 72
               1
 41
1.0
 42
0.0
  3
tfrom線あり
100
AcDbAlignedDimension
 13
-419.42477712316486
 23
285.38031794204835
 33
0.0
 14
-208.22494091283124
 24
860.38031794204835
 34
0.0
 50
90.0
100
AcDbRotatedDimension
1001
ACAD
1000
DSTYLE
1002
{
1070
             279
1070
               2
1070
             340
1005
37
1070
             147
1040
5.0
1002
}
  0
DIMENSION
  5
15D
100
AcDbEntity
  8
notes
370
               5
390
0
  6
Continuous
 62
               7
100
AcDbDimension
  2
*D7
 10
-177.95916560141268
 20
185.38031794154449
 30
0.0
 11
-427.95916560141268
 21
185.38031794154449
 31
0.0
 71
               5
 72
               1
 41
1.0
 42
0.0
  3
tfrom線あり
100
AcDbAlignedDimension
 13
-677.95916560141268
 23
376.83073380254427
 33
0.0
 14
-177.95916560141268
 24
376.83073380254427
 34
0.0
100
AcDbRotatedDimension
1001
ACAD
1000
DSTYLE
1002
{
1070
             279
1070
               2
1070
             340
1005
37
1070
             147
1040
5.0
1002
}
  0
DIMENSION
  5
15E
100
AcDbEntity
  8
notes
370
               5
390
0
  6
Continuous
 62
               7
100
AcDbDimension
  2
*D8
 10
-852.95916560164642
 20
710.38031794204835
 30
0.0
 11
-852.95916560164642
 21
530.38031794204835
 31
0.0
 71
               5
 72
               1
 41
1.0
 42
0.0
  3
tfrom線あり
100
AcDbAlignedDimension
 13
-606.31664848571654
 23
350.38031794204835
 33
0.0
 14
-704.8030062296466
 24
710.38031794204835
 34
0.0
 50
90.0
100
AcDbRotatedDimension
1001
ACAD
1000
DSTYLE
1002
{
1070
             279
1070
               2
1070
             340
1005
37
1070
             147
1040
5.0
1002
}
  0
DIMENSION
  5
15F
100
AcDbEntity
  8
notes
370
               5
390
0
  6
Continuous
 62
               7
100
AcDbDimension
  2
*D9
 10
-852.95916560118212
 20
860.38031794204835
 30
0.0
 11
-852.95916560118212
 21
785.38031794204835
 31
0.0
 71
               5
 72
               1
 41
1.0
 42
0.0
  3
tfrom線あり
100
AcDbAlignedDimension
 13
-678.82609429077274
 23
710.38031794204835
 33
0.0
 14
-648.22494091283124
 24
860.38031794204835
 34
0.0
 50
90.0
100
AcDbRotatedDimension
1001
ACAD
1000
DSTYLE
1002
{
1070
             279
1070
               2
1070
             340
1005
37
1070
             147
1040
5.0
1002
}
  0
DIMENSION
  5
160
100
AcDbEntity
  8
notes
370
               5
390
0
  6
Continuous
 62
               7
100
AcDbDimension
  2
*D10
 10
-512.9640876878143
 20
-348.72194708422285
 30
0.0
 11
-427.9640876878143
 21
-348.72194708422285
 31
0.0
 71
               5
 72
               1
 41
1.0
 42
0.0
  3
tfrom線あり
100
AcDbAlignedDimension
 13
-342.9640876878143
 23
-523.72194708422285
 33
0.0
 14
-512.9640876878143
 24
-523.72194708422285
 34
0.0
100
AcDbRotatedDimension
1001
ACAD
1000
DSTYLE
1002
{
1070
             279
1070
               2
1070
             340
1005
37
1070
             147
1040
5.0
1002
}
  0
DIMENSION
  5
161
100
AcDbEntity
  8
notes
370
               5
390
0
  6
Continuous
 62
               7
100
AcDbDimension
  2
*D11
 10
834.59620219959311
 20
-793.72194708421921
 30
0.0
 11
709.59620219959311
 21
-793.72194708421921
 31
0.0
 71
               5
 72
               1
 41
1.0
 42
0.0
  3
tfrom線あり
100
AcDbAlignedDimension
 13
584.59620219959311
 23
-693.72194708421921
 33
0.0
 14
834.59620219959311
 24
-643.72194708421921
 34
0.0
100
AcDbRotatedDimension
1001
ACAD
1000
DSTYLE
1002
{
1070
             279
1070
               2
1070
             340
1005
37
1070
             147
1040
5.0
1002
}
  0
DIMENSION
  5
162
100
AcDbEntity
  8
notes
370
               5
390
0
  6
Continuous
 62
               7
100
AcDbDimension
  2
*D12
 10
-852.73584779681414
 20
-543.72194708422285
 30
0.0
 11
-852.73584779681414
 21
-496.22194708422285
 31
0.0
 71
               5
 72
               1
 41
1.0
 42
0.0
  3
tfrom線あり
100
AcDbAlignedDimension
 13
-740.31231863127823
 23
-448.72194708422285
 33
0.0
 14
-532.9640876878143
 24
-543.72194708422285
 34
0.0
 50
90.0
100
AcDbRotatedDimension
1001
ACAD
1000
DSTYLE
1002
{
1070
             279
1070
               2
1070
             340
1005
37
1070
             147
1040
5.0
1002
}
  0
DIMENSION
  5
163
100
AcDbEntity
  8
notes
370
               5
390
0
  6
Continuous
 62
               7
100
AcDbDimension
  2
*D13
 10
-3.1923275783501595
 20
-448.72194708422285
 30
0.0
 11
-3.1923275783501595
 21
-566.22198138322528
 31
0.0
 71
               5
 72
               1
 41
1.0
 42
0.0
  3
tfrom線あり
100
AcDbAlignedDimension
 13
-396.8486316276626
 23
-683.72201568222772
 33
0.0
 14
-115.61585674435037
 24
-448.72194708422285
 34
0.0
 50
90.0
100
AcDbRotatedDimension
1001
ACAD
1000
DSTYLE
1002
{
1070
             279
1070
               2
1070
             340
1005
37
1070
             147
1040
5.0
1002
}
  0
DIMENSION
  5
164
100
AcDbEntity
  8
notes
370
               5
390
0
  6
Continuous
 62
               7
100
AcDbDimension
  2
*D14
 10
201.23713309679761
 20
-649.07907599724422
 30
0.0
 11
201.23713309679761
 21
-549.07907599724422
 31
0.0
 71
               5
 72
               1
 41
1.0
 42
0.0
  3
tfrom線あり
100
AcDbAlignedDimension
 13
284.93488211672184
 23
-449.07907599724422
 33
0.0
 14
412.23713309679761
 24
-649.07907599724422
 34
0.0
 50
90.0
100
AcDbRotatedDimension
1001
ACAD
1000
DSTYLE
1002
{
1070
             279
1070
               2
1070
             340
1005
37
1070
             147
1040
5.0
1002
}
  0
MTEXT
  5
165
100
AcDbEntity
  8
notes
390
0
 62
               7
100
AcDbMText
 10
-264.99054465151312
 20
-373.18655438877067
 30
0.0
 40
24.432617187500004
 41
0.0
 71
               1
 72
               1
  1
壁取付ボルト穴(2ヶ所)
  7
ＭＳ ゴシック
 73
               1
 44
0.7828267384257843
  0
LINE
  5
166
100
AcDbEntity
  8
notes
370
               5
390
0
  6
Continuous
 62
               7
100
AcDbLine
 10
-342.9640876878143
 20
-543.72194708422285
 30
0.0
 11
-209.99054465151312
 21
-410.74840404792121
 31
0.0
  0
DIMENSION
  5
167
100
AcDbEntity
  8
notes
370
               5
390
0
  6
Continuous
 62
               7
100
AcDbDimension
  2
*D15
 10
588.06235597363116
 20
-448.72194708421921
 30
0.0
 11
593.06235597363116
 21
-550.0
 31
0.0
 70
             128
 71
               5
 72
               1
 41
1.0
 42
0.0
  3
tfrom線あり
100
AcDbAlignedDimension
 13
582.81235597363116
 23
-638.72194708421921
 33
0.0
 14
582.81235597363116
 24
-448.72194708421921
 34
0.0
 50
90.0
100
AcDbRotatedDimension
1001
ACAD
1000
DSTYLE
1002
{
1070
             279
1070
               2
1070
             340
1005
37
1070
               3
1000
(深さ)<>
1070
             147
1040
5.0
1002
}
  0
LINE
  5
168
100
AcDbEntity
  8
ABA70-0103
370
              15
390
0
  6
STYLE_11
 62
               7
100
AcDbLine
 10
547.09620219959311
 20
-638.73803853523896
 30
0.0
 11
613.79858315197475
 21
-638.73803853523896
 31
0.0
  0
LINE
  5
169
100
AcDbEntity
  8
ABA70-0103
370
              15
390
0
  6
Continuous
 62
               7
100
AcDbLine
 10
278.79294392470456
 20
-448.72194708421921
 30
0.0
 11
701.02097932275797
 21
-448.72194708421921
 31
0.0
  0
LINE
  5
16A
100
AcDbEntity
  8
ABA70-0103
370
              15
390
0
  6
STYLE_11
 62
               7
100
AcDbLine
 10
622.09620219959311
 20
-638.18472122001003
 30
0.0
 11
607.09620219959311
 21
-649.05481554493053
 31
0.0
  0
LWPOLYLINE
  5
16B
100
AcDbEntity
  8
ABA70-0103
370
              15
390
0
  6
Continuous
 62
               7
100
AcDbPolyline
 90
        2
 70
             128
 10
287.52781050724661
 20
-476.07350918350676
 42
-0.061526526127712
 10
427.80829515163668
 20
-646.40348757678476
 42
-0.061526526127712
  0
LWPOLYLINE
  5
16C
100
AcDbEntity
  8
ABA70-0103
370
              15
390
0
  6
STYLE_11
 62
               7
100
AcDbPolyline
 90
        2
 70
             128
 10
415.82116794591548
 20
-594.36395977460052
 42
-0.1092279436847012
 10
324.71709659553426
 20
-473.79799505457777
 42
-0.1092279436847012
  0
LWPOLYLINE
  5
16D
100
AcDbEntity
  8
ABA70-0103
370
              15
390
0
  6
Continuous
 62
               7
100
AcDbPolyline
 90
        2
 70
             128
 10
280.61937360845332
 20
-473.32918162780879
 42
-0.1927429226626792
 10
287.52781050752674
 20
-476.07350918377597
 42
-0.1927429226626792
  0
LWPOLYLINE
  5
16E
100
AcDbEntity
  8
ABA70-0103
370
              15
390
0
  6
Continuous
 62
               7
100
AcDbPolyline
 90
        8
 70
             128
 10
284.3681668015397
 20
-448.72194708421921
 42
0.051099298962109
 10
274.25739692306797
 20
-449.75795875955555
 42
0.0649481016503834
 10
266.69049727187667
 20
-452.3831123193886
 42
0.1042029417664625
 10
260.89430684464151
 20
-456.98748397278359
 42
0.1747045211894747
 10
259.3681668015397
 20
-461.22194708421921
 42
0.1747045211890839
 10
260.8943068446406
 20
-465.45641019565664
 42
0.1042029417662828
 10
266.6904972718753
 20
-470.06078184905164
 42
0.1171151396084083
 10
280.61937360844604
 20
-473.32918162781061
 42
0.1171151396084083
  0
LWPOLYLINE
  5
16F
100
AcDbEntity
  8
ABA70-0103
370
              15
390
0
  6
STYLE_11
 62
               7
100
AcDbPolyline
 90
        2
 70
             128
 10
284.3681668015397
 20
-448.72194708421921
 42
-0.285424791597181
 10
324.71709659556291
 20
-473.79799505463779
 42
-0.285424791597181
  0
LINE
  5
170
100
AcDbEntity
  8
ABA70-0103
370
              15
390
0
  6
Continuous
 62
               7
100
AcDbLine
 10
552.09620219959311
 20
-683.72194708421921
 30
0.0
 11
607.09620219959311
 21
-683.72194708421921
 31
0.0
  0
LINE
  5
171
100
AcDbEntity
  8
ABA70-0103
370
              15
390
0
  6
Continuous
 62
               7
100
AcDbLine
 10
434.36816680153652
 20
-648.72194708421921
 30
0.0
 11
432.02840659408957
 21
-648.72194708421921
 31
0.0
  0
LWPOLYLINE
  5
172
100
AcDbEntity
  8
ABA70-0103
370
              15
390
0
  6
Continuous
 62
               7
100
AcDbPolyline
 90
        2
 70
             128
 10
432.02840659408957
 20
-648.72194708421921
 42
-0.2566044327192484
 10
427.80829515174037
 20
-646.40348757695028
 42
-0.2566044327192484
  0
LWPOLYLINE
  5
173
100
AcDbEntity
  8
ABA70-0103
370
              15
390
0
  6
STYLE_11
 62
               7
100
AcDbPolyline
 90
        4
 70
             128
 10
547.09620219959311
 20
-638.73803853523896
 10
526.20796925118088
 20
-635.90067162373089
 42
-0.0990247760310106
 10
430.85061745020676
 20
-602.98085327436456
 10
415.92294037829424
 20
-594.23805620084204
  0
LWPOLYLINE
  5
174
100
AcDbEntity
  8
ABA70-0103
370
              15
390
0
  6
Continuous
 62
               7
100
AcDbPolyline
 90
        2
 70
             128
 10
547.41909412358132
 20
-653.76585871780117
 42
-0.3954100165756281
 10
552.09620219959311
 20
-658.75542190563829
 42
-0.3954100165756281
  0
LINE
  5
175
100
AcDbEntity
  8
ABA70-0103
370
              15
390
0
  6
STYLE_11
 62
               7
100
AcDbLine
 10
562.09620219959311
 20
-649.05481554493053
 30
0.0
 11
547.09620219959311
 21
-639.05481554493053
 31
0.0
  0
LINE
  5
176
100
AcDbEntity
  8
ABA70-0103
370
              15
390
0
  6
Continuous
 62
               7
100
AcDbLine
 10
607.09620219959129
 20
-657.46562874441588
 30
0.0
 11
607.09620219959311
 21
-649.05481554493053
 31
0.0
  0
LINE
  5
177
100
AcDbEntity
  8
ABA70-0103
370
              15
390
0
  6
STYLE_11
 62
               7
100
AcDbLine
 10
562.09620219959311
 20
-649.05481554493053
 30
0.0
 11
607.09620219959311
 21
-649.05481554493053
 31
0.0
  0
LINE
  5
178
100
AcDbEntity
  8
ABA70-0103
370
              15
390
0
  6
Continuous
 62
               7
100
AcDbLine
 10
552.09620219959311
 20
-658.75542190563829
 30
0.0
 11
552.09620219959311
 21
-683.72194708421921
 31
0.0
  0
LINE
  5
179
100
AcDbEntity
  8
ABA70-0103
370
              15
390
0
  6
STYLE_11
 62
               7
100
AcDbLine
 10
562.09620219959311
 20
-649.05481554493053
 30
0.0
 11
562.09620219959311
 21
-683.72194708421921
 31
0.0
  0
LWPOLYLINE
  5
17A
100
AcDbEntity
  8
ABA70-0103
370
              15
390
0
  6
STYLE_11
 62
               7
100
AcDbPolyline
 90
        2
 70
             128
 10
661.70309056063707
 20
-490.62218461392695
 42
-0.394163180620335
 10
706.5962021995947
 20
-448.72194708421739
 42
-0.394163180620335
  0
LINE
  5
17B
100
AcDbEntity
  8
ABA70-0103
370
              15
390
0
  6
Continuous
 62
               7
100
AcDbLine
 10
834.59620219959311
 20
-463.72194708421921
 30
0.0
 11
834.59620219959311
 21
-648.72194708421921
 31
0.0
  0
LINE
  5
17C
100
AcDbEntity
  8
ABA70-0103
370
              15
390
0
  6
Continuous
 62
               7
100
AcDbLine
 10
789.59620219959311
 20
-648.72194708421921
 30
0.0
 11
834.59620219959311
 21
-648.72194708421921
 31
0.0
  0
LINE
  5
17D
100
AcDbEntity
  8
ABA70-0103
370
              15
390
0
  6
Continuous
 62
               7
100
AcDbLine
 10
660.79858315197475
 20
-503.72194708422103
 30
0.0
 11
661.70309056063911
 21
-490.62218461391058
 31
0.0
  0
LINE
  5
17E
100
AcDbEntity
  8
ABA70-0103
370
              15
390
0
  6
STYLE_11
 62
               7
100
AcDbLine
 10
653.70357127549164
 20
-601.72545519610867
 30
0.0
 11
659.41763077102246
 21
-523.72194708421921
 31
0.0
  0
LWPOLYLINE
  5
17F
100
AcDbEntity
  8
ABA70-0103
370
              15
390
0
  6
STYLE_11
 62
               7
100
AcDbPolyline
 90
        3
 70
             128
 10
653.70357127549164
 20
-601.72545519610867
 42
-0.368516682630044
 10
626.84994399254606
 20
-637.06278411404492
 10
622.09620219960038
 20
-638.10001645314878
  0
LINE
  5
180
100
AcDbEntity
  8
ABA70-0103
370
              15
390
0
  6
Continuous
 62
               7
100
AcDbLine
 10
789.59620219959311
 20
-648.72194708421921
 30
0.0
 11
434.36816680153652
 21
-648.72194708421921
 31
0.0
  0
LINE
  5
181
100
AcDbEntity
  8
ABA70-0103
370
              15
390
0
  6
STYLE_11
 62
               7
100
AcDbLine
 10
659.41763077102246
 20
-523.72194708421921
 30
0.0
 11
660.79858315197475
 21
-503.72194708422103
 31
0.0
  0
LINE
  5
182
100
AcDbEntity
  8
ABA70-0103
370
              15
390
0
  6
Continuous
 62
               7
100
AcDbLine
 10
714.59620219959311
 20
-448.72194708421921
 30
0.0
 11
714.59620219959311
 21
-458.72194708422103
 31
0.0
  0
LINE
  5
183
100
AcDbEntity
  8
ABA70-0103
370
              15
390
0
  6
Continuous
 62
               7
100
AcDbLine
 10
754.59620219959311
 20
-448.72194708421921
 30
0.0
 11
754.59620219959311
 21
-458.72194708421921
 31
0.0
  0
LINE
  5
184
100
AcDbEntity
  8
ABA70-0103
370
              15
390
0
  6
Continuous
 62
               7
100
AcDbLine
 10
706.59620219959311
 20
-448.72194708421921
 30
0.0
 11
714.59620219959311
 21
-448.72194708421921
 31
0.0
  0
LINE
  5
185
100
AcDbEntity
  8
ABA70-0103
370
              15
390
0
  6
Continuous
 62
               7
100
AcDbLine
 10
804.56992699802527
 20
-463.72194708421921
 30
0.0
 11
834.59620219959311
 21
-463.72194708421921
 31
0.0
  0
LWPOLYLINE
  5
186
100
AcDbEntity
  8
ABA70-0103
370
              15
390
0
  6
Continuous
 62
               7
100
AcDbPolyline
 90
        8
 70
             128
 10
804.59620219959311
 20
-463.50328795409223
 10
804.56992699802527
 20
-463.72194708421921
 42
0.0598672212279428
 10
804.59620219959311
 20
-463.50328795409223
 10
804.59620219959311
 20
-461.22194708421921
 42
0.1747045211891308
 10
803.07006215649221
 20
-456.98748397278359
 42
0.1042029417665733
 10
797.27387172925273
 20
-452.38311231938678
 42
0.0649481016503102
 10
789.70697207805847
 20
-449.75795875955373
 42
0.0510992989621125
 10
779.59620219959311
 20
-448.72194708421921
 42
0.0510992989621125
  0
LINE
  5
187
100
AcDbEntity
  8
ABA70-0103
370
              15
390
0
  6
Continuous
 62
               7
100
AcDbLine
 10
754.59620219959311
 20
-448.72194708421921
 30
0.0
 11
779.59620219959311
 21
-448.72194708421921
 31
0.0
  0
LINE
  5
188
100
AcDbEntity
  8
ABA70-0103
370
              15
390
0
  6
Continuous
 62
               7
100
AcDbLine
 10
754.59620219959311
 20
-448.72194708421921
 30
0.0
 11
714.59620219959311
 21
-448.72194708421921
 31
0.0
  0
LWPOLYLINE
  5
189
100
AcDbEntity
  8
ABA70-0103
370
              15
390
0
  6
Continuous
 62
               7
100
AcDbPolyline
 90
        3
 70
             128
 10
670.55523057113919
 20
-648.72194708421921
 42
-0.1944038615864477
 10
645.86042207925448
 20
-663.506457030202
 10
621.57103643708638
 20
-667.31263243182912
  0
LINE
  5
18A
100
AcDbEntity
  8
ABA70-0103
370
              15
390
0
  6
Continuous
 62
               7
100
AcDbLine
 10
617.09620219959311
 20
-672.28497603639698
 30
0.0
 11
617.09620219959311
 21
-683.72194708421921
 31
0.0
  0
ARC
  5
18B
100
AcDbEntity
  8
ABA70-0103
370
              15
390
0
  6
STYLE_11
 62
               7
100
AcDbCircle
 10
613.79858315197657
 20
-598.809985238835
 30
0.0
 40
39.999999999987267
100
AcDbArc
 50
269.99999999999483
 51
281.97239963759125
  0
LWPOLYLINE
  5
18C
100
AcDbEntity
  8
ABA70-0103
370
              15
390
0
  6
Continuous
 62
               7
100
AcDbPolyline
 90
        2
 70
             128
 10
617.09620219959311
 20
-672.28497603639698
 42
-0.383718476834947
 10
621.57103643708638
 20
-667.31263243182912
 42
-0.383718476834947
  0
INSERT
  5
18D
100
AcDbEntity
  8
ABA70-0103
390
0
 62
               7
100
AcDbBlockReference
  2
グループ-1
 10
2491.6099255308636
 20
9165.876052710526
 30
0.0
  0
CIRCLE
  5
18E
100
AcDbEntity
  8
ABA70-0103
370
              15
390
0
  6
Continuous
 62
               7
100
AcDbCircle
 10
-429.42477712316486
 20
610.38031794204653
 30
0.0
 40
21.162907890028691
  0
LINE
  5
18F
100
AcDbEntity
  8
ABA70-0103
370
              15
390
0
  6
Continuous
 62
               7
100
AcDbLine
 10
-648.22494091283124
 20
860.38031794204835
 30
0.0
 11
-208.22494091283124
 21
860.38031794204835
 31
0.0
  0
LINE
  5
190
100
AcDbEntity
  8
ABA70-0103
370
              15
390
0
  6
Continuous
 62
               7
100
AcDbLine
 10
-208.22494091283124
 20
860.38031794204835
 30
0.0
 11
-208.22494091283124
 21
735.0
 31
0.0
  0
LINE
  5
191
100
AcDbEntity
  8
ABA70-0103
370
              15
390
0
  6
Continuous
 62
               7
100
AcDbLine
 10
-648.22494091283124
 20
736.0
 30
0.0
 11
-648.22494091283124
 21
860.38031794204835
 31
0.0
  0
CIRCLE
  5
192
100
AcDbEntity
  8
ABA70-0103
370
              15
390
0
  6
Continuous
 62
               7
100
AcDbCircle
 10
-429.42477712316486
 20
760.38031794204835
 30
0.0
 40
18.5
  0
LWPOLYLINE
  5
193
100
AcDbEntity
  8
ABA70-0103
370
              15
390
0
  6
Continuous
 62
               7
100
AcDbPolyline
 90
      212
 70
             128
 10
-752.96306050370004
 20
544.9907638841687
 42
0.001400053111933
 10
-752.95979232774062
 20
543.83171101784137
 10
-752.93860056117956
 20
540.06083435544133
 42
0.0194627738925084
 10
-752.55147875287457
 20
531.37511195425759
 10
-752.18511530916203
 20
526.9956758089902
 42
0.0207749744391337
 10
-750.16628940579812
 20
510.92992772153229
 10
-750.06671710504179
 20
510.33760998963953
 42
0.0175484583440467
 10
-747.0634224063856
 20
495.64585455170891
 42
0.0173737188762704
 10
-743.04220148446257
 20
481.19930727982864
 10
-743.02717871393816
 20
481.15179220800565
 42
0.0171278858794817
 10
-737.98620919635187
 20
466.92271707992404
 10
-737.9638305668077
 20
466.86581930128159
 42
0.0168026087707401
 10
-731.92103581150923
 20
452.8988083714903
 10
-731.89051163978138
 20
452.8342948055033
 42
0.0165163538326682
 10
-724.86579512005801
 20
439.1734922485266
 10
-724.82666621290309
 20
439.10320819536537
 42
0.0161466567230452
 10
-716.84233561476094
 20
425.79185398718073
 10
-716.79457440045871
 20
425.71776016101649
 42
0.0157643728048241
 10
-707.8772758615778
 20
412.79734715640006
 10
-707.82119048278764
 20
412.72132658925148
 42
0.0154251346661161
 10
-697.99890131889288
 20
400.23318595765522
 10
-697.9350690189749
 20
400.15698818826786
 42
0.015014067810528
 10
-687.23885610421075
 20
388.14080415138778
 10
-687.16823120324079
 20
388.0661054026823
 42
0.0146449994204629
 10
-675.63276949884994
 20
376.55972976082194
 10
-675.55644199338622
 20
376.48792901438173
 42
0.014303505075641
 10
-663.21766335376651
 20
365.52894581688088
 10
-663.13689931944145
 20
365.46124468900052
 42
0.0139181596533139
 10
-650.0341242376644
 20
355.08471073064175
 10
-649.95040937143358
 20
355.02212478643196
 42
0.0136066034576809
 10
-636.12563722927734
 20
345.26150868897275
 10
-636.04038777636015
 20
345.20473196236344
 42
0.0132968348902951
 10
-621.53708233699808
 20
336.09261278300255
 10
-621.45182312289626
 20
336.04215715725877
 42
0.0129795118406317
 10
-606.31664848575019
 20
327.60785160538217
 10
-606.23293626867007
 20
327.56400948629016
 42
0.0127436885395873
 10
-590.51434689522557
 20
319.83567094153841
 10
-590.43356693074929
 20
319.79847930152573
 42
0.0124867493970019
 10
-574.18166618898931
 20
312.80237827980818
 10
-574.10524484305643
 20
312.77171896214168
 42
0.0122587907938969
 10
-557.37271523958589
 20
306.53053224004179
 10
-557.30195735095549
 20
306.5060983003259
 42
0.0120986665234763
 10
-540.1426249443939
 20
301.04161738550465
 10
-540.07866154984731
 20
301.02293981765433
 42
0.0119097167029304
 10
-522.54792999623487
 20
296.35400596484033
 10
-522.49184613013404
 20
296.34049105497979
 42
0.0117772949004874
 10
-504.64683485862679
 20
292.48254894321144
 10
-504.59952003673334
 20
292.47348069516192
 42
0.0117072424737719
 10
-486.49799668212881
 20
289.44168826295572
 10
-481.87234838666973
 20
288.77787216514116
 42
0.0231022364924176
 10
-454.3254660987991
 20
286.11581232816752
 10
-449.68663924361499
 20
285.88301704412697
 42
0.0115077977153925
 10
-431.16016697676105
 20
285.38031794205017
 42
0.0114856645200995
 10
-412.6347035390645
 20
285.72970249611353
 10
-412.61945606150175
 20
285.73034080877551
 42
0.0115379343279913
 10
-394.16475456396438
 20
286.92999309543302
 10
-394.13892969191284
 20
286.93227127596401
 42
0.0115778495838747
 10
-375.81093517226782
 20
288.97773659299128
 10
-375.77493043851973
 20
288.98260124108492
 42
0.0116441672263844
 10
-357.63345905551887
 20
291.86533363010858
 10
-357.58779225693252
 20
291.87368477296695
 42
0.0117757666934262
 10
-339.69218825941562
 20
295.58378418801476
 10
-339.63763691537179
 20
295.59644047136317
 42
0.0118844753616857
 10
-322.04608420703607
 20
300.12094650257495
 10
-321.98349156754011
 20
300.13864134341384
 42
0.0120444642029527
 10
-304.75291243833772
 20
305.4610759171992
 10
-304.68327231954345
 20
305.48443904898522
 42
0.012250033894329
 10
-287.86974594255571
 20
311.58726812950408
 10
-287.79428645491043
 20
311.61676919196361
 42
0.0124334663821568
 10
-271.45189119589804
 20
318.47903858617246
 10
-271.3718041592665
 20
318.51503536649216
 42
0.012687190145199
 10
-255.55308306583674
 20
326.1132141422604
 10
-255.46976538533272
 20
326.1558684088759
 42
0.0129559668831947
 10
-240.22585829443096
 20
334.46525894165825
 10
-240.14081736352546
 20
334.51451416693271
 42
0.0132174919496462
 10
-225.52009909277376
 20
343.50702566054679
 10
-225.43472055563325
 20
343.56270070406936
 42
0.0135561192382017
 10
-211.48409131911467
 20
353.20873040335573
 10
-211.39997138734543
 20
353.2703304247334
 42
0.0138734348967809
 10
-198.16412789865308
 20
363.53878631354564
 10
-198.08277057475243
 20
363.60560024247388
 42
0.014207322412576
 10
-185.60316925562893
 20
374.46242722844909
 10
-185.52590240004201
 20
374.53360249934121
 42
0.0146033885225331
 10
-173.8427235775398
 20
385.94405475752319
 10
-173.77083890195809
 20
386.01848493168291
 42
0.0149507109851758
 10
-162.92148829843745
 20
397.94586116633218
 10
-162.85647023688534
 20
398.02178040921535
 42
0.0153262380788554
 10
-152.87424720622676
 20
410.4278534414243
 10
-152.81671820483689
 20
410.50401744355622
 42
0.015730817963154
 10
-143.73416361886029
 20
423.34963696951672
 10
-143.68488886875866
 20
423.42419624556896
 42
0.0160636738741279
 10
-135.53074408438351
 20
436.66855863634919
 10
-135.49005385682176
 20
436.73966900575942
 42
0.0164429242011986
 10
-128.2903074427204
 20
450.34068312148884
 10
-128.25823026649095
 20
450.40642015285994
 42
0.0167794032491905
 10
-122.03714923302095
 20
464.3216248582612
 10
-122.01336704777123
 20
464.38000199989256
 42
0.0170446138079603
 10
-116.79066842037491
 20
478.56537277327516
 10
-116.77438728685047
 20
478.61471945390986
 42
0.0173437857265068
 10
-112.56798310276054
 20
493.02544021627546
 10
-112.55813590370599
 20
493.06411472858235
 42
0.0175354453111358
 10
-109.38331579924807
 20
507.65481833241574
 10
-109.37848723970001
 20
507.68147665378638
 42
0.0176747948215688
 10
-107.24584686846219
 20
522.40565315175445
 10
-107.24434560487998
 20
522.41943621712016
 42
0.0178129844409886
 10
-106.16317174862252
 20
537.22998819662644
 42
0.017809738586578
 10
-106.13892131286275
 20
552.07960640705096
 42
0.0177849496535205
 10
-107.17086572388689
 20
566.89304298375464
 10
-107.17225336804677
 20
566.90619533620884
 42
0.0177194235120728
 10
-109.2562001852898
 20
581.63534297718797
 10
-109.26083937408703
 20
581.66143127351825
 42
0.0175245700332118
 10
-112.38801038919519
 20
596.25924131330066
 10
-112.39758257779658
 20
596.29735197503396
 42
0.0173428843827622
 10
-116.55601896080498
 20
610.71746305296438
 10
-116.5719659590477
 20
610.76632941353819
 42
0.0170910084723671
 10
-121.74802905330262
 20
624.9629112806233
 10
-121.77146072378173
 20
625.02093552803672
 42
0.0167608375453167
 10
-127.94683739616767
 20
638.94951877642779
 10
-127.97849323344099
 20
639.01491154840187
 42
0.0164706697975753
 10
-135.13289174309193
 20
652.63147377689165
 10
-135.17318145568788
 20
652.70238061387499
 42
0.0160982971701092
 10
-143.28391249842207
 20
665.96381148338151
 10
-143.332813964862
 20
666.03827199892476
 42
0.015714412704709
 10
-152.37286192225838
 20
678.9032300223771
 10
-152.4300216829588
 20
678.97937120902498
 42
0.0153744114811689
 10
-162.37103491148127
 20
691.40667661260886
 10
-162.43583704061439
 20
691.48276742122289
 42
0.0149636585601233
 10
-173.24638552617625
 20
703.43290454495036
 10
-173.31784196210674
 20
703.50729306846188
 42
0.0145955536161304
 10
-184.96289934277411
 20
714.94259951816093
 10
-185.03989428091063
 20
715.0139148634953
 42
0.0142556051966622
 10
-197.48317498889719
 20
725.89700234722659
 10
-197.56442354230558
 20
725.96407377785727
 42
0.013872506923443
 10
-210.76627288411009
 20
736.26010301944916
 10
-210.85027673029299
 20
736.32194743470609
 42
0.0135634386710493
 10
-224.76837307999085
 20
745.99768554732509
 10
-224.85370977933871
 20
746.05364011969505
 42
0.0132565433529925
 10
-239.44427304799092
 20
755.07675455144999
 10
-239.5294171049427
 20
755.12633848360929
 42
0.0129424155504495
 10
-254.74549413881596
 20
763.46778034687668
 10
-254.82889301776731
 20
763.51073084969539
 42
0.0127098067126848
 10
-270.62175203897232
 20
771.14262891728686
 10
-270.7020280573247
 20
771.17893532186281
 42
0.0124563314428585
 10
-287.02130415773172
 20
778.07531325206037
 10
-287.09704300469502
 20
778.1051188144047
 42
0.0122318957719104
 10
-303.88982387872602
 20
784.24361158827196
 10
-303.95973521048199
 20
784.26724529468447
 42
0.0120752650724015
 10
-321.17197693161279
 20
789.62638353235161
 10
-321.23494553662204
 20
789.64433326001017
 42
0.0118899413327114
 10
-338.81105130388232
 20
794.20560874157854
 10
-338.8660117758418
 20
794.2184852335231
 42
0.0117610954294128
 10
-356.74870115993281
 20
797.9667986456443
 10
-356.7947834329475
 20
797.97533156978534
 42
0.0116934154801623
 10
-374.92613074957217
 20
800.89591986154664
 10
-379.55554999660399
 20
801.53094955799497
 42
0.0230883429555117
 10
-407.12921056905634
 20
804.02356513461382
 10
-411.77051514065624
 20
804.22784422361656
 42
0.0115065157495952
 10
-430.29979974124535
 20
804.61651381740376
 42
0.0114864952170442
 10
-448.82137945135264
 20
804.15317196010255
 10
-448.83805896505601
 20
804.15237076185986
 42
0.0115432169021131
 10
-467.27931075814058
 20
802.83929185010675
 10
-467.30652500604947
 20
802.83672151505925
 42
0.0115867129662514
 10
-485.6130145516945
 20
800.67870275848145
 10
-485.65034316218953
 20
800.6734227869747
 42
0.0116565995383453
 10
-503.76234980717209
 20
797.67937673529377
 10
-503.80925426908198
 20
797.67049521329318
 42
0.0117918241361658
 10
-521.66754409666009
 20
793.85068381184465
 10
-521.72322443866142
 20
793.83739364713256
 42
0.0119040890505959
 10
-539.2697545835922
 20
789.20513025782748
 10
-539.3333479899934
 20
789.18671163178806
 42
0.0120676537880394
 10
-556.51136698207802
 20
783.75881821533039
 10
-556.58186152208873
 20
783.73465748258968
 42
0.0122768232086455
 10
-573.33547408812728
 20
777.52900408470668
 10
-573.41162388349085
 20
777.49865154633335
 42
0.0124636963206436
 10
-589.68696757104226
 20
770.53651402050673
 10
-589.76756705052685
 20
770.49963303497861
 42
0.0127208851021774
 10
-605.51233636777761
 20
762.80485292994126
 10
-605.59597683702805
 20
762.76130633117464
 42
0.0129929885551563
 10
-620.75928257736132
 20
754.35887994197037
 10
-620.84444797244032
 20
754.30875190842562
 42
0.0132575719958734
 10
-635.3781958193631
 20
745.22704957766473
 10
-635.46349659561656
 20
745.17054923421165
 42
0.0135991802668419
 10
-649.32107879918476
 20
735.43944219519108
 10
-649.40491918787757
 20
735.37709584671393
 42
0.0139190328491728
 10
-662.54194485871722
 20
725.02792802140902
 10
-662.62282681137503
 20
724.96047882250059
 42
0.0142550377977752
 10
-674.99816954248263
 20
714.02753547830434
 10
-675.07476792812167
 20
713.95587541790519
 42
0.014652645194221
 10
-686.64860280016228
 20
702.47411109931636
 10
-686.71965500757187
 20
702.39936805503021
 42
0.0150008337348404
 10
-697.45492555712735
 20
690.4056938880567
 10
-697.51899537437475
 20
690.3296413406224
 42
0.0153776265899484
 10
-707.38269403344339
 20
677.86249145722286
 10
-707.43915132678421
 20
677.7864388204689
 42
0.01578068336276
 10
-716.39912911762349
 20
664.88510232255067
 10
-716.44726622247754
 20
664.81089773429812
 42
0.0161122119274038
 10
-724.47516415479822
 20
651.51634926644329
 10
-724.51469373663258
 20
651.44584919241061
 42
0.0164887204013961
 10
-731.58489504619047
 20
637.80031875893474
 10
-731.61583787786731
 20
637.73544830733044
 42
0.0168213759543327
 10
-737.70445580806427
 20
623.78154238485331
 10
-737.72717910062556
 20
623.72428442771707
 42
0.0170818426212489
 10
-742.81488355603324
 20
609.50613311425332
 10
-742.83024000026126
 20
609.45810640137097
 42
0.0173749832624935
 10
-746.89949423950702
 20
595.02069389727694
 10
-746.90856205313821
 20
594.98363657701702
 42
0.0175588740857002
 10
-749.94455194820102
 20
580.37223955247464
 42
0.0176980492195782
 10
-751.94363337613959
 20
565.58341066428693
 10
-752.07162120792964
 20
564.29441502098962
 42
0.0241238295051313
 10
-752.95916560141268
 20
546.81396611844684
 10
-752.9624223314122
 20
545.50692742970568
 42
0.0006276527511211
 10
-752.96306050370004
 20
544.9907638841687
 42
0.0006276527511211
  0
LINE
  5
194
100
AcDbEntity
  8
ABA70-0103
370
              15
390
0
  6
STYLE_11
 62
               7
100
AcDbLine
 10
607.09620219959311
 20
-657.46562874441588
 30
0.0
 11
607.09620219959311
 21
-683.72194708421921
 31
0.0
  0
LWPOLYLINE
  5
195
100
AcDbEntity
  8
ABA70-0103
370
              15
390
0
  6
Continuous
 62
               7
100
AcDbPolyline
 90
        2
 70
             128
 10
-164.43792783460003
 20
543.42310622351943
 42
0.213511980974638
 10
-215.40287112501755
 20
620.08505621917539
 42
0.213511980974638
  0
LWPOLYLINE
  5
196
100
AcDbEntity
  8
ABA70-0103
370
              15
390
0
  6
Continuous
 62
               7
100
AcDbPolyline
 90
        2
 70
             128
 10
-643.49682009576236
 20
620.0850562191772
 42
0.2140485665532889
 10
-694.41162641173014
 20
543.4190263594428
 42
0.2140485665532889
  0
LWPOLYLINE
  5
197
100
AcDbEntity
  8
ABA70-0103
370
              15
390
0
  6
Continuous
 62
               7
100
AcDbPolyline
 90
        2
 70
             128
 10
-694.41162641173014
 20
543.4190263594428
 42
0.2951489122949991
 10
-593.43327028437898
 20
370.17886794646438
 42
0.2951489122949991
  0
LWPOLYLINE
  5
198
100
AcDbEntity
  8
ABA70-0103
370
              15
390
0
  6
Continuous
 62
               7
100
AcDbPolyline
 90
        2
 70
             128
 10
-164.43792783460003
 20
543.42310622351943
 42
-0.2951489122949913
 10
-265.41628396195119
 20
370.18294781054101
 42
-0.2951489122949913
  0
LWPOLYLINE
  5
199
100
AcDbEntity
  8
ABA70-0103
370
              15
390
0
  6
Continuous
 62
               7
100
AcDbPolyline
 90
        2
 70
             128
 10
-593.43327028437943
 20
370.17886794646438
 42
0.2498865374906461
 10
-265.41628396195165
 20
370.18294781054101
 42
0.2498865374906461
  0
LWPOLYLINE
  5
19A
100
AcDbEntity
  8
ABA70-0103
370
              15
390
0
  6
Continuous
 62
               7
100
AcDbPolyline
 90
        2
 70
             128
 10
-215.40287112501755
 20
620.08505621917539
 42
0.2786575374810845
 10
-643.49682009576463
 20
620.08505621917539
 42
0.2786575374810845
  0
LINE
  5
19B
100
AcDbEntity
  8
ABA70-0103
370
              15
390
0
  6
STYLE_11
 62
               7
100
AcDbLine
 10
-342.9640876878143
 20
-523.72194708422285
 30
0.0
 11
-342.9640876878143
 21
-563.72194708422285
 31
0.0
  0
LINE
  5
19C
100
AcDbEntity
  8
ABA70-0103
370
              15
390
0
  6
STYLE_11
 62
               7
100
AcDbLine
 10
-362.9640876878143
 20
-543.72194708422285
 30
0.0
 11
-322.9640876878143
 21
-543.72194708422285
 31
0.0
  0
CIRCLE
  5
19D
100
AcDbEntity
  8
ABA70-0103
370
              15
390
0
  6
STYLE_11
 62
               7
100
AcDbCircle
 10
-342.9640876878143
 20
-543.72194708422285
 30
0.0
 40
10.0
  0
LINE
  5
19E
100
AcDbEntity
  8
ABA70-0103
370
              15
390
0
  6
Continuous
 62
               7
100
AcDbLine
 10
-396.8487653687348
 20
-656.98531080000066
 30
0.0
 11
-388.77123516873462
 21
-649.01468919999934
 31
0.0
  0
LINE
  5
19F
100
AcDbEntity
  8
ABA70-0103
370
              15
390
0
  6
Continuous
 62
               7
100
AcDbLine
 10
-649.42477712316486
 20
-648.72194708421921
 30
0.0
 11
-209.42477712316486
 21
-648.72194708421921
 31
0.0
  0
LINE
  5
1A0
100
AcDbEntity
  8
ABA70-0103
370
              15
390
0
  6
Continuous
 62
               7
100
AcDbLine
 10
-461.84906716873365
 20
-657.13379920000079
 30
0.0
 11
-470.12380296873516
 21
-648.96863900000062
 31
0.0
  0
LINE
  5
1A1
100
AcDbEntity
  8
ABA70-0103
370
              15
390
0
  6
Continuous
 62
               7
100
AcDbLine
 10
-461.84911122667245
 20
-683.72176199112801
 30
0.0
 11
-461.84906716873365
 21
-657.13379920000079
 31
0.0
  0
LINE
  5
1A2
100
AcDbEntity
  8
ABA70-0103
370
              15
390
0
  6
Continuous
 62
               7
100
AcDbLine
 10
-396.8486316276626
 20
-683.72201568222772
 30
0.0
 11
-461.84911122667245
 21
-683.72176199112801
 31
0.0
  0
LINE
  5
1A3
100
AcDbEntity
  8
ABA70-0103
370
              15
390
0
  6
Continuous
 62
               7
100
AcDbLine
 10
-396.8486316276626
 20
-683.72201568222772
 30
0.0
 11
-396.8487653687348
 21
-656.98531080000066
 31
0.0
  0
LWPOLYLINE
  5
1A4
100
AcDbEntity
  8
ABA70-0103
370
              15
390
0
  6
Continuous
 62
               7
100
AcDbPolyline
 90
        3
 70
             128
 10
-649.42477712316486
 20
-648.72194708421921
 10
-651.68802206191003
 20
-642.29711954709273
 42
0.0683593643701097
 10
-738.27542163573025
 20
-474.01021356224373
 42
0.0683593643701097
  0
LWPOLYLINE
  5
1A5
100
AcDbEntity
  8
ABA70-0103
370
              15
390
0
  6
Continuous
 62
               7
100
AcDbPolyline
 90
        3
 70
             128
 10
-209.42477712316486
 20
-648.72194708421921
 10
-207.16945431117301
 20
-642.33035272197958
 42
-0.0684254620705456
 10
-120.42477712316486
 20
-474.01021356224373
 42
-0.0684254620705456
  0
LINE
  5
1A6
100
AcDbEntity
  8
ABA70-0103
370
              15
390
0
  6
Continuous
 62
               7
100
AcDbLine
 10
-745.17739893673161
 20
-474.01021356224373
 30
0.0
 11
-110.75077643889472
 21
-474.01021356224373
 31
0.0
  0
LINE
  5
1A7
100
AcDbEntity
  8
ABA70-0103
370
              15
390
0
  6
Continuous
 62
               7
100
AcDbLine
 10
-740.31231863127823
 20
-448.72194708422285
 30
0.0
 11
-115.61585674435037
 21
-448.72194708422285
 31
0.0
  0
LWPOLYLINE
  5
1A8
100
AcDbEntity
  8
ABA70-0103
370
              15
390
0
  6
Continuous
 62
               7
100
AcDbPolyline
 90
        3
 70
             128
 10
-740.31231863127823
 20
-448.72194708422285
 42
0.3474020212574275
 10
-752.7358477967914
 20
-459.44396502441123
 42
0.3474020212570393
 10
-745.17739893673479
 20
-474.01021356224192
 42
0.3474020212570393
  0
LWPOLYLINE
  5
1A9
100
AcDbEntity
  8
ABA70-0103
370
              15
390
0
  6
Continuous
 62
               7
100
AcDbPolyline
 90
        3
 70
             128
 10
-110.7507764388979
 20
-474.01021356224373
 42
0.3474020212571299
 10
-103.19232757883992
 20
-459.44396502440941
 42
0.3474020212573329
 10
-115.61585674435037
 20
-448.72194708422285
 42
0.3474020212573329
  0
LINE
  5
1AA
100
AcDbEntity
  8
ABA70-0103
370
              15
390
0
  6
STYLE_11
 62
               7
100
AcDbLine
 10
-512.9640876878143
 20
-523.72194708422285
 30
0.0
 11
-512.9640876878143
 21
-563.72194708422285
 31
0.0
  0
LINE
  5
1AB
100
AcDbEntity
  8
ABA70-0103
370
              15
390
0
  6
STYLE_11
 62
               7
100
AcDbLine
 10
-532.9640876878143
 20
-543.72194708422285
 30
0.0
 11
-492.9640876878143
 21
-543.72194708422285
 31
0.0
  0
CIRCLE
  5
1AC
100
AcDbEntity
  8
ABA70-0103
370
              15
390
0
  6
STYLE_11
 62
               7
100
AcDbCircle
 10
-512.9640876878143
 20
-543.72194708422285
 30
0.0
 40
10.0
  0
LWPOLYLINE
  5
1AD
100
AcDbEntity
  8
ABA70-0103
370
              15
390
0
  6
STYLE_11
 62
               7
100
AcDbPolyline
 90
        2
 70
             128
 10
-596.38637061994132
 20
-594.36395977460052
 42
-0.109227943684705
 10
-687.49044197032572
 20
-473.79799505457231
 42
-0.109227943684705
  0
LWPOLYLINE
  5
1AE
100
AcDbEntity
  8
ABA70-0103
370
              15
390
0
  6
STYLE_11
 62
               7
100
AcDbPolyline
 90
        2
 70
             128
 10
-727.839371764318
 20
-448.72194708421921
 42
-0.285424791597178
 10
-687.4904419702948
 20
-473.79799505463779
 42
-0.285424791597178
  0
LWPOLYLINE
  5
1AF
100
AcDbEntity
  8
ABA70-0103
370
              15
390
0
  6
STYLE_11
 62
               7
100
AcDbPolyline
 90
        3
 70
             128
 10
-465.11133636626255
 20
-639.09229668830631
 42
-0.1426114063742756
 10
-592.26512421909638
 20
-592.56436534279601
 10
-596.28459818756255
 20
-589.60840580492913
  0
LINE
  5
1B0
100
AcDbEntity
  8
ABA70-0103
370
              15
390
0
  6
STYLE_11
 62
               7
100
AcDbLine
 10
-451.84871531094586
 20
-648.67141937958695
 30
0.0
 11
-451.84885210947186
 21
-683.72180102125094
 31
0.0
  0
LINE
  5
1B1
100
AcDbEntity
  8
ABA70-0103
370
              15
390
0
  6
STYLE_11
 62
               7
100
AcDbLine
 10
-451.84871531094586
 20
-648.67141937958695
 30
0.0
 11
-465.11133636626255
 21
-638.67141937958695
 31
0.0
  0
LWPOLYLINE
  5
1B2
100
AcDbEntity
  8
ABA70-0103
370
              15
390
0
  6
STYLE_11
 62
               7
100
AcDbPolyline
 90
        2
 70
             128
 10
-262.3105966691337
 20
-594.36526364267775
 42
0.1092279436847072
 10
-171.20558420502175
 20
-473.80001006853308
 42
0.1092279436847072
  0
LWPOLYLINE
  5
1B3
100
AcDbEntity
  8
ABA70-0103
370
              15
390
0
  6
STYLE_11
 62
               7
100
AcDbPolyline
 90
        2
 70
             128
 10
-130.85645867307494
 20
-448.7242770555149
 42
0.285424791597192
 10
-171.20558420504858
 20
-473.80001006859129
 42
0.285424791597192
  0
LWPOLYLINE
  5
1B4
100
AcDbEntity
  8
ABA70-0103
370
              15
390
0
  6
STYLE_11
 62
               7
100
AcDbPolyline
 90
        3
 70
             128
 10
-393.58601619849514
 20
-639.0925758452795
 42
0.1426114063742724
 10
-266.43186516076639
 20
-592.56563704106884
 10
-262.41236811872795
 20
-589.60970887859185
  0
LINE
  5
1B5
100
AcDbEntity
  8
ABA70-0103
370
              15
390
0
  6
STYLE_11
 62
               7
100
AcDbLine
 10
-406.84871531163117
 20
-648.67159501058995
 30
0.0
 11
-406.84885211015853
 21
-683.72197665225394
 31
0.0
  0
LINE
  5
1B6
100
AcDbEntity
  8
ABA70-0103
370
              15
390
0
  6
STYLE_11
 62
               7
100
AcDbLine
 10
-406.84871531163117
 20
-648.67159501058995
 30
0.0
 11
-393.58601619849514
 21
-638.67169853656014
 31
0.0
  0
LINE
  5
1B7
100
AcDbEntity
  8
ABA70-0103
370
              15
390
0
  6
Continuous
 62
               7
100
AcDbLine
 10
607.09620219959311
 20
-683.72194708421921
 30
0.0
 11
617.09620219959311
 21
-683.72194708421921
 31
0.0
  0
SPLINE
  5
1B8
100
AcDbEntity
  8
ABA70-0103
370
              15
390
0
  6
Continuous
 62
               7
100
AcDbSpline
210
0.0
220
0.0
230
1.0
 70
               8
 71
               2
 72
               6
 73
               3
 74
               0
 42
0.000001
 43
0.000001
 40
0.0
 40
0.0
 40
0.0
 40
1.0
 40
1.0
 40
1.0
 10
547.41909412358132
 20
-653.76585871780117
 30
0.0
 10
535.23713309679601
 20
-653.76585871780117
 30
0.0
 10
519.23713309679601
 20
-648.72194708421921
 30
0.0
  0
LINE
  5
1B9
100
AcDbEntity
  8
ABA70-0103
370
              15
390
0
  6
Continuous
 62
               7
100
AcDbLine
 10
767.22642822836474
 20
-479.27299646186839
 30
0.0
 11
710.23713309679601
 21
-648.72194708421921
 31
0.0
  0
LINE
  5
1BA
100
AcDbEntity
  8
ABA70-0103
370
              15
390
0
  6
STYLE_11
 62
               7
100
AcDbLine
 10
-464.49932515873525
 20
-639.13287507901077
 30
0.0
 11
-394.19803131812978
 21
-639.13314969251951
 31
0.0
  0
DIMENSION
  5
1BB
100
AcDbEntity
  8
ABA70-0103
370
               5
390
0
  6
Continuous
 62
               7
100
AcDbDimension
  2
*D17
 10
884.36213309679601
 20
-448.72194708421921
 30
0.0
 11
889.36213309679601
 21
-431.0
 31
0.0
 70
             128
 71
               5
 72
               1
 41
1.0
 42
0.0
  3
tfrom線あり
100
AcDbAlignedDimension
 13
823.23713309679601
 23
-463.72194708421921
 33
0.0
 14
779.5962021995856
 24
-448.72194708421921
 34
0.0
 50
90.0
100
AcDbRotatedDimension
1001
ACAD
1000
DSTYLE
1002
{
1070
             279
1070
               2
1070
             340
1005
37
1070
             174
1070
               0
1070
             147
1040
5.0
1002
}
  0
CIRCLE
  5
1BC
100
AcDbEntity
  8
ABA70-0103
370
              15
390
0
  6
STYLE_11
 62
               7
100
AcDbCircle
 10
453.33171394984811
 20
610.38031794204653
 30
0.0
 40
21.162907890028691
  0
LINE
  5
1BD
100
AcDbEntity
  8
ABA70-0103
370
              15
390
0
  6
STYLE_11
 62
               7
100
AcDbLine
 10
234.53155016018036
 20
860.38031794204835
 30
0.0
 11
674.53155016018172
 21
860.38031794204835
 31
0.0
  0
LINE
  5
1BE
100
AcDbEntity
  8
ABA70-0103
370
              15
390
0
  6
STYLE_11
 62
               7
100
AcDbLine
 10
674.53155016018172
 20
860.38031794204835
 30
0.0
 11
674.53155016018172
 21
735.0
 31
0.0
  0
LINE
  5
1BF
100
AcDbEntity
  8
ABA70-0103
370
              15
390
0
  6
STYLE_11
 62
               7
100
AcDbLine
 10
234.53155016018036
 20
736.0
 30
0.0
 11
234.53155016018036
 21
860.38031794204835
 31
0.0
  0
CIRCLE
  5
1C0
100
AcDbEntity
  8
ABA70-0103
370
              15
390
0
  6
STYLE_11
 62
               7
100
AcDbCircle
 10
453.33171394984811
 20
760.38031794204835
 30
0.0
 40
18.5
  0
LWPOLYLINE
  5
1C1
100
AcDbEntity
  8
ABA70-0103
370
              15
390
0
  6
STYLE_11
 62
               7
100
AcDbPolyline
 90
      212
 70
             128
 10
129.79343056931157
 20
544.9907638841687
 42
0.001400053111933
 10
129.79669874527099
 20
543.83171101784137
 10
129.81789051183205
 20
540.06083435544133
 42
0.0194627738925109
 10
130.20501232013703
 20
531.37511195425759
 10
130.57137576384957
 20
526.9956758089902
 42
0.0207749744391337
 10
132.59020166721348
 20
510.92992772153229
 10
132.68977396797027
 20
510.33760998963953
 42
0.0175484583440503
 10
135.693068666626
 20
495.64585455170891
 42
0.0173737188762764
 10
139.71428958854676
 20
481.19930727983592
 10
139.72931235907345
 20
481.15179220800565
 42
0.0171278858795328
 10
144.77028187666247
 20
466.92271707991858
 10
144.7926605062039
 20
466.86581930128159
 42
0.0168026087707397
 10
150.83545526150237
 20
452.8988083714903
 10
150.86597943323022
 20
452.8342948055033
 42
0.0165163538326627
 10
157.8906959529636
 20
439.17349224850841
 10
157.92982486010851
 20
439.10320819536537
 42
0.0161466567229932
 10
165.91415545825021
 20
425.79185398718073
 10
165.96191667255289
 20
425.71776016101649
 42
0.01576437280481
 10
174.87921521143335
 20
412.79734715640188
 10
174.93530059022396
 20
412.72132658925148
 42
0.0154251346661121
 10
184.757589754111
 20
400.23318595766432
 10
184.8214220540367
 20
400.15698818826786
 42
0.0150140678105372
 10
195.51763496881995
 20
388.14080415136777
 10
195.58825986977081
 20
388.0661054026823
 42
0.0146449994204629
 10
207.1237215741553
 20
376.55972976082739
 10
207.20004907962539
 20
376.48792901438173
 42
0.0143035050756231
 10
219.53882771926919
 20
365.52894581685905
 10
219.61959175357015
 20
365.46124468900052
 42
0.013918159653299
 10
232.72236683532446
 20
355.08471073065994
 10
232.80608170157802
 20
355.02212478643196
 42
0.013606603457688
 10
246.63085384372653
 20
345.26150868897821
 10
246.71610329665145
 20
345.20473196236344
 42
0.0132968348903107
 10
261.21940873606172
 20
336.09261278297345
 10
261.30466795011534
 20
336.04215715725877
 42
0.0129795118406627
 10
276.43984258729961
 20
327.60785160536216
 10
276.52355480434153
 20
327.56400948629016
 42
0.0127436885395372
 10
292.24214417769599
 20
319.83567094158025
 10
292.32292414226231
 20
319.79847930152573
 42
0.0124867493970085
 10
308.57482488401729
 20
312.80237827981
 10
308.65124622995518
 20
312.77171896214168
 42
0.0122587907939077
 10
325.38377583346528
 20
306.53053224002724
 10
325.45453372205611
 20
306.5060983003259
 42
0.0120986665234447
 10
342.61386612861497
 20
301.04161738550465
 10
342.67782952316429
 20
301.02293981765433
 42
0.0119097167029263
 10
360.20856107679674
 20
296.35400596483487
 10
360.26464494287802
 20
296.34049105497979
 42
0.0117772949004362
 10
378.10965621433343
 20
292.48254894322054
 10
378.15697103628008
 20
292.47348069516192
 42
0.0117072424737671
 10
396.25849439084368
 20
289.441688262963
 10
400.8841426863446
 20
288.77787216514116
 42
0.0231022364924032
 10
428.43102497418795
 20
286.11581232816934
 10
433.06985182945346
 20
285.88301704412515
 42
0.0115077977154564
 10
451.59632409625192
 20
285.38031794205017
 42
0.0114856645200995
 10
470.12178753394846
 20
285.72970249611353
 10
470.13703501155851
 20
285.73034080877733
 42
0.011537934328016
 10
488.59173650904859
 20
286.92999309543302
 10
488.61756138107603
 20
286.93227127596219
 42
0.0115778495838717
 10
506.94555590074515
 20
288.97773659299128
 10
506.9815606344639
 20
288.98260124108128
 42
0.0116441672263754
 10
525.1230320174941
 20
291.86533363010858
 10
525.16869881608318
 20
291.87368477296877
 42
0.0117757666934492
 10
543.06430281359735
 20
295.58378418801476
 10
543.11885415763618
 20
295.59644047136317
 42
0.0118844753617284
 10
560.71040686597689
 20
300.12094650257495
 10
560.77299950547194
 20
300.13864134341384
 42
0.012044464202966
 10
578.00357863467525
 20
305.4610759171992
 10
578.07321875348998
 20
305.4844390489925
 42
0.0122500338943591
 10
594.88674513045726
 20
311.58726812950408
 10
594.96220461810208
 20
311.61676919196361
 42
0.0124334663821936
 10
611.30459987711492
 20
318.47903858617246
 10
611.384686913731
 20
318.51503536648488
 42
0.012687190145211
 10
627.20340800717622
 20
326.1132141422604
 10
627.28672568767479
 20
326.15586840887227
 42
0.0129559668831663
 10
642.530632778582
 20
334.46525894165825
 10
642.61567370951025
 20
334.51451416694545
 42
0.0132174919496688
 10
657.2363919802392
 20
343.50702566054679
 10
657.32177051736949
 20
343.5627007040639
 42
0.013556119238173
 10
671.2723997538983
 20
353.20873040335573
 10
671.35651968566299
 20
353.27033042472976
 42
0.0138734348967869
 10
684.59236317435989
 20
363.53878631354564
 10
684.67372049826895
 20
363.60560024247934
 42
0.0142073224125701
 10
697.15332181738404
 20
374.46242722844909
 10
697.23058867297095
 20
374.53360249934121
 42
0.0146033885225307
 10
708.91376749547317
 20
385.94405475752319
 10
708.98565217104851
 20
386.01848493167563
 42
0.0149507109851316
 10
719.83500277457551
 20
397.94586116633218
 10
719.90002083613058
 20
398.02178040921899
 42
0.0153262380788006
 10
729.88224386678621
 20
410.4278534414243
 10
729.93977286817062
 20
410.50401744354895
 42
0.0157308179631434
 10
739.02232745415267
 20
423.34963696951672
 10
739.07160220426181
 20
423.42419624557988
 42
0.016063673874134
 10
747.22574698862945
 20
436.66855863634919
 10
747.26643721619507
 20
436.73966900576488
 42
0.0164429242012434
 10
754.46618363029256
 20
450.34068312148884
 10
754.49826080651474
 20
450.40642015284539
 42
0.0167794032491809
 10
760.71934183999201
 20
464.3216248582612
 10
760.74312402524174
 20
464.38000199989256
 42
0.0170446138079628
 10
765.96582265263805
 20
478.56537277327516
 10
765.98210378616386
 20
478.61471945391349
 42
0.0173437857265437
 10
770.18850797025243
 20
493.02544021627546
 10
770.19835516930698
 20
493.06411472858235
 42
0.0175354453111358
 10
773.3731752737649
 20
507.65481833241574
 10
773.3780038333141
 20
507.68147665379365
 42
0.0176747948215008
 10
775.51064420455077
 20
522.40565315175445
 10
775.51214546813253
 20
522.41943621711653
 42
0.017812984440909
 10
776.59331932439045
 20
537.22998819662644
 42
0.0178097385865788
 10
776.61756976015022
 20
552.07960640705096
 42
0.0177849496534794
 10
775.58562534912744
 20
566.89304298374554
 10
775.5842377049662
 20
566.90619533620884
 42
0.017719423512027
 10
773.50029088772385
 20
581.63534297718434
 10
773.49565169892594
 20
581.66143127351825
 42
0.01752457003319
 10
770.3684806838171
 20
596.2592413133043
 10
770.35890849521638
 20
596.29735197503396
 42
0.0173428843828283
 10
766.20047211219753
 20
610.7174630529953
 10
766.18452511396526
 20
610.76632941353819
 42
0.0170910084723268
 10
761.0084620197249
 20
624.96291128058692
 10
760.98503034923124
 20
625.02093552803672
 42
0.0167608375453279
 10
754.80965367684212
 20
638.94951877643507
 10
754.77799783957198
 20
639.01491154840187
 42
0.0164706697975931
 10
747.62359932993331
 20
652.63147377686983
 10
747.58330961732509
 20
652.70238061387499
 42
0.0160982971701273
 10
739.47257857458885
 20
665.96381148338332
 10
739.42367710815074
 20
666.03827199892476
 42
0.0157144127046719
 10
730.38362915074981
 20
678.90323002238438
 10
730.32646939005394
 20
678.97937120902498
 42
0.0153744114811793
 10
720.38545616152237
 20
691.40667661261978
 10
720.32065403239835
 20
691.48276742122289
 42
0.014963658560121
 10
709.5101055468192
 20
703.43290454496855
 10
709.43864911090623
 20
703.50729306846188
 42
0.0145955536161042
 10
697.79359173027206
 20
714.94259951813001
 10
697.71659679210211
 20
715.0139148634953
 42
0.0142556051966574
 10
685.27331608411282
 20
725.89700234722841
 10
685.19206753070739
 20
725.96407377785727
 42
0.013872506923467
 10
671.99021818889901
 20
736.26010301945098
 10
671.90621434271998
 20
736.32194743470609
 42
0.0135634386710401
 10
657.98811799303326
 20
745.99768554731781
 10
657.90278129367425
 20
746.05364011969505
 42
0.0132565433529437
 10
643.3122180250466
 20
755.07675455143726
 10
643.22707396807027
 20
755.12633848360929
 42
0.0129424155504355
 10
628.01099693420724
 20
763.46778034687122
 10
627.92759805524565
 20
763.51073084969539
 42
0.0127098067126782
 10
612.1347390340261
 20
771.14262891729413
 10
612.05446301568827
 20
771.17893532186281
 42
0.0124563314428808
 10
595.73518691529307
 20
778.07531325205491
 10
595.65944806831794
 20
778.1051188144047
 42
0.0122318957719258
 10
578.86666719425011
 20
784.24361158828469
 10
578.79675586253097
 20
784.26724529468447
 42
0.012075265072409
 10
561.58451414138835
 20
789.62638353235525
 10
561.52154553639116
 20
789.64433326001017
 42
0.0118899413326349
 10
543.94543976919704
 20
794.20560874156399
 10
543.8904792971714
 20
794.2184852335231
 42
0.0117610954294352
 10
526.00778991306902
 20
797.96679864564612
 10
525.96170764006547
 20
797.97533156978534
 42
0.0116934154801688
 10
507.8303603234956
 20
800.89591986153755
 10
503.20094107640898
 20
801.53094955799497
 42
0.0230883429554912
 10
475.62728050396913
 20
804.02356513461382
 10
470.98597593230261
 20
804.22784422361838
 42
0.0115065157496411
 10
452.45669133176762
 20
804.61651381740376
 42
0.0114864952170454
 10
433.93511162166078
 20
804.15317196010255
 10
433.91843210798424
 20
804.15237076186168
 42
0.0115432169020848
 10
415.47718031487375
 20
802.83929185010675
 10
415.4499660669926
 20
802.83672151506107
 42
0.0115867129662508
 10
397.14347652131983
 20
800.67870275848145
 10
397.1061479108198
 20
800.6734227869747
 42
0.0116565995383197
 10
378.99414126584179
 20
797.67937673529377
 10
378.94723680395509
 20
797.67049521329864
 42
0.0117918241361134
 10
361.08894697635242
 20
793.85068381184465
 10
361.03326663436201
 20
793.83739364713438
 42
0.0119040890506099
 10
343.4867364894194
 20
789.20513025782748
 10
343.42314308299228
 20
789.18671163177896
 42
0.0120676537881038
 10
326.24512409093359
 20
783.75881821533039
 10
326.17462955092378
 20
783.73465748258968
 42
0.012276823208646
 10
309.42101698488432
 20
777.52900408470668
 10
309.3448671895203
 20
777.49865154633335
 42
0.0124636963206636
 10
293.06952350196934
 20
770.53651402050673
 10
292.98892402248475
 20
770.49963303497861
 42
0.0127208851021763
 10
277.244154705234
 20
762.80485292994126
 10
277.16051423600129
 20
762.76130633118373
 42
0.0129929885551772
 10
261.99720849565028
 20
754.35887994197037
 10
261.91204310058447
 20
754.30875190843472
 42
0.0132575719958216
 10
247.3782952536485
 20
745.22704957766473
 10
247.2929944773955
 20
745.17054923421347
 42
0.0135991802667668
 10
233.43541227382684
 20
735.43944219519108
 10
233.35157188512949
 20
735.37709584671029
 42
0.0139190328492336
 10
220.21454621429439
 20
725.02792802140902
 10
220.13366426163748
 20
724.96047882250059
 42
0.0142550377978064
 10
207.75832153052897
 20
714.02753547830434
 10
207.68172314489584
 20
713.95587541791065
 42
0.014652645194284
 10
196.10788827284932
 20
702.47411109931636
 10
196.03683606542972
 20
702.39936805501929
 42
0.0150008337349224
 10
185.30156551588425
 20
690.4056938880567
 10
185.23749569862866
 20
690.32964134061331
 42
0.0153776265898793
 10
175.37379703956822
 20
677.86249145722286
 10
175.31733974622512
 20
677.78643882046526
 42
0.015780683362786
 10
166.35736195538811
 20
664.88510232255067
 10
166.30922485054316
 20
664.81089773431268
 42
0.0161122119273753
 10
158.28132691821338
 20
651.51634926644329
 10
158.24179733638084
 20
651.44584919241424
 42
0.0164887204012891
 10
151.17159602682113
 20
637.80031875893474
 10
151.1406531951443
 20
637.73544830732862
 42
0.0168213759544174
 10
145.05203526494734
 20
623.78154238485331
 10
145.02931197238468
 20
623.72428442771343
 42
0.0170818426212428
 10
139.94160751697837
 20
609.50613311425332
 10
139.92625107275035
 20
609.45810640137097
 42
0.0173749832624915
 10
135.85699683350458
 20
595.02069389727694
 10
135.84792901987248
 20
594.98363657701339
 42
0.0175588740856749
 10
132.81193912481058
 20
580.37223955247464
 42
0.0176980492195806
 10
130.81285769687202
 20
565.58341066428693
 10
130.68486986508196
 20
564.29441502098962
 42
0.0241238295051125
 10
129.79732547159892
 20
546.81396611846503
 10
129.7940687415994
 20
545.50692742970568
 42
0.0006276527511211
 10
129.79343056931157
 20
544.9907638841687
 42
0.0006276527511211
  0
LWPOLYLINE
  5
1C2
100
AcDbEntity
  8
ABA70-0103
370
              15
390
0
  6
STYLE_11
 62
               7
100
AcDbPolyline
 90
        2
 70
             128
 10
718.31856323841293
 20
543.42310622351943
 42
0.2135119809746391
 10
667.35361994799541
 20
620.08505621917539
 42
0.2135119809746391
  0
LWPOLYLINE
  5
1C3
100
AcDbEntity
  8
ABA70-0103
370
              15
390
0
  6
STYLE_11
 62
               7
100
AcDbPolyline
 90
        2
 70
             128
 10
239.25967097724924
 20
620.08505621917539
 42
0.2140485665533062
 10
188.34486466128146
 20
543.41902635944098
 42
0.2140485665533062
  0
LWPOLYLINE
  5
1C4
100
AcDbEntity
  8
ABA70-0103
370
              15
390
0
  6
STYLE_11
 62
               7
100
AcDbPolyline
 90
        2
 70
             128
 10
188.34486466128146
 20
543.4190263594428
 42
0.2951489122949978
 10
289.32322078863263
 20
370.17886794646438
 42
0.2951489122949978
  0
LWPOLYLINE
  5
1C5
100
AcDbEntity
  8
ABA70-0103
370
              15
390
0
  6
STYLE_11
 62
               7
100
AcDbPolyline
 90
        2
 70
             128
 10
718.31856323841293
 20
543.42310622351943
 42
-0.2951489122949907
 10
617.34020711106177
 20
370.18294781054101
 42
-0.2951489122949907
  0
LWPOLYLINE
  5
1C6
100
AcDbEntity
  8
ABA70-0103
370
              15
390
0
  6
STYLE_11
 62
               7
100
AcDbPolyline
 90
        2
 70
             128
 10
289.32322078863217
 20
370.17886794646438
 42
0.2498865374906431
 10
617.34020711106132
 20
370.18294781054101
 42
0.2498865374906431
  0
LWPOLYLINE
  5
1C7
100
AcDbEntity
  8
ABA70-0103
370
              15
390
0
  6
STYLE_11
 62
               7
100
AcDbPolyline
 90
        2
 70
             128
 10
667.35361994799632
 20
620.08505621917539
 42
0.2786575374810833
 10
239.25967097725015
 20
620.0850562191772
 42
0.2786575374810833
  0
LINE
  5
1C8
100
AcDbEntity
  8
ABA70-0103
370
               5
390
0
  6
Continuous
 62
               7
100
AcDbLine
 10
160.31856323841157
 20
860.38031794204835
 30
0.0
 11
724.31856323841293
 21
860.38031794204835
 31
0.0
  0
LINE
  5
1C9
100
AcDbEntity
  8
ABA70-0103
370
               5
390
0
  6
Continuous
 62
               7
100
AcDbLine
 10
186.78700810736336
 20
887.88031794204653
 30
0.0
 11
214.28700810736336
 21
860.38031794204835
 31
0.0
  0
LINE
  5
1CA
100
AcDbEntity
  8
ABA70-0103
370
               5
390
0
  6
Continuous
 62
               7
100
AcDbLine
 10
170.53700810736336
 20
887.88031794204653
 30
0.0
 11
198.03700810736336
 21
860.38031794204835
 31
0.0
  0
LINE
  5
1CB
100
AcDbEntity
  8
ABA70-0103
370
               5
390
0
  6
Continuous
 62
               7
100
AcDbLine
 10
153.03700810736336
 20
887.88031794204653
 30
0.0
 11
180.53700810736336
 21
860.38031794204835
 31
0.0
  0
POLYLINE
  5
1CC
100
AcDbEntity
  8
ABA70-0103
370
               5
390
0
  6
Continuous
 62
               7
100
AcDb2dPolyline
 66
               1
 10
0.0
 20
0.0
 30
0.0
 70
               1
 75
               5
  0
VERTEX
  5
1CD
100
AcDbEntity
  8
ABA70-0103
370
               5
390
0
  6
Continuous
 62
               7
100
AcDbVertex
100
AcDb2dVertex
 10
353.10408833572546
 20
830.38031794204835
 30
0.0
  0
VERTEX
  5
1CE
100
AcDbEntity
  8
ABA70-0103
370
               5
390
0
  6
Continuous
 62
               7
100
AcDbVertex
100
AcDb2dVertex
 10
553.10408833572615
 20
830.38031794204835
 30
0.0
  0
VERTEX
  5
1CF
100
AcDbEntity
  8
ABA70-0103
370
               5
390
0
  6
Continuous
 62
               7
100
AcDbVertex
100
AcDb2dVertex
 10
553.10408833572615
 20
530.38031794204835
 30
0.0
  0
VERTEX
  5
1D0
100
AcDbEntity
  8
ABA70-0103
370
               5
390
0
  6
Continuous
 62
               7
100
AcDbVertex
100
AcDb2dVertex
 10
353.10408833572546
 20
530.38031794204835
 30
0.0
  0
SEQEND
  5
1D1
100
AcDbEntity
  8
ABA70-0103
370
               5
390
0
  6
Continuous
 62
               7
  0
DIMENSION
  5
1D2
100
AcDbEntity
  8
ABA70-0103
370
               5
390
0
  6
Continuous
 62
               7
100
AcDbDimension
  2
*D18
 10
808.23320327023112
 20
860.38031794204835
 30
0.0
 11
813.23320327023112
 21
895.38031794204835
 31
0.0
 70
             128
 71
               5
 72
               1
 41
1.0
 42
0.0
  3
tfrom線あり
100
AcDbAlignedDimension
 13
581.01872836754433
 23
830.38031794204835
 33
0.0
 14
752.23320327023112
 24
860.38031794204835
 34
0.0
 50
90.0
100
AcDbRotatedDimension
1001
ACAD
1000
DSTYLE
1002
{
1070
             279
1070
               2
1070
             340
1005
37
1070
             174
1070
               0
1070
             147
1040
5.0
1002
}
  0
DIMENSION
  5
1D3
100
AcDbEntity
  8
ABA70-0103
370
               5
390
0
  6
Continuous
 62
               7
100
AcDbDimension
  2
*D19
 10
808.23320327023112
 20
830.38031794204835
 30
0.0
 11
808.23320327023112
 21
680.38031794204835
 31
0.0
 71
               5
 72
               1
 41
1.0
 42
0.0
  3
tfrom線あり
100
AcDbAlignedDimension
 13
553.10408833572615
 23
530.38031794204835
 33
0.0
 14
553.10408833572615
 24
830.38031794204835
 34
0.0
 50
90.0
100
AcDbRotatedDimension
1001
ACAD
1000
DSTYLE
1002
{
1070
             279
1070
               2
1070
             340
1005
37
1070
             147
1040
5.0
1002
}
  0
DIMENSION
  5
1D4
100
AcDbEntity
  8
ABA70-0103
370
               5
390
0
  6
Continuous
 62
               7
100
AcDbDimension
  2
*D20
 10
353.10408833572546
 20
919.99343680924176
 30
0.0
 11
453.10408833572592
 21
924.99343680924176
 31
0.0
 70
             128
 71
               5
 72
               1
 41
1.0
 42
0.0
  3
tfrom線あり
100
AcDbAlignedDimension
 13
553.10408833572615
 23
830.38031794204835
 33
0.0
 14
353.10408833572546
 24
830.38031794204835
 34
0.0
100
AcDbRotatedDimension
1001
ACAD
1000
DSTYLE
1002
{
1070
             279
1070
               2
1070
             340
1005
37
1070
             147
1040
5.0
1002
}
  0
MTEXT
  5
1D5
100
AcDbEntity
  8
ABA70-0103
390
0
 62
               7
100
AcDbMText
 10
304.98120257345499
 20
1063.127617187507
 30
0.0
 40
24.432617187500004
 41
0.0
 71
               1
 72
               1
  1
カウンター切込寸法
  7
ＭＳ ゴシック
 73
               1
 44
0.7828267384257843
  0
MTEXT
  5
1D6
100
AcDbEntity
  8
ABA70-0103
390
0
 62
               7
100
AcDbMText
 10
137.55374526128389
 20
60.101508494524751
 30
0.0
 40
24.432617187500004
 41
0.0
 71
               1
 72
               1
  1
※カウンター置きの場合も壁固定が必要です。\P
  7
ＭＳ ゴシック
 73
               1
 44
0.7828267384257843
  0
MTEXT
  5
1D7
100
AcDbEntity
  8
ABA70-0103
390
0
 62
               7
100
AcDbMText
 10
137.55374526128389
 20
205.12761718744878
 30
0.0
 40
24.432617187500004
 41
764.7717154610109
 71
               1
 72
               1
  1
※陶器製品には寸法公差があります。\P  必ず現物を合わせてカウンターに切込を行って  　ください。
  7
ＭＳ ゴシック
 73
               1
 44
1.0437689845677123
  0
LINE
  5
1D8
100
AcDbEntity
  8
ABA70-0103
370
              15
390
0
  6
Continuous
 62
               7
100
AcDbLine
 10
783.61153158128968
 20
-473.29447314129357
 30
0.0
 11
784.89617513180156
 21
-473.29447314129357
 31
0.0
  0
LINE
  5
1D9
100
AcDbEntity
  8
ABA70-0103
370
              15
390
0
  6
Continuous
 62
               7
100
AcDbLine
 10
282.23713309679806
 20
-473.29447314129357
 30
0.0
 11
783.61153158128968
 21
-473.29447314129357
 31
0.0
  0
LWPOLYLINE
  5
1DA
100
AcDbEntity
  8
ABA70-0103
370
              15
390
0
  6
Continuous
 62
               7
100
AcDbPolyline
 90
        8
 70
             128
 10
779.59620219958765
 20
-448.72194708421921
 42
-0.0510992989621147
 10
789.70697207805438
 20
-449.75795875955373
 42
-0.0649481016502372
 10
797.27387172925364
 20
-452.3831123193886
 42
-0.1042029417664601
 10
803.07006215648835
 20
-456.98748397278177
 42
-0.1747045211891664
 10
804.59620219959061
 20
-461.22194708421921
 42
-0.1747045211889831
 10
803.07006215648971
 20
-465.45641019565664
 42
-0.1042029417662908
 10
797.27387172925432
 20
-470.06078184905164
 42
-0.1171151396085041
 10
783.34499539268222
 20
-473.32918162781061
 42
-0.1171151396085041
  0
ARC
  5
1DB
100
AcDbEntity
  8
ABA70-0103
370
              15
390
0
  6
Continuous
 62
               7
100
AcDbCircle
 10
779.25726727935967
 20
-488.34780678993411
 30
0.0
 40
15.0
100
AcDbArc
 50
90.000000000000867
 51
143.3071634637574
  0
ENDSEC
  0
SECTION
  2
OBJECTS
  0
DICTIONARY
  5
19
100
AcDbDictionary
280
               0
281
               1
  3
ACAD_GROUP
350
1A
  3
ACAD_MLINESTYLE
350
1B
  3
ACAD_LAYOUT
350
1E
  3
ACAD_PLOTSETTINGS
350
22
  3
ACAD_PLOTSTYLENAME
350
1F
  0
DICTIONARY
  5
1A
102
{ACAD_REACTORS
330
19
102
}
100
AcDbDictionary
280
               0
281
               1
  0
DICTIONARY
  5
1B
102
{ACAD_REACTORS
330
19
102
}
100
AcDbDictionary
280
               0
281
               1
  3
Standard
350
1C
  0
MLINESTYLE
  5
1C
102
{ACAD_REACTORS
330
1B
102
}
100
AcDbMlineStyle
  2
Standard
 70
               0
  3

 62
               0
 51
90.0
 52
90.0
 71
               2
 49
0.5
 62
             256
  6
ByLayer
 49
-0.5
 62
             256
  6
ByLayer
  0
ACDBDICTIONARYWDFLT
  5
1F
102
{ACAD_REACTORS
330
19
102
}
100
AcDbDictionary
281
               1
  3
Normal
350
1D
100
AcDbDictionaryWithDefault
340
1D
  0
ACDBPLACEHOLDER
  5
1D
102
{ACAD_REACTORS
330
1F
102
}
  0
LAYOUT
  5
20
102
{ACAD_REACTORS
330
1E
102
}
100
AcDbPlotSettings
  1

  2

  4

  6

 40
0.0
 41
0.0
 42
0.0
 43
0.0
 44
0.0
 45
0.0
 46
0.0
 47
0.0
 48
0.0
 49
0.0
140
0.0
141
0.0
142
1.0
143
1.0
 70
            1024
 72
               0
 73
               0
 74
               0
  7

 75
               0
147
1.0
148
0.0
149
0.0
100
AcDbLayout
  1
Model
 70
               0
 71
               0
 10
0.0
 20
0.0
 11
0.0
 21
0.0
 12
0.0
 22
0.0
 32
0.0
 14
0.0
 24
0.0
 34
0.0
 15
0.0
 25
0.0
 35
0.0
146
0.0
 13
0.0
 23
0.0
 33
0.0
 16
0.0
 26
0.0
 36
0.0
 17
0.0
 27
0.0
 37
0.0
 76
               0
330
A
331
0
345
0
346
0
  0
LAYOUT
  5
21
102
{ACAD_REACTORS
330
1E
102
}
100
AcDbPlotSettings
  1

  2

  4

  6

 40
0.0
 41
0.0
 42
0.0
 43
0.0
 44
0.0
 45
0.0
 46
0.0
 47
0.0
 48
0.0
 49
0.0
140
0.0
141
0.0
142
1.0
143
1.0
 70
               0
 72
               0
 73
               0
 74
               0
  7

 75
               0
147
1.0
148
0.0
149
0.0
100
AcDbLayout
  1
Layout1
 70
               0
 71
               0
 10
0.0
 20
0.0
 11
0.0
 21
0.0
 12
0.0
 22
0.0
 32
0.0
 14
0.0
 24
0.0
 34
0.0
 15
0.0
 25
0.0
 35
0.0
146
0.0
 13
0.0
 23
0.0
 33
0.0
 16
0.0
 26
0.0
 36
0.0
 17
0.0
 27
0.0
 37
0.0
 76
               0
330
B
331
0
345
0
346
0
  0
DICTIONARY
  5
1E
102
{ACAD_REACTORS
330
19
102
}
100
AcDbDictionary
280
               0
281
               1
  3
Layout1
350
21
  3
Model
350
20
  0
DICTIONARY
  5
22
102
{ACAD_REACTORS
330
19
102
}
100
AcDbDictionary
280
               0
281
               1
  0
ENDSEC
  0
EOF
