  0
SECTION
  2
HEADER
  9
$ACADVER
  1
AC1015
  9
$ACADMAINTVER
 70
               6
  9
$DWGCODEPAGE
  3
ANSI_932
  9
$INSBASE
 10
0.0
 20
0.0
 30
0.0
  9
$EXTMIN
 10
-1057.546753308271
 20
-1468.0416648846083
 30
-14.834305555555554
  9
$EXTMAX
 10
1042.4532466917287
 20
1501.9583351153917
 30
14.834305555555554
  9
$LIMMIN
 10
0.0
 20
0.0
  9
$LIMMAX
 10
0.0
 20
0.0
  9
$ORTHOMODE
 70
               0
  9
$REGENMODE
 70
               1
  9
$FILLMODE
 70
               1
  9
$QTEXTMODE
 70
               0
  9
$MIRRTEXT
 70
               1
  9
$LTSCALE
 40
50.799999999999997
  9
$ATTMODE
 70
               1
  9
$TEXTSIZE
 40
0.2
  9
$TRACEWID
 40
1.0
  9
$TEXTSTYLE
  7
Standard
  9
$CLAYER
  8
1_10
  9
$CELTYPE
  6
Continuous
  9
$CECOLOR
 62
             256
  9
$CELTSCALE
 40
1.0
  9
$DISPSILH
 70
               0
  9
$DIMSCALE
 40
1.0
  9
$DIMASZ
 40
31.75
  9
$DIMEXO
 40
0.0
  9
$DIMDLI
 40
6.9999999999999396
  9
$DIMRND
 40
0.0
  9
$DIMDLE
 40
0.0
  9
$DIMEXE
 40
19.999999999996199
  9
$DIMTP
 40
0.0
  9
$DIMTM
 40
0.0
  9
$DIMTXT
 40
24.432617187500004
  9
$DIMCEN
 40
0.0
  9
$DIMTSZ
 40
0.0
  9
$DIMTOL
 70
               0
  9
$DIMLIM
 70
               0
  9
$DIMTIH
 70
               0
  9
$DIMTOH
 70
               0
  9
$DIMSE1
 70
               0
  9
$DIMSE2
 70
               0
  9
$DIMTAD
 70
               1
  9
$DIMZIN
 70
              11
  9
$DIMBLK
  1
VW_FILLEDARROW
  9
$DIMASO
 70
               1
  9
$DIMSHO
 70
               1
  9
$DIMPOST
  1
<>
  9
$DIMAPOST
  1
[]
  9
$DIMALT
 70
               0
  9
$DIMALTD
 70
               3
  9
$DIMALTF
 40
0.0393700787401575
  9
$DIMLFAC
 40
1.0
  9
$DIMTOFL
 70
               0
  9
$DIMTVP
 40
0.0
  9
$DIMTIX
 70
               1
  9
$DIMSOXD
 70
               0
  9
$DIMSAH
 70
               0
  9
$DIMBLK1
  1

  9
$DIMBLK2
  1

  9
$DIMSTYLE
  2
JIS
  9
$DIMCLRD
 70
               0
  9
$DIMCLRE
 70
               0
  9
$DIMCLRT
 70
               0
  9
$DIMTFAC
 40
1.0
  9
$DIMGAP
 40
1.00000000000108
  9
$DIMJUST
 70
               0
  9
$DIMSD1
 70
               0
  9
$DIMSD2
 70
               0
  9
$DIMTOLJ
 70
               1
  9
$DIMTZIN
 70
              11
  9
$DIMALTZ
 70
              15
  9
$DIMALTTZ
 70
              15
  9
$DIMUPT
 70
               0
  9
$DIMDEC
 70
               1
  9
$DIMTDEC
 70
               1
  9
$DIMALTU
 70
               4
  9
$DIMALTTD
 70
               2
  9
$DIMTXSTY
  7
ＭＳ ゴシック
  9
$DIMAUNIT
 70
               0
  9
$DIMADEC
 70
               2
  9
$DIMALTRND
 40
0.0
  9
$DIMAZIN
 70
               0
  9
$DIMDSEP
 70
              46
  9
$DIMATFIT
 70
               0
  9
$DIMFRAC
 70
               2
  9
$DIMLDRBLK
  1

  9
$DIMLUNIT
 70
               2
  9
$DIMLWD
 70
              -2
  9
$DIMLWE
 70
              -2
  9
$DIMTMOVE
 70
               0
  9
$LUNITS
 70
               2
  9
$LUPREC
 70
               4
  9
$SKETCHINC
 40
0.1
  9
$FILLETRAD
 40
0.0
  9
$AUNITS
 70
               0
  9
$AUPREC
 70
               0
  9
$MENU
  1
acad
  9
$ELEVATION
 40
0.0
  9
$PELEVATION
 40
0.0
  9
$THICKNESS
 40
0.0
  9
$LIMCHECK
 70
               0
  9
$CHAMFERA
 40
0.0
  9
$CHAMFERB
 40
0.0
  9
$CHAMFERC
 40
0.0
  9
$CHAMFERD
 40
0.0
  9
$SKPOLY
 70
               0
  9
$TDCREATE
 40
2455833.731261574
  9
$TDUCREATE
 40
0.000000000
  9
$TDUPDATE
 40
2455833.731261574
  9
$TDUUPDATE
 40
0.000000000
  9
$TDINDWG
 40
0.0000000000
  9
$TDUSRTIMER
 40
0.0000000000
  9
$USRTIMER
 70
               1
  9
$ANGBASE
 50
0.0
  9
$ANGDIR
 70
               0
  9
$PDMODE
 70
               1
  9
$PDSIZE
 40
-2.0
  9
$PLINEWID
 40
0.0
  9
$SPLFRAME
 70
               0
  9
$SPLINETYPE
 70
               6
  9
$SPLINESEGS
 70
               8
  9
$HANDSEED
  5
17D
  9
$SURFTAB1
 70
               6
  9
$SURFTAB2
 70
               6
  9
$SURFTYPE
 70
               6
  9
$SURFU
 70
               6
  9
$SURFV
 70
               6
  9
$UCSBASE
  2

  9
$UCSNAME
  2

  9
$UCSORG
 10
0.0
 20
0.0
 30
0.0
  9
$UCSXDIR
 10
1.0
 20
0.0
 30
0.0
  9
$UCSYDIR
 10
0.0
 20
1.0
 30
0.0
  9
$UCSORTHOREF
  2

  9
$UCSORTHOVIEW
 70
               0
  9
$UCSORGTOP
 10
0.0
 20
0.0
 30
0.0
  9
$UCSORGBOTTOM
 10
0.0
 20
0.0
 30
0.0
  9
$UCSORGLEFT
 10
0.0
 20
0.0
 30
0.0
  9
$UCSORGRIGHT
 10
0.0
 20
0.0
 30
0.0
  9
$UCSORGFRONT
 10
0.0
 20
0.0
 30
0.0
  9
$UCSORGBACK
 10
0.0
 20
0.0
 30
0.0
  9
$PUCSBASE
  2

  9
$PUCSNAME
  2

  9
$PUCSORG
 10
0.0
 20
0.0
 30
0.0
  9
$PUCSXDIR
 10
1.0
 20
0.0
 30
0.0
  9
$PUCSYDIR
 10
0.0
 20
1.0
 30
0.0
  9
$PUCSORTHOREF
  2

  9
$PUCSORTHOVIEW
 70
               0
  9
$PUCSORGTOP
 10
0.0
 20
0.0
 30
0.0
  9
$PUCSORGBOTTOM
 10
0.0
 20
0.0
 30
0.0
  9
$PUCSORGLEFT
 10
0.0
 20
0.0
 30
0.0
  9
$PUCSORGRIGHT
 10
0.0
 20
0.0
 30
0.0
  9
$PUCSORGFRONT
 10
0.0
 20
0.0
 30
0.0
  9
$PUCSORGBACK
 10
0.0
 20
0.0
 30
0.0
  9
$USERI1
 70
               0
  9
$USERI2
 70
               0
  9
$USERI3
 70
               0
  9
$USERI4
 70
               0
  9
$USERI5
 70
               0
  9
$USERR1
 40
0.0
  9
$USERR2
 40
0.0
  9
$USERR3
 40
0.0
  9
$USERR4
 40
0.0
  9
$USERR5
 40
0.0
  9
$WORLDVIEW
 70
               1
  9
$SHADEDGE
 70
               3
  9
$SHADEDIF
 70
              70
  9
$TILEMODE
 70
               1
  9
$MAXACTVP
 70
              64
  9
$PINSBASE
 10
0.0
 20
0.0
 30
0.0
  9
$PLIMCHECK
 70
               0
  9
$PEXTMIN
 10
1.0000000000000000E+20
 20
1.0000000000000000E+20
 30
1.0000000000000000E+20
  9
$PEXTMAX
 10
-1.0000000000000000E+20
 20
-1.0000000000000000E+20
 30
-1.0000000000000000E+20
  9
$PLIMMIN
 10
0.0
 20
0.0
  9
$PLIMMAX
 10
12.0
 20
9.0
  9
$UNITMODE
 70
               0
  9
$VISRETAIN
 70
               0
  9
$PLINEGEN
 70
               1
  9
$PSLTSCALE
 70
               0
  9
$TREEDEPTH
 70
            3020
  9
$CMLSTYLE
  2
Standard
  9
$CMLJUST
 70
               0
  9
$CMLSCALE
 40
1.0
  9
$PROXYGRAPHICS
 70
               0
  9
$MEASUREMENT
 70
               1
  9
$CELWEIGHT
370
               0
  9
$ENDCAPS
280
               0
  9
$JOINSTYLE
280
               0
  9
$LWDISPLAY
290
               1
  9
$INSUNITS
 70
               4
  9
$HYPERLINKBASE
  1

  9
$STYLESHEET
  1

  9
$XEDIT
290
               1
  9
$CEPSNTYPE
380
               0
  9
$PSTYLEMODE
290
               1
  9
$FINGERPRINTGUID
  2

  9
$VERSIONGUID
  2

  9
$EXTNAMES
290
               1
  9
$PSVPSCALE
 40
0.0
  0
ENDSEC
  0
SECTION
  2
CLASSES
  0
CLASS
  1
LWPOLYLINE
  2
AcDbPolyline
  3
AutoCAD 2000
 90
        0
280
               0
281
               1
  0
CLASS
  1
IMAGE
  2
AcDbRasterImage
  3
ISM
 90
      127
280
               0
281
               1
  0
CLASS
  1
OLE2FRAME
  2
AcDbOle2Frame
  3
AutoCAD 2000
 90
        0
280
               0
281
               1
  0
CLASS
  1
HATCH
  2
AcDbHatch
  3
AutoCAD 2000
 90
        0
280
               0
281
               1
  0
CLASS
  1
DICTIONARYVAR
  2
AcDbDictionaryVar
  3
AutoCAD 2000
 90
        0
280
               0
281
               0
  0
CLASS
  1
RASTERVARIABLES
  2
AcDbRasterVariables
  3
ISM
 90
        0
280
               0
281
               0
  0
CLASS
  1
IMAGEDEF
  2
AcDbRasterImageDef
  3
ISM
 90
        0
280
               0
281
               0
  0
CLASS
  1
IMAGEDEF_REACTOR
  2
AcDbRasterImageDefReactor
  3
ISM
 90
        1
280
               0
281
               0
  0
CLASS
  1
IDBUFFER
  2
AcDbIdBuffer
  3
AutoCAD 2000
 90
        0
280
               0
281
               0
  0
CLASS
  1
SPATIAL_FILTER
  2
AcDbSpatialFilter
  3
AutoCAD 2000
 90
        0
280
               0
281
               0
  0
CLASS
  1
XRECORD
  2
AcDbXrecord
  3
AutoCAD 2000
 90
        0
280
               0
281
               0
  0
CLASS
  1
SORTENTSTABLE
  2
AcDbSortentsTable
  3
AutoCAD 2000
 90
        0
280
               0
281
               0
  0
CLASS
  1
LAYER_INDEX
  2
AcDbLayerIndex
  3
AutoCAD 2000
 90
        0
280
               0
281
               0
  0
CLASS
  1
SPATIAL_INDEX
  2
AcDbSpatialIndex
  3
AutoCAD 2000
 90
        0
280
               0
281
               0
  0
CLASS
  1
OBJECT_PTR
  2
CAseDLPNTableRecord
  3
"ASE-LPNTableRecord"
 90
        1
280
               0
281
               0
  0
CLASS
  1
LAYOUT
  2
AcDbLayout
  3
AutoCAD 2000
 90
        0
280
               0
281
               0
  0
CLASS
  1
PLOTSETTINGS
  2
AcDbPlotSettings
  3
AutoCAD 2000
 90
        0
280
               0
281
               0
  0
CLASS
  1
ACDBDICTIONARYWDFLT
  2
AcDbDictionaryWithDefault
  3
AutoCAD 2000
 90
        0
280
               0
281
               0
  0
CLASS
  1
ACDBPLACEHOLDER
  2
AcDbPlaceHolder
  3
AutoCAD 2000
 90
        0
280
               0
281
               0
  0
ENDSEC
  0
SECTION
  2
TABLES
  0
TABLE
  2
VPORT
  5
7
100
AcDbSymbolTable
 70
               1
  0
VPORT
  5
15
100
AcDbSymbolTableRecord
100
AcDbViewportTableRecord
  2
*ACTIVE
 70
               0
 10
0.0
 20
0.0
 11
1.0
 21
1.0
 12
-7.5467533082710361
 22
16.958335115391719
 13
0.0
 23
0.0
 14
1.0
 24
1.0
 15
0.0
 25
0.0
 16
0.0
 26
0.0
 36
1.0
 17
0.0
 27
0.0
 37
0.0
 40
2970.0
 41
0.688564
 42
50.0
 43
0.0
 44
0.0
 50
0.0
 51
0.0
 71
               0
 72
            2000
 73
               1
 74
               1
 75
               0
 76
               0
 77
               0
 78
               0
281
               0
 65
               0
110
0.0
120
0.0
130
0.0
111
1.0
121
0.0
131
0.0
112
0.0
122
1.0
132
0.0
345
0
346
0
 79
               0
146
0.0
  0
ENDTAB
  0
TABLE
  2
LTYPE
  5
4
100
AcDbSymbolTable
 70
              14
  0
LTYPE
  5
11
100
AcDbSymbolTableRecord
100
AcDbLinetypeTableRecord
  2
ByBlock
 70
              64
  3

 72
              65
 73
               0
 40
0.0
  0
LTYPE
  5
12
100
AcDbSymbolTableRecord
100
AcDbLinetypeTableRecord
  2
ByLayer
 70
              64
  3

 72
              65
 73
               0
 40
0.0
  0
LTYPE
  5
13
100
AcDbSymbolTableRecord
100
AcDbLinetypeTableRecord
  2
Continuous
 70
              64
  3
Solid line
 72
              65
 73
               0
 40
0.0
  0
LTYPE
  5
2F
100
AcDbSymbolTableRecord
100
AcDbLinetypeTableRecord
  2
STYLE_01
 70
               0
  3

 72
              65
 73
               2
 40
0.3584208220472441
 49
0.3584208220472441
 74
               0
 49
-0.0005
 74
               0
  0
LTYPE
  5
30
100
AcDbSymbolTableRecord
100
AcDbLinetypeTableRecord
  2
STYLE_02
 70
               0
  3

 72
              65
 73
               2
 40
4.6875
 49
3.125
 74
               0
 49
-1.5625
 74
               0
  0
LTYPE
  5
31
100
AcDbSymbolTableRecord
100
AcDbLinetypeTableRecord
  2
STYLE_03
 70
               0
  3

 72
              65
 73
               4
 40
0.2952755905511811
 49
0.2362204724409449
 74
               0
 49
-0.0295275590551181
 74
               0
 49
0.0005
 74
               0
 49
-0.0290275590551181
 74
               0
  0
LTYPE
  5
32
100
AcDbSymbolTableRecord
100
AcDbLinetypeTableRecord
  2
STYLE_04
 70
               0
  3

 72
              65
 73
               2
 40
1.5277099999999999
 49
1.3194249999999998
 74
               0
 49
-0.208285
 74
               0
  0
LTYPE
  5
33
100
AcDbSymbolTableRecord
100
AcDbLinetypeTableRecord
  2
STYLE_05
 70
               0
  3

 72
              65
 73
               2
 40
0.20828
 49
0.069425
 74
               0
 49
-0.138855
 74
               0
  0
LTYPE
  5
34
100
AcDbSymbolTableRecord
100
AcDbLinetypeTableRecord
  2
STYLE_06
 70
               0
  3

 72
              65
 73
               4
 40
1.0416400000000001
 49
0.625
 74
               0
 49
-0.20828
 74
               0
 49
0.06943
 74
               0
 49
-0.13893
 74
               0
  0
LTYPE
  5
35
100
AcDbSymbolTableRecord
100
AcDbLinetypeTableRecord
  2
STYLE_07
 70
               0
  3

 72
              65
 73
               6
 40
1.875
 49
0.625
 74
               0
 49
-0.20828
 74
               0
 49
0.6250000000000001
 74
               0
 49
-0.2083599999999999
 74
               0
 49
0.06943
 74
               0
 49
-0.1389299999999999
 74
               0
  0
LTYPE
  5
36
100
AcDbSymbolTableRecord
100
AcDbLinetypeTableRecord
  2
STYLE_08
 70
               0
  3

 72
              65
 73
               6
 40
1.25
 49
0.625
 74
               0
 49
-0.20828
 74
               0
 49
0.06943
 74
               0
 49
-0.13893
 74
               0
 49
0.0694299999999999
 74
               0
 49
-0.13893
 74
               0
  0
LTYPE
  5
37
100
AcDbSymbolTableRecord
100
AcDbLinetypeTableRecord
  2
STYLE_09
 70
               0
  3

 72
              65
 73
               4
 40
5.0
 49
3.75
 74
               0
 49
-0.2777849999999998
 74
               0
 49
0.6944300000000003
 74
               0
 49
-0.2777849999999998
 74
               0
  0
LTYPE
  5
38
100
AcDbSymbolTableRecord
100
AcDbLinetypeTableRecord
  2
STYLE_10
 70
               0
  3

 72
              65
 73
               6
 40
5.9375
 49
3.75
 74
               0
 49
-0.2777849999999998
 74
               0
 49
0.6944300000000003
 74
               0
 49
-0.2777849999999998
 74
               0
 49
0.625
 74
               0
 49
-0.3125
 74
               0
  0
LTYPE
  5
39
100
AcDbSymbolTableRecord
100
AcDbLinetypeTableRecord
  2
STYLE_11
 70
               0
  3

 72
              65
 73
               2
 40
0.3937007874015748
 49
0.1968503937007874
 74
               0
 49
-0.1968503937007874
 74
               0
  0
ENDTAB
  0
TABLE
  2
LAYER
  5
2
100
AcDbSymbolTable
 70
               5
  0
LAYER
  5
14
100
AcDbSymbolTableRecord
100
AcDbLayerTableRecord
  2
0
 70
               0
 62
               7
  6
Continuous
290
               1
370
              -3
390
1D
  0
LAYER
  5
3A
100
AcDbSymbolTableRecord
100
AcDbLayerTableRecord
  2
Defpoints
 70
               0
 62
               7
  6
Continuous
290
               0
370
              -3
390
1D
  0
LAYER
  5
3B
100
AcDbSymbolTableRecord
100
AcDbLayerTableRecord
  2
1_10
 70
               0
 62
               7
  6
Continuous
290
               1
370
              -3
390
1D
  0
LAYER
  5
3C
100
AcDbSymbolTableRecord
100
AcDbLayerTableRecord
  2
notes
 70
               0
 62
               7
  6
Continuous
290
               1
370
              -3
390
1D
  0
LAYER
  5
3D
100
AcDbSymbolTableRecord
100
AcDbLayerTableRecord
  2
ABA70-0104
 70
               0
 62
               7
  6
Continuous
290
               1
370
              -3
390
1D
  0
ENDTAB
  0
TABLE
  2
STYLE
  5
3
100
AcDbSymbolTable
 70
               2
  0
STYLE
  5
17
100
AcDbSymbolTableRecord
100
AcDbTextStyleTableRecord
  2
Standard
 70
               0
 40
0.0
 41
1.0
 50
0.0
 71
               0
 42
0.0
  3
txt
  4
BIGFONT.SHX
  0
STYLE
  5
2E
100
AcDbSymbolTableRecord
100
AcDbTextStyleTableRecord
  2
ＭＳ ゴシック
 70
               0
 40
0.0
 41
1.0
 50
0.0
 71
               0
 42
0.0
  3

  4
ＭＳ ゴシック
1001
ACAD
1000
ＭＳ ゴシック
1071
        0
  0
ENDTAB
  0
TABLE
  2
VIEW
  5
5
100
AcDbSymbolTable
 70
               0
  0
ENDTAB
  0
TABLE
  2
UCS
  5
6
100
AcDbSymbolTable
 70
               0
  0
ENDTAB
  0
TABLE
  2
APPID
  5
8
100
AcDbSymbolTable
 70
               1
  0
APPID
  5
16
100
AcDbSymbolTableRecord
100
AcDbRegAppTableRecord
  2
ACAD
 70
               0
  0
ENDTAB
  0
TABLE
  2
DIMSTYLE
  5
9
100
AcDbSymbolTable
 70
               3
100
AcDbDimStyleTable
 71
               0
  0
DIMSTYLE
105
18
100
AcDbSymbolTableRecord
100
AcDbDimStyleTableRecord
  2
Standard
 70
               0
  3

  4

 40
1.0
 41
0.18
 42
0.0625
 43
0.38
 44
0.18
 45
0.0
 46
0.0
 47
0.0
 48
0.0
 71
               0
 72
               0
 73
               1
 74
               1
 75
               0
 76
               0
 77
               0
 78
               0
 79
               0
140
0.18
141
0.09
142
0.0
143
25.399999999999999
144
1.0
145
0.0
146
1.0
147
0.09
148
0.0
170
               0
171
               2
172
               0
173
               0
174
               0
175
               0
176
               0
177
               0
178
               0
179
               0
271
               4
272
               4
273
               2
274
               2
275
               0
276
               0
277
               2
278
              46
279
               0
280
               0
281
               0
282
               0
283
               1
284
               0
285
               0
286
               0
288
               0
289
               3
340
17
341
0
342
0
343
0
344
0
371
              -2
372
              -2
  0
DIMSTYLE
105
46
100
AcDbSymbolTableRecord
100
AcDbDimStyleTableRecord
  2
tfrom線あり
 70
               0
  3
<>
  4
[]
 40
1.0
 41
3.999755859375
 42
24.999999999999996
 43
0.9999999999999999
 44
0.0
 45
0.0
 46
0.0
 47
0.0
 48
0.0
 71
               0
 72
               0
 73
               0
 74
               0
 75
               0
 76
               0
 77
               1
 78
              11
 79
               0
140
24.432617187500004
141
0.0
142
0.0
143
0.0393700787401575
144
1.0
145
0.0
146
1.0
147
0.4999999999999999
148
0.0
170
               0
171
               3
172
               0
173
               0
174
               1
175
               0
176
               0
177
               0
178
               0
179
               2
271
               1
272
               1
273
               4
274
               2
275
               0
276
               2
277
               2
278
              46
279
               0
280
               0
281
               0
282
               0
283
               1
284
              11
285
              15
286
              15
288
               0
289
               0
340
2E
341
3E
342
3E
343
0
344
0
371
              -2
372
              -2
  0
DIMSTYLE
105
4B
100
AcDbSymbolTableRecord
100
AcDbDimStyleTableRecord
  2
JIS
 70
               0
  3
<>
  4
[]
 40
1.0
 41
31.75
 42
0.0
 43
6.9999999999999396
 44
19.999999999996199
 45
0.0
 46
0.0
 47
0.0
 48
0.0
 71
               0
 72
               0
 73
               0
 74
               0
 75
               0
 76
               0
 77
               1
 78
              11
 79
               0
140
24.432617187500004
141
0.0
142
0.0
143
0.0393700787401575
144
1.0
145
0.0
146
1.0
147
1.00000000000108
148
0.0
170
               0
171
               3
172
               0
173
               0
174
               1
175
               0
176
               0
177
               0
178
               0
179
               2
271
               1
272
               1
273
               4
274
               2
275
               0
276
               2
277
               2
278
              46
279
               0
280
               0
281
               0
282
               0
283
               1
284
              11
285
              15
286
              15
288
               0
289
               0
340
2E
341
47
342
47
343
0
344
0
371
              -2
372
              -2
  0
ENDTAB
  0
TABLE
  2
BLOCK_RECORD
  5
1
100
AcDbSymbolTable
 70
              13
  0
BLOCK_RECORD
  5
A
100
AcDbSymbolTableRecord
100
AcDbBlockTableRecord
  2
*MODEL_SPACE
340
20
  0
BLOCK_RECORD
  5
B
100
AcDbSymbolTableRecord
100
AcDbBlockTableRecord
  2
*PAPER_SPACE
340
21
  0
BLOCK_RECORD
  5
3E
100
AcDbSymbolTableRecord
100
AcDbBlockTableRecord
  2
_DOT
340
0
  0
BLOCK_RECORD
  5
47
100
AcDbSymbolTableRecord
100
AcDbBlockTableRecord
  2
VW_FILLEDARROW
340
0
  0
BLOCK_RECORD
  5
23
100
AcDbSymbolTableRecord
100
AcDbBlockTableRecord
  2
グループ
340
0
102
{BLKREFS
331
E0
102
}
  0
BLOCK_RECORD
  5
24
100
AcDbSymbolTableRecord
100
AcDbBlockTableRecord
  2
*D3
340
0
  0
BLOCK_RECORD
  5
25
100
AcDbSymbolTableRecord
100
AcDbBlockTableRecord
  2
*D4
340
0
  0
BLOCK_RECORD
  5
26
100
AcDbSymbolTableRecord
100
AcDbBlockTableRecord
  2
*D5
340
0
  0
BLOCK_RECORD
  5
27
100
AcDbSymbolTableRecord
100
AcDbBlockTableRecord
  2
*D6
340
0
  0
BLOCK_RECORD
  5
28
100
AcDbSymbolTableRecord
100
AcDbBlockTableRecord
  2
*D7
340
0
  0
BLOCK_RECORD
  5
29
100
AcDbSymbolTableRecord
100
AcDbBlockTableRecord
  2
*D8
340
0
  0
BLOCK_RECORD
  5
2A
100
AcDbSymbolTableRecord
100
AcDbBlockTableRecord
  2
*D9
340
0
  0
BLOCK_RECORD
  5
2B
100
AcDbSymbolTableRecord
100
AcDbBlockTableRecord
  2
*D10
340
0
  0
BLOCK_RECORD
  5
2C
100
AcDbSymbolTableRecord
100
AcDbBlockTableRecord
  2
*D11
340
0
  0
BLOCK_RECORD
  5
2D
100
AcDbSymbolTableRecord
100
AcDbBlockTableRecord
  2
*D12
340
0
  0
ENDTAB
  0
ENDSEC
  0
SECTION
  2
BLOCKS
  0
BLOCK
  5
D
100
AcDbEntity
  8
0
390
0
100
AcDbBlockBegin
  2
*MODEL_SPACE
 70
               0
 10
0.0
 20
0.0
 30
0.0
  3
*MODEL_SPACE
  1

  0
ENDBLK
  5
E
100
AcDbEntity
  8
0
390
0
100
AcDbBlockEnd
  0
BLOCK
  5
F
100
AcDbEntity
 67
               1
  8
0
390
0
100
AcDbBlockBegin
  2
*PAPER_SPACE
 70
               0
 10
0.0
 20
0.0
 30
0.0
  3
*PAPER_SPACE
  1

  0
ENDBLK
  5
10
100
AcDbEntity
 67
               1
  8
0
390
0
100
AcDbBlockEnd
  0
BLOCK
  5
3F
100
AcDbEntity
  8
0
390
0
100
AcDbBlockBegin
  2
_DOT
 70
               0
 10
0.0
 20
0.0
 30
0.0
  3
_DOT
  1

  0
POLYLINE
  5
40
100
AcDbEntity
  8
0
370
              -2
390
0
  6
ByBlock
 62
               0
100
AcDb2dPolyline
 66
               1
 10
0.0
 20
0.0
 30
0.0
 70
               1
 40
0.5
 41
0.5
  0
VERTEX
  5
41
100
AcDbEntity
  8
0
370
              -2
390
0
  6
ByBlock
 62
               0
100
AcDbVertex
100
AcDb2dVertex
 10
-0.25
 20
0.0
 30
0.0
 42
1.0
  0
VERTEX
  5
42
100
AcDbEntity
  8
0
370
              -2
390
0
  6
ByBlock
 62
               0
100
AcDbVertex
100
AcDb2dVertex
 10
0.25
 20
0.0
 30
0.0
 42
1.0
  0
SEQEND
  5
43
100
AcDbEntity
  8
0
390
0
  0
LINE
  5
44
100
AcDbEntity
  8
0
370
              -2
390
0
  6
ByBlock
 62
               0
100
AcDbLine
 10
-0.5
 20
0.0
 30
0.0
 11
-1.0
 21
0.0
 31
0.0
  0
ENDBLK
  5
45
100
AcDbEntity
  8
0
390
0
100
AcDbBlockEnd
  0
BLOCK
  5
48
100
AcDbEntity
  8
0
370
              -2
390
0
  6
ByBlock
 62
               0
100
AcDbBlockBegin
  2
VW_FILLEDARROW
 70
               0
 10
0.0
 20
0.0
 30
0.0
  3
VW_FILLEDARROW
  1

  0
SOLID
  5
49
100
AcDbEntity
  8
0
370
              -2
390
0
 62
               0
100
AcDbTrace
 10
0.0
 20
0.0
 30
0.0
 11
-0.9921874999999999
 21
-0.2658558393652545
 31
0.0
 12
-0.9921874999999999
 22
0.2658558393652548
 32
0.0
 13
-0.9921874999999999
 23
0.2658558393652548
 33
0.0
  0
ENDBLK
  5
4A
100
AcDbEntity
  8
0
390
0
100
AcDbBlockEnd
  0
BLOCK
  5
4C
100
AcDbEntity
  8
1_10
390
0
100
AcDbBlockBegin
  2
グループ
 70
               0
 10
0.0
 20
0.0
 30
0.0
  3
グループ
  1

  0
LWPOLYLINE
  5
4D
100
AcDbEntity
  8
0
370
              15
390
0
  6
Continuous
 62
               7
100
AcDbPolyline
 90
        8
 70
             129
 10
619.56460209375473
 20
-896.51617351710956
 10
619.56460209375473
 20
-902.51356221068636
 10
610.06340517575154
 20
-902.51356221068636
 10
610.06340517575154
 20
-926.9645254741954
 10
601.70802791396864
 20
-926.9645254741954
 10
601.70802791396864
 20
-902.51356221068636
 10
592.37507096765933
 20
-902.51356221068636
 10
592.37507096765933
 20
-896.51617351710956
  0
LWPOLYLINE
  5
4E
100
AcDbEntity
  8
0
370
              15
390
0
  6
Continuous
 62
               7
100
AcDbPolyline
 90
      101
 70
             128
 10
632.29289392431156
 20
-897.24442201004786
 10
632.30824395309617
 20
-897.2400612533628
 42
-0.0222221607819617
 10
632.59824852976772
 20
-897.17143678811772
 10
632.61404229375989
 20
-897.16843336502097
 42
-0.0146883565582991
 10
632.87674499898549
 20
-897.12643017807113
 42
-0.0127458844191846
 10
633.14138396613589
 20
-897.09889320999866
 10
633.20383904445134
 20
-897.09399978741021
 42
-0.0198099018570374
 10
633.59468815392461
 20
-897.07891463001386
 10
633.64649962337194
 20
-897.07896840567901
 42
-0.0147617382756396
 10
634.14112308434767
 20
-897.0940884309241
 10
634.21381453922152
 20
-897.09846103781172
 42
-0.0162624549002888
 10
634.6039681686857
 20
-897.13469391308354
 10
634.72550055994975
 20
-897.14998047208053
 42
-0.0080020874658478
 10
634.87107959103639
 20
-897.17066331934802
 10
634.90939906162521
 20
-897.17673459715797
 42
-0.0053821929681141
 10
634.97788316694641
 20
-897.18834212098045
 10
634.25147746774769
 20
-899.36927057669527
 42
0.0108667757395212
 10
634.18416039761644
 20
-899.35608346147535
 10
634.14669237442729
 20
-899.34958571888092
 42
0.0170663203314659
 10
634.00347558751037
 20
-899.32975612158907
 10
633.93560025482884
 20
-899.32270895100191
 42
0.0220162375263915
 10
633.65522084697488
 20
-899.30602659023168
 10
633.5773652799212
 20
-899.30482722296495
 42
0.0282606915789514
 10
633.24172895634354
 20
-899.31863049993353
 10
633.19781568257201
 20
-899.32293048993711
 42
0.0169677213686526
 10
632.95189118761232
 20
-899.35546753948893
 42
0.0190576269870592
 10
632.70898322502876
 20
-899.40561441159605
 10
632.70272403692138
 20
-899.40715738570452
 42
0.0213685642849701
 10
632.45233955244453
 20
-899.48035767080921
 10
632.44684965752731
 20
-899.48222066686867
 42
0.0237595297585722
 10
632.19335477262587
 20
-899.58190518876552
 10
632.18825269859894
 20
-899.58419696424244
 42
0.0261857468816773
 10
631.93608192237218
 20
-899.71373330161464
 10
631.92565573328091
 20
-899.71979877608555
 42
0.0272553062036033
 10
631.68922595804372
 20
-899.87517098202989
 10
631.65446294453454
 20
-899.90083213012213
 42
0.0325996893156626
 10
631.50430760088273
 20
-900.02758000309404
 10
631.48059817175761
 20
-900.05039803160867
 42
0.0138050960634637
 10
631.38871501554945
 20
-900.14384769315802
 42
0.0125280103821176
 10
631.30187248272023
 20
-900.24201101975314
 10
631.27819203780757
 20
-900.27016951794576
 42
0.0205218024721464
 10
631.15309196229009
 20
-900.43196283218015
 10
631.13062562180676
 20
-900.46362256200155
 42
0.0163110129594672
 10
630.97491524255713
 20
-900.6989529970682
 10
630.97219134650447
 20
-900.70337675905648
 42
0.0131897341892376
 10
630.82539082559708
 20
-900.95650885142379
 10
630.8236907302321
 20
-900.95962709055675
 42
0.0107895576062606
 10
630.68591402802542
 20
-901.22584230018322
 10
630.6851811384962
 20
-901.22733653283831
 42
0.0091371507218723
 10
630.5567011898471
 20
-901.5018617305974
 10
630.52695555843752
 20
-901.56856823775706
 42
0.0135418326351088
 10
630.35524161936428
 20
-901.98350602303003
 10
630.3216368109297
 20
-902.07137216531203
 42
0.0092834542413675
 10
630.15040775101079
 20
-902.54527066361243
 10
630.12479062329396
 20
-902.62051173340353
 42
0.0054261043579318
 10
630.01715247500022
 20
-902.94827570647067
 10
629.99962648880467
 20
-903.00366386875805
 42
0.0008225090825113
 10
629.9309564369928
 20
-903.22193262684959
 10
628.94626730505934
 20
-906.24682392010618
 10
632.17889114513309
 20
-906.24682392010618
 10
631.67469871527965
 20
-908.15130221845902
 10
628.41864243329633
 20
-908.15130221845902
 10
622.5894934009425
 20
-926.96452528446389
 10
620.76439579063208
 20
-926.96452528446389
 10
626.59907382613301
 20
-908.15130221845902
 10
624.19395745709289
 20
-908.15130221845902
 10
624.69814988694634
 20
-906.24682392010618
 10
627.12669869789624
 20
-906.24682392010618
 10
627.98685361608477
 20
-903.61041091940751
 42
-0.0005863560630499
 10
628.02358829427124
 20
-903.49358449917133
 10
628.09967612794878
 20
-903.25259219973123
 42
-0.0087522378926835
 10
628.29914427140659
 20
-902.65731611258195
 10
628.39140854682091
 20
-902.39717594406625
 42
-0.0077400953830455
 10
628.64934220595023
 20
-901.70417126652319
 10
628.66510717752647
 20
-901.66374038314405
 42
-0.0082369946332523
 10
628.91219164814106
 20
-901.05966131694186
 42
-0.0085725238360027
 10
629.17943774414846
 20
-900.46423527764489
 10
629.28106734514961
 20
-900.24781417567272
 42
-0.0168109410596854
 10
629.56801177388127
 20
-899.68660664956406
 10
629.69385516433351
 20
-899.45964261657844
 42
-0.0007817726871784
 10
629.74813951439694
 20
-899.36209837153547
 10
629.74826782041396
 20
-899.36186866279957
 42
-0.0036626142162334
 10
629.80315568443552
 20
-899.26527078283107
 42
-0.0080221150663085
 10
629.86027993984112
 20
-899.16999154808036
 10
629.89097989120341
 20
-899.12060059895612
 42
-0.020213932557722
 10
630.01863563101006
 20
-898.93261899827451
 10
630.07270309619776
 20
-898.85954013403352
 42
-0.0249323791800294
 10
630.33186588991668
 20
-898.5434948918795
 10
630.35600570404392
 20
-898.51688061896675
 42
-0.0242132121537123
 10
630.69568644558524
 20
-898.1769971327634
 10
630.74359801833521
 20
-898.13348799657786
 42
-0.0251017527864532
 10
631.02757971897722
 20
-897.90049525081213
 10
631.02902519579004
 20
-897.89942599323388
 42
-0.0130868069032888
 10
631.32728584574829
 20
-897.69064552469081
 10
631.32884766489292
 20
-897.68961208441453
 42
-0.0290329526391595
 10
631.63995880628431
 20
-897.50878658278634
 10
631.66980436827373
 20
-897.49368419994505
 42
-0.0160250190047871
 10
631.93570878203502
 20
-897.36966808973375
 42
-0.0267600374780377
 10
632.21098485950267
 20
-897.26891976918557
 10
632.23772077902458
 20
-897.26072721035962
 42
-0.0049981587879192
 10
632.29289392431156
 20
-897.24442201004786
 42
-0.0049981587879192
  0
LWPOLYLINE
  5
4F
100
AcDbEntity
  8
0
370
              15
390
0
  6
Continuous
 62
               7
100
AcDbPolyline
 90
      118
 70
             128
 10
652.10726148875847
 20
-906.32080724793377
 10
653.98238341325805
 20
-906.32080724793377
 10
653.14434450765816
 20
-909.00237377433405
 42
-0.0010587229231609
 10
653.17580032319813
 20
-908.96546924101642
 10
653.23399441386209
 20
-908.89748698480344
 42
-0.0071874740409521
 10
653.38436963195556
 20
-908.72684629277978
 10
653.52609240522236
 20
-908.57061015146155
 42
-0.0148118053508987
 10
653.9762216979334
 20
-908.10299630544966
 10
654.06344403283799
 20
-908.01759898459329
 42
-0.0086273358694086
 10
654.39899283384534
 20
-907.70022335057729
 10
654.44282655007464
 20
-907.66017370624104
 42
-0.0103138323116944
 10
654.70085025230469
 20
-907.43401056890616
 10
654.74662465863503
 20
-907.39552852164331
 42
-0.006020674855481
 10
654.91947272274388
 20
-907.25373387089166
 10
654.92150385362788
 20
-907.25210816526192
 42
-0.0067069027306973
 10
655.09379666829238
 20
-907.11795753146544
 10
655.09634543421942
 20
-907.11602736158932
 42
-0.0076184352033482
 10
655.26725070008979
 20
-906.99065248634633
 42
-0.0089652861684385
 10
655.4422116628192
 20
-906.87101922601687
 10
655.47856338297072
 20
-906.84710801252959
 42
-0.0156916245936859
 10
655.67452288012942
 20
-906.72684552605642
 42
-0.0023299011066953
 10
655.8747849240749
 20
-906.61366758653503
 10
655.89016905648919
 20
-906.60506759145119
 42
-0.0107669341483389
 10
656.1244058815962
 20
-906.48066745809922
 10
656.14667068266533
 20
-906.46945070815218
 42
-0.0078058045890608
 10
656.43026080061748
 20
-906.33208925251392
 10
656.44016788832721
 20
-906.32748012464526
 42
-0.0181829330473466
 10
656.75047729294317
 20
-906.19661638354921
 10
656.80453273550893
 20
-906.17610126360614
 42
-0.0208411536034587
 10
657.15361770295976
 20
-906.06001080111309
 10
657.16797380308662
 20
-906.0558923561598
 42
-0.0222799817123034
 10
657.49669359700442
 20
-905.97725079001884
 10
657.50558256024169
 20
-905.97553877943369
 42
-0.0215509523904
 10
657.82205352852134
 20
-905.92862309089924
 10
657.86453548957184
 20
-905.92418556410837
 42
-0.0182545924847251
 10
658.09864426887555
 20
-905.90834173871735
 10
658.13804528522053
 20
-905.90711719363799
 42
-0.0072962856570185
 10
658.29396816491237
 20
-905.904547865116
 10
658.32306783547506
 20
-905.90449302971251
 42
-0.0059227516278743
 10
658.42081733462942
 20
-905.90546674150301
 10
658.45005955212753
 20
-905.90610450810675
 42
-0.0011833111870364
 10
658.48931083583375
 20
-905.90705351241559
 10
657.69392424022658
 20
-908.4457874575146
 42
0.0143932051436189
 10
657.66752285787595
 20
-908.43558848746977
 10
657.66025088545871
 20
-908.43301726861228
 42
0.0234388603558933
 10
657.61842001952527
 20
-908.42039803289651
 10
657.60973835661389
 20
-908.41821707089184
 42
0.0199162742988743
 10
657.54944952253504
 20
-908.40560033555744
 10
657.52863558472768
 20
-908.40210313612897
 42
0.0293643550642642
 10
657.42556072596778
 20
-908.39095309047616
 10
657.40087554524814
 20
-908.38974147345743
 42
0.0214606686877905
 10
657.24773462929568
 20
-908.38880291303985
 10
657.23836271847779
 20
-908.38914782458414
 42
0.0167564054164118
 10
657.06684252736841
 20
-908.40122486695191
 10
657.0583827346104
 20
-908.40210620737889
 42
0.0137677553266943
 10
656.87102942134163
 20
-908.42685551592263
 10
656.86367768183788
 20
-908.42803343589003
 42
0.011849726148356
 10
656.66317991773485
 20
-908.46505078607981
 10
656.65702991048931
 20
-908.46633764879971
 42
0.0106421143888524
 10
656.44614902320438
 20
-908.51517002437492
 10
656.44124021481525
 20
-908.51641736706006
 42
0.0099746379697093
 10
656.22278174564838
 20
-908.57659189537617
 10
656.16123370548246
 20
-908.59487377400546
 42
0.0191613675858006
 10
655.82524924296956
 20
-908.70885115429087
 10
655.73718947021825
 20
-908.74253806461707
 42
0.0205274080149938
 10
655.35188269832065
 20
-908.90836647244214
 10
655.2942334163389
 20
-908.93603443701443
 42
0.0181256912204025
 10
655.0359564756717
 20
-909.07171825599289
 10
654.98300109236061
 20
-909.10203586920625
 42
0.0140709242397987
 10
654.83804615772931
 20
-909.19053054264259
 10
654.81179728911502
 20
-909.20758736135531
 42
0.0086667884388924
 10
654.72287112756828
 20
-909.26759002924064
 42
0.0036408192026659
 10
654.63543788952484
 20
-909.3297708870399
 10
654.60021101506629
 20
-909.35521183294532
 42
0.005226078128819
 10
654.44398231768309
 20
-909.47054421957375
 10
654.42777546141565
 20
-909.4827723301978
 42
0.0050024435887856
 10
654.24177211836331
 20
-909.62605489845532
 10
654.22645396184168
 20
-909.63810092090625
 42
0.0136138710274246
 10
654.01601269351295
 20
-909.81306742582228
 10
653.98234481772272
 20
-909.84264639853336
 42
0.0172815186924788
 10
653.71794127605983
 20
-910.0916430711568
 10
653.71537893021764
 20
-910.09422888830341
 42
0.0189403857992424
 10
653.46479713164183
 20
-910.36703415310444
 10
653.43216563810245
 20
-910.40537808460567
 42
0.0185044199498107
 10
653.24020919912255
 20
-910.64862666572844
 42
0.0088565243904931
 10
653.06174909249091
 20
-910.90214308588293
 10
653.05257111284561
 20
-910.91568446563815
 42
0.0157195347229283
 10
652.86935050651095
 20
-911.20520667495475
 10
652.82326756457769
 20
-911.28335887197954
 42
0.0095451879788891
 10
652.65818201444301
 20
-911.57595351433156
 10
652.64703409551635
 20
-911.59662418645803
 42
0.0100351706244397
 10
652.51499034635412
 20
-911.85367974695419
 42
0.0086935915429413
 10
652.39265919455772
 20
-912.11551289236354
 10
652.38933845314568
 20
-912.12295521532997
 42
0.0072580174865034
 10
652.26899200119965
 20
-912.40354720691585
 10
652.26573036789432
 20
-912.4114672329315
 42
0.0060005122614125
 10
652.14652969954818
 20
-912.71107690354597
 10
652.14331872120999
 20
-912.71943843144163
 42
0.0049017786979422
 10
652.02441856235544
 20
-913.03836741203781
 10
652.02125275596211
 20
-913.04712034927616
 42
0.0039415167604061
 10
651.90181647790882
 20
-913.38566241167962
 10
651.89868537525331
 20
-913.39476561256561
 42
0.0031035838761968
 10
651.77788058955923
 20
-913.75320547434239
 10
651.77477054502992
 20
-913.76262609571404
 42
0.0025070747151933
 10
651.65186919371706
 20
-914.14127331264967
 10
651.61457529728909
 20
-914.25816497791038
 42
0.0029081910285933
 10
651.4225569994752
 20
-914.87232863621125
 10
651.3817538309612
 20
-915.00555187847749
 42
0.0009266453734736
 10
651.11333645663569
 20
-915.88777633843711
 10
651.09244898399049
 20
-915.95688821768817
 42
-0.0005809993664994
 10
650.81511230341471
 20
-916.87069632427665
 10
650.74883050515211
 20
-917.08818125640232
 42
-0.0012018708171092
 10
650.6018461957126
 20
-917.56634392095657
 10
650.54952634410449
 20
-917.73510306195908
 42
-0.0002691059601752
 10
650.50595686297856
 20
-917.87537068216443
 10
647.67300096468921
 20
-926.96452528446389
 10
645.85501207271068
 20
-926.96452528446389
 10
652.10726148875847
 20
-906.32080724793377
  0
SPLINE
  5
50
100
AcDbEntity
  8
0
370
              15
390
0
  6
Continuous
 62
               7
100
AcDbSpline
210
0.0
220
0.0
230
1.0
 70
              13
 71
               2
 72
             782
 73
             779
 74
               0
 42
0.000001
 43
0.000001
 40
0.0
 40
0.0
 40
0.0
 40
1.0
 40
1.0
 40
2.0
 40
2.0
 40
3.0
 40
3.0
 40
4.0
 40
4.0
 40
5.0
 40
5.0
 40
6.0
 40
6.0
 40
7.0
 40
7.0
 40
8.0
 40
8.0
 40
9.0
 40
9.0
 40
10.0
 40
10.0
 40
11.0
 40
11.0
 40
12.0
 40
12.0
 40
13.0
 40
13.0
 40
14.0
 40
14.0
 40
15.0
 40
15.0
 40
16.0
 40
16.0
 40
17.0
 40
17.0
 40
18.0
 40
18.0
 40
19.0
 40
19.0
 40
20.0
 40
20.0
 40
21.0
 40
21.0
 40
22.0
 40
22.0
 40
23.0
 40
23.0
 40
24.0
 40
24.0
 40
25.0
 40
25.0
 40
26.0
 40
26.0
 40
27.0
 40
27.0
 40
28.0
 40
28.0
 40
29.0
 40
29.0
 40
30.0
 40
30.0
 40
31.0
 40
31.0
 40
32.0
 40
32.0
 40
33.0
 40
33.0
 40
34.0
 40
34.0
 40
35.0
 40
35.0
 40
36.0
 40
36.0
 40
37.0
 40
37.0
 40
38.0
 40
38.0
 40
39.0
 40
39.0
 40
40.0
 40
40.0
 40
41.0
 40
41.0
 40
42.0
 40
42.0
 40
43.0
 40
43.0
 40
44.0
 40
44.0
 40
45.0
 40
45.0
 40
46.0
 40
46.0
 40
47.0
 40
47.0
 40
48.0
 40
48.0
 40
49.0
 40
49.0
 40
50.0
 40
50.0
 40
51.0
 40
51.0
 40
52.0
 40
52.0
 40
53.0
 40
53.0
 40
54.0
 40
54.0
 40
55.0
 40
55.0
 40
56.0
 40
56.0
 40
57.0
 40
57.0
 40
58.0
 40
58.0
 40
59.0
 40
59.0
 40
60.0
 40
60.0
 40
61.0
 40
61.0
 40
62.0
 40
62.0
 40
63.0
 40
63.0
 40
64.0
 40
64.0
 40
65.0
 40
65.0
 40
66.0
 40
66.0
 40
67.0
 40
67.0
 40
68.0
 40
68.0
 40
69.0
 40
69.0
 40
70.0
 40
70.0
 40
71.0
 40
71.0
 40
72.0
 40
72.0
 40
73.0
 40
73.0
 40
74.0
 40
74.0
 40
75.0
 40
75.0
 40
76.0
 40
76.0
 40
77.0
 40
77.0
 40
78.0
 40
78.0
 40
79.0
 40
79.0
 40
80.0
 40
80.0
 40
81.0
 40
81.0
 40
82.0
 40
82.0
 40
83.0
 40
83.0
 40
84.0
 40
84.0
 40
85.0
 40
85.0
 40
86.0
 40
86.0
 40
87.0
 40
87.0
 40
88.0
 40
88.0
 40
89.0
 40
89.0
 40
90.0
 40
90.0
 40
91.0
 40
91.0
 40
92.0
 40
92.0
 40
93.0
 40
93.0
 40
94.0
 40
94.0
 40
95.0
 40
95.0
 40
96.0
 40
96.0
 40
97.0
 40
97.0
 40
98.0
 40
98.0
 40
99.0
 40
99.0
 40
100.0
 40
100.0
 40
101.0
 40
101.0
 40
102.0
 40
102.0
 40
103.0
 40
103.0
 40
104.0
 40
104.0
 40
105.0
 40
105.0
 40
106.0
 40
106.0
 40
107.0
 40
107.0
 40
108.0
 40
108.0
 40
109.0
 40
109.0
 40
110.0
 40
110.0
 40
111.0
 40
111.0
 40
112.0
 40
112.0
 40
113.0
 40
113.0
 40
114.0
 40
114.0
 40
115.0
 40
115.0
 40
116.0
 40
116.0
 40
117.0
 40
117.0
 40
118.0
 40
118.0
 40
119.0
 40
119.0
 40
120.0
 40
120.0
 40
121.0
 40
121.0
 40
122.0
 40
122.0
 40
123.0
 40
123.0
 40
124.0
 40
124.0
 40
125.0
 40
125.0
 40
126.0
 40
126.0
 40
127.0
 40
127.0
 40
128.0
 40
128.0
 40
129.0
 40
129.0
 40
130.0
 40
130.0
 40
131.0
 40
131.0
 40
132.0
 40
132.0
 40
133.0
 40
133.0
 40
134.0
 40
134.0
 40
135.0
 40
135.0
 40
136.0
 40
136.0
 40
137.0
 40
137.0
 40
138.0
 40
138.0
 40
139.0
 40
139.0
 40
140.0
 40
140.0
 40
141.0
 40
141.0
 40
142.0
 40
142.0
 40
143.0
 40
143.0
 40
144.0
 40
144.0
 40
145.0
 40
145.0
 40
146.0
 40
146.0
 40
147.0
 40
147.0
 40
148.0
 40
148.0
 40
149.0
 40
149.0
 40
150.0
 40
150.0
 40
151.0
 40
151.0
 40
152.0
 40
152.0
 40
153.0
 40
153.0
 40
154.0
 40
154.0
 40
155.0
 40
155.0
 40
156.0
 40
156.0
 40
157.0
 40
157.0
 40
158.0
 40
158.0
 40
159.0
 40
159.0
 40
160.0
 40
160.0
 40
161.0
 40
161.0
 40
162.0
 40
162.0
 40
163.0
 40
163.0
 40
164.0
 40
164.0
 40
165.0
 40
165.0
 40
166.0
 40
166.0
 40
167.0
 40
167.0
 40
168.0
 40
168.0
 40
169.0
 40
169.0
 40
170.0
 40
170.0
 40
171.0
 40
171.0
 40
172.0
 40
172.0
 40
173.0
 40
173.0
 40
174.0
 40
174.0
 40
175.0
 40
175.0
 40
176.0
 40
176.0
 40
177.0
 40
177.0
 40
178.0
 40
178.0
 40
179.0
 40
179.0
 40
180.0
 40
180.0
 40
181.0
 40
181.0
 40
182.0
 40
182.0
 40
183.0
 40
183.0
 40
184.0
 40
184.0
 40
185.0
 40
185.0
 40
186.0
 40
186.0
 40
187.0
 40
187.0
 40
188.0
 40
188.0
 40
189.0
 40
189.0
 40
190.0
 40
190.0
 40
191.0
 40
191.0
 40
192.0
 40
192.0
 40
193.0
 40
193.0
 40
194.0
 40
194.0
 40
195.0
 40
195.0
 40
196.0
 40
196.0
 40
197.0
 40
197.0
 40
198.0
 40
198.0
 40
199.0
 40
199.0
 40
200.0
 40
200.0
 40
201.0
 40
201.0
 40
202.0
 40
202.0
 40
203.0
 40
203.0
 40
204.0
 40
204.0
 40
205.0
 40
205.0
 40
206.0
 40
206.0
 40
207.0
 40
207.0
 40
208.0
 40
208.0
 40
209.0
 40
209.0
 40
210.0
 40
210.0
 40
211.0
 40
211.0
 40
212.0
 40
212.0
 40
213.0
 40
213.0
 40
214.0
 40
214.0
 40
215.0
 40
215.0
 40
216.0
 40
216.0
 40
217.0
 40
217.0
 40
218.0
 40
218.0
 40
219.0
 40
219.0
 40
220.0
 40
220.0
 40
221.0
 40
221.0
 40
222.0
 40
222.0
 40
223.0
 40
223.0
 40
224.0
 40
224.0
 40
225.0
 40
225.0
 40
226.0
 40
226.0
 40
227.0
 40
227.0
 40
228.0
 40
228.0
 40
229.0
 40
229.0
 40
230.0
 40
230.0
 40
231.0
 40
231.0
 40
232.0
 40
232.0
 40
233.0
 40
233.0
 40
234.0
 40
234.0
 40
235.0
 40
235.0
 40
236.0
 40
236.0
 40
237.0
 40
237.0
 40
238.0
 40
238.0
 40
239.0
 40
239.0
 40
240.0
 40
240.0
 40
241.0
 40
241.0
 40
242.0
 40
242.0
 40
243.0
 40
243.0
 40
244.0
 40
244.0
 40
245.0
 40
245.0
 40
246.0
 40
246.0
 40
247.0
 40
247.0
 40
248.0
 40
248.0
 40
249.0
 40
249.0
 40
250.0
 40
250.0
 40
251.0
 40
251.0
 40
252.0
 40
252.0
 40
253.0
 40
253.0
 40
254.0
 40
254.0
 40
255.0
 40
255.0
 40
256.0
 40
256.0
 40
257.0
 40
257.0
 40
258.0
 40
258.0
 40
259.0
 40
259.0
 40
260.0
 40
260.0
 40
261.0
 40
261.0
 40
262.0
 40
262.0
 40
263.0
 40
263.0
 40
264.0
 40
264.0
 40
265.0
 40
265.0
 40
266.0
 40
266.0
 40
267.0
 40
267.0
 40
268.0
 40
268.0
 40
269.0
 40
269.0
 40
270.0
 40
270.0
 40
271.0
 40
271.0
 40
272.0
 40
272.0
 40
273.0
 40
273.0
 40
274.0
 40
274.0
 40
275.0
 40
275.0
 40
276.0
 40
276.0
 40
277.0
 40
277.0
 40
278.0
 40
278.0
 40
279.0
 40
279.0
 40
280.0
 40
280.0
 40
281.0
 40
281.0
 40
282.0
 40
282.0
 40
283.0
 40
283.0
 40
284.0
 40
284.0
 40
285.0
 40
285.0
 40
286.0
 40
286.0
 40
287.0
 40
287.0
 40
288.0
 40
288.0
 40
289.0
 40
289.0
 40
290.0
 40
290.0
 40
291.0
 40
291.0
 40
292.0
 40
292.0
 40
293.0
 40
293.0
 40
294.0
 40
294.0
 40
295.0
 40
295.0
 40
296.0
 40
296.0
 40
297.0
 40
297.0
 40
298.0
 40
298.0
 40
299.0
 40
299.0
 40
300.0
 40
300.0
 40
301.0
 40
301.0
 40
302.0
 40
302.0
 40
303.0
 40
303.0
 40
304.0
 40
304.0
 40
305.0
 40
305.0
 40
306.0
 40
306.0
 40
307.0
 40
307.0
 40
308.0
 40
308.0
 40
309.0
 40
309.0
 40
310.0
 40
310.0
 40
311.0
 40
311.0
 40
312.0
 40
312.0
 40
313.0
 40
313.0
 40
314.0
 40
314.0
 40
315.0
 40
315.0
 40
316.0
 40
316.0
 40
317.0
 40
317.0
 40
318.0
 40
318.0
 40
319.0
 40
319.0
 40
320.0
 40
320.0
 40
321.0
 40
321.0
 40
322.0
 40
322.0
 40
323.0
 40
323.0
 40
324.0
 40
324.0
 40
325.0
 40
325.0
 40
326.0
 40
326.0
 40
327.0
 40
327.0
 40
328.0
 40
328.0
 40
329.0
 40
329.0
 40
330.0
 40
330.0
 40
331.0
 40
331.0
 40
332.0
 40
332.0
 40
333.0
 40
333.0
 40
334.0
 40
334.0
 40
335.0
 40
335.0
 40
336.0
 40
336.0
 40
337.0
 40
337.0
 40
338.0
 40
338.0
 40
339.0
 40
339.0
 40
340.0
 40
340.0
 40
341.0
 40
341.0
 40
342.0
 40
342.0
 40
343.0
 40
343.0
 40
344.0
 40
344.0
 40
345.0
 40
345.0
 40
346.0
 40
346.0
 40
347.0
 40
347.0
 40
348.0
 40
348.0
 40
349.0
 40
349.0
 40
350.0
 40
350.0
 40
351.0
 40
351.0
 40
352.0
 40
352.0
 40
353.0
 40
353.0
 40
354.0
 40
354.0
 40
355.0
 40
355.0
 40
356.0
 40
356.0
 40
357.0
 40
357.0
 40
358.0
 40
358.0
 40
359.0
 40
359.0
 40
360.0
 40
360.0
 40
361.0
 40
361.0
 40
362.0
 40
362.0
 40
363.0
 40
363.0
 40
364.0
 40
364.0
 40
365.0
 40
365.0
 40
366.0
 40
366.0
 40
367.0
 40
367.0
 40
368.0
 40
368.0
 40
369.0
 40
369.0
 40
370.0
 40
370.0
 40
371.0
 40
371.0
 40
372.0
 40
372.0
 40
373.0
 40
373.0
 40
374.0
 40
374.0
 40
375.0
 40
375.0
 40
376.0
 40
376.0
 40
377.0
 40
377.0
 40
378.0
 40
378.0
 40
379.0
 40
379.0
 40
380.0
 40
380.0
 40
381.0
 40
381.0
 40
382.0
 40
382.0
 40
383.0
 40
383.0
 40
384.0
 40
384.0
 40
385.0
 40
385.0
 40
386.0
 40
386.0
 40
387.0
 40
387.0
 40
388.0
 40
388.0
 40
389.0
 40
389.0
 40
389.0
 10
662.43596593949133
 20
-906.30988088457161
 30
0.0
 41
1.0
 10
663.25439004821169
 20
-906.30988088457161
 30
0.0
 41
1.0
 10
664.07281415693205
 20
-906.30988088457161
 30
0.0
 41
1.0
 10
663.65906042141535
 20
-907.65250714882131
 30
0.0
 41
1.0
 10
663.24530668589864
 20
-908.99513341307102
 30
0.0
 41
1.0
 10
663.26364618107345
 20
-908.9664326401487
 30
0.0
 41
0.9999957264379144
 10
663.28215317791216
 20
-908.93783958998597
 30
0.0
 41
1.0
 10
663.31258250204201
 20
-908.8908267116218
 30
0.0
 41
1.0
 10
663.34301182617196
 20
-908.84381383325763
 30
0.0
 41
1.0
 10
663.4223774712782
 20
-908.72119502635485
 30
0.0
 41
0.9995394069081411
 10
663.50903586283016
 20
-908.60361696461291
 30
0.0
 41
1.0
 10
663.54479272508956
 20
-908.55510207201996
 30
0.0
 41
1.0
 10
663.58054958734886
 20
-908.50658717942702
 30
0.0
 41
1.0
 10
663.71427625516696
 20
-908.3251469042998
 30
0.0
 41
0.9994460617142792
 10
663.85977673645561
 20
-908.15300450664927
 30
0.0
 41
1.0
 10
663.86416491743103
 20
-908.14781282626609
 30
0.0
 41
1.0
 10
663.86855309840655
 20
-908.14262114588303
 30
0.0
 41
1.0
 10
664.00527721774415
 20
-907.98086210899896
 30
0.0
 41
0.9994359394934606
 10
664.15255144809487
 20
-907.82864590783447
 30
0.0
 41
1.0
 10
664.15493480204657
 20
-907.82618257746299
 30
0.0
 41
1.0
 10
664.15731815599827
 20
-907.8237192470915
 30
0.0
 41
1.0
 10
664.29982567844377
 20
-907.67642970667157
 30
0.0
 41
0.9995293688566922
 10
664.45109735942856
 20
-907.53815649450553
 30
0.0
 41
1.0
 10
664.47039111869196
 20
-907.52052060885433
 30
0.0
 41
1.0
 10
664.48968487795537
 20
-907.50288472320312
 30
0.0
 41
1.0
 10
664.60236904041187
 20
-907.39988328234085
 30
0.0
 41
0.9997087614803877
 10
664.71989192936576
 20
-907.30243900154346
 30
0.0
 41
1.0
 10
664.73905800254681
 20
-907.28654742303092
 30
0.0
 41
1.0
 10
664.75822407572787
 20
-907.27065584451827
 30
0.0
 41
1.0
 10
664.83741481832635
 20
-907.20499472074061
 30
0.0
 41
0.9999595338697828
 10
664.91777408917596
 20
-907.14076899009069
 30
0.0
 41
1.0
 10
664.99813336002853
 20
-907.07654325943838
 30
0.0
 41
0.9999749417508704
 10
665.07939389437092
 20
-907.01346170549243
 30
0.0
 41
1.0
 10
665.10038004053968
 20
-906.99717041818587
 30
0.0
 41
1.0
 10
665.12136618670831
 20
-906.98087913087932
 30
0.0
 41
1.0
 10
665.20593407200658
 20
-906.91523012104085
 30
0.0
 41
0.9999792037118125
 10
665.29134167177699
 20
-906.8506773393965
 30
0.0
 41
1.0
 10
665.31216649770226
 20
-906.83493751712831
 30
0.0
 41
1.0
 10
665.33299132362754
 20
-906.81919769486024
 30
0.0
 41
1.0
 10
665.37674927155706
 20
-906.78612455774487
 30
0.0
 41
0.9999993373942718
 10
665.42043095768963
 20
-906.75295076232942
 30
0.0
 41
1.0
 10
665.46411264383448
 20
-906.71977696690465
 30
0.0
 41
0.9999160953816442
 10
665.50863905475558
 20
-906.68774590170528
 30
0.0
 41
1.0
 10
665.54146094217344
 20
-906.66413474612148
 30
0.0
 41
1.0
 10
665.57428282959143
 20
-906.64052359053767
 30
0.0
 41
1.0
 10
665.68445301534973
 20
-906.56127021416967
 30
0.0
 41
0.9980964527231357
 10
665.80354200885063
 20
-906.49618274131365
 30
0.0
 41
1.0
 10
665.84057461577868
 20
-906.4759427617206
 30
0.0
 41
1.0
 10
665.87760722270662
 20
-906.45570278212756
 30
0.0
 41
1.0
 10
666.05693423597972
 20
-906.35769253142644
 30
0.0
 41
0.9984572810573127
 10
666.24602280233864
 20
-906.28017027007991
 30
0.0
 41
1.0
 10
666.24966907173484
 20
-906.27867537774182
 30
0.0
 41
1.0
 10
666.25331534113093
 20
-906.27718048540373
 30
0.0
 41
1.0
 10
666.43511136869802
 20
-906.20264800873326
 30
0.0
 41
0.9987838528034392
 10
666.6233640272568
 20
-906.14638236856717
 30
0.0
 41
1.0
 10
666.62760197645468
 20
-906.14511571487719
 30
0.0
 41
1.0
 10
666.63183992565257
 20
-906.14384906118721
 30
0.0
 41
1.0
 10
666.81161668581512
 20
-906.0901167284012
 30
0.0
 41
0.9990652816205774
 10
666.9953626175319
 20
-906.05211304885961
 30
0.0
 41
1.0
 10
667.0005510185631
 20
-906.05103994575313
 30
0.0
 41
1.0
 10
667.00573941959442
 20
-906.04996684264665
 30
0.0
 41
1.0
 10
667.17910854924764
 20
-906.01410936931825
 30
0.0
 41
0.9992909934270843
 10
667.35468431570609
 20
-905.99139893685151
 30
0.0
 41
1.0
 10
667.53026008216489
 20
-905.96868850438477
 30
0.0
 41
0.9994553539448505
 10
667.70695151525842
 20
-905.95760920017824
 30
0.0
 41
1.0
 10
667.74238592305392
 20
-905.95538731213037
 30
0.0
 41
1.0
 10
667.77782033084929
 20
-905.95316542408261
 30
0.0
 41
1.0
 10
667.94404609741844
 20
-905.94274236167075
 30
0.0
 41
0.9990928098292058
 10
668.11055588932095
 20
-905.94650200290562
 30
0.0
 41
1.0
 10
668.14911772459016
 20
-905.94737269443863
 30
0.0
 41
1.0
 10
668.18767955985936
 20
-905.94824338597164
 30
0.0
 41
1.0
 10
668.27706568122096
 20
-905.95026164414037
 30
0.0
 41
0.999838208920688
 10
668.36632136400976
 20
-905.955493770668
 30
0.0
 41
1.0
 10
668.36675127023091
 20
-905.95551897157031
 30
0.0
 41
1.0
 10
668.36718117645205
 20
-905.95554417247263
 30
0.0
 41
1.0
 10
668.4555770467972
 20
-905.96072589719563
 30
0.0
 41
0.9997558016758659
 10
668.54365762399675
 20
-905.96980841256209
 30
0.0
 41
1.0
 10
668.54413376242701
 20
-905.96985751004468
 30
0.0
 41
1.0
 10
668.54460990085715
 20
-905.96990660752738
 30
0.0
 41
1.0
 10
668.63173820119812
 20
-905.97889092792877
 30
0.0
 41
0.999656514418137
 10
668.71827605453973
 20
-905.99242823461827
 30
0.0
 41
1.0
 10
668.71874197991588
 20
-905.9925011203494
 30
0.0
 41
1.0
 10
668.71920790529202
 20
-905.99257400608053
 30
0.0
 41
1.0
 10
668.80481390788032
 20
-906.00596554130755
 30
0.0
 41
0.9995321806868306
 10
668.88944098820969
 20
-906.02456602973689
 30
0.0
 41
1.0
 10
668.88983018278168
 20
-906.02465157220286
 30
0.0
 41
1.0
 10
668.89021937735367
 20
-906.02473711466871
 30
0.0
 41
1.0
 10
668.9740680685378
 20
-906.043166518166
 30
0.0
 41
0.9993819199218448
 10
669.05641460273387
 20
-906.06744190142672
 30
0.0
 41
1.0
 10
669.05665303623277
 20
-906.06751219053626
 30
0.0
 41
1.0
 10
669.0568914697318
 20
-906.06758247964592
 30
0.0
 41
1.0
 10
669.13876113693084
 20
-906.09171728468777
 30
0.0
 41
0.9992088568507509
 10
669.21845365591832
 20
-906.12228252048135
 30
0.0
 41
1.0
 10
669.29813464679739
 20
-906.15284212121401
 30
0.0
 41
0.9990226101771746
 10
669.37480531670451
 20
-906.19031955282844
 30
0.0
 41
1.0
 10
669.45146445850207
 20
-906.22779134938139
 30
0.0
 41
0.9988424273970071
 10
669.52416808571343
 20
-906.27245612463457
 30
0.0
 41
1.0
 10
669.52443579409351
 20
-906.27262058870724
 30
0.0
 41
1.0
 10
669.52470350247359
 20
-906.27278505277991
 30
0.0
 41
1.0
 10
669.59794254644441
 20
-906.31777875617797
 30
0.0
 41
0.9986928844494023
 10
669.66620541315478
 20
-906.37001449045772
 30
0.0
 41
1.0
 10
669.66678670537726
 20
-906.37045930368549
 30
0.0
 41
1.0
 10
669.66736799759985
 20
-906.37090411691315
 30
0.0
 41
1.0
 10
669.73679344875529
 20
-906.42402947764833
 30
0.0
 41
0.9986007262276656
 10
669.80021961852174
 20
-906.48419024734199
 30
0.0
 41
1.0
 10
669.80111403397905
 20
-906.48503861517713
 30
0.0
 41
1.0
 10
669.80200844943624
 20
-906.48588698301228
 30
0.0
 41
1.0
 10
669.86722345011754
 20
-906.54774448837668
 30
0.0
 41
0.9985581491382968
 10
669.92543106181984
 20
-906.61623697864866
 30
0.0
 41
1.0
 10
669.93468951541524
 20
-906.62713133634986
 30
0.0
 41
1.0
 10
669.94394796901065
 20
-906.63802569405107
 30
0.0
 41
1.0
 10
670.02067248790411
 20
-906.72830689972602
 30
0.0
 41
0.9970460233520148
 10
670.08266438906367
 20
-906.82927398390768
 30
0.0
 41
1.0
 10
670.09713375414253
 20
-906.85284044298783
 30
0.0
 41
1.0
 10
670.11160311922151
 20
-906.87640690206797
 30
0.0
 41
1.0
 10
670.15133981923441
 20
-906.94112662610053
 30
0.0
 41
0.9988468816635246
 10
670.18468618998622
 20
-907.00935907852909
 30
0.0
 41
1.0
 10
670.19172221247777
 20
-907.02375599966672
 30
0.0
 41
1.0
 10
670.19875823496932
 20
-907.03815292080446
 30
0.0
 41
1.0
 10
670.21803256073758
 20
-907.07759153095685
 30
0.0
 41
0.9998431189999147
 10
670.23589788823267
 20
-907.11768808539819
 30
0.0
 41
1.0
 10
670.2537632157181
 20
-907.15778463981781
 30
0.0
 41
0.9999989989814463
 10
670.27174193913538
 20
-907.19783047739088
 30
0.0
 41
1.0
 10
670.27791425073679
 20
-907.21157869421938
 30
0.0
 41
1.0
 10
670.28408656233819
 20
-907.22532691104789
 30
0.0
 41
1.0
 10
670.31440990894873
 20
-907.29286918225648
 30
0.0
 41
0.9998790356319424
 10
670.34261778908672
 20
-907.36132193419382
 30
0.0
 41
1.0
 10
670.34945297037075
 20
-907.37790903562052
 30
0.0
 41
1.0
 10
670.35628815165467
 20
-907.39449613704721
 30
0.0
 41
1.0
 10
670.37984581403532
 20
-907.45166409193325
 30
0.0
 41
0.9998227574560213
 10
670.40123456242486
 20
-907.50967840021167
 30
0.0
 41
1.0
 10
670.42262331081429
 20
-907.56769270848952
 30
0.0
 41
0.9996797971041059
 10
670.44104959577351
 20
-907.62671482760811
 30
0.0
 41
1.0
 10
670.44495339849902
 20
-907.6392192857769
 30
0.0
 41
1.0
 10
670.44885720122454
 20
-907.65172374394569
 30
0.0
 41
1.0
 10
670.47509109163468
 20
-907.73575477940119
 30
0.0
 41
0.9979274938734758
 10
670.4903156151139
 20
-907.82245913806116
 30
0.0
 41
1.0
 10
670.49253930237489
 20
-907.83512313888093
 30
0.0
 41
1.0
 10
670.49476298963589
 20
-907.8477871397007
 30
0.0
 41
1.0
 10
670.5056929293346
 20
-907.91003364699236
 30
0.0
 41
0.9994985982136618
 10
670.51266109451149
 20
-907.97284714813577
 30
0.0
 41
1.0
 10
670.51962925968837
 20
-908.03566064927873
 30
0.0
 41
0.9996372611202194
 10
670.52320512545634
 20
-908.09875822796266
 30
0.0
 41
1.0
 10
670.52337370294561
 20
-908.10173284504367
 30
0.0
 41
1.0
 10
670.52354228043487
 20
-908.10470746212468
 30
0.0
 41
1.0
 10
670.52745530118136
 20
-908.17375427497234
 30
0.0
 41
0.9997730630737114
 10
670.52842361466946
 20
-908.242905099008
 30
0.0
 41
1.0
 10
670.52848072108759
 20
-908.24698327814826
 30
0.0
 41
1.0
 10
670.5285378275056
 20
-908.25106145728842
 30
0.0
 41
1.0
 10
670.52962035382973
 20
-908.32836863960972
 30
0.0
 41
0.9998772614071488
 10
670.52828026709801
 20
-908.40567178617755
 30
0.0
 41
1.0
 10
670.52819100389934
 20
-908.41082095000911
 30
0.0
 41
1.0
 10
670.52810174070066
 20
-908.41597011384056
 30
0.0
 41
1.0
 10
670.5265831275716
 20
-908.5035715880731
 30
0.0
 41
0.9999415567325632
 10
670.52317081732565
 20
-908.59111974974621
 30
0.0
 41
1.0
 10
670.52292949665025
 20
-908.59731120948527
 30
0.0
 41
1.0
 10
670.52268817597485
 20
-908.60350266922433
 30
0.0
 41
1.0
 10
670.51879322437776
 20
-908.70343375038283
 30
0.0
 41
0.9999716810434374
 10
670.51339464125886
 20
-908.80329488861867
 30
0.0
 41
1.0
 10
670.51018184247039
 20
-908.86272413826964
 30
0.0
 41
1.0
 10
670.50696904368192
 20
-908.92215338792062
 30
0.0
 41
1.0
 10
670.49889513452933
 20
-909.07150178919983
 30
0.0
 41
0.9999819129914006
 10
670.48902534291278
 20
-909.22074226690984
 30
0.0
 41
1.0
 10
670.47915555129612
 20
-909.36998274462167
 30
0.0
 41
1.0
 10
670.47671623073234
 20
-909.40717579047123
 30
0.0
 41
1.0
 10
670.49941446456432
 20
-909.36843479314007
 30
0.0
 41
0.9999982128306622
 10
670.52225902332896
 20
-909.32977989916606
 30
0.0
 41
1.0
 10
670.54916858320871
 20
-909.28424668511934
 30
0.0
 41
1.0
 10
670.57607814308858
 20
-909.23871347107251
 30
0.0
 41
1.0
 10
670.652741821615
 20
-909.10899214900144
 30
0.0
 41
0.9998609190058456
 10
670.73368913447882
 20
-908.98189976706908
 30
0.0
 41
1.0
 10
670.76333745595844
 20
-908.93535003411534
 30
0.0
 41
1.0
 10
670.79298577743805
 20
-908.8888003011615
 30
0.0
 41
1.0
 10
670.8752579976765
 20
-908.75962773116453
 30
0.0
 41
0.9999067609735783
 10
670.96102700714073
 20
-908.63275004172283
 30
0.0
 41
1.0
 10
670.96343171034084
 20
-908.62919277566914
 30
0.0
 41
1.0
 10
670.96583641354096
 20
-908.62563550961545
 30
0.0
 41
1.0
 10
671.04679601660337
 20
-908.50587235228352
 30
0.0
 41
0.9998784952148722
 10
671.13144962628621
 20
-908.38869113557303
 30
0.0
 41
1.0
 10
671.2161032359686
 20
-908.27150991886333
 30
0.0
 41
0.9998532968282525
 10
671.30472085679185
 20
-908.15729701039209
 30
0.0
 41
1.0
 10
671.32468264578245
 20
-908.13156968937255
 30
0.0
 41
1.0
 10
671.34464443477304
 20
-908.10584236835314
 30
0.0
 41
1.0
 10
671.46312848453147
 20
-907.9531367573851
 30
0.0
 41
0.9991551975795648
 10
671.59375293415462
 20
-907.81067719530165
 30
0.0
 41
1.0
 10
671.59726255013425
 20
-907.8068495936775
 30
0.0
 41
1.0
 10
671.60077216611387
 20
-907.80302199205335
 30
0.0
 41
1.0
 10
671.72437738377766
 20
-907.66821763321832
 30
0.0
 41
0.9997418144179918
 10
671.85397952347876
 20
-907.53916822260544
 30
0.0
 41
1.0
 10
671.98358166318019
 20
-907.41011881199245
 30
0.0
 41
0.9989238204633258
 10
672.12458421143185
 20
-907.29363384995315
 30
0.0
 41
1.0
 10
672.16983188956976
 20
-907.25625385834587
 30
0.0
 41
1.0
 10
672.21507956770768
 20
-907.21887386673848
 30
0.0
 41
1.0
 10
672.35531962492996
 20
-907.10301881344697
 30
0.0
 41
0.9990825084097272
 10
672.5049595575349
 20
-906.99958981561304
 30
0.0
 41
1.0
 10
672.51500492159198
 20
-906.99264660253334
 30
0.0
 41
1.0
 10
672.52505028564906
 20
-906.98570338945376
 30
0.0
 41
1.0
 10
672.65459949013905
 20
-906.89616081777967
 30
0.0
 41
0.9998164899825437
 10
672.78748369351513
 20
-906.81164657626323
 30
0.0
 41
1.0
 10
672.79932925404046
 20
-906.80411280973794
 30
0.0
 41
1.0
 10
672.8111748145659
 20
-906.79657904321266
 30
0.0
 41
1.0
 10
672.92036789689087
 20
-906.72713233474701
 30
0.0
 41
0.9997473449131428
 10
673.03257185414088
 20
-906.66266337693105
 30
0.0
 41
1.0
 10
673.1447758113934
 20
-906.59819441911372
 30
0.0
 41
0.9999327861147161
 10
673.25844442216123
 20
-906.53634442742987
 30
0.0
 41
1.0
 10
673.25899642471813
 20
-906.53604406875274
 30
0.0
 41
1.0
 10
673.25954842727515
 20
-906.53574371007562
 30
0.0
 41
1.0
 10
673.37432104315815
 20
-906.47329300103672
 30
0.0
 41
0.9996956420483572
 10
673.49203436899631
 20
-906.41657953406309
 30
0.0
 41
1.0
 10
673.52247477389187
 20
-906.4019135573318
 30
0.0
 41
1.0
 10
673.55291517878732
 20
-906.3872475806005
 30
0.0
 41
1.0
 10
673.65589228553051
 20
-906.33763392215758
 30
0.0
 41
0.9998070570177579
 10
673.76073867447053
 20
-906.2921033352568
 30
0.0
 41
1.0
 10
673.86558506341146
 20
-906.24657274835567
 30
0.0
 41
0.9997827436147057
 10
673.97223800002098
 20
-906.20545157704407
 30
0.0
 41
1.0
 10
673.99146084965253
 20
-906.19804000341173
 30
0.0
 41
1.0
 10
674.01068369928407
 20
-906.19062842977928
 30
0.0
 41
1.0
 10
674.15578233515771
 20
-906.13468411120255
 30
0.0
 41
0.9988031841977504
 10
674.30565269776309
 20
-906.09318404703447
 30
0.0
 41
1.0
 10
674.33056994612548
 20
-906.08628430122781
 30
0.0
 41
1.0
 10
674.35548719448798
 20
-906.07938455542126
 30
0.0
 41
1.0
 10
674.52275722013519
 20
-906.03306641301424
 30
0.0
 41
0.9984748040550051
 10
674.69411412878401
 20
-906.00547218074917
 30
0.0
 41
1.0
 10
674.69885326503208
 20
-906.00470902023585
 30
0.0
 41
1.0
 10
674.70359240128016
 20
-906.00394585972253
 30
0.0
 41
1.0
 10
674.86547103743214
 20
-905.97787794848409
 30
0.0
 41
0.9984436495478321
 10
675.02924578115778
 20
-905.96999999466607
 30
0.0
 41
1.0
 10
675.05094298928964
 20
-905.96895630746644
 30
0.0
 41
1.0
 10
675.07264019742149
 20
-905.96791262026693
 30
0.0
 41
1.0
 10
675.19302052488285
 20
-905.96212204084804
 30
0.0
 41
0.9987954789336306
 10
675.31338876979225
 20
-905.9681585685903
 30
0.0
 41
1.0
 10
675.3333535622869
 20
-905.96915981292886
 30
0.0
 41
1.0
 10
675.35331835478166
 20
-905.97016105726743
 30
0.0
 41
1.0
 10
675.43375701470222
 20
-905.97419509633255
 30
0.0
 41
0.9997941595878177
 10
675.5139657927964
 20
-905.98148916225364
 30
0.0
 41
1.0
 10
675.59417457089023
 20
-905.98878322817461
 30
0.0
 41
0.9998589466236049
 10
675.67409311774418
 20
-905.99876708262457
 30
0.0
 41
1.0
 10
675.70649931955325
 20
-906.00281543954384
 30
0.0
 41
1.0
 10
675.73890552136231
 20
-906.00686379646322
 30
0.0
 41
1.0
 10
675.88363647183337
 20
-906.02494436475172
 30
0.0
 41
0.999349506324955
 10
676.02668771559865
 20
-906.05341007449317
 30
0.0
 41
1.0
 10
676.05962141275188
 20
-906.0599635377082
 30
0.0
 41
1.0
 10
676.09255510990511
 20
-906.06651700092323
 30
0.0
 41
1.0
 10
676.20184893310886
 20
-906.0882653350584
 30
0.0
 41
0.9996788715561384
 10
676.30990050506443
 20
-906.11552313442098
 30
0.0
 41
1.0
 10
676.3119635076032
 20
-906.11604356099383
 30
0.0
 41
1.0
 10
676.31402651014196
 20
-906.11656398756668
 30
0.0
 41
1.0
 10
676.4179520770208
 20
-906.1427809337838
 30
0.0
 41
0.9995480654492365
 10
676.52011431225037
 20
-906.17519589040785
 30
0.0
 41
1.0
 10
676.52180395437881
 20
-906.1757319953216
 30
0.0
 41
1.0
 10
676.52349359650725
 20
-906.17626810023535
 30
0.0
 41
1.0
 10
676.62227654747937
 20
-906.20761084703167
 30
0.0
 41
0.9993867959454565
 10
676.71862370592248
 20
-906.24579021632235
 30
0.0
 41
1.0
 10
676.71986665500776
 20
-906.24628275821874
 30
0.0
 41
1.0
 10
676.72110960409304
 20
-906.24677530011525
 30
0.0
 41
1.0
 10
676.81497086436491
 20
-906.28396958561268
 30
0.0
 41
0.9992050256524067
 10
676.90557053939824
 20
-906.32852348485085
 30
0.0
 41
1.0
 10
676.90630522211109
 20
-906.32888477731183
 30
0.0
 41
1.0
 10
676.90703990482382
 20
-906.32924606977281
 30
0.0
 41
1.0
 10
676.99617021443191
 20
-906.37307738408913
 30
0.0
 41
0.9990222350739896
 10
677.08108027582523
 20
-906.42461065178759
 30
0.0
 41
1.0
 10
677.08126416110792
 20
-906.42472225469237
 30
0.0
 41
1.0
 10
677.08144804639062
 20
-906.42483385759726
 30
0.0
 41
1.0
 10
677.16599033721911
 20
-906.47614391948639
 30
0.0
 41
0.9988642743805429
 10
677.245264871838
 20
-906.53526810701169
 30
0.0
 41
1.0
 10
677.32453940645701
 20
-906.5943922945371
 30
0.0
 41
0.998768123331206
 10
677.39756319073365
 20
-906.66108298593792
 30
0.0
 41
1.0
 10
677.39789211869925
 20
-906.66138338715177
 30
0.0
 41
1.0
 10
677.39822104666473
 20
-906.66168378836574
 30
0.0
 41
1.0
 10
677.47190268687211
 20
-906.72897528219403
 30
0.0
 41
0.9987496570897287
 10
677.53849649219876
 20
-906.80328809628031
 30
0.0
 41
1.0
 10
677.53926866195957
 20
-906.80414976963868
 30
0.0
 41
1.0
 10
677.54004083172049
 20
-906.80501144299706
 30
0.0
 41
1.0
 10
677.60817897656887
 20
-906.8810476038002
 30
0.0
 41
0.9988147669827935
 10
677.66860123079437
 20
-906.96334861064315
 30
0.0
 41
1.0
 10
677.66972055687165
 20
-906.96487324199506
 30
0.0
 41
1.0
 10
677.67083988294894
 20
-906.96639787334698
 30
0.0
 41
1.0
 10
677.73350078932936
 20
-907.0517481428941
 30
0.0
 41
0.9989452636215878
 10
677.7880677022905
 20
-907.14248683205153
 30
0.0
 41
1.0
 10
677.7894164283764
 20
-907.14472961307797
 30
0.0
 41
1.0
 10
677.79076515446218
 20
-907.14697239410452
 30
0.0
 41
1.0
 10
677.84802951959489
 20
-907.24219664531449
 30
0.0
 41
0.9991046436070469
 10
677.89703873291637
 20
-907.34192107833974
 30
0.0
 41
1.0
 10
677.89850259450645
 20
-907.34489975841245
 30
0.0
 41
1.0
 10
677.89996645609654
 20
-907.34787843848517
 30
0.0
 41
1.0
 10
677.95190339259807
 20
-907.4535602316555
 30
0.0
 41
0.9992763831100927
 10
677.99565652115302
 20
-907.56288429361132
 30
0.0
 41
1.0
 10
677.9971357908164
 20
-907.56658048114514
 30
0.0
 41
1.0
 10
677.99861506047989
 20
-907.57027666867907
 30
0.0
 41
1.0
 10
678.04532672836172
 20
-907.68699310570253
 30
0.0
 41
0.9994163472883866
 10
678.08395975955148
 20
-907.80662669416654
 30
0.0
 41
1.0
 10
678.08519791179833
 20
-907.81046083794945
 30
0.0
 41
1.0
 10
678.08643606404519
 20
-907.81429498173236
 30
0.0
 41
1.0
 10
678.12631962506237
 20
-907.93780104321047
 30
0.0
 41
0.999726805589074
 10
678.16038768097428
 20
-908.06303607516111
 30
0.0
 41
1.0
 10
678.16131786124402
 20
-908.0664554412707
 30
0.0
 41
1.0
 10
678.16224804151386
 20
-908.0698748073803
 30
0.0
 41
1.0
 10
678.19445573688631
 20
-908.1882711071122
 30
0.0
 41
0.9996701319000824
 10
678.22054135365681
 20
-908.30816506037536
 30
0.0
 41
1.0
 10
678.24662697042743
 20
-908.42805901363954
 30
0.0
 41
0.9995785451109704
 10
678.26571054776741
 20
-908.54926477467234
 30
0.0
 41
1.0
 10
678.26993032994096
 20
-908.57606592943625
 30
0.0
 41
1.0
 10
678.2741501121144
 20
-908.60286708420017
 30
0.0
 41
1.0
 10
678.30072508805301
 20
-908.77165305790368
 30
0.0
 41
0.9979925101216789
 10
678.30575067397933
 20
-908.94244438599526
 30
0.0
 41
1.0
 10
678.30657548640397
 20
-908.97047510947505
 30
0.0
 41
1.0
 10
678.30740029882861
 20
-908.99850583295495
 30
0.0
 41
1.0
 10
678.31077625990565
 20
-909.11323571408514
 30
0.0
 41
0.9995314902263427
 10
678.30712606776717
 20
-909.2279571978388
 30
0.0
 41
1.0
 10
678.30347587562869
 20
-909.34267868159077
 30
0.0
 41
0.9996245486943705
 10
678.29354678049765
 20
-909.45702795271563
 30
0.0
 41
1.0
 10
678.29338373250346
 20
-909.45890570885035
 30
0.0
 41
1.0
 10
678.29322068450927
 20
-909.46078346498507
 30
0.0
 41
1.0
 10
678.28296549338995
 20
-909.57888824837846
 30
0.0
 41
0.9997286095001109
 10
678.26722016981887
 20
-909.69638715727103
 30
0.0
 41
1.0
 10
678.26682667716841
 20
-909.69932358197434
 30
0.0
 41
1.0
 10
678.26643318451784
 20
-909.70226000667753
 30
0.0
 41
1.0
 10
678.24990087564595
 20
-909.82563176497479
 30
0.0
 41
0.9998265533969948
 10
678.22878541691352
 20
-909.94830223976192
 30
0.0
 41
1.0
 10
678.22810887477613
 20
-909.95223261827061
 30
0.0
 41
1.0
 10
678.22743233263884
 20
-909.95616299677931
 30
0.0
 41
1.0
 10
678.20496378963071
 20
-910.08669422858884
 30
0.0
 41
0.9999022530852176
 10
678.17885432501987
 20
-910.21654619723142
 30
0.0
 41
1.0
 10
678.17787568385552
 20
-910.22141333961349
 30
0.0
 41
1.0
 10
678.17689704269117
 20
-910.22628048199567
 30
0.0
 41
1.0
 10
678.1488302957523
 20
-910.3658667354
 30
0.0
 41
0.9999524761933671
 10
678.11804732691974
 20
-910.50487922855496
 30
0.0
 41
1.0
 10
678.1167712197423
 20
-910.51064198786651
 30
0.0
 41
1.0
 10
678.11549511256476
 20
-910.51640474717806
 30
0.0
 41
1.0
 10
678.08215992937744
 20
-910.66694275895429
 30
0.0
 41
0.9999813588728744
 10
678.04698892857959
 20
-910.81706247161947
 30
0.0
 41
1.0
 10
678.04543500312491
 20
-910.82369506203395
 30
0.0
 41
1.0
 10
678.04388107767022
 20
-910.83032765244843
 30
0.0
 41
1.0
 10
678.00560222596209
 20
-910.99371254594621
 30
0.0
 41
0.9999955237647907
 10
677.96634634798181
 20
-911.15686544955167
 30
0.0
 41
1.0
 10
677.95406471234696
 20
-911.20790964007688
 30
0.0
 41
1.0
 10
677.941783076712
 20
-911.25895383060197
 30
0.0
 41
1.0
 10
677.87796392746122
 20
-911.5241951152608
 30
0.0
 41
0.999999360448749
 10
677.81354498029589
 20
-911.7892913659341
 30
0.0
 41
1.0
 10
677.80882614474831
 20
-911.80871027397677
 30
0.0
 41
1.0
 10
677.80410730920073
 20
-911.82812918201944
 30
0.0
 41
1.0
 10
677.73025069093819
 20
-912.13206324878661
 30
0.0
 41
0.9999659914723807
 10
677.65139109505083
 20
-912.43473779535361
 30
0.0
 41
1.0
 10
677.64643840612223
 20
-912.45374693252825
 30
0.0
 41
1.0
 10
677.64148571719363
 20
-912.47275606970288
 30
0.0
 41
1.0
 10
677.55272074344907
 20
-912.81344889061938
 30
0.0
 41
0.9999441976026082
 10
677.45677771048543
 20
-913.15219031591857
 30
0.0
 41
1.0
 10
677.44007719205956
 20
-913.21115402844748
 30
0.0
 41
1.0
 10
677.4233766736337
 20
-913.27011774097627
 30
0.0
 41
1.0
 10
677.29403260381787
 20
-913.72678659133453
 30
0.0
 41
0.9999625120735104
 10
677.15679983649329
 20
-914.18114712533418
 30
0.0
 41
1.0
 10
677.12100989341207
 20
-914.29964315195571
 30
0.0
 41
1.0
 10
677.08521995033072
 20
-914.41813917857723
 30
0.0
 41
1.0
 10
677.01069974628979
 20
-914.66486625667903
 30
0.0
 41
0.9999793386301282
 10
676.93301372315125
 20
-914.91061489591812
 30
0.0
 41
1.0
 10
676.85532770001373
 20
-915.15636353515401
 30
0.0
 41
1.0
 10
676.84454814114292
 20
-915.19038143953003
 30
0.0
 41
1.0
 10
674.99417508787371
 20
-921.07745336199696
 30
0.0
 41
1.0
 10
673.14380203460451
 20
-926.96452528446389
 30
0.0
 41
1.0
 10
672.18254534458106
 20
-926.96452528446389
 30
0.0
 41
1.0
 10
671.22128865455761
 20
-926.96452528446389
 30
0.0
 41
1.0
 10
672.84023343323599
 20
-921.81649678267422
 30
0.0
 41
1.0
 10
674.45917821191438
 20
-916.66846828088455
 30
0.0
 41
1.0
 10
674.504344035087
 20
-916.52443705862015
 30
0.0
 41
1.0
 10
674.54950985825963
 20
-916.38040583635575
 30
0.0
 41
1.0
 10
674.71981427562559
 20
-915.83731480718347
 30
0.0
 41
0.9999911657883124
 10
674.88554708730589
 20
-915.29281127581999
 30
0.0
 41
1.0
 10
674.91524303080678
 20
-915.19524733576793
 30
0.0
 41
1.0
 10
674.94493897430777
 20
-915.09768339571588
 30
0.0
 41
1.0
 10
675.05127989898608
 20
-914.74830774445672
 30
0.0
 41
0.9999952428128678
 10
675.15546348831117
 20
-914.39828272010618
 30
0.0
 41
1.0
 10
675.16052295864188
 20
-914.38128444583685
 30
0.0
 41
1.0
 10
675.16558242897258
 20
-914.36428617156753
 30
0.0
 41
1.0
 10
675.2596470776358
 20
-914.048257695757
 30
0.0
 41
0.9999931687466614
 10
675.35137291550973
 20
-913.73154248248557
 30
0.0
 41
1.0
 10
675.35630817997139
 20
-913.7145017732073
 30
0.0
 41
1.0
 10
675.36124344443294
 20
-913.69746106392893
 30
0.0
 41
1.0
 10
675.44309875338547
 20
-913.41482726920754
 30
0.0
 41
0.9999893840811456
 10
675.52234597984011
 20
-913.1314511399687
 30
0.0
 41
1.0
 10
675.6015932062968
 20
-912.84807501072282
 30
0.0
 41
0.9999833980078179
 10
675.67756944703626
 20
-912.56380442770285
 30
0.0
 41
1.0
 10
675.68657338375988
 20
-912.53011554921977
 30
0.0
 41
1.0
 10
675.69557732048338
 20
-912.4964266707367
 30
0.0
 41
1.0
 10
675.76454186935007
 20
-912.23839083843905
 30
0.0
 41
0.9999233658063912
 10
675.82709684057056
 20
-911.97872667971569
 30
0.0
 41
1.0
 10
675.88965181179083
 20
-911.71906252099325
 30
0.0
 41
1.0
 10
675.9291352306484
 20
-911.55525585656687
 30
0.0
 41
1.0
 10
675.93411383462546
 20
-911.53460089469729
 30
0.0
 41
1.0
 10
675.93909243860253
 20
-911.51394593282771
 30
0.0
 41
1.0
 10
675.96861864950642
 20
-911.39144919213845
 30
0.0
 41
0.9999868670841603
 10
675.99688773350215
 20
-911.26865624649508
 30
0.0
 41
1.0
 10
676.0007852206594
 20
-911.25172665908008
 30
0.0
 41
1.0
 10
676.00468270781664
 20
-911.23479707166507
 30
0.0
 41
1.0
 10
676.02515681749719
 20
-911.14586330085456
 30
0.0
 41
0.9999778173345433
 10
676.04444441561384
 20
-911.0566646836196
 30
0.0
 41
1.0
 10
676.0637320137289
 20
-910.96746606639147
 30
0.0
 41
0.9999602692862302
 10
676.08142637236028
 20
-910.87793777796196
 30
0.0
 41
1.0
 10
676.08463020443776
 20
-910.86172732307705
 30
0.0
 41
1.0
 10
676.08783403651523
 20
-910.84551686819214
 30
0.0
 41
1.0
 10
676.11193605930134
 20
-910.72356766999383
 30
0.0
 41
0.9995617985320403
 10
676.12877940652004
 20
-910.60040592228756
 30
0.0
 41
1.0
 10
676.13124389642621
 20
-910.58238510492208
 30
0.0
 41
1.0
 10
676.1337083863325
 20
-910.5643642875566
 30
0.0
 41
1.0
 10
676.15399164738074
 20
-910.41604923785599
 30
0.0
 41
0.9991121410639916
 10
676.16171700096902
 20
-910.26655313904939
 30
0.0
 41
1.0
 10
676.16263579099359
 20
-910.24877330247318
 30
0.0
 41
1.0
 10
676.16355458101816
 20
-910.23099346589686
 30
0.0
 41
1.0
 10
676.1694423545573
 20
-910.11705704024268
 30
0.0
 41
0.9989792494905441
 10
676.16502326243995
 20
-910.00305420434415
 30
0.0
 41
1.0
 10
676.16437529057134
 20
-909.98633795841647
 30
0.0
 41
1.0
 10
676.16372731870263
 20
-909.9696217124889
 30
0.0
 41
1.0
 10
676.16060417032259
 20
-909.88905136844551
 30
0.0
 41
0.9997820295394273
 10
676.15412017294693
 20
-909.8086816467021
 30
0.0
 41
1.0
 10
676.14763617557139
 20
-909.72831192496062
 30
0.0
 41
0.9998335105974106
 10
676.13822398006005
 20
-909.64823230851266
 30
0.0
 41
1.0
 10
676.13662905538342
 20
-909.63466257802736
 30
0.0
 41
1.0
 10
676.1350341307068
 20
-909.62109284754206
 30
0.0
 41
1.0
 10
676.12243208584221
 20
-909.51387377012441
 30
0.0
 41
0.9996876457879613
 10
676.10448817304371
 20
-909.40741834240703
 30
0.0
 41
1.0
 10
676.10225650989855
 20
-909.39417860716662
 30
0.0
 41
1.0
 10
676.10002484675351
 20
-909.38093887192633
 30
0.0
 41
1.0
 10
676.08622902533261
 20
-909.29909272796795
 30
0.0
 41
0.9995547496494361
 10
676.06757570343984
 20
-909.21821523077688
 30
0.0
 41
1.0
 10
676.06720174656857
 20
-909.21659382007192
 30
0.0
 41
1.0
 10
676.06682778969741
 20
-909.21497240936696
 30
0.0
 41
1.0
 10
676.04892238154719
 20
-909.13733773358615
 30
0.0
 41
0.9994899427175696
 10
676.02609747286783
 20
-909.06100445075117
 30
0.0
 41
1.0
 10
676.02563894612717
 20
-909.05947100096273
 30
0.0
 41
1.0
 10
676.0251804193864
 20
-909.0579375511744
 30
0.0
 41
1.0
 10
676.00327256418871
 20
-908.98467116791699
 30
0.0
 41
0.9993784877590665
 10
675.97625692908196
 20
-908.91313046275718
 30
0.0
 41
1.0
 10
675.97572523810504
 20
-908.91172248003681
 30
0.0
 41
1.0
 10
675.97519354712824
 20
-908.91031449731645
 30
0.0
 41
1.0
 10
675.94924129397532
 20
-908.84158975759783
 30
0.0
 41
0.9992430832254167
 10
675.91802475881605
 20
-908.77509060552984
 30
0.0
 41
1.0
 10
675.91744264275894
 20
-908.77385055041123
 30
0.0
 41
1.0
 10
675.91686052670173
 20
-908.77261049529272
 30
0.0
 41
1.0
 10
675.8868082236562
 20
-908.7085914534606
 30
0.0
 41
0.9990789632797248
 10
675.85137759687996
 20
-908.64738484171266
 30
0.0
 41
1.0
 10
675.85078189069861
 20
-908.64635575585453
 30
0.0
 41
1.0
 10
675.85018618451727
 20
-908.64532666999651
 30
0.0
 41
1.0
 10
675.8159469701036
 20
-908.58617822996416
 30
0.0
 41
0.9988874801122325
 10
675.77628769407113
 20
-908.53051851754572
 30
0.0
 41
1.0
 10
675.77573216800693
 20
-908.52973886587097
 30
0.0
 41
1.0
 10
675.77517664194261
 20
-908.52895921419622
 30
0.0
 41
1.0
 10
675.73662841803889
 20
-908.47485880512772
 30
0.0
 41
0.9986762060694076
 10
675.69272594676306
 20
-908.4250050906885
 30
0.0
 41
1.0
 10
675.692281986431
 20
-908.42450094887204
 30
0.0
 41
1.0
 10
675.69183802609894
 20
-908.42399680705546
 30
0.0
 41
1.0
 10
675.64882347548701
 20
-908.37515137624905
 30
0.0
 41
0.9984621642488534
 10
675.60066591870907
 20
-908.33136807577739
 30
0.0
 41
1.0
 10
675.60041928419196
 20
-908.3311438436134
 30
0.0
 41
1.0
 10
675.60017264967485
 20
-908.33091961144942
 30
0.0
 41
1.0
 10
675.5525083619309
 20
-908.2875847753055
 30
0.0
 41
0.9982724693847925
 10
675.50008973008983
 20
-908.2501404247887
 30
0.0
 41
1.0
 10
675.44767109824863
 20
-908.21269607427178
 30
0.0
 41
0.9981399180160282
 10
675.39108503485556
 20
-908.18190955482862
 30
0.0
 41
1.0
 10
675.39103937277685
 20
-908.18188471167127
 30
0.0
 41
1.0
 10
675.39099371069813
 20
-908.18185986851404
 30
0.0
 41
1.0
 10
675.33431632314728
 20
-908.15102366275619
 30
0.0
 41
0.9980927086839522
 10
675.27427097208067
 20
-908.12740685390327
 30
0.0
 41
1.0
 10
675.27383080236939
 20
-908.12723372802839
 30
0.0
 41
1.0
 10
675.27339063265811
 20
-908.12706060215351
 30
0.0
 41
1.0
 10
675.21246494216859
 20
-908.1030975415506
 30
0.0
 41
0.9981411356558819
 10
675.14907642076923
 20
-908.08672490004528
 30
0.0
 41
1.0
 10
675.1481943040676
 20
-908.08649705783978
 30
0.0
 41
1.0
 10
675.14731218736608
 20
-908.08626921563427
 30
0.0
 41
1.0
 10
675.08215943256369
 20
-908.06944088971795
 30
0.0
 41
0.9983031812935955
 10
675.01549200356908
 20
-908.0603015285418
 30
0.0
 41
1.0
 10
675.00662097816542
 20
-908.05908540987048
 30
0.0
 41
1.0
 10
674.99774995276175
 20
-908.05786929119915
 30
0.0
 41
1.0
 10
674.9434003102574
 20
-908.05041856120806
 30
0.0
 41
0.9983887708265512
 10
674.8885564609642
 20
-908.0491738875744
 30
0.0
 41
1.0
 10
674.88049305574498
 20
-908.04899088969944
 30
0.0
 41
1.0
 10
674.87242965052576
 20
-908.04880789182448
 30
0.0
 41
1.0
 10
674.83371261166963
 20
-908.04792921394073
 30
0.0
 41
0.9998869563080515
 10
674.7949866584687
 20
-908.04821508330042
 30
0.0
 41
1.0
 10
674.75626070527483
 20
-908.04850095265999
 30
0.0
 41
0.999997232010659
 10
674.71753652607242
 20
-908.04896905218891
 30
0.0
 41
1.0
 10
674.6981835094839
 20
-908.04920299227842
 30
0.0
 41
1.0
 10
674.67883049289526
 20
-908.04943693236783
 30
0.0
 41
1.0
 10
674.60140028052524
 20
-908.05037291207555
 30
0.0
 41
0.9997304945086531
 10
674.52409697428834
 20
-908.05490200586212
 30
0.0
 41
1.0
 10
674.51504733258344
 20
-908.05543221185212
 30
0.0
 41
1.0
 10
674.50599769087842
 20
-908.05596241784224
 30
0.0
 41
1.0
 10
674.41059510123046
 20
-908.06155192360904
 30
0.0
 41
0.9997888306416917
 10
674.31550276538621
 20
-908.07105688809793
 30
0.0
 41
1.0
 10
674.3067817038152
 20
-908.07192860272983
 30
0.0
 41
1.0
 10
674.2980606422442
 20
-908.07280031736173
 30
0.0
 41
1.0
 10
674.18552618325521
 20
-908.08404871111452
 30
0.0
 41
0.9984170238189489
 10
674.07496703590334
 20
-908.10786479305045
 30
0.0
 41
1.0
 10
674.03858590491882
 20
-908.11570182885612
 30
0.0
 41
1.0
 10
674.00220477393441
 20
-908.1235388646619
 30
0.0
 41
1.0
 10
673.88701370551155
 20
-908.14835273117183
 30
0.0
 41
0.9976592854197869
 10
673.7762855391054
 20
-908.18865140831986
 30
0.0
 41
1.0
 10
673.6655573726988
 20
-908.22895008546823
 30
0.0
 41
0.9993255074353983
 10
673.55808557390617
 20
-908.277266983961
 30
0.0
 41
1.0
 10
673.55346039498454
 20
-908.27934636015993
 30
0.0
 41
1.0
 10
673.54883521606303
 20
-908.28142573635887
 30
0.0
 41
1.0
 10
673.4321130594268
 20
-908.33390138724963
 30
0.0
 41
0.9976475078273132
 10
673.32366571511773
 20
-908.40184937690731
 30
0.0
 41
1.0
 10
673.30532332097937
 20
-908.41334185572418
 30
0.0
 41
1.0
 10
673.2869809268409
 20
-908.42483433454106
 30
0.0
 41
1.0
 10
673.20277873529199
 20
-908.47759145530767
 30
0.0
 41
0.9995131336407511
 10
673.12203102033607
 20
-908.53549766725973
 30
0.0
 41
1.0
 10
673.04128330537731
 20
-908.59340387921361
 30
0.0
 41
0.9995810107605974
 10
672.96402165764709
 20
-908.65588556168052
 30
0.0
 41
1.0
 10
672.96105162643835
 20
-908.65828743314387
 30
0.0
 41
1.0
 10
672.95808159522971
 20
-908.66068930460733
 30
0.0
 41
1.0
 10
672.87487988508246
 20
-908.7279747300006
 30
0.0
 41
0.9996617837953418
 10
672.79528919794893
 20
-908.79949518555952
 30
0.0
 41
1.0
 10
672.78315844707106
 20
-908.81039591855097
 30
0.0
 41
1.0
 10
672.77102769619319
 20
-908.82129665154253
 30
0.0
 41
1.0
 10
672.70275216879486
 20
-908.8826492670172
 30
0.0
 41
0.9997267750053762
 10
672.63741866051032
 20
-908.9471258035428
 30
0.0
 41
1.0
 10
672.5720851522284
 20
-909.01160234006591
 30
0.0
 41
0.9999667288960465
 10
672.50781220908323
 20
-909.07713614695876
 30
0.0
 41
1.0
 10
672.43898476130653
 20
-909.14731380571857
 30
0.0
 41
1.0
 10
672.37015731352972
 20
-909.21749146447837
 30
0.0
 41
1.0
 10
672.16822947483206
 20
-909.42338058888993
 30
0.0
 41
0.9988205335174876
 10
671.98722385785186
 20
-909.64788482095173
 30
0.0
 41
1.0
 10
671.95658389294795
 20
-909.68588807138076
 30
0.0
 41
1.0
 10
671.92594392804403
 20
-909.72389132180979
 30
0.0
 41
1.0
 10
671.68365838125669
 20
-910.02440205472874
 30
0.0
 41
0.9997077826755274
 10
671.45618043015281
 20
-910.3362718489426
 30
0.0
 41
1.0
 10
671.45445701502081
 20
-910.3386346323241
 30
0.0
 41
1.0
 10
671.45273359988892
 20
-910.34099741570571
 30
0.0
 41
1.0
 10
671.22180881852239
 20
-910.65759277668133
 30
0.0
 41
0.9989147567078441
 10
671.02134531563854
 20
-910.99430223786703
 30
0.0
 41
1.0
 10
670.99660417033112
 20
-911.03585881842025
 30
0.0
 41
1.0
 10
670.97186302502371
 20
-911.07741539897347
 30
0.0
 41
1.0
 10
670.81665172638679
 20
-911.33811678342568
 30
0.0
 41
0.9997476598180805
 10
670.67330673887841
 20
-911.60552653200648
 30
0.0
 41
1.0
 10
670.52996175136911
 20
-911.87293628058865
 30
0.0
 41
0.9996258967110666
 10
670.40145349943748
 20
-912.14778421721246
 30
0.0
 41
1.0
 10
670.38825358998724
 20
-912.17601561730908
 30
0.0
 41
1.0
 10
670.37505368053712
 20
-912.20424701740569
 30
0.0
 41
1.0
 10
670.2348449595379
 20
-912.50411941535731
 30
0.0
 41
0.9998735413945216
 10
670.1042436128173
 20
-912.80829901482502
 30
0.0
 41
1.0
 10
670.10080078475698
 20
-912.81631760028915
 30
0.0
 41
1.0
 10
670.09735795669678
 20
-912.82433618575328
 30
0.0
 41
1.0
 10
669.97364226609739
 20
-913.11247861429115
 30
0.0
 41
0.9999377418863831
 10
669.85638746392215
 20
-913.4033100819679
 30
0.0
 41
1.0
 10
669.73913266174736
 20
-913.69414154964352
 30
0.0
 41
0.9999508299503835
 10
669.62766871837164
 20
-913.98724122646001
 30
0.0
 41
1.0
 10
669.62458794970814
 20
-913.99534225242655
 30
0.0
 41
1.0
 10
669.62150718104465
 20
-914.00344327839321
 30
0.0
 41
1.0
 10
669.50388170034194
 20
-914.31274500714301
 30
0.0
 41
0.999960922844106
 10
669.39174309746704
 20
-914.62407802316113
 30
0.0
 41
1.0
 10
669.38878708711809
 20
-914.63228486356866
 30
0.0
 41
1.0
 10
669.38583107676914
 20
-914.64049170397629
 30
0.0
 41
1.0
 10
669.26778045319577
 20
-914.96823840081106
 30
0.0
 41
0.999967460739782
 10
669.1550329271264
 20
-915.29784702080974
 30
0.0
 41
1.0
 10
669.10363453656464
 20
-915.44810621649958
 30
0.0
 41
1.0
 10
669.05223614600288
 20
-915.59836541218954
 30
0.0
 41
1.0
 10
668.9362255392449
 20
-915.93751339469327
 30
0.0
 41
0.9999287532305602
 10
668.82834413527416
 20
-916.27933413366918
 30
0.0
 41
1.0
 10
668.78186687914945
 20
-916.42659667799455
 30
0.0
 41
1.0
 10
668.73538962302473
 20
-916.57385922231992
 30
0.0
 41
1.0
 10
668.720462731314
 20
-916.62115487261144
 30
0.0
 41
0.9999998224451393
 10
668.70559222257293
 20
-916.66846828088455
 30
0.0
 41
1.0
 10
667.08493608577749
 20
-921.81649678267422
 30
0.0
 41
1.0
 10
665.46427994898204
 20
-926.96452528446389
 30
0.0
 41
1.0
 10
664.55897150509111
 20
-926.96452528446389
 30
0.0
 41
1.0
 10
663.65366306120018
 20
-926.96452528446389
 30
0.0
 41
1.0
 10
665.50574747258622
 20
-921.07745336199696
 30
0.0
 41
1.0
 10
667.35783188397227
 20
-915.19038143953003
 30
0.0
 41
1.0
 10
667.3679536422751
 20
-915.15833822607965
 30
0.0
 41
1.0
 10
667.44056131112484
 20
-914.92803868425381
 30
0.0
 41
1.0
 10
667.51316897997458
 20
-914.69773914242785
 30
0.0
 41
0.9999825681977963
 10
667.58305201918643
 20
-914.46659824736184
 30
0.0
 41
1.0
 10
667.63134308134806
 20
-914.30687366386314
 30
0.0
 41
1.0
 10
667.6796341435097
 20
-914.14714908036433
 30
0.0
 41
1.0
 10
667.77678649682457
 20
-913.82581385859567
 30
0.0
 41
0.9999672528966551
 10
667.86872530244682
 20
-913.50294831301289
 30
0.0
 41
1.0
 10
667.87151418611643
 20
-913.49315446762375
 30
0.0
 41
1.0
 10
667.87430306978592
 20
-913.48336062223461
 30
0.0
 41
1.0
 10
667.9606641080702
 20
-913.18008276742648
 30
0.0
 41
0.9999899749137087
 10
668.04430571760486
 20
-912.87604367897438
 30
0.0
 41
1.0
 10
668.05441163662238
 20
-912.839308441296
 30
0.0
 41
1.0
 10
668.0645175556399
 20
-912.80257320361761
 30
0.0
 41
1.0
 10
668.12794732713905
 20
-912.5720045905241
 30
0.0
 41
0.9999214200506253
 10
668.18557675551733
 20
-912.33991824831264
 30
0.0
 41
1.0
 10
668.19834260769892
 20
-912.28850736291224
 30
0.0
 41
1.0
 10
668.21110845988051
 20
-912.23709647751184
 30
0.0
 41
1.0
 10
668.24320618389561
 20
-912.10783190610096
 30
0.0
 41
0.9999828681675959
 10
668.27378843589042
 20
-911.97820043163574
 30
0.0
 41
1.0
 10
668.30437068788592
 20
-911.8485689571678
 30
0.0
 41
0.9999389844474157
 10
668.33208167667522
 20
-911.71829350126745
 30
0.0
 41
1.0
 10
668.33921942039535
 20
-911.68473739743035
 30
0.0
 41
1.0
 10
668.34635716411549
 20
-911.65118129359325
 30
0.0
 41
1.0
 10
668.38834364034517
 20
-911.45379363001803
 30
0.0
 41
0.9998933699439893
 10
668.42454790474744
 20
-911.25526402225898
 30
0.0
 41
1.0
 10
668.42592072996376
 20
-911.24773600156254
 30
0.0
 41
1.0
 10
668.42729355518009
 20
-911.24020798086622
 30
0.0
 41
1.0
 10
668.46624347001512
 20
-911.02662233171395
 30
0.0
 41
0.999685030519411
 10
668.49442714627389
 20
-910.81135132627662
 30
0.0
 41
1.0
 10
668.4964221796431
 20
-910.7961129721557
 30
0.0
 41
1.0
 10
668.49841721301232
 20
-910.78087461803477
 30
0.0
 41
1.0
 10
668.5258250754714
 20
-910.57152939087973
 30
0.0
 41
0.9994697936707048
 10
668.53954963469096
 20
-910.36084419554936
 30
0.0
 41
1.0
 10
668.54002670394061
 20
-910.35352072333853
 30
0.0
 41
1.0
 10
668.54050377319027
 20
-910.34619725112782
 30
0.0
 41
1.0
 10
668.55327419391051
 20
-910.15015900021911
 30
0.0
 41
0.9991804893137218
 10
668.55014587763776
 20
-909.95373015024506
 30
0.0
 41
1.0
 10
668.55006199881564
 20
-909.94846334883277
 30
0.0
 41
1.0
 10
668.54997811999351
 20
-909.94319654742037
 30
0.0
 41
1.0
 10
668.54701756136501
 20
-909.75730130027193
 30
0.0
 41
0.9988448329321517
 10
668.52622601574126
 20
-909.57254871043824
 30
0.0
 41
1.0
 10
668.52463194203824
 20
-909.55838385466689
 30
0.0
 41
1.0
 10
668.52303786833511
 20
-909.54421899889553
 30
0.0
 41
1.0
 10
668.50543447011751
 20
-909.38779612060478
 30
0.0
 41
0.9985503209458538
 10
668.47111819781799
 20
-909.23417193651585
 30
0.0
 41
1.0
 10
668.4635322057469
 20
-909.20021160911597
 30
0.0
 41
1.0
 10
668.45594621367582
 20
-909.1662512817162
 30
0.0
 41
1.0
 10
668.43680192551858
 20
-909.08054775242681
 30
0.0
 41
0.9991036781370147
 10
668.41047706386723
 20
-908.99677066510139
 30
0.0
 41
1.0
 10
668.40649483841139
 20
-908.98409750259111
 30
0.0
 41
1.0
 10
668.40251261295543
 20
-908.97142434008072
 30
0.0
 41
1.0
 10
668.384152202216
 20
-908.91299357777632
 30
0.0
 41
0.9998874504367625
 10
668.36404699453749
 20
-908.85513997555336
 30
0.0
 41
1.0
 10
668.34394178685898
 20
-908.79728637333028
 30
0.0
 41
0.999404163754499
 10
668.31989317392492
 20
-908.74095766944026
 30
0.0
 41
1.0
 10
668.31569638970086
 20
-908.73112760495803
 30
0.0
 41
1.0
 10
668.31149960547668
 20
-908.7212975404758
 30
0.0
 41
1.0
 10
668.28362077448219
 20
-908.65599737450805
 30
0.0
 41
0.9991846840701151
 10
668.25056441778906
 20
-908.59315934322785
 30
0.0
 41
1.0
 10
668.24942781139384
 20
-908.59099872677291
 30
0.0
 41
1.0
 10
668.24829120499874
 20
-908.58883811031797
 30
0.0
 41
1.0
 10
668.21750806109583
 20
-908.53032131194755
 30
0.0
 41
0.9989253167923174
 10
668.18143863704108
 20
-908.47490638355794
 30
0.0
 41
1.0
 10
668.1803845123668
 20
-908.47328688879554
 30
0.0
 41
1.0
 10
668.17933038769252
 20
-908.47166739403315
 30
0.0
 41
1.0
 10
668.14536921298611
 20
-908.41949145516799
 30
0.0
 41
0.9986467172836889
 10
668.10617206034885
 20
-908.37112542153864
 30
0.0
 41
1.0
 10
668.10529793164847
 20
-908.37004681926089
 30
0.0
 41
1.0
 10
668.10442380294819
 20
-908.36896821698315
 30
0.0
 41
1.0
 10
668.0669749077116
 20
-908.32275938790929
 30
0.0
 41
0.9984001104270214
 10
668.02454817719422
 20
-908.28107428053954
 30
0.0
 41
1.0
 10
668.02396103908472
 20
-908.28049740565802
 30
0.0
 41
1.0
 10
668.02337390097512
 20
-908.27992053077662
 30
0.0
 41
1.0
 10
667.98212144667707
 20
-908.23938917317003
 30
0.0
 41
0.998244215907938
 10
667.93636534534141
 20
-908.20402061190998
 30
0.0
 41
1.0
 10
667.93615054987959
 20
-908.20385457926682
 30
0.0
 41
1.0
 10
667.93593575441776
 20
-908.20368854662354
 30
0.0
 41
1.0
 10
667.89060924400576
 20
-908.16865205064994
 30
0.0
 41
0.9982450060834186
 10
667.84145826493409
 20
-908.13922026761702
 30
0.0
 41
1.0
 10
667.79230728586231
 20
-908.10978848458399
 30
0.0
 41
0.9983922639640454
 10
667.74014097969803
 20
-908.08610884992947
 30
0.0
 41
1.0
 10
667.73991410237329
 20
-908.086005864448
 30
0.0
 41
1.0
 10
667.73968722504856
 20
-908.08590287896641
 30
0.0
 41
1.0
 10
667.68706716423492
 20
-908.06201727334883
 30
0.0
 41
0.9986517147146176
 10
667.63225419136677
 20
-908.04371615422735
 30
0.0
 41
1.0
 10
667.63157626993893
 20
-908.04348980779582
 30
0.0
 41
1.0
 10
667.6308983485111
 20
-908.0432634613644
 30
0.0
 41
1.0
 10
667.57472953278705
 20
-908.02450964937987
 30
0.0
 41
0.9989435598955661
 10
667.51707614563486
 20
-908.01099194714561
 30
0.0
 41
1.0
 10
667.5159960260537
 20
-908.01073869689276
 30
0.0
 41
1.0
 10
667.51491590647265
 20
-908.0104854466399
 30
0.0
 41
1.0
 10
667.45510228015837
 20
-907.99646124389994
 30
0.0
 41
0.9992249241242018
 10
667.39437077126183
 20
-907.98718590118472
 30
0.0
 41
1.0
 10
667.39295708297016
 20
-907.98696999277672
 30
0.0
 41
1.0
 10
667.39154339467848
 20
-907.98675408436884
 30
0.0
 41
1.0
 10
667.32798450919779
 20
-907.97704692483762
 30
0.0
 41
0.9994396597833625
 10
667.2639185726598
 20
-907.97161400249183
 30
0.0
 41
1.0
 10
667.24477790518313
 20
-907.96999083477328
 30
0.0
 41
1.0
 10
667.22563723770645
 20
-907.96836766705474
 30
0.0
 41
1.0
 10
667.12328996621352
 20
-907.95968840927162
 30
0.0
 41
0.9987693403121244
 10
667.02058634262664
 20
-907.96119147272418
 30
0.0
 41
1.0
 10
667.0103320083997
 20
-907.96134154449828
 30
0.0
 41
1.0
 10
667.00007767417276
 20
-907.9614916162725
 30
0.0
 41
1.0
 10
666.89052190799362
 20
-907.96309496055983
 30
0.0
 41
0.9989753644965391
 10
666.781559907977
 20
-907.97459796748535
 30
0.0
 41
1.0
 10
666.67259790796152
 20
-907.98610097441076
 30
0.0
 41
0.9983190067307631
 10
666.56569909699726
 20
-908.01013596619703
 30
0.0
 41
1.0
 10
666.55679814538962
 20
-908.01213724475997
 30
0.0
 41
1.0
 10
666.54789719378209
 20
-908.0141385233228
 30
0.0
 41
1.0
 10
666.42319647960358
 20
-908.04217607223472
 30
0.0
 41
0.9985539388303325
 10
666.30222672592583
 20
-908.08343974827994
 30
0.0
 41
1.0
 10
666.29988129496542
 20
-908.08423979209579
 30
0.0
 41
1.0
 10
666.29753586400511
 20
-908.08503983591163
 30
0.0
 41
1.0
 10
666.17187524840654
 20
-908.12790359958854
 30
0.0
 41
0.9988468746492342
 10
666.05090490610633
 20
-908.18262168465139
 30
0.0
 41
1.0
 10
666.04772208411759
 20
-908.18406135921134
 30
0.0
 41
1.0
 10
666.04453926212886
 20
-908.18550103377129
 30
0.0
 41
1.0
 10
665.91720327585085
 20
-908.24309846795416
 30
0.0
 41
0.9991322885919877
 10
665.79510269179298
 20
-908.31109380013652
 30
0.0
 41
1.0
 10
665.77750068074988
 20
-908.32089600212589
 30
0.0
 41
1.0
 10
665.75989866970667
 20
-908.33069820411527
 30
0.0
 41
1.0
 10
665.65772198864966
 20
-908.3875983198958
 30
0.0
 41
0.9993860037849207
 10
665.55978098457592
 20
-908.45151433548472
 30
0.0
 41
1.0
 10
665.55416267172484
 20
-908.45518083017885
 30
0.0
 41
1.0
 10
665.54854435887376
 20
-908.45884732487298
 30
0.0
 41
1.0
 10
665.4618399805039
 20
-908.5154303510725
 30
0.0
 41
0.9998821494953248
 10
665.37691360468978
 20
-908.57464858114963
 30
0.0
 41
1.0
 10
665.29198722887463
 20
-908.63386681122745
 30
0.0
 41
0.9997976482742295
 10
665.20951159846879
 20
-908.69645321927123
 30
0.0
 41
1.0
 10
665.19487533366623
 20
-908.70755990904934
 30
0.0
 41
1.0
 10
665.18023906886356
 20
-908.71866659882744
 30
0.0
 41
1.0
 10
665.06849090884975
 20
-908.80346638642936
 30
0.0
 41
0.9998091630799875
 10
664.96014063082191
 20
-908.89256673713044
 30
0.0
 41
1.0
 10
664.94713487834474
 20
-908.90326183757634
 30
0.0
 41
1.0
 10
664.93412912586768
 20
-908.91395693802224
 30
0.0
 41
1.0
 10
664.79976734288618
 20
-909.02444748961466
 30
0.0
 41
0.9995035112316925
 10
664.6726314651238
 20
-909.14318130662878
 30
0.0
 41
1.0
 10
664.66298415473443
 20
-909.15219105278868
 30
0.0
 41
1.0
 10
664.65333684434495
 20
-909.16120079894858
 30
0.0
 41
1.0
 10
664.52991378158117
 20
-909.27646717070343
 30
0.0
 41
0.9994630424299652
 10
664.41430537579811
 20
-909.39956991393774
 30
0.0
 41
1.0
 10
664.41062253702785
 20
-909.40349149344956
 30
0.0
 41
1.0
 10
664.4069396982577
 20
-909.40741307296128
 30
0.0
 41
1.0
 10
664.29869697001584
 20
-909.52267265717114
 30
0.0
 41
0.9995160693749834
 10
664.19783094048228
 20
-909.64444007504517
 30
0.0
 41
1.0
 10
664.19589722040109
 20
-909.64677449925387
 30
0.0
 41
1.0
 10
664.19396350031991
 20
-909.64910892346256
 30
0.0
 41
1.0
 10
664.09696491094928
 20
-909.76620749291874
 30
0.0
 41
0.9996561470514784
 10
664.00623869228446
 20
-909.88823025536658
 30
0.0
 41
1.0
 10
664.00008102638333
 20
-909.8965120444077
 30
0.0
 41
1.0
 10
663.9939233604822
 20
-909.90479383344893
 30
0.0
 41
1.0
 10
663.91551247361895
 20
-910.01025301781522
 30
0.0
 41
0.9998349055174522
 10
663.8409851916864
 20
-910.11849160147904
 30
0.0
 41
1.0
 10
663.76645790975044
 20
-910.22673018514797
 30
0.0
 41
0.9999728109556881
 10
663.6935350138383
 20
-910.33605611070618
 30
0.0
 41
1.0
 10
663.69221979842939
 20
-910.33802788020444
 30
0.0
 41
1.0
 10
663.69090458302048
 20
-910.3399996497028
 30
0.0
 41
1.0
 10
663.6153512562862
 20
-910.45326911426423
 30
0.0
 41
0.9999972147351439
 10
663.54033344591255
 20
-910.56689395709964
 30
0.0
 41
1.0
 10
663.53536190329032
 20
-910.57442404557196
 30
0.0
 41
1.0
 10
663.53039036066798
 20
-910.58195413404428
 30
0.0
 41
1.0
 10
663.44542946505055
 20
-910.71063915382319
 30
0.0
 41
0.9999371979009103
 10
663.36337411564818
 20
-910.84119606759714
 30
0.0
 41
1.0
 10
663.35986523128463
 20
-910.84677899566509
 30
0.0
 41
1.0
 10
663.35635634692096
 20
-910.85236192373304
 30
0.0
 41
1.0
 10
663.26728322879353
 20
-910.99408469363948
 30
0.0
 41
0.9998272025611773
 10
663.18353983791235
 20
-911.13902057038024
 30
0.0
 41
1.0
 10
663.16832466588744
 20
-911.16535368483846
 30
0.0
 41
1.0
 10
663.15310949386242
 20
-911.1916867992968
 30
0.0
 41
1.0
 10
663.03893575893142
 20
-911.3892889049539
 30
0.0
 41
0.9995217214838229
 10
662.93719606937543
 20
-911.59357123281711
 30
0.0
 41
1.0
 10
662.92955250674152
 20
-911.60891868251781
 30
0.0
 41
1.0
 10
662.9219089441076
 20
-911.62426613221851
 30
0.0
 41
1.0
 10
662.83500365151747
 20
-911.79876259030095
 30
0.0
 41
0.9998269762608002
 10
662.75464918524472
 20
-911.97637087702606
 30
0.0
 41
1.0
 10
662.67429471897151
 20
-912.15397916375241
 30
0.0
 41
0.9998944747386804
 10
662.59913392440569
 20
-912.33384688938463
 30
0.0
 41
1.0
 10
662.59418025481637
 20
-912.34570154429753
 30
0.0
 41
1.0
 10
662.58922658522715
 20
-912.35755619921031
 30
0.0
 41
1.0
 10
662.50857952467356
 20
-912.5505531392306
 30
0.0
 41
0.9999506734411976
 10
662.43178199576892
 20
-912.7451139440891
 30
0.0
 41
1.0
 10
662.41718203049481
 20
-912.78210186590309
 30
0.0
 41
1.0
 10
662.40258206522071
 20
-912.81908978771708
 30
0.0
 41
1.0
 10
662.35498446685938
 20
-912.93967474895999
 30
0.0
 41
0.9999912393944178
 10
662.30839802284288
 20
-913.06065395164114
 30
0.0
 41
1.0
 10
662.26181157883116
 20
-913.18163315430934
 30
0.0
 41
0.9999927113937684
 10
662.21615028444785
 20
-913.30296456178144
 30
0.0
 41
1.0
 10
662.20218185303929
 20
-913.34008154380888
 30
0.0
 41
1.0
 10
662.18821342163073
 20
-913.37719852583632
 30
0.0
 41
1.0
 10
662.11461526443793
 20
-913.57276389734363
 30
0.0
 41
0.9999487550951581
 10
662.04499163946434
 20
-913.76977926253221
 30
0.0
 41
1.0
 10
662.02139802953036
 20
-913.83654257281682
 30
0.0
 41
1.0
 10
661.99780441959638
 20
-913.90330588310144
 30
0.0
 41
1.0
 10
661.9031187852263
 20
-914.17123971792489
 30
0.0
 41
0.9999808436944593
 10
661.81175719658359
 20
-914.44032514919309
 30
0.0
 41
1.0
 10
661.72039560793974
 20
-914.70941058046435
 30
0.0
 41
0.9999873932912677
 10
661.63174089922029
 20
-914.97939993548255
 30
0.0
 41
1.0
 10
661.61164854235278
 20
-915.04058926822972
 30
0.0
 41
1.0
 10
661.59155618548527
 20
-915.10177860097701
 30
0.0
 41
1.0
 10
661.46271676303047
 20
-915.49414662149024
 30
0.0
 41
0.9999794883024182
 10
661.33891397807258
 20
-915.88813282776744
 30
0.0
 41
1.0
 10
661.32776171864066
 20
-915.92362343798686
 30
0.0
 41
1.0
 10
661.31660945920862
 20
-915.9591140482064
 30
0.0
 41
1.0
 10
661.17405129531141
 20
-916.41278680029245
 30
0.0
 41
0.9999982761749073
 10
661.03317885528281
 20
-916.86698582245663
 30
0.0
 41
1.0
 10
659.44503852271021
 20
-921.91575555346026
 30
0.0
 41
1.0
 10
657.8568981901376
 20
-926.96452528446389
 30
0.0
 41
1.0
 10
656.90814757866121
 20
-926.96452528446389
 30
0.0
 41
1.0
 10
655.95939696718483
 20
-926.96452528446389
 30
0.0
 41
1.0
 10
659.19768145333808
 20
-916.63720308451775
 30
0.0
 41
1.0
 10
662.43596593949133
 20
-906.30988088457161
 30
0.0
 41
1.0
  0
LWPOLYLINE
  5
51
100
AcDbEntity
  8
0
370
              15
390
0
  6
Continuous
 62
               7
100
AcDbPolyline
 90
      232
 70
             128
 10
636.73242016566428
 20
-907.39422371608634
 42
0.0004370800674019
 10
636.67954299164205
 20
-907.4628903552782
 10
636.6402587604648
 20
-907.51399746823972
 42
0.0030481992172598
 10
636.5099200433383
 20
-907.68571916059375
 10
636.47140837159509
 20
-907.73710594437216
 42
0.0042058245763192
 10
636.26742332092351
 20
-908.01411168944855
 10
636.21501819842456
 20
-908.08654453622694
 42
0.012094889873837
 10
635.91897428166396
 20
-908.51729414077522
 10
635.82278178253887
 20
-908.66477487600469
 42
0.01416012639505
 10
635.5191377356191
 20
-909.16044421273637
 10
635.47960046819514
 20
-909.22928818016453
 42
0.0071131081302842
 10
635.27432814495478
 20
-909.59879097900648
 42
0.0068458791000548
 10
635.07944861810677
 20
-909.97388254249211
 10
635.072636755654
 20
-909.98744425620589
 42
0.0064120880293726
 10
634.87449450561417
 20
-910.39486873111514
 10
634.86695982009269
 20
-910.4108805878459
 42
0.0058857236445984
 10
634.66420442822152
 20
-910.85525669888
 10
634.65602950192704
 20
-910.87374685251507
 42
0.0053189741896079
 10
634.44732518925537
 20
-911.35971032644238
 10
634.43857738357815
 20
-911.38069220462876
 42
0.0047503650418507
 10
634.22260365742761
 20
-911.91289163783756
 10
634.21333540907938
 20
-911.93636801394587
 42
0.0042071762171687
 10
633.98878802535171
 20
-912.51946160801469
 10
633.97903862300291
 20
-912.54542778288487
 42
0.0036680086486642
 10
633.74458397969158
 20
-913.18406316741437
 10
633.73437619984293
 20
-913.21251170176129
 42
0.003257314262491
 10
633.48874391387835
 20
-913.91136436150896
 10
633.42009339303343
 20
-914.11082744557439
 42
0.002613336664866
 10
633.0716481942776
 20
-915.1406907292394
 10
633.00839140678249
 20
-915.33092156461544
 42
0.0020592950741081
 10
632.79452833780988
 20
-915.98302521724509
 10
632.79147654664689
 20
-915.99246170565448
 42
0.0025609928536041
 10
632.58965604516106
 20
-916.62760692802112
 10
632.58706467802881
 20
-916.63590926897939
 42
0.0031362356239522
 10
632.3975738923574
 20
-917.25667212514145
 10
632.3954428494277
 20
-917.26381343136018
 42
0.0037229918032061
 10
632.21864246250357
 20
-917.87279873332682
 10
632.21696387329951
 20
-917.87874562349259
 42
0.0043077623704528
 10
632.05322307123208
 20
-918.47856435527046
 42
0.004765416182436
 10
631.9003943487179
 20
-919.08125044416465
 10
631.86592973987695
 20
-919.22281222132187
 42
0.01129693684479
 10
631.67006538173223
 20
-920.11450438195163
 10
631.64205899263675
 20
-920.25733242804381
 42
0.013005676257057
 10
631.44122174899019
 20
-921.44427349968919
 10
631.42068199884375
 20
-921.58835161316142
 42
0.0138721532144165
 10
631.31697899430515
 20
-922.49518109899236
 10
631.29768350639642
 20
-922.71867882092738
 42
0.007125469700869
 10
631.2643368604746
 20
-923.18186582976432
 10
631.25937588631177
 20
-923.26786982431713
 42
0.0028881799202765
 10
631.24423759302147
 20
-923.55961153416683
 42
0.006029729713388
 10
631.23430539324579
 20
-923.85156047029056
 10
631.23324311157887
 20
-923.89995284221743
 42
0.0229523164157588
 10
631.24097413936465
 20
-924.2227076884983
 10
631.24519991288525
 20
-924.28311122251739
 42
0.0123673300672997
 10
631.26427855940335
 20
-924.4842319476893
 42
0.0128577674475906
 10
631.29347394980994
 20
-924.68412979761717
 10
631.30059982319665
 20
-924.72545861221261
 42
0.0285717853763787
 10
631.36509382489214
 20
-925.00357476352576
 10
631.37876234855878
 20
-925.05022953300397
 42
0.0316283099165061
 10
631.49457292847296
 20
-925.36924403482953
 10
631.49762162022841
 20
-925.37623040715494
 42
0.0338984824229788
 10
631.64705333119559
 20
-925.66379637134378
 10
631.64936206056507
 20
-925.66758740061903
 42
0.035022871835477
 10
631.83172235123902
 20
-925.92463938529727
 10
631.83260760301448
 20
-925.9257184630618
 42
0.0347476747537054
 10
632.04703229025426
 20
-926.15290351028125
 42
0.033133770190561
 10
632.29027561600117
 20
-926.34903217235876
 10
632.29137571451679
 20
-926.34980487553094
 42
0.0305233319089384
 10
632.55992041008938
 20
-926.51493304562166
 10
632.56315045459132
 20
-926.51665705748474
 42
0.0273744481147612
 10
632.85570416616736
 20
-926.65279520137574
 10
632.8608087013032
 20
-926.65483878584473
 42
0.0240964406200603
 10
633.17628577694836
 20
-926.76382251212601
 10
633.18286910615882
 20
-926.76574725180126
 42
0.0209636179804536
 10
633.52026925881046
 20
-926.84921539973345
 10
633.52790171926017
 20
-926.85076731273512
 42
0.0181388704703771
 10
633.88622411125914
 20
-926.91018340594917
 10
633.89450495963683
 20
-926.91124958976616
 42
0.0156086547584172
 10
634.27269232382878
 20
-926.94798577634242
 10
634.31588757615248
 20
-926.95082427882107
 42
0.0137148329017294
 10
634.64356072145154
 20
-926.96334453407235
 10
634.68949691139176
 20
-926.9638389671876
 42
0.0051057823884069
 10
634.92564249796976
 20
-926.96396922159693
 42
0.0052256693309587
 10
635.16173978175368
 20
-926.95922039713298
 10
635.23196656549783
 20
-926.95707343111917
 42
0.0161507179058654
 10
635.60770364360121
 20
-926.93342306079262
 10
635.6277166039722
 20
-926.93151286550528
 42
0.0101216737832713
 10
636.04174382546273
 20
-926.88351993513936
 10
636.07579711488961
 20
-926.87887223832968
 42
0.0245291776390272
 10
636.55258677044083
 20
-926.78979716025367
 10
636.63741008596253
 20
-926.76960123990864
 42
0.0143509212569712
 10
636.99404118990435
 20
-926.67379660612914
 42
0.0156557857031963
 10
637.34425725463609
 20
-926.55678539030828
 10
637.35175846912625
 20
-926.55401522855573
 42
0.0170137333626303
 10
637.70835446480703
 20
-926.40835761368533
 10
637.71545838721511
 20
-926.40516977812149
 42
0.018310536441919
 10
638.07480805537921
 20
-926.22783473629841
 10
638.08175482002014
 20
-926.22408430142514
 42
0.0194899958143773
 10
638.44023556100558
 20
-926.01210531953348
 10
638.4472494403409
 20
-926.0075799772394
 42
0.0204869852957288
 10
638.80126374243503
 20
-925.75805996215342
 10
638.80852935102189
 20
-925.7524798968052
 42
0.0212516938551815
 10
639.15451928213088
 20
-925.46257589990967
 10
639.20103597620459
 20
-925.4201085898178
 42
0.0215248918251936
 10
639.46106214509314
 20
-925.16134431082264
 10
639.50609187947612
 20
-925.11250018947032
 42
0.0114578554964047
 10
639.66088403315098
 20
-924.93667725601426
 10
639.67207856913797
 20
-924.92335849246842
 42
0.0061531305129227
 10
639.79855321513196
 20
-924.76906895916272
 42
0.0006325587110318
 10
639.9229316992205
 20
-924.61306558356671
 10
639.9459718343353
 20
-924.58409206282795
 42
0.0041897761565187
 10
640.11442723832477
 20
-924.36857268674487
 10
640.17288935820022
 20
-924.29247133978151
 42
0.0092993880038977
 10
640.44950128542166
 20
-923.91819257590055
 10
640.53189577862338
 20
-923.80225557232802
 42
0.0159321727083462
 10
640.87850226126534
 20
-923.28008135157233
 10
640.92285839665692
 20
-923.20840178731817
 42
0.008554731702617
 10
641.15737016198011
 20
-922.81452683809766
 42
0.0084601156886629
 10
641.37834633942521
 20
-922.41289998905995
 10
641.38646181325248
 20
-922.39754030679251
 42
0.0081429654287311
 10
641.60971108368653
 20
-921.95781879425851
 10
641.618571247874
 20
-921.93963995223203
 42
0.0076574581327182
 10
641.84497875844113
 20
-921.45645707697747
 10
641.8544583991644
 20
-921.43539259867521
 42
0.0070682724199589
 10
642.08490330697566
 20
-920.90335529388403
 10
642.09489359095289
 20
-920.87936610488305
 42
0.006455951445136
 10
642.3302267991362
 20
-920.29305383836004
 10
642.34063615729951
 20
-920.26611891292214
 42
0.0058311413902281
 10
642.5816828940591
 20
-919.62008681854695
 10
642.59243797144973
 20
-919.59020247737772
 42
0.0052312425821405
 10
642.84001924949428
 20
-918.87900006353209
 10
642.85106308587046
 20
-918.84617335147323
 42
0.0046680544794329
 10
643.10599151359816
 20
-918.06434703573939
 10
643.14798366365312
 20
-917.93136379841144
 42
0.004166685644539
 10
643.35126967604356
 20
-917.26839502342045
 10
643.38893211670029
 20
-917.14181391579064
 42
0.001517097515604
 10
643.51011869512035
 20
-916.72994556427329
 42
-0.0004887993115182
 10
643.63045846823502
 20
-916.31782715226018
 10
643.7069357257385
 20
-916.05686976629022
 42
0.0002583378928656
 10
643.98015029586691
 20
-915.12281306289151
 10
644.06192314536133
 20
-914.84271380359007
 42
0.0006636169670584
 10
644.25579090539077
 20
-914.17536087994176
 10
644.26088755974013
 20
-914.15772929705361
 42
0.0010589131325818
 10
644.44233626065443
 20
-913.52499795401309
 10
644.44731833114406
 20
-913.50748504696082
 42
0.0015655524461616
 10
644.61558853831764
 20
-912.90886836779191
 10
644.62041873872886
 20
-912.89147620886968
 42
0.0021640440478024
 10
644.77470871071864
 20
-912.32644919083759
 10
644.77934293015073
 20
-912.30918446083592
 42
0.00287638718493
 10
644.91885864820165
 20
-911.77721650999683
 10
644.923244512368
 20
-911.760092531846
 42
0.0037310511948337
 10
645.04720120420575
 20
-911.26064493781905
 10
645.05127642449497
 20
-911.24368466657268
 42
0.0047652197770022
 10
645.15890032500317
 20
-910.77620689826836
 10
645.16259092432358
 20
-910.75944734313191
 42
0.0060276699299513
 10
645.25312102348028
 20
-910.32337154797369
 10
645.25633971376953
 20
-910.30687033366371
 42
0.0075824337758327
 10
645.32902902318483
 20
-909.90160316923811
 10
645.3316744005657
 20
-909.88544822178403
 42
0.0095130624606341
 10
645.38578963619625
 20
-909.51035886871614
 10
645.39277586007927
 20
-909.45442531059632
 42
0.0121054653229409
 10
645.41936719065677
 20
-909.18952948212609
 10
645.420233680416
 20
-909.17812603920117
 42
0.0069050827387334
 10
645.43532249845396
 20
-908.93518481235242
 10
645.43645779812255
 20
-908.91165855530494
 42
0.0169063976698766
 10
645.4392850771028
 20
-908.71546582800693
 10
645.4381144255716
 20
-908.65513006665742
 42
0.0052007732895689
 10
645.43586097697857
 20
-908.57953667650509
 42
0.0054038123293694
 10
645.41589746513955
 20
-908.45951838049439
 10
645.41081160926922
 20
-908.4308598939142
 42
0.0112050460463804
 10
645.37542724721072
 20
-908.25453345557537
 10
645.35760228517006
 20
-908.1749918688547
 42
0.0240764468008297
 10
645.26670491902371
 20
-907.84475483335325
 10
645.24814615621051
 20
-907.78813466836004
 42
0.0256812331833736
 10
645.10478323602104
 20
-907.41641046210225
 10
645.09937381019938
 20
-907.40427912711209
 42
0.0268360501218827
 10
644.9299465693498
 20
-907.0732859930913
 10
644.92441016171529
 20
-907.06376632277988
 42
0.0274670231733685
 10
644.73220918530137
 20
-906.77147894786231
 10
644.72682788533882
 20
-906.76419980032108
 42
0.0275035967089369
 10
644.51525500577691
 20
-906.50868391001677
 10
644.51018550480944
 20
-906.50320482238521
 42
0.0269557673541001
 10
644.2827819613708
 20
-906.28256253642394
 10
644.27803890358962
 20
-906.27843258196447
 42
0.0259124802196092
 10
644.03848407215742
 20
-906.09074205481102
 10
644.03395322697418
 20
-906.08755655247978
 42
0.0245162153012734
 10
643.78603687388068
 20
-905.93082354337002
 10
643.78151032755761
 20
-905.92826334616984
 42
0.0229282588833316
 10
643.529090770729
 20
-905.80039515367025
 10
643.52431027689204
 20
-905.79824285390816
 42
0.0212984135699179
 10
643.27127232443058
 20
-905.69704393666598
 10
643.2659680394612
 20
-905.69518037390606
 42
0.0197555462348537
 10
643.01618970173809
 20
-905.61836495594162
 42
0.0183511896774251
 10
642.76126097627559
 20
-905.56078204897631
 10
642.67489577955143
 20
-905.54457925859083
 42
0.0338057877161344
 10
642.38938843029166
 20
-905.51077085345059
 10
642.2983830252507
 20
-905.5061911981893
 42
0.0091990524472019
 10
642.19253591661573
 20
-905.50281534226724
 42
0.0028333980762396
 10
642.08662200062054
 20
-905.50198723474966
 10
642.08570654757341
 20
-905.50198526492568
 42
-0.0023619827762706
 10
641.97796053244781
 20
-905.50124442384663
 10
641.94155536229164
 20
-905.5008221173839
 42
0.000882459847083
 10
641.76099937242736
 20
-905.49904633914593
 10
641.71713794003585
 20
-905.4986923776205
 42
0.0038132665770239
 10
641.44885504416686
 20
-905.49857344155419
 10
641.43232138936355
 20
-905.49869220769779
 42
0.0060665569334447
 10
641.13104089776823
 20
-905.5045125071191
 10
641.1167905657469
 20
-905.50496081508663
 42
0.0080356953327532
 10
640.7873318494029
 20
-905.52062853715358
 10
640.77526183432042
 20
-905.52139712009375
 42
0.0098996399114661
 10
640.42249874967331
 20
-905.55088234929133
 10
640.41245304029485
 20
-905.55192264548987
 42
0.0117740981359755
 10
640.04129618194418
 20
-905.59921489301985
 10
640.03307348546355
 20
-905.60046000959028
 42
0.0137435215146701
 10
639.64848466598312
 20
-905.6695569831511
 10
639.64182762685505
 20
-905.67094287938562
 42
0.0158359869381216
 10
639.24883053304643
 20
-905.76583496786861
 10
639.24341734618542
 20
-905.76732490873746
 42
0.0180554124025013
 10
638.84710230157498
 20
-905.89196292497536
 10
638.84254551348965
 20
-905.89357896124238
 42
0.0203657431283443
 10
638.44806799567777
 20
-906.05183930275803
 10
638.44392445667097
 20
-906.0537009241998
 42
0.0226819684655673
 10
638.05648840046547
 20
-906.24934350287162
 10
638.05228860944919
 20
-906.25170909479039
 42
0.0248634984608638
 10
637.67710666826918
 20
-906.48833574073694
 10
637.6289117394839
 20
-906.52219278256359
 42
0.0267044190880083
 10
637.35461904256749
 20
-906.73763315843189
 42
0.0139303002199176
 10
637.09845187662711
 20
-906.97487199934517
 10
637.09359849090777
 20
-906.97962466220361
 42
0.0283460963446254
 10
636.84952589668114
 20
-907.24735532264788
 10
636.80985739152402
 20
-907.29615690012179
 42
0.0070695364849571
 10
636.73242016566428
 20
-907.39422371608634
 42
0.0070695364849571
  0
LWPOLYLINE
  5
52
100
AcDbEntity
  8
0
370
              15
390
0
  6
Continuous
 62
               7
100
AcDbPolyline
 90
      226
 70
             128
 10
633.20359972841788
 20
-923.11581252227188
 42
-0.0026277636648753
 10
633.20352184461774
 20
-923.04904059657588
 10
633.20373920284987
 20
-922.99588537908494
 42
-0.0088680296726857
 10
633.20751581914305
 20
-922.82286959667886
 10
633.20986217825532
 20
-922.76358957122829
 42
-0.0077381705617845
 10
633.22590828901832
 20
-922.47232907543105
 10
633.22677620019147
 20
-922.46004084174456
 42
-0.0068872530532086
 10
633.25340827993955
 20
-922.14481908967605
 10
633.2546125041257
 20
-922.13257811065705
 42
-0.0062130021485577
 10
633.29220622095443
 20
-921.7937084194117
 10
633.29371012448871
 20
-921.78153454750191
 42
-0.0056726929668714
 10
633.34263198398969
 20
-921.41933932539655
 10
633.34440542963534
 20
-921.40724552514257
 42
-0.0052341884495604
 10
633.40501601589665
 20
-921.02205226961644
 10
633.40703400467191
 20
-921.01004733963237
 42
-0.0049768450169288
 10
633.4797726860977
 20
-920.60220277220378
 10
633.50402170082009
 20
-920.47365478919437
 42
-0.0089029805624829
 10
633.64110255261494
 20
-919.81187934177206
 10
633.67384792793337
 20
-919.66684791124862
 42
-0.0080318257100197
 10
633.90339654227432
 20
-918.72113827939415
 10
633.91538146872233
 20
-918.67500764420492
 42
-0.007426572131802
 10
634.19939300757324
 20
-917.64494306582151
 10
634.21927255068806
 20
-917.57680900523872
 42
-0.0069711922702554
 10
634.54657712919561
 20
-916.51054126490726
 10
634.60652907629742
 20
-916.32451990654783
 42
-0.0052070422895623
 10
634.83595430156038
 20
-915.63724782950521
 10
634.85323549373243
 20
-915.58722054888869
 42
-0.0009167004447863
 10
635.05632738102213
 20
-915.00276470073368
 42
-0.00251627269436
 10
635.26342501129898
 20
-914.41972343653163
 10
635.30064962308325
 20
-914.31657389068528
 42
-0.0028212681456106
 10
635.54882554205324
 20
-913.6408432584949
 10
635.55865630481469
 20
-913.61453581378908
 42
-0.0031964916823021
 10
635.79494856246617
 20
-912.99433105169101
 10
635.80458301645126
 20
-912.96952106158358
 42
-0.003628183645338
 10
636.02968897756637
 20
-912.40208038065521
 10
636.03912738772874
 20
-912.37878294914026
 42
-0.0041269166829705
 10
636.25374508438301
 20
-911.86134205317376
 10
636.28637804079995
 20
-911.78446360682165
 42
-0.004747221305864
 10
636.44342284635741
 20
-911.4240421389286
 10
636.45031692757095
 20
-911.40862154158481
 42
-0.002565166000132
 10
636.59867496141578
 20
-911.08129348584862
 42
-0.0057144634988696
 10
636.75242465518863
 20
-910.75648381248345
 10
636.78045536059199
 20
-910.6989754300846
 42
-0.006538806837369
 10
636.963922388328
 20
-910.33474293342715
 10
636.97238084410287
 20
-910.31848335406448
 42
-0.0074510843027274
 10
637.14856308998446
 20
-909.99179507293502
 10
637.15674276051345
 20
-909.97715429566995
 42
-0.0084648979858518
 10
637.32637661361559
 20
-909.68524528470516
 10
637.33423274010499
 20
-909.67223829305203
 42
-0.0095638542800115
 10
637.49806818769787
 20
-909.41234942107531
 10
637.50554313136706
 20
-909.40098005962375
 42
-0.0107191626813391
 10
637.66434471175717
 20
-909.17036882507546
 10
637.67136144549147
 20
-909.16063273270629
 42
-0.0118458573896086
 10
637.82590954400075
 20
-908.95656053740004
 42
-0.0129184518195139
 10
637.99036216760203
 20
-908.76040002122977
 10
638.02050693996478
 20
-908.72627394233052
 42
-0.0217742579644812
 10
638.1971192623007
 20
-908.54306717208055
 10
638.20786480675838
 20
-908.53285033888028
 42
-0.0097266568635469
 10
638.37392242561691
 20
-908.38100276444038
 42
-0.0187720905723838
 10
638.54827000150999
 20
-908.23893391104821
 10
638.57897599217813
 20
-908.21577482865644
 42
-0.0179428207528372
 10
638.8113967121767
 20
-908.05322265154336
 10
638.81504903909138
 20
-908.05085871665631
 42
-0.0170047877685967
 10
639.05081267662285
 20
-907.90939820250424
 10
639.05459566536911
 20
-907.90729989746819
 42
-0.0160190788377833
 10
639.29150421300471
 20
-907.78564859547987
 42
-0.0151102861482731
 10
639.53553599545387
 20
-907.67896581942443
 10
639.58792249766316
 20
-907.65792568653069
 42
-0.0271945441887125
 10
639.94658505672271
 20
-907.53606087582398
 10
640.01564985720825
 20
-907.51671133455829
 42
-0.0237596594029637
 10
640.43144670423203
 20
-907.42126062257648
 10
640.4995095579618
 20
-907.40900593444997
 42
-0.0213715440554489
 10
640.78538448940776
 20
-907.3700589029404
 10
640.84553165562613
 20
-907.36446918823958
 42
-0.0101465655805315
 10
641.01302418761986
 20
-907.35232564497528
 10
641.02236457381844
 20
-907.351838729978
 42
-0.0100375910875775
 10
641.17151867438065
 20
-907.34706291205202
 10
641.18177794406085
 20
-907.34694047303753
 42
-0.0103625633396213
 10
641.31048593871594
 20
-907.34807190656375
 10
641.33275158998345
 20
-907.34872926502862
 42
-0.0115689250251613
 10
641.41680232751082
 20
-907.35315877127414
 42
-0.0072438037390225
 10
641.50064060695593
 20
-907.36074797102413
 10
641.51744111642279
 20
-907.36251451374756
 42
-0.0217917313165715
 10
641.63401087973784
 20
-907.37993440646881
 10
641.69961097030375
 20
-907.39268101488358
 42
-0.0332943556726622
 10
641.90400313533132
 20
-907.44672130619074
 10
641.93417570388101
 20
-907.45688938330886
 42
-0.0184824084829194
 10
642.07268076034677
 20
-907.50934039869571
 42
-0.01980020506628
 10
642.20675510084732
 20
-907.57222445889579
 10
642.20864173822304
 20
-907.57320224577506
 42
-0.021224234299009
 10
642.34078068062411
 20
-907.6489649845671
 10
642.34259597616847
 20
-907.65011078677617
 42
-0.0226090605801097
 10
642.47109987738975
 20
-907.73959043034074
 10
642.47294431912769
 20
-907.74100268332859
 42
-0.0238457052212568
 10
642.59612640042155
 20
-907.84499857919138
 10
642.59807912897963
 20
-907.84681345695662
 42
-0.0248160564177431
 10
642.71428063627889
 20
-907.96608805816345
 10
642.71638426968229
 20
-907.96847339186934
 42
-0.025410959144874
 10
642.82398948754826
 20
-908.10376177783405
 10
642.82623750946232
 20
-908.10690332623471
 42
-0.0255528488280452
 10
642.92368418826015
 20
-908.25893038047036
 10
642.92601528817556
 20
-908.26301199207683
 42
-0.0252146793219971
 10
643.01179631418449
 20
-908.43251423807305
 10
643.01409855334236
 20
-908.43769631998657
 42
-0.0244265635950967
 10
643.08675324710396
 20
-908.62544289203311
 10
643.09599964857205
 20
-908.65330831036977
 42
-0.0231319612903416
 10
643.14192242756428
 20
-908.81660935717264
 42
-0.011213042435242
 10
643.17655845010245
 20
-908.98281295736024
 10
643.17776097521505
 20
-908.9893095442485
 42
-0.0210527881237967
 10
643.20344745058605
 20
-909.17036518969007
 10
643.20695804540776
 20
-909.20577073823642
 42
-0.0190029892422597
 10
643.22239951895222
 20
-909.459306584508
 10
643.2232094953963
 20
-909.49478219887806
 42
-0.0137974553660778
 10
643.22166064256066
 20
-909.8198136056136
 10
643.22081518760513
 20
-909.8459323502085
 42
-0.0081336634214321
 10
643.20595585238266
 20
-910.1512798178037
 42
-0.0073526923572225
 10
643.18164731900868
 20
-910.45602806208205
 10
643.1803858952253
 20
-910.46936473675487
 42
-0.0066886138692679
 10
643.14465030917825
 20
-910.79995078025695
 10
643.14299321970896
 20
-910.81357239924364
 42
-0.0061359187354601
 10
643.09514261765833
 20
-911.17033637934196
 10
643.09310511658521
 20
-911.18423118217288
 42
-0.0056698610066325
 10
643.03245478581812
 20
-911.56750975101056
 10
643.03004935249498
 20
-911.58166887024163
 42
-0.0052721077272206
 10
642.95591715169564
 20
-911.99179620991765
 10
642.95315400285358
 20
-912.00621284530553
 42
-0.0049289272178234
 10
642.86485988475556
 20
-912.44352135641941
 10
642.86174739007106
 20
-912.45819020924409
 42
-0.0047415956710591
 10
642.75850939853819
 20
-912.9229869666575
 10
642.72374118817902
 20
-913.07279406203816
 42
-0.0084404470904366
 10
642.53372474460741
 20
-913.83301808656802
 10
642.52759805662151
 20
-913.85588221072248
 42
-0.0039635940257362
 10
642.30614437233828
 20
-914.65687107496694
 10
642.29276757715797
 20
-914.70380269156158
 42
-0.0072475040837931
 10
642.025320689296
 20
-915.59302240794852
 10
641.95510836246444
 20
-915.81476275793386
 42
-0.0051345458827032
 10
641.66834899040862
 20
-916.68908794573508
 10
641.6468227236478
 20
-916.75251421284531
 42
-0.0019150016602504
 10
641.39128931677442
 20
-917.49606333309112
 10
641.38482171238923
 20
-917.51465079798049
 42
-0.0021524362754009
 10
641.1363436613143
 20
-918.21897661972071
 10
641.12713324060974
 20
-918.24473019804475
 42
-0.0024331286820841
 10
640.89087798158187
 20
-918.89532950614011
 10
640.88183002903463
 20
-918.91987281248555
 42
-0.0027449721787489
 10
640.65721545819599
 20
-919.51900269141879
 10
640.64832545080253
 20
-919.54232528127432
 42
-0.0031083229768757
 10
640.4347829641938
 20
-920.09224931885092
 10
640.42604683251477
 20
-920.11433903471755
 42
-0.0035311343282011
 10
640.22300564692637
 20
-920.61732216043856
 10
640.21442030778394
 20
-920.63816488393604
 42
-0.0040245640944722
 10
640.0213085039843
 20
-921.09647420654164
 10
640.01287239038697
 20
-921.11605357460053
 42
-0.004601513585855
 10
639.82911609721759
 20
-921.53195860425603
 10
639.82082991939023
 20
-921.55025574370609
 42
-0.0052768638269868
 10
639.64585240043368
 20
-921.92602862797776
 10
639.63772018980353
 20
-921.94302196652757
 42
-0.0060672675639023
 10
639.47094057704078
 20
-922.28093758963496
 10
639.46297109656359
 20
-922.29660284862382
 42
-0.0069904648868297
 10
639.30380270255773
 20
-922.59893865529648
 10
639.29601130294668
 20
-922.61324920452432
 42
-0.0080637022769118
 10
639.14385944260107
 20
-922.88228450767747
 10
639.13627040996744
 20
-922.89521237328233
 42
-0.0093006455674051
 10
638.99052973343828
 20
-923.13322677178076
 10
638.9831790666949
 20
-923.14474474095334
 42
-0.0107060778047224
 10
638.84323052325612
 20
-923.35401505833215
 10
638.83616875497864
 20
-923.36410060089509
 42
-0.0122723111402724
 10
638.70137503677847
 20
-923.54689393038734
 10
638.70104881322482
 20
-923.54731431819641
 42
-0.0141836319638655
 10
638.55746721025037
 20
-923.72188407602698
 10
638.55051945459979
 20
-923.72985907629004
 42
-0.0175957477201065
 10
638.41061328656372
 20
-923.87947996469666
 42
-0.0080466359679863
 10
638.26314952153405
 20
-924.02180249284754
 10
638.21711497701608
 20
-924.06482293093904
 42
-0.0269600260394549
 10
637.96383473103492
 20
-924.27714618944663
 10
637.89726759473365
 20
-924.32709760407363
 42
-0.01783628397561
 10
637.6573231050802
 20
-924.49411553032405
 10
637.65007813407965
 20
-924.498784042529
 42
-0.0174650732642555
 10
637.41374193663853
 20
-924.63964500748807
 42
-0.016924013017384
 10
637.16827569078237
 20
-924.76393726726485
 10
637.12228953522299
 20
-924.78529922283269
 42
-0.0318883036835387
 10
636.77193867960318
 20
-924.92163753234274
 10
636.70357314443629
 20
-924.94333815281891
 42
-0.0284435909900516
 10
636.32752301814719
 20
-925.0395555882933
 10
636.29236485764989
 20
-925.04644918412157
 42
-0.0243909341019093
 10
635.97892139672967
 20
-925.09217021515178
 10
635.9286406699606
 20
-925.09701576205316
 42
-0.0196639292918507
 10
635.71304509243134
 20
-925.10926404756719
 10
635.66122102126394
 20
-925.1101673083042
 42
-0.0100501510701448
 10
635.54879773960363
 20
-925.10986690995105
 10
635.51713787827975
 20
-925.10914583806607
 42
-0.0019752031156851
 10
635.46804554157814
 20
-925.10783367785552
 10
635.465285238359
 20
-925.10774898602926
 42
0.0065378752049002
 10
635.42170866360129
 20
-925.10698209481416
 42
-0.0167974694659724
 10
635.37817784067022
 20
-925.10532219628851
 10
635.37409850140739
 20
-925.10502918539351
 42
-0.0081283276330382
 10
635.32253870367151
 20
-925.10048219175565
 10
635.31079912979021
 20
-925.09925427417693
 42
-0.0126703440145638
 10
635.23608083399654
 20
-925.08951948310505
 10
635.21329296631995
 20
-925.08596122718973
 42
-0.0117852088440818
 10
635.09375398049258
 20
-925.06439823203357
 10
635.03837352872461
 20
-925.05305469179802
 42
-0.0251774592283527
 10
634.8115294897151
 20
-924.99455668236499
 10
634.76681029986366
 20
-924.98058986302988
 42
-0.0146525199909236
 10
634.5804173123272
 20
-924.9163233358322
 42
-0.0166929435834451
 10
634.39843965620196
 20
-924.84051620277819
 10
634.3937830249273
 20
-924.83839130216347
 42
-0.0191684358439896
 10
634.20859939367892
 20
-924.74515521837475
 10
634.20526680792113
 20
-924.74331397082096
 42
-0.0221181781826196
 10
634.02195650401802
 20
-924.63118047244939
 10
634.01960670001051
 20
-924.62959617445904
 42
-0.0254984685382042
 10
633.8433165496258
 20
-924.49718502448911
 10
633.8208344019223
 20
-924.47843271555143
 42
-0.029249264879088
 10
633.69606546308023
 20
-924.36133991590941
 42
-0.0159048957518029
 10
633.58222546563161
 20
-924.23331992431213
 10
633.58090667505087
 20
-924.23173831129043
 42
-0.0343813379551218
 10
633.47826941342441
 20
-924.08986698552053
 10
633.44677788206366
 20
-924.03936359342674
 42
-0.0369117275701791
 10
633.36088538016656
 20
-923.87588635247903
 42
-0.0191751379912452
 10
633.2936919946103
 20
-923.70348174647552
 10
633.29192867084998
 20
-923.69838840179818
 42
-0.0378178042226077
 10
633.24213395206561
 20
-923.50944762571635
 10
633.2361386563349
 20
-923.47688700751735
 42
-0.0184846046476803
 10
633.21542145704097
 20
-923.33513418697476
 42
-0.0179866351307549
 10
633.20508845196719
 20
-923.19224337389073
 10
633.20503200952157
 20
-923.19068568728107
 42
-0.0085497186124767
 10
633.20359972841788
 20
-923.11581252227188
 42
-0.0085497186124767
  0
ENDBLK
  5
53
100
AcDbEntity
  8
1_10
390
0
100
AcDbBlockEnd
  0
BLOCK
  5
54
100
AcDbEntity
  8
notes
390
0
100
AcDbBlockBegin
  2
*D3
 70
               1
 10
0.0
 20
0.0
 30
0.0
  3
*D3
  1

  0
LINE
  5
55
100
AcDbEntity
  8
0
370
              -2
390
0
  6
Continuous
 62
               0
100
AcDbLine
 10
-800.50800489082121
 20
587.47723335930823
 30
0.0
 11
-800.50800489082121
 21
1075.2736118531914
 31
0.0
  0
LINE
  5
56
100
AcDbEntity
  8
0
370
              -2
390
0
  6
Continuous
 62
               0
100
AcDbLine
 10
-20.508004890820814
 20
588.4072623851655
 30
0.0
 11
-20.508004890820814
 21
1075.2736118531914
 31
0.0
  0
LINE
  5
57
100
AcDbEntity
  8
0
370
              -2
390
0
  6
Continuous
 62
               0
100
AcDbLine
 10
-800.50800489082121
 20
1075.2736118531914
 30
0.0
 11
-20.508004890820814
 21
1075.2736118531914
 31
0.0
  0
CIRCLE
  5
58
102
{ACAD_REACTORS
330
59
102
}
100
AcDbEntity
  8
0
370
              -2
390
0
  6
Continuous
 62
               0
100
AcDbCircle
 10
-800.50800489082121
 20
1075.2736118531914
 30
0.0
 40
1.9998779296875
  0
HATCH
  5
59
100
AcDbEntity
  8
0
370
              -2
390
0
  6
Continuous
 62
               0
100
AcDbHatch
 10
0.0
 20
0.0
 30
0.0
210
0.0
220
0.0
230
1.0
  2
SOLID
 70
               1
 71
               1
 91
        1
 92
        1
 93
        1
 72
               2
 10
-800.50800489082121
 20
1075.2736118531914
 40
1.9998779296875
 50
0.0
 51
360.0
 73
               0
 97
        1
330
58
 75
               0
 76
               1
 98
        1
 10
0.0
 20
0.0
  0
CIRCLE
  5
5A
102
{ACAD_REACTORS
330
5B
102
}
100
AcDbEntity
  8
0
370
              -2
390
0
  6
Continuous
 62
               0
100
AcDbCircle
 10
-20.508004890820814
 20
1075.2736118531914
 30
0.0
 40
1.9998779296875
  0
HATCH
  5
5B
100
AcDbEntity
  8
0
370
              -2
390
0
  6
Continuous
 62
               0
100
AcDbHatch
 10
0.0
 20
0.0
 30
0.0
210
0.0
220
0.0
230
1.0
  2
SOLID
 70
               1
 71
               1
 91
        1
 92
        1
 93
        1
 72
               2
 10
-20.508004890820814
 20
1075.2736118531914
 40
1.9998779296875
 50
0.0
 51
360.0
 73
               0
 97
        1
330
5A
 75
               0
 76
               1
 98
        1
 10
0.0
 20
0.0
  0
MTEXT
  5
5C
100
AcDbEntity
  8
0
390
0
 62
               0
100
AcDbMText
 10
-434.32050657299652
 20
1109.1512290406913
 30
0.0
 40
24.432617187500004
 41
0.0
 71
               1
 72
               1
  1
780
  7
ＭＳ ゴシック
 73
               1
 44
0.7828267384257843
  0
POINT
  5
5D
100
AcDbEntity
  8
Defpoints
370
               0
390
0
 62
               0
100
AcDbPoint
 10
-20.508004890820814
 20
563.4072623851655
 30
0.0
  0
POINT
  5
5E
100
AcDbEntity
  8
Defpoints
370
               0
390
0
 62
               0
100
AcDbPoint
 10
-800.50800489082121
 20
562.47723335930823
 30
0.0
  0
POINT
  5
5F
100
AcDbEntity
  8
Defpoints
370
               0
390
0
 62
               0
100
AcDbPoint
 10
-800.50800489082121
 20
1075.2736118531914
 30
0.0
  0
ENDBLK
  5
60
100
AcDbEntity
  8
notes
390
0
100
AcDbBlockEnd
  0
BLOCK
  5
61
100
AcDbEntity
  8
notes
390
0
100
AcDbBlockBegin
  2
*D4
 70
               1
 10
0.0
 20
0.0
 30
0.0
  3
*D4
  1

  0
LINE
  5
62
100
AcDbEntity
  8
0
370
              -2
390
0
  6
Continuous
 62
               0
100
AcDbLine
 10
-551.79073501814128
 20
900.27361185319137
 30
0.0
 11
-551.79073501814128
 21
975.27361185319137
 31
0.0
  0
LINE
  5
63
100
AcDbEntity
  8
0
370
              -2
390
0
  6
Continuous
 62
               0
100
AcDbLine
 10
-276.79073501814133
 20
900.27361185319137
 30
0.0
 11
-276.79073501814133
 21
975.27361185319137
 31
0.0
  0
LINE
  5
64
100
AcDbEntity
  8
0
370
              -2
390
0
  6
Continuous
 62
               0
100
AcDbLine
 10
-551.79073501814128
 20
975.27361185319137
 30
0.0
 11
-276.79073501814133
 21
975.27361185319137
 31
0.0
  0
CIRCLE
  5
65
102
{ACAD_REACTORS
330
66
102
}
100
AcDbEntity
  8
0
370
              -2
390
0
  6
Continuous
 62
               0
100
AcDbCircle
 10
-551.79073501814128
 20
975.27361185319137
 30
0.0
 40
1.9998779296875
  0
HATCH
  5
66
100
AcDbEntity
  8
0
370
              -2
390
0
  6
Continuous
 62
               0
100
AcDbHatch
 10
0.0
 20
0.0
 30
0.0
210
0.0
220
0.0
230
1.0
  2
SOLID
 70
               1
 71
               1
 91
        1
 92
        1
 93
        1
 72
               2
 10
-551.79073501814128
 20
975.27361185319137
 40
1.9998779296875
 50
0.0
 51
360.0
 73
               0
 97
        1
330
65
 75
               0
 76
               1
 98
        1
 10
0.0
 20
0.0
  0
CIRCLE
  5
67
102
{ACAD_REACTORS
330
68
102
}
100
AcDbEntity
  8
0
370
              -2
390
0
  6
Continuous
 62
               0
100
AcDbCircle
 10
-276.79073501814133
 20
975.27361185319137
 30
0.0
 40
1.9998779296875
  0
HATCH
  5
68
100
AcDbEntity
  8
0
370
              -2
390
0
  6
Continuous
 62
               0
100
AcDbHatch
 10
0.0
 20
0.0
 30
0.0
210
0.0
220
0.0
230
1.0
  2
SOLID
 70
               1
 71
               1
 91
        1
 92
        1
 93
        1
 72
               2
 10
-276.79073501814133
 20
975.27361185319137
 40
1.9998779296875
 50
0.0
 51
360.0
 73
               0
 97
        1
330
67
 75
               0
 76
               1
 98
        1
 10
0.0
 20
0.0
  0
MTEXT
  5
69
100
AcDbEntity
  8
0
390
0
 62
               0
100
AcDbMText
 10
-438.10323670031681
 20
1009.1512290406913
 30
0.0
 40
24.432617187500004
 41
0.0
 71
               1
 72
               1
  1
275
  7
ＭＳ ゴシック
 73
               1
 44
0.7828267384257843
  0
POINT
  5
6A
100
AcDbEntity
  8
Defpoints
370
               0
390
0
 62
               0
100
AcDbPoint
 10
-276.79073501814133
 20
875.27361185319137
 30
0.0
  0
POINT
  5
6B
100
AcDbEntity
  8
Defpoints
370
               0
390
0
 62
               0
100
AcDbPoint
 10
-551.79073501814128
 20
875.27361185319137
 30
0.0
  0
POINT
  5
6C
100
AcDbEntity
  8
Defpoints
370
               0
390
0
 62
               0
100
AcDbPoint
 10
-551.79073501814128
 20
975.27361185319137
 30
0.0
  0
ENDBLK
  5
6D
100
AcDbEntity
  8
notes
390
0
100
AcDbBlockEnd
  0
BLOCK
  5
6E
100
AcDbEntity
  8
notes
390
0
100
AcDbBlockBegin
  2
*D5
 70
               1
 10
0.0
 20
0.0
 30
0.0
  3
*D5
  1

  0
LINE
  5
6F
100
AcDbEntity
  8
0
370
              -2
390
0
  6
Continuous
 62
               0
100
AcDbLine
 10
-251.79073501814133
 20
875.27361185319137
 30
0.0
 11
81.547178624859384
 21
875.27361185319137
 31
0.0
  0
LINE
  5
70
100
AcDbEntity
  8
0
370
              -2
390
0
  6
Continuous
 62
               0
100
AcDbLine
 10
-303.49617733453266
 20
295.27361185319137
 30
0.0
 11
81.547178624859384
 21
295.27361185319137
 31
0.0
  0
LINE
  5
71
100
AcDbEntity
  8
0
370
              -2
390
0
  6
Continuous
 62
               0
100
AcDbLine
 10
81.547178624859384
 20
875.27361185319137
 30
0.0
 11
81.547178624859384
 21
295.27361185319137
 31
0.0
  0
CIRCLE
  5
72
102
{ACAD_REACTORS
330
73
102
}
100
AcDbEntity
  8
0
370
              -2
390
0
  6
Continuous
 62
               0
100
AcDbCircle
 10
81.547178624859384
 20
875.27361185319137
 30
0.0
 40
1.9998779296875
  0
HATCH
  5
73
100
AcDbEntity
  8
0
370
              -2
390
0
  6
Continuous
 62
               0
100
AcDbHatch
 10
0.0
 20
0.0
 30
0.0
210
0.0
220
0.0
230
1.0
  2
SOLID
 70
               1
 71
               1
 91
        1
 92
        1
 93
        1
 72
               2
 10
81.547178624859384
 20
875.27361185319137
 40
1.9998779296875
 50
0.0
 51
360.0
 73
               0
 97
        1
330
72
 75
               0
 76
               1
 98
        1
 10
0.0
 20
0.0
  0
CIRCLE
  5
74
102
{ACAD_REACTORS
330
75
102
}
100
AcDbEntity
  8
0
370
              -2
390
0
  6
Continuous
 62
               0
100
AcDbCircle
 10
81.547178624859384
 20
295.27361185319137
 30
0.0
 40
1.9998779296875
  0
HATCH
  5
75
100
AcDbEntity
  8
0
370
              -2
390
0
  6
Continuous
 62
               0
100
AcDbHatch
 10
0.0
 20
0.0
 30
0.0
210
0.0
220
0.0
230
1.0
  2
SOLID
 70
               1
 71
               1
 91
        1
 92
        1
 93
        1
 72
               2
 10
81.547178624859384
 20
295.27361185319137
 40
1.9998779296875
 50
0.0
 51
360.0
 73
               0
 97
        1
330
74
 75
               0
 76
               1
 98
        1
 10
0.0
 20
0.0
  0
MTEXT
  5
76
100
AcDbEntity
  8
0
390
0
 62
               0
100
AcDbMText
 10
47.669561437359391
 20
561.46111017101589
 30
0.0
 40
24.432617187500004
 41
0.0
 71
               1
 72
               1
  1
580
  7
ＭＳ ゴシック
 11
0.0
 21
1.0
 31
0.0
 73
               1
 44
0.7828267384257843
  0
POINT
  5
77
100
AcDbEntity
  8
Defpoints
370
               0
390
0
 62
               0
100
AcDbPoint
 10
-328.49617733453266
 20
295.27361185319137
 30
0.0
  0
POINT
  5
78
100
AcDbEntity
  8
Defpoints
370
               0
390
0
 62
               0
100
AcDbPoint
 10
-276.79073501814133
 20
875.27361185319137
 30
0.0
  0
POINT
  5
79
100
AcDbEntity
  8
Defpoints
370
               0
390
0
 62
               0
100
AcDbPoint
 10
81.547178624859384
 20
875.27361185319137
 30
0.0
  0
ENDBLK
  5
7A
100
AcDbEntity
  8
notes
390
0
100
AcDbBlockEnd
  0
BLOCK
  5
7B
100
AcDbEntity
  8
notes
390
0
100
AcDbBlockBegin
  2
*D6
 70
               1
 10
0.0
 20
0.0
 30
0.0
  3
*D6
  1

  0
LINE
  5
7C
100
AcDbEntity
  8
0
370
              -2
390
0
  6
Continuous
 62
               0
100
AcDbLine
 10
-626.79073501814128
 20
835.27361185319137
 30
0.0
 11
-900.50800489082121
 21
835.27361185319137
 31
0.0
  0
LINE
  5
7D
100
AcDbEntity
  8
0
370
              -2
390
0
  6
Continuous
 62
               0
100
AcDbLine
 10
-626.79073501814128
 20
295.27361185319137
 30
0.0
 11
-900.50800489082121
 21
295.27361185319137
 31
0.0
  0
LINE
  5
7E
100
AcDbEntity
  8
0
370
              -2
390
0
  6
Continuous
 62
               0
100
AcDbLine
 10
-900.50800489082121
 20
835.27361185319137
 30
0.0
 11
-900.50800489082121
 21
295.27361185319137
 31
0.0
  0
CIRCLE
  5
7F
102
{ACAD_REACTORS
330
80
102
}
100
AcDbEntity
  8
0
370
              -2
390
0
  6
Continuous
 62
               0
100
AcDbCircle
 10
-900.50800489082121
 20
835.27361185319137
 30
0.0
 40
1.9998779296875
  0
HATCH
  5
80
100
AcDbEntity
  8
0
370
              -2
390
0
  6
Continuous
 62
               0
100
AcDbHatch
 10
0.0
 20
0.0
 30
0.0
210
0.0
220
0.0
230
1.0
  2
SOLID
 70
               1
 71
               1
 91
        1
 92
        1
 93
        1
 72
               2
 10
-900.50800489082121
 20
835.27361185319137
 40
1.9998779296875
 50
0.0
 51
360.0
 73
               0
 97
        1
330
7F
 75
               0
 76
               1
 98
        1
 10
0.0
 20
0.0
  0
CIRCLE
  5
81
102
{ACAD_REACTORS
330
82
102
}
100
AcDbEntity
  8
0
370
              -2
390
0
  6
Continuous
 62
               0
100
AcDbCircle
 10
-900.50800489082121
 20
295.27361185319137
 30
0.0
 40
1.9998779296875
  0
HATCH
  5
82
100
AcDbEntity
  8
0
370
              -2
390
0
  6
Continuous
 62
               0
100
AcDbHatch
 10
0.0
 20
0.0
 30
0.0
210
0.0
220
0.0
230
1.0
  2
SOLID
 70
               1
 71
               1
 91
        1
 92
        1
 93
        1
 72
               2
 10
-900.50800489082121
 20
295.27361185319137
 40
1.9998779296875
 50
0.0
 51
360.0
 73
               0
 97
        1
330
81
 75
               0
 76
               1
 98
        1
 10
0.0
 20
0.0
  0
MTEXT
  5
83
100
AcDbEntity
  8
0
390
0
 62
               0
100
AcDbMText
 10
-934.38562207832115
 20
542.18749831782452
 30
0.0
 40
24.432617187500004
 41
0.0
 71
               1
 72
               1
  1
540
  7
ＭＳ ゴシック
 11
0.0
 21
1.0
 31
0.0
 73
               1
 44
0.7828267384257843
  0
POINT
  5
84
100
AcDbEntity
  8
Defpoints
370
               0
390
0
 62
               0
100
AcDbPoint
 10
-601.79073501814128
 20
295.27361185319137
 30
0.0
  0
POINT
  5
85
100
AcDbEntity
  8
Defpoints
370
               0
390
0
 62
               0
100
AcDbPoint
 10
-601.79073501814128
 20
835.27361185319137
 30
0.0
  0
POINT
  5
86
100
AcDbEntity
  8
Defpoints
370
               0
390
0
 62
               0
100
AcDbPoint
 10
-900.50800489082121
 20
835.27361185319137
 30
0.0
  0
ENDBLK
  5
87
100
AcDbEntity
  8
notes
390
0
100
AcDbBlockEnd
  0
BLOCK
  5
88
100
AcDbEntity
  8
notes
390
0
100
AcDbBlockBegin
  2
*D7
 70
               1
 10
0.0
 20
0.0
 30
0.0
  3
*D7
  1

  0
LINE
  5
89
100
AcDbEntity
  8
0
370
              -2
390
0
  6
Continuous
 62
               0
100
AcDbLine
 10
-745.50800489082121
 20
395.47723335930823
 30
0.0
 11
-745.50800489082121
 21
195.27361185319137
 31
0.0
  0
LINE
  5
8A
100
AcDbEntity
  8
0
370
              -2
390
0
  6
Continuous
 62
               0
100
AcDbLine
 10
-75.508004890821269
 20
395.47723335930823
 30
0.0
 11
-75.508004890821269
 21
195.27361185319137
 31
0.0
  0
LINE
  5
8B
100
AcDbEntity
  8
0
370
              -2
390
0
  6
Continuous
 62
               0
100
AcDbLine
 10
-745.50800489082121
 20
195.27361185319137
 30
0.0
 11
-75.508004890821269
 21
195.27361185319137
 31
0.0
  0
CIRCLE
  5
8C
102
{ACAD_REACTORS
330
8D
102
}
100
AcDbEntity
  8
0
370
              -2
390
0
  6
Continuous
 62
               0
100
AcDbCircle
 10
-745.50800489082121
 20
195.27361185319137
 30
0.0
 40
1.9998779296875
  0
HATCH
  5
8D
100
AcDbEntity
  8
0
370
              -2
390
0
  6
Continuous
 62
               0
100
AcDbHatch
 10
0.0
 20
0.0
 30
0.0
210
0.0
220
0.0
230
1.0
  2
SOLID
 70
               1
 71
               1
 91
        1
 92
        1
 93
        1
 72
               2
 10
-745.50800489082121
 20
195.27361185319137
 40
1.9998779296875
 50
0.0
 51
360.0
 73
               0
 97
        1
330
8C
 75
               0
 76
               1
 98
        1
 10
0.0
 20
0.0
  0
CIRCLE
  5
8E
102
{ACAD_REACTORS
330
8F
102
}
100
AcDbEntity
  8
0
370
              -2
390
0
  6
Continuous
 62
               0
100
AcDbCircle
 10
-75.508004890821269
 20
195.27361185319137
 30
0.0
 40
1.9998779296875
  0
HATCH
  5
8F
100
AcDbEntity
  8
0
370
              -2
390
0
  6
Continuous
 62
               0
100
AcDbHatch
 10
0.0
 20
0.0
 30
0.0
210
0.0
220
0.0
230
1.0
  2
SOLID
 70
               1
 71
               1
 91
        1
 92
        1
 93
        1
 72
               2
 10
-75.508004890821269
 20
195.27361185319137
 40
1.9998779296875
 50
0.0
 51
360.0
 73
               0
 97
        1
330
8E
 75
               0
 76
               1
 98
        1
 10
0.0
 20
0.0
  0
MTEXT
  5
90
100
AcDbEntity
  8
0
390
0
 62
               0
100
AcDbMText
 10
-434.32050657299675
 20
229.15122904069142
 30
0.0
 40
24.432617187500004
 41
0.0
 71
               1
 72
               1
  1
670
  7
ＭＳ ゴシック
 73
               1
 44
0.7828267384257843
  0
POINT
  5
91
100
AcDbEntity
  8
Defpoints
370
               0
390
0
 62
               0
100
AcDbPoint
 10
-75.508004890821269
 20
420.47723335930823
 30
0.0
  0
POINT
  5
92
100
AcDbEntity
  8
Defpoints
370
               0
390
0
 62
               0
100
AcDbPoint
 10
-745.50800489082121
 20
420.47723335930823
 30
0.0
  0
POINT
  5
93
100
AcDbEntity
  8
Defpoints
370
               0
390
0
 62
               0
100
AcDbPoint
 10
-745.50800489082121
 20
195.27361185319137
 30
0.0
  0
ENDBLK
  5
94
100
AcDbEntity
  8
notes
390
0
100
AcDbBlockEnd
  0
BLOCK
  5
95
100
AcDbEntity
  8
notes
390
0
100
AcDbBlockBegin
  2
*D8
 70
               1
 10
0.0
 20
0.0
 30
0.0
  3
*D8
  1

  0
LINE
  5
96
100
AcDbEntity
  8
0
370
              -2
390
0
  6
Continuous
 62
               0
100
AcDbLine
 10
-7.5004156463945719
 20
-304.97312069039037
 30
0.0
 11
81.547178624859384
 21
-304.97312069039037
 31
0.0
  0
LINE
  5
97
100
AcDbEntity
  8
0
370
              -2
390
0
  6
Continuous
 62
               0
100
AcDbLine
 10
-390.118307156002
 20
-707.97312069039037
 30
0.0
 11
81.547178624859384
 21
-707.97312069039037
 31
0.0
  0
LINE
  5
98
100
AcDbEntity
  8
0
370
              -2
390
0
  6
Continuous
 62
               0
100
AcDbLine
 10
81.547178624859384
 20
-304.97312069039037
 30
0.0
 11
81.547178624859384
 21
-707.97312069039037
 31
0.0
  0
CIRCLE
  5
99
102
{ACAD_REACTORS
330
9A
102
}
100
AcDbEntity
  8
0
370
              -2
390
0
  6
Continuous
 62
               0
100
AcDbCircle
 10
81.547178624859384
 20
-304.97312069039037
 30
0.0
 40
1.9998779296875
  0
HATCH
  5
9A
100
AcDbEntity
  8
0
370
              -2
390
0
  6
Continuous
 62
               0
100
AcDbHatch
 10
0.0
 20
0.0
 30
0.0
210
0.0
220
0.0
230
1.0
  2
SOLID
 70
               1
 71
               1
 91
        1
 92
        1
 93
        1
 72
               2
 10
81.547178624859384
 20
-304.97312069039037
 40
1.9998779296875
 50
0.0
 51
360.0
 73
               0
 97
        1
330
99
 75
               0
 76
               1
 98
        1
 10
0.0
 20
0.0
  0
CIRCLE
  5
9B
102
{ACAD_REACTORS
330
9C
102
}
100
AcDbEntity
  8
0
370
              -2
390
0
  6
Continuous
 62
               0
100
AcDbCircle
 10
81.547178624859384
 20
-707.97312069039037
 30
0.0
 40
1.9998779296875
  0
HATCH
  5
9C
100
AcDbEntity
  8
0
370
              -2
390
0
  6
Continuous
 62
               0
100
AcDbHatch
 10
0.0
 20
0.0
 30
0.0
210
0.0
220
0.0
230
1.0
  2
SOLID
 70
               1
 71
               1
 91
        1
 92
        1
 93
        1
 72
               2
 10
81.547178624859384
 20
-707.97312069039037
 40
1.9998779296875
 50
0.0
 51
360.0
 73
               0
 97
        1
330
9B
 75
               0
 76
               1
 98
        1
 10
0.0
 20
0.0
  0
MTEXT
  5
9D
100
AcDbEntity
  8
0
390
0
 62
               0
100
AcDbMText
 10
47.669561437359391
 20
-530.28562237256597
 30
0.0
 40
24.432617187500004
 41
0.0
 71
               1
 72
               1
  1
403
  7
ＭＳ ゴシック
 11
0.0
 21
1.0
 31
0.0
 73
               1
 44
0.7828267384257843
  0
POINT
  5
9E
100
AcDbEntity
  8
Defpoints
370
               0
390
0
 62
               0
100
AcDbPoint
 10
-415.118307156002
 20
-707.97312069039037
 30
0.0
  0
POINT
  5
9F
100
AcDbEntity
  8
Defpoints
370
               0
390
0
 62
               0
100
AcDbPoint
 10
-32.500415646394572
 20
-304.97312069039037
 30
0.0
  0
POINT
  5
A0
100
AcDbEntity
  8
Defpoints
370
               0
390
0
 62
               0
100
AcDbPoint
 10
81.547178624859384
 20
-304.97312069039037
 30
0.0
  0
ENDBLK
  5
A1
100
AcDbEntity
  8
notes
390
0
100
AcDbBlockEnd
  0
BLOCK
  5
A2
100
AcDbEntity
  8
notes
390
0
100
AcDbBlockBegin
  2
*D9
 70
               1
 10
0.0
 20
0.0
 30
0.0
  3
*D9
  1

  0
LINE
  5
A3
100
AcDbEntity
  8
0
370
              -2
390
0
  6
Continuous
 62
               0
100
AcDbLine
 10
781.45075655946835
 20
-372.59271090632944
 30
0.0
 11
781.45075655946835
 21
-204.97312069038855
 31
0.0
  0
LINE
  5
A4
100
AcDbEntity
  8
0
370
              -2
390
0
  6
Continuous
 62
               0
100
AcDbLine
 10
684.45075655946823
 20
-280.0003128012055
 30
0.0
 11
684.45075655946823
 21
-204.97312069038855
 31
0.0
  0
LINE
  5
A5
100
AcDbEntity
  8
0
370
              -2
390
0
  6
Continuous
 62
               0
100
AcDbLine
 10
781.45075655946835
 20
-204.97312069038855
 30
0.0
 11
684.45075655946823
 21
-204.97312069038855
 31
0.0
  0
CIRCLE
  5
A6
102
{ACAD_REACTORS
330
A7
102
}
100
AcDbEntity
  8
0
370
              -2
390
0
  6
Continuous
 62
               0
100
AcDbCircle
 10
781.45075655946835
 20
-204.97312069038855
 30
0.0
 40
1.9998779296875
  0
HATCH
  5
A7
100
AcDbEntity
  8
0
370
              -2
390
0
  6
Continuous
 62
               0
100
AcDbHatch
 10
0.0
 20
0.0
 30
0.0
210
0.0
220
0.0
230
1.0
  2
SOLID
 70
               1
 71
               1
 91
        1
 92
        1
 93
        1
 72
               2
 10
781.45075655946835
 20
-204.97312069038855
 40
1.9998779296875
 50
0.0
 51
360.0
 73
               0
 97
        1
330
A6
 75
               0
 76
               1
 98
        1
 10
0.0
 20
0.0
  0
CIRCLE
  5
A8
102
{ACAD_REACTORS
330
A9
102
}
100
AcDbEntity
  8
0
370
              -2
390
0
  6
Continuous
 62
               0
100
AcDbCircle
 10
684.45075655946823
 20
-204.97312069038855
 30
0.0
 40
1.9998779296875
  0
HATCH
  5
A9
100
AcDbEntity
  8
0
370
              -2
390
0
  6
Continuous
 62
               0
100
AcDbHatch
 10
0.0
 20
0.0
 30
0.0
210
0.0
220
0.0
230
1.0
  2
SOLID
 70
               1
 71
               1
 91
        1
 92
        1
 93
        1
 72
               2
 10
684.45075655946823
 20
-204.97312069038855
 40
1.9998779296875
 50
0.0
 51
360.0
 73
               0
 97
        1
330
A8
 75
               0
 76
               1
 98
        1
 10
0.0
 20
0.0
  0
MTEXT
  5
AA
100
AcDbEntity
  8
0
390
0
 62
               0
100
AcDbMText
 10
717.07575655946835
 20
-171.09550350288856
 30
0.0
 40
24.432617187500004
 41
0.0
 71
               1
 72
               1
  1
97
  7
ＭＳ ゴシック
 73
               1
 44
0.7828267384257843
  0
POINT
  5
AB
100
AcDbEntity
  8
Defpoints
370
               0
390
0
 62
               0
100
AcDbPoint
 10
684.45075655946823
 20
-305.0003128012055
 30
0.0
  0
POINT
  5
AC
100
AcDbEntity
  8
Defpoints
370
               0
390
0
 62
               0
100
AcDbPoint
 10
781.45075655946835
 20
-397.59271090632944
 30
0.0
  0
POINT
  5
AD
100
AcDbEntity
  8
Defpoints
370
               0
390
0
 62
               0
100
AcDbPoint
 10
781.45075655946835
 20
-204.97312069038855
 30
0.0
  0
ENDBLK
  5
AE
100
AcDbEntity
  8
notes
390
0
100
AcDbBlockEnd
  0
BLOCK
  5
AF
100
AcDbEntity
  8
notes
390
0
100
AcDbBlockBegin
  2
*D10
 70
               1
 10
0.0
 20
0.0
 30
0.0
  3
*D10
  1

  0
LINE
  5
B0
100
AcDbEntity
  8
0
370
              -2
390
0
  6
Continuous
 62
               0
100
AcDbLine
 10
-553.01224320268307
 20
-474.97312069039037
 30
0.0
 11
-900.50800489082121
 21
-474.97312069039037
 31
0.0
  0
LINE
  5
B1
100
AcDbEntity
  8
0
370
              -2
390
0
  6
Continuous
 62
               0
100
AcDbLine
 10
-823.50193588053412
 20
-304.97312069039037
 30
0.0
 11
-900.50800489082121
 21
-304.97312069039037
 31
0.0
  0
LINE
  5
B2
100
AcDbEntity
  8
0
370
              -2
390
0
  6
Continuous
 62
               0
100
AcDbLine
 10
-900.50800489082121
 20
-474.97312069039037
 30
0.0
 11
-900.50800489082121
 21
-304.97312069039037
 31
0.0
  0
CIRCLE
  5
B3
102
{ACAD_REACTORS
330
B4
102
}
100
AcDbEntity
  8
0
370
              -2
390
0
  6
Continuous
 62
               0
100
AcDbCircle
 10
-900.50800489082121
 20
-474.97312069039037
 30
0.0
 40
1.9998779296875
  0
HATCH
  5
B4
100
AcDbEntity
  8
0
370
              -2
390
0
  6
Continuous
 62
               0
100
AcDbHatch
 10
0.0
 20
0.0
 30
0.0
210
0.0
220
0.0
230
1.0
  2
SOLID
 70
               1
 71
               1
 91
        1
 92
        1
 93
        1
 72
               2
 10
-900.50800489082121
 20
-474.97312069039037
 40
1.9998779296875
 50
0.0
 51
360.0
 73
               0
 97
        1
330
B3
 75
               0
 76
               1
 98
        1
 10
0.0
 20
0.0
  0
CIRCLE
  5
B5
102
{ACAD_REACTORS
330
B6
102
}
100
AcDbEntity
  8
0
370
              -2
390
0
  6
Continuous
 62
               0
100
AcDbCircle
 10
-900.50800489082121
 20
-304.97312069039037
 30
0.0
 40
1.9998779296875
  0
HATCH
  5
B6
100
AcDbEntity
  8
0
370
              -2
390
0
  6
Continuous
 62
               0
100
AcDbHatch
 10
0.0
 20
0.0
 30
0.0
210
0.0
220
0.0
230
1.0
  2
SOLID
 70
               1
 71
               1
 91
        1
 92
        1
 93
        1
 72
               2
 10
-900.50800489082121
 20
-304.97312069039037
 40
1.9998779296875
 50
0.0
 51
360.0
 73
               0
 97
        1
330
B5
 75
               0
 76
               1
 98
        1
 10
0.0
 20
0.0
  0
MTEXT
  5
B7
100
AcDbEntity
  8
0
390
0
 62
               0
100
AcDbMText
 10
-934.38562207832115
 20
-401.81250168217554
 30
0.0
 40
24.432617187500004
 41
0.0
 71
               1
 72
               1
  1
170
  7
ＭＳ ゴシック
 11
0.0
 21
1.0
 31
0.0
 73
               1
 44
0.7828267384257843
  0
POINT
  5
B8
100
AcDbEntity
  8
Defpoints
370
               0
390
0
 62
               0
100
AcDbPoint
 10
-798.50193588053412
 20
-304.97312069039037
 30
0.0
  0
POINT
  5
B9
100
AcDbEntity
  8
Defpoints
370
               0
390
0
 62
               0
100
AcDbPoint
 10
-528.01224320268307
 20
-474.97312069039037
 30
0.0
  0
POINT
  5
BA
100
AcDbEntity
  8
Defpoints
370
               0
390
0
 62
               0
100
AcDbPoint
 10
-900.50800489082121
 20
-474.97312069039037
 30
0.0
  0
ENDBLK
  5
BB
100
AcDbEntity
  8
notes
390
0
100
AcDbBlockEnd
  0
BLOCK
  5
BC
100
AcDbEntity
  8
notes
390
0
100
AcDbBlockBegin
  2
*D11
 70
               1
 10
0.0
 20
0.0
 30
0.0
  3
*D11
  1

  0
LINE
  5
BD
100
AcDbEntity
  8
0
370
              -2
390
0
  6
Continuous
 62
               0
100
AcDbLine
 10
-508.01224320268312
 20
-429.97312069039037
 30
0.0
 11
-508.01224320268312
 21
-204.97312069038855
 31
0.0
  0
LINE
  5
BE
100
AcDbEntity
  8
0
370
              -2
390
0
  6
Continuous
 62
               0
100
AcDbLine
 10
-313.01224320268312
 20
-429.97312069039037
 30
0.0
 11
-313.01224320268312
 21
-204.97312069038855
 31
0.0
  0
LINE
  5
BF
100
AcDbEntity
  8
0
370
              -2
390
0
  6
Continuous
 62
               0
100
AcDbLine
 10
-508.01224320268312
 20
-204.97312069038855
 30
0.0
 11
-313.01224320268312
 21
-204.97312069038855
 31
0.0
  0
CIRCLE
  5
C0
102
{ACAD_REACTORS
330
C1
102
}
100
AcDbEntity
  8
0
370
              -2
390
0
  6
Continuous
 62
               0
100
AcDbCircle
 10
-508.01224320268312
 20
-204.97312069038855
 30
0.0
 40
1.9998779296875
  0
HATCH
  5
C1
100
AcDbEntity
  8
0
370
              -2
390
0
  6
Continuous
 62
               0
100
AcDbHatch
 10
0.0
 20
0.0
 30
0.0
210
0.0
220
0.0
230
1.0
  2
SOLID
 70
               1
 71
               1
 91
        1
 92
        1
 93
        1
 72
               2
 10
-508.01224320268312
 20
-204.97312069038855
 40
1.9998779296875
 50
0.0
 51
360.0
 73
               0
 97
        1
330
C0
 75
               0
 76
               1
 98
        1
 10
0.0
 20
0.0
  0
CIRCLE
  5
C2
102
{ACAD_REACTORS
330
C3
102
}
100
AcDbEntity
  8
0
370
              -2
390
0
  6
Continuous
 62
               0
100
AcDbCircle
 10
-313.01224320268312
 20
-204.97312069038855
 30
0.0
 40
1.9998779296875
  0
HATCH
  5
C3
100
AcDbEntity
  8
0
370
              -2
390
0
  6
Continuous
 62
               0
100
AcDbHatch
 10
0.0
 20
0.0
 30
0.0
210
0.0
220
0.0
230
1.0
  2
SOLID
 70
               1
 71
               1
 91
        1
 92
        1
 93
        1
 72
               2
 10
-313.01224320268312
 20
-204.97312069038855
 40
1.9998779296875
 50
0.0
 51
360.0
 73
               0
 97
        1
330
C2
 75
               0
 76
               1
 98
        1
 10
0.0
 20
0.0
  0
MTEXT
  5
C4
100
AcDbEntity
  8
0
390
0
 62
               0
100
AcDbMText
 10
-434.3247448848586
 20
-171.09550350288856
 30
0.0
 40
24.432617187500004
 41
0.0
 71
               1
 72
               1
  1
195
  7
ＭＳ ゴシック
 73
               1
 44
0.7828267384257843
  0
POINT
  5
C5
100
AcDbEntity
  8
Defpoints
370
               0
390
0
 62
               0
100
AcDbPoint
 10
-313.01224320268312
 20
-454.97312069039037
 30
0.0
  0
POINT
  5
C6
100
AcDbEntity
  8
Defpoints
370
               0
390
0
 62
               0
100
AcDbPoint
 10
-508.01224320268312
 20
-454.97312069039037
 30
0.0
  0
POINT
  5
C7
100
AcDbEntity
  8
Defpoints
370
               0
390
0
 62
               0
100
AcDbPoint
 10
-508.01224320268312
 20
-204.97312069038855
 30
0.0
  0
ENDBLK
  5
C8
100
AcDbEntity
  8
notes
390
0
100
AcDbBlockEnd
  0
BLOCK
  5
C9
100
AcDbEntity
  8
notes
390
0
100
AcDbBlockBegin
  2
*D12
 70
               1
 10
0.0
 20
0.0
 30
0.0
  3
*D12
  1

  0
LINE
  5
CA
100
AcDbEntity
  8
0
370
              -2
390
0
  6
Continuous
 62
               0
100
AcDbLine
 10
806.45075655946835
 20
-397.59271090632944
 30
0.0
 11
918.67235970812658
 21
-397.59271090632944
 31
0.0
  0
LINE
  5
CB
100
AcDbEntity
  8
0
370
              -2
390
0
  6
Continuous
 62
               0
100
AcDbLine
 10
806.45075655945698
 20
-612.5649948528436
 30
0.0
 11
918.67235970812658
 21
-612.5649948528436
 31
0.0
  0
LINE
  5
CC
100
AcDbEntity
  8
0
370
              -2
390
0
  6
Continuous
 62
               0
100
AcDbLine
 10
918.67235970812658
 20
-397.59271090632944
 30
0.0
 11
918.67235970812658
 21
-612.5649948528436
 31
0.0
  0
CIRCLE
  5
CD
102
{ACAD_REACTORS
330
CE
102
}
100
AcDbEntity
  8
0
370
              -2
390
0
  6
Continuous
 62
               0
100
AcDbCircle
 10
918.67235970812658
 20
-397.59271090632944
 30
0.0
 40
1.9998779296875
  0
HATCH
  5
CE
100
AcDbEntity
  8
0
370
              -2
390
0
  6
Continuous
 62
               0
100
AcDbHatch
 10
0.0
 20
0.0
 30
0.0
210
0.0
220
0.0
230
1.0
  2
SOLID
 70
               1
 71
               1
 91
        1
 92
        1
 93
        1
 72
               2
 10
918.67235970812658
 20
-397.59271090632944
 40
1.9998779296875
 50
0.0
 51
360.0
 73
               0
 97
        1
330
CD
 75
               0
 76
               1
 98
        1
 10
0.0
 20
0.0
  0
CIRCLE
  5
CF
102
{ACAD_REACTORS
330
D0
102
}
100
AcDbEntity
  8
0
370
              -2
390
0
  6
Continuous
 62
               0
100
AcDbCircle
 10
918.67235970812658
 20
-612.5649948528436
 30
0.0
 40
1.9998779296875
  0
HATCH
  5
D0
100
AcDbEntity
  8
0
370
              -2
390
0
  6
Continuous
 62
               0
100
AcDbHatch
 10
0.0
 20
0.0
 30
0.0
210
0.0
220
0.0
230
1.0
  2
SOLID
 70
               1
 71
               1
 91
        1
 92
        1
 93
        1
 72
               2
 10
918.67235970812658
 20
-612.5649948528436
 40
1.9998779296875
 50
0.0
 51
360.0
 73
               0
 97
        1
330
CF
 75
               0
 76
               1
 98
        1
 10
0.0
 20
0.0
  0
MTEXT
  5
D1
100
AcDbEntity
  8
0
390
0
 62
               0
100
AcDbMText
 10
884.79474252062641
 20
-528.891354561762
 30
0.0
 40
24.432617187500004
 41
0.0
 71
               1
 72
               1
  1
215
  7
ＭＳ ゴシック
 11
0.0
 21
1.0
 31
0.0
 73
               1
 44
0.7828267384257843
  0
POINT
  5
D2
100
AcDbEntity
  8
Defpoints
370
               0
390
0
 62
               0
100
AcDbPoint
 10
781.45075655945698
 20
-612.5649948528436
 30
0.0
  0
POINT
  5
D3
100
AcDbEntity
  8
Defpoints
370
               0
390
0
 62
               0
100
AcDbPoint
 10
781.45075655946835
 20
-397.59271090632944
 30
0.0
  0
POINT
  5
D4
100
AcDbEntity
  8
Defpoints
370
               0
390
0
 62
               0
100
AcDbPoint
 10
918.67235970812658
 20
-397.59271090632944
 30
0.0
  0
ENDBLK
  5
D5
100
AcDbEntity
  8
notes
390
0
100
AcDbBlockEnd
  0
ENDSEC
  0
SECTION
  2
ENTITIES
  0
MTEXT
  5
D6
100
AcDbEntity
  8
1_10
390
0
 62
               7
100
AcDbMText
 10
-975.54675330803002
 20
-1130.4592941183091
 30
0.0
 40
16.288411458333332
 41
0.0
 71
               1
 72
               1
  1
品名
  7
ＭＳ ゴシック
 73
               1
 44
0.7828267384257843
  0
MTEXT
  5
D7
100
AcDbEntity
  8
1_10
390
0
 62
               7
100
AcDbMText
 10
-975.54675330803002
 20
-1215.4592941183091
 30
0.0
 40
16.288411458333332
 41
0.0
 71
               1
 72
               1
  1
仕様
  7
ＭＳ ゴシック
 73
               1
 44
0.7828267384257843
  0
MTEXT
  5
D8
100
AcDbEntity
  8
1_10
390
0
 62
               7
100
AcDbMText
 10
-922.54675330803002
 20
-1159.0417550558091
 30
0.0
 40
24.432617187500004
 41
0.0
 71
               1
 72
               1
  1
洗面器  -HATRIA,Sculture-
  7
ＭＳ ゴシック
 73
               1
 44
0.7828267384257843
  0
LINE
  5
D9
100
AcDbEntity
  8
1_10
370
               5
390
0
  6
Continuous
 62
               7
100
AcDbLine
 10
967.45324669148772
 20
-1207.044372243309
 30
0.0
 11
-982.54675330851205
 21
-1207.044372243309
 31
0.0
  0
LWPOLYLINE
  5
DA
100
AcDbEntity
  8
1_10
370
               5
390
0
  6
Continuous
 62
               7
100
AcDbPolyline
 90
        5
 70
             128
 10
967.45324669197021
 20
1422.955627756691
 10
-982.54675330803002
 20
1422.955627756691
 10
-982.54675330803002
 20
-1377.044372243309
 10
967.45324669197021
 20
-1377.044372243309
 10
967.45324669197021
 20
1422.955627756691
  0
LINE
  5
DB
100
AcDbEntity
  8
1_10
370
               5
390
0
  6
Continuous
 62
               7
100
AcDbLine
 10
967.45324669148772
 20
-1122.044372243309
 30
0.0
 11
-982.54675330851205
 21
-1122.044372243309
 31
0.0
  0
LINE
  5
DC
100
AcDbEntity
  8
1_10
370
               5
390
0
  6
Continuous
 62
               7
100
AcDbLine
 10
967.45324669197021
 20
-1292.044372243309
 30
0.0
 11
214.45324669197046
 21
-1292.044372243309
 31
0.0
  0
MTEXT
  5
DD
100
AcDbEntity
  8
1_10
390
0
 62
               7
100
AcDbMText
 10
-922.54675330803002
 20
-1243.9709879135123
 30
0.0
 40
23.830668697325656
 41
0.0
 71
               1
 72
               1
  1
壁掛け/オーバーフロー付き/壁取付ボルト付属/陶器/ホワイト\PNM
  7
ＭＳ ゴシック
 73
               1
 44
1.1593117977104697
  0
MTEXT
  5
DE
100
AcDbEntity
  8
1_10
390
0
 62
               7
100
AcDbMText
 10
-982.5467533078272
 20
-1388.898194300165
 30
0.0
 40
21.717881944444446
 41
0.0
 71
               1
 72
               1
  1
110928HS
  7
ＭＳ ゴシック
 73
               1
 44
0.7828267384257843
  0
MTEXT
  5
DF
100
AcDbEntity
  8
1_10
390
0
 62
               7
100
AcDbMText
 10
244.32465294423039
 20
-1321.9547667166157
 30
0.0
 40
24.432617187500004
 41
0.0
 71
               1
 72
               1
  1
大洋金物株式会社 ティーフォルム事業部
  7
ＭＳ ゴシック
 73
               1
 44
0.7828267384257843
  0
INSERT
  5
E0
100
AcDbEntity
  8
1_10
390
0
 62
               7
100
AcDbBlockReference
  2
グループ
 10
260.31715240104899
 20
-421.0152123911837
 30
0.0
  0
MTEXT
  5
E1
100
AcDbEntity
  8
1_10
390
0
 62
               7
100
AcDbMText
 10
776.45324669222964
 20
-1244.0417550558091
 30
0.0
 40
24.432617187500004
 41
0.0
 71
               1
 72
               1
  1
1:10
  7
ＭＳ ゴシック
 73
               1
 44
0.7828267384257843
  0
MTEXT
  5
E2
100
AcDbEntity
  8
1_10
390
0
 62
               7
100
AcDbMText
 10
723.45324669222964
 20
-1215.4592941183091
 30
0.0
 40
16.288411458333332
 41
0.0
 71
               1
 72
               1
  1
縮尺
  7
ＭＳ ゴシック
 73
               1
 44
0.7828267384257843
  0
LINE
  5
E3
100
AcDbEntity
  8
1_10
370
               5
390
0
  6
Continuous
 62
               7
100
AcDbLine
 10
716.45324669222964
 20
-1292.044372243309
 30
0.0
 11
716.45324669222964
 21
-1207.044372243309
 31
0.0
  0
MTEXT
  5
E4
100
AcDbEntity
  8
1_10
390
0
 62
               7
100
AcDbMText
 10
472.45324669222975
 20
-1215.4592941183091
 30
0.0
 40
16.288411458333332
 41
0.0
 71
               1
 72
               1
  1
容量
  7
ＭＳ ゴシック
 73
               1
 44
0.7828267384257843
  0
LINE
  5
E5
100
AcDbEntity
  8
1_10
370
               5
390
0
  6
Continuous
 62
               7
100
AcDbLine
 10
465.45324669222975
 20
-1292.044372243309
 30
0.0
 11
465.45324669222975
 21
-1207.044372243309
 31
0.0
  0
MTEXT
  5
E6
100
AcDbEntity
  8
1_10
390
0
 62
               7
100
AcDbMText
 10
221.45324669222967
 20
-1130.4592941183091
 30
0.0
 40
16.288411458333332
 41
0.0
 71
               1
 72
               1
  1
品番
  7
ＭＳ ゴシック
 73
               1
 44
0.7828267384257843
  0
MTEXT
  5
E7
100
AcDbEntity
  8
1_10
390
0
 62
               7
100
AcDbMText
 10
221.45324669222967
 20
-1215.4592941183091
 30
0.0
 40
16.288411458333332
 41
0.0
 71
               1
 72
               1
  1
重量
  7
ＭＳ ゴシック
 73
               1
 44
0.7828267384257843
  0
MTEXT
  5
E8
100
AcDbEntity
  8
1_10
390
0
 62
               7
100
AcDbMText
 10
274.4532466922297
 20
-1159.0417550558091
 30
0.0
 40
24.432617187500004
 41
0.0
 71
               1
 72
               1
  1
ABA70-0104
  7
ＭＳ ゴシック
 73
               1
 44
0.7828267384257843
  0
LINE
  5
E9
100
AcDbEntity
  8
1_10
370
               5
390
0
  6
Continuous
 62
               7
100
AcDbLine
 10
214.45324669222967
 20
-1377.044372243309
 30
0.0
 11
214.45324669222967
 21
-1122.044372243309
 31
0.0
  0
DIMENSION
  5
EA
100
AcDbEntity
  8
notes
370
               5
390
0
  6
Continuous
 62
               7
100
AcDbDimension
  2
*D3
 10
-800.50800489082121
 20
1075.2736118531914
 30
0.0
 11
-410.50800489082104
 21
1075.2736118531914
 31
0.0
 71
               5
 72
               1
 41
1.0
 42
0.0
  3
tfrom線あり
100
AcDbAlignedDimension
 13
-20.508004890820814
 23
563.4072623851655
 33
0.0
 14
-800.50800489082121
 24
562.47723335930823
 34
0.0
100
AcDbRotatedDimension
1001
ACAD
1000
DSTYLE
1002
{
1070
             279
1070
               2
1070
             340
1005
2E
1070
             147
1040
5.0
1002
}
  0
DIMENSION
  5
EB
100
AcDbEntity
  8
notes
370
               5
390
0
  6
Continuous
 62
               7
100
AcDbDimension
  2
*D4
 10
-551.79073501814128
 20
975.27361185319137
 30
0.0
 11
-414.29073501814133
 21
975.27361185319137
 31
0.0
 71
               5
 72
               1
 41
1.0
 42
0.0
  3
tfrom線あり
100
AcDbAlignedDimension
 13
-276.79073501814133
 23
875.27361185319137
 33
0.0
 14
-551.79073501814128
 24
875.27361185319137
 34
0.0
100
AcDbRotatedDimension
1001
ACAD
1000
DSTYLE
1002
{
1070
             279
1070
               2
1070
             340
1005
2E
1070
             147
1040
5.0
1002
}
  0
DIMENSION
  5
EC
100
AcDbEntity
  8
notes
370
               5
390
0
  6
Continuous
 62
               7
100
AcDbDimension
  2
*D5
 10
81.547178624859384
 20
875.27361185319137
 30
0.0
 11
81.547178624859384
 21
585.27361185319137
 31
0.0
 71
               5
 72
               1
 41
1.0
 42
0.0
  3
tfrom線あり
100
AcDbAlignedDimension
 13
-328.49617733453266
 23
295.27361185319137
 33
0.0
 14
-276.79073501814133
 24
875.27361185319137
 34
0.0
 50
90.0
100
AcDbRotatedDimension
1001
ACAD
1000
DSTYLE
1002
{
1070
             279
1070
               2
1070
             340
1005
2E
1070
             147
1040
5.0
1002
}
  0
DIMENSION
  5
ED
100
AcDbEntity
  8
notes
370
               5
390
0
  6
Continuous
 62
               7
100
AcDbDimension
  2
*D6
 10
-900.50800489082121
 20
835.27361185319137
 30
0.0
 11
-905.50800489082121
 21
566.0
 31
0.0
 70
             128
 71
               5
 72
               1
 41
1.0
 42
0.0
  3
tfrom線あり
100
AcDbAlignedDimension
 13
-601.79073501814128
 23
295.27361185319137
 33
0.0
 14
-601.79073501814128
 24
835.27361185319137
 34
0.0
 50
90.0
100
AcDbRotatedDimension
1001
ACAD
1000
DSTYLE
1002
{
1070
             279
1070
               2
1070
             340
1005
2E
1070
             147
1040
5.0
1002
}
  0
DIMENSION
  5
EE
100
AcDbEntity
  8
notes
370
               5
390
0
  6
Continuous
 62
               7
100
AcDbDimension
  2
*D7
 10
-745.50800489082121
 20
195.27361185319137
 30
0.0
 11
-410.50800489082127
 21
195.27361185319137
 31
0.0
 71
               5
 72
               1
 41
1.0
 42
0.0
  3
tfrom線あり
100
AcDbAlignedDimension
 13
-75.508004890821269
 23
420.47723335930823
 33
0.0
 14
-745.50800489082121
 24
420.47723335930823
 34
0.0
100
AcDbRotatedDimension
1001
ACAD
1000
DSTYLE
1002
{
1070
             279
1070
               2
1070
             340
1005
2E
1070
             147
1040
5.0
1002
}
  0
DIMENSION
  5
EF
100
AcDbEntity
  8
notes
370
               5
390
0
  6
Continuous
 62
               7
100
AcDbDimension
  2
*D8
 10
81.547178624859384
 20
-304.97312069039037
 30
0.0
 11
81.547178624859384
 21
-506.47312069039037
 31
0.0
 71
               5
 72
               1
 41
1.0
 42
0.0
  3
tfrom線あり
100
AcDbAlignedDimension
 13
-415.118307156002
 23
-707.97312069039037
 33
0.0
 14
-32.500415646394572
 24
-304.97312069039037
 34
0.0
 50
90.0
100
AcDbRotatedDimension
1001
ACAD
1000
DSTYLE
1002
{
1070
             279
1070
               2
1070
             340
1005
2E
1070
             147
1040
5.0
1002
}
  0
DIMENSION
  5
F0
100
AcDbEntity
  8
notes
370
               5
390
0
  6
Continuous
 62
               7
100
AcDbDimension
  2
*D9
 10
781.45075655946835
 20
-204.97312069038855
 30
0.0
 11
732.95075655946835
 21
-204.97312069038855
 31
0.0
 71
               5
 72
               1
 41
1.0
 42
0.0
  3
tfrom線あり
100
AcDbAlignedDimension
 13
684.45075655946823
 23
-305.0003128012055
 33
0.0
 14
781.45075655946835
 24
-397.59271090632944
 34
0.0
100
AcDbRotatedDimension
1001
ACAD
1000
DSTYLE
1002
{
1070
             279
1070
               2
1070
             340
1005
2E
1070
             147
1040
5.0
1002
}
  0
DIMENSION
  5
F1
100
AcDbEntity
  8
notes
370
               5
390
0
  6
Continuous
 62
               7
100
AcDbDimension
  2
*D10
 10
-900.50800489082121
 20
-474.97312069039037
 30
0.0
 11
-905.50800489082121
 21
-378.0
 31
0.0
 70
             128
 71
               5
 72
               1
 41
1.0
 42
0.0
  3
tfrom線あり
100
AcDbAlignedDimension
 13
-798.50193588053412
 23
-304.97312069039037
 33
0.0
 14
-528.01224320268307
 24
-474.97312069039037
 34
0.0
 50
90.0
100
AcDbRotatedDimension
1001
ACAD
1000
DSTYLE
1002
{
1070
             279
1070
               2
1070
             340
1005
2E
1070
             147
1040
5.0
1002
}
  0
DIMENSION
  5
F2
100
AcDbEntity
  8
notes
370
               5
390
0
  6
Continuous
 62
               7
100
AcDbDimension
  2
*D11
 10
-508.01224320268312
 20
-204.97312069038855
 30
0.0
 11
-410.51224320268312
 21
-204.97312069038855
 31
0.0
 71
               5
 72
               1
 41
1.0
 42
0.0
  3
tfrom線あり
100
AcDbAlignedDimension
 13
-313.01224320268312
 23
-454.97312069039037
 33
0.0
 14
-508.01224320268312
 24
-454.97312069039037
 34
0.0
100
AcDbRotatedDimension
1001
ACAD
1000
DSTYLE
1002
{
1070
             279
1070
               2
1070
             340
1005
2E
1070
             147
1040
5.0
1002
}
  0
DIMENSION
  5
F3
100
AcDbEntity
  8
notes
370
               5
390
0
  6
Continuous
 62
               7
100
AcDbDimension
  2
*D12
 10
918.67235970812658
 20
-397.59271090632944
 30
0.0
 11
918.67235970812658
 21
-505.07885287958652
 31
0.0
 71
               5
 72
               1
 41
1.0
 42
0.0
  3
tfrom線あり
100
AcDbAlignedDimension
 13
781.45075655945698
 23
-612.5649948528436
 33
0.0
 14
781.45075655946835
 24
-397.59271090632944
 34
0.0
 50
90.0
100
AcDbRotatedDimension
1001
ACAD
1000
DSTYLE
1002
{
1070
             279
1070
               2
1070
             340
1005
2E
1070
             147
1040
5.0
1002
}
  0
MTEXT
  5
F4
100
AcDbEntity
  8
notes
390
0
 62
               7
100
AcDbMText
 10
-194.93464811804631
 20
-216.88802203241409
 30
0.0
 40
24.432617187500004
 41
0.0
 71
               1
 72
               1
  1
壁取付ボルト穴(2ヶ所)
  7
ＭＳ ゴシック
 73
               1
 44
0.7828267384257843
  0
LINE
  5
F5
100
AcDbEntity
  8
notes
370
               5
390
0
  6
Continuous
 62
               7
100
AcDbLine
 10
-313.01224320268312
 20
-474.97312069039037
 30
0.0
 11
-178.50041564639457
 21
-248.01563921991408
 31
0.0
  0
SPLINE
  5
F6
100
AcDbEntity
  8
ABA70-0104
370
              15
390
0
  6
Continuous
 62
               7
100
AcDbSpline
210
0.0
220
0.0
230
1.0
 70
               8
 71
               2
 72
              19
 73
              16
 74
               0
 42
0.000001
 43
0.000001
 40
0.0
 40
0.0
 40
0.0
 40
1.0
 40
2.0
 40
3.0
 40
4.0
 40
4.0
 40
5.0
 40
6.0
 40
7.0
 40
7.0
 40
8.0
 40
9.0
 40
10.0
 40
11.0
 40
12.0
 40
12.0
 40
12.0
 10
-79.943891585096083
 20
534.82867823218589
 30
0.0
 10
-76.515062234747404
 20
563.03614669765852
 30
0.0
 10
-106.19586596086179
 20
609.79661273056922
 30
0.0
 10
-155.77962975475481
 20
645.76348239108415
 30
0.0
 10
-212.857897658686
 20
669.64061758672074
 30
0.0
 10
-240.0257365425287
 20
677.11508769202669
 30
0.0
 10
-299.63204033637982
 20
693.249169271646
 30
0.0
 10
-440.3679596636203
 20
703.52777666356747
 30
0.0
 10
-554.07142662488604
 20
686.63986095601217
 30
0.0
 10
-588.6145235994145
 20
677.11508769202669
 30
0.0
 10
-615.77834083488688
 20
669.64086012264602
 30
0.0
 10
-673.03512510336714
 20
645.9193660978101
 30
0.0
 10
-722.79593165792448
 20
609.87043152833326
 30
0.0
 10
-743.33430173962279
 20
576.79060663588211
 30
0.0
 10
-750.96585118642815
 20
550.61439351557169
 30
0.0
 10
-748.63250914550463
 20
534.82867823218226
 30
0.0
  0
CIRCLE
  5
F7
100
AcDbEntity
  8
ABA70-0104
370
              15
390
0
  6
Continuous
 62
               7
100
AcDbCircle
 10
-410.61655002710319
 20
534.76429935319106
 30
0.0
 40
24.0
  0
CIRCLE
  5
F8
100
AcDbEntity
  8
ABA70-0104
370
              15
390
0
  6
Continuous
 62
               7
100
AcDbCircle
 10
-410.5682996634801
 20
536.051876933004
 30
0.0
 40
55.0
  0
LWPOLYLINE
  5
F9
100
AcDbEntity
  8
ABA70-0104
370
              15
390
0
  6
Continuous
 62
               7
100
AcDbPolyline
 90
      126
 70
             128
 10
-748.63250914550281
 20
534.82867823218226
 42
0.0021070942470218
 10
-748.62845786478761
 20
533.8673394752708
 10
-748.6019885906162
 20
530.72691438409061
 42
0.0289971660300774
 10
-748.12220550046936
 20
523.51259063328632
 10
-747.7365490718314
 20
520.42807956184311
 42
0.0163514163180814
 10
-746.50525864169595
 20
512.65426034117377
 42
0.0161548010423107
 10
-744.771552207485
 20
504.97674856189246
 10
-744.75416178307842
 20
504.90987052459081
 42
0.0158741116107737
 10
-742.49355504013147
 20
497.22642099554594
 10
-742.46639270371998
 20
497.143872818727
 42
0.0154859404217183
 10
-739.6692298357375
 20
489.45376944925249
 10
-739.63089485026012
 20
489.3577430916605
 42
0.0151111831287207
 10
-736.28623197164848
 20
481.66334789699306
 10
-736.23614246095076
 20
481.55702511645018
 42
0.0146713233661509
 10
-732.33297058376797
 20
473.86564512575274
 10
-732.27086213576695
 20
473.75167185779014
 42
0.0142172329391285
 10
-727.79938665879467
 20
466.07406910384498
 10
-727.72540109803322
 20
465.95495535287432
 42
0.0137252872612932
 10
-722.67756349042224
 20
458.30488696954308
 10
-722.59261524131671
 20
458.18352869473824
 42
0.0132604166341474
 10
-716.96311989868218
 20
450.57866107720167
 10
-716.8678779998445
 20
450.45688892069234
 42
0.0127865108512332
 10
-710.65332037637859
 20
442.91675315928819
 10
-710.54895328091425
 20
442.79652479428046
 42
0.0122901565663258
 10
-703.74954463212043
 20
435.3420401499119
 10
-703.63757659623207
 20
435.22518688419609
 42
0.0118670709088475
 10
-696.25659913610571
 20
427.87935839036868
 10
-696.13810071066837
 20
427.76689402910984
 42
0.0114109647477111
 10
-688.18109758491687
 20
420.55296046514206
 10
-688.05761626813728
 20
420.44604149033171
 42
0.0109794124518933
 10
-679.53396799075449
 20
413.38707965512572
 10
-679.40697395965617
 20
413.28652583523422
 42
0.0106139829174985
 10
-670.3282447427157
 20
406.40639289343017
 10
-670.19889836900893
 20
406.3126250379139
 42
0.01033838299584
 10
-660.57735669682529
 20
399.63666468398299
 10
-657.84498580355375
 20
397.82331487975011
 42
0.0193595424541256
 10
-642.25269076189034
 20
388.32356429824858
 10
-642.05797653003901
 20
388.21503596658772
 42
0.0092641688701296
 10
-625.54510263026827
 20
379.40815683692301
 10
-625.16708113823552
 20
379.21545419819199
 42
0.017685695715449
 10
-607.44274362819579
 20
370.9562827928703
 10
-604.08510692334585
 20
369.53394635145946
 42
0.0167265049048176
 10
-579.03074465616123
 20
359.89561108438204
 10
-578.59119243416444
 20
359.74318730265554
 42
0.01594197856548
 10
-552.07180613794026
 20
351.48414077932273
 10
-549.31825978916663
 20
350.72197828295191
 42
0.0153968670511262
 10
-526.33037689579032
 20
345.11494546493418
 10
-521.10043414241864
 20
344.00869550747223
 42
0.009099852678845
 10
-508.35505944182302
 20
341.55419448470843
 10
-505.78627419896947
 20
341.10781811297863
 42
0.005811903373272
 10
-498.11937357948051
 20
339.86717268916095
 42
0.004765544116731
 10
-490.42777467482387
 20
338.78895981959613
 10
-490.27212864311065
 20
338.76865191032834
 42
0.0037832923751324
 10
-482.25150900732768
 20
337.78382376185812
 10
-478.28406176896539
 20
337.32711743450204
 42
0.0077077832879903
 10
-462.29656690256553
 20
335.7360371325268
 10
-459.63532861434493
 20
335.51255970127227
 42
0.0090206641980205
 10
-438.27545702713559
 20
334.10638728915615
 10
-436.68594485578893
 20
334.03051519416044
 42
0.0142968849798152
 10
-412.10824691842566
 20
333.56090312706976
 10
-409.20351882060248
 20
333.58846082733817
 42
0.0143186237702251
 10
-379.05730427862005
 20
334.73825770953977
 10
-374.29685424058385
 20
335.05652631331361
 42
0.0144608780577807
 10
-353.76148401561483
 20
337.02731082371542
 10
-350.14784205444226
 20
337.4799041528089
 42
0.0056704031089607
 10
-336.91729023745671
 20
339.2895951478788
 10
-336.15108296920852
 20
339.40326392872237
 42
0.0034860816534753
 10
-324.48611550984066
 20
341.21699835753884
 10
-322.64734676875463
 20
341.51604495632535
 42
0.0028526787064659
 10
-314.68022169141574
 20
342.85847290009156
 10
-314.61263670904572
 20
342.87025762151518
 42
0.003935300162981
 10
-306.7995628342133
 20
344.29606632258879
 10
-306.64148488371808
 20
344.32620145656767
 42
0.0055922178849116
 10
-299.17268445447286
 20
345.83677135492985
 42
0.0065799948787881
 10
-291.74304557937052
 20
347.52865638934861
 10
-289.27466243126588
 20
348.12503175035658
 42
0.009499982281284
 10
-276.99162924673209
 20
351.34084397106983
 10
-270.9829562027889
 20
353.03658126669472
 42
0.0160866886192658
 10
-251.02009179146904
 20
359.37036325314352
 10
-250.69956101670925
 20
359.48353142182884
 42
0.0082330105463185
 10
-231.69789395510912
 20
366.54631914971037
 10
-231.52122979800157
 20
366.61531545042385
 42
0.0173116234930267
 10
-213.2617646915142
 20
374.485405129931
 10
-210.08228195599656
 20
375.9883600065375
 42
0.0090435184340665
 10
-198.55754771649669
 20
381.69339676838558
 10
-198.43110251269695
 20
381.7588637781846
 42
0.0093015475940079
 10
-187.37386460089152
 20
387.74714851065096
 10
-187.24507459560829
 20
387.820027921563
 42
0.0095977502126301
 10
-176.67683147146278
 20
394.0711518841174
 10
-176.54680157035324
 20
394.15147295165389
 42
0.0099154622631272
 10
-166.48739503442818
 20
400.6443431299042
 10
-166.35717211356535
 20
400.73210196525702
 42
0.0102980545821803
 10
-156.82526417307332
 20
407.44530245783994
 10
-156.69621102595181
 20
407.54022830868973
 42
0.010656083973879
 10
-147.70800072536173
 20
414.45149813980447
 10
-147.58149239326309
 20
414.55313595308894
 42
0.0110517496130921
 10
-139.15025320231149
 20
421.63909281335623
 10
-139.02748311282255
 20
421.74699243943439
 42
0.0114983392715083
 10
-131.16488533399212
 20
428.98437024396139
 10
-131.04746760188618
 20
429.09754776005457
 42
0.0119093073200609
 10
-123.76162201973426
 20
436.46297143990364
 10
-123.65071172539348
 20
436.58056719524143
 42
0.0123895951217711
 10
-116.94727296103707
 20
444.05049401535803
 10
-116.84433084657468
 20
444.17108842917628
 42
0.0128646392055349
 10
-110.72625109443749
 20
451.72339754098834
 10
-110.63272878220846
 20
451.84511701326801
 42
0.0133220077521923
 10
-105.09893892596125
 20
459.45889556876978
 10
-105.01560543808887
 20
459.58022081154547
 42
0.0138226011351637
 10
-100.06305951199107
 20
467.2357577346213
 10
-99.991055327829031
 20
467.35410971760029
 42
0.0142868987833725
 10
-95.613713685686946
 20
475.034985782386
 10
-95.553635403855708
 20
475.14777787790001
 42
0.0147463209180348
 10
-91.742897503685583
 20
482.8405857337541
 10
-91.694692817350699
 20
482.94557135301
 42
0.0151630698116798
 10
-88.440676452898572
 20
490.63952559166796
 10
-88.404286989047762
 20
490.73340343282007
 42
0.0155767398540363
 10
-85.696037570294777
 20
498.42269830749251
 10
-85.670571972089476
 20
498.50288875382478
 42
0.0159208154359412
 10
-83.497546040882355
 20
506.18540483800848
 10
-83.481572163625401
 20
506.2496181615378
 42
0.0161646505169775
 10
-81.833423732476206
 20
513.92621524429637
 42
0.016448390017926
 10
-80.689115678067537
 20
521.69376397792632
 10
-80.545128720372361
 20
522.95834461310756
 42
0.0278624405730352
 10
-79.946633250558762
 20
533.32608585480261
 10
-79.944099602641529
 20
534.62390265355793
 42
0.0004682023182238
 10
-79.943891585096083
 20
534.82867823218226
 42
0.0004682023182238
  0
CIRCLE
  5
FA
100
AcDbEntity
  8
ABA70-0104
370
              15
390
0
  6
Continuous
 62
               7
100
AcDbCircle
 10
-410.50800489082127
 20
778.27361185319137
 30
0.0
 40
18.5
  0
LINE
  5
FB
100
AcDbEntity
  8
ABA70-0104
370
               9
390
0
  6
Continuous
 62
               7
100
AcDbLine
 10
-551.79073501814128
 20
875.27361185319137
 30
0.0
 11
-551.12335611580102
 21
816.96062548968735
 31
0.0
  0
LINE
  5
FC
100
AcDbEntity
  8
ABA70-0104
370
               9
390
0
  6
Continuous
 62
               7
100
AcDbLine
 10
-276.79073501814133
 20
875.27361185319137
 30
0.0
 11
-277.43127512500092
 21
818.95482588382697
 31
0.0
  0
LINE
  5
FD
100
AcDbEntity
  8
ABA70-0104
370
               9
390
0
  6
Continuous
 62
               7
100
AcDbLine
 10
-551.79073501814128
 20
875.27361185319137
 30
0.0
 11
-276.79073501814133
 21
875.27361185319137
 31
0.0
  0
LINE
  5
FE
100
AcDbEntity
  8
ABA70-0104
370
               9
390
0
  6
Continuous
 62
               7
100
AcDbLine
 10
-750.37864974939043
 20
-382.79887348222439
 30
0.0
 11
-638.89245708436761
 21
-436.16144607504395
 31
0.0
  0
LINE
  5
FF
100
AcDbEntity
  8
ABA70-0104
370
               9
390
0
  6
Continuous
 62
               7
100
AcDbLine
 10
-798.50193588053412
 20
-304.97312069039037
 30
0.0
 11
-32.259977529019466
 21
-304.97312069038674
 31
0.0
  0
LWPOLYLINE
  5
100
100
AcDbEntity
  8
ABA70-0104
370
               9
390
0
  6
Continuous
 62
               7
100
AcDbPolyline
 90
        2
 70
             128
 10
-803.45669446216311
 20
-310.50512105384371
 42
0.2678069152461359
 10
-750.37864974936133
 20
-382.79887348223531
 42
0.2678069152461359
  0
LWPOLYLINE
  5
101
100
AcDbEntity
  8
ABA70-0104
370
               9
390
0
  6
Continuous
 62
               7
100
AcDbPolyline
 90
        2
 70
             128
 10
-798.50193588053412
 20
-304.97312069039219
 42
0.4468049508493274
 10
-803.45669446217039
 20
-310.50512105384735
 42
0.4468049508493274
  0
LINE
  5
102
100
AcDbEntity
  8
ABA70-0104
370
               9
390
0
  6
Continuous
 62
               7
100
AcDbLine
 10
-541.69105451450127
 20
-546.75284909643563
 30
0.0
 11
-510.781532163642
 21
-636.17893210579791
 31
0.0
  0
LINE
  5
103
100
AcDbEntity
  8
ABA70-0104
370
              15
390
0
  6
Continuous
 62
               7
100
AcDbLine
 10
-288.54555979749722
 20
-546.75284909643744
 30
0.0
 11
-319.45508214836383
 21
-636.17893210579791
 31
0.0
  0
LWPOLYLINE
  5
104
100
AcDbEntity
  8
ABA70-0104
370
               9
390
0
  6
Continuous
 62
               7
100
AcDbPolyline
 90
        2
 70
             128
 10
-510.781532163642
 20
-636.17893210579791
 42
0.3328732380858279
 10
-415.118307156002
 20
-707.80262069039168
 42
0.3328732380858279
  0
LWPOLYLINE
  5
105
100
AcDbEntity
  8
ABA70-0104
370
               9
390
0
  6
Continuous
 62
               7
100
AcDbPolyline
 90
        2
 70
             128
 10
-415.118307156002
 20
-707.80262069039168
 42
0.332873238085829
 10
-319.45508214836383
 20
-636.17893210579791
 42
0.332873238085829
  0
LWPOLYLINE
  5
106
100
AcDbEntity
  8
ABA70-0104
370
               9
390
0
  6
Continuous
 62
               7
100
AcDbPolyline
 90
        2
 70
             128
 10
-288.5455597975045
 20
-546.75284909643563
 42
-0.2213091052187587
 10
-191.34415722764186
 20
-436.16144607504395
 42
-0.2213091052187587
  0
ARC
  5
107
100
AcDbEntity
  8
ABA70-0104
370
              15
390
0
  6
Continuous
 62
               7
100
AcDbCircle
 10
-121.13491603412274
 20
-595.8820190734001
 30
0.0
 40
174.47062500000763
100
AcDbArc
 50
113.72911137602257
 51
163.64488073906026
  0
LWPOLYLINE
  5
108
100
AcDbEntity
  8
ABA70-0104
370
               9
390
0
  6
Continuous
 62
               7
100
AcDbPolyline
 90
        2
 70
             128
 10
-541.69105451450173
 20
-546.75284909643437
 42
0.221309105218756
 10
-638.89245708436465
 20
-436.16144607504361
 42
0.221309105218756
  0
LINE
  5
109
100
AcDbEntity
  8
ABA70-0104
370
               9
390
0
  6
Continuous
 62
               7
100
AcDbLine
 10
-80.383263660163152
 20
-382.79887348222439
 30
0.0
 11
-191.34415722763822
 21
-436.16144607504395
 31
0.0
  0
LINE
  5
10A
100
AcDbEntity
  8
ABA70-0104
370
              15
390
0
  6
Continuous
 62
               7
100
AcDbLine
 10
-80.383263660155876
 20
-382.79887348222439
 30
0.0
 11
-191.34415722763822
 21
-436.16144607504395
 31
0.0
  0
LWPOLYLINE
  5
10B
100
AcDbEntity
  8
ABA70-0104
370
               9
390
0
  6
Continuous
 62
               7
100
AcDbPolyline
 90
        2
 70
             128
 10
-27.305218947390472
 20
-310.50512105384371
 42
-0.2678069152461395
 10
-80.383263660192256
 20
-382.79887348223531
 42
-0.2678069152461395
  0
ARC
  5
10C
100
AcDbEntity
  8
ABA70-0104
370
              15
390
0
  6
Continuous
 62
               7
100
AcDbCircle
 10
-116.49087341681786
 20
-300.65686451164004
 30
0.0
 40
89.727750000000754
100
AcDbArc
 50
293.72911137602307
 51
353.69868705537459
  0
LWPOLYLINE
  5
10D
100
AcDbEntity
  8
ABA70-0104
370
               9
390
0
  6
Continuous
 62
               7
100
AcDbPolyline
 90
        2
 70
             128
 10
-32.259977529018727
 20
-304.97312069039219
 42
-0.446804950849337
 10
-27.305218947383139
 20
-310.50512105384678
 42
-0.446804950849337
  0
ARC
  5
10E
100
AcDbEntity
  8
ABA70-0104
370
              15
390
0
  6
Continuous
 62
               7
100
AcDbCircle
 10
-32.259977529019466
 20
-309.95799569039229
 30
0.0
 40
4.9848749999997022
100
AcDbArc
 50
353.69868705537078
 51
90.0
  0
LINE
  5
10F
100
AcDbEntity
  8
ABA70-0104
370
              15
390
0
  6
Continuous
 62
               7
100
AcDbLine
 10
781.45075655945698
 20
-397.59271090633149
 30
0.0
 11
781.45075655945698
 21
-612.5649948528436
 31
0.0
  0
LWPOLYLINE
  5
110
100
AcDbEntity
  8
ABA70-0104
370
               9
390
0
  6
Continuous
 62
               7
100
AcDbPolyline
 90
        4
 70
             128
 10
516.63405848236937
 20
-499.67928562851665
 42
0.1541296270957947
 10
649.56767718008189
 20
-407.60543012931441
 42
-0.0349584466730842
 10
650.04721642488141
 20
-407.097801635363
 10
660.40512590737774
 20
-397.56468289791985
  0
LWPOLYLINE
  5
111
100
AcDbEntity
  8
ABA70-0104
370
               9
390
0
  6
Continuous
 62
               7
100
AcDbPolyline
 90
        2
 70
             128
 10
526.01002309476962
 20
-506.45690792093063
 42
0.0745733629826778
 10
630.90535782970028
 20
-444.41079474342263
 42
0.0745733629826778
  0
LWPOLYLINE
  5
112
100
AcDbEntity
  8
ABA70-0104
370
               5
390
0
  6
Continuous
 62
               7
100
AcDbPolyline
 90
        4
 70
             128
 10
516.56709067552504
 20
-700.60476518701819
 10
530.14889416306437
 20
-698.38529269666594
 42
0.1516521166943144
 10
596.90502779005567
 20
-665.06174714644624
 10
603.98845157572271
 20
-658.27509821462627
  0
LINE
  5
113
100
AcDbEntity
  8
ABA70-0104
370
               5
390
0
  6
Continuous
 62
               7
100
AcDbLine
 10
256.16978777269571
 20
-304.99474940459834
 30
0.0
 11
643.01236855988384
 21
-305.00887082897418
 31
0.0
  0
LINE
  5
114
100
AcDbEntity
  8
ABA70-0104
370
               9
390
0
  6
Continuous
 62
               7
100
AcDbLine
 10
391.42530184643476
 20
-626.34518828681917
 30
0.0
 11
365.04478638191642
 21
-528.13741761876304
 31
0.0
  0
LINE
  5
115
100
AcDbEntity
  8
ABA70-0104
370
               9
390
0
  6
Continuous
 62
               7
100
AcDbLine
 10
400.62050971020301
 20
-622.07557840237087
 30
0.0
 11
374.68395634570618
 21
-525.47538786514019
 31
0.0
  0
LINE
  5
116
100
AcDbEntity
  8
ABA70-0104
370
               9
390
0
  6
Continuous
 62
               7
100
AcDbLine
 10
515.63228398263448
 20
-695.75844750705494
 30
0.0
 11
517.5018973684156
 21
-705.45108286697962
 31
0.0
  0
LWPOLYLINE
  5
117
100
AcDbEntity
  8
ABA70-0104
370
               9
390
0
  6
Continuous
 62
               7
100
AcDbPolyline
 90
        4
 70
             128
 10
391.42530184643476
 20
-626.34518828681917
 10
394.24828733745835
 20
-635.20727257344333
 42
0.3803406886867581
 10
513.79963974381531
 20
-706.1443073576969
 10
517.49742738629277
 20
-705.42790914180171
  0
LWPOLYLINE
  5
118
100
AcDbEntity
  8
ABA70-0104
370
               9
390
0
  6
Continuous
 62
               7
100
AcDbPolyline
 90
        4
 70
             128
 10
400.62050971020301
 20
-622.07557840237087
 10
403.99719527466084
 20
-632.4060054019219
 42
0.3763268996068387
 10
512.04939010761859
 20
-696.44479584169824
 10
515.63533214975462
 20
-695.77425011769503
  0
LWPOLYLINE
  5
119
100
AcDbEntity
  8
ABA70-0104
370
               9
390
0
  6
Continuous
 62
               7
100
AcDbPolyline
 90
        3
 70
             128
 10
365.04478638191642
 20
-528.13741761876304
 42
0.1647643674671703
 10
298.39041511304021
 20
-431.88427987240891
 10
297.34850965279816
 20
-431.11090759734827
  0
LWPOLYLINE
  5
11A
100
AcDbEntity
  8
ABA70-0104
370
               9
390
0
  6
Continuous
 62
               7
100
AcDbPolyline
 90
        3
 70
             128
 10
374.68395634570618
 20
-525.47538786514019
 42
0.1646618058505533
 10
304.49125195574942
 20
-423.96237976484946
 10
303.45032119957955
 20
-423.18828834311273
  0
LINE
  5
11B
100
AcDbEntity
  8
ABA70-0104
370
               9
390
0
  6
Continuous
 62
               7
100
AcDbLine
 10
279.51957954124839
 20
-378.54937532757606
 30
0.0
 11
369.62436928778618
 21
-437.60353982758454
 31
0.0
  0
LINE
  5
11C
100
AcDbEntity
  8
ABA70-0104
370
               9
390
0
  6
Continuous
 62
               7
100
AcDbLine
 10
283.99723939876014
 20
-369.60786750168802
 30
0.0
 11
374.10202914528702
 21
-428.66203200169105
 31
0.0
  0
LWPOLYLINE
  5
11D
100
AcDbEntity
  8
ABA70-0104
370
               9
390
0
  6
Continuous
 62
               7
100
AcDbPolyline
 90
        2
 70
             128
 10
213.2094126769459
 20
-321.3100413129024
 42
0.1886987289684452
 10
245.89571051926183
 20
-371.45150913334248
 42
0.1886987289684452
  0
LWPOLYLINE
  5
11E
100
AcDbEntity
  8
ABA70-0104
370
               9
390
0
  6
Continuous
 62
               7
100
AcDbPolyline
 90
        2
 70
             128
 10
252.43497615896666
 20
-319.02540548255706
 42
0.2652895646634847
 10
279.51957954124691
 20
-378.54937532757498
 42
0.2652895646634847
  0
LWPOLYLINE
  5
11F
100
AcDbEntity
  8
ABA70-0104
370
               9
390
0
  6
Continuous
 62
               7
100
AcDbPolyline
 90
        2
 70
             128
 10
218.08249557763494
 20
-315.19063832783024
 42
0.4820042753873119
 10
213.20941267694226
 20
-321.31004131290422
 42
0.4820042753873119
  0
LWPOLYLINE
  5
120
100
AcDbEntity
  8
ABA70-0104
370
               9
390
0
  6
Continuous
 62
               7
100
AcDbPolyline
 90
        2
 70
             128
 10
201.568921674623
 20
-310.28692568324936
 42
0.2164956758307172
 10
236.37583018833607
 20
-375.84338264708856
 42
0.2164956758307172
  0
LWPOLYLINE
  5
121
100
AcDbEntity
  8
ABA70-0104
370
               9
390
0
  6
Continuous
 62
               7
100
AcDbPolyline
 90
        2
 70
             128
 10
261.1480704745419
 20
-309.52923749226022
 42
0.2931613522053276
 10
283.99723939876014
 20
-369.60786750168802
 42
0.2931613522053276
  0
LINE
  5
122
100
AcDbEntity
  8
ABA70-0104
370
               9
390
0
  6
Continuous
 62
               7
100
AcDbLine
 10
236.37583018830057
 20
-375.84338264706014
 30
0.0
 11
297.34850965287455
 21
-431.11090759740648
 31
0.0
  0
LINE
  5
123
100
AcDbEntity
  8
ABA70-0104
370
               9
390
0
  6
Continuous
 62
               7
100
AcDbLine
 10
245.89571051926183
 20
-371.4515091333443
 30
0.0
 11
303.45032119965595
 21
-423.18828834317458
 31
0.0
  0
LWPOLYLINE
  5
124
100
AcDbEntity
  8
ABA70-0104
370
               9
390
0
  6
Continuous
 62
               7
100
AcDbPolyline
 90
        2
 70
             128
 10
252.4349761589628
 20
-319.02540548253643
 42
0.3581569470503621
 10
247.52983881524199
 20
-314.99474940459834
 42
0.3581569470503621
  0
LINE
  5
125
100
AcDbEntity
  8
ABA70-0104
370
               9
390
0
  6
Continuous
 62
               7
100
AcDbLine
 10
218.46942131812349
 20
-315.20563196160089
 30
0.0
 11
247.52983881524156
 21
-314.99474940459834
 31
0.0
  0
LWPOLYLINE
  5
126
100
AcDbEntity
  8
ABA70-0104
370
               9
390
0
  6
Continuous
 62
               7
100
AcDbPolyline
 90
        2
 70
             128
 10
206.54431559769884
 20
-304.99474940459834
 42
0.4323985327951601
 10
201.56892167462294
 20
-310.28692568321378
 42
0.4323985327951601
  0
LINE
  5
127
100
AcDbEntity
  8
ABA70-0104
370
               9
390
0
  6
Continuous
 62
               7
100
AcDbLine
 10
206.54431559769884
 20
-304.99474940459834
 30
0.0
 11
256.16978777269571
 21
-304.99474940459834
 31
0.0
  0
LWPOLYLINE
  5
128
100
AcDbEntity
  8
ABA70-0104
370
               9
390
0
  6
Continuous
 62
               7
100
AcDbPolyline
 90
        2
 70
             128
 10
261.14807047454735
 20
-309.52923749234208
 42
0.3871612483594477
 10
256.16978777269571
 20
-304.99474940459834
 42
0.3871612483594477
  0
LINE
  5
129
100
AcDbEntity
  8
ABA70-0104
370
              15
390
0
  6
Continuous
 62
               7
100
AcDbLine
 10
213.85172669101772
 20
-304.99474940459834
 30
0.0
 11
256.16978777269571
 21
-304.99474940459834
 31
0.0
  0
LWPOLYLINE
  5
12A
100
AcDbEntity
  8
ABA70-0104
370
               9
390
0
  6
Continuous
 62
               7
100
AcDbPolyline
 90
        2
 70
             128
 10
551.02209960913524
 20
-460.75110158846309
 42
0.1510880040121476
 10
553.29569736215967
 20
-458.86463387429461
 42
0.1510880040121476
  0
LINE
  5
12B
100
AcDbEntity
  8
ABA70-0104
370
               9
390
0
  6
Continuous
 62
               7
100
AcDbLine
 10
461.62898707467241
 20
-478.33598779620945
 30
0.0
 11
461.62898707467241
 21
-514.99509460661216
 31
0.0
  0
LINE
  5
12C
100
AcDbEntity
  8
ABA70-0104
370
               9
390
0
  6
Continuous
 62
               7
100
AcDbLine
 10
451.62898707466877
 20
-485.01777417540069
 30
0.0
 11
451.62898707467241
 21
-514.99509460661216
 31
0.0
  0
LINE
  5
12D
100
AcDbEntity
  8
ABA70-0104
370
               5
390
0
  6
Continuous
 62
               7
100
AcDbLine
 10
461.62898707467241
 20
-514.99509460661216
 30
0.0
 11
516.63405848237301
 21
-514.99509460661216
 31
0.0
  0
LINE
  5
12E
100
AcDbEntity
  8
ABA70-0104
370
               9
390
0
  6
Continuous
 62
               7
100
AcDbLine
 10
516.63405848236937
 20
-499.67928562851665
 30
0.0
 11
516.63405848237301
 21
-514.99509460661216
 31
0.0
  0
LINE
  5
12F
100
AcDbEntity
  8
ABA70-0104
370
               9
390
0
  6
Continuous
 62
               7
100
AcDbLine
 10
451.62898707467241
 20
-514.99509460661216
 30
0.0
 11
461.62898707467241
 21
-514.99509460661216
 31
0.0
  0
LWPOLYLINE
  5
130
100
AcDbEntity
  8
ABA70-0104
370
               9
390
0
  6
Continuous
 62
               7
100
AcDbPolyline
 90
        2
 70
             128
 10
413.57251255125766
 20
-462.49828349479816
 42
0.0813686796143536
 10
369.62436928778664
 20
-437.60353982758471
 42
0.0813686796143536
  0
LWPOLYLINE
  5
131
100
AcDbEntity
  8
ABA70-0104
370
               9
390
0
  6
Continuous
 62
               7
100
AcDbPolyline
 90
        2
 70
             128
 10
422.62707959022657
 20
-458.25389711549826
 42
0.1153214612254284
 10
374.10202914528702
 20
-428.66203200168741
 42
0.1153214612254284
  0
LINE
  5
132
100
AcDbEntity
  8
ABA70-0104
370
               9
390
0
  6
Continuous
 62
               7
100
AcDbLine
 10
448.5424042364931
 20
-480.39837651284245
 30
0.0
 11
421.41411162426732
 21
-469.98989691358031
 31
0.0
  0
LINE
  5
133
100
AcDbEntity
  8
ABA70-0104
370
               9
390
0
  6
Continuous
 62
               7
100
AcDbLine
 10
458.54240423649674
 20
-473.71659013364945
 30
0.0
 11
425.24094594791598
 21
-460.75110158846758
 31
0.0
  0
LWPOLYLINE
  5
134
100
AcDbEntity
  8
ABA70-0104
370
               9
390
0
  6
Continuous
 62
               7
100
AcDbPolyline
 90
        2
 70
             128
 10
422.6270795902484
 20
-458.2538971155401
 42
0.1870765568599658
 10
425.24094594791234
 20
-460.75110158846394
 42
0.1870765568599658
  0
LWPOLYLINE
  5
135
100
AcDbEntity
  8
ABA70-0104
370
               9
390
0
  6
Continuous
 62
               7
100
AcDbPolyline
 90
        2
 70
             128
 10
413.57251255125732
 20
-462.49828349479787
 42
0.1870765568598408
 10
421.41411162424913
 20
-469.98989691357303
 42
0.1870765568598408
  0
LINE
  5
136
100
AcDbEntity
  8
ABA70-0104
370
               5
390
0
  6
Continuous
 62
               7
100
AcDbLine
 10
460.92144474304871
 20
-474.97962440459844
 30
0.0
 11
517.34160081399671
 21
-474.97962440459844
 31
0.0
  0
LINE
  5
137
100
AcDbEntity
  8
ABA70-0104
370
               9
390
0
  6
Continuous
 62
               7
100
AcDbLine
 10
516.63405848237301
 20
-478.33598779620945
 30
0.0
 11
516.63405848237301
 21
-485.71498762529444
 31
0.0
  0
LWPOLYLINE
  5
138
100
AcDbEntity
  8
ABA70-0104
370
               9
390
0
  6
Continuous
 62
               7
100
AcDbPolyline
 90
        2
 70
             128
 10
519.72064132054106
 20
-473.71659013365502
 42
0.3033466836069452
 10
516.63405848237301
 20
-478.335987796209
 42
0.3033466836069452
  0
LWPOLYLINE
  5
139
100
AcDbEntity
  8
ABA70-0104
370
               9
390
0
  6
Continuous
 62
               7
100
AcDbPolyline
 90
        2
 70
             128
 10
451.62898707466877
 20
-485.01777417540018
 42
0.3033466836069474
 10
448.54240423650072
 20
-480.3983765128462
 42
0.3033466836069474
  0
LWPOLYLINE
  5
13A
100
AcDbEntity
  8
ABA70-0104
370
               9
390
0
  6
Continuous
 62
               7
100
AcDbPolyline
 90
        2
 70
             128
 10
461.62898707467241
 20
-478.335987796209
 42
0.3033466836069459
 10
458.54240423650435
 20
-473.71659013365502
 42
0.3033466836069459
  0
LINE
  5
13B
100
AcDbEntity
  8
ABA70-0104
370
               9
390
0
  6
Continuous
 62
               7
100
AcDbLine
 10
526.01002309476746
 20
-514.99509460661216
 30
0.0
 11
516.63405848237301
 21
-514.99509460661216
 31
0.0
  0
LINE
  5
13C
100
AcDbEntity
  8
ABA70-0104
370
               9
390
0
  6
Continuous
 62
               7
100
AcDbLine
 10
526.01002309476746
 20
-506.45690792093154
 30
0.0
 11
526.01002309476746
 21
-514.99509460661216
 31
0.0
  0
LINE
  5
13D
100
AcDbEntity
  8
ABA70-0104
370
              15
390
0
  6
Continuous
 62
               7
100
AcDbLine
 10
548.45065944922237
 20
-459.97962440459844
 30
0.0
 11
428.67909740378593
 21
-459.97962440459844
 31
0.0
  0
LINE
  5
13E
100
AcDbEntity
  8
ABA70-0104
370
               9
390
0
  6
Continuous
 62
               7
100
AcDbLine
 10
519.72064132054868
 20
-473.71659013364945
 30
0.0
 11
551.02209960912944
 21
-460.75110158846758
 31
0.0
  0
LINE
  5
13F
100
AcDbEntity
  8
ABA70-0104
370
               9
390
0
  6
Continuous
 62
               7
100
AcDbLine
 10
516.63405848237301
 20
-485.8190166095348
 30
0.0
 11
554.8489339327781
 21
-469.98989691358031
 31
0.0
  0
LWPOLYLINE
  5
140
100
AcDbEntity
  8
ABA70-0104
370
               5
390
0
  6
Continuous
 62
               7
100
AcDbPolyline
 90
        2
 70
             128
 10
781.45075655945288
 20
-612.56499485284371
 42
0.0689316669109433
 10
660.1637889504716
 20
-631.76538325348474
 42
0.0689316669109433
  0
LWPOLYLINE
  5
141
100
AcDbEntity
  8
ABA70-0104
370
               5
390
0
  6
Continuous
 62
               7
100
AcDbPolyline
 90
        2
 70
             128
 10
660.1637889505356
 20
-631.76538325346439
 42
0.0772107849815455
 10
604.91493130646552
 20
-658.94554914772118
 42
0.0772107849815455
  0
LWPOLYLINE
  5
142
100
AcDbEntity
  8
ABA70-0104
370
               9
390
0
  6
Continuous
 62
               7
100
AcDbPolyline
 90
        2
 70
             128
 10
781.45075655945698
 20
-397.59271090633149
 42
0.0090760404677892
 10
710.06014779300233
 20
-410.99009672452041
 42
0.0090760404677892
  0
LWPOLYLINE
  5
143
100
AcDbEntity
  8
ABA70-0104
370
               9
390
0
  6
Continuous
 62
               7
100
AcDbPolyline
 90
        2
 70
             128
 10
781.78507383673718
 20
-406.66410942813957
 42
0.0093681731591619
 10
709.29025562738127
 20
-420.34660385896052
 42
0.0093681731591619
  0
LWPOLYLINE
  5
144
100
AcDbEntity
  8
ABA70-0104
370
               9
390
0
  6
Continuous
 62
               7
100
AcDbPolyline
 90
        2
 70
             128
 10
732.08788156192247
 20
-345.0665443320446
 42
0.0991355005100784
 10
741.2952489602302
 20
-310.27285234577397
 42
0.0991355005100784
  0
LWPOLYLINE
  5
145
100
AcDbEntity
  8
ABA70-0104
370
               9
390
0
  6
Continuous
 62
               7
100
AcDbPolyline
 90
        2
 70
             128
 10
723.0552285835422
 20
-340.68982556820367
 42
0.0677249860583813
 10
730.26827480163251
 20
-320.54106840476481
 42
0.0677249860583813
  0
LWPOLYLINE
  5
146
100
AcDbEntity
  8
ABA70-0104
370
               9
390
0
  6
Continuous
 62
               7
100
AcDbPolyline
 90
        2
 70
             128
 10
730.26827480163229
 20
-320.54106840475839
 42
0.3581569470503651
 10
725.36313745791153
 20
-316.5104123268203
 42
0.3581569470503651
  0
LWPOLYLINE
  5
147
100
AcDbEntity
  8
ABA70-0104
370
               9
390
0
  6
Continuous
 62
               7
100
AcDbPolyline
 90
        2
 70
             128
 10
710.06014779299869
 20
-410.99009672450586
 42
0.355746280263297
 10
709.26240001559484
 20
-411.96943019092828
 42
0.355746280263297
  0
LINE
  5
148
100
AcDbEntity
  8
ABA70-0104
370
               9
390
0
  6
Continuous
 62
               7
100
AcDbLine
 10
709.26240001559484
 20
-411.96943019092862
 30
0.0
 11
709.2624000155912
 21
-420.34660385896052
 31
0.0
  0
LINE
  5
149
100
AcDbEntity
  8
ABA70-0104
370
               9
390
0
  6
Continuous
 62
               7
100
AcDbLine
 10
723.97075727034303
 20
-340.40421091760902
 30
0.0
 11
732.01543811259603
 21
-345.0249340890233
 31
0.0
  0
LINE
  5
14A
100
AcDbEntity
  8
ABA70-0104
370
               9
390
0
  6
Continuous
 62
               7
100
AcDbLine
 10
704.84769751758643
 20
-316.55463750806769
 30
0.0
 11
725.58161426684615
 21
-316.51518781895737
 31
0.0
  0
LWPOLYLINE
  5
14B
100
AcDbEntity
  8
ABA70-0104
370
               9
390
0
  6
Continuous
 62
               7
100
AcDbPolyline
 90
        2
 70
             128
 10
741.2952489602269
 20
-310.27285234576914
 42
0.4315595002905756
 10
736.31900578488626
 20
-304.99474940459288
 42
0.4315595002905756
  0
LINE
  5
14C
100
AcDbEntity
  8
ABA70-0104
370
               9
390
0
  6
Continuous
 62
               7
100
AcDbLine
 10
704.84769751758643
 20
-304.99474940459288
 30
0.0
 11
736.31900578488626
 21
-304.99474940459288
 31
0.0
  0
LWPOLYLINE
  5
14D
100
AcDbEntity
  8
ABA70-0104
370
               9
390
0
  6
Continuous
 62
               7
100
AcDbPolyline
 90
        2
 70
             128
 10
664.84769751758643
 20
-316.79209399359127
 42
0.2477012522300278
 10
650.61998215110282
 20
-322.93802204292035
 42
0.2477012522300278
  0
LWPOLYLINE
  5
14E
100
AcDbEntity
  8
ABA70-0104
370
               9
390
0
  6
Continuous
 62
               7
100
AcDbPolyline
 90
        2
 70
             128
 10
553.29569736216138
 20
-458.86463387429205
 42
0.3015361539155341
 10
638.03697463680794
 20
-310.30104710758962
 42
0.3015361539155341
  0
LWPOLYLINE
  5
14F
100
AcDbEntity
  8
ABA70-0104
370
               9
390
0
  6
Continuous
 62
               7
100
AcDbPolyline
 90
        2
 70
             128
 10
554.84893393277912
 20
-469.9898969135798
 42
0.2776959239162375
 10
650.61998215110646
 20
-322.9380220429228
 42
0.2776959239162375
  0
LINE
  5
150
100
AcDbEntity
  8
ABA70-0104
370
               9
390
0
  6
Continuous
 62
               7
100
AcDbLine
 10
646.95172797603584
 20
-427.15914942730626
 30
0.0
 11
669.34009007853012
 21
-402.93194350487568
 31
0.0
  0
LWPOLYLINE
  5
151
100
AcDbEntity
  8
ABA70-0104
370
               9
390
0
  6
Continuous
 62
               7
100
AcDbPolyline
 90
        2
 70
             128
 10
670.34152707119131
 20
-431.16180524349431
 42
0.053285991233785
 10
630.90535782970176
 20
-444.41079474342143
 42
0.053285991233785
  0
LINE
  5
152
100
AcDbEntity
  8
ABA70-0104
370
               9
390
0
  6
Continuous
 62
               7
100
AcDbLine
 10
646.95172797603584
 20
-427.15914942730626
 30
0.0
 11
669.11381377559439
 21
-422.205905732818
 31
0.0
  0
LWPOLYLINE
  5
153
100
AcDbEntity
  8
ABA70-0104
370
               9
390
0
  6
Continuous
 62
               7
100
AcDbPolyline
 90
        2
 70
             128
 10
670.34152707119131
 20
-423.17963395722575
 42
0.4832169400837446
 10
669.11381377559439
 20
-422.205905732818
 42
0.4832169400837446
  0
LINE
  5
154
100
AcDbEntity
  8
ABA70-0104
370
               9
390
0
  6
Continuous
 62
               7
100
AcDbLine
 10
670.34152707119495
 20
-423.17963395722575
 30
0.0
 11
670.34152707119131
 21
-431.16180524349431
 31
0.0
  0
LINE
  5
155
100
AcDbEntity
  8
ABA70-0104
370
               9
390
0
  6
Continuous
 62
               7
100
AcDbLine
 10
660.40512590737774
 20
-397.56468289791985
 30
0.0
 11
669.34009007853012
 21
-402.93194350487568
 31
0.0
  0
LINE
  5
156
100
AcDbEntity
  8
ABA70-0104
370
               9
390
0
  6
Continuous
 62
               7
100
AcDbLine
 10
643.01236855988384
 20
-305.00887082897418
 30
0.0
 11
664.84769751758643
 21
-305.00565966142779
 31
0.0
  0
LWPOLYLINE
  5
157
100
AcDbEntity
  8
ABA70-0104
370
               9
390
0
  6
Continuous
 62
               7
100
AcDbPolyline
 90
        2
 70
             128
 10
643.01236855988384
 20
-305.00887082897418
 42
0.4323985327951583
 10
638.03697463680794
 20
-310.30104710758962
 42
0.4323985327951583
  0
LWPOLYLINE
  5
158
100
AcDbEntity
  8
ABA70-0104
370
               5
390
0
  6
Continuous
 62
               7
100
AcDbPolyline
 90
        4
 70
             128
 10
710.06014779299869
 20
-410.99009672450586
 10
710.06014779297811
 20
-410.99009672451069
 42
0.0238150470353926
 10
669.96293140995226
 20
-422.39614391401278
 10
669.96293140993214
 20
-422.39614391401949
  0
LINE
  5
159
100
AcDbEntity
  8
ABA70-0104
370
               5
390
0
  6
Continuous
 62
               7
100
AcDbLine
 10
732.01543811259603
 20
-345.0249340890233
 30
0.0
 11
669.34009007853012
 21
-402.93194350487386
 31
0.0
  0
LINE
  5
15A
100
AcDbEntity
  8
ABA70-0104
370
               5
390
0
  6
Continuous
 62
               7
100
AcDbLine
 10
664.84769751758643
 20
-316.81861905784638
 30
0.0
 11
704.84769751758643
 21
-316.54844482720648
 31
0.0
  0
LINE
  5
15B
100
AcDbEntity
  8
ABA70-0104
370
               5
390
0
  6
Continuous
 62
               7
100
AcDbLine
 10
704.84769751758643
 20
-304.99474940459288
 30
0.0
 11
664.84769751758643
 21
-305.00565966142779
 31
0.0
  0
LINE
  5
15C
100
AcDbEntity
  8
ABA70-0104
370
               9
390
0
  6
Continuous
 62
               7
100
AcDbLine
 10
781.45075655945698
 20
-406.72165627410243
 30
0.0
 11
781.45075655945698
 21
-397.59271090633149
 31
0.0
  0
LINE
  5
15D
100
AcDbEntity
  8
ABA70-0104
370
              15
390
0
  6
Continuous
 62
               7
100
AcDbLine
 10
781.45075655945698
 20
-406.72165627410243
 30
0.0
 11
781.45075655945698
 21
-612.5649948528436
 31
0.0
  0
ARC
  5
15E
100
AcDbEntity
  8
ABA70-0104
370
              15
390
0
  6
Continuous
 62
               7
100
AcDbCircle
 10
-462.61365582011905
 20
-451.90062977533819
 30
0.0
 40
5.0000000000004325
100
AcDbArc
 50
213.13311138394306
 51
247.49999999992659
  0
LWPOLYLINE
  5
15F
100
AcDbEntity
  8
ABA70-0104
370
               5
390
0
  6
Continuous
 62
               7
100
AcDbPolyline
 90
        3
 70
             128
 10
-466.80067073496076
 20
-454.63355972373176
 10
-466.80067073495803
 20
-454.63355972373597
 42
0.1510880040112915
 10
-464.52707298194667
 20
-456.52002743789137
 42
0.1510880040112915
  0
LWPOLYLINE
  5
160
100
AcDbEntity
  8
ABA70-0104
370
               5
390
0
  6
STYLE_01
 62
               7
100
AcDbPolyline
 90
        3
 70
             128
 10
-466.80067073496986
 20
-454.63355972372875
 42
0.1975880214926791
 10
-503.51758588516913
 20
-428.04070705226047
 10
-503.51758588517379
 20
-428.04070705225934
  0
LINE
  5
161
100
AcDbEntity
  8
ABA70-0104
370
              15
390
0
  6
STYLE_01
 62
               7
100
AcDbLine
 10
-466.80067073496804
 20
-454.63355972377906
 30
0.0
 11
-348.4723215675852
 21
-454.63355972373176
 31
0.0
  0
LINE
  5
162
100
AcDbEntity
  8
ABA70-0104
370
               5
390
0
  6
STYLE_01
 62
               7
100
AcDbLine
 10
-375.38755359382714
 20
-514.59883838996359
 30
0.0
 11
-375.38769645162694
 21
-476.93788943546463
 31
0.0
  0
LWPOLYLINE
  5
163
100
AcDbEntity
  8
ABA70-0104
370
               5
390
0
  6
STYLE_01
 62
               7
100
AcDbPolyline
 90
        2
 70
             128
 10
-384.253942021863
 20
-476.93788943546463
 42
-0.4770458879009374
 10
-382.0473776091797
 20
-469.48551598308006
 42
-0.4770458879009374
  0
LINE
  5
164
100
AcDbEntity
  8
ABA70-0104
370
              15
390
0
  6
STYLE_01
 62
               7
100
AcDbLine
 10
-382.04737760905601
 20
-469.48551598307824
 30
0.0
 11
-350.74591932047525
 21
-456.52002743789637
 31
0.0
  0
LINE
  5
165
100
AcDbEntity
  8
ABA70-0104
370
               5
390
0
  6
STYLE_01
 62
               7
100
AcDbLine
 10
-382.04737760906329
 20
-469.48551598307824
 30
0.0
 11
-350.74591932048253
 21
-456.52002743789637
 31
0.0
  0
LINE
  5
166
100
AcDbEntity
  8
ABA70-0104
370
               5
390
0
  6
STYLE_01
 62
               7
100
AcDbLine
 10
-382.04737760918698
 20
-469.48551598307824
 30
0.0
 11
-350.74591932060622
 21
-456.52002743789637
 31
0.0
  0
LWPOLYLINE
  5
167
100
AcDbEntity
  8
ABA70-0104
370
               5
390
0
  6
Continuous
 62
               7
100
AcDbPolyline
 90
        2
 70
             128
 10
-348.47232156759225
 20
-454.63355972373148
 42
-0.1510880040116172
 10
-350.74591932060895
 20
-456.5200274378924
 42
-0.1510880040116172
  0
LWPOLYLINE
  5
168
100
AcDbEntity
  8
ABA70-0104
370
               5
390
0
  6
STYLE_01
 62
               7
100
AcDbPolyline
 90
        3
 70
             128
 10
-348.47232156758315
 20
-454.63355972372858
 42
-0.1975880214926829
 10
-311.75540641738399
 20
-428.04070705226042
 10
-311.75540641737945
 20
-428.04070705225934
  0
LINE
  5
169
100
AcDbEntity
  8
ABA70-0104
370
               5
390
0
  6
STYLE_01
 62
               7
100
AcDbLine
 10
-440.38803319382652
 20
-514.59883838996359
 30
0.0
 11
-440.38792523559761
 21
-476.93788943546463
 31
0.0
  0
LINE
  5
16A
100
AcDbEntity
  8
ABA70-0104
370
              15
390
0
  6
STYLE_01
 62
               7
100
AcDbLine
 10
-433.22561469336625
 20
-469.48551598307824
 30
0.0
 11
-464.52707298194701
 21
-456.52002743789637
 31
0.0
  0
LINE
  5
16B
100
AcDbEntity
  8
ABA70-0104
370
               5
390
0
  6
STYLE_01
 62
               7
100
AcDbLine
 10
-375.38755359382714
 20
-514.59883838996359
 30
0.0
 11
-440.38803319283699
 21
-514.59858469886387
 31
0.0
  0
ARC
  5
16C
100
AcDbEntity
  8
ABA70-0104
370
              15
390
0
  6
STYLE_01
 62
               7
100
AcDbCircle
 10
-435.13903185518694
 20
-474.10491364563643
 30
0.0
 40
5.0000000000005
100
AcDbArc
 50
325.48686459504603
 51
67.50000000015109
  0
LINE
  5
16D
100
AcDbEntity
  8
ABA70-0104
370
              15
390
0
  6
STYLE_01
 62
               7
100
AcDbLine
 10
-382.04737760918698
 20
-469.48551598307824
 30
0.0
 11
-433.22561469321164
 21
-469.48551598303277
 31
0.0
  0
LINE
  5
16E
100
AcDbEntity
  8
ABA70-0104
370
              15
390
0
  6
STYLE_01
 62
               7
100
AcDbLine
 10
-433.22561469323529
 20
-469.48551598307824
 30
0.0
 11
-382.04737760921063
 21
-469.48551598303277
 31
0.0
  0
LWPOLYLINE
  5
16F
100
AcDbEntity
  8
ABA70-0104
370
               5
390
0
  6
STYLE_01
 62
               7
100
AcDbPolyline
 90
        2
 70
             128
 10
-742.96807990452112
 20
-304.97312069039037
 42
0.2990840980723672
 10
-695.89003519171933
 20
-382.79887348223531
 42
0.2990840980723672
  0
LINE
  5
170
100
AcDbEntity
  8
ABA70-0104
370
               5
390
0
  6
STYLE_01
 62
               7
100
AcDbLine
 10
-691.02186765417832
 20
-383.94376104965124
 30
0.0
 11
-503.51758588517379
 21
-428.04070705225934
 31
0.0
  0
LINE
  5
171
100
AcDbEntity
  8
ABA70-0104
370
              15
390
0
  6
STYLE_01
 62
               7
100
AcDbLine
 10
-440.38792523559761
 20
-476.93788943546463
 30
0.0
 11
-375.38769645162694
 21
-476.93788943546463
 31
0.0
  0
LWPOLYLINE
  5
172
100
AcDbEntity
  8
ABA70-0104
370
               5
390
0
  6
STYLE_01
 62
               7
100
AcDbPolyline
 90
        2
 70
             128
 10
-73.304912398030297
 20
-304.97312069039037
 42
-0.3007822957922368
 10
-119.38295711083208
 20
-382.79887348223531
 42
-0.3007822957922368
  0
LINE
  5
173
100
AcDbEntity
  8
ABA70-0104
370
               5
390
0
  6
STYLE_01
 62
               7
100
AcDbLine
 10
-124.25112464837673
 20
-383.94376104965124
 30
0.0
 11
-311.75540641737945
 21
-428.04070705225934
 31
0.0
  0
LWPOLYLINE
  5
174
100
AcDbEntity
  8
ABA70-0104
370
              15
390
0
  6
Continuous
 62
               7
100
AcDbPolyline
 90
      200
 70
             128
 10
-20.510941388000049
 20
565.22376239936557
 42
0.0017889013178969
 10
-20.515654172989684
 20
566.5409870726437
 10
-20.546351790440042
 20
570.83092832800332
 42
0.0246349276293766
 10
-21.103742194938889
 20
580.70053942940046
 10
-21.453421063925873
 20
583.99720360306299
 42
0.0192610816330211
 10
-23.826578980765191
 20
600.34121072580467
 10
-23.960358155255619
 20
601.06523824549106
 42
0.0274197252759488
 10
-28.189598608317397
 20
618.53374357488383
 10
-29.084228059353791
 20
621.50606759482457
 42
0.0265130477455972
 10
-35.502788309041364
 20
639.34549321774307
 10
-36.099600819932391
 20
640.76345212632168
 42
0.0186986209118775
 10
-42.810309153806713
 20
655.17531956901553
 10
-42.844101147140179
 20
655.24132390497516
 42
0.0171467150595375
 10
-50.498608267485054
 20
669.00755641163323
 42
0.0165645308454237
 10
-59.063426450227496
 20
682.22739014704439
 10
-59.148678422504474
 20
682.34988629881605
 42
0.0159200924035908
 10
-68.732152803629447
 20
695.22567311920216
 10
-68.831575589288889
 20
695.3507339440032
 42
0.0153261454405113
 10
-79.407101759536374
 20
707.84718519614034
 10
-79.846814575206793
 20
708.33559132114601
 42
0.0163642711928446
 10
-92.102230354314202
 20
721.0834052234934
 10
-92.643540610861976
 20
721.61078455112261
 42
0.0158433609823803
 10
-106.80942753678227
 20
734.56316455373053
 10
-107.04976595814088
 20
734.76932278931076
 42
0.0152368413736389
 10
-122.48619036018539
 20
747.21452210733401
 10
-122.7162204213185
 20
747.38868616879131
 42
0.0146422257209949
 10
-139.33873291203895
 20
759.22481412901084
 10
-139.55973913691111
 20
759.37262622528556
 42
0.0140560352258473
 10
-157.28436581550551
 20
770.51911841364745
 10
-157.54834916951728
 20
770.67495163660919
 42
0.0136862892463513
 10
-176.400278956281
 20
781.11861324700158
 10
-176.67795443820961
 20
781.26265417654918
 42
0.0131841824289292
 10
-196.62669974289986
 20
790.95216779694124
 10
-196.8503345555385
 20
791.05359462450701
 42
0.0128049271518976
 10
-217.72810094615744
 20
799.88509041732368
 10
-217.9710907679551
 20
799.98061844698145
 42
0.0124484980324653
 10
-239.75889079930192
 20
807.92587121480756
 10
-239.96868046542141
 20
807.99650884308562
 42
0.0121216360292958
 10
-262.5435494021587
 20
814.99313290536793
 10
-262.6992673179048
 20
815.03728704721811
 42
0.0118089406645455
 10
-285.89669976316048
 20
821.02689965777745
 10
-286.03334824457812
 20
821.05876038802603
 42
0.0115536386294663
 10
-309.76011854459085
 20
826.01580958510976
 10
-309.87537072478545
 20
826.03712190365627
 42
0.0113834416923474
 10
-334.03603438394822
 20
829.93832718285876
 10
-334.1281199068149
 20
829.95105260839614
 42
0.0112044932980569
 10
-358.62515375532354
 20
832.77855181091036
 10
-358.69258761878797
 20
832.78480767230735
 42
0.0111338367996308
 10
-383.42661245593462
 20
834.5249584948283
 10
-383.46828008368567
 20
834.5269589109439
 42
0.0110702764694074
 10
-408.33862343231993
 20
835.16956244706557
 10
-408.35434580871066
 20
835.16962050611528
 42
0.0110534834776501
 10
-433.24908275105514
 20
834.71117398671436
 10
-433.28656457738219
 20
834.70965367161534
 42
0.0111261307452048
 10
-458.05040672581987
 20
833.15267253792263
 10
-458.11355623799039
 20
833.14728920219454
 42
0.0111874837258379
 10
-482.65722446514866
 20
830.50072250586618
 10
-482.74528530432298
 20
830.48922848292182
 42
0.0113466563173034
 10
-506.96911857153401
 20
826.76662750781156
 10
-507.08062134744233
 20
826.7468927781938
 42
0.0115292694426402
 10
-530.88668112320943
 20
821.96496552606573
 10
-531.01992888452855
 20
821.9349882521974
 42
0.0117543952610024
 10
-554.31240631398987
 20
816.11635597703184
 42
0.012054141777656
 10
-577.30120811375377
 20
809.19576896860372
 10
-578.84202555864431
 20
808.69110367835606
 42
0.015557966397371
 10
-603.24559302140528
 20
799.8485177950954
 10
-605.66809666066752
 20
798.88445933909452
 42
0.0126714667640207
 10
-624.74467606466919
 20
790.72693263682754
 10
-625.64517306746598
 20
790.31456763958909
 42
0.0111338385050995
 10
-642.53154132746363
 20
782.1221699964301
 10
-642.67121279043772
 20
782.05052394164272
 42
0.0115035287415423
 10
-658.89333672054909
 20
773.25207886226258
 10
-659.03476008968437
 20
773.17110995538428
 42
0.0119060700404872
 10
-674.54821269741115
 20
763.79186907700068
 10
-674.68938963542041
 20
763.70185700639308
 42
0.0123282477825402
 10
-689.45217332850461
 20
753.76912554821229
 10
-689.59111531455642
 20
753.6705808757215
 42
0.0128314202104739
 10
-703.56263747693083
 20
743.21227693406718
 10
-703.69705069555334
 20
743.10617413966952
 42
0.0133097202063417
 10
-716.83965499534497
 20
732.15155704173799
 42
0.0138495582698573
 10
-729.36780054852807
 20
720.49994404735935
 10
-730.86238437781981
 20
719.03066470270232
 42
0.0156679245813841
 10
-740.2374540036044
 20
709.21812187588125
 42
0.0083918931142818
 10
-749.13282218056747
 20
698.96242267367597
 10
-749.16491828302514
 20
698.92413865239973
 42
0.0174163144782795
 10
-757.57691289330683
 20
688.14946214213637
 10
-758.93898212680051
 20
686.27365216958719
 42
0.0182239561081299
 10
-768.73170803236917
 20
671.69844690567311
 10
-768.81936196526885
 20
671.55712027090522
 42
0.0189374107252092
 10
-777.33808896345636
 20
656.58476426951393
 10
-777.39411706899546
 20
656.4769906408942
 42
0.0197108575798862
 10
-784.62756551540042
 20
641.11215510722309
 10
-784.667389309084
 20
641.01811573356213
 42
0.020458858760547
 10
-790.57241615275416
 20
625.3143717756368
 10
-790.60373744257595
 20
625.21946225458828
 42
0.0210195340600853
 10
-795.13263490007103
 20
609.27334115787312
 10
-795.1488513901013
 20
609.20551777902278
 42
0.0214902402974481
 10
-798.28082213721518
 20
593.06989285025111
 10
-798.287064018004
 20
593.02823915005877
 42
0.0217370549799907
 10
-800.00541511205211
 20
576.76650671776054
 10
-800.00742057466891
 20
576.73410268209886
 42
0.0218855008486005
 10
-800.30133024838688
 20
560.44956833685558
 42
0.0216946356507636
 10
-799.17653890887686
 20
544.19776272087211
 42
0.0214676777618862
 10
-796.6546916428706
 20
528.09988305215541
 10
-796.64464846224382
 20
528.04990817693545
 42
0.0210955048613253
 10
-792.73905183037505
 20
512.12525951915927
 10
-792.71755857289827
 20
512.05126517034853
 42
0.0205288121012677
 10
-787.45227147635819
 20
496.35975356659605
 10
-787.41221687513098
 20
496.25486795037591
 42
0.0199666884228686
 10
-780.80623028475884
 20
480.83376099921782
 10
-780.74136064664526
 20
480.69761650280361
 42
0.0193023680518719
 10
-772.80553462862576
 20
465.57459977719225
 10
-772.71996423332257
 20
465.42578784684338
 42
0.0185540853173072
 10
-763.48063902635749
 20
450.6545944425053
 10
-763.36131969672169
 20
450.47870274651848
 42
0.0179453084541404
 10
-752.81799074707305
 20
436.07722695557379
 10
-752.66423580558148
 20
435.88228801601315
 42
0.0171965504485513
 10
-740.81452937101267
 20
421.87713153063964
 10
-740.6547677148219
 20
421.70096870055056
 42
0.0164932767191787
 10
-727.55769209731898
 20
408.18330020068868
 10
-727.35441931474816
 20
407.98689530590764
 42
0.0159121244030831
 10
-712.99028415918406
 20
394.96580554001355
 10
-712.77560112514402
 20
394.78329570954395
 42
0.0151947175943649
 10
-697.18901802488699
 20
382.32820670816943
 10
-696.96490887856453
 20
382.16002052352815
 42
0.0146987161863542
 10
-680.20382175172995
 20
370.33517539951322
 10
-679.94497410563054
 20
370.16372760450417
 42
0.0141251793260236
 10
-662.00293546058151
 20
358.99579647255359
 10
-661.77213495822434
 20
358.86102765360283
 42
0.0136154669204551
 10
-642.76932767411995
 20
348.44808919519221
 10
-642.50104146063836
 20
348.31043822514721
 42
0.0132513018431
 10
-622.42256612171536
 20
338.67198329207702
 10
-622.16533031394988
 20
338.55678449038203
 42
0.0127902420626384
 10
-601.09181402716467
 20
329.75931623563213
 10
-600.87484509350975
 20
329.67518878832232
 42
0.012476186858884
 10
-578.94567292235979
 20
321.79589467375229
 10
-578.71968703788184
 20
321.72100774554031
 42
0.012140225871151
 10
-555.97363085933353
 20
314.79157578920729
 10
-555.78882624973699
 20
314.74014460354897
 42
0.0118912513828558
 10
-532.36400860203298
 20
308.81739578248994
 10
-532.16011668163969
 20
308.77097253036015
 42
0.0117326029266694
 10
-508.0718040597115
 20
303.87787181395447
 10
-507.89675897655349
 20
303.84657184974401
 42
0.0115459444444226
 10
-483.25527016821667
 20
300.02528062403667
 10
-483.16333598340481
 20
300.01319040197097
 42
0.011411345472658
 10
-458.18795317035102
 20
297.30689279733713
 10
-458.12221474075278
 20
297.30128386904687
 42
0.0112921921162029
 10
-432.91793616342017
 20
295.72314379074783
 10
-432.87919988088453
 20
295.72159549448497
 42
0.0112848454263913
 10
-407.54111220909618
 20
295.28117052472317
 10
-407.52384014446926
 20
295.28125981185894
 42
0.0112615068129519
 10
-382.21539673640137
 20
295.98226698026826
 10
-382.17055619599734
 20
295.98452047642309
 42
0.0113226969146594
 10
-357.00917729614372
 20
297.82097776134992
 10
-356.93732875857557
 20
297.82786040549013
 42
0.0114413704730944
 10
-332.02904082358333
 20
300.79045931682981
 10
-331.9313465257141
 20
300.80435272899729
 42
0.0115701109229194
 10
-307.38051221579059
 20
304.87739715218117
 42
0.0117742942846318
 10
-283.04674898922332
 20
310.0917346200988
 10
-279.90110573714873
 20
310.84367643254996
 42
0.0182095673842899
 10
-250.9404772459323
 20
318.89164928024218
 10
-246.89248604971641
 20
320.17704666352654
 42
0.0123214038299866
 10
-226.49442562716973
 20
327.21203743023943
 10
-225.52637050276348
 20
327.57283144354858
 42
0.0107306100589412
 10
-207.3924623120875
 20
334.77819660049192
 10
-207.256710593403
 20
334.83553924912405
 42
0.0110492521216507
 10
-189.72283902062333
 20
342.7029593673401
 10
-189.58194248332427
 20
342.76995780949642
 42
0.0114019234091429
 10
-172.69773857596016
 20
351.27597555023499
 10
-172.55362270829778
 20
351.35274795871896
 42
0.0117746544896764
 10
-156.36641685363571
 20
360.4715461129415
 10
-156.22105849047131
 20
360.5580020309543
 42
0.0122289281888448
 10
-140.77673777494311
 20
370.26293019421018
 10
-140.63247219279623
 20
370.35858329726818
 42
0.012664435598462
 10
-125.97406555253957
 20
380.62133718205234
 42
0.0131673671699467
 10
-111.86552711651427
 20
391.62704056015184
 10
-111.74880132514232
 20
391.72314439291711
 42
0.0147747257367277
 10
-98.050607534327753
 20
403.69752696874332
 10
-97.793963256636061
 20
403.93561118051241
 42
0.0160751682816031
 10
-84.424280197334667
 20
417.16298513478239
 10
-84.258109538248107
 20
417.33830903523403
 42
0.0168460407089399
 10
-72.108398809942003
 20
431.05445134759441
 10
-71.963824025172357
 20
431.22918629364142
 42
0.0174847016619577
 10
-61.060751147173107
 20
445.38671450841252
 10
-60.961531892101789
 20
445.52531584432859
 42
0.0182368387554913
 10
-51.285360590280618
 20
460.14007490437848
 10
-50.655004970751236
 20
461.17202285241046
 42
0.0190976930827916
 10
-43.276597886098273
 20
474.35785291554521
 10
-43.220348484311216
 20
474.46804910267178
 42
0.0147709805421817
 10
-36.855257689757593
 20
487.90348902308915
 42
0.0202998757535652
 10
-31.449420238631831
 20
501.74657338043869
 10
-31.108728144583267
 20
502.73572476767902
 42
0.0212496836563129
 10
-26.302031526827761
 20
518.88983428030497
 10
-26.203640736514842
 20
519.28050997569801
 42
0.0217523773810836
 10
-22.964711401592297
 20
534.99861747869875
 10
-22.841528902492541
 20
535.76328268597024
 42
0.0203163816814789
 10
-21.118445761428177
 20
550.16307784560991
 10
-21.086386281507089
 20
550.57081270517347
 42
0.0183023098026016
 10
-20.513515703137784
 20
564.2461574219235
 42
0.0013162341538236
 10
-20.510941388000049
 20
565.22376239936557
 42
0.0013162341538236
  0
LINE
  5
175
100
AcDbEntity
  8
ABA70-0104
370
               5
390
0
  6
Continuous
 62
               7
100
AcDbLine
 10
701.95075655945686
 20
-305.00031280120504
 30
0.0
 11
701.95075655945686
 21
-316.56801179707065
 31
0.0
  0
LINE
  5
176
100
AcDbEntity
  8
ABA70-0104
370
               5
390
0
  6
Continuous
 62
               7
100
AcDbLine
 10
666.95075655945686
 20
-305.00031280120504
 30
0.0
 11
666.95075655945686
 21
-316.56801179707065
 31
0.0
  0
LINE
  5
177
100
AcDbEntity
  8
ABA70-0104
370
              15
390
0
  6
STYLE_11
 62
               7
100
AcDbLine
 10
-313.01224320268312
 20
-454.97312069039037
 30
0.0
 11
-313.01224320268312
 21
-494.97312069039037
 31
0.0
  0
LINE
  5
178
100
AcDbEntity
  8
ABA70-0104
370
              15
390
0
  6
STYLE_11
 62
               7
100
AcDbLine
 10
-333.01224320268312
 20
-474.97312069039037
 30
0.0
 11
-293.01224320268312
 21
-474.97312069039037
 31
0.0
  0
CIRCLE
  5
179
100
AcDbEntity
  8
ABA70-0104
370
              15
390
0
  6
STYLE_11
 62
               7
100
AcDbCircle
 10
-313.01224320268312
 20
-474.97312069039037
 30
0.0
 40
10.0
  0
LINE
  5
17A
100
AcDbEntity
  8
ABA70-0104
370
              15
390
0
  6
STYLE_11
 62
               7
100
AcDbLine
 10
-508.01224320268312
 20
-454.97312069039037
 30
0.0
 11
-508.01224320268312
 21
-494.97312069039037
 31
0.0
  0
LINE
  5
17B
100
AcDbEntity
  8
ABA70-0104
370
              15
390
0
  6
STYLE_11
 62
               7
100
AcDbLine
 10
-528.01224320268307
 20
-474.97312069039037
 30
0.0
 11
-488.01224320268312
 21
-474.97312069039037
 31
0.0
  0
CIRCLE
  5
17C
100
AcDbEntity
  8
ABA70-0104
370
              15
390
0
  6
STYLE_11
 62
               7
100
AcDbCircle
 10
-508.01224320268312
 20
-474.97312069039037
 30
0.0
 40
10.0
  0
ENDSEC
  0
SECTION
  2
OBJECTS
  0
DICTIONARY
  5
19
100
AcDbDictionary
280
               0
281
               1
  3
ACAD_GROUP
350
1A
  3
ACAD_MLINESTYLE
350
1B
  3
ACAD_LAYOUT
350
1E
  3
ACAD_PLOTSETTINGS
350
22
  3
ACAD_PLOTSTYLENAME
350
1F
  0
DICTIONARY
  5
1A
102
{ACAD_REACTORS
330
19
102
}
100
AcDbDictionary
280
               0
281
               1
  0
DICTIONARY
  5
1B
102
{ACAD_REACTORS
330
19
102
}
100
AcDbDictionary
280
               0
281
               1
  3
Standard
350
1C
  0
MLINESTYLE
  5
1C
102
{ACAD_REACTORS
330
1B
102
}
100
AcDbMlineStyle
  2
Standard
 70
               0
  3

 62
               0
 51
90.0
 52
90.0
 71
               2
 49
0.5
 62
             256
  6
ByLayer
 49
-0.5
 62
             256
  6
ByLayer
  0
ACDBDICTIONARYWDFLT
  5
1F
102
{ACAD_REACTORS
330
19
102
}
100
AcDbDictionary
281
               1
  3
Normal
350
1D
100
AcDbDictionaryWithDefault
340
1D
  0
ACDBPLACEHOLDER
  5
1D
102
{ACAD_REACTORS
330
1F
102
}
  0
LAYOUT
  5
20
102
{ACAD_REACTORS
330
1E
102
}
100
AcDbPlotSettings
  1

  2

  4

  6

 40
0.0
 41
0.0
 42
0.0
 43
0.0
 44
0.0
 45
0.0
 46
0.0
 47
0.0
 48
0.0
 49
0.0
140
0.0
141
0.0
142
1.0
143
1.0
 70
            1024
 72
               0
 73
               0
 74
               0
  7

 75
               0
147
1.0
148
0.0
149
0.0
100
AcDbLayout
  1
Model
 70
               0
 71
               0
 10
0.0
 20
0.0
 11
0.0
 21
0.0
 12
0.0
 22
0.0
 32
0.0
 14
0.0
 24
0.0
 34
0.0
 15
0.0
 25
0.0
 35
0.0
146
0.0
 13
0.0
 23
0.0
 33
0.0
 16
0.0
 26
0.0
 36
0.0
 17
0.0
 27
0.0
 37
0.0
 76
               0
330
A
331
0
345
0
346
0
  0
LAYOUT
  5
21
102
{ACAD_REACTORS
330
1E
102
}
100
AcDbPlotSettings
  1

  2

  4

  6

 40
0.0
 41
0.0
 42
0.0
 43
0.0
 44
0.0
 45
0.0
 46
0.0
 47
0.0
 48
0.0
 49
0.0
140
0.0
141
0.0
142
1.0
143
1.0
 70
               0
 72
               0
 73
               0
 74
               0
  7

 75
               0
147
1.0
148
0.0
149
0.0
100
AcDbLayout
  1
Layout1
 70
               0
 71
               0
 10
0.0
 20
0.0
 11
0.0
 21
0.0
 12
0.0
 22
0.0
 32
0.0
 14
0.0
 24
0.0
 34
0.0
 15
0.0
 25
0.0
 35
0.0
146
0.0
 13
0.0
 23
0.0
 33
0.0
 16
0.0
 26
0.0
 36
0.0
 17
0.0
 27
0.0
 37
0.0
 76
               0
330
B
331
0
345
0
346
0
  0
DICTIONARY
  5
1E
102
{ACAD_REACTORS
330
19
102
}
100
AcDbDictionary
280
               0
281
               1
  3
Layout1
350
21
  3
Model
350
20
  0
DICTIONARY
  5
22
102
{ACAD_REACTORS
330
19
102
}
100
AcDbDictionary
280
               0
281
               1
  0
ENDSEC
  0
EOF
