  0
SECTION
  2
HEADER
  9
$ACADVER
  1
AC1015
  9
$ACADMAINTVER
 70
               6
  9
$DWGCODEPAGE
  3
ANSI_932
  9
$INSBASE
 10
0.0
 20
0.0
 30
0.0
  9
$EXTMIN
 10
-1045.000000000241
 20
-1480.9972926412993
 30
-14.834305555555554
  9
$EXTMAX
 10
1054.9999999997588
 20
1489.0027073587007
 30
14.834305555555554
  9
$LIMMIN
 10
0.0
 20
0.0
  9
$LIMMAX
 10
0.0
 20
0.0
  9
$ORTHOMODE
 70
               0
  9
$REGENMODE
 70
               1
  9
$FILLMODE
 70
               1
  9
$QTEXTMODE
 70
               0
  9
$MIRRTEXT
 70
               1
  9
$LTSCALE
 40
50.799999999999997
  9
$ATTMODE
 70
               1
  9
$TEXTSIZE
 40
0.2
  9
$TRACEWID
 40
1.0
  9
$TEXTSTYLE
  7
Standard
  9
$CLAYER
  8
ABA70-0105
  9
$CELTYPE
  6
Continuous
  9
$CECOLOR
 62
             256
  9
$CELTSCALE
 40
1.0
  9
$DISPSILH
 70
               0
  9
$DIMSCALE
 40
1.0
  9
$DIMASZ
 40
31.75
  9
$DIMEXO
 40
0.0
  9
$DIMDLI
 40
6.9999999999999396
  9
$DIMRND
 40
0.0
  9
$DIMDLE
 40
0.0
  9
$DIMEXE
 40
19.999999999996199
  9
$DIMTP
 40
0.0
  9
$DIMTM
 40
0.0
  9
$DIMTXT
 40
24.432617187500004
  9
$DIMCEN
 40
0.0
  9
$DIMTSZ
 40
0.0
  9
$DIMTOL
 70
               0
  9
$DIMLIM
 70
               0
  9
$DIMTIH
 70
               0
  9
$DIMTOH
 70
               0
  9
$DIMSE1
 70
               0
  9
$DIMSE2
 70
               0
  9
$DIMTAD
 70
               1
  9
$DIMZIN
 70
              11
  9
$DIMBLK
  1
VW_FILLEDARROW
  9
$DIMASO
 70
               1
  9
$DIMSHO
 70
               1
  9
$DIMPOST
  1
<>
  9
$DIMAPOST
  1
[]
  9
$DIMALT
 70
               0
  9
$DIMALTD
 70
               3
  9
$DIMALTF
 40
0.0393700787401575
  9
$DIMLFAC
 40
1.0
  9
$DIMTOFL
 70
               0
  9
$DIMTVP
 40
0.0
  9
$DIMTIX
 70
               1
  9
$DIMSOXD
 70
               0
  9
$DIMSAH
 70
               0
  9
$DIMBLK1
  1

  9
$DIMBLK2
  1

  9
$DIMSTYLE
  2
JIS
  9
$DIMCLRD
 70
               0
  9
$DIMCLRE
 70
               0
  9
$DIMCLRT
 70
               0
  9
$DIMTFAC
 40
1.0
  9
$DIMGAP
 40
1.00000000000108
  9
$DIMJUST
 70
               0
  9
$DIMSD1
 70
               0
  9
$DIMSD2
 70
               0
  9
$DIMTOLJ
 70
               1
  9
$DIMTZIN
 70
              11
  9
$DIMALTZ
 70
              15
  9
$DIMALTTZ
 70
              15
  9
$DIMUPT
 70
               0
  9
$DIMDEC
 70
               1
  9
$DIMTDEC
 70
               1
  9
$DIMALTU
 70
               4
  9
$DIMALTTD
 70
               2
  9
$DIMTXSTY
  7
ＭＳ ゴシック
  9
$DIMAUNIT
 70
               0
  9
$DIMADEC
 70
               2
  9
$DIMALTRND
 40
0.0
  9
$DIMAZIN
 70
               0
  9
$DIMDSEP
 70
              46
  9
$DIMATFIT
 70
               0
  9
$DIMFRAC
 70
               2
  9
$DIMLDRBLK
  1

  9
$DIMLUNIT
 70
               2
  9
$DIMLWD
 70
              -2
  9
$DIMLWE
 70
              -2
  9
$DIMTMOVE
 70
               0
  9
$LUNITS
 70
               2
  9
$LUPREC
 70
               4
  9
$SKETCHINC
 40
0.1
  9
$FILLETRAD
 40
0.0
  9
$AUNITS
 70
               0
  9
$AUPREC
 70
               0
  9
$MENU
  1
acad
  9
$ELEVATION
 40
0.0
  9
$PELEVATION
 40
0.0
  9
$THICKNESS
 40
0.0
  9
$LIMCHECK
 70
               0
  9
$CHAMFERA
 40
0.0
  9
$CHAMFERB
 40
0.0
  9
$CHAMFERC
 40
0.0
  9
$CHAMFERD
 40
0.0
  9
$SKPOLY
 70
               0
  9
$TDCREATE
 40
2456008.698738426
  9
$TDUCREATE
 40
0.000000000
  9
$TDUPDATE
 40
2456008.698738426
  9
$TDUUPDATE
 40
0.000000000
  9
$TDINDWG
 40
0.0000000000
  9
$TDUSRTIMER
 40
0.0000000000
  9
$USRTIMER
 70
               1
  9
$ANGBASE
 50
0.0
  9
$ANGDIR
 70
               0
  9
$PDMODE
 70
               1
  9
$PDSIZE
 40
-2.0
  9
$PLINEWID
 40
0.0
  9
$SPLFRAME
 70
               0
  9
$SPLINETYPE
 70
               6
  9
$SPLINESEGS
 70
               8
  9
$HANDSEED
  5
17F
  9
$SURFTAB1
 70
               6
  9
$SURFTAB2
 70
               6
  9
$SURFTYPE
 70
               6
  9
$SURFU
 70
               6
  9
$SURFV
 70
               6
  9
$UCSBASE
  2

  9
$UCSNAME
  2

  9
$UCSORG
 10
0.0
 20
0.0
 30
0.0
  9
$UCSXDIR
 10
1.0
 20
0.0
 30
0.0
  9
$UCSYDIR
 10
0.0
 20
1.0
 30
0.0
  9
$UCSORTHOREF
  2

  9
$UCSORTHOVIEW
 70
               0
  9
$UCSORGTOP
 10
0.0
 20
0.0
 30
0.0
  9
$UCSORGBOTTOM
 10
0.0
 20
0.0
 30
0.0
  9
$UCSORGLEFT
 10
0.0
 20
0.0
 30
0.0
  9
$UCSORGRIGHT
 10
0.0
 20
0.0
 30
0.0
  9
$UCSORGFRONT
 10
0.0
 20
0.0
 30
0.0
  9
$UCSORGBACK
 10
0.0
 20
0.0
 30
0.0
  9
$PUCSBASE
  2

  9
$PUCSNAME
  2

  9
$PUCSORG
 10
0.0
 20
0.0
 30
0.0
  9
$PUCSXDIR
 10
1.0
 20
0.0
 30
0.0
  9
$PUCSYDIR
 10
0.0
 20
1.0
 30
0.0
  9
$PUCSORTHOREF
  2

  9
$PUCSORTHOVIEW
 70
               0
  9
$PUCSORGTOP
 10
0.0
 20
0.0
 30
0.0
  9
$PUCSORGBOTTOM
 10
0.0
 20
0.0
 30
0.0
  9
$PUCSORGLEFT
 10
0.0
 20
0.0
 30
0.0
  9
$PUCSORGRIGHT
 10
0.0
 20
0.0
 30
0.0
  9
$PUCSORGFRONT
 10
0.0
 20
0.0
 30
0.0
  9
$PUCSORGBACK
 10
0.0
 20
0.0
 30
0.0
  9
$USERI1
 70
               0
  9
$USERI2
 70
               0
  9
$USERI3
 70
               0
  9
$USERI4
 70
               0
  9
$USERI5
 70
               0
  9
$USERR1
 40
0.0
  9
$USERR2
 40
0.0
  9
$USERR3
 40
0.0
  9
$USERR4
 40
0.0
  9
$USERR5
 40
0.0
  9
$WORLDVIEW
 70
               1
  9
$SHADEDGE
 70
               3
  9
$SHADEDIF
 70
              70
  9
$TILEMODE
 70
               1
  9
$MAXACTVP
 70
              64
  9
$PINSBASE
 10
0.0
 20
0.0
 30
0.0
  9
$PLIMCHECK
 70
               0
  9
$PEXTMIN
 10
1.0000000000000000E+20
 20
1.0000000000000000E+20
 30
1.0000000000000000E+20
  9
$PEXTMAX
 10
-1.0000000000000000E+20
 20
-1.0000000000000000E+20
 30
-1.0000000000000000E+20
  9
$PLIMMIN
 10
0.0
 20
0.0
  9
$PLIMMAX
 10
12.0
 20
9.0
  9
$UNITMODE
 70
               0
  9
$VISRETAIN
 70
               0
  9
$PLINEGEN
 70
               1
  9
$PSLTSCALE
 70
               0
  9
$TREEDEPTH
 70
            3020
  9
$CMLSTYLE
  2
Standard
  9
$CMLJUST
 70
               0
  9
$CMLSCALE
 40
1.0
  9
$PROXYGRAPHICS
 70
               0
  9
$MEASUREMENT
 70
               1
  9
$CELWEIGHT
370
               0
  9
$ENDCAPS
280
               0
  9
$JOINSTYLE
280
               0
  9
$LWDISPLAY
290
               1
  9
$INSUNITS
 70
               4
  9
$HYPERLINKBASE
  1

  9
$STYLESHEET
  1

  9
$XEDIT
290
               1
  9
$CEPSNTYPE
380
               0
  9
$PSTYLEMODE
290
               1
  9
$FINGERPRINTGUID
  2

  9
$VERSIONGUID
  2

  9
$EXTNAMES
290
               1
  9
$PSVPSCALE
 40
0.0
  0
ENDSEC
  0
SECTION
  2
CLASSES
  0
CLASS
  1
LWPOLYLINE
  2
AcDbPolyline
  3
AutoCAD 2000
 90
        0
280
               0
281
               1
  0
CLASS
  1
IMAGE
  2
AcDbRasterImage
  3
ISM
 90
      127
280
               0
281
               1
  0
CLASS
  1
OLE2FRAME
  2
AcDbOle2Frame
  3
AutoCAD 2000
 90
        0
280
               0
281
               1
  0
CLASS
  1
HATCH
  2
AcDbHatch
  3
AutoCAD 2000
 90
        0
280
               0
281
               1
  0
CLASS
  1
DICTIONARYVAR
  2
AcDbDictionaryVar
  3
AutoCAD 2000
 90
        0
280
               0
281
               0
  0
CLASS
  1
RASTERVARIABLES
  2
AcDbRasterVariables
  3
ISM
 90
        0
280
               0
281
               0
  0
CLASS
  1
IMAGEDEF
  2
AcDbRasterImageDef
  3
ISM
 90
        0
280
               0
281
               0
  0
CLASS
  1
IMAGEDEF_REACTOR
  2
AcDbRasterImageDefReactor
  3
ISM
 90
        1
280
               0
281
               0
  0
CLASS
  1
IDBUFFER
  2
AcDbIdBuffer
  3
AutoCAD 2000
 90
        0
280
               0
281
               0
  0
CLASS
  1
SPATIAL_FILTER
  2
AcDbSpatialFilter
  3
AutoCAD 2000
 90
        0
280
               0
281
               0
  0
CLASS
  1
XRECORD
  2
AcDbXrecord
  3
AutoCAD 2000
 90
        0
280
               0
281
               0
  0
CLASS
  1
SORTENTSTABLE
  2
AcDbSortentsTable
  3
AutoCAD 2000
 90
        0
280
               0
281
               0
  0
CLASS
  1
LAYER_INDEX
  2
AcDbLayerIndex
  3
AutoCAD 2000
 90
        0
280
               0
281
               0
  0
CLASS
  1
SPATIAL_INDEX
  2
AcDbSpatialIndex
  3
AutoCAD 2000
 90
        0
280
               0
281
               0
  0
CLASS
  1
OBJECT_PTR
  2
CAseDLPNTableRecord
  3
"ASE-LPNTableRecord"
 90
        1
280
               0
281
               0
  0
CLASS
  1
LAYOUT
  2
AcDbLayout
  3
AutoCAD 2000
 90
        0
280
               0
281
               0
  0
CLASS
  1
PLOTSETTINGS
  2
AcDbPlotSettings
  3
AutoCAD 2000
 90
        0
280
               0
281
               0
  0
CLASS
  1
ACDBDICTIONARYWDFLT
  2
AcDbDictionaryWithDefault
  3
AutoCAD 2000
 90
        0
280
               0
281
               0
  0
CLASS
  1
ACDBPLACEHOLDER
  2
AcDbPlaceHolder
  3
AutoCAD 2000
 90
        0
280
               0
281
               0
  0
ENDSEC
  0
SECTION
  2
TABLES
  0
TABLE
  2
VPORT
  5
7
100
AcDbSymbolTable
 70
               1
  0
VPORT
  5
15
100
AcDbSymbolTableRecord
100
AcDbViewportTableRecord
  2
*ACTIVE
 70
               0
 10
0.0
 20
0.0
 11
1.0
 21
1.0
 12
4.9999999997589839
 22
4.002707358700718
 13
0.0
 23
0.0
 14
1.0
 24
1.0
 15
0.0
 25
0.0
 16
0.0
 26
0.0
 36
1.0
 17
0.0
 27
0.0
 37
0.0
 40
2970.0
 41
0.688564
 42
50.0
 43
0.0
 44
0.0
 50
0.0
 51
0.0
 71
               0
 72
            2000
 73
               1
 74
               1
 75
               0
 76
               0
 77
               0
 78
               0
281
               0
 65
               0
110
0.0
120
0.0
130
0.0
111
1.0
121
0.0
131
0.0
112
0.0
122
1.0
132
0.0
345
0
346
0
 79
               0
146
0.0
  0
ENDTAB
  0
TABLE
  2
LTYPE
  5
4
100
AcDbSymbolTable
 70
              14
  0
LTYPE
  5
11
100
AcDbSymbolTableRecord
100
AcDbLinetypeTableRecord
  2
ByBlock
 70
              64
  3

 72
              65
 73
               0
 40
0.0
  0
LTYPE
  5
12
100
AcDbSymbolTableRecord
100
AcDbLinetypeTableRecord
  2
ByLayer
 70
              64
  3

 72
              65
 73
               0
 40
0.0
  0
LTYPE
  5
13
100
AcDbSymbolTableRecord
100
AcDbLinetypeTableRecord
  2
Continuous
 70
              64
  3
Solid line
 72
              65
 73
               0
 40
0.0
  0
LTYPE
  5
33
100
AcDbSymbolTableRecord
100
AcDbLinetypeTableRecord
  2
STYLE_01
 70
               0
  3

 72
              65
 73
               2
 40
0.3584208220472441
 49
0.3584208220472441
 74
               0
 49
-0.0005
 74
               0
  0
LTYPE
  5
34
100
AcDbSymbolTableRecord
100
AcDbLinetypeTableRecord
  2
STYLE_02
 70
               0
  3

 72
              65
 73
               2
 40
4.6875
 49
3.125
 74
               0
 49
-1.5625
 74
               0
  0
LTYPE
  5
35
100
AcDbSymbolTableRecord
100
AcDbLinetypeTableRecord
  2
STYLE_03
 70
               0
  3

 72
              65
 73
               4
 40
0.2952755905511811
 49
0.2362204724409449
 74
               0
 49
-0.0295275590551181
 74
               0
 49
0.0005
 74
               0
 49
-0.0290275590551181
 74
               0
  0
LTYPE
  5
36
100
AcDbSymbolTableRecord
100
AcDbLinetypeTableRecord
  2
STYLE_04
 70
               0
  3

 72
              65
 73
               2
 40
1.5277099999999999
 49
1.3194249999999998
 74
               0
 49
-0.208285
 74
               0
  0
LTYPE
  5
37
100
AcDbSymbolTableRecord
100
AcDbLinetypeTableRecord
  2
STYLE_05
 70
               0
  3

 72
              65
 73
               2
 40
0.20828
 49
0.069425
 74
               0
 49
-0.138855
 74
               0
  0
LTYPE
  5
38
100
AcDbSymbolTableRecord
100
AcDbLinetypeTableRecord
  2
STYLE_06
 70
               0
  3

 72
              65
 73
               4
 40
1.0416400000000001
 49
0.625
 74
               0
 49
-0.20828
 74
               0
 49
0.06943
 74
               0
 49
-0.13893
 74
               0
  0
LTYPE
  5
39
100
AcDbSymbolTableRecord
100
AcDbLinetypeTableRecord
  2
STYLE_07
 70
               0
  3

 72
              65
 73
               6
 40
1.875
 49
0.625
 74
               0
 49
-0.20828
 74
               0
 49
0.6250000000000001
 74
               0
 49
-0.2083599999999999
 74
               0
 49
0.06943
 74
               0
 49
-0.1389299999999999
 74
               0
  0
LTYPE
  5
3A
100
AcDbSymbolTableRecord
100
AcDbLinetypeTableRecord
  2
STYLE_08
 70
               0
  3

 72
              65
 73
               6
 40
1.25
 49
0.625
 74
               0
 49
-0.20828
 74
               0
 49
0.06943
 74
               0
 49
-0.13893
 74
               0
 49
0.0694299999999999
 74
               0
 49
-0.13893
 74
               0
  0
LTYPE
  5
3B
100
AcDbSymbolTableRecord
100
AcDbLinetypeTableRecord
  2
STYLE_09
 70
               0
  3

 72
              65
 73
               4
 40
5.0
 49
3.75
 74
               0
 49
-0.2777849999999998
 74
               0
 49
0.6944300000000003
 74
               0
 49
-0.2777849999999998
 74
               0
  0
LTYPE
  5
3C
100
AcDbSymbolTableRecord
100
AcDbLinetypeTableRecord
  2
STYLE_10
 70
               0
  3

 72
              65
 73
               6
 40
5.9375
 49
3.75
 74
               0
 49
-0.2777849999999998
 74
               0
 49
0.6944300000000003
 74
               0
 49
-0.2777849999999998
 74
               0
 49
0.625
 74
               0
 49
-0.3125
 74
               0
  0
LTYPE
  5
3D
100
AcDbSymbolTableRecord
100
AcDbLinetypeTableRecord
  2
STYLE_11
 70
               0
  3

 72
              65
 73
               2
 40
0.3937007874015748
 49
0.1968503937007874
 74
               0
 49
-0.1968503937007874
 74
               0
  0
ENDTAB
  0
TABLE
  2
LAYER
  5
2
100
AcDbSymbolTable
 70
               5
  0
LAYER
  5
14
100
AcDbSymbolTableRecord
100
AcDbLayerTableRecord
  2
0
 70
               0
 62
               7
  6
Continuous
290
               1
370
              -3
390
1D
  0
LAYER
  5
3E
100
AcDbSymbolTableRecord
100
AcDbLayerTableRecord
  2
Defpoints
 70
               0
 62
               7
  6
Continuous
290
               0
370
              -3
390
1D
  0
LAYER
  5
3F
100
AcDbSymbolTableRecord
100
AcDbLayerTableRecord
  2
1_10
 70
               0
 62
               7
  6
Continuous
290
               1
370
              -3
390
1D
  0
LAYER
  5
40
100
AcDbSymbolTableRecord
100
AcDbLayerTableRecord
  2
notes
 70
               0
 62
               7
  6
Continuous
290
               1
370
              -3
390
1D
  0
LAYER
  5
41
100
AcDbSymbolTableRecord
100
AcDbLayerTableRecord
  2
ABA70-0105
 70
               0
 62
               7
  6
Continuous
290
               1
370
              -3
390
1D
  0
ENDTAB
  0
TABLE
  2
STYLE
  5
3
100
AcDbSymbolTable
 70
               2
  0
STYLE
  5
17
100
AcDbSymbolTableRecord
100
AcDbTextStyleTableRecord
  2
Standard
 70
               0
 40
0.0
 41
1.0
 50
0.0
 71
               0
 42
0.0
  3
txt
  4
BIGFONT.SHX
  0
STYLE
  5
32
100
AcDbSymbolTableRecord
100
AcDbTextStyleTableRecord
  2
ＭＳ ゴシック
 70
               0
 40
0.0
 41
1.0
 50
0.0
 71
               0
 42
0.0
  3

  4
ＭＳ ゴシック
1001
ACAD
1000
ＭＳ ゴシック
1071
        0
  0
ENDTAB
  0
TABLE
  2
VIEW
  5
5
100
AcDbSymbolTable
 70
               0
  0
ENDTAB
  0
TABLE
  2
UCS
  5
6
100
AcDbSymbolTable
 70
               0
  0
ENDTAB
  0
TABLE
  2
APPID
  5
8
100
AcDbSymbolTable
 70
               1
  0
APPID
  5
16
100
AcDbSymbolTableRecord
100
AcDbRegAppTableRecord
  2
ACAD
 70
               0
  0
ENDTAB
  0
TABLE
  2
DIMSTYLE
  5
9
100
AcDbSymbolTable
 70
               3
100
AcDbDimStyleTable
 71
               0
  0
DIMSTYLE
105
18
100
AcDbSymbolTableRecord
100
AcDbDimStyleTableRecord
  2
Standard
 70
               0
  3

  4

 40
1.0
 41
0.18
 42
0.0625
 43
0.38
 44
0.18
 45
0.0
 46
0.0
 47
0.0
 48
0.0
 71
               0
 72
               0
 73
               1
 74
               1
 75
               0
 76
               0
 77
               0
 78
               0
 79
               0
140
0.18
141
0.09
142
0.0
143
25.399999999999999
144
1.0
145
0.0
146
1.0
147
0.09
148
0.0
170
               0
171
               2
172
               0
173
               0
174
               0
175
               0
176
               0
177
               0
178
               0
179
               0
271
               4
272
               4
273
               2
274
               2
275
               0
276
               0
277
               2
278
              46
279
               0
280
               0
281
               0
282
               0
283
               1
284
               0
285
               0
286
               0
288
               0
289
               3
340
17
341
0
342
0
343
0
344
0
371
              -2
372
              -2
  0
DIMSTYLE
105
4A
100
AcDbSymbolTableRecord
100
AcDbDimStyleTableRecord
  2
tfrom線あり
 70
               0
  3
<>
  4
[]
 40
1.0
 41
3.999755859375
 42
24.999999999999996
 43
0.9999999999999999
 44
0.0
 45
0.0
 46
0.0
 47
0.0
 48
0.0
 71
               0
 72
               0
 73
               0
 74
               0
 75
               0
 76
               0
 77
               1
 78
              11
 79
               0
140
24.432617187500004
141
0.0
142
0.0
143
0.0393700787401575
144
1.0
145
0.0
146
1.0
147
0.4999999999999999
148
0.0
170
               0
171
               3
172
               0
173
               0
174
               1
175
               0
176
               0
177
               0
178
               0
179
               2
271
               1
272
               1
273
               4
274
               2
275
               0
276
               2
277
               2
278
              46
279
               0
280
               0
281
               0
282
               0
283
               1
284
              11
285
              15
286
              15
288
               0
289
               0
340
32
341
42
342
42
343
0
344
0
371
              -2
372
              -2
  0
DIMSTYLE
105
4F
100
AcDbSymbolTableRecord
100
AcDbDimStyleTableRecord
  2
JIS
 70
               0
  3
<>
  4
[]
 40
1.0
 41
31.75
 42
0.0
 43
6.9999999999999396
 44
19.999999999996199
 45
0.0
 46
0.0
 47
0.0
 48
0.0
 71
               0
 72
               0
 73
               0
 74
               0
 75
               0
 76
               0
 77
               1
 78
              11
 79
               0
140
24.432617187500004
141
0.0
142
0.0
143
0.0393700787401575
144
1.0
145
0.0
146
1.0
147
1.00000000000108
148
0.0
170
               0
171
               3
172
               0
173
               0
174
               1
175
               0
176
               0
177
               0
178
               0
179
               2
271
               1
272
               1
273
               4
274
               2
275
               0
276
               2
277
               2
278
              46
279
               0
280
               0
281
               0
282
               0
283
               1
284
              11
285
              15
286
              15
288
               0
289
               0
340
32
341
4B
342
4B
343
0
344
0
371
              -2
372
              -2
  0
ENDTAB
  0
TABLE
  2
BLOCK_RECORD
  5
1
100
AcDbSymbolTable
 70
              17
  0
BLOCK_RECORD
  5
A
100
AcDbSymbolTableRecord
100
AcDbBlockTableRecord
  2
*MODEL_SPACE
340
20
  0
BLOCK_RECORD
  5
B
100
AcDbSymbolTableRecord
100
AcDbBlockTableRecord
  2
*PAPER_SPACE
340
21
  0
BLOCK_RECORD
  5
42
100
AcDbSymbolTableRecord
100
AcDbBlockTableRecord
  2
_DOT
340
0
  0
BLOCK_RECORD
  5
4B
100
AcDbSymbolTableRecord
100
AcDbBlockTableRecord
  2
VW_FILLEDARROW
340
0
  0
BLOCK_RECORD
  5
23
100
AcDbSymbolTableRecord
100
AcDbBlockTableRecord
  2
グループ
340
0
102
{BLKREFS
331
111
102
}
  0
BLOCK_RECORD
  5
24
100
AcDbSymbolTableRecord
100
AcDbBlockTableRecord
  2
*D3
340
0
  0
BLOCK_RECORD
  5
25
100
AcDbSymbolTableRecord
100
AcDbBlockTableRecord
  2
*D4
340
0
  0
BLOCK_RECORD
  5
26
100
AcDbSymbolTableRecord
100
AcDbBlockTableRecord
  2
*D5
340
0
  0
BLOCK_RECORD
  5
27
100
AcDbSymbolTableRecord
100
AcDbBlockTableRecord
  2
*D6
340
0
  0
BLOCK_RECORD
  5
28
100
AcDbSymbolTableRecord
100
AcDbBlockTableRecord
  2
*D7
340
0
  0
BLOCK_RECORD
  5
29
100
AcDbSymbolTableRecord
100
AcDbBlockTableRecord
  2
*D8
340
0
  0
BLOCK_RECORD
  5
2A
100
AcDbSymbolTableRecord
100
AcDbBlockTableRecord
  2
*D9
340
0
  0
BLOCK_RECORD
  5
2B
100
AcDbSymbolTableRecord
100
AcDbBlockTableRecord
  2
*D10
340
0
  0
BLOCK_RECORD
  5
2C
100
AcDbSymbolTableRecord
100
AcDbBlockTableRecord
  2
*D11
340
0
  0
BLOCK_RECORD
  5
2D
100
AcDbSymbolTableRecord
100
AcDbBlockTableRecord
  2
*D12
340
0
  0
BLOCK_RECORD
  5
2E
100
AcDbSymbolTableRecord
100
AcDbBlockTableRecord
  2
*D13
340
0
  0
BLOCK_RECORD
  5
2F
100
AcDbSymbolTableRecord
100
AcDbBlockTableRecord
  2
*D14
340
0
  0
BLOCK_RECORD
  5
30
100
AcDbSymbolTableRecord
100
AcDbBlockTableRecord
  2
*D15
340
0
  0
BLOCK_RECORD
  5
31
100
AcDbSymbolTableRecord
100
AcDbBlockTableRecord
  2
*D16
340
0
  0
ENDTAB
  0
ENDSEC
  0
SECTION
  2
BLOCKS
  0
BLOCK
  5
D
100
AcDbEntity
  8
0
390
0
100
AcDbBlockBegin
  2
*MODEL_SPACE
 70
               0
 10
0.0
 20
0.0
 30
0.0
  3
*MODEL_SPACE
  1

  0
ENDBLK
  5
E
100
AcDbEntity
  8
0
390
0
100
AcDbBlockEnd
  0
BLOCK
  5
F
100
AcDbEntity
 67
               1
  8
0
390
0
100
AcDbBlockBegin
  2
*PAPER_SPACE
 70
               0
 10
0.0
 20
0.0
 30
0.0
  3
*PAPER_SPACE
  1

  0
ENDBLK
  5
10
100
AcDbEntity
 67
               1
  8
0
390
0
100
AcDbBlockEnd
  0
BLOCK
  5
43
100
AcDbEntity
  8
0
390
0
100
AcDbBlockBegin
  2
_DOT
 70
               0
 10
0.0
 20
0.0
 30
0.0
  3
_DOT
  1

  0
POLYLINE
  5
44
100
AcDbEntity
  8
0
370
              -2
390
0
  6
ByBlock
 62
               0
100
AcDb2dPolyline
 66
               1
 10
0.0
 20
0.0
 30
0.0
 70
               1
 40
0.5
 41
0.5
  0
VERTEX
  5
45
100
AcDbEntity
  8
0
370
              -2
390
0
  6
ByBlock
 62
               0
100
AcDbVertex
100
AcDb2dVertex
 10
-0.25
 20
0.0
 30
0.0
 42
1.0
  0
VERTEX
  5
46
100
AcDbEntity
  8
0
370
              -2
390
0
  6
ByBlock
 62
               0
100
AcDbVertex
100
AcDb2dVertex
 10
0.25
 20
0.0
 30
0.0
 42
1.0
  0
SEQEND
  5
47
100
AcDbEntity
  8
0
390
0
  0
LINE
  5
48
100
AcDbEntity
  8
0
370
              -2
390
0
  6
ByBlock
 62
               0
100
AcDbLine
 10
-0.5
 20
0.0
 30
0.0
 11
-1.0
 21
0.0
 31
0.0
  0
ENDBLK
  5
49
100
AcDbEntity
  8
0
390
0
100
AcDbBlockEnd
  0
BLOCK
  5
4C
100
AcDbEntity
  8
0
370
              -2
390
0
  6
ByBlock
 62
               0
100
AcDbBlockBegin
  2
VW_FILLEDARROW
 70
               0
 10
0.0
 20
0.0
 30
0.0
  3
VW_FILLEDARROW
  1

  0
SOLID
  5
4D
100
AcDbEntity
  8
0
370
              -2
390
0
 62
               0
100
AcDbTrace
 10
0.0
 20
0.0
 30
0.0
 11
-0.9921874999999999
 21
-0.2658558393652545
 31
0.0
 12
-0.9921874999999999
 22
0.2658558393652548
 32
0.0
 13
-0.9921874999999999
 23
0.2658558393652548
 33
0.0
  0
ENDBLK
  5
4E
100
AcDbEntity
  8
0
390
0
100
AcDbBlockEnd
  0
BLOCK
  5
50
100
AcDbEntity
  8
1_10
390
0
100
AcDbBlockBegin
  2
グループ
 70
               0
 10
0.0
 20
0.0
 30
0.0
  3
グループ
  1

  0
LWPOLYLINE
  5
51
100
AcDbEntity
  8
0
370
              15
390
0
  6
Continuous
 62
               7
100
AcDbPolyline
 90
        8
 70
             129
 10
355.01617634987474
 20
-1667.1050612355896
 10
355.01617634987474
 20
-1673.1024499291664
 10
345.51497943187155
 20
-1673.1024499291664
 10
345.51497943187155
 20
-1697.5534131926754
 10
337.15960217008865
 20
-1697.5534131926754
 10
337.15960217008865
 20
-1673.1024499291664
 10
327.82664522377934
 20
-1673.1024499291664
 10
327.82664522377934
 20
-1667.1050612355896
  0
LWPOLYLINE
  5
52
100
AcDbEntity
  8
0
370
              15
390
0
  6
Continuous
 62
               7
100
AcDbPolyline
 90
      101
 70
             128
 10
367.74446818043157
 20
-1667.8333097285279
 10
367.7598182092147
 20
-1667.8289489718434
 42
-0.0222221607822999
 10
368.04982278588773
 20
-1667.7603245065977
 10
368.06561654988371
 20
-1667.7573210835003
 42
-0.0146883565581752
 10
368.3283192551055
 20
-1667.7153178965511
 42
-0.0127458844191797
 10
368.59295822225357
 20
-1667.6877809284788
 10
368.65541330057135
 20
-1667.6828875058902
 42
-0.0198099018568097
 10
369.04626241004604
 20
-1667.6678023484938
 10
369.09807387949195
 20
-1667.667856124159
 42
-0.0147617382756726
 10
369.59269734046973
 20
-1667.6829761494043
 10
369.66538879534221
 20
-1667.6873487562916
 42
-0.0162624549000675
 10
370.05554242480571
 20
-1667.7235816315635
 10
370.17707481606504
 20
-1667.73886819056
 42
-0.0080020874660516
 10
370.3226538471564
 20
-1667.759551037828
 10
370.36097331774522
 20
-1667.765622315638
 42
-0.0053821929681244
 10
370.42945742306642
 20
-1667.7772298394605
 10
369.7030517238677
 20
-1669.9581582951753
 42
0.0108667757389162
 10
369.63573465373855
 20
-1669.9449711799557
 10
369.5982666305473
 20
-1669.9384734373609
 42
0.0170663203315278
 10
369.45504984363328
 20
-1669.9186438400695
 10
369.38717451094885
 20
-1669.9115966694819
 42
0.0220162375266997
 10
369.10679510309006
 20
-1669.8949143087116
 10
369.02893953604365
 20
-1669.8937149414451
 42
0.0282606915788221
 10
368.69330321246355
 20
-1669.9075182184135
 10
368.64938993868799
 20
-1669.9118182084176
 42
0.0169677213690677
 10
368.40346544373233
 20
-1669.9443552579689
 42
0.0190576269868434
 10
368.16055748114979
 20
-1669.9945021300757
 10
368.15429829304139
 20
-1669.9960451041845
 42
0.0213685642852385
 10
367.90391380856386
 20
-1670.0692453892896
 10
367.89842391364732
 20
-1670.0711083853487
 42
0.0237595297580971
 10
367.64492902875133
 20
-1670.1707929072431
 10
367.63982695471896
 20
-1670.1730846827224
 42
0.0261857468823565
 10
367.38765617848691
 20
-1670.3026210200978
 10
367.3772299894033
 20
-1670.3086864945642
 42
0.0272553062032716
 10
367.14080021416373
 20
-1670.4640587005099
 10
367.10603720065461
 20
-1670.4897198486021
 42
0.0325996893154969
 10
366.95588185700274
 20
-1670.6164677215741
 10
366.93217242787455
 20
-1670.6392857500919
 42
0.0138050960645844
 10
366.84028927166946
 20
-1670.732735411638
 42
0.0125280103818416
 10
366.75344673884109
 20
-1670.830898738232
 10
366.72976629392758
 20
-1670.8590572364258
 42
0.0205218024722277
 10
366.60466621841312
 20
-1671.020850550656
 10
366.58219987792677
 20
-1671.0525102804816
 42
0.0163110129595277
 10
366.42648949867726
 20
-1671.2878407155481
 10
366.42376560262448
 20
-1671.2922644775365
 42
0.013189734189463
 10
366.27696508171715
 20
-1671.5453965699037
 10
366.27526498635211
 20
-1671.5485148090368
 42
0.0107895576067753
 10
366.13748828414072
 20
-1671.8147300186729
 10
366.13675539461622
 20
-1671.8162242513183
 42
0.0091371507212068
 10
366.00827544596791
 20
-1672.0907494490755
 10
365.97852981455753
 20
-1672.1574559562371
 42
0.0135418326349483
 10
365.80681587548463
 20
-1672.5723937415091
 10
365.77321106705125
 20
-1672.6602598837881
 42
0.0092834542413563
 10
365.6019820071308
 20
-1673.1341583820924
 10
365.57636487941573
 20
-1673.2093994518782
 42
0.0054261043575289
 10
365.46872673112023
 20
-1673.5371634249507
 10
365.45120074494474
 20
-1673.5925515871745
 42
0.0008225090823004
 10
365.38253069311281
 20
-1673.8108203453296
 10
364.39784156117935
 20
-1676.8357116385862
 10
367.6304654012531
 20
-1676.8357116385862
 10
367.12627297139966
 20
-1678.740189936939
 10
363.87021668941634
 20
-1678.740189936939
 10
358.04106765706251
 20
-1697.5534130029439
 10
356.21597004675209
 20
-1697.5534130029439
 10
362.05064808225302
 20
-1678.740189936939
 10
359.6455317132129
 20
-1678.740189936939
 10
360.14972414306635
 20
-1676.8357116385862
 10
362.57827295401626
 20
-1676.8357116385862
 10
363.43842787220478
 20
-1674.1992986378875
 42
-0.0005863560633221
 10
363.47516255036186
 20
-1674.0824722177445
 10
363.55125038406879
 20
-1673.8414799182112
 42
-0.0087522378926487
 10
363.75071852752473
 20
-1673.2462038310673
 10
363.84298280294178
 20
-1672.9860636625438
 42
-0.0077400953830311
 10
364.10091646207024
 20
-1672.2930589850032
 10
364.11668143365
 20
-1672.2526281016148
 42
-0.0082369946330787
 10
364.36376590426107
 20
-1671.6485490354219
 42
-0.0085725238361379
 10
364.63101200026421
 20
-1671.0531229961339
 10
364.73264160127184
 20
-1670.8367018941481
 42
-0.0168109410594507
 10
365.01958603000128
 20
-1670.2754943680441
 10
365.145429420401
 20
-1670.0485303351531
 42
-0.000781772688785
 10
365.19971377051695
 20
-1669.9509860900155
 10
365.1998420765388
 20
-1669.9507563812708
 42
-0.0036626142154585
 10
365.25472994055553
 20
-1669.8541585013111
 42
-0.0080221150648913
 10
365.31185419596306
 20
-1669.758879266557
 10
365.34255414732343
 20
-1669.7094883174361
 42
-0.0202139325574053
 10
365.47020988713138
 20
-1669.5215067167526
 10
365.52427735231777
 20
-1669.4484278525135
 42
-0.0249323791802576
 10
365.78344014603476
 20
-1669.1323826103617
 10
365.80757996016393
 20
-1669.1057683374468
 42
-0.0242132121536017
 10
366.14726070170536
 20
-1668.7658848512433
 10
366.19517227445692
 20
-1668.7223757150564
 42
-0.0251017527864582
 10
366.47915397509723
 20
-1668.4893829692921
 10
366.48059945190784
 20
-1668.4883137117156
 42
-0.0130868069035085
 10
366.7788601018683
 20
-1668.2795332431708
 10
366.78042192101231
 20
-1668.2784998028949
 42
-0.0290329526390979
 10
367.09153306240432
 20
-1668.0976743012664
 10
367.12137862438919
 20
-1668.0825719184274
 42
-0.0160250190053575
 10
367.38728303815503
 20
-1667.9585558082138
 42
-0.0267600374779602
 10
367.66255911562541
 20
-1667.8578074876648
 10
367.6892950351446
 20
-1667.8496149288396
 42
-0.0049981587879192
 10
367.74446818043157
 20
-1667.8333097285279
 42
-0.0049981587879192
  0
LWPOLYLINE
  5
53
100
AcDbEntity
  8
0
370
              15
390
0
  6
Continuous
 62
               7
100
AcDbPolyline
 90
      118
 70
             128
 10
387.55883574487848
 20
-1676.9096949664138
 10
389.43395766937806
 20
-1676.9096949664138
 10
388.59591876377817
 20
-1679.5912614928141
 42
-0.0010587229209522
 10
388.62737457934122
 20
-1679.5543569594693
 10
388.6855686699821
 20
-1679.4863747032834
 42
-0.0071874740406991
 10
388.83594388807791
 20
-1679.3157340112571
 10
388.97766666134237
 20
-1679.1594978699416
 42
-0.0148118053511125
 10
389.42779595405131
 20
-1678.6918840239318
 10
389.51501828895613
 20
-1678.6064867030752
 42
-0.0086273358694995
 10
389.85056708996535
 20
-1678.2891110690573
 10
389.8944008061905
 20
-1678.2490614247249
 42
-0.0103138323119905
 10
390.1524245084247
 20
-1678.0228982873862
 10
390.19819891475368
 20
-1677.9844162401246
 42
-0.0060206748557127
 10
390.37104697886389
 20
-1677.8426215893717
 10
390.37307810975568
 20
-1677.8409958837358
 42
-0.0067069027309446
 10
390.5453709244124
 20
-1677.7068452499454
 10
390.5479196903371
 20
-1677.704915080071
 42
-0.0076184352032452
 10
390.7188249562098
 20
-1677.5795402048263
 42
-0.0089652861679352
 10
390.8937859189424
 20
-1677.4599069444948
 10
390.93013763908755
 20
-1677.4359957310116
 42
-0.0156916245939953
 10
391.12609713624943
 20
-1677.3157332445364
 42
-0.0023299011061265
 10
391.32635918024084
 20
-1677.2025553049893
 10
391.3417433126092
 20
-1677.1939553099312
 42
-0.0107669341483176
 10
391.57598013771172
 20
-1677.0695551765814
 10
391.59824493878534
 20
-1677.0583384266322
 42
-0.0078058045893045
 10
391.88183505673413
 20
-1676.9209769709955
 10
391.89174214444722
 20
-1676.9163678431253
 42
-0.0181829330476282
 10
392.2020515490633
 20
-1676.7855041020293
 10
392.25610699162922
 20
-1676.7649889820862
 42
-0.0208411536035601
 10
392.60519195907978
 20
-1676.6488985195931
 10
392.61954805920408
 20
-1676.6447800746405
 42
-0.0222799817124226
 10
392.94826785312443
 20
-1676.5661385084989
 10
392.95715681636398
 20
-1676.5644264979132
 42
-0.0215509523902074
 10
393.27362778464135
 20
-1676.5175108093792
 10
393.31610974569105
 20
-1676.5130732825885
 42
-0.0182545924848762
 10
393.55021852499556
 20
-1676.4972294571974
 10
393.58961954134679
 20
-1676.4960049121178
 42
-0.0072962856566276
 10
393.74554242103238
 20
-1676.493435583596
 10
393.77464209160132
 20
-1676.4933807481925
 42
-0.0059227516275392
 10
393.87239159074943
 20
-1676.494354459983
 10
393.90163380816267
 20
-1676.4949922265848
 42
-0.0011833111885787
 10
393.94088509195376
 20
-1676.4959412308956
 10
393.14549849634659
 20
-1679.0346751759946
 42
0.0143932051422038
 10
393.11909711399477
 20
-1679.0244762059492
 10
393.11182514157872
 20
-1679.0219049870923
 42
0.0234388603544593
 10
393.0699942756475
 20
-1679.0092857513771
 10
393.0613126127339
 20
-1679.0071047893719
 42
0.0199162742985913
 10
393.0010237786542
 20
-1678.9944880540372
 10
392.98020984084769
 20
-1678.990990854609
 42
0.0293643550641748
 10
392.87713498208814
 20
-1678.9798408089562
 10
392.85244980136815
 20
-1678.9786291919374
 42
0.0214606686877694
 10
392.69930888541461
 20
-1678.9776906315199
 10
392.6899369745978
 20
-1678.9780355430642
 42
0.0167564054161108
 10
392.51841678348984
 20
-1678.9901125854317
 10
392.50995699073042
 20
-1678.9909939258589
 42
0.0137677553269424
 10
392.32260367746073
 20
-1679.0157432344029
 10
392.3152519379579
 20
-1679.01692115437
 42
0.0118497261484146
 10
392.11475417385549
 20
-1679.0539385045597
 10
392.10860416660933
 20
-1679.0552253672797
 42
0.0106421143894467
 10
391.89772327931894
 20
-1679.1040577428564
 10
391.89281447093526
 20
-1679.1053050855401
 42
0.0099746379692563
 10
391.67435600177657
 20
-1679.1654796138537
 10
391.61280796160247
 20
-1679.1837614924855
 42
0.0191613675863395
 10
391.27682349908321
 20
-1679.2977388727734
 10
391.18876372634423
 20
-1679.3314257830948
 42
0.0205274080146674
 10
390.80345695444066
 20
-1679.4972541909221
 10
390.74580767245851
 20
-1679.5249221554946
 42
0.0181256912204202
 10
390.48753073179171
 20
-1679.6606059744729
 10
390.4345753484813
 20
-1679.6909235876858
 42
0.0140709242397207
 10
390.28962041384932
 20
-1679.7794182611226
 10
390.26337154522736
 20
-1679.7964750798403
 42
0.0086667884392776
 10
390.17444538368829
 20
-1679.8564777477206
 42
0.0036408192027002
 10
390.08701214565093
 20
-1679.9186586055155
 10
390.0517852711863
 20
-1679.9440995514253
 42
0.0052260781296608
 10
389.8955565737952
 20
-1680.0594319380598
 10
389.87934971753566
 20
-1680.0716600486778
 42
0.0050024435888786
 10
389.69334637448605
 20
-1680.2149426169333
 10
389.6780282179617
 20
-1680.2269886393863
 42
0.0136138710274541
 10
389.46758694963466
 20
-1680.4019551443007
 10
389.43391907384273
 20
-1680.4315341170134
 42
0.0172815186925081
 10
389.16951553218303
 20
-1680.6805307896336
 10
389.16695318633765
 20
-1680.6831166067834
 42
0.0189403857995094
 10
388.91637138775633
 20
-1680.9559218715908
 10
388.88373989422377
 20
-1680.9942658030841
 42
0.0185044199495775
 10
388.69178345524256
 20
-1681.2375143842085
 42
0.0088565243904398
 10
388.51332334861377
 20
-1681.4910308043588
 10
388.50414536896562
 20
-1681.5045721841182
 42
0.0157195347224409
 10
388.32092476263119
 20
-1681.7940943934343
 10
388.27484182069901
 20
-1681.8722465904573
 42
0.0095451879789989
 10
388.10975627056303
 20
-1682.1648412328116
 10
388.09860835163545
 20
-1682.1855119049399
 42
0.0100351706246127
 10
387.96656460247414
 20
-1682.4425674654342
 42
0.0086935915430083
 10
387.84423345067984
 20
-1682.704400610839
 10
387.84091270926569
 20
-1682.71184293381
 42
0.0072580174866124
 10
387.72056625731744
 20
-1682.9924349254013
 10
387.71730462401433
 20
-1683.0003549514115
 42
0.0060005122609915
 10
387.59810395567172
 20
-1683.2999646220167
 10
387.59489297733001
 20
-1683.3083261499216
 42
0.0049017786986274
 10
387.47599281846811
 20
-1683.6272551305381
 10
387.47282701208212
 20
-1683.6360080677562
 42
0.0039415167609237
 10
387.35339073402463
 20
-1683.974550130172
 10
387.35025963137332
 20
-1683.9836533310456
 42
0.0031035838760627
 10
387.22945484568527
 20
-1684.3420931928042
 10
387.22634480114993
 20
-1684.351513814194
 42
0.0025070747150189
 10
387.10344344984452
 20
-1684.7301610311065
 10
387.0661495534091
 20
-1684.8470526963904
 42
0.0029081910286815
 10
386.87413125559186
 20
-1685.4612163547022
 10
386.83332808708121
 20
-1685.5944395969575
 42
0.0009266453736009
 10
386.56491071275042
 20
-1686.4766640569344
 10
386.54402324011568
 20
-1686.5457759361509
 42
-0.0005809993665711
 10
386.26668655953472
 20
-1687.4595840427567
 10
386.20040476124535
 20
-1687.6770689749701
 42
-0.0012018708168552
 10
386.05342045183261
 20
-1688.1552316394366
 10
386.00110060025918
 20
-1688.3239907803277
 42
-0.0002691059599431
 10
385.95753111909858
 20
-1688.4642584006444
 10
383.12457522080922
 20
-1697.5534130029439
 10
381.30658632883069
 20
-1697.5534130029439
 10
387.55883574487848
 20
-1676.9096949664138
  0
SPLINE
  5
54
100
AcDbEntity
  8
0
370
              15
390
0
  6
Continuous
 62
               7
100
AcDbSpline
210
0.0
220
0.0
230
1.0
 70
              13
 71
               2
 72
             782
 73
             779
 74
               0
 42
0.000001
 43
0.000001
 40
0.0
 40
0.0
 40
0.0
 40
1.0
 40
1.0
 40
2.0
 40
2.0
 40
3.0
 40
3.0
 40
4.0
 40
4.0
 40
5.0
 40
5.0
 40
6.0
 40
6.0
 40
7.0
 40
7.0
 40
8.0
 40
8.0
 40
9.0
 40
9.0
 40
10.0
 40
10.0
 40
11.0
 40
11.0
 40
12.0
 40
12.0
 40
13.0
 40
13.0
 40
14.0
 40
14.0
 40
15.0
 40
15.0
 40
16.0
 40
16.0
 40
17.0
 40
17.0
 40
18.0
 40
18.0
 40
19.0
 40
19.0
 40
20.0
 40
20.0
 40
21.0
 40
21.0
 40
22.0
 40
22.0
 40
23.0
 40
23.0
 40
24.0
 40
24.0
 40
25.0
 40
25.0
 40
26.0
 40
26.0
 40
27.0
 40
27.0
 40
28.0
 40
28.0
 40
29.0
 40
29.0
 40
30.0
 40
30.0
 40
31.0
 40
31.0
 40
32.0
 40
32.0
 40
33.0
 40
33.0
 40
34.0
 40
34.0
 40
35.0
 40
35.0
 40
36.0
 40
36.0
 40
37.0
 40
37.0
 40
38.0
 40
38.0
 40
39.0
 40
39.0
 40
40.0
 40
40.0
 40
41.0
 40
41.0
 40
42.0
 40
42.0
 40
43.0
 40
43.0
 40
44.0
 40
44.0
 40
45.0
 40
45.0
 40
46.0
 40
46.0
 40
47.0
 40
47.0
 40
48.0
 40
48.0
 40
49.0
 40
49.0
 40
50.0
 40
50.0
 40
51.0
 40
51.0
 40
52.0
 40
52.0
 40
53.0
 40
53.0
 40
54.0
 40
54.0
 40
55.0
 40
55.0
 40
56.0
 40
56.0
 40
57.0
 40
57.0
 40
58.0
 40
58.0
 40
59.0
 40
59.0
 40
60.0
 40
60.0
 40
61.0
 40
61.0
 40
62.0
 40
62.0
 40
63.0
 40
63.0
 40
64.0
 40
64.0
 40
65.0
 40
65.0
 40
66.0
 40
66.0
 40
67.0
 40
67.0
 40
68.0
 40
68.0
 40
69.0
 40
69.0
 40
70.0
 40
70.0
 40
71.0
 40
71.0
 40
72.0
 40
72.0
 40
73.0
 40
73.0
 40
74.0
 40
74.0
 40
75.0
 40
75.0
 40
76.0
 40
76.0
 40
77.0
 40
77.0
 40
78.0
 40
78.0
 40
79.0
 40
79.0
 40
80.0
 40
80.0
 40
81.0
 40
81.0
 40
82.0
 40
82.0
 40
83.0
 40
83.0
 40
84.0
 40
84.0
 40
85.0
 40
85.0
 40
86.0
 40
86.0
 40
87.0
 40
87.0
 40
88.0
 40
88.0
 40
89.0
 40
89.0
 40
90.0
 40
90.0
 40
91.0
 40
91.0
 40
92.0
 40
92.0
 40
93.0
 40
93.0
 40
94.0
 40
94.0
 40
95.0
 40
95.0
 40
96.0
 40
96.0
 40
97.0
 40
97.0
 40
98.0
 40
98.0
 40
99.0
 40
99.0
 40
100.0
 40
100.0
 40
101.0
 40
101.0
 40
102.0
 40
102.0
 40
103.0
 40
103.0
 40
104.0
 40
104.0
 40
105.0
 40
105.0
 40
106.0
 40
106.0
 40
107.0
 40
107.0
 40
108.0
 40
108.0
 40
109.0
 40
109.0
 40
110.0
 40
110.0
 40
111.0
 40
111.0
 40
112.0
 40
112.0
 40
113.0
 40
113.0
 40
114.0
 40
114.0
 40
115.0
 40
115.0
 40
116.0
 40
116.0
 40
117.0
 40
117.0
 40
118.0
 40
118.0
 40
119.0
 40
119.0
 40
120.0
 40
120.0
 40
121.0
 40
121.0
 40
122.0
 40
122.0
 40
123.0
 40
123.0
 40
124.0
 40
124.0
 40
125.0
 40
125.0
 40
126.0
 40
126.0
 40
127.0
 40
127.0
 40
128.0
 40
128.0
 40
129.0
 40
129.0
 40
130.0
 40
130.0
 40
131.0
 40
131.0
 40
132.0
 40
132.0
 40
133.0
 40
133.0
 40
134.0
 40
134.0
 40
135.0
 40
135.0
 40
136.0
 40
136.0
 40
137.0
 40
137.0
 40
138.0
 40
138.0
 40
139.0
 40
139.0
 40
140.0
 40
140.0
 40
141.0
 40
141.0
 40
142.0
 40
142.0
 40
143.0
 40
143.0
 40
144.0
 40
144.0
 40
145.0
 40
145.0
 40
146.0
 40
146.0
 40
147.0
 40
147.0
 40
148.0
 40
148.0
 40
149.0
 40
149.0
 40
150.0
 40
150.0
 40
151.0
 40
151.0
 40
152.0
 40
152.0
 40
153.0
 40
153.0
 40
154.0
 40
154.0
 40
155.0
 40
155.0
 40
156.0
 40
156.0
 40
157.0
 40
157.0
 40
158.0
 40
158.0
 40
159.0
 40
159.0
 40
160.0
 40
160.0
 40
161.0
 40
161.0
 40
162.0
 40
162.0
 40
163.0
 40
163.0
 40
164.0
 40
164.0
 40
165.0
 40
165.0
 40
166.0
 40
166.0
 40
167.0
 40
167.0
 40
168.0
 40
168.0
 40
169.0
 40
169.0
 40
170.0
 40
170.0
 40
171.0
 40
171.0
 40
172.0
 40
172.0
 40
173.0
 40
173.0
 40
174.0
 40
174.0
 40
175.0
 40
175.0
 40
176.0
 40
176.0
 40
177.0
 40
177.0
 40
178.0
 40
178.0
 40
179.0
 40
179.0
 40
180.0
 40
180.0
 40
181.0
 40
181.0
 40
182.0
 40
182.0
 40
183.0
 40
183.0
 40
184.0
 40
184.0
 40
185.0
 40
185.0
 40
186.0
 40
186.0
 40
187.0
 40
187.0
 40
188.0
 40
188.0
 40
189.0
 40
189.0
 40
190.0
 40
190.0
 40
191.0
 40
191.0
 40
192.0
 40
192.0
 40
193.0
 40
193.0
 40
194.0
 40
194.0
 40
195.0
 40
195.0
 40
196.0
 40
196.0
 40
197.0
 40
197.0
 40
198.0
 40
198.0
 40
199.0
 40
199.0
 40
200.0
 40
200.0
 40
201.0
 40
201.0
 40
202.0
 40
202.0
 40
203.0
 40
203.0
 40
204.0
 40
204.0
 40
205.0
 40
205.0
 40
206.0
 40
206.0
 40
207.0
 40
207.0
 40
208.0
 40
208.0
 40
209.0
 40
209.0
 40
210.0
 40
210.0
 40
211.0
 40
211.0
 40
212.0
 40
212.0
 40
213.0
 40
213.0
 40
214.0
 40
214.0
 40
215.0
 40
215.0
 40
216.0
 40
216.0
 40
217.0
 40
217.0
 40
218.0
 40
218.0
 40
219.0
 40
219.0
 40
220.0
 40
220.0
 40
221.0
 40
221.0
 40
222.0
 40
222.0
 40
223.0
 40
223.0
 40
224.0
 40
224.0
 40
225.0
 40
225.0
 40
226.0
 40
226.0
 40
227.0
 40
227.0
 40
228.0
 40
228.0
 40
229.0
 40
229.0
 40
230.0
 40
230.0
 40
231.0
 40
231.0
 40
232.0
 40
232.0
 40
233.0
 40
233.0
 40
234.0
 40
234.0
 40
235.0
 40
235.0
 40
236.0
 40
236.0
 40
237.0
 40
237.0
 40
238.0
 40
238.0
 40
239.0
 40
239.0
 40
240.0
 40
240.0
 40
241.0
 40
241.0
 40
242.0
 40
242.0
 40
243.0
 40
243.0
 40
244.0
 40
244.0
 40
245.0
 40
245.0
 40
246.0
 40
246.0
 40
247.0
 40
247.0
 40
248.0
 40
248.0
 40
249.0
 40
249.0
 40
250.0
 40
250.0
 40
251.0
 40
251.0
 40
252.0
 40
252.0
 40
253.0
 40
253.0
 40
254.0
 40
254.0
 40
255.0
 40
255.0
 40
256.0
 40
256.0
 40
257.0
 40
257.0
 40
258.0
 40
258.0
 40
259.0
 40
259.0
 40
260.0
 40
260.0
 40
261.0
 40
261.0
 40
262.0
 40
262.0
 40
263.0
 40
263.0
 40
264.0
 40
264.0
 40
265.0
 40
265.0
 40
266.0
 40
266.0
 40
267.0
 40
267.0
 40
268.0
 40
268.0
 40
269.0
 40
269.0
 40
270.0
 40
270.0
 40
271.0
 40
271.0
 40
272.0
 40
272.0
 40
273.0
 40
273.0
 40
274.0
 40
274.0
 40
275.0
 40
275.0
 40
276.0
 40
276.0
 40
277.0
 40
277.0
 40
278.0
 40
278.0
 40
279.0
 40
279.0
 40
280.0
 40
280.0
 40
281.0
 40
281.0
 40
282.0
 40
282.0
 40
283.0
 40
283.0
 40
284.0
 40
284.0
 40
285.0
 40
285.0
 40
286.0
 40
286.0
 40
287.0
 40
287.0
 40
288.0
 40
288.0
 40
289.0
 40
289.0
 40
290.0
 40
290.0
 40
291.0
 40
291.0
 40
292.0
 40
292.0
 40
293.0
 40
293.0
 40
294.0
 40
294.0
 40
295.0
 40
295.0
 40
296.0
 40
296.0
 40
297.0
 40
297.0
 40
298.0
 40
298.0
 40
299.0
 40
299.0
 40
300.0
 40
300.0
 40
301.0
 40
301.0
 40
302.0
 40
302.0
 40
303.0
 40
303.0
 40
304.0
 40
304.0
 40
305.0
 40
305.0
 40
306.0
 40
306.0
 40
307.0
 40
307.0
 40
308.0
 40
308.0
 40
309.0
 40
309.0
 40
310.0
 40
310.0
 40
311.0
 40
311.0
 40
312.0
 40
312.0
 40
313.0
 40
313.0
 40
314.0
 40
314.0
 40
315.0
 40
315.0
 40
316.0
 40
316.0
 40
317.0
 40
317.0
 40
318.0
 40
318.0
 40
319.0
 40
319.0
 40
320.0
 40
320.0
 40
321.0
 40
321.0
 40
322.0
 40
322.0
 40
323.0
 40
323.0
 40
324.0
 40
324.0
 40
325.0
 40
325.0
 40
326.0
 40
326.0
 40
327.0
 40
327.0
 40
328.0
 40
328.0
 40
329.0
 40
329.0
 40
330.0
 40
330.0
 40
331.0
 40
331.0
 40
332.0
 40
332.0
 40
333.0
 40
333.0
 40
334.0
 40
334.0
 40
335.0
 40
335.0
 40
336.0
 40
336.0
 40
337.0
 40
337.0
 40
338.0
 40
338.0
 40
339.0
 40
339.0
 40
340.0
 40
340.0
 40
341.0
 40
341.0
 40
342.0
 40
342.0
 40
343.0
 40
343.0
 40
344.0
 40
344.0
 40
345.0
 40
345.0
 40
346.0
 40
346.0
 40
347.0
 40
347.0
 40
348.0
 40
348.0
 40
349.0
 40
349.0
 40
350.0
 40
350.0
 40
351.0
 40
351.0
 40
352.0
 40
352.0
 40
353.0
 40
353.0
 40
354.0
 40
354.0
 40
355.0
 40
355.0
 40
356.0
 40
356.0
 40
357.0
 40
357.0
 40
358.0
 40
358.0
 40
359.0
 40
359.0
 40
360.0
 40
360.0
 40
361.0
 40
361.0
 40
362.0
 40
362.0
 40
363.0
 40
363.0
 40
364.0
 40
364.0
 40
365.0
 40
365.0
 40
366.0
 40
366.0
 40
367.0
 40
367.0
 40
368.0
 40
368.0
 40
369.0
 40
369.0
 40
370.0
 40
370.0
 40
371.0
 40
371.0
 40
372.0
 40
372.0
 40
373.0
 40
373.0
 40
374.0
 40
374.0
 40
375.0
 40
375.0
 40
376.0
 40
376.0
 40
377.0
 40
377.0
 40
378.0
 40
378.0
 40
379.0
 40
379.0
 40
380.0
 40
380.0
 40
381.0
 40
381.0
 40
382.0
 40
382.0
 40
383.0
 40
383.0
 40
384.0
 40
384.0
 40
385.0
 40
385.0
 40
386.0
 40
386.0
 40
387.0
 40
387.0
 40
388.0
 40
388.0
 40
389.0
 40
389.0
 40
389.0
 10
397.88754019561134
 20
-1676.8987686030516
 30
0.0
 41
1.0
 10
398.7059643043317
 20
-1676.8987686030516
 30
0.0
 41
1.0
 10
399.52438841305207
 20
-1676.8987686030516
 30
0.0
 41
1.0
 10
399.11063467753536
 20
-1678.2413948673013
 30
0.0
 41
1.0
 10
398.69688094201865
 20
-1679.584021131551
 30
0.0
 41
1.0
 10
398.71522043717732
 20
-1679.5553203586537
 30
0.0
 41
0.9999957264418885
 10
398.73372743399977
 20
-1679.526727308516
 30
0.0
 41
1.0
 10
398.76415675814587
 20
-1679.4797144301269
 30
0.0
 41
1.0
 10
398.79458608229197
 20
-1679.4327015517376
 30
0.0
 41
1.0
 10
398.87395172739645
 20
-1679.3100827448372
 30
0.0
 41
0.9995394069081655
 10
398.96061011894676
 20
-1679.1925046830977
 30
0.0
 41
1.0
 10
398.99636698120963
 20
-1679.1439897904997
 30
0.0
 41
1.0
 10
399.0321238434725
 20
-1679.095474897902
 30
0.0
 41
1.0
 10
399.16585051128817
 20
-1678.9140346227784
 30
0.0
 41
0.9994460617143308
 10
399.31135099257563
 20
-1678.7418922251293
 30
0.0
 41
1.0
 10
399.31573917355098
 20
-1678.7367005447463
 30
0.0
 41
1.0
 10
399.32012735452633
 20
-1678.7315088643634
 30
0.0
 41
1.0
 10
399.45685147386394
 20
-1678.569749827479
 30
0.0
 41
0.9994359394934261
 10
399.60412570421488
 20
-1678.4175336263145
 30
0.0
 41
1.0
 10
399.60650905816732
 20
-1678.4150702959423
 30
0.0
 41
1.0
 10
399.60889241211976
 20
-1678.4126069655699
 30
0.0
 41
1.0
 10
399.75139993456469
 20
-1678.2653174251507
 30
0.0
 41
0.9995293688567085
 10
399.90267161554857
 20
-1678.1270442129855
 30
0.0
 41
1.0
 10
399.92196537481033
 20
-1678.109408327336
 30
0.0
 41
1.0
 10
399.94125913407208
 20
-1678.0917724416863
 30
0.0
 41
1.0
 10
400.05394329653132
 20
-1677.9887710008213
 30
0.0
 41
0.9997087614802835
 10
400.17146618548577
 20
-1677.8913267200235
 30
0.0
 41
1.0
 10
400.19063225866489
 20
-1677.8754351415123
 30
0.0
 41
1.0
 10
400.20979833184407
 20
-1677.8595435630014
 30
0.0
 41
1.0
 10
400.28898907444579
 20
-1677.7938824392211
 30
0.0
 41
0.9999595338690607
 10
400.36934834529598
 20
-1677.7296567085707
 30
0.0
 41
1.0
 10
400.44970761615718
 20
-1677.6654309779117
 30
0.0
 41
0.9999749417497993
 10
400.53096815050776
 20
-1677.6023494239594
 30
0.0
 41
1.0
 10
400.55195429666009
 20
-1677.5860581366655
 30
0.0
 41
1.0
 10
400.57294044281241
 20
-1677.5697668493717
 30
0.0
 41
1.0
 10
400.65750832812279
 20
-1677.5041178395236
 30
0.0
 41
0.9999792037125278
 10
400.742915927897
 20
-1677.4395650578765
 30
0.0
 41
1.0
 10
400.7637407538233
 20
-1677.4238252356076
 30
0.0
 41
1.0
 10
400.78456557974954
 20
-1677.4080854133388
 30
0.0
 41
1.0
 10
400.8283235276906
 20
-1677.3750122762146
 30
0.0
 41
0.9999993373872127
 10
400.87200521380964
 20
-1677.3418384808094
 30
0.0
 41
1.0
 10
400.91568689995285
 20
-1677.308664685386
 30
0.0
 41
0.9999160953816124
 10
400.96021331087661
 20
-1677.2766336201846
 30
0.0
 41
1.0
 10
400.99303519829402
 20
-1677.2530224646011
 30
0.0
 41
1.0
 10
401.02585708571144
 20
-1677.2294113090177
 30
0.0
 41
1.0
 10
401.13602727147025
 20
-1677.1501579326496
 30
0.0
 41
0.9980964527231884
 10
401.2551162649707
 20
-1677.0850704597935
 30
0.0
 41
1.0
 10
401.29214887189875
 20
-1677.0648304802005
 30
0.0
 41
1.0
 10
401.3291814788268
 20
-1677.0445905006075
 30
0.0
 41
1.0
 10
401.50850849209962
 20
-1676.9465802499064
 30
0.0
 41
0.9984572810573036
 10
401.69759705845865
 20
-1676.8690579885599
 30
0.0
 41
1.0
 10
401.70124332785394
 20
-1676.8675630962221
 30
0.0
 41
1.0
 10
401.70488959724918
 20
-1676.8660682038844
 30
0.0
 41
1.0
 10
401.88668562481678
 20
-1676.7915357272136
 30
0.0
 41
0.9987838528034453
 10
402.07493828337681
 20
-1676.7352700870472
 30
0.0
 41
1.0
 10
402.07917623257492
 20
-1676.7340034333572
 30
0.0
 41
1.0
 10
402.08341418177304
 20
-1676.7327367796672
 30
0.0
 41
1.0
 10
402.26319094193536
 20
-1676.6790044468812
 30
0.0
 41
0.9990652816205859
 10
402.44693687365191
 20
-1676.6410007673396
 30
0.0
 41
1.0
 10
402.4521252746834
 20
-1676.6399276642333
 30
0.0
 41
1.0
 10
402.45731367571489
 20
-1676.6388545611267
 30
0.0
 41
1.0
 10
402.63068280536822
 20
-1676.6029970877983
 30
0.0
 41
0.9992909934271037
 10
402.80625857182611
 20
-1676.5802866553315
 30
0.0
 41
1.0
 10
402.98183433828723
 20
-1676.5575762228646
 30
0.0
 41
0.999455353944858
 10
403.15852577138321
 20
-1676.546496918658
 30
0.0
 41
1.0
 10
403.19396017917484
 20
-1676.5442750306104
 30
0.0
 41
1.0
 10
403.22939458696641
 20
-1676.5420531425627
 30
0.0
 41
1.0
 10
403.39562035353708
 20
-1676.5316300801508
 30
0.0
 41
0.9990928098292107
 10
403.56213014544096
 20
-1676.5353897213856
 30
0.0
 41
1.0
 10
403.6006919807154
 20
-1676.5362604129186
 30
0.0
 41
1.0
 10
403.63925381598978
 20
-1676.5371311044519
 30
0.0
 41
1.0
 10
403.7286399373462
 20
-1676.5391493626207
 30
0.0
 41
0.9998382089207074
 10
403.81789562012978
 20
-1676.544381489148
 30
0.0
 41
1.0
 10
403.81832552634546
 20
-1676.54440669005
 30
0.0
 41
1.0
 10
403.81875543256109
 20
-1676.544431890952
 30
0.0
 41
1.0
 10
403.90715130291187
 20
-1676.5496136156751
 30
0.0
 41
0.9997558016757262
 10
403.99523188011676
 20
-1676.5586961310421
 30
0.0
 41
1.0
 10
403.99570801854838
 20
-1676.5587452285249
 30
0.0
 41
1.0
 10
403.99618415698001
 20
-1676.5587943260077
 30
0.0
 41
1.0
 10
404.08331245731955
 20
-1676.5677786464089
 30
0.0
 41
0.9996565144181326
 10
404.16985031065974
 20
-1676.5813159530983
 30
0.0
 41
1.0
 10
404.17031623603589
 20
-1676.5813888388293
 30
0.0
 41
1.0
 10
404.17078216141198
 20
-1676.5814617245605
 30
0.0
 41
1.0
 10
404.25638816400016
 20
-1676.5948532597874
 30
0.0
 41
0.9995321806868712
 10
404.3410152443297
 20
-1676.6134537482169
 30
0.0
 41
1.0
 10
404.34140443890362
 20
-1676.6135392906831
 30
0.0
 41
1.0
 10
404.34179363347749
 20
-1676.6136248331495
 30
0.0
 41
1.0
 10
404.42564232465952
 20
-1676.6320542366466
 30
0.0
 41
0.9993819199218749
 10
404.50798885885388
 20
-1676.6563296199067
 30
0.0
 41
1.0
 10
404.50822729235256
 20
-1676.6563999090163
 30
0.0
 41
1.0
 10
404.50846572585118
 20
-1676.6564701981258
 30
0.0
 41
1.0
 10
404.59033539305045
 20
-1676.6806050031676
 30
0.0
 41
0.9992088568507219
 10
404.67002791203834
 20
-1676.7111702389614
 30
0.0
 41
1.0
 10
404.74970890291758
 20
-1676.741729839694
 30
0.0
 41
0.9990226101771838
 10
404.82637957282452
 20
-1676.7792072713085
 30
0.0
 41
1.0
 10
404.9030387146218
 20
-1676.8166790678611
 30
0.0
 41
0.998842427397005
 10
404.97574234183327
 20
-1676.8613438431144
 30
0.0
 41
1.0
 10
404.9760100502134
 20
-1676.8615083071873
 30
0.0
 41
1.0
 10
404.9762777585936
 20
-1676.8616727712599
 30
0.0
 41
1.0
 10
405.04951680256488
 20
-1676.9066664746583
 30
0.0
 41
0.9986928844493747
 10
405.11777966927548
 20
-1676.9589022089383
 30
0.0
 41
1.0
 10
405.11836096149767
 20
-1676.9593470221657
 30
0.0
 41
1.0
 10
405.11894225371987
 20
-1676.9597918353932
 30
0.0
 41
1.0
 10
405.18836770487525
 20
-1677.0129171961282
 30
0.0
 41
0.9986007262276044
 10
405.25179387464152
 20
-1677.0730779658218
 30
0.0
 41
1.0
 10
405.25268829009889
 20
-1677.073926333657
 30
0.0
 41
1.0
 10
405.25358270555625
 20
-1677.0747747014923
 30
0.0
 41
1.0
 10
405.31879770623732
 20
-1677.1366322068563
 30
0.0
 41
0.9985581491382857
 10
405.37700531793939
 20
-1677.2051246971282
 30
0.0
 41
1.0
 10
405.38626377153503
 20
-1677.2160190548298
 30
0.0
 41
1.0
 10
405.39552222513066
 20
-1677.2269134125311
 30
0.0
 41
1.0
 10
405.47224674402395
 20
-1677.3171946182058
 30
0.0
 41
0.9970460233519806
 10
405.53423864518345
 20
-1677.4181617023874
 30
0.0
 41
1.0
 10
405.548708010263
 20
-1677.4417281614685
 30
0.0
 41
1.0
 10
405.5631773753426
 20
-1677.4652946205497
 30
0.0
 41
1.0
 10
405.6029140753547
 20
-1677.5300143445809
 30
0.0
 41
0.9988468816635431
 10
405.63626044610623
 20
-1677.5982467970091
 30
0.0
 41
1.0
 10
405.64329646859812
 20
-1677.6126437181474
 30
0.0
 41
1.0
 10
405.65033249109001
 20
-1677.6270406392857
 30
0.0
 41
1.0
 10
405.66960681685686
 20
-1677.6664792494348
 30
0.0
 41
0.9998431189997474
 10
405.68747214435268
 20
-1677.7065758038782
 30
0.0
 41
1.0
 10
405.70533747185107
 20
-1677.7466723583273
 30
0.0
 41
0.99999899896795
 10
405.72331619528165
 20
-1677.7867181959296
 30
0.0
 41
1.0
 10
405.72948850686993
 20
-1677.8004664127288
 30
0.0
 41
1.0
 10
405.7356608184582
 20
-1677.8142146295279
 30
0.0
 41
1.0
 10
405.76598416506755
 20
-1677.881756900734
 30
0.0
 41
0.9998790356320217
 10
405.79419204520707
 20
-1677.9502096526746
 30
0.0
 41
1.0
 10
405.80102722649133
 20
-1677.966796754102
 30
0.0
 41
1.0
 10
405.80786240777564
 20
-1677.9833838555294
 30
0.0
 41
1.0
 10
405.83142007015618
 20
-1678.0405518104158
 30
0.0
 41
0.9998227574561757
 10
405.85280881854487
 20
-1678.0985661186917
 30
0.0
 41
1.0
 10
405.87419756693339
 20
-1678.1565804269665
 30
0.0
 41
0.9996797971040822
 10
405.89262385189284
 20
-1678.2156025460858
 30
0.0
 41
1.0
 10
405.89652765461869
 20
-1678.2281070042559
 30
0.0
 41
1.0
 10
405.90043145734455
 20
-1678.2406114624257
 30
0.0
 41
1.0
 10
405.92666534775492
 20
-1678.3246424978818
 30
0.0
 41
0.9979274938734324
 10
405.94188987123414
 20
-1678.4113468565422
 30
0.0
 41
1.0
 10
405.94411355849513
 20
-1678.4240108573622
 30
0.0
 41
1.0
 10
405.94633724575618
 20
-1678.4366748581824
 30
0.0
 41
1.0
 10
405.95726718545478
 20
-1678.4989213654742
 30
0.0
 41
0.999498598213758
 10
405.9642353506315
 20
-1678.5617348666158
 30
0.0
 41
1.0
 10
405.9712035158081
 20
-1678.6245483677556
 30
0.0
 41
0.9996372611202269
 10
405.97477938157624
 20
-1678.6876459464409
 30
0.0
 41
1.0
 10
405.97494795906556
 20
-1678.6906205635228
 30
0.0
 41
1.0
 10
405.97511653655488
 20
-1678.6935951806047
 30
0.0
 41
1.0
 10
405.97902955730132
 20
-1678.76264199345
 30
0.0
 41
0.9997730630735561
 10
405.97999787078942
 20
-1678.8317928174856
 30
0.0
 41
1.0
 10
405.98005497720749
 20
-1678.8358709966269
 30
0.0
 41
1.0
 10
405.98011208362561
 20
-1678.8399491757684
 30
0.0
 41
1.0
 10
405.9811946099498
 20
-1678.9172563580905
 30
0.0
 41
0.9998772614070315
 10
405.97985452321814
 20
-1678.9945595046518
 30
0.0
 41
1.0
 10
405.97976526001941
 20
-1678.9997086684862
 30
0.0
 41
1.0
 10
405.97967599682067
 20
-1679.0048578323206
 30
0.0
 41
1.0
 10
405.97815738369121
 20
-1679.0924593065629
 30
0.0
 41
0.9999415567328004
 10
405.97474507344532
 20
-1679.1800074682349
 30
0.0
 41
1.0
 10
405.97450375277009
 20
-1679.1861989279696
 30
0.0
 41
1.0
 10
405.97426243209486
 20
-1679.1923903877043
 30
0.0
 41
1.0
 10
405.97036748049845
 20
-1679.2923214688492
 30
0.0
 41
0.9999716810422462
 10
405.96496889737955
 20
-1679.3921826070855
 30
0.0
 41
1.0
 10
405.96175609859125
 20
-1679.4516118567337
 30
0.0
 41
1.0
 10
405.95854329980295
 20
-1679.511041106382
 30
0.0
 41
1.0
 10
405.9504693906506
 20
-1679.6603895076607
 30
0.0
 41
0.9999819129908151
 10
405.94059959903279
 20
-1679.8096299853898
 30
0.0
 41
1.0
 10
405.93072980741613
 20
-1679.9588704631017
 30
0.0
 41
1.0
 10
405.92829048685235
 20
-1679.9960635089512
 30
0.0
 41
1.0
 10
405.9509887206703
 20
-1679.9573225116435
 30
0.0
 41
0.999998212818781
 10
405.97383327944738
 20
-1679.9186676176487
 30
0.0
 41
1.0
 10
406.00074283932798
 20
-1679.8731344036005
 30
0.0
 41
1.0
 10
406.02765239920859
 20
-1679.8276011895525
 30
0.0
 41
1.0
 10
406.10431607773307
 20
-1679.6978798674845
 30
0.0
 41
0.9998609190058995
 10
406.18526339059486
 20
-1679.5707874855552
 30
0.0
 41
1.0
 10
406.21491171207794
 20
-1679.524237752596
 30
0.0
 41
1.0
 10
406.24456003356102
 20
-1679.4776880196368
 30
0.0
 41
1.0
 10
406.32683225379594
 20
-1679.3485154496452
 30
0.0
 41
0.999906760973477
 10
406.41260126326074
 20
-1679.2216377602028
 30
0.0
 41
1.0
 10
406.41500596646006
 20
-1679.2180804941504
 30
0.0
 41
1.0
 10
406.41741066965943
 20
-1679.2145232280977
 30
0.0
 41
1.0
 10
406.49837027272332
 20
-1679.0947600707636
 30
0.0
 41
0.9998784952148481
 10
406.58302388240622
 20
-1678.977578854053
 30
0.0
 41
1.0
 10
406.66767749209089
 20
-1678.8603976373404
 30
0.0
 41
0.999853296828364
 10
406.75629511291663
 20
-1678.746184728866
 30
0.0
 41
1.0
 10
406.77625690190314
 20
-1678.7204574078517
 30
0.0
 41
1.0
 10
406.7962186908897
 20
-1678.6947300868374
 30
0.0
 41
1.0
 10
406.91470274064949
 20
-1678.5420244758673
 30
0.0
 41
0.9991551975795542
 10
407.04532719027463
 20
-1678.3995649137817
 30
0.0
 41
1.0
 10
407.04883680625454
 20
-1678.3957373121571
 30
0.0
 41
1.0
 10
407.05234642223445
 20
-1678.3919097105327
 30
0.0
 41
1.0
 10
407.17595163989802
 20
-1678.2571053516981
 30
0.0
 41
0.9997418144180736
 10
407.30555377959877
 20
-1678.1280559410854
 30
0.0
 41
1.0
 10
407.43515591930105
 20
-1677.9990065304717
 30
0.0
 41
0.9989238204633479
 10
407.57615846755408
 20
-1677.8825215684312
 30
0.0
 41
1.0
 10
407.62140614569171
 20
-1677.8451415768241
 30
0.0
 41
1.0
 10
407.66665382382934
 20
-1677.8077615852171
 30
0.0
 41
1.0
 10
407.80689388105054
 20
-1677.6919065319266
 30
0.0
 41
0.9990825084097321
 10
407.95653381365491
 20
-1677.588477534093
 30
0.0
 41
1.0
 10
407.96657917770767
 20
-1677.5815343210165
 30
0.0
 41
1.0
 10
407.97662454176037
 20
-1677.5745911079398
 30
0.0
 41
1.0
 10
408.10617374625531
 20
-1677.485048536262
 30
0.0
 41
0.9998164899824913
 10
408.23905794963514
 20
-1677.4005342947432
 30
0.0
 41
1.0
 10
408.25090351016092
 20
-1677.3930005282177
 30
0.0
 41
1.0
 10
408.26274907068677
 20
-1677.385466761692
 30
0.0
 41
1.0
 10
408.37194215301224
 20
-1677.3160200532263
 30
0.0
 41
0.9997473449129817
 10
408.48414611026089
 20
-1677.2515510954111
 30
0.0
 41
1.0
 10
408.5963500675125
 20
-1677.1870821375942
 30
0.0
 41
0.9999327861141348
 10
408.7100186782813
 20
-1677.1252321459099
 30
0.0
 41
1.0
 10
408.71057068083826
 20
-1677.1249317872328
 30
0.0
 41
1.0
 10
408.71112268339516
 20
-1677.1246314285556
 30
0.0
 41
1.0
 10
408.82589529927947
 20
-1677.0621807195162
 30
0.0
 41
0.9996956420483801
 10
408.94360862511991
 20
-1677.0054672525414
 30
0.0
 41
1.0
 10
408.97404903001132
 20
-1676.9908012758119
 30
0.0
 41
1.0
 10
409.00448943490267
 20
-1676.9761352990827
 30
0.0
 41
1.0
 10
409.10746654164922
 20
-1676.9265216406382
 30
0.0
 41
0.999807057017739
 10
409.21231293059054
 20
-1676.8809910537368
 30
0.0
 41
1.0
 10
409.31715931953369
 20
-1676.8354604668348
 30
0.0
 41
0.999782743614851
 10
409.4238122561465
 20
-1676.7943392955219
 30
0.0
 41
1.0
 10
409.44303510577527
 20
-1676.7869277218906
 30
0.0
 41
1.0
 10
409.46225795540408
 20
-1676.7795161482593
 30
0.0
 41
1.0
 10
409.6073565912771
 20
-1676.7235718296827
 30
0.0
 41
0.9988031841977549
 10
409.75722695388185
 20
-1676.6820717655148
 30
0.0
 41
1.0
 10
409.78214420224526
 20
-1676.675172019708
 30
0.0
 41
1.0
 10
409.80706145060861
 20
-1676.668272273901
 30
0.0
 41
1.0
 10
409.9743314762556
 20
-1676.6219541314942
 30
0.0
 41
0.9984748040550214
 10
410.14568838490402
 20
-1676.5943598992292
 30
0.0
 41
1.0
 10
410.15042752115136
 20
-1676.5935967387159
 30
0.0
 41
1.0
 10
410.15516665739869
 20
-1676.5928335782028
 30
0.0
 41
1.0
 10
410.3170452935513
 20
-1676.5667656669641
 30
0.0
 41
0.9984436495478039
 10
410.48082003727779
 20
-1676.5588877131461
 30
0.0
 41
1.0
 10
410.50251724541067
 20
-1676.5578440259465
 30
0.0
 41
1.0
 10
410.52421445354349
 20
-1676.5568003387468
 30
0.0
 41
1.0
 10
410.644594781004
 20
-1676.5510097593281
 30
0.0
 41
0.9987954789336595
 10
410.76496302591227
 20
-1676.5570462870703
 30
0.0
 41
1.0
 10
410.7849278184068
 20
-1676.5580475314089
 30
0.0
 41
1.0
 10
410.80489261090128
 20
-1676.5590487757474
 30
0.0
 41
1.0
 10
410.88533127082218
 20
-1676.5630828148126
 30
0.0
 41
0.9997941595878839
 10
410.96554004891641
 20
-1676.5703768807336
 30
0.0
 41
1.0
 10
411.04574882700848
 20
-1676.5776709466545
 30
0.0
 41
0.9998589466238786
 10
411.1256673738614
 20
-1676.5876548011042
 30
0.0
 41
1.0
 10
411.15807357567189
 20
-1676.5917031580238
 30
0.0
 41
1.0
 10
411.19047977748232
 20
-1676.5957515149432
 30
0.0
 41
1.0
 10
411.33521072795344
 20
-1676.6138320832317
 30
0.0
 41
0.9993495063249503
 10
411.47826197171923
 20
-1676.6422977929733
 30
0.0
 41
1.0
 10
411.51119566887144
 20
-1676.6488512561882
 30
0.0
 41
1.0
 10
411.54412936602358
 20
-1676.6554047194029
 30
0.0
 41
1.0
 10
411.65342318922791
 20
-1676.6771530535382
 30
0.0
 41
0.9996788715561077
 10
411.76147476118445
 20
-1676.704410852901
 30
0.0
 41
1.0
 10
411.76353776372275
 20
-1676.7049312794738
 30
0.0
 41
1.0
 10
411.765600766261
 20
-1676.7054517060465
 30
0.0
 41
1.0
 10
411.86952633314053
 20
-1676.7316686522638
 30
0.0
 41
0.999548065449269
 10
411.97168856837038
 20
-1676.7640836088879
 30
0.0
 41
1.0
 10
411.97337821050138
 20
-1676.7646197138024
 30
0.0
 41
1.0
 10
411.97506785263238
 20
-1676.7651558187169
 30
0.0
 41
1.0
 10
412.07385080360223
 20
-1676.7964985655128
 30
0.0
 41
0.9993867959455026
 10
412.17019796204249
 20
-1676.8346779348024
 30
0.0
 41
1.0
 10
412.17144091112607
 20
-1676.8351704766981
 30
0.0
 41
1.0
 10
412.17268386020964
 20
-1676.8356630185938
 30
0.0
 41
1.0
 10
412.2665451204831
 20
-1676.8728573040919
 30
0.0
 41
0.999205025652423
 10
412.35714479551825
 20
-1676.9174112033309
 30
0.0
 41
1.0
 10
412.35787947823178
 20
-1676.9177724957922
 30
0.0
 41
1.0
 10
412.35861416094536
 20
-1676.9181337882535
 30
0.0
 41
1.0
 10
412.44774447055272
 20
-1676.9619651025698
 30
0.0
 41
0.9990222350740842
 10
412.53265453194524
 20
-1677.0134983702676
 30
0.0
 41
1.0
 10
412.53283841722771
 20
-1677.0136099731722
 30
0.0
 41
1.0
 10
412.53302230251012
 20
-1677.0137215760769
 30
0.0
 41
1.0
 10
412.61756459333913
 20
-1677.0650316379665
 30
0.0
 41
0.9988642743805879
 10
412.69683912795801
 20
-1677.1241558254917
 30
0.0
 41
1.0
 10
412.77611366257668
 20
-1677.1832800130167
 30
0.0
 41
0.9987681233311755
 10
412.8491374468536
 20
-1677.2499707044178
 30
0.0
 41
1.0
 10
412.84946637481914
 20
-1677.2502711056318
 30
0.0
 41
1.0
 10
412.84979530278474
 20
-1677.2505715068457
 30
0.0
 41
1.0
 10
412.92347694299309
 20
-1677.3178630006753
 30
0.0
 41
0.9987496570897645
 10
412.99007074831968
 20
-1677.3921758147615
 30
0.0
 41
1.0
 10
412.99084291808009
 20
-1677.3930374881193
 30
0.0
 41
1.0
 10
412.9916150878405
 20
-1677.3938991614771
 30
0.0
 41
1.0
 10
413.05975323268837
 20
-1677.4699353222798
 30
0.0
 41
0.9988147669828074
 10
413.12017548691449
 20
-1677.5522363291234
 30
0.0
 41
1.0
 10
413.12129481299172
 20
-1677.5537609604753
 30
0.0
 41
1.0
 10
413.12241413906895
 20
-1677.555285591827
 30
0.0
 41
1.0
 10
413.18507504544903
 20
-1677.6406358613735
 30
0.0
 41
0.9989452636215358
 10
413.23964195840995
 20
-1677.7313745505307
 30
0.0
 41
1.0
 10
413.24099068449607
 20
-1677.7336173315575
 30
0.0
 41
1.0
 10
413.24233941058219
 20
-1677.7358601125845
 30
0.0
 41
1.0
 10
413.29960377571456
 20
-1677.8310843637939
 30
0.0
 41
0.9991046436070487
 10
413.34861298903633
 20
-1677.9308087968197
 30
0.0
 41
1.0
 10
413.35007685062646
 20
-1677.9337874768926
 30
0.0
 41
1.0
 10
413.35154071221655
 20
-1677.9367661569652
 30
0.0
 41
1.0
 10
413.40347764871825
 20
-1678.0424479501357
 30
0.0
 41
0.9992763831100991
 10
413.44723077727286
 20
-1678.1517720120908
 30
0.0
 41
1.0
 10
413.44871004693641
 20
-1678.1554681996249
 30
0.0
 41
1.0
 10
413.4501893165999
 20
-1678.1591643871591
 30
0.0
 41
1.0
 10
413.49690098448235
 20
-1678.2758808241847
 30
0.0
 41
0.9994163472883842
 10
413.53553401567183
 20
-1678.3955144126476
 30
0.0
 41
1.0
 10
413.53677216791846
 20
-1678.3993485564301
 30
0.0
 41
1.0
 10
413.53801032016514
 20
-1678.4031827002125
 30
0.0
 41
1.0
 10
413.57789388118215
 20
-1678.5266887616897
 30
0.0
 41
0.9997268055891027
 10
413.61196193709429
 20
-1678.6519237936411
 30
0.0
 41
1.0
 10
413.61289211736403
 20
-1678.6553431597508
 30
0.0
 41
1.0
 10
413.61382229763382
 20
-1678.6587625258603
 30
0.0
 41
1.0
 10
413.64602999300666
 20
-1678.777158825593
 30
0.0
 41
0.9996701319000267
 10
413.67211560977682
 20
-1678.8970527788554
 30
0.0
 41
1.0
 10
413.69820122654733
 20
-1679.016946732118
 30
0.0
 41
0.9995785451108784
 10
413.71728480388686
 20
-1679.1381524931492
 30
0.0
 41
1.0
 10
413.72150458606058
 20
-1679.1649536479142
 30
0.0
 41
1.0
 10
413.7257243682343
 20
-1679.1917548026793
 30
0.0
 41
1.0
 10
413.75229934417314
 20
-1679.3605407763823
 30
0.0
 41
0.9979925101216129
 10
413.75732493009934
 20
-1679.5313321044753
 30
0.0
 41
1.0
 10
413.75814974252398
 20
-1679.5593628279576
 30
0.0
 41
1.0
 10
413.75897455494868
 20
-1679.5873935514398
 30
0.0
 41
1.0
 10
413.76235051602555
 20
-1679.7021234325664
 30
0.0
 41
0.9995314902263296
 10
413.75870032388718
 20
-1679.8168449163188
 30
0.0
 41
1.0
 10
413.75505013174859
 20
-1679.9315664000717
 30
0.0
 41
0.999624548694434
 10
413.74512103661772
 20
-1680.0459156711952
 30
0.0
 41
1.0
 10
413.74495798862347
 20
-1680.0477934273301
 30
0.0
 41
1.0
 10
413.74479494062928
 20
-1680.0496711834651
 30
0.0
 41
1.0
 10
413.73453974951002
 20
-1680.1677759668585
 30
0.0
 41
0.9997286095001563
 10
413.7187944259386
 20
-1680.2852748757532
 30
0.0
 41
1.0
 10
413.71840093328819
 20
-1680.2882113004553
 30
0.0
 41
1.0
 10
413.71800744063785
 20
-1680.2911477251575
 30
0.0
 41
1.0
 10
413.70147513176511
 20
-1680.4145194834603
 30
0.0
 41
0.9998265533968693
 10
413.68035967303223
 20
-1680.5371899582497
 30
0.0
 41
1.0
 10
413.67968313089557
 20
-1680.5411203367544
 30
0.0
 41
1.0
 10
413.67900658875885
 20
-1680.5450507152593
 30
0.0
 41
1.0
 10
413.65653804575169
 20
-1680.6755819470636
 30
0.0
 41
0.9999022530853203
 10
413.63042858114267
 20
-1680.8054339156972
 30
0.0
 41
1.0
 10
413.62944993997689
 20
-1680.8103010580865
 30
0.0
 41
1.0
 10
413.62847129881118
 20
-1680.8151682004757
 30
0.0
 41
1.0
 10
413.60040455187146
 20
-1680.9547544538843
 30
0.0
 41
0.9999524761935162
 10
413.56962158303674
 20
-1681.0937669470486
 30
0.0
 41
1.0
 10
413.56834547586072
 20
-1681.0995297063532
 30
0.0
 41
1.0
 10
413.56706936868477
 20
-1681.1052924656581
 30
0.0
 41
1.0
 10
413.53373418550109
 20
-1681.2558304774184
 30
0.0
 41
0.999981358873526
 10
413.4985631847029
 20
-1681.4059501900854
 30
0.0
 41
1.0
 10
413.49700925924657
 20
-1681.4125827805069
 30
0.0
 41
1.0
 10
413.49545533379023
 20
-1681.4192153709284
 30
0.0
 41
1.0
 10
413.45717648208489
 20
-1681.5826002644144
 30
0.0
 41
0.99999552376265
 10
413.41792060410279
 20
-1681.7457531680277
 30
0.0
 41
1.0
 10
413.40563896846743
 20
-1681.7967973585548
 30
0.0
 41
1.0
 10
413.39335733283201
 20
-1681.847841549082
 30
0.0
 41
1.0
 10
413.32953818357589
 20
-1682.1130828337627
 30
0.0
 41
0.9999993604884727
 10
413.26511923641544
 20
-1682.3781790844159
 30
0.0
 41
1.0
 10
413.26040040086809
 20
-1682.3975979924576
 30
0.0
 41
1.0
 10
413.25568156532074
 20
-1682.4170169004994
 30
0.0
 41
1.0
 10
413.18182494705741
 20
-1682.7209509672693
 30
0.0
 41
0.9999659914730816
 10
413.1029653511697
 20
-1683.0236255138382
 30
0.0
 41
1.0
 10
413.09801266224167
 20
-1683.0426346510105
 30
0.0
 41
1.0
 10
413.09305997331364
 20
-1683.0616437881829
 30
0.0
 41
1.0
 10
413.00429499956743
 20
-1683.4023366091049
 30
0.0
 41
0.9999441976031209
 10
412.90835196660368
 20
-1683.7410780344048
 30
0.0
 41
1.0
 10
412.89165144817866
 20
-1683.8000417469307
 30
0.0
 41
1.0
 10
412.87495092975371
 20
-1683.8590054594563
 30
0.0
 41
1.0
 10
412.74560685994049
 20
-1684.3156743098061
 30
0.0
 41
0.9999625120736514
 10
412.60837409261632
 20
-1684.7700348438043
 30
0.0
 41
1.0
 10
412.57258414953219
 20
-1684.8885308704353
 30
0.0
 41
1.0
 10
412.53679420644806
 20
-1685.007026897066
 30
0.0
 41
1.0
 10
412.4622740024094
 20
-1685.2537539751597
 30
0.0
 41
0.9999793386310577
 10
412.38458797927126
 20
-1685.4995026143981
 30
0.0
 41
1.0
 10
412.30690195613374
 20
-1685.745251253634
 30
0.0
 41
1.0
 10
412.29612239726293
 20
-1685.77926915801
 30
0.0
 41
1.0
 10
410.44574934399373
 20
-1691.666341080477
 30
0.0
 41
1.0
 10
408.59537629072452
 20
-1697.5534130029439
 30
0.0
 41
1.0
 10
407.63411960070107
 20
-1697.5534130029439
 30
0.0
 41
1.0
 10
406.67286291067762
 20
-1697.5534130029439
 30
0.0
 41
1.0
 10
408.29180768935601
 20
-1692.4053845011542
 30
0.0
 41
1.0
 10
409.91075246803439
 20
-1687.2573559993646
 30
0.0
 41
1.0
 10
409.95591829120747
 20
-1687.1133247770988
 30
0.0
 41
1.0
 10
410.00108411438055
 20
-1686.969293554833
 30
0.0
 41
1.0
 10
410.17138853174515
 20
-1686.4262025256651
 30
0.0
 41
0.9999911657890155
 10
410.33712134342591
 20
-1685.8816989943
 30
0.0
 41
1.0
 10
410.36681728692975
 20
-1685.7841350542385
 30
0.0
 41
1.0
 10
410.39651323043364
 20
-1685.6865711141768
 30
0.0
 41
1.0
 10
410.5028541551078
 20
-1685.3371954629315
 30
0.0
 41
0.9999952428137511
 10
410.60703774443118
 20
-1684.9871704385862
 30
0.0
 41
1.0
 10
410.61209721475643
 20
-1684.9701721643353
 30
0.0
 41
1.0
 10
410.61715668508168
 20
-1684.9531738900844
 30
0.0
 41
1.0
 10
410.71122133375127
 20
-1684.6371454142527
 30
0.0
 41
0.9999931687481172
 10
410.80294717162974
 20
-1684.3204302009656
 30
0.0
 41
1.0
 10
410.80788243609231
 20
-1684.3033894916841
 30
0.0
 41
1.0
 10
410.81281770055483
 20
-1684.2863487824027
 30
0.0
 41
1.0
 10
410.89467300950838
 20
-1684.0037149876775
 30
0.0
 41
0.9999893840798241
 10
410.97392023596012
 20
-1683.7203388584487
 30
0.0
 41
1.0
 10
411.05316746241635
 20
-1683.4369627292044
 30
0.0
 41
0.9999833980075493
 10
411.12914370315281
 20
-1683.1526921461959
 30
0.0
 41
1.0
 10
411.13814763987853
 20
-1683.1190032677046
 30
0.0
 41
1.0
 10
411.1471515766043
 20
-1683.085314389213
 30
0.0
 41
1.0
 10
411.21611612547179
 20
-1682.8272785569129
 30
0.0
 41
0.9999233658070147
 10
411.27867109669057
 20
-1682.5676143981957
 30
0.0
 41
1.0
 10
411.34122606791084
 20
-1682.3079502394733
 30
0.0
 41
1.0
 10
411.38070948676841
 20
-1682.1441435750469
 30
0.0
 41
1.0
 10
411.38568809074661
 20
-1682.1234886131729
 30
0.0
 41
1.0
 10
411.39066669472476
 20
-1682.1028336512986
 30
0.0
 41
1.0
 10
411.42019290562615
 20
-1681.9803369106194
 30
0.0
 41
0.999986867087194
 10
411.44846198962216
 20
-1681.8575439649751
 30
0.0
 41
1.0
 10
411.45235947677975
 20
-1681.8406143775587
 30
0.0
 41
1.0
 10
411.45625696393734
 20
-1681.8236847901424
 30
0.0
 41
1.0
 10
411.4767310736176
 20
-1681.7347510193333
 30
0.0
 41
0.9999778173345988
 10
411.49601867173385
 20
-1681.6455524020996
 30
0.0
 41
1.0
 10
411.515306269848
 20
-1681.5563537848755
 30
0.0
 41
0.9999602692859154
 10
411.5330006284799
 20
-1681.4668254964442
 30
0.0
 41
1.0
 10
411.53620446055754
 20
-1681.4506150415582
 30
0.0
 41
1.0
 10
411.53940829263524
 20
-1681.4344045866721
 30
0.0
 41
1.0
 10
411.56351031542181
 20
-1681.3124553884713
 30
0.0
 41
0.999561798532043
 10
411.58035366264028
 20
-1681.1892936407662
 30
0.0
 41
1.0
 10
411.58281815254634
 20
-1681.1712728234015
 30
0.0
 41
1.0
 10
411.58528264245246
 20
-1681.1532520060371
 30
0.0
 41
1.0
 10
411.60556590350075
 20
-1681.0049369563355
 30
0.0
 41
0.9991121410639781
 10
411.61329125708903
 20
-1680.8554408575294
 30
0.0
 41
1.0
 10
411.6142100471136
 20
-1680.837661020953
 30
0.0
 41
1.0
 10
411.61512883713817
 20
-1680.8198811843765
 30
0.0
 41
1.0
 10
411.62101661067732
 20
-1680.7059447587226
 30
0.0
 41
0.9989792494905355
 10
411.61659751855996
 20
-1680.5919419228242
 30
0.0
 41
1.0
 10
411.61594954669124
 20
-1680.5752256768956
 30
0.0
 41
1.0
 10
411.61530157482252
 20
-1680.5585094309668
 30
0.0
 41
1.0
 10
411.61217842644254
 20
-1680.4779390869244
 30
0.0
 41
0.9997820295394848
 10
411.60569442906694
 20
-1680.3975693651821
 30
0.0
 41
1.0
 10
411.59921043169112
 20
-1680.3171996434362
 30
0.0
 41
0.9998335105973769
 10
411.58979823617972
 20
-1680.2371200269899
 30
0.0
 41
1.0
 10
411.58820331150326
 20
-1680.2235502965059
 30
0.0
 41
1.0
 10
411.58660838682681
 20
-1680.2099805660221
 30
0.0
 41
1.0
 10
411.5740063419625
 20
-1680.1027614886066
 30
0.0
 41
0.9996876457879854
 10
411.556062429164
 20
-1679.9963060608889
 30
0.0
 41
1.0
 10
411.55383076601868
 20
-1679.9830663256471
 30
0.0
 41
1.0
 10
411.55159910287341
 20
-1679.9698265904053
 30
0.0
 41
1.0
 10
411.53780328145274
 20
-1679.8879804464493
 30
0.0
 41
0.9995547496494586
 10
411.51914995955985
 20
-1679.8071029492569
 30
0.0
 41
1.0
 10
411.51877600268847
 20
-1679.805481538551
 30
0.0
 41
1.0
 10
411.51840204581703
 20
-1679.8038601278452
 30
0.0
 41
1.0
 10
411.50049663766674
 20
-1679.7262254520645
 30
0.0
 41
0.9994899427175858
 10
411.47767172898784
 20
-1679.6498921692312
 30
0.0
 41
1.0
 10
411.47721320224719
 20
-1679.6483587194427
 30
0.0
 41
1.0
 10
411.47675467550647
 20
-1679.6468252696543
 30
0.0
 41
1.0
 10
411.45484682030843
 20
-1679.5735588863963
 30
0.0
 41
0.9993784877591128
 10
411.42783118520197
 20
-1679.5020181812372
 30
0.0
 41
1.0
 10
411.42729949422505
 20
-1679.5006101985166
 30
0.0
 41
1.0
 10
411.42676780324814
 20
-1679.499202215796
 30
0.0
 41
1.0
 10
411.40081555009522
 20
-1679.4304774760776
 30
0.0
 41
0.9992430832254015
 10
411.36959901493606
 20
-1679.3639783240098
 30
0.0
 41
1.0
 10
411.36901689887964
 20
-1679.3627382688928
 30
0.0
 41
1.0
 10
411.36843478282321
 20
-1679.361498213776
 30
0.0
 41
1.0
 10
411.33838247977707
 20
-1679.2974791719423
 30
0.0
 41
0.9990789632797775
 10
411.30295185299997
 20
-1679.2362725601927
 30
0.0
 41
1.0
 10
411.30235614681777
 20
-1679.2352434743332
 30
0.0
 41
1.0
 10
411.30176044063558
 20
-1679.2342143884737
 30
0.0
 41
1.0
 10
411.26752122622287
 20
-1679.1750659484428
 30
0.0
 41
0.9988874801120919
 10
411.22786195019114
 20
-1679.1194062360257
 30
0.0
 41
1.0
 10
411.22730642412705
 20
-1679.1186265843512
 30
0.0
 41
1.0
 10
411.22675089806302
 20
-1679.1178469326769
 30
0.0
 41
1.0
 10
411.18820267415941
 20
-1679.0637465236084
 30
0.0
 41
0.9986762060694543
 10
411.14430020288307
 20
-1679.0138928091685
 30
0.0
 41
1.0
 10
411.14385624255158
 20
-1679.0133886673527
 30
0.0
 41
1.0
 10
411.14341228222014
 20
-1679.0128845255369
 30
0.0
 41
1.0
 10
411.10039773160793
 20
-1678.9640390947302
 30
0.0
 41
0.9984621642489241
 10
411.05224017482908
 20
-1678.9202557942574
 30
0.0
 41
1.0
 10
411.05199354031157
 20
-1678.9200315620931
 30
0.0
 41
1.0
 10
411.05174690579406
 20
-1678.9198073299287
 30
0.0
 41
1.0
 10
411.00408261805023
 20
-1678.8764724937848
 30
0.0
 41
0.9982724693847278
 10
410.95166398620984
 20
-1678.8390281432687
 30
0.0
 41
1.0
 10
410.8992453543687
 20
-1678.8015837927519
 30
0.0
 41
0.9981399180160365
 10
410.84265929097683
 20
-1678.7707972733094
 30
0.0
 41
1.0
 10
410.84261362889748
 20
-1678.7707724301517
 30
0.0
 41
1.0
 10
410.84256796681814
 20
-1678.770747586994
 30
0.0
 41
1.0
 10
410.78589057926843
 20
-1678.7399113812369
 30
0.0
 41
0.9980927086841026
 10
410.72584522820245
 20
-1678.716294572384
 30
0.0
 41
1.0
 10
410.72540505849031
 20
-1678.7161214465086
 30
0.0
 41
1.0
 10
410.72496488877812
 20
-1678.7159483206335
 30
0.0
 41
1.0
 10
410.66403919828764
 20
-1678.6919852600304
 30
0.0
 41
0.9981411356558582
 10
410.60065067688737
 20
-1678.6756126185248
 30
0.0
 41
1.0
 10
410.5997685601867
 20
-1678.6753847763196
 30
0.0
 41
1.0
 10
410.59888644348609
 20
-1678.6751569341143
 30
0.0
 41
1.0
 10
410.53373368868426
 20
-1678.6583286081982
 30
0.0
 41
0.9983031812936263
 10
410.46706625969017
 20
-1678.6491892470219
 30
0.0
 41
1.0
 10
410.45819523428543
 20
-1678.6479731283505
 30
0.0
 41
1.0
 10
410.44932420888063
 20
-1678.646757009679
 30
0.0
 41
1.0
 10
410.39497456637696
 20
-1678.6393062796881
 30
0.0
 41
0.9983887708264927
 10
410.34013071708421
 20
-1678.6380616060544
 30
0.0
 41
1.0
 10
410.33206731186874
 20
-1678.6378786081796
 30
0.0
 41
1.0
 10
410.32400390665327
 20
-1678.6376956103047
 30
0.0
 41
1.0
 10
410.28528686779339
 20
-1678.6368169324207
 30
0.0
 41
0.9998869563078745
 10
410.24656091458871
 20
-1678.6371028017804
 30
0.0
 41
1.0
 10
410.20783496135505
 20
-1678.6373886711403
 30
0.0
 41
0.9999972320030444
 10
410.16911078211484
 20
-1678.6378567706697
 30
0.0
 41
1.0
 10
410.14975776556503
 20
-1678.6380907107587
 30
0.0
 41
1.0
 10
410.13040474901527
 20
-1678.6383246508478
 30
0.0
 41
1.0
 10
410.05297453664713
 20
-1678.6392606305556
 30
0.0
 41
0.999730494508568
 10
409.97567123041233
 20
-1678.643789724342
 30
0.0
 41
1.0
 10
409.96662158870538
 20
-1678.6443199303321
 30
0.0
 41
1.0
 10
409.95757194699843
 20
-1678.6448501363222
 30
0.0
 41
1.0
 10
409.86216935735035
 20
-1678.6504396420892
 30
0.0
 41
0.9997888306415801
 10
409.76707702150617
 20
-1678.6599446065779
 30
0.0
 41
1.0
 10
409.75835595993522
 20
-1678.6608163212099
 30
0.0
 41
1.0
 10
409.74963489836421
 20
-1678.6616880358417
 30
0.0
 41
1.0
 10
409.63710043937635
 20
-1678.6729364295945
 30
0.0
 41
0.9984170238189434
 10
409.52654129202563
 20
-1678.6967525115301
 30
0.0
 41
1.0
 10
409.49016016103803
 20
-1678.7045895473366
 30
0.0
 41
1.0
 10
409.45377903005044
 20
-1678.7124265831428
 30
0.0
 41
1.0
 10
409.33858796162934
 20
-1678.7372404496523
 30
0.0
 41
0.997659285419673
 10
409.22785979522541
 20
-1678.7775391267999
 30
0.0
 41
1.0
 10
409.11713162882114
 20
-1678.8178378039474
 30
0.0
 41
0.9993255074354192
 10
409.00965983003061
 20
-1678.866154702439
 30
0.0
 41
1.0
 10
409.00503465110683
 20
-1678.868234078639
 30
0.0
 41
1.0
 10
409.00040947218304
 20
-1678.8703134548389
 30
0.0
 41
1.0
 10
408.88368731554493
 20
-1678.9227891057305
 30
0.0
 41
0.9976475078272276
 10
408.77523997123478
 20
-1678.9907370953892
 30
0.0
 41
1.0
 10
408.7568975771004
 20
-1679.0022295742035
 30
0.0
 41
1.0
 10
408.73855518296608
 20
-1679.0137220530178
 30
0.0
 41
1.0
 10
408.6543529914141
 20
-1679.0664791737863
 30
0.0
 41
0.9995131336407274
 10
408.57360527645608
 20
-1679.1243853857397
 30
0.0
 41
1.0
 10
408.49285756149891
 20
-1679.1822915976927
 30
0.0
 41
0.9995810107606675
 10
408.41559591377091
 20
-1679.2447732801575
 30
0.0
 41
1.0
 10
408.41262588256029
 20
-1679.2471751516223
 30
0.0
 41
1.0
 10
408.40965585134973
 20
-1679.2495770230873
 30
0.0
 41
1.0
 10
408.32645414119975
 20
-1679.3168624484829
 30
0.0
 41
0.9996617837953583
 10
408.24686345406263
 20
-1679.3883829040451
 30
0.0
 41
1.0
 10
408.23473270318959
 20
-1679.3992836370323
 30
0.0
 41
1.0
 10
408.22260195231655
 20
-1679.4101843700196
 30
0.0
 41
1.0
 10
408.15432642491714
 20
-1679.471536985495
 30
0.0
 41
0.9997267750054588
 10
408.08899291663033
 20
-1679.5360135220228
 30
0.0
 41
1.0
 10
408.0236594083384
 20
-1679.6004900585558
 30
0.0
 41
0.9999667288958382
 10
407.95938646518334
 20
-1679.6660238654588
 30
0.0
 41
1.0
 10
407.89055901741654
 20
-1679.7362015242086
 30
0.0
 41
1.0
 10
407.82173156964973
 20
-1679.8063791829584
 30
0.0
 41
1.0
 10
407.61980373095383
 20
-1680.012268307368
 30
0.0
 41
0.9988205335174928
 10
407.43879811397403
 20
-1680.2367725394292
 30
0.0
 41
1.0
 10
407.40815814906904
 20
-1680.2747757898596
 30
0.0
 41
1.0
 10
407.37751818416405
 20
-1680.3127790402898
 30
0.0
 41
1.0
 10
407.13523263737596
 20
-1680.6132897732095
 30
0.0
 41
0.9997077826755441
 10
406.90775468627004
 20
-1680.9251595674264
 30
0.0
 41
1.0
 10
406.90603127113945
 20
-1680.9275223508062
 30
0.0
 41
1.0
 10
406.90430785600893
 20
-1680.9298851341857
 30
0.0
 41
1.0
 10
406.67338307464217
 20
-1681.2464804951614
 30
0.0
 41
0.9989147567078471
 10
406.47291957175884
 20
-1681.5831899563466
 30
0.0
 41
1.0
 10
406.44817842645421
 20
-1681.6247465368951
 30
0.0
 41
1.0
 10
406.42343728114957
 20
-1681.6663031174435
 30
0.0
 41
1.0
 10
406.26822598250936
 20
-1681.9270045019016
 30
0.0
 41
0.9997476598181767
 10
406.12488099499842
 20
-1682.1944142504865
 30
0.0
 41
1.0
 10
405.98153600748839
 20
-1682.46182399907
 30
0.0
 41
0.999625896711041
 10
405.85302775555601
 20
-1682.7366719356955
 30
0.0
 41
1.0
 10
405.83982784610691
 20
-1682.7649033357898
 30
0.0
 41
1.0
 10
405.82662793665781
 20
-1682.7931347358842
 30
0.0
 41
1.0
 10
405.68641921565813
 20
-1683.0930071338366
 30
0.0
 41
0.999873541394476
 10
405.55581786893731
 20
-1683.397186733305
 30
0.0
 41
1.0
 10
405.55237504087518
 20
-1683.4052053187734
 30
0.0
 41
1.0
 10
405.5489322128131
 20
-1683.4132239042419
 30
0.0
 41
1.0
 10
405.42521652221467
 20
-1683.7013663327778
 30
0.0
 41
0.9999377418862224
 10
405.30796172004216
 20
-1683.9921978004479
 30
0.0
 41
1.0
 10
405.19070691786578
 20
-1684.2830292681274
 30
0.0
 41
0.9999508299503769
 10
405.07924297449011
 20
-1684.5761289449442
 30
0.0
 41
1.0
 10
405.07616220582736
 20
-1684.5842299709088
 30
0.0
 41
1.0
 10
405.07308143716466
 20
-1684.5923309968732
 30
0.0
 41
1.0
 10
404.95545595646502
 20
-1684.9016327256147
 30
0.0
 41
0.9999609228431802
 10
404.84331735359285
 20
-1685.2129657416251
 30
0.0
 41
1.0
 10
404.840361343241
 20
-1685.2211725820407
 30
0.0
 41
1.0
 10
404.83740533288915
 20
-1685.2293794224563
 30
0.0
 41
1.0
 10
404.7193547093139
 20
-1685.5571261192963
 30
0.0
 41
0.9999674607410601
 10
404.60660718324289
 20
-1685.8867347393002
 30
0.0
 41
1.0
 10
404.55520879268255
 20
-1686.036993934986
 30
0.0
 41
1.0
 10
404.50381040212221
 20
-1686.1872531306717
 30
0.0
 41
1.0
 10
404.38779979536321
 20
-1686.5264011131787
 30
0.0
 41
0.9999287532309134
 10
404.27991839139418
 20
-1686.8682218521492
 30
0.0
 41
1.0
 10
404.23344113526065
 20
-1687.0154843965024
 30
0.0
 41
1.0
 10
404.18696387912712
 20
-1687.1627469408554
 30
0.0
 41
1.0
 10
404.17203698745186
 20
-1687.2100425910353
 30
0.0
 41
0.9999998224419709
 10
404.15716647869294
 20
-1687.2573559993646
 30
0.0
 41
1.0
 10
402.5365103418975
 20
-1692.4053845011542
 30
0.0
 41
1.0
 10
400.91585420510205
 20
-1697.5534130029439
 30
0.0
 41
1.0
 10
400.01054576121112
 20
-1697.5534130029439
 30
0.0
 41
1.0
 10
399.10523731732019
 20
-1697.5534130029439
 30
0.0
 41
1.0
 10
400.95732172870623
 20
-1691.666341080477
 30
0.0
 41
1.0
 10
402.80940614009228
 20
-1685.77926915801
 30
0.0
 41
1.0
 10
402.81952789839511
 20
-1685.7472259445597
 30
0.0
 41
1.0
 10
402.89213556724485
 20
-1685.5169264027338
 30
0.0
 41
1.0
 10
402.96474323609016
 20
-1685.2866268609221
 30
0.0
 41
0.9999825681973533
 10
403.03462627530337
 20
-1685.0554859658519
 30
0.0
 41
1.0
 10
403.08291733746444
 20
-1684.895761382355
 30
0.0
 41
1.0
 10
403.13120839962545
 20
-1684.7360367988583
 30
0.0
 41
1.0
 10
403.22836075294157
 20
-1684.4147015770859
 30
0.0
 41
0.999967252896894
 10
403.32029955856683
 20
-1684.0918360314929
 30
0.0
 41
1.0
 10
403.32308844223576
 20
-1684.0820421861058
 30
0.0
 41
1.0
 10
403.32587732590468
 20
-1684.0722483407187
 30
0.0
 41
1.0
 10
403.41223836418953
 20
-1683.7689704859085
 30
0.0
 41
0.9999899749165004
 10
403.49587997372487
 20
-1683.4649313974544
 30
0.0
 41
1.0
 10
403.50598589274387
 20
-1683.4281961597706
 30
0.0
 41
1.0
 10
403.51609181176292
 20
-1683.3914609220867
 30
0.0
 41
1.0
 10
403.57952158326009
 20
-1683.1608923090007
 30
0.0
 41
0.9999214200503666
 10
403.63715101163734
 20
-1682.9288059667927
 30
0.0
 41
1.0
 10
403.64991686381666
 20
-1682.8773950814013
 30
0.0
 41
1.0
 10
403.66268271599603
 20
-1682.82598419601
 30
0.0
 41
1.0
 10
403.6947804400146
 20
-1682.6967196245851
 30
0.0
 41
0.9999828681675352
 10
403.72536269201044
 20
-1682.5670881501158
 30
0.0
 41
1.0
 10
403.75594494400644
 20
-1682.4374566756464
 30
0.0
 41
0.9999389844474494
 10
403.7836559327971
 20
-1682.3071812197388
 30
0.0
 41
1.0
 10
403.79079367651627
 20
-1682.273625115906
 30
0.0
 41
1.0
 10
403.7979314202355
 20
-1682.2400690120733
 30
0.0
 41
1.0
 10
403.83991789646478
 20
-1682.0426813484996
 30
0.0
 41
0.9998933699440749
 10
403.87612216086615
 20
-1681.8441517407464
 30
0.0
 41
1.0
 10
403.87749498608309
 20
-1681.8366237200462
 30
0.0
 41
1.0
 10
403.8788678113001
 20
-1681.8290956993462
 30
0.0
 41
1.0
 10
403.91781772613592
 20
-1681.6155100501896
 30
0.0
 41
0.9996850305192971
 10
403.94600140239447
 20
-1681.4002390447527
 30
0.0
 41
1.0
 10
403.94799643576329
 20
-1681.3850006906343
 30
0.0
 41
1.0
 10
403.9499914691321
 20
-1681.369762336516
 30
0.0
 41
1.0
 10
403.9773993315913
 20
-1681.1604171093604
 30
0.0
 41
0.9994697936706511
 10
403.99112389081097
 20
-1680.9497319140294
 30
0.0
 41
1.0
 10
403.99160096006057
 20
-1680.9424084418192
 30
0.0
 41
1.0
 10
403.99207802931016
 20
-1680.9350849696093
 30
0.0
 41
1.0
 10
404.00484845003024
 20
-1680.7390467187013
 30
0.0
 41
0.9991804893137211
 10
404.00172013375777
 20
-1680.5426178687251
 30
0.0
 41
1.0
 10
404.00163625493565
 20
-1680.5373510673112
 30
0.0
 41
1.0
 10
404.00155237611352
 20
-1680.5320842658975
 30
0.0
 41
1.0
 10
403.99859181748502
 20
-1680.3461890187509
 30
0.0
 41
0.9988448329321481
 10
403.97780027186127
 20
-1680.1614364289183
 30
0.0
 41
1.0
 10
403.97620619815825
 20
-1680.1472715731475
 30
0.0
 41
1.0
 10
403.97461212445529
 20
-1680.1331067173764
 30
0.0
 41
1.0
 10
403.95700872623763
 20
-1679.9766838390858
 30
0.0
 41
0.9985503209458794
 10
403.922692453938
 20
-1679.8230596549959
 30
0.0
 41
1.0
 10
403.9151064618668
 20
-1679.7890993275957
 30
0.0
 41
1.0
 10
403.90752046979566
 20
-1679.7551390001956
 30
0.0
 41
1.0
 10
403.88837618163848
 20
-1679.6694354709059
 30
0.0
 41
0.9991036781369731
 10
403.86205131998724
 20
-1679.5856583835814
 30
0.0
 41
1.0
 10
403.85806909453129
 20
-1679.5729852210709
 30
0.0
 41
1.0
 10
403.85408686907527
 20
-1679.5603120585604
 30
0.0
 41
1.0
 10
403.83572645833544
 20
-1679.5018812962544
 30
0.0
 41
0.9998874504368511
 10
403.8156212506575
 20
-1679.4440276940334
 30
0.0
 41
1.0
 10
403.79551604297876
 20
-1679.3861740918094
 30
0.0
 41
0.9994041637544107
 10
403.77146743004477
 20
-1679.3298453879199
 30
0.0
 41
1.0
 10
403.76727064582076
 20
-1679.3200153234379
 30
0.0
 41
1.0
 10
403.76307386159675
 20
-1679.3101852589559
 30
0.0
 41
1.0
 10
403.7351950306026
 20
-1679.2448850929889
 30
0.0
 41
0.9991846840700747
 10
403.70213867390908
 20
-1679.1820470617079
 30
0.0
 41
1.0
 10
403.70100206751368
 20
-1679.1798864452526
 30
0.0
 41
1.0
 10
403.69986546111829
 20
-1679.1777258287971
 30
0.0
 41
1.0
 10
403.66908231721612
 20
-1679.119209030428
 30
0.0
 41
0.9989253167922515
 10
403.63301289316109
 20
-1679.0637941020379
 30
0.0
 41
1.0
 10
403.6319587684871
 20
-1679.0621746072761
 30
0.0
 41
1.0
 10
403.6309046438131
 20
-1679.0605551125141
 30
0.0
 41
1.0
 10
403.59694346910692
 20
-1679.008379173649
 30
0.0
 41
0.9986467172836581
 10
403.55774631646887
 20
-1678.9600131400186
 30
0.0
 41
1.0
 10
403.55687218776882
 20
-1678.9589345377412
 30
0.0
 41
1.0
 10
403.55599805906877
 20
-1678.9578559354638
 30
0.0
 41
1.0
 10
403.51854916383184
 20
-1678.9116471063896
 30
0.0
 41
0.9984001104270577
 10
403.47612243331423
 20
-1678.8699619990196
 30
0.0
 41
1.0
 10
403.47553529520428
 20
-1678.8693851241378
 30
0.0
 41
1.0
 10
403.47494815709427
 20
-1678.8688082492558
 30
0.0
 41
1.0
 10
403.43369570279674
 20
-1678.8282768916497
 30
0.0
 41
0.99824421590793
 10
403.38793960146143
 20
-1678.79290833039
 30
0.0
 41
1.0
 10
403.38772480600016
 20
-1678.7927422977473
 30
0.0
 41
1.0
 10
403.3875100105389
 20
-1678.7925762651043
 30
0.0
 41
1.0
 10
403.34218350012674
 20
-1678.7575397691307
 30
0.0
 41
0.9982450060834486
 10
403.2930325210541
 20
-1678.728107986097
 30
0.0
 41
1.0
 10
403.24388154198158
 20
-1678.6986762030635
 30
0.0
 41
0.9983922639640217
 10
403.19171523581593
 20
-1678.6749965684085
 30
0.0
 41
1.0
 10
403.19148835849228
 20
-1678.6748935829273
 30
0.0
 41
1.0
 10
403.19126148116857
 20
-1678.6747905974464
 30
0.0
 41
1.0
 10
403.13864142035499
 20
-1678.6509049918288
 30
0.0
 41
0.9986517147146468
 10
403.08382844748741
 20
-1678.6326038727075
 30
0.0
 41
1.0
 10
403.08315052605928
 20
-1678.6323775262758
 30
0.0
 41
1.0
 10
403.08247260463111
 20
-1678.6321511798444
 30
0.0
 41
1.0
 10
403.02630378890694
 20
-1678.61339736786
 30
0.0
 41
0.9989435598955734
 10
402.96865040175487
 20
-1678.5998796656256
 30
0.0
 41
1.0
 10
402.96757028217377
 20
-1678.5996264153728
 30
0.0
 41
1.0
 10
402.96649016259266
 20
-1678.5993731651199
 30
0.0
 41
1.0
 10
402.90667653627867
 20
-1678.5853489623801
 30
0.0
 41
0.999224924124177
 10
402.84594502738219
 20
-1678.5760736196648
 30
0.0
 41
1.0
 10
402.84453133909034
 20
-1678.575857711257
 30
0.0
 41
1.0
 10
402.84311765079849
 20
-1678.5756418028488
 30
0.0
 41
1.0
 10
402.77955876531996
 20
-1678.5659346433181
 30
0.0
 41
0.9994396597834137
 10
402.71549282878402
 20
-1678.5605017209723
 30
0.0
 41
1.0
 10
402.69635216130524
 20
-1678.5588785532536
 30
0.0
 41
1.0
 10
402.67721149382646
 20
-1678.5572553855347
 30
0.0
 41
1.0
 10
402.57486422233274
 20
-1678.5485761277516
 30
0.0
 41
0.998769340312084
 10
402.47216059874472
 20
-1678.5500791912043
 30
0.0
 41
1.0
 10
402.46190626451846
 20
-1678.5502292629785
 30
0.0
 41
1.0
 10
402.4516519302922
 20
-1678.5503793347525
 30
0.0
 41
1.0
 10
402.34209616411346
 20
-1678.5519826790398
 30
0.0
 41
0.9989753644965324
 10
402.23313416409701
 20
-1678.5634856859654
 30
0.0
 41
1.0
 10
402.12417216408056
 20
-1678.5749886928909
 30
0.0
 41
0.9983190067307191
 10
402.01727335311597
 20
-1678.5990236846774
 30
0.0
 41
1.0
 10
402.00837240150906
 20
-1678.60102496324
 30
0.0
 41
1.0
 10
401.9994714499021
 20
-1678.6030262418028
 30
0.0
 41
1.0
 10
401.87477073572262
 20
-1678.631063790715
 30
0.0
 41
0.9985539388303311
 10
401.75380098204351
 20
-1678.6723274667606
 30
0.0
 41
1.0
 10
401.75145555108429
 20
-1678.6731275105763
 30
0.0
 41
1.0
 10
401.74911012012512
 20
-1678.6739275543916
 30
0.0
 41
1.0
 10
401.62344950452791
 20
-1678.7167913180681
 30
0.0
 41
0.998846874649261
 10
401.50247916222963
 20
-1678.7715094031298
 30
0.0
 41
1.0
 10
401.49929634023925
 20
-1678.7729490776906
 30
0.0
 41
1.0
 10
401.49611351824888
 20
-1678.7743887522513
 30
0.0
 41
1.0
 10
401.36877753197189
 20
-1678.8319861864336
 30
0.0
 41
0.999132288592037
 10
401.2466769479143
 20
-1678.8999815186157
 30
0.0
 41
1.0
 10
401.22907493686967
 20
-1678.9097837206059
 30
0.0
 41
1.0
 10
401.21147292582509
 20
-1678.9195859225963
 30
0.0
 41
1.0
 10
401.10929624476802
 20
-1678.9764860383768
 30
0.0
 41
0.9993860037848792
 10
401.01135524069593
 20
-1679.0404020539647
 30
0.0
 41
1.0
 10
401.00573692784269
 20
-1679.0440685486601
 30
0.0
 41
1.0
 10
401.00011861498945
 20
-1679.0477350433557
 30
0.0
 41
1.0
 10
400.91341423662186
 20
-1679.104318069554
 30
0.0
 41
0.9998821494953846
 10
400.82848786080979
 20
-1679.1635362996296
 30
0.0
 41
1.0
 10
400.7435614850001
 20
-1679.2227545297037
 30
0.0
 41
0.9997976482743947
 10
400.66108585459796
 20
-1679.2853409377442
 30
0.0
 41
1.0
 10
400.64644958979079
 20
-1679.2964476275258
 30
0.0
 41
1.0
 10
400.63181332498357
 20
-1679.3075543173074
 30
0.0
 41
1.0
 10
400.5200651649667
 20
-1679.3923541049116
 30
0.0
 41
0.9998091630799512
 10
400.4117148869372
 20
-1679.4814544556143
 30
0.0
 41
1.0
 10
400.39870913446248
 20
-1679.4921495560584
 30
0.0
 41
1.0
 10
400.3857033819877
 20
-1679.5028446565022
 30
0.0
 41
1.0
 10
400.25134159900824
 20
-1679.6133352080931
 30
0.0
 41
0.9995035112317132
 10
400.12420572124586
 20
-1679.732069025107
 30
0.0
 41
1.0
 10
400.11455841085359
 20
-1679.7410787712695
 30
0.0
 41
1.0
 10
400.10491110046132
 20
-1679.750088517432
 30
0.0
 41
1.0
 10
399.98148803769845
 20
-1679.8653548891859
 30
0.0
 41
0.9994630424298824
 10
399.86587963191812
 20
-1679.9884576324177
 30
0.0
 41
1.0
 10
399.86219679314718
 20
-1679.9923792119303
 30
0.0
 41
1.0
 10
399.85851395437618
 20
-1679.9963007914428
 30
0.0
 41
1.0
 10
399.75027122613551
 20
-1680.1115603756516
 30
0.0
 41
0.9995160693750083
 10
399.64940519660229
 20
-1680.2333277935252
 30
0.0
 41
1.0
 10
399.64747147652145
 20
-1680.2356622177335
 30
0.0
 41
1.0
 10
399.64553775644066
 20
-1680.2379966419417
 30
0.0
 41
1.0
 10
399.54853916706912
 20
-1680.3550952113987
 30
0.0
 41
0.9996561470513977
 10
399.45781294840447
 20
-1680.4771179738466
 30
0.0
 41
1.0
 10
399.4516552825055
 20
-1680.4853997628848
 30
0.0
 41
1.0
 10
399.44549761660647
 20
-1680.4936815519231
 30
0.0
 41
1.0
 10
399.36708672974197
 20
-1680.5991407362912
 30
0.0
 41
0.999834905517309
 10
399.29255944780641
 20
-1680.707379319959
 30
0.0
 41
1.0
 10
399.2180321658646
 20
-1680.8156179036362
 30
0.0
 41
0.9999728109563721
 10
399.14510926995422
 20
-1680.9249438291922
 30
0.0
 41
1.0
 10
399.14379405454736
 20
-1680.9269155986876
 30
0.0
 41
1.0
 10
399.14247883914049
 20
-1680.9288873681828
 30
0.0
 41
1.0
 10
399.066925512426
 20
-1681.0421568327145
 30
0.0
 41
0.9999972147332108
 10
398.99190770205956
 20
-1681.1557816755389
 30
0.0
 41
1.0
 10
398.98693615942375
 20
-1681.1633117640317
 30
0.0
 41
1.0
 10
398.98196461678799
 20
-1681.1708418525243
 30
0.0
 41
1.0
 10
398.89700372116926
 20
-1681.2995268723053
 30
0.0
 41
0.9999371979012418
 10
398.81494837176348
 20
-1681.4300837860847
 30
0.0
 41
1.0
 10
398.81143948740225
 20
-1681.4356667141487
 30
0.0
 41
1.0
 10
398.80793060304097
 20
-1681.4412496422131
 30
0.0
 41
1.0
 10
398.7188574849107
 20
-1681.5829724121238
 30
0.0
 41
0.9998272025610127
 10
398.63511409402963
 20
-1681.7279082888649
 30
0.0
 41
1.0
 10
398.61989892200603
 20
-1681.754241403321
 30
0.0
 41
1.0
 10
398.60468374998243
 20
-1681.7805745177768
 30
0.0
 41
1.0
 10
398.490510015052
 20
-1681.9781766234328
 30
0.0
 41
0.9995217214838374
 10
398.38877032549794
 20
-1682.1824589512921
 30
0.0
 41
1.0
 10
398.38112676286073
 20
-1682.1978064009995
 30
0.0
 41
1.0
 10
398.37348320022346
 20
-1682.2131538507067
 30
0.0
 41
1.0
 10
398.286577907636
 20
-1682.3876503087836
 30
0.0
 41
0.9998269762607599
 10
398.20622344136473
 20
-1682.5652585955061
 30
0.0
 41
1.0
 10
398.12586897509391
 20
-1682.7428668822272
 30
0.0
 41
0.9998944747387447
 10
398.05070818053014
 20
-1682.9227346078542
 30
0.0
 41
1.0
 10
398.0457545109374
 20
-1682.9345892627753
 30
0.0
 41
1.0
 10
398.04080084134472
 20
-1682.9464439176961
 30
0.0
 41
1.0
 10
397.96015378079136
 20
-1683.139440857716
 30
0.0
 41
0.9999506734411606
 10
397.88335625188893
 20
-1683.3340016625691
 30
0.0
 41
1.0
 10
397.86875628661744
 20
-1683.3709895843765
 30
0.0
 41
1.0
 10
397.85415632134595
 20
-1683.4079775061839
 30
0.0
 41
1.0
 10
397.80655872298689
 20
-1683.5285624674211
 30
0.0
 41
0.9999912393908452
 10
397.75997227896289
 20
-1683.6495416701212
 30
0.0
 41
1.0
 10
397.71338583494992
 20
-1683.770520872793
 30
0.0
 41
0.9999927113967166
 10
397.66772454056007
 20
-1683.8918522802819
 30
0.0
 41
1.0
 10
397.65375610915544
 20
-1683.9289692622992
 30
0.0
 41
1.0
 10
397.63978767775075
 20
-1683.9660862443163
 30
0.0
 41
1.0
 10
397.56618952055885
 20
-1684.1616516158213
 30
0.0
 41
0.9999487550951596
 10
397.49656589558418
 20
-1684.3586669810127
 30
0.0
 41
1.0
 10
397.47297228565037
 20
-1684.4254302912968
 30
0.0
 41
1.0
 10
397.44937867571656
 20
-1684.492193601581
 30
0.0
 41
1.0
 10
397.35469304134762
 20
-1684.7601274364013
 30
0.0
 41
0.9999808436943962
 10
397.2633314527036
 20
-1685.0292128676731
 30
0.0
 41
1.0
 10
397.17196986405736
 20
-1685.2982982989515
 30
0.0
 41
0.9999873932904049
 10
397.08331515534235
 20
-1685.5682876539561
 30
0.0
 41
1.0
 10
397.06322279847382
 20
-1685.6294769867065
 30
0.0
 41
1.0
 10
397.04313044160529
 20
-1685.690666319457
 30
0.0
 41
1.0
 10
396.91429101915423
 20
-1686.0830343399593
 30
0.0
 41
0.9999794883037285
 10
396.79048823419697
 20
-1686.4770205462337
 30
0.0
 41
1.0
 10
396.77933597474356
 20
-1686.5125111565214
 30
0.0
 41
1.0
 10
396.76818371529015
 20
-1686.5480017668092
 30
0.0
 41
1.0
 10
396.62562555141449
 20
-1687.0016745188263
 30
0.0
 41
0.999998276184898
 10
396.48475311140282
 20
-1687.4558735409366
 30
0.0
 41
1.0
 10
394.89661277883022
 20
-1692.5046432719403
 30
0.0
 41
1.0
 10
393.30847244625761
 20
-1697.5534130029439
 30
0.0
 41
1.0
 10
392.35972183478123
 20
-1697.5534130029439
 30
0.0
 41
1.0
 10
391.41097122330484
 20
-1697.5534130029439
 30
0.0
 41
1.0
 10
394.64925570945809
 20
-1687.2260908029978
 30
0.0
 41
1.0
 10
397.88754019561134
 20
-1676.8987686030516
 30
0.0
 41
1.0
  0
LWPOLYLINE
  5
55
100
AcDbEntity
  8
0
370
              15
390
0
  6
Continuous
 62
               7
100
AcDbPolyline
 90
      232
 70
             128
 10
372.18399442178429
 20
-1677.9831114345664
 42
0.0004370800686243
 10
372.13111724763411
 20
-1678.0517780739247
 10
372.09183301658481
 20
-1678.1028851867197
 42
0.0030481992168819
 10
371.96149429947724
 20
-1678.2746068790486
 10
371.9229826277151
 20
-1678.3259936628522
 42
0.0042058245762763
 10
371.71899757703864
 20
-1678.6029994079352
 10
371.66659245454457
 20
-1678.6754322547069
 42
0.0120948898737429
 10
371.37054853778147
 20
-1679.1061818592589
 10
371.27435603865803
 20
-1679.2536625944858
 42
0.0141601263949661
 10
370.97071199173911
 20
-1679.7493319312164
 10
370.93117472431828
 20
-1679.8181758986391
 42
0.0071131081301135
 10
370.72590240107479
 20
-1680.1876786974865
 42
0.0068458790998429
 10
370.53102287423354
 20
-1680.5627702609588
 10
370.52421101177401
 20
-1680.5763319746859
 42
0.0064120880294678
 10
370.32606876172969
 20
-1680.9837564496047
 10
370.3185340762127
 20
-1680.9997683063259
 42
0.0058857236446491
 10
370.11577868433801
 20
-1681.4441444173679
 10
370.10760375804705
 20
-1681.4626345709951
 42
0.0053189741896809
 10
369.89889944538402
 20
-1681.9485980449019
 10
369.89015163969816
 20
-1681.9695799231088
 42
0.0047503650419047
 10
369.67417791354768
 20
-1682.5017793563175
 10
369.66490966519939
 20
-1682.5252557324259
 42
0.0042071762174441
 10
369.44036228146717
 20
-1683.1083493265069
 10
369.43061287912292
 20
-1683.1343155013649
 42
0.0036680086487039
 10
369.19615823580943
 20
-1683.7729508859004
 10
369.18595045596294
 20
-1683.8013994202413
 42
0.0032573142624952
 10
368.94031816999683
 20
-1684.5002520799935
 10
368.87166764915236
 20
-1684.6997151640576
 42
0.0026133366649536
 10
368.52322245039761
 20
-1685.7295784477194
 10
368.45996566289494
 20
-1685.9198092831182
 42
0.0020592950742193
 10
368.24610259392989
 20
-1686.5719129357251
 10
368.24305080276628
 20
-1686.5813494241363
 42
0.0025609928535472
 10
368.04123030128108
 20
-1687.2164946465011
 10
368.03863893415405
 20
-1687.2247969874427
 42
0.0031362356239588
 10
367.84914814847741
 20
-1687.8455598436215
 10
367.84701710555493
 20
-1687.8527011498161
 42
0.0037229918030402
 10
367.67021671862358
 20
-1688.4616864518068
 10
367.66853812941457
 20
-1688.4676333419902
 42
0.0043077623707379
 10
367.50479732735209
 20
-1689.0674520737505
 42
0.004765416182717
 10
367.35196860483717
 20
-1689.6701381626478
 10
367.31750399599696
 20
-1689.8116999398019
 42
0.0112969368446634
 10
367.12163963785389
 20
-1690.7033921004233
 10
367.09363324875676
 20
-1690.8462201465238
 42
0.0130056762571061
 10
366.8927960051102
 20
-1692.0331612181692
 10
366.87225625496245
 20
-1692.177239331651
 42
0.0138721532145606
 10
366.76855325042516
 20
-1693.0840688174724
 10
366.7492577625174
 20
-1693.307566539396
 42
0.007125469700495
 10
366.71591111659461
 20
-1693.7707535482443
 10
366.71095014243116
 20
-1693.8567575428076
 42
0.0028881799200531
 10
366.69581184914148
 20
-1694.1484992526468
 42
0.0060297297125985
 10
366.68587964936614
 20
-1694.4404481887573
 10
366.68481736769888
 20
-1694.4888405606953
 42
0.0229523164150074
 10
366.69254839548466
 20
-1694.8115954069783
 10
366.69677416900504
 20
-1694.8719989409947
 42
0.0123673300667635
 10
366.71585281552336
 20
-1695.0731196661693
 42
0.0128577674478514
 10
366.74504820592978
 20
-1695.2730175160964
 10
366.75217407931666
 20
-1695.3143463306926
 42
0.0285717853769901
 10
366.81666808101204
 20
-1695.5924624820052
 10
366.83033660467936
 20
-1695.6391172514857
 42
0.0316283099167316
 10
366.94614718459297
 20
-1695.9581317533095
 10
366.94919587634786
 20
-1695.9651181256336
 42
0.0338984824228573
 10
367.0986275873156
 20
-1696.2526840898238
 10
367.10093631668576
 20
-1696.2564751191003
 42
0.035022871835436
 10
367.28329660735903
 20
-1696.5135271037773
 10
367.28418185913455
 20
-1696.5146061815419
 42
0.0347476747537588
 10
367.49860654637428
 20
-1696.7417912287613
 42
0.0331337701904958
 10
367.74184987212038
 20
-1696.9379198908382
 10
367.7429499706368
 20
-1696.9386925940109
 42
0.0305233319091821
 10
368.01149466621172
 20
-1697.1038207641029
 10
368.01472471071133
 20
-1697.1055447759647
 42
0.0273744481144653
 10
368.30727842228504
 20
-1697.2416829198548
 10
368.31238295742321
 20
-1697.2437265043247
 42
0.0240964406196741
 10
368.62786003306553
 20
-1697.3527102306052
 10
368.63444336227883
 20
-1697.3546349702813
 42
0.0209636179805627
 10
368.97184351493189
 20
-1697.4381031182138
 10
368.97947597538018
 20
-1697.4396550312151
 42
0.0181388704705963
 10
369.33779836738353
 20
-1697.4990711244297
 10
369.34607921575684
 20
-1697.5001373082462
 42
0.0156086547581493
 10
369.72426657994203
 20
-1697.536873494822
 10
369.76746183227726
 20
-1697.5397119973013
 42
0.0137148329020438
 10
370.09513497757155
 20
-1697.5522322525524
 10
370.14107116751472
 20
-1697.5527266856677
 42
0.0051057823882955
 10
370.37721675408977
 20
-1697.5528569400769
 42
0.0052256693309547
 10
370.61331403787943
 20
-1697.5481081156129
 10
370.68354082161784
 20
-1697.5459611495992
 42
0.0161507179056388
 10
371.05927789971656
 20
-1697.5223107792731
 10
371.07929086009221
 20
-1697.5204005839853
 42
0.0101216737834132
 10
371.49331808158848
 20
-1697.4724076536186
 10
371.52737137100962
 20
-1697.4677599568097
 42
0.0245291776389245
 10
372.00416102655834
 20
-1697.3786848787342
 10
372.08898434208913
 20
-1697.3584889583869
 42
0.0143509212573728
 10
372.44561544602436
 20
-1697.2626843246092
 42
0.0156557857029892
 10
372.79583151075127
 20
-1697.1456731087901
 10
372.80333272524626
 20
-1697.1429029470357
 42
0.0170137333626667
 10
373.15992872092676
 20
-1696.9972453321654
 10
373.16703264333512
 20
-1696.9940574966015
 42
0.0183105364421133
 10
373.52638231150257
 20
-1696.8167224547767
 10
373.53332907614015
 20
-1696.8129720199051
 42
0.0194899958142818
 10
373.891809817124
 20
-1696.6009930380144
 10
373.89882369646091
 20
-1696.5964676957194
 42
0.0204869852955015
 10
374.25283799855436
 20
-1696.346947680634
 10
374.2601036071419
 20
-1696.3413676152852
 42
0.0212516938552008
 10
374.60609353825174
 20
-1696.0514636183889
 10
374.65261023232352
 20
-1696.0089963082987
 42
0.0215248918252518
 10
374.91263640121315
 20
-1695.7502320293027
 10
374.95766613559385
 20
-1695.7013879079527
 42
0.0114578554963635
 10
375.11245828927099
 20
-1695.5255649744943
 10
375.12365282526463
 20
-1695.5122462109405
 42
0.0061531305134268
 10
375.25012747125197
 20
-1695.3579566776427
 42
0.000632558710571
 10
375.37450595531152
 20
-1695.2019533020832
 10
375.39754609045531
 20
-1695.172979781308
 42
0.0041897761562372
 10
375.56600149444637
 20
-1694.9574604052229
 10
375.62446361432023
 20
-1694.8813590582615
 42
0.0092993880036588
 10
375.90107554154116
 20
-1694.5070802943812
 10
375.98347003474771
 20
-1694.3911432908019
 42
0.0159321727083366
 10
376.33007651738535
 20
-1693.8689690700523
 10
376.37443265277301
 20
-1693.7972895058047
 42
0.00855473170223
 10
376.60894441810012
 20
-1693.4034145565777
 42
0.0084601156888803
 10
376.82992059554397
 20
-1693.0017877075422
 10
376.83803606937249
 20
-1692.9864280252725
 42
0.0081429654288257
 10
377.0612853398095
 20
-1692.5467065127325
 10
377.07014550399401
 20
-1692.528527670712
 42
0.007657458132904
 10
377.29655301456035
 20
-1692.0453447954592
 10
377.30603265528441
 20
-1692.0242803171552
 42
0.0070682724202024
 10
377.53647756309374
 20
-1691.4922430123686
 10
377.5464678470729
 20
-1691.4682538233631
 42
0.0064559514447802
 10
377.7818010552528
 20
-1690.8819415568489
 10
377.79221041341953
 20
-1690.8550066314021
 42
0.0058311413902923
 10
378.03325715018235
 20
-1690.2089745370179
 10
378.04401222756974
 20
-1690.1790901958577
 42
0.0052312425820556
 10
378.29159350561298
 20
-1689.4678877820161
 10
378.30263734199048
 20
-1689.4350610699532
 42
0.0046680544795623
 10
378.55756576972323
 20
-1688.6532347542034
 10
378.59955791976842
 20
-1688.5202515169065
 42
0.0041666856444674
 10
378.80284393216357
 20
-1687.8572827419005
 10
378.84050637283087
 20
-1687.7307016342352
 42
0.0015170975160934
 10
378.96169295124037
 20
-1687.3188332827533
 42
-0.000488799311646
 10
379.08203272435338
 20
-1686.9067148707461
 10
379.15850998185851
 20
-1686.6457574847702
 42
0.0002583378927582
 10
379.43172455185396
 20
-1685.7117007818267
 10
379.51349740152631
 20
-1685.431601521916
 42
0.0006636169671629
 10
379.70736516151078
 20
-1684.7642485984218
 10
379.71246181585889
 20
-1684.746617015538
 42
0.0010589131325359
 10
379.89391051677444
 20
-1684.1138856724931
 10
379.89889258725657
 20
-1684.0963727654671
 42
0.0015655524460286
 10
380.06716279443765
 20
-1683.4977560862719
 10
380.07199299485001
 20
-1683.4803639273455
 42
0.0021640440478441
 10
380.22628296683865
 20
-1682.9153369093176
 10
380.2309171862691
 20
-1682.8980721793218
 42
0.0028763871848962
 10
380.37043290432166
 20
-1682.3661042284768
 10
380.37481876848659
 20
-1682.3489802503314
 42
0.0037310511947928
 10
380.49877546032576
 20
-1681.8495326562991
 10
380.50285068061771
 20
-1681.8325723850414
 42
0.0047652197772061
 10
380.61047458112319
 20
-1681.3650946167484
 10
380.61416518044439
 20
-1681.3483350616082
 42
0.006027669929919
 10
380.70469527960029
 20
-1680.9122592664537
 10
380.70791396989023
 20
-1680.8957580521405
 42
0.0075824337759535
 10
380.78060327930484
 20
-1680.4904908877181
 10
380.78324865668503
 20
-1680.474335940268
 42
0.0095130624607224
 10
380.83736389231626
 20
-1680.0992465871961
 10
380.84435011619888
 20
-1680.0433130290796
 42
0.0121054653224436
 10
380.87094144677678
 20
-1679.7784172006061
 10
380.87180793653658
 20
-1679.7670137576736
 42
0.0069050827394299
 10
380.88689675457397
 20
-1679.5240725308324
 10
380.88803205424256
 20
-1679.5005462737863
 42
0.0169063976695894
 10
380.89085933322281
 20
-1679.3043535464869
 10
380.88968868169167
 20
-1679.2440177851406
 42
0.0052007732889884
 10
380.88743523309859
 20
-1679.1684243949851
 42
0.0054038123294413
 10
380.86747172125905
 20
-1679.0484060989718
 10
380.86238586538923
 20
-1679.0197476123942
 42
0.0112050460469529
 10
380.82700150333039
 20
-1678.8434211740541
 10
380.80917654129007
 20
-1678.7638795873347
 42
0.0240764468007991
 10
380.71827917514383
 20
-1678.4336425518336
 10
380.69972041233052
 20
-1678.3770223868401
 42
0.0256812331836616
 10
380.55635749214105
 20
-1678.0052981805823
 10
380.55094806631928
 20
-1677.9931668455918
 42
0.026836050121864
 10
380.38152082546981
 20
-1677.6621737115713
 10
380.37598441783541
 20
-1677.6526540412601
 42
0.0274670231729469
 10
380.18378344142138
 20
-1677.3603666663423
 10
380.17840214145895
 20
-1677.3530875188012
 42
0.0275035967089037
 10
379.96682926189692
 20
-1677.0975716284968
 10
379.96175976092968
 20
-1677.0920925408655
 42
0.0269557673540498
 10
379.73435621749081
 20
-1676.8714502549039
 10
379.72961315970866
 20
-1676.8673203004437
 42
0.0259124802198559
 10
379.49005832827743
 20
-1676.679629773291
 10
379.48552748309504
 20
-1676.6764442709605
 42
0.0245162153013477
 10
379.23761113000069
 20
-1676.51971126185
 10
379.23308458367825
 20
-1676.5171510646501
 42
0.0229282588831466
 10
378.98066502684901
 20
-1676.3892828721503
 10
378.97588453301142
 20
-1676.3871305723878
 42
0.0212984135699482
 10
378.72284658055059
 20
-1676.285931655146
 10
378.71754229558212
 20
-1676.2840680923864
 42
0.0197555462346039
 10
378.4677639578581
 20
-1676.2072526744216
 42
0.018351189677427
 10
378.21283523239453
 20
-1676.1496697674561
 10
378.12647003566912
 20
-1676.1334669770704
 42
0.0338057877162771
 10
377.84096268641167
 20
-1676.0996585719306
 10
377.7499572813781
 20
-1676.0950789166698
 42
0.0091990524469454
 10
377.64411017273574
 20
-1676.0917030607472
 42
0.0028333980772804
 10
377.53819625672691
 20
-1676.0908749532298
 10
377.53728080369342
 20
-1676.0908729834057
 42
-0.0023619827759827
 10
377.42953478856413
 20
-1676.0901321423266
 10
377.39312961841165
 20
-1676.0897098358639
 42
0.0008824598469414
 10
377.21257362855312
 20
-1676.0879340576259
 10
377.16871219615587
 20
-1676.0875800961005
 42
0.0038132665768147
 10
376.90042930029233
 20
-1676.0874611600341
 10
376.88389564548356
 20
-1676.0875799261778
 42
0.0060665569338634
 10
376.58261515387176
 20
-1676.0934002255997
 10
376.56836482186691
 20
-1676.0938485335666
 42
0.0080356953328214
 10
376.23890610552621
 20
-1676.1095162556335
 10
376.22683609044043
 20
-1676.1102848385738
 42
0.0098996399113729
 10
375.87407300579378
 20
-1676.1397700677712
 10
375.86402729641486
 20
-1676.1408103639699
 42
0.0117740981357827
 10
375.49287043806942
 20
-1676.1881026114991
 10
375.48464774158356
 20
-1676.1893477280703
 42
0.013743521514948
 10
375.10005892209796
 20
-1676.2584447016322
 10
375.09340188297506
 20
-1676.2598305978656
 42
0.0158359869380067
 10
374.70040478917088
 20
-1676.3547226863475
 10
374.69499160230544
 20
-1676.3562126272175
 42
0.0180554124025287
 10
374.29867655769357
 20
-1676.4808506434558
 10
374.29411976960967
 20
-1676.4824666797224
 42
0.0203657431285245
 10
373.89964225179625
 20
-1676.6407270212387
 10
373.89549871279098
 20
-1676.6425886426798
 42
0.0226819684654149
 10
373.50806265658764
 20
-1676.8382312213505
 10
373.5038628655692
 20
-1676.8405968132704
 42
0.0248634984608361
 10
373.12868092438731
 20
-1677.0772234592182
 10
373.08048599560635
 20
-1677.1110805010419
 42
0.0267044190877691
 10
372.8061932986875
 20
-1677.3265208769119
 42
0.0139303002198253
 10
372.55002613274678
 20
-1677.5637597178254
 10
372.54517274702778
 20
-1677.5685123806836
 42
0.0283460963450797
 10
372.30110015279894
 20
-1677.8362430411305
 10
372.26143164764403
 20
-1677.8850446186018
 42
0.0070695364849483
 10
372.18399442178429
 20
-1677.9831114345664
 42
0.0070695364849483
  0
LWPOLYLINE
  5
56
100
AcDbEntity
  8
0
370
              15
390
0
  6
Continuous
 62
               7
100
AcDbPolyline
 90
      226
 70
             128
 10
368.6551739845379
 20
-1693.7047002407519
 42
-0.0026277636643023
 10
368.65509610073781
 20
-1693.6379283150354
 10
368.65531345896989
 20
-1693.5847730975649
 42
-0.0088680296729025
 10
368.65909007526301
 20
-1693.4117573151602
 10
368.66143643437533
 20
-1693.3524772897083
 42
-0.0077381705621316
 10
368.67748254513833
 20
-1693.0612167939107
 10
368.67835045631148
 20
-1693.0489285602246
 42
-0.0068872530528227
 10
368.7049825360599
 20
-1692.7337068081529
 10
368.70618676024571
 20
-1692.7214658291371
 42
-0.0062130021484829
 10
368.74378047707324
 20
-1692.3825961379014
 10
368.74528438060872
 20
-1692.3704222659819
 42
-0.005672692966524
 10
368.79420624011055
 20
-1692.0082270438706
 10
368.79597968575536
 20
-1691.9961332436226
 42
-0.0052341884495365
 10
368.85659027201615
 20
-1691.6109399880995
 10
368.85860826079193
 20
-1691.5989350581124
 42
-0.0049768450169302
 10
368.93134694221851
 20
-1691.1910904906792
 10
368.9555959569401
 20
-1691.0625425076744
 42
-0.0089029805623114
 10
369.09267680873415
 20
-1690.4007670602552
 10
369.12542218405338
 20
-1690.2557356297286
 42
-0.0080318257101744
 10
369.35497079839467
 20
-1689.3100259978728
 10
369.36695572484234
 20
-1689.2638953626849
 42
-0.0074265721317347
 10
369.65096726369285
 20
-1688.2338307843029
 10
369.6708468068091
 20
-1688.165696723715
 42
-0.0069711922702006
 10
369.99815138531562
 20
-1687.0994289833873
 10
370.05810333242079
 20
-1686.9134076250175
 42
-0.0052070422895317
 10
370.28752855768039
 20
-1686.2261355479852
 10
370.30480974983777
 20
-1686.1761082674111
 42
-0.0009167004449226
 10
370.50790163714214
 20
-1685.5916524192137
 42
-0.0025162726945889
 10
370.71499926740466
 20
-1685.0086111550515
 10
370.75222387921394
 20
-1684.9054616091355
 42
-0.0028212681454434
 10
371.00039979817325
 20
-1684.2297309769749
 10
371.01023056092572
 20
-1684.2034235322933
 42
-0.0031964916823933
 10
371.24652281858619
 20
-1683.583218770171
 10
371.25615727258969
 20
-1683.5584087800162
 42
-0.0036281836450416
 10
371.48126323368638
 20
-1682.9909680991352
 10
371.49070164384091
 20
-1682.9676706676396
 42
-0.0041269166829251
 10
371.70531934050302
 20
-1682.4502297716538
 10
371.73795229692456
 20
-1682.3733513252907
 42
-0.0047472213056228
 10
371.89499710247742
 20
-1682.0129298574086
 10
371.90189118368761
 20
-1681.9975092600721
 42
-0.0025651660001374
 10
372.05024921753579
 20
-1681.6701812043286
 42
-0.0057144634991052
 10
372.20399891130268
 20
-1681.3453715309756
 10
372.23202961670853
 20
-1681.2878631485719
 42
-0.0065388068376546
 10
372.41549664444801
 20
-1680.9236306519072
 10
372.42395510022754
 20
-1680.9073710725356
 42
-0.0074510843024517
 10
372.60013734610448
 20
-1680.580682791415
 10
372.60831701663625
 20
-1680.5660420141448
 42
-0.0084648979855427
 10
372.77795086973561
 20
-1680.2741330031852
 10
372.78580699622461
 20
-1680.2611260115327
 42
-0.009563854280296
 10
372.94964244381788
 20
-1680.0012371395553
 10
372.95711738749094
 20
-1679.9898677780977
 42
-0.0107191626810781
 10
373.11591896787718
 20
-1679.7592565435555
 10
373.12293570160682
 20
-1679.7495204511927
 42
-0.0118458573898524
 10
373.27748380012076
 20
-1679.54544825588
 42
-0.0129184518199691
 10
373.44193642371602
 20
-1679.3492877397166
 10
373.47208119608848
 20
-1679.3151616608066
 42
-0.0217742579644008
 10
373.64869351842071
 20
-1679.1319548905606
 10
373.65943906288015
 20
-1679.1217380573587
 42
-0.0097266568636611
 10
373.82549668173692
 20
-1678.9698904829204
 42
-0.0187720905728128
 10
373.99984425762472
 20
-1678.8278216295321
 10
374.03055024830132
 20
-1678.8046625471341
 42
-0.0179428207525963
 10
374.26297096829671
 20
-1678.6421103700234
 10
374.26662329521525
 20
-1678.6397464351339
 42
-0.0170047877683896
 10
374.50238693274287
 20
-1678.4982859209842
 10
374.50616992148747
 20
-1678.4961876159491
 42
-0.0160190788376506
 10
374.74307846912473
 20
-1678.3745363139599
 42
-0.0151102861481192
 10
374.98711025157286
 20
-1678.2678535379048
 10
375.03949675378317
 20
-1678.2468134050107
 42
-0.0271945441885063
 10
375.39815931284306
 20
-1678.1249485943038
 10
375.4672241133261
 20
-1678.105599053039
 42
-0.0237596594031964
 10
375.88302096035204
 20
-1678.0101483410565
 10
375.95108381408119
 20
-1677.9978936529301
 42
-0.0213715440554661
 10
376.23695874552777
 20
-1677.9589466214204
 10
376.2971059117516
 20
-1677.9533569067191
 42
-0.0101465655803222
 10
376.46459844373987
 20
-1677.9412133634553
 10
376.47393882993487
 20
-1677.9407264484582
 42
-0.0100375910879502
 10
376.62309293050066
 20
-1677.935950630532
 10
376.63335220018655
 20
-1677.9358281915174
 42
-0.0103625633390016
 10
376.76206019483595
 20
-1677.9369596250438
 10
376.78432584610096
 20
-1677.9376169835086
 42
-0.0115689250259306
 10
376.86837658363083
 20
-1677.9420464897541
 42
-0.0072438037384553
 10
376.95221486307588
 20
-1677.949635689504
 10
376.9690153725428
 20
-1677.9514022322276
 42
-0.0217917313165789
 10
377.08558513585615
 20
-1677.9688221249485
 10
377.15118522642382
 20
-1677.9815687333637
 42
-0.0332943556728458
 10
377.35557739145133
 20
-1678.0356090246707
 10
377.38574996000216
 20
-1678.0457771017893
 42
-0.0184824084834266
 10
377.52425501646678
 20
-1678.0982281171757
 42
-0.0198002050659968
 10
377.65832935696852
 20
-1678.1611121773765
 10
377.66021599434305
 20
-1678.1620899642551
 42
-0.0212242342991472
 10
377.7923549367419
 20
-1678.2378527030457
 10
377.79417023228848
 20
-1678.2389985052562
 42
-0.0226090605795952
 10
377.92267413351067
 20
-1678.3284781488214
 10
377.9245185752477
 20
-1678.3298904018086
 42
-0.0238457052216768
 10
378.0477006565406
 20
-1678.4338862976706
 10
378.04965338509965
 20
-1678.4357011754366
 42
-0.0248160564170202
 10
378.16585489240089
 20
-1678.5549757766455
 10
378.16795852580231
 20
-1678.5573611103493
 42
-0.0254109591447568
 10
378.27556374366748
 20
-1678.6926494963129
 10
378.27781176558233
 20
-1678.6957910447147
 42
-0.0255528488281729
 10
378.37525844437931
 20
-1678.8478180989489
 10
378.37758954429557
 20
-1678.8518997105568
 42
-0.0252146793223704
 10
378.4633705703053
 20
-1679.0214019565549
 10
378.46567280946238
 20
-1679.0265840384666
 42
-0.0244265635948592
 10
378.53832750322397
 20
-1679.2143306105131
 10
378.547573904692
 20
-1679.2421960288498
 42
-0.0231319612910622
 10
378.59349668368429
 20
-1679.4054970756526
 42
-0.0112130424344359
 10
378.6281327062228
 20
-1679.5717006758421
 10
378.62933523133506
 20
-1679.5781972627285
 42
-0.0210527881251792
 10
378.65502170670572
 20
-1679.7592529081669
 10
378.65853230152777
 20
-1679.7946584567164
 42
-0.0190029892420933
 10
378.67397377507223
 20
-1680.0481943029877
 10
378.67478375151632
 20
-1680.0836699173581
 42
-0.0137974553656108
 10
378.67323489868079
 20
-1680.4087013240912
 10
378.67238944372514
 20
-1680.4348200686863
 42
-0.0081336634217735
 10
378.65753010850267
 20
-1680.7401675362837
 42
-0.0073526923569327
 10
378.63322157512869
 20
-1681.0449157805626
 10
378.63196015134531
 20
-1681.0582524552349
 42
-0.006688613869243
 10
378.59622456529877
 20
-1681.3888384987329
 10
378.59456747582897
 20
-1681.4024601177236
 42
-0.0061359187354465
 10
378.54671687377709
 20
-1681.7592240978306
 10
378.54467937270522
 20
-1681.7731189006529
 42
-0.0056698610065101
 10
378.48402904193898
 20
-1682.1563974694855
 10
378.481623608615
 20
-1682.1705565887216
 42
-0.0052721077270257
 10
378.40749140781503
 20
-1682.5806839284007
 10
378.40472825897359
 20
-1682.5951005637855
 42
-0.0049289272178502
 10
378.31643414087551
 20
-1683.0324090748993
 10
378.31332164619107
 20
-1683.0470779277241
 42
-0.0047415956710913
 10
378.21008365465809
 20
-1683.5118746851379
 10
378.17531544429903
 20
-1683.6616817805182
 42
-0.0084404470902475
 10
377.98529900072856
 20
-1684.4219058050439
 10
377.97917231274153
 20
-1684.4447699292025
 42
-0.0039635940256206
 10
377.75771862845454
 20
-1685.24575879346
 10
377.74434183327799
 20
-1685.2926904100416
 42
-0.0072475040837768
 10
377.47689494541618
 20
-1686.181910126428
 10
377.40668261858792
 20
-1686.4036504764031
 42
-0.0051345458825977
 10
377.11992324652863
 20
-1687.2779756642151
 10
377.09839697975423
 20
-1687.3414019313655
 42
-0.0019150016601634
 10
376.84286357289443
 20
-1688.0849510515711
 10
376.83639596850503
 20
-1688.1035385164728
 42
-0.0021524362753945
 10
376.58791791743431
 20
-1688.8078643382007
 10
376.57870749674186
 20
-1688.833617916491
 42
-0.002433128682298
 10
376.34245223770188
 20
-1689.4842172246201
 10
376.33340428514674
 20
-1689.5087605309868
 42
-0.0027449721789057
 10
376.108789714316
 20
-1690.1078904098988
 10
376.09989970693471
 20
-1690.1312129997225
 42
-0.0031083229771258
 10
375.88635722031381
 20
-1690.6811370373309
 10
375.87762108863831
 20
-1690.7032267531886
 42
-0.0035311343282895
 10
375.67457990304638
 20
-1691.2062098789186
 10
375.66599456389582
 20
-1691.2270526024358
 42
-0.004024564094336
 10
375.47288276010431
 20
-1691.6853619250217
 10
375.46444664650187
 20
-1691.7049412930924
 42
-0.0046015135858641
 10
375.2806903533376
 20
-1692.120846322736
 10
375.2724041755074
 20
-1692.1391434621924
 42
-0.0052768638271538
 10
375.09742665655369
 20
-1692.5149163464578
 10
375.08929444593019
 20
-1692.5319096849939
 42
-0.0060672675636666
 10
374.92251483316079
 20
-1692.869825308115
 10
374.91454535268127
 20
-1692.8854905671083
 42
-0.0069904648869121
 10
374.75537695867774
 20
-1693.1878263737765
 10
374.74758555906647
 20
-1693.2021369230047
 42
-0.0080637022769668
 10
374.59543369872108
 20
-1693.4711722261575
 10
374.58784466609194
 20
-1693.4841000917547
 42
-0.0093006455675745
 10
374.44210398955829
 20
-1693.7221144902608
 10
374.43475332280997
 20
-1693.7336324594412
 42
-0.0107060778043243
 10
374.29480477937614
 20
-1693.9429027768122
 10
374.28774301109883
 20
-1693.9529883193748
 42
-0.0122723111403019
 10
374.15294929289848
 20
-1694.1357816488674
 10
374.15262306934545
 20
-1694.1362020366757
 42
-0.0141836319634963
 10
374.00904146637038
 20
-1694.310771794507
 10
374.00209371072333
 20
-1694.3187467947662
 42
-0.0175957477208702
 10
373.86218754268373
 20
-1694.4683676831767
 42
-0.008046635967254
 10
373.71472377764616
 20
-1694.6106902113349
 10
373.66868923313609
 20
-1694.6537106494191
 42
-0.0269600260390987
 10
373.41540898715436
 20
-1694.8660339079272
 10
373.34884185085861
 20
-1694.9159853225499
 42
-0.0178362839759812
 10
373.10889736120021
 20
-1695.0830032488041
 10
373.10165239019699
 20
-1695.0876717610108
 42
-0.0174650732640216
 10
372.86531619275854
 20
-1695.2285327259681
 42
-0.0169240130173232
 10
372.61984994690255
 20
-1695.3528249857447
 10
372.573863791343
 20
-1695.3741869413127
 42
-0.0318883036836006
 10
372.22351293572257
 20
-1695.5105252508229
 10
372.15514740055642
 20
-1695.5322258712988
 42
-0.0284435909900711
 10
371.7790972742672
 20
-1695.6284433067733
 10
371.74393911377075
 20
-1695.6353369026015
 42
-0.0243909341019019
 10
371.43049565284969
 20
-1695.6810579336318
 10
371.38021492608067
 20
-1695.6859034805332
 42
-0.0196639292918603
 10
371.16461934855135
 20
-1695.6981517660472
 10
371.11279527738645
 20
-1695.6990550267842
 42
-0.0100501510701559
 10
371.00037199572364
 20
-1695.6987546284311
 10
370.96871213435082
 20
-1695.6980335565449
 42
-0.0019752031140024
 10
370.91961979769815
 20
-1695.6967213963355
 10
370.91685949446094
 20
-1695.6966367045088
 42
0.0065378752087078
 10
370.87328291972131
 20
-1695.6958698132942
 42
-0.0167974694634348
 10
370.82975209678489
 20
-1695.6942099147682
 10
370.8256727575274
 20
-1695.6939169038735
 42
-0.0081283276340765
 10
370.77411295979624
 20
-1695.6893699102361
 10
370.76237338591022
 20
-1695.6881419926569
 42
-0.0126703440149595
 10
370.68765509011814
 20
-1695.6784072015853
 10
370.66486722243997
 20
-1695.6748489456697
 42
-0.0117852088436818
 10
370.54532823660679
 20
-1695.6532859505123
 10
370.48994778484462
 20
-1695.641942410278
 42
-0.0251774592286146
 10
370.2631037458371
 20
-1695.5834444008456
 10
370.21838455598487
 20
-1695.5694775815102
 42
-0.0146525199910393
 10
370.03199156844721
 20
-1695.5052110543122
 42
-0.0166929435830922
 10
369.85001391232032
 20
-1695.4294039212575
 10
369.84535728104731
 20
-1695.4272790206435
 42
-0.0191684358441992
 10
369.66017364979814
 20
-1695.3340429368543
 10
369.65684106404115
 20
-1695.332201689301
 42
-0.0221181781827227
 10
369.47353076013991
 20
-1695.2200681909308
 10
369.47118095613052
 20
-1695.218483892939
 42
-0.0254984685373846
 10
369.29489080574342
 20
-1695.0860727429672
 10
369.27240865804458
 20
-1695.0673204340335
 42
-0.0292492648789756
 10
369.14763971920024
 20
-1694.9502276343894
 42
-0.0159048957515592
 10
369.03379972174957
 20
-1694.8222076427896
 10
369.03248093117088
 20
-1694.8206260297704
 42
-0.0343813379554404
 10
368.92984366954386
 20
-1694.6787547039996
 10
368.89835213818441
 20
-1694.6282513119079
 42
-0.0369117275706658
 10
368.81245963628658
 20
-1694.464774070959
 42
-0.0191751379910071
 10
368.7452662507294
 20
-1694.2923694649528
 10
368.74350292697
 20
-1694.2872761202782
 42
-0.0378178042225429
 10
368.69370820818568
 20
-1694.0983353441968
 10
368.68771291245525
 20
-1694.0657747259993
 42
-0.0184846046478536
 10
368.66699571316099
 20
-1693.9240219054548
 42
-0.0179866351307406
 10
368.65666270808725
 20
-1693.7811310923707
 10
368.65660626564159
 20
-1693.7795734057611
 42
-0.0085497186124994
 10
368.6551739845379
 20
-1693.7047002407519
 42
-0.0085497186124994
  0
ENDBLK
  5
57
100
AcDbEntity
  8
1_10
390
0
100
AcDbBlockEnd
  0
BLOCK
  5
58
100
AcDbEntity
  8
notes
390
0
100
AcDbBlockBegin
  2
*D3
 70
               1
 10
0.0
 20
0.0
 30
0.0
  3
*D3
  1

  0
LINE
  5
59
100
AcDbEntity
  8
0
370
              -2
390
0
  6
Continuous
 62
               0
100
AcDbLine
 10
-794.27262661423038
 20
560.50908093143698
 30
0.0
 11
-794.27262661423038
 21
898.00908093143698
 31
0.0
  0
LINE
  5
5A
100
AcDbEntity
  8
0
370
              -2
390
0
  6
Continuous
 62
               0
100
AcDbLine
 10
-104.27262661423117
 20
560.50908093143698
 30
0.0
 11
-104.27262661423117
 21
898.00908093143698
 31
0.0
  0
LINE
  5
5B
100
AcDbEntity
  8
0
370
              -2
390
0
  6
Continuous
 62
               0
100
AcDbLine
 10
-794.27262661423038
 20
898.00908093143698
 30
0.0
 11
-104.27262661423117
 21
898.00908093143698
 31
0.0
  0
CIRCLE
  5
5C
102
{ACAD_REACTORS
330
5D
102
}
100
AcDbEntity
  8
0
370
              -2
390
0
  6
Continuous
 62
               0
100
AcDbCircle
 10
-794.27262661423038
 20
898.00908093143698
 30
0.0
 40
1.9998779296875
  0
HATCH
  5
5D
100
AcDbEntity
  8
0
370
              -2
390
0
  6
Continuous
 62
               0
100
AcDbHatch
 10
0.0
 20
0.0
 30
0.0
210
0.0
220
0.0
230
1.0
  2
SOLID
 70
               1
 71
               1
 91
        1
 92
        1
 93
        1
 72
               2
 10
-794.27262661423038
 20
898.00908093143698
 40
1.9998779296875
 50
0.0
 51
360.0
 73
               0
 97
        1
330
5C
 75
               0
 76
               1
 98
        1
 10
0.0
 20
0.0
  0
CIRCLE
  5
5E
102
{ACAD_REACTORS
330
5F
102
}
100
AcDbEntity
  8
0
370
              -2
390
0
  6
Continuous
 62
               0
100
AcDbCircle
 10
-104.27262661423117
 20
898.00908093143698
 30
0.0
 40
1.9998779296875
  0
HATCH
  5
5F
100
AcDbEntity
  8
0
370
              -2
390
0
  6
Continuous
 62
               0
100
AcDbHatch
 10
0.0
 20
0.0
 30
0.0
210
0.0
220
0.0
230
1.0
  2
SOLID
 70
               1
 71
               1
 91
        1
 92
        1
 93
        1
 72
               2
 10
-104.27262661423117
 20
898.00908093143698
 40
1.9998779296875
 50
0.0
 51
360.0
 73
               0
 97
        1
330
5E
 75
               0
 76
               1
 98
        1
 10
0.0
 20
0.0
  0
MTEXT
  5
60
100
AcDbEntity
  8
0
390
0
 62
               0
100
AcDbMText
 10
-473.08512829640631
 20
931.88669811893692
 30
0.0
 40
24.432617187500004
 41
0.0
 71
               1
 72
               1
  1
690
  7
ＭＳ ゴシック
 73
               1
 44
0.7828267384257843
  0
POINT
  5
61
100
AcDbEntity
  8
Defpoints
370
               0
390
0
 62
               0
100
AcDbPoint
 10
-104.27262661423117
 20
535.50908093143698
 30
0.0
  0
POINT
  5
62
100
AcDbEntity
  8
Defpoints
370
               0
390
0
 62
               0
100
AcDbPoint
 10
-794.27262661423038
 20
535.50908093143698
 30
0.0
  0
POINT
  5
63
100
AcDbEntity
  8
Defpoints
370
               0
390
0
 62
               0
100
AcDbPoint
 10
-794.27262661423038
 20
898.00908093143698
 30
0.0
  0
ENDBLK
  5
64
100
AcDbEntity
  8
notes
390
0
100
AcDbBlockEnd
  0
BLOCK
  5
65
100
AcDbEntity
  8
notes
390
0
100
AcDbBlockBegin
  2
*D4
 70
               1
 10
0.0
 20
0.0
 30
0.0
  3
*D4
  1

  0
LINE
  5
66
100
AcDbEntity
  8
0
370
              -2
390
0
  6
Continuous
 62
               0
100
AcDbLine
 10
-381.09202967190265
 20
798.00908093143698
 30
0.0
 11
-4.2726266142311715
 21
798.00908093143698
 31
0.0
  0
LINE
  5
67
100
AcDbEntity
  8
0
370
              -2
390
0
  6
Continuous
 62
               0
100
AcDbLine
 10
-384.08031473623294
 20
273.01892814407972
 30
0.0
 11
-4.2726266142311715
 21
273.01892814407972
 31
0.0
  0
LINE
  5
68
100
AcDbEntity
  8
0
370
              -2
390
0
  6
Continuous
 62
               0
100
AcDbLine
 10
-4.2726266142311715
 20
798.00908093143698
 30
0.0
 11
-4.2726266142311715
 21
273.01892814407972
 31
0.0
  0
CIRCLE
  5
69
102
{ACAD_REACTORS
330
6A
102
}
100
AcDbEntity
  8
0
370
              -2
390
0
  6
Continuous
 62
               0
100
AcDbCircle
 10
-4.2726266142311715
 20
798.00908093143698
 30
0.0
 40
1.9998779296875
  0
HATCH
  5
6A
100
AcDbEntity
  8
0
370
              -2
390
0
  6
Continuous
 62
               0
100
AcDbHatch
 10
0.0
 20
0.0
 30
0.0
210
0.0
220
0.0
230
1.0
  2
SOLID
 70
               1
 71
               1
 91
        1
 92
        1
 93
        1
 72
               2
 10
-4.2726266142311715
 20
798.00908093143698
 40
1.9998779296875
 50
0.0
 51
360.0
 73
               0
 97
        1
330
69
 75
               0
 76
               1
 98
        1
 10
0.0
 20
0.0
  0
CIRCLE
  5
6B
102
{ACAD_REACTORS
330
6C
102
}
100
AcDbEntity
  8
0
370
              -2
390
0
  6
Continuous
 62
               0
100
AcDbCircle
 10
-4.2726266142311715
 20
273.01892814407972
 30
0.0
 40
1.9998779296875
  0
HATCH
  5
6C
100
AcDbEntity
  8
0
370
              -2
390
0
  6
Continuous
 62
               0
100
AcDbHatch
 10
0.0
 20
0.0
 30
0.0
210
0.0
220
0.0
230
1.0
  2
SOLID
 70
               1
 71
               1
 91
        1
 92
        1
 93
        1
 72
               2
 10
-4.2726266142311715
 20
273.01892814407972
 40
1.9998779296875
 50
0.0
 51
360.0
 73
               0
 97
        1
330
6B
 75
               0
 76
               1
 98
        1
 10
0.0
 20
0.0
  0
MTEXT
  5
6D
100
AcDbEntity
  8
0
390
0
 62
               0
100
AcDbMText
 10
-38.150243801731222
 20
511.70150285558282
 30
0.0
 40
24.432617187500004
 41
0.0
 71
               1
 72
               1
  1
525
  7
ＭＳ ゴシック
 11
0.0
 21
1.0
 31
0.0
 73
               1
 44
0.7828267384257843
  0
POINT
  5
6E
100
AcDbEntity
  8
Defpoints
370
               0
390
0
 62
               0
100
AcDbPoint
 10
-409.08031473623294
 20
273.01892814407972
 30
0.0
  0
POINT
  5
6F
100
AcDbEntity
  8
Defpoints
370
               0
390
0
 62
               0
100
AcDbPoint
 10
-406.09202967190265
 20
798.00908093143698
 30
0.0
  0
POINT
  5
70
100
AcDbEntity
  8
Defpoints
370
               0
390
0
 62
               0
100
AcDbPoint
 10
-4.2726266142311715
 20
798.00908093143698
 30
0.0
  0
ENDBLK
  5
71
100
AcDbEntity
  8
notes
390
0
100
AcDbBlockEnd
  0
BLOCK
  5
72
100
AcDbEntity
  8
notes
390
0
100
AcDbBlockBegin
  2
*D5
 70
               1
 10
0.0
 20
0.0
 30
0.0
  3
*D5
  1

  0
LINE
  5
73
100
AcDbEntity
  8
0
370
              -2
390
0
  6
Continuous
 62
               0
100
AcDbLine
 10
-81.878803661226698
 20
-300.57242497313263
 30
0.0
 11
45.727373385768828
 21
-300.57242497313263
 31
0.0
  0
LINE
  5
74
100
AcDbEntity
  8
0
370
              -2
390
0
  6
Continuous
 62
               0
100
AcDbLine
 10
-395.67390513753833
 20
-505.57267023291894
 30
0.0
 11
45.727373385768828
 21
-505.57267023291894
 31
0.0
  0
LINE
  5
75
100
AcDbEntity
  8
0
370
              -2
390
0
  6
Continuous
 62
               0
100
AcDbLine
 10
45.727373385768828
 20
-300.57242497313263
 30
0.0
 11
45.727373385768828
 21
-505.57267023291894
 31
0.0
  0
CIRCLE
  5
76
102
{ACAD_REACTORS
330
77
102
}
100
AcDbEntity
  8
0
370
              -2
390
0
  6
Continuous
 62
               0
100
AcDbCircle
 10
45.727373385768828
 20
-300.57242497313263
 30
0.0
 40
1.9998779296875
  0
HATCH
  5
77
100
AcDbEntity
  8
0
370
              -2
390
0
  6
Continuous
 62
               0
100
AcDbHatch
 10
0.0
 20
0.0
 30
0.0
210
0.0
220
0.0
230
1.0
  2
SOLID
 70
               1
 71
               1
 91
        1
 92
        1
 93
        1
 72
               2
 10
45.727373385768828
 20
-300.57242497313263
 40
1.9998779296875
 50
0.0
 51
360.0
 73
               0
 97
        1
330
76
 75
               0
 76
               1
 98
        1
 10
0.0
 20
0.0
  0
CIRCLE
  5
78
102
{ACAD_REACTORS
330
79
102
}
100
AcDbEntity
  8
0
370
              -2
390
0
  6
Continuous
 62
               0
100
AcDbCircle
 10
45.727373385768828
 20
-505.57267023291894
 30
0.0
 40
1.9998779296875
  0
HATCH
  5
79
100
AcDbEntity
  8
0
370
              -2
390
0
  6
Continuous
 62
               0
100
AcDbHatch
 10
0.0
 20
0.0
 30
0.0
210
0.0
220
0.0
230
1.0
  2
SOLID
 70
               1
 71
               1
 91
        1
 92
        1
 93
        1
 72
               2
 10
45.727373385768828
 20
-505.57267023291894
 40
1.9998779296875
 50
0.0
 51
360.0
 73
               0
 97
        1
330
78
 75
               0
 76
               1
 98
        1
 10
0.0
 20
0.0
  0
MTEXT
  5
7A
100
AcDbEntity
  8
0
390
0
 62
               0
100
AcDbMText
 10
11.849756198268778
 20
-426.88504928520121
 30
0.0
 40
24.432617187500004
 41
0.0
 71
               1
 72
               1
  1
205
  7
ＭＳ ゴシック
 11
0.0
 21
1.0
 31
0.0
 73
               1
 44
0.7828267384257843
  0
POINT
  5
7B
100
AcDbEntity
  8
Defpoints
370
               0
390
0
 62
               0
100
AcDbPoint
 10
-420.67390513753833
 20
-505.57267023291894
 30
0.0
  0
POINT
  5
7C
100
AcDbEntity
  8
Defpoints
370
               0
390
0
 62
               0
100
AcDbPoint
 10
-106.8788036612267
 20
-300.57242497313263
 30
0.0
  0
POINT
  5
7D
100
AcDbEntity
  8
Defpoints
370
               0
390
0
 62
               0
100
AcDbPoint
 10
45.727373385768828
 20
-300.57242497313263
 30
0.0
  0
ENDBLK
  5
7E
100
AcDbEntity
  8
notes
390
0
100
AcDbBlockEnd
  0
BLOCK
  5
7F
100
AcDbEntity
  8
notes
390
0
100
AcDbBlockBegin
  2
*D6
 70
               1
 10
0.0
 20
0.0
 30
0.0
  3
*D6
  1

  0
LINE
  5
80
100
AcDbEntity
  8
0
370
              -2
390
0
  6
Continuous
 62
               0
100
AcDbLine
 10
-260.45362951767572
 20
-465.60196246328115
 30
0.0
 11
-4.2726266142311715
 21
-465.60196246328115
 31
0.0
  0
LINE
  5
81
100
AcDbEntity
  8
0
370
              -2
390
0
  6
Continuous
 62
               0
100
AcDbLine
 10
-80.514122056231031
 20
-300.57242497313263
 30
0.0
 11
-4.2726266142311715
 21
-300.57242497313263
 31
0.0
  0
LINE
  5
82
100
AcDbEntity
  8
0
370
              -2
390
0
  6
Continuous
 62
               0
100
AcDbLine
 10
-4.2726266142311715
 20
-465.60196246328115
 30
0.0
 11
-4.2726266142311715
 21
-300.57242497313263
 31
0.0
  0
CIRCLE
  5
83
102
{ACAD_REACTORS
330
84
102
}
100
AcDbEntity
  8
0
370
              -2
390
0
  6
Continuous
 62
               0
100
AcDbCircle
 10
-4.2726266142311715
 20
-465.60196246328115
 30
0.0
 40
1.9998779296875
  0
HATCH
  5
84
100
AcDbEntity
  8
0
370
              -2
390
0
  6
Continuous
 62
               0
100
AcDbHatch
 10
0.0
 20
0.0
 30
0.0
210
0.0
220
0.0
230
1.0
  2
SOLID
 70
               1
 71
               1
 91
        1
 92
        1
 93
        1
 72
               2
 10
-4.2726266142311715
 20
-465.60196246328115
 40
1.9998779296875
 50
0.0
 51
360.0
 73
               0
 97
        1
330
83
 75
               0
 76
               1
 98
        1
 10
0.0
 20
0.0
  0
CIRCLE
  5
85
102
{ACAD_REACTORS
330
86
102
}
100
AcDbEntity
  8
0
370
              -2
390
0
  6
Continuous
 62
               0
100
AcDbCircle
 10
-4.2726266142311715
 20
-300.57242497313263
 30
0.0
 40
1.9998779296875
  0
HATCH
  5
86
100
AcDbEntity
  8
0
370
              -2
390
0
  6
Continuous
 62
               0
100
AcDbHatch
 10
0.0
 20
0.0
 30
0.0
210
0.0
220
0.0
230
1.0
  2
SOLID
 70
               1
 71
               1
 91
        1
 92
        1
 93
        1
 72
               2
 10
-4.2726266142311715
 20
-300.57242497313263
 40
1.9998779296875
 50
0.0
 51
360.0
 73
               0
 97
        1
330
85
 75
               0
 76
               1
 98
        1
 10
0.0
 20
0.0
  0
MTEXT
  5
87
100
AcDbEntity
  8
0
390
0
 62
               0
100
AcDbMText
 10
-38.150243801731222
 20
-406.89969540038243
 30
0.0
 40
24.432617187500004
 41
0.0
 71
               1
 72
               1
  1
165
  7
ＭＳ ゴシック
 11
0.0
 21
1.0
 31
0.0
 73
               1
 44
0.7828267384257843
  0
POINT
  5
88
100
AcDbEntity
  8
Defpoints
370
               0
390
0
 62
               0
100
AcDbPoint
 10
-105.51412205623103
 20
-300.57242497313263
 30
0.0
  0
POINT
  5
89
100
AcDbEntity
  8
Defpoints
370
               0
390
0
 62
               0
100
AcDbPoint
 10
-285.45362951767572
 20
-465.60196246328115
 30
0.0
  0
POINT
  5
8A
100
AcDbEntity
  8
Defpoints
370
               0
390
0
 62
               0
100
AcDbPoint
 10
-4.2726266142311715
 20
-465.60196246328115
 30
0.0
  0
ENDBLK
  5
8B
100
AcDbEntity
  8
notes
390
0
100
AcDbBlockEnd
  0
BLOCK
  5
8C
100
AcDbEntity
  8
notes
390
0
100
AcDbBlockBegin
  2
*D7
 70
               1
 10
0.0
 20
0.0
 30
0.0
  3
*D7
  1

  0
LINE
  5
8D
100
AcDbEntity
  8
0
370
              -2
390
0
  6
Continuous
 62
               0
100
AcDbLine
 10
-755.29207502703616
 20
688.00908093143698
 30
0.0
 11
-894.27262661423038
 21
688.00908093143698
 31
0.0
  0
LINE
  5
8E
100
AcDbEntity
  8
0
370
              -2
390
0
  6
Continuous
 62
               0
100
AcDbLine
 10
-678.37362072174164
 20
318.00908093143693
 30
0.0
 11
-894.27262661423038
 21
318.00908093143693
 31
0.0
  0
LINE
  5
8F
100
AcDbEntity
  8
0
370
              -2
390
0
  6
Continuous
 62
               0
100
AcDbLine
 10
-894.27262661423038
 20
688.00908093143698
 30
0.0
 11
-894.27262661423038
 21
318.00908093143693
 31
0.0
  0
CIRCLE
  5
90
102
{ACAD_REACTORS
330
91
102
}
100
AcDbEntity
  8
0
370
              -2
390
0
  6
Continuous
 62
               0
100
AcDbCircle
 10
-894.27262661423038
 20
688.00908093143698
 30
0.0
 40
1.9998779296875
  0
HATCH
  5
91
100
AcDbEntity
  8
0
370
              -2
390
0
  6
Continuous
 62
               0
100
AcDbHatch
 10
0.0
 20
0.0
 30
0.0
210
0.0
220
0.0
230
1.0
  2
SOLID
 70
               1
 71
               1
 91
        1
 92
        1
 93
        1
 72
               2
 10
-894.27262661423038
 20
688.00908093143698
 40
1.9998779296875
 50
0.0
 51
360.0
 73
               0
 97
        1
330
90
 75
               0
 76
               1
 98
        1
 10
0.0
 20
0.0
  0
CIRCLE
  5
92
102
{ACAD_REACTORS
330
93
102
}
100
AcDbEntity
  8
0
370
              -2
390
0
  6
Continuous
 62
               0
100
AcDbCircle
 10
-894.27262661423038
 20
318.00908093143693
 30
0.0
 40
1.9998779296875
  0
HATCH
  5
93
100
AcDbEntity
  8
0
370
              -2
390
0
  6
Continuous
 62
               0
100
AcDbHatch
 10
0.0
 20
0.0
 30
0.0
210
0.0
220
0.0
230
1.0
  2
SOLID
 70
               1
 71
               1
 91
        1
 92
        1
 93
        1
 72
               2
 10
-894.27262661423038
 20
318.00908093143693
 40
1.9998779296875
 50
0.0
 51
360.0
 73
               0
 97
        1
330
92
 75
               0
 76
               1
 98
        1
 10
0.0
 20
0.0
  0
MTEXT
  5
94
100
AcDbEntity
  8
0
390
0
 62
               0
100
AcDbMText
 10
-928.15024380173031
 20
479.19657924926139
 30
0.0
 40
24.432617187500004
 41
0.0
 71
               1
 72
               1
  1
370
  7
ＭＳ ゴシック
 11
0.0
 21
1.0
 31
0.0
 73
               1
 44
0.7828267384257843
  0
POINT
  5
95
100
AcDbEntity
  8
Defpoints
370
               0
390
0
 62
               0
100
AcDbPoint
 10
-653.37362072174164
 20
318.00908093143693
 30
0.0
  0
POINT
  5
96
100
AcDbEntity
  8
Defpoints
370
               0
390
0
 62
               0
100
AcDbPoint
 10
-730.29207502703616
 20
688.00908093143698
 30
0.0
  0
POINT
  5
97
100
AcDbEntity
  8
Defpoints
370
               0
390
0
 62
               0
100
AcDbPoint
 10
-894.27262661423038
 20
688.00908093143698
 30
0.0
  0
ENDBLK
  5
98
100
AcDbEntity
  8
notes
390
0
100
AcDbBlockEnd
  0
BLOCK
  5
99
100
AcDbEntity
  8
notes
390
0
100
AcDbBlockBegin
  2
*D8
 70
               1
 10
0.0
 20
0.0
 30
0.0
  3
*D8
  1

  0
LINE
  5
9A
100
AcDbEntity
  8
0
370
              -2
390
0
  6
Continuous
 62
               0
100
AcDbLine
 10
-744.1123753416839
 20
375.90900156728401
 30
0.0
 11
-744.1123753416839
 21
173.00908093143698
 31
0.0
  0
LINE
  5
9B
100
AcDbEntity
  8
0
370
              -2
390
0
  6
Continuous
 62
               0
100
AcDbLine
 10
-154.1123753416847
 20
375.17451278935482
 30
0.0
 11
-154.1123753416847
 21
173.00908093143698
 31
0.0
  0
LINE
  5
9C
100
AcDbEntity
  8
0
370
              -2
390
0
  6
Continuous
 62
               0
100
AcDbLine
 10
-744.1123753416839
 20
173.00908093143698
 30
0.0
 11
-154.1123753416847
 21
173.00908093143698
 31
0.0
  0
CIRCLE
  5
9D
102
{ACAD_REACTORS
330
9E
102
}
100
AcDbEntity
  8
0
370
              -2
390
0
  6
Continuous
 62
               0
100
AcDbCircle
 10
-744.1123753416839
 20
173.00908093143698
 30
0.0
 40
1.9998779296875
  0
HATCH
  5
9E
100
AcDbEntity
  8
0
370
              -2
390
0
  6
Continuous
 62
               0
100
AcDbHatch
 10
0.0
 20
0.0
 30
0.0
210
0.0
220
0.0
230
1.0
  2
SOLID
 70
               1
 71
               1
 91
        1
 92
        1
 93
        1
 72
               2
 10
-744.1123753416839
 20
173.00908093143698
 40
1.9998779296875
 50
0.0
 51
360.0
 73
               0
 97
        1
330
9D
 75
               0
 76
               1
 98
        1
 10
0.0
 20
0.0
  0
CIRCLE
  5
9F
102
{ACAD_REACTORS
330
A0
102
}
100
AcDbEntity
  8
0
370
              -2
390
0
  6
Continuous
 62
               0
100
AcDbCircle
 10
-154.1123753416847
 20
173.00908093143698
 30
0.0
 40
1.9998779296875
  0
HATCH
  5
A0
100
AcDbEntity
  8
0
370
              -2
390
0
  6
Continuous
 62
               0
100
AcDbHatch
 10
0.0
 20
0.0
 30
0.0
210
0.0
220
0.0
230
1.0
  2
SOLID
 70
               1
 71
               1
 91
        1
 92
        1
 93
        1
 72
               2
 10
-154.1123753416847
 20
173.00908093143698
 40
1.9998779296875
 50
0.0
 51
360.0
 73
               0
 97
        1
330
9F
 75
               0
 76
               1
 98
        1
 10
0.0
 20
0.0
  0
MTEXT
  5
A1
100
AcDbEntity
  8
0
390
0
 62
               0
100
AcDbMText
 10
-472.92487702385984
 20
206.88669811893698
 30
0.0
 40
24.432617187500004
 41
0.0
 71
               1
 72
               1
  1
590
  7
ＭＳ ゴシック
 73
               1
 44
0.7828267384257843
  0
POINT
  5
A2
100
AcDbEntity
  8
Defpoints
370
               0
390
0
 62
               0
100
AcDbPoint
 10
-154.1123753416847
 20
400.17451278935482
 30
0.0
  0
POINT
  5
A3
100
AcDbEntity
  8
Defpoints
370
               0
390
0
 62
               0
100
AcDbPoint
 10
-744.1123753416839
 20
400.90900156728401
 30
0.0
  0
POINT
  5
A4
100
AcDbEntity
  8
Defpoints
370
               0
390
0
 62
               0
100
AcDbPoint
 10
-744.1123753416839
 20
173.00908093143698
 30
0.0
  0
ENDBLK
  5
A5
100
AcDbEntity
  8
notes
390
0
100
AcDbBlockEnd
  0
BLOCK
  5
A6
100
AcDbEntity
  8
notes
390
0
100
AcDbBlockBegin
  2
*D9
 70
               1
 10
0.0
 20
0.0
 30
0.0
  3
*D9
  1

  0
LINE
  5
A7
100
AcDbEntity
  8
0
370
              -2
390
0
  6
Continuous
 62
               0
100
AcDbLine
 10
714.33909999190132
 20
-275.67242497313265
 30
0.0
 11
714.33909999190132
 21
-226.37930397137671
 31
0.0
  0
LINE
  5
A8
100
AcDbEntity
  8
0
370
              -2
390
0
  6
Continuous
 62
               0
100
AcDbLine
 10
764.33909999190121
 20
-281.2212104125428
 30
0.0
 11
764.33909999190121
 21
-226.37930397137671
 31
0.0
  0
LINE
  5
A9
100
AcDbEntity
  8
0
370
              -2
390
0
  6
Continuous
 62
               0
100
AcDbLine
 10
714.33909999190132
 20
-226.37930397137671
 30
0.0
 11
764.33909999190121
 21
-226.37930397137671
 31
0.0
  0
CIRCLE
  5
AA
102
{ACAD_REACTORS
330
AB
102
}
100
AcDbEntity
  8
0
370
              -2
390
0
  6
Continuous
 62
               0
100
AcDbCircle
 10
714.33909999190132
 20
-226.37930397137671
 30
0.0
 40
1.9998779296875
  0
HATCH
  5
AB
100
AcDbEntity
  8
0
370
              -2
390
0
  6
Continuous
 62
               0
100
AcDbHatch
 10
0.0
 20
0.0
 30
0.0
210
0.0
220
0.0
230
1.0
  2
SOLID
 70
               1
 71
               1
 91
        1
 92
        1
 93
        1
 72
               2
 10
714.33909999190132
 20
-226.37930397137671
 40
1.9998779296875
 50
0.0
 51
360.0
 73
               0
 97
        1
330
AA
 75
               0
 76
               1
 98
        1
 10
0.0
 20
0.0
  0
CIRCLE
  5
AC
102
{ACAD_REACTORS
330
AD
102
}
100
AcDbEntity
  8
0
370
              -2
390
0
  6
Continuous
 62
               0
100
AcDbCircle
 10
764.33909999190121
 20
-226.37930397137671
 30
0.0
 40
1.9998779296875
  0
HATCH
  5
AD
100
AcDbEntity
  8
0
370
              -2
390
0
  6
Continuous
 62
               0
100
AcDbHatch
 10
0.0
 20
0.0
 30
0.0
210
0.0
220
0.0
230
1.0
  2
SOLID
 70
               1
 71
               1
 91
        1
 92
        1
 93
        1
 72
               2
 10
764.33909999190121
 20
-226.37930397137671
 40
1.9998779296875
 50
0.0
 51
360.0
 73
               0
 97
        1
330
AC
 75
               0
 76
               1
 98
        1
 10
0.0
 20
0.0
  0
MTEXT
  5
AE
100
AcDbEntity
  8
0
390
0
 62
               0
100
AcDbMText
 10
723.46409999190132
 20
-192.50168678387666
 30
0.0
 40
24.432617187500004
 41
0.0
 71
               1
 72
               1
  1
50
  7
ＭＳ ゴシック
 73
               1
 44
0.7828267384257843
  0
POINT
  5
AF
100
AcDbEntity
  8
Defpoints
370
               0
390
0
 62
               0
100
AcDbPoint
 10
764.33909999190121
 20
-306.2212104125428
 30
0.0
  0
POINT
  5
B0
100
AcDbEntity
  8
Defpoints
370
               0
390
0
 62
               0
100
AcDbPoint
 10
714.33909999190132
 20
-300.67242497313265
 30
0.0
  0
POINT
  5
B1
100
AcDbEntity
  8
Defpoints
370
               0
390
0
 62
               0
100
AcDbPoint
 10
714.33909999190132
 20
-226.37930397137671
 30
0.0
  0
ENDBLK
  5
B2
100
AcDbEntity
  8
notes
390
0
100
AcDbBlockEnd
  0
BLOCK
  5
B3
100
AcDbEntity
  8
notes
390
0
100
AcDbBlockBegin
  2
*D10
 70
               1
 10
0.0
 20
0.0
 30
0.0
  3
*D10
  1

  0
LINE
  5
B4
100
AcDbEntity
  8
0
370
              -2
390
0
  6
Continuous
 62
               0
100
AcDbLine
 10
504.56181732610287
 20
-530.29801582715777
 30
0.0
 11
504.56181732610287
 21
-670.01187278869133
 31
0.0
  0
LINE
  5
B5
100
AcDbEntity
  8
0
370
              -2
390
0
  6
Continuous
 62
               0
100
AcDbLine
 10
764.56181732610287
 20
-360.01187278869139
 30
0.0
 11
764.56181732610287
 21
-670.01187278869133
 31
0.0
  0
LINE
  5
B6
100
AcDbEntity
  8
0
370
              -2
390
0
  6
Continuous
 62
               0
100
AcDbLine
 10
504.56181732610287
 20
-670.01187278869133
 30
0.0
 11
764.56181732610287
 21
-670.01187278869133
 31
0.0
  0
CIRCLE
  5
B7
102
{ACAD_REACTORS
330
B8
102
}
100
AcDbEntity
  8
0
370
              -2
390
0
  6
Continuous
 62
               0
100
AcDbCircle
 10
504.56181732610287
 20
-670.01187278869133
 30
0.0
 40
1.9998779296875
  0
HATCH
  5
B8
100
AcDbEntity
  8
0
370
              -2
390
0
  6
Continuous
 62
               0
100
AcDbHatch
 10
0.0
 20
0.0
 30
0.0
210
0.0
220
0.0
230
1.0
  2
SOLID
 70
               1
 71
               1
 91
        1
 92
        1
 93
        1
 72
               2
 10
504.56181732610287
 20
-670.01187278869133
 40
1.9998779296875
 50
0.0
 51
360.0
 73
               0
 97
        1
330
B7
 75
               0
 76
               1
 98
        1
 10
0.0
 20
0.0
  0
CIRCLE
  5
B9
102
{ACAD_REACTORS
330
BA
102
}
100
AcDbEntity
  8
0
370
              -2
390
0
  6
Continuous
 62
               0
100
AcDbCircle
 10
764.56181732610287
 20
-670.01187278869133
 30
0.0
 40
1.9998779296875
  0
HATCH
  5
BA
100
AcDbEntity
  8
0
370
              -2
390
0
  6
Continuous
 62
               0
100
AcDbHatch
 10
0.0
 20
0.0
 30
0.0
210
0.0
220
0.0
230
1.0
  2
SOLID
 70
               1
 71
               1
 91
        1
 92
        1
 93
        1
 72
               2
 10
764.56181732610287
 20
-670.01187278869133
 40
1.9998779296875
 50
0.0
 51
360.0
 73
               0
 97
        1
330
B9
 75
               0
 76
               1
 98
        1
 10
0.0
 20
0.0
  0
MTEXT
  5
BB
100
AcDbEntity
  8
0
390
0
 62
               0
100
AcDbMText
 10
610.74931564392728
 20
-636.1342556011914
 30
0.0
 40
24.432617187500004
 41
0.0
 71
               1
 72
               1
  1
260
  7
ＭＳ ゴシック
 73
               1
 44
0.7828267384257843
  0
POINT
  5
BC
100
AcDbEntity
  8
Defpoints
370
               0
390
0
 62
               0
100
AcDbPoint
 10
764.56181732610287
 20
-335.01187278869139
 30
0.0
  0
POINT
  5
BD
100
AcDbEntity
  8
Defpoints
370
               0
390
0
 62
               0
100
AcDbPoint
 10
504.56181732610287
 20
-505.29801582715783
 30
0.0
  0
POINT
  5
BE
100
AcDbEntity
  8
Defpoints
370
               0
390
0
 62
               0
100
AcDbPoint
 10
504.56181732610287
 20
-670.01187278869133
 30
0.0
  0
ENDBLK
  5
BF
100
AcDbEntity
  8
notes
390
0
100
AcDbBlockEnd
  0
BLOCK
  5
C0
100
AcDbEntity
  8
notes
390
0
100
AcDbBlockBegin
  2
*D11
 70
               1
 10
0.0
 20
0.0
 30
0.0
  3
*D11
  1

  0
LINE
  5
C1
100
AcDbEntity
  8
0
370
              -2
390
0
  6
Continuous
 62
               0
100
AcDbLine
 10
364.56181732610287
 20
-490.67242497313265
 30
0.0
 11
364.56181732610287
 21
-620.01187278869133
 31
0.0
  0
LINE
  5
C2
100
AcDbEntity
  8
0
370
              -2
390
0
  6
Continuous
 62
               0
100
AcDbLine
 10
644.56181732610287
 20
-490.67242497313265
 30
0.0
 11
644.56181732610287
 21
-620.01187278869133
 31
0.0
  0
LINE
  5
C3
100
AcDbEntity
  8
0
370
              -2
390
0
  6
Continuous
 62
               0
100
AcDbLine
 10
364.56181732610287
 20
-620.01187278869133
 30
0.0
 11
644.56181732610287
 21
-620.01187278869133
 31
0.0
  0
CIRCLE
  5
C4
102
{ACAD_REACTORS
330
C5
102
}
100
AcDbEntity
  8
0
370
              -2
390
0
  6
Continuous
 62
               0
100
AcDbCircle
 10
364.56181732610287
 20
-620.01187278869133
 30
0.0
 40
1.9998779296875
  0
HATCH
  5
C5
100
AcDbEntity
  8
0
370
              -2
390
0
  6
Continuous
 62
               0
100
AcDbHatch
 10
0.0
 20
0.0
 30
0.0
210
0.0
220
0.0
230
1.0
  2
SOLID
 70
               1
 71
               1
 91
        1
 92
        1
 93
        1
 72
               2
 10
364.56181732610287
 20
-620.01187278869133
 40
1.9998779296875
 50
0.0
 51
360.0
 73
               0
 97
        1
330
C4
 75
               0
 76
               1
 98
        1
 10
0.0
 20
0.0
  0
CIRCLE
  5
C6
102
{ACAD_REACTORS
330
C7
102
}
100
AcDbEntity
  8
0
370
              -2
390
0
  6
Continuous
 62
               0
100
AcDbCircle
 10
644.56181732610287
 20
-620.01187278869133
 30
0.0
 40
1.9998779296875
  0
HATCH
  5
C7
100
AcDbEntity
  8
0
370
              -2
390
0
  6
Continuous
 62
               0
100
AcDbHatch
 10
0.0
 20
0.0
 30
0.0
210
0.0
220
0.0
230
1.0
  2
SOLID
 70
               1
 71
               1
 91
        1
 92
        1
 93
        1
 72
               2
 10
644.56181732610287
 20
-620.01187278869133
 40
1.9998779296875
 50
0.0
 51
360.0
 73
               0
 97
        1
330
C6
 75
               0
 76
               1
 98
        1
 10
0.0
 20
0.0
  0
MTEXT
  5
C8
100
AcDbEntity
  8
0
390
0
 62
               0
100
AcDbMText
 10
480.74931564392733
 20
-586.1342556011914
 30
0.0
 40
24.432617187500004
 41
0.0
 71
               1
 72
               1
  1
280
  7
ＭＳ ゴシック
 73
               1
 44
0.7828267384257843
  0
POINT
  5
C9
100
AcDbEntity
  8
Defpoints
370
               0
390
0
 62
               0
100
AcDbPoint
 10
644.56181732610287
 20
-465.67242497313265
 30
0.0
  0
POINT
  5
CA
100
AcDbEntity
  8
Defpoints
370
               0
390
0
 62
               0
100
AcDbPoint
 10
364.56181732610287
 20
-465.67242497313265
 30
0.0
  0
POINT
  5
CB
100
AcDbEntity
  8
Defpoints
370
               0
390
0
 62
               0
100
AcDbPoint
 10
364.56181732610287
 20
-620.01187278869133
 30
0.0
  0
ENDBLK
  5
CC
100
AcDbEntity
  8
notes
390
0
100
AcDbBlockEnd
  0
BLOCK
  5
CD
100
AcDbEntity
  8
notes
390
0
100
AcDbBlockBegin
  2
*D12
 70
               1
 10
0.0
 20
0.0
 30
0.0
  3
*D12
  1

  0
LINE
  5
CE
100
AcDbEntity
  8
0
370
              -2
390
0
  6
Continuous
 62
               0
100
AcDbLine
 10
-285.67416238732324
 20
-490.60196246328115
 30
0.0
 11
-285.67416238732324
 21
-620.01187278869133
 31
0.0
  0
LINE
  5
CF
100
AcDbEntity
  8
0
370
              -2
390
0
  6
Continuous
 62
               0
100
AcDbLine
 10
-620.67416238732244
 20
-490.60196246328115
 30
0.0
 11
-620.67416238732244
 21
-620.01187278869133
 31
0.0
  0
LINE
  5
D0
100
AcDbEntity
  8
0
370
              -2
390
0
  6
Continuous
 62
               0
100
AcDbLine
 10
-285.67416238732324
 20
-620.01187278869133
 30
0.0
 11
-620.67416238732244
 21
-620.01187278869133
 31
0.0
  0
CIRCLE
  5
D1
102
{ACAD_REACTORS
330
D2
102
}
100
AcDbEntity
  8
0
370
              -2
390
0
  6
Continuous
 62
               0
100
AcDbCircle
 10
-285.67416238732324
 20
-620.01187278869133
 30
0.0
 40
1.9998779296875
  0
HATCH
  5
D2
100
AcDbEntity
  8
0
370
              -2
390
0
  6
Continuous
 62
               0
100
AcDbHatch
 10
0.0
 20
0.0
 30
0.0
210
0.0
220
0.0
230
1.0
  2
SOLID
 70
               1
 71
               1
 91
        1
 92
        1
 93
        1
 72
               2
 10
-285.67416238732324
 20
-620.01187278869133
 40
1.9998779296875
 50
0.0
 51
360.0
 73
               0
 97
        1
330
D1
 75
               0
 76
               1
 98
        1
 10
0.0
 20
0.0
  0
CIRCLE
  5
D3
102
{ACAD_REACTORS
330
D4
102
}
100
AcDbEntity
  8
0
370
              -2
390
0
  6
Continuous
 62
               0
100
AcDbCircle
 10
-620.67416238732244
 20
-620.01187278869133
 30
0.0
 40
1.9998779296875
  0
HATCH
  5
D4
100
AcDbEntity
  8
0
370
              -2
390
0
  6
Continuous
 62
               0
100
AcDbHatch
 10
0.0
 20
0.0
 30
0.0
210
0.0
220
0.0
230
1.0
  2
SOLID
 70
               1
 71
               1
 91
        1
 92
        1
 93
        1
 72
               2
 10
-620.67416238732244
 20
-620.01187278869133
 40
1.9998779296875
 50
0.0
 51
360.0
 73
               0
 97
        1
330
D3
 75
               0
 76
               1
 98
        1
 10
0.0
 20
0.0
  0
MTEXT
  5
D5
100
AcDbEntity
  8
0
390
0
 62
               0
100
AcDbMText
 10
-466.65548089061599
 20
-586.1342556011914
 30
0.0
 40
24.432617187500004
 41
0.0
 71
               1
 72
               1
  1
335
  7
ＭＳ ゴシック
 73
               1
 44
0.7828267384257843
  0
POINT
  5
D6
100
AcDbEntity
  8
Defpoints
370
               0
390
0
 62
               0
100
AcDbPoint
 10
-620.67416238732244
 20
-465.60196246328115
 30
0.0
  0
POINT
  5
D7
100
AcDbEntity
  8
Defpoints
370
               0
390
0
 62
               0
100
AcDbPoint
 10
-285.67416238732324
 20
-465.60196246328115
 30
0.0
  0
POINT
  5
D8
100
AcDbEntity
  8
Defpoints
370
               0
390
0
 62
               0
100
AcDbPoint
 10
-285.67416238732324
 20
-620.01187278869133
 30
0.0
  0
ENDBLK
  5
D9
100
AcDbEntity
  8
notes
390
0
100
AcDbBlockEnd
  0
BLOCK
  5
DA
100
AcDbEntity
  8
notes
390
0
100
AcDbBlockBegin
  2
*D13
 70
               1
 10
0.0
 20
0.0
 30
0.0
  3
*D13
  1

  0
LINE
  5
DB
100
AcDbEntity
  8
0
370
              -2
390
0
  6
Continuous
 62
               0
100
AcDbLine
 10
-780.29207502703616
 20
688.00908093143698
 30
0.0
 11
-894.27262661423038
 21
688.00908093143698
 31
0.0
  0
LINE
  5
DC
100
AcDbEntity
  8
0
370
              -2
390
0
  6
Continuous
 62
               0
100
AcDbLine
 10
-507.84297920844074
 20
798.00908093143698
 30
0.0
 11
-894.27262661423038
 21
798.00908093143698
 31
0.0
  0
LINE
  5
DD
100
AcDbEntity
  8
0
370
              -2
390
0
  6
Continuous
 62
               0
100
AcDbLine
 10
-894.27262661423038
 20
688.00908093143698
 30
0.0
 11
-894.27262661423038
 21
798.00908093143698
 31
0.0
  0
CIRCLE
  5
DE
102
{ACAD_REACTORS
330
DF
102
}
100
AcDbEntity
  8
0
370
              -2
390
0
  6
Continuous
 62
               0
100
AcDbCircle
 10
-894.27262661423038
 20
688.00908093143698
 30
0.0
 40
1.9998779296875
  0
HATCH
  5
DF
100
AcDbEntity
  8
0
370
              -2
390
0
  6
Continuous
 62
               0
100
AcDbHatch
 10
0.0
 20
0.0
 30
0.0
210
0.0
220
0.0
230
1.0
  2
SOLID
 70
               1
 71
               1
 91
        1
 92
        1
 93
        1
 72
               2
 10
-894.27262661423038
 20
688.00908093143698
 40
1.9998779296875
 50
0.0
 51
360.0
 73
               0
 97
        1
330
DE
 75
               0
 76
               1
 98
        1
 10
0.0
 20
0.0
  0
CIRCLE
  5
E0
102
{ACAD_REACTORS
330
E1
102
}
100
AcDbEntity
  8
0
370
              -2
390
0
  6
Continuous
 62
               0
100
AcDbCircle
 10
-894.27262661423038
 20
798.00908093143698
 30
0.0
 40
1.9998779296875
  0
HATCH
  5
E1
100
AcDbEntity
  8
0
370
              -2
390
0
  6
Continuous
 62
               0
100
AcDbHatch
 10
0.0
 20
0.0
 30
0.0
210
0.0
220
0.0
230
1.0
  2
SOLID
 70
               1
 71
               1
 91
        1
 92
        1
 93
        1
 72
               2
 10
-894.27262661423038
 20
798.00908093143698
 40
1.9998779296875
 50
0.0
 51
360.0
 73
               0
 97
        1
330
E0
 75
               0
 76
               1
 98
        1
 10
0.0
 20
0.0
  0
MTEXT
  5
E2
100
AcDbEntity
  8
0
390
0
 62
               0
100
AcDbMText
 10
-928.15024380173031
 20
719.19657924926139
 30
0.0
 40
24.432617187500004
 41
0.0
 71
               1
 72
               1
  1
110
  7
ＭＳ ゴシック
 11
0.0
 21
1.0
 31
0.0
 73
               1
 44
0.7828267384257843
  0
POINT
  5
E3
100
AcDbEntity
  8
Defpoints
370
               0
390
0
 62
               0
100
AcDbPoint
 10
-482.84297920844085
 20
798.00908093143698
 30
0.0
  0
POINT
  5
E4
100
AcDbEntity
  8
Defpoints
370
               0
390
0
 62
               0
100
AcDbPoint
 10
-755.29207502703616
 20
688.00908093143698
 30
0.0
  0
POINT
  5
E5
100
AcDbEntity
  8
Defpoints
370
               0
390
0
 62
               0
100
AcDbPoint
 10
-894.27262661423038
 20
688.00908093143698
 30
0.0
  0
ENDBLK
  5
E6
100
AcDbEntity
  8
notes
390
0
100
AcDbBlockEnd
  0
BLOCK
  5
E7
100
AcDbEntity
  8
notes
390
0
100
AcDbBlockBegin
  2
*D14
 70
               1
 10
0.0
 20
0.0
 30
0.0
  3
*D14
  1

  0
LINE
  5
E8
100
AcDbEntity
  8
0
370
              -2
390
0
  6
Continuous
 62
               0
100
AcDbLine
 10
551.2676074006049
 20
450.0
 30
0.0
 11
608.91479930967421
 21
370.0
 31
0.0
  0
CIRCLE
  5
E9
102
{ACAD_REACTORS
330
EA
102
}
100
AcDbEntity
  8
0
370
              -2
390
0
  6
Continuous
 62
               0
100
AcDbCircle
 10
551.2676074006049
 20
450.0
 30
0.0
 40
1.9998779296875
  0
HATCH
  5
EA
100
AcDbEntity
  8
0
370
              -2
390
0
  6
Continuous
 62
               0
100
AcDbHatch
 10
0.0
 20
0.0
 30
0.0
210
0.0
220
0.0
230
1.0
  2
SOLID
 70
               1
 71
               1
 91
        1
 92
        1
 93
        1
 72
               2
 10
551.2676074006049
 20
450.0
 40
1.9998779296875
 50
0.0
 51
360.0
 73
               0
 97
        1
330
E9
 75
               0
 76
               1
 98
        1
 10
0.0
 20
0.0
  0
LINE
  5
EB
100
AcDbEntity
  8
0
370
              -2
390
0
  6
Continuous
 62
               0
100
AcDbLine
 10
608.91479930967421
 20
370.0
 30
0.0
 11
748.28979930967421
 21
370.0
 31
0.0
  0
MTEXT
  5
EC
100
AcDbEntity
  8
0
390
0
 62
               0
100
AcDbMText
 10
668.91479930967421
 20
403.87761718750005
 30
0.0
 40
24.432617187500004
 41
0.0
 71
               1
 72
               1
  1
φ210
  7
ＭＳ ゴシック
 73
               1
 44
0.7828267384257843
  0
POINT
  5
ED
100
AcDbEntity
  8
Defpoints
370
               0
390
0
 62
               0
100
AcDbPoint
 10
428.49743366654656
 20
620.37454164665894
 30
0.0
  0
POINT
  5
EE
100
AcDbEntity
  8
Defpoints
370
               0
390
0
 62
               0
100
AcDbPoint
 10
551.2676074006049
 20
450.0
 30
0.0
  0
ENDBLK
  5
EF
100
AcDbEntity
  8
notes
390
0
100
AcDbBlockEnd
  0
BLOCK
  5
F0
100
AcDbEntity
  8
notes
390
0
100
AcDbBlockBegin
  2
*D15
 70
               1
 10
0.0
 20
0.0
 30
0.0
  3
*D15
  1

  0
LINE
  5
F1
100
AcDbEntity
  8
0
370
              -2
390
0
  6
Continuous
 62
               0
100
AcDbLine
 10
-434.56933400615571
 20
736.7975102325961
 30
0.0
 11
-396.84297920844085
 21
708.0
 31
0.0
  0
CIRCLE
  5
F2
102
{ACAD_REACTORS
330
F3
102
}
100
AcDbEntity
  8
0
370
              -2
390
0
  6
Continuous
 62
               0
100
AcDbCircle
 10
-434.56933400615571
 20
736.7975102325961
 30
0.0
 40
1.9998779296875
  0
HATCH
  5
F3
100
AcDbEntity
  8
0
370
              -2
390
0
  6
Continuous
 62
               0
100
AcDbHatch
 10
0.0
 20
0.0
 30
0.0
210
0.0
220
0.0
230
1.0
  2
SOLID
 70
               1
 71
               1
 91
        1
 92
        1
 93
        1
 72
               2
 10
-434.56933400615571
 20
736.7975102325961
 40
1.9998779296875
 50
0.0
 51
360.0
 73
               0
 97
        1
330
F2
 75
               0
 76
               1
 98
        1
 10
0.0
 20
0.0
  0
LINE
  5
F4
100
AcDbEntity
  8
0
370
              -2
390
0
  6
Continuous
 62
               0
100
AcDbLine
 10
-396.84297920844085
 20
708.0
 30
0.0
 11
-273.34297920844085
 21
708.0
 31
0.0
  0
MTEXT
  5
F5
100
AcDbEntity
  8
0
390
0
 62
               0
100
AcDbMText
 10
-336.84297920844085
 20
741.87761718749994
 30
0.0
 40
24.432617187500004
 41
0.0
 71
               1
 72
               1
  1
φ37
  7
ＭＳ ゴシック
 73
               1
 44
0.7828267384257843
  0
POINT
  5
F6
100
AcDbEntity
  8
Defpoints
370
               0
390
0
 62
               0
100
AcDbPoint
 10
-463.97591922219431
 20
759.24432342738351
 30
0.0
  0
POINT
  5
F7
100
AcDbEntity
  8
Defpoints
370
               0
390
0
 62
               0
100
AcDbPoint
 10
-434.56933400615571
 20
736.7975102325961
 30
0.0
  0
ENDBLK
  5
F8
100
AcDbEntity
  8
notes
390
0
100
AcDbBlockEnd
  0
BLOCK
  5
F9
100
AcDbEntity
  8
notes
390
0
100
AcDbBlockBegin
  2
*D16
 70
               1
 10
0.0
 20
0.0
 30
0.0
  3
*D16
  1

  0
LINE
  5
FA
100
AcDbEntity
  8
0
370
              -2
390
0
  6
Continuous
 62
               0
100
AcDbLine
 10
489.15702079155938
 20
-300.67242497313265
 30
0.0
 11
509.03202079155938
 21
-300.67242497313265
 31
0.0
  0
LINE
  5
FB
100
AcDbEntity
  8
0
370
              -2
390
0
  6
Continuous
 62
               0
100
AcDbLine
 10
489.15702079155938
 20
-460.67242497313265
 30
0.0
 11
509.03202079155938
 21
-460.67242497313265
 31
0.0
  0
LINE
  5
FC
100
AcDbEntity
  8
0
370
              -2
390
0
  6
Continuous
 62
               0
100
AcDbLine
 10
509.03202079155938
 20
-300.67242497313265
 30
0.0
 11
509.03202079155938
 21
-150.21970269001878
 31
0.0
  0
LINE
  5
FD
100
AcDbEntity
  8
0
370
              -2
390
0
  6
Continuous
 62
               0
100
AcDbLine
 10
509.03202079155938
 20
-300.67242497313265
 30
0.0
 11
509.03202079155938
 21
-460.67242497313265
 31
0.0
  0
CIRCLE
  5
FE
102
{ACAD_REACTORS
330
FF
102
}
100
AcDbEntity
  8
0
370
              -2
390
0
  6
Continuous
 62
               0
100
AcDbCircle
 10
509.03202079155938
 20
-300.67242497313265
 30
0.0
 40
1.9998779296875
  0
HATCH
  5
FF
100
AcDbEntity
  8
0
370
              -2
390
0
  6
Continuous
 62
               0
100
AcDbHatch
 10
0.0
 20
0.0
 30
0.0
210
0.0
220
0.0
230
1.0
  2
SOLID
 70
               1
 71
               1
 91
        1
 92
        1
 93
        1
 72
               2
 10
509.03202079155938
 20
-300.67242497313265
 40
1.9998779296875
 50
0.0
 51
360.0
 73
               0
 97
        1
330
FE
 75
               0
 76
               1
 98
        1
 10
0.0
 20
0.0
  0
CIRCLE
  5
100
102
{ACAD_REACTORS
330
101
102
}
100
AcDbEntity
  8
0
370
              -2
390
0
  6
Continuous
 62
               0
100
AcDbCircle
 10
509.03202079155938
 20
-460.67242497313265
 30
0.0
 40
1.9998779296875
  0
HATCH
  5
101
100
AcDbEntity
  8
0
370
              -2
390
0
  6
Continuous
 62
               0
100
AcDbHatch
 10
0.0
 20
0.0
 30
0.0
210
0.0
220
0.0
230
1.0
  2
SOLID
 70
               1
 71
               1
 91
        1
 92
        1
 93
        1
 72
               2
 10
509.03202079155938
 20
-460.67242497313265
 40
1.9998779296875
 50
0.0
 51
360.0
 73
               0
 97
        1
330
100
 75
               0
 76
               1
 98
        1
 10
0.0
 20
0.0
  0
MTEXT
  5
102
100
AcDbEntity
  8
0
390
0
 62
               0
100
AcDbMText
 10
475.15440360405938
 20
-293.09470269001878
 30
0.0
 40
24.432617187500004
 41
0.0
 71
               1
 72
               1
  1
160(深さ)
  7
ＭＳ ゴシック
 11
0.0
 21
1.0
 31
0.0
 73
               1
 44
0.7828267384257843
  0
POINT
  5
103
100
AcDbEntity
  8
Defpoints
370
               0
390
0
 62
               0
100
AcDbPoint
 10
514.15702079155938
 20
-460.67242497313265
 30
0.0
  0
POINT
  5
104
100
AcDbEntity
  8
Defpoints
370
               0
390
0
 62
               0
100
AcDbPoint
 10
514.15702079155938
 20
-300.67242497313265
 30
0.0
  0
POINT
  5
105
100
AcDbEntity
  8
Defpoints
370
               0
390
0
 62
               0
100
AcDbPoint
 10
509.03202079155938
 20
-300.67242497313265
 30
0.0
  0
ENDBLK
  5
106
100
AcDbEntity
  8
notes
390
0
100
AcDbBlockEnd
  0
ENDSEC
  0
SECTION
  2
ENTITIES
  0
MTEXT
  5
107
100
AcDbEntity
  8
1_10
390
0
 62
               7
100
AcDbMText
 10
-963.0
 20
-1143.4149218749999
 30
0.0
 40
16.288411458333332
 41
0.0
 71
               1
 72
               1
  1
品名
  7
ＭＳ ゴシック
 73
               1
 44
0.7828267384257843
  0
MTEXT
  5
108
100
AcDbEntity
  8
1_10
390
0
 62
               7
100
AcDbMText
 10
-963.0
 20
-1228.4149218749999
 30
0.0
 40
16.288411458333332
 41
0.0
 71
               1
 72
               1
  1
仕様
  7
ＭＳ ゴシック
 73
               1
 44
0.7828267384257843
  0
MTEXT
  5
109
100
AcDbEntity
  8
1_10
390
0
 62
               7
100
AcDbMText
 10
-910.0
 20
-1171.9973828125001
 30
0.0
 40
24.432617187500004
 41
0.0
 71
               1
 72
               1
  1
洗面器  -HATRIA,Sculture-
  7
ＭＳ ゴシック
 73
               1
 44
0.7828267384257843
  0
LINE
  5
10A
100
AcDbEntity
  8
1_10
370
               5
390
0
  6
Continuous
 62
               7
100
AcDbLine
 10
979.99999999951774
 20
-1220.0
 30
0.0
 11
-970.00000000048203
 21
-1220.0
 31
0.0
  0
LWPOLYLINE
  5
10B
100
AcDbEntity
  8
1_10
370
               5
390
0
  6
Continuous
 62
               7
100
AcDbPolyline
 90
        5
 70
             128
 10
980.00000000000023
 20
1410.0
 10
-970.0
 20
1410.0
 10
-970.0
 20
-1390.0
 10
980.00000000000023
 20
-1390.0
 10
980.00000000000023
 20
1410.0
  0
LINE
  5
10C
100
AcDbEntity
  8
1_10
370
               5
390
0
  6
Continuous
 62
               7
100
AcDbLine
 10
979.99999999951774
 20
-1135.0
 30
0.0
 11
-970.00000000048203
 21
-1135.0
 31
0.0
  0
LINE
  5
10D
100
AcDbEntity
  8
1_10
370
               5
390
0
  6
Continuous
 62
               7
100
AcDbLine
 10
980.00000000000023
 20
-1305.0
 30
0.0
 11
227.00000000000057
 21
-1305.0
 31
0.0
  0
MTEXT
  5
10E
100
AcDbEntity
  8
1_10
390
0
 62
               7
100
AcDbMText
 10
-910.0
 20
-1256.9266156702033
 30
0.0
 40
23.830668697325656
 41
0.0
 71
               1
 72
               1
  1
カウンター置き/オーバーフロー付き/壁取付ボルト付属/背面釉薬あり/\P陶器/ホワイト
  7
ＭＳ ゴシック
 73
               1
 44
1.1593117977104697
  0
MTEXT
  5
10F
100
AcDbEntity
  8
1_10
390
0
 62
               7
100
AcDbMText
 10
-969.99999999979718
 20
-1401.853822056856
 30
0.0
 40
21.717881944444446
 41
0.0
 71
               1
 72
               1
  1
120124HS
  7
ＭＳ ゴシック
 73
               1
 44
0.7828267384257843
  0
MTEXT
  5
110
100
AcDbEntity
  8
1_10
390
0
 62
               7
100
AcDbMText
 10
256.8714062522605
 20
-1334.9103944733067
 30
0.0
 40
24.432617187500004
 41
0.0
 71
               1
 72
               1
  1
大洋金物株式会社 ティーフォルム事業部
  7
ＭＳ ゴシック
 73
               1
 44
0.7828267384257843
  0
INSERT
  5
111
100
AcDbEntity
  8
1_10
390
0
 62
               7
100
AcDbBlockReference
  2
グループ
 10
537.41233145295905
 20
336.61804757060526
 30
0.0
  0
MTEXT
  5
112
100
AcDbEntity
  8
1_10
390
0
 62
               7
100
AcDbMText
 10
789.00000000025966
 20
-1256.9973828125001
 30
0.0
 40
24.432617187500004
 41
0.0
 71
               1
 72
               1
  1
1:10
  7
ＭＳ ゴシック
 73
               1
 44
0.7828267384257843
  0
MTEXT
  5
113
100
AcDbEntity
  8
1_10
390
0
 62
               7
100
AcDbMText
 10
736.00000000025966
 20
-1228.4149218749999
 30
0.0
 40
16.288411458333332
 41
0.0
 71
               1
 72
               1
  1
縮尺
  7
ＭＳ ゴシック
 73
               1
 44
0.7828267384257843
  0
LINE
  5
114
100
AcDbEntity
  8
1_10
370
               5
390
0
  6
Continuous
 62
               7
100
AcDbLine
 10
729.00000000025966
 20
-1305.0
 30
0.0
 11
729.00000000025966
 21
-1220.0
 31
0.0
  0
MTEXT
  5
115
100
AcDbEntity
  8
1_10
390
0
 62
               7
100
AcDbMText
 10
485.00000000025989
 20
-1228.4149218749999
 30
0.0
 40
16.288411458333332
 41
0.0
 71
               1
 72
               1
  1
容量
  7
ＭＳ ゴシック
 73
               1
 44
0.7828267384257843
  0
LINE
  5
116
100
AcDbEntity
  8
1_10
370
               5
390
0
  6
Continuous
 62
               7
100
AcDbLine
 10
478.00000000025989
 20
-1305.0
 30
0.0
 11
478.00000000025989
 21
-1220.0
 31
0.0
  0
MTEXT
  5
117
100
AcDbEntity
  8
1_10
390
0
 62
               7
100
AcDbMText
 10
234.00000000025977
 20
-1143.4149218749999
 30
0.0
 40
16.288411458333332
 41
0.0
 71
               1
 72
               1
  1
品番
  7
ＭＳ ゴシック
 73
               1
 44
0.7828267384257843
  0
MTEXT
  5
118
100
AcDbEntity
  8
1_10
390
0
 62
               7
100
AcDbMText
 10
234.00000000025977
 20
-1228.4149218749999
 30
0.0
 40
16.288411458333332
 41
0.0
 71
               1
 72
               1
  1
重量
  7
ＭＳ ゴシック
 73
               1
 44
0.7828267384257843
  0
MTEXT
  5
119
100
AcDbEntity
  8
1_10
390
0
 62
               7
100
AcDbMText
 10
287.00000000025977
 20
-1171.9973828125001
 30
0.0
 40
24.432617187500004
 41
0.0
 71
               1
 72
               1
  1
ABA70-0105
  7
ＭＳ ゴシック
 73
               1
 44
0.7828267384257843
  0
LINE
  5
11A
100
AcDbEntity
  8
1_10
370
               5
390
0
  6
Continuous
 62
               7
100
AcDbLine
 10
227.00000000025977
 20
-1390.0
 30
0.0
 11
227.00000000025977
 21
-1135.0
 31
0.0
  0
MTEXT
  5
11B
100
AcDbEntity
  8
1_10
390
0
 62
               7
100
AcDbMText
 10
288.33097908208356
 20
-1256.9973828125001
 30
0.0
 40
24.432617187500004
 41
0.0
 71
               1
 72
               1
  1
20kg
  7
ＭＳ ゴシック
 73
               1
 44
0.7828267384257843
  0
MTEXT
  5
11C
100
AcDbEntity
  8
1_10
390
0
 62
               7
100
AcDbMText
 10
540.59734852964039
 20
-1256.9973828125001
 30
0.0
 40
24.432617187500004
 41
0.0
 71
               1
 72
               1
  1
15L
  7
ＭＳ ゴシック
 73
               1
 44
0.7828267384257843
  0
DIMENSION
  5
11D
100
AcDbEntity
  8
notes
370
               5
390
0
  6
Continuous
 62
               7
100
AcDbDimension
  2
*D3
 10
-794.27262661423038
 20
898.00908093143698
 30
0.0
 11
-449.27262661423083
 21
898.00908093143698
 31
0.0
 71
               5
 72
               1
 41
1.0
 42
0.0
  3
tfrom線あり
100
AcDbAlignedDimension
 13
-104.27262661423117
 23
535.50908093143698
 33
0.0
 14
-794.27262661423038
 24
535.50908093143698
 34
0.0
100
AcDbRotatedDimension
1001
ACAD
1000
DSTYLE
1002
{
1070
             279
1070
               2
1070
             340
1005
32
1070
             147
1040
5.0
1002
}
  0
DIMENSION
  5
11E
100
AcDbEntity
  8
notes
370
               5
390
0
  6
Continuous
 62
               7
100
AcDbDimension
  2
*D4
 10
-4.2726266142311715
 20
798.00908093143698
 30
0.0
 11
-4.2726266142311715
 21
535.51400453775841
 31
0.0
 71
               5
 72
               1
 41
1.0
 42
0.0
  3
tfrom線あり
100
AcDbAlignedDimension
 13
-409.08031473623294
 23
273.01892814407972
 33
0.0
 14
-406.09202967190265
 24
798.00908093143698
 34
0.0
 50
90.0
100
AcDbRotatedDimension
1001
ACAD
1000
DSTYLE
1002
{
1070
             279
1070
               2
1070
             340
1005
32
1070
             147
1040
5.0
1002
}
  0
DIMENSION
  5
11F
100
AcDbEntity
  8
notes
370
               5
390
0
  6
Continuous
 62
               7
100
AcDbDimension
  2
*D5
 10
45.727373385768828
 20
-300.57242497313263
 30
0.0
 11
45.727373385768828
 21
-403.07254760302573
 31
0.0
 71
               5
 72
               1
 41
1.0
 42
0.0
  3
tfrom線あり
100
AcDbAlignedDimension
 13
-420.67390513753833
 23
-505.57267023291894
 33
0.0
 14
-106.8788036612267
 24
-300.57242497313263
 34
0.0
 50
90.0
100
AcDbRotatedDimension
1001
ACAD
1000
DSTYLE
1002
{
1070
             279
1070
               2
1070
             340
1005
32
1070
             147
1040
5.0
1002
}
  0
DIMENSION
  5
120
100
AcDbEntity
  8
notes
370
               5
390
0
  6
Continuous
 62
               7
100
AcDbDimension
  2
*D6
 10
-4.2726266142311715
 20
-465.60196246328115
 30
0.0
 11
-4.2726266142311715
 21
-383.08719371820695
 31
0.0
 71
               5
 72
               1
 41
1.0
 42
0.0
  3
tfrom線あり
100
AcDbAlignedDimension
 13
-105.51412205623103
 23
-300.57242497313263
 33
0.0
 14
-285.45362951767572
 24
-465.60196246328115
 34
0.0
 50
90.0
100
AcDbRotatedDimension
1001
ACAD
1000
DSTYLE
1002
{
1070
             279
1070
               2
1070
             340
1005
32
1070
             147
1040
5.0
1002
}
  0
DIMENSION
  5
121
100
AcDbEntity
  8
notes
370
               5
390
0
  6
Continuous
 62
               7
100
AcDbDimension
  2
*D7
 10
-894.27262661423038
 20
688.00908093143698
 30
0.0
 11
-894.27262661423038
 21
503.00908093143693
 31
0.0
 71
               5
 72
               1
 41
1.0
 42
0.0
  3
tfrom線あり
100
AcDbAlignedDimension
 13
-653.37362072174164
 23
318.00908093143693
 33
0.0
 14
-730.29207502703616
 24
688.00908093143698
 34
0.0
 50
90.0
100
AcDbRotatedDimension
1001
ACAD
1000
DSTYLE
1002
{
1070
             279
1070
               2
1070
             340
1005
32
1070
             147
1040
5.0
1002
}
  0
DIMENSION
  5
122
100
AcDbEntity
  8
notes
370
               5
390
0
  6
Continuous
 62
               7
100
AcDbDimension
  2
*D8
 10
-744.1123753416839
 20
173.00908093143698
 30
0.0
 11
-449.11237534168436
 21
173.00908093143698
 31
0.0
 71
               5
 72
               1
 41
1.0
 42
0.0
  3
tfrom線あり
100
AcDbAlignedDimension
 13
-154.1123753416847
 23
400.17451278935482
 33
0.0
 14
-744.1123753416839
 24
400.90900156728401
 34
0.0
100
AcDbRotatedDimension
1001
ACAD
1000
DSTYLE
1002
{
1070
             279
1070
               2
1070
             340
1005
32
1070
             147
1040
5.0
1002
}
  0
DIMENSION
  5
123
100
AcDbEntity
  8
notes
370
               5
390
0
  6
Continuous
 62
               7
100
AcDbDimension
  2
*D9
 10
714.33909999190132
 20
-226.37930397137671
 30
0.0
 11
739.33909999190132
 21
-226.37930397137671
 31
0.0
 71
               5
 72
               1
 41
1.0
 42
0.0
  3
tfrom線あり
100
AcDbAlignedDimension
 13
764.33909999190121
 23
-306.2212104125428
 33
0.0
 14
714.33909999190132
 24
-300.67242497313265
 34
0.0
100
AcDbRotatedDimension
1001
ACAD
1000
DSTYLE
1002
{
1070
             279
1070
               2
1070
             340
1005
32
1070
             147
1040
5.0
1002
}
  0
DIMENSION
  5
124
100
AcDbEntity
  8
notes
370
               5
390
0
  6
Continuous
 62
               7
100
AcDbDimension
  2
*D10
 10
504.56181732610287
 20
-670.01187278869133
 30
0.0
 11
634.56181732610287
 21
-665.01187278869133
 31
0.0
 70
             128
 71
               5
 72
               1
 41
1.0
 42
0.0
  3
tfrom線あり
100
AcDbAlignedDimension
 13
764.56181732610287
 23
-335.01187278869139
 33
0.0
 14
504.56181732610287
 24
-505.29801582715783
 34
0.0
100
AcDbRotatedDimension
1001
ACAD
1000
DSTYLE
1002
{
1070
             279
1070
               2
1070
             340
1005
32
1070
             147
1040
5.0
1002
}
  0
DIMENSION
  5
125
100
AcDbEntity
  8
notes
370
               5
390
0
  6
Continuous
 62
               7
100
AcDbDimension
  2
*D11
 10
364.56181732610287
 20
-620.01187278869133
 30
0.0
 11
504.56181732610287
 21
-620.01187278869133
 31
0.0
 71
               5
 72
               1
 41
1.0
 42
0.0
  3
tfrom線あり
100
AcDbAlignedDimension
 13
644.56181732610287
 23
-465.67242497313265
 33
0.0
 14
364.56181732610287
 24
-465.67242497313265
 34
0.0
100
AcDbRotatedDimension
1001
ACAD
1000
DSTYLE
1002
{
1070
             279
1070
               2
1070
             340
1005
32
1070
             147
1040
5.0
1002
}
  0
DIMENSION
  5
126
100
AcDbEntity
  8
notes
370
               5
390
0
  6
Continuous
 62
               7
100
AcDbDimension
  2
*D12
 10
-285.67416238732324
 20
-620.01187278869133
 30
0.0
 11
-442.84297920844051
 21
-615.01187278869133
 31
0.0
 70
             128
 71
               5
 72
               1
 41
1.0
 42
0.0
  3
tfrom線あり
100
AcDbAlignedDimension
 13
-620.67416238732244
 23
-465.60196246328115
 33
0.0
 14
-285.67416238732324
 24
-465.60196246328115
 34
0.0
100
AcDbRotatedDimension
1001
ACAD
1000
DSTYLE
1002
{
1070
             279
1070
               2
1070
             340
1005
32
1070
             147
1040
5.0
1002
}
  0
DIMENSION
  5
127
100
AcDbEntity
  8
notes
370
               5
390
0
  6
Continuous
 62
               7
100
AcDbDimension
  2
*D13
 10
-894.27262661423038
 20
688.00908093143698
 30
0.0
 11
-894.27262661423038
 21
743.00908093143698
 31
0.0
 71
               5
 72
               1
 41
1.0
 42
0.0
  3
tfrom線あり
100
AcDbAlignedDimension
 13
-482.84297920844085
 23
798.00908093143698
 33
0.0
 14
-755.29207502703616
 24
688.00908093143698
 34
0.0
 50
90.0
100
AcDbRotatedDimension
1001
ACAD
1000
DSTYLE
1002
{
1070
             279
1070
               2
1070
             340
1005
32
1070
             147
1040
5.0
1002
}
  0
DIMENSION
  5
128
100
AcDbEntity
  8
notes
370
               5
390
0
  6
Continuous
 62
               7
100
AcDbDimension
  2
*D14
 10
428.49743366654656
 20
620.37454164665894
 30
0.0
 11
668.91479930967432
 21
370.0
 31
0.0
 70
               3
 71
               5
 72
               1
 41
1.0
 42
0.0
  3
tfrom線あり
100
AcDbDiametricDimension
 15
551.2676074006049
 25
450.0
 35
0.0
 40
98.606281417570287
1001
ACAD
1000
DSTYLE
1002
{
1070
             289
1070
               0
1070
             342
1005
42
1070
             340
1005
32
1070
              73
1070
               1
1070
              74
1070
               1
1070
              75
1070
               1
1070
              76
1070
               1
1070
               3
1000

1070
             174
1070
               0
1070
             147
1040
5.0
1002
}
  0
DIMENSION
  5
129
100
AcDbEntity
  8
notes
370
               5
390
0
  6
Continuous
 62
               7
100
AcDbDimension
  2
*D15
 10
-463.97591922219431
 20
759.24432342738351
 30
0.0
 11
-336.84297920844085
 21
708.0
 31
0.0
 70
               3
 71
               5
 72
               1
 41
1.0
 42
0.0
  3
tfrom線あり
100
AcDbDiametricDimension
 15
-434.56933400615571
 25
736.7975102325961
 35
0.0
 40
47.461294145013966
1001
ACAD
1000
DSTYLE
1002
{
1070
             289
1070
               0
1070
             342
1005
42
1070
             340
1005
32
1070
              73
1070
               1
1070
              74
1070
               1
1070
              75
1070
               1
1070
              76
1070
               1
1070
               3
1000

1070
             174
1070
               0
1070
             147
1040
5.0
1002
}
  0
DIMENSION
  5
12A
100
AcDbEntity
  8
notes
370
               5
390
0
  6
Continuous
 62
               7
100
AcDbDimension
  2
*D16
 10
509.03202079155938
 20
-300.67242497313265
 30
0.0
 11
504.03202079155938
 21
-293.09470269001878
 31
0.0
 70
             128
 71
               5
 72
               1
 41
1.0
 42
0.0
  3
tfrom線あり
100
AcDbAlignedDimension
 13
514.15702079155938
 23
-460.67242497313265
 33
0.0
 14
514.15702079155938
 24
-300.67242497313265
 34
0.0
 50
90.0
100
AcDbRotatedDimension
1001
ACAD
1000
DSTYLE
1002
{
1070
             279
1070
               2
1070
             340
1005
32
1070
               3
1000
<>(深さ)
1070
             174
1070
               0
1070
             147
1040
5.0
1002
}
  0
LINE
  5
12B
100
AcDbEntity
  8
ABA70-0105
370
              15
390
0
  6
Continuous
 62
               7
100
AcDbLine
 10
-155.057481036284
 20
-378.73431498224664
 30
0.0
 11
-279.71100144373975
 21
-450.47454036118717
 31
0.0
  0
LWPOLYLINE
  5
12C
100
AcDbEntity
  8
ABA70-0105
370
               5
390
0
  6
STYLE_11
 62
               7
100
AcDbPolyline
 90
        2
 70
             128
 10
-152.34880366122059
 20
-304.51129499057453
 42
-0.2038557796027253
 10
-219.34915577018444
 20
-373.14111600010648
 42
-0.2038557796027253
  0
LWPOLYLINE
  5
12D
100
AcDbEntity
  8
ABA70-0105
370
               9
390
0
  6
Continuous
 62
               7
100
AcDbPolyline
 90
        4
 70
             128
 10
-796.1892662858279
 20
-306.12121041254312
 10
-796.17916000861555
 20
-306.21285891291444
 42
0.2677110844517109
 10
-742.98042758053793
 20
-378.7209976107751
 10
-742.95017331681606
 20
-378.73431498224664
  0
LINE
  5
12E
100
AcDbEntity
  8
ABA70-0105
370
              15
390
0
  6
Continuous
 62
               7
100
AcDbLine
 10
-620.67416238732244
 20
-465.60196246328115
 30
0.0
 11
-285.67416238732324
 21
-465.60196246328115
 31
0.0
  0
LWPOLYLINE
  5
12F
100
AcDbEntity
  8
ABA70-0105
370
               9
390
0
  6
Continuous
 62
               7
100
AcDbPolyline
 90
        2
 70
             128
 10
-620.67974687532137
 20
-459.62912285886335
 42
0.2974996297858768
 10
-626.65561724355666
 20
-450.47454036118853
 42
0.2974996297858768
  0
LINE
  5
130
100
AcDbEntity
  8
ABA70-0105
370
               9
390
0
  6
Continuous
 62
               7
100
AcDbLine
 10
-620.67416238732244
 20
-465.60196246328115
 30
0.0
 11
-620.67416238732244
 21
-459.62912285886733
 31
0.0
  0
LINE
  5
131
100
AcDbEntity
  8
ABA70-0105
370
               9
390
0
  6
Continuous
 62
               7
100
AcDbLine
 10
-742.95017331680879
 20
-378.73431498224664
 30
0.0
 11
-626.65561724355598
 21
-450.47454036118899
 31
0.0
  0
LWPOLYLINE
  5
132
100
AcDbEntity
  8
ABA70-0105
370
               5
390
0
  6
STYLE_11
 62
               7
100
AcDbPolyline
 90
        2
 70
             128
 10
-393.75867311129502
 20
-443.33286400647393
 42
-0.1975880214926883
 10
-357.0417579610945
 20
-416.74001133500434
 42
-0.1975880214926883
  0
LINE
  5
133
100
AcDbEntity
  8
ABA70-0105
370
              15
390
0
  6
Continuous
 62
               7
100
AcDbLine
 10
-285.67416238732324
 20
-465.60196246328115
 30
0.0
 11
-285.67416238732324
 21
-459.62912285886733
 31
0.0
  0
ARC
  5
134
100
AcDbEntity
  8
ABA70-0105
370
              15
390
0
  6
Continuous
 62
               7
100
AcDbCircle
 10
-275.68687181198118
 20
-459.62912285886551
 30
0.0
 40
9.9999999999998046
100
AcDbArc
 50
113.7291113760229
 51
180.0
  0
LINE
  5
135
100
AcDbEntity
  8
ABA70-0105
370
               5
390
0
  6
STYLE_11
 62
               7
100
AcDbLine
 10
-224.68334625966224
 20
-375.24866442460035
 30
0.0
 11
-357.04175796109064
 21
-416.74001133500343
 31
0.0
  0
LINE
  5
136
100
AcDbEntity
  8
ABA70-0105
370
               9
390
0
  6
Continuous
 62
               7
100
AcDbLine
 10
-791.21947408277788
 20
-300.57242497313263
 30
0.0
 11
-107.34880366122059
 21
-300.57242497313263
 31
0.0
  0
LWPOLYLINE
  5
137
100
AcDbEntity
  8
ABA70-0105
370
               9
390
0
  6
Continuous
 62
               7
100
AcDbPolyline
 90
        2
 70
             128
 10
-791.21947408277788
 20
-300.57242497313263
 42
0.4468049508494107
 10
-796.1892662858279
 20
-306.12121041254312
 42
0.4468049508494107
  0
ARC
  5
138
100
AcDbEntity
  8
ABA70-0105
370
              15
390
0
  6
Continuous
 62
               7
100
AcDbCircle
 10
-191.36527111306611
 20
-296.34307250316152
 30
0.0
 40
90.000000000000085
100
AcDbArc
 50
293.72911137602273
 51
353.69868705537459
  0
ARC
  5
139
100
AcDbEntity
  8
ABA70-0105
370
              15
390
0
  6
Continuous
 62
               7
100
AcDbCircle
 10
-106.8788036612267
 20
-305.57242497313263
 30
0.0
 40
5.0000000000000693
100
AcDbArc
 50
353.69868705537823
 51
90.0
  0
LWPOLYLINE
  5
13A
100
AcDbEntity
  8
ABA70-0105
370
               5
390
0
  6
STYLE_11
 62
               7
100
AcDbPolyline
 90
        2
 70
             128
 10
-152.34880366122047
 20
-304.41129499057439
 42
-0.3326869500294594
 10
-147.40450398492919
 20
-300.57242497313263
 42
-0.3326869500294594
  0
LINE
  5
13B
100
AcDbEntity
  8
ABA70-0105
370
              15
390
0
  6
Continuous
 62
               7
100
AcDbLine
 10
-106.8788036612267
 20
-300.57242497313263
 30
0.0
 11
-146.93450398493121
 21
-300.57242497313263
 31
0.0
  0
CIRCLE
  5
13C
100
AcDbEntity
  8
ABA70-0105
370
              15
390
0
  6
Continuous
 62
               7
100
AcDbCircle
 10
-449.27262661417501
 20
748.0209168299898
 30
0.0
 40
18.497342219020084
  0
CIRCLE
  5
13D
100
AcDbEntity
  8
ABA70-0105
370
              15
390
0
  6
Continuous
 62
               7
100
AcDbCircle
 10
-450.11747946642447
 20
535.18727082332953
 30
0.0
 40
22.5
  0
CIRCLE
  5
13E
100
AcDbEntity
  8
ABA70-0105
370
              15
390
0
  6
Continuous
 62
               7
100
AcDbCircle
 10
-450.11747946642447
 20
535.18727082332953
 30
0.0
 40
52.83967500000017
  0
LINE
  5
13F
100
AcDbEntity
  8
ABA70-0105
370
               5
390
0
  6
Continuous
 62
               7
100
AcDbLine
 10
-420.67390414957993
 20
-505.57242497313263
 30
0.0
 11
-420.67404799533813
 21
-465.63719371820872
 31
0.0
  0
LINE
  5
140
100
AcDbEntity
  8
ABA70-0105
370
               5
390
0
  6
Continuous
 62
               7
100
AcDbLine
 10
-485.67438548414179
 20
-505.57242497313263
 30
0.0
 11
-485.6742767793088
 21
-465.63719371820872
 31
0.0
  0
LINE
  5
141
100
AcDbEntity
  8
ABA70-0105
370
               5
390
0
  6
Continuous
 62
               7
100
AcDbLine
 10
-420.67390513753833
 20
-505.57267023291894
 30
0.0
 11
-485.67438473654818
 21
-505.57241654181922
 31
0.0
  0
LWPOLYLINE
  5
142
100
AcDbEntity
  8
ABA70-0105
370
               5
390
0
  6
STYLE_11
 62
               7
100
AcDbPolyline
 90
        2
 70
             128
 10
-429.54029356557419
 20
-465.63719371820872
 42
-0.477045887900892
 10
-427.3337291528909
 20
-458.18482026582416
 42
-0.477045887900892
  0
ARC
  5
143
100
AcDbEntity
  8
ABA70-0105
370
              15
390
0
  6
STYLE_11
 62
               7
100
AcDbCircle
 10
-480.42538339889813
 20
-462.80421792838052
 30
0.0
 40
5.0000000000001252
100
AcDbArc
 50
325.48686459504307
 51
67.500000000158323
  0
LINE
  5
144
100
AcDbEntity
  8
ABA70-0105
370
              15
390
0
  6
STYLE_11
 62
               7
100
AcDbLine
 10
-427.33372915289817
 20
-458.18482026582234
 30
0.0
 11
-478.51196623692283
 21
-458.18482026577686
 31
0.0
  0
LINE
  5
145
100
AcDbEntity
  8
ABA70-0105
370
              15
390
0
  6
STYLE_11
 62
               7
100
AcDbLine
 10
-478.51196623694648
 20
-458.18482026582234
 30
0.0
 11
-427.33372915292182
 21
-458.18482026577686
 31
0.0
  0
LINE
  5
146
100
AcDbEntity
  8
ABA70-0105
370
              15
390
0
  6
STYLE_11
 62
               7
100
AcDbLine
 10
-478.51196623707744
 20
-458.18482026582234
 30
0.0
 11
-509.81342452565764
 21
-445.21933172064047
 31
0.0
  0
LINE
  5
147
100
AcDbEntity
  8
ABA70-0105
370
              15
390
0
  6
STYLE_11
 62
               7
100
AcDbLine
 10
-427.33372915276721
 20
-458.18482026582234
 30
0.0
 11
-396.03227086418644
 21
-445.21933172064047
 31
0.0
  0
LINE
  5
148
100
AcDbEntity
  8
ABA70-0105
370
               5
390
0
  6
STYLE_11
 62
               7
100
AcDbLine
 10
-427.33372915277448
 20
-458.18482026582234
 30
0.0
 11
-396.03227086419372
 21
-445.21933172064047
 31
0.0
  0
LINE
  5
149
100
AcDbEntity
  8
ABA70-0105
370
               5
390
0
  6
STYLE_11
 62
               7
100
AcDbLine
 10
-427.33372915289817
 20
-458.18482026582234
 30
0.0
 11
-396.03227086431741
 21
-445.21933172064047
 31
0.0
  0
LINE
  5
14A
100
AcDbEntity
  8
ABA70-0105
370
              15
390
0
  6
STYLE_11
 62
               7
100
AcDbLine
 10
-512.08702227867866
 20
-443.33286400652315
 30
0.0
 11
-393.75867311129639
 21
-443.33286400647586
 31
0.0
  0
LWPOLYLINE
  5
14B
100
AcDbEntity
  8
ABA70-0105
370
               5
390
0
  6
STYLE_11
 62
               7
100
AcDbPolyline
 90
        2
 70
             128
 10
-393.75867311130412
 20
-443.33286400647665
 42
-0.1510880040115266
 10
-396.03227086431957
 20
-445.21933172063626
 42
-0.1510880040115266
  0
ARC
  5
14C
100
AcDbEntity
  8
ABA70-0105
370
              15
390
0
  6
STYLE_11
 62
               7
100
AcDbCircle
 10
-507.90000736382967
 20
-440.59993405808228
 30
0.0
 40
4.9999999999998614
100
AcDbArc
 50
213.13311138394732
 51
247.49999999992897
  0
LWPOLYLINE
  5
14D
100
AcDbEntity
  8
ABA70-0105
370
               5
390
0
  6
STYLE_11
 62
               7
100
AcDbPolyline
 90
        2
 70
             128
 10
-512.08702227867116
 20
-443.33286400647631
 42
0.1510880040115246
 10
-509.81342452565559
 20
-445.21933172063626
 42
0.1510880040115246
  0
LINE
  5
14E
100
AcDbEntity
  8
ABA70-0105
370
              15
390
0
  6
STYLE_11
 62
               7
100
AcDbLine
 10
-485.6742767793088
 20
-465.63719371820872
 30
0.0
 11
-420.67404799533813
 21
-465.63719371820872
 31
0.0
  0
LWPOLYLINE
  5
14F
100
AcDbEntity
  8
ABA70-0105
370
               5
390
0
  6
STYLE_11
 62
               7
100
AcDbPolyline
 90
        2
 70
             128
 10
-741.15622130720089
 20
-304.51129499057453
 42
0.2228508330690377
 10
-686.49653961978993
 20
-373.14111600010648
 42
0.2228508330690377
  0
LWPOLYLINE
  5
150
100
AcDbEntity
  8
ABA70-0105
370
               5
390
0
  6
STYLE_11
 62
               7
100
AcDbPolyline
 90
        2
 70
             128
 10
-512.08702227867957
 20
-443.33286400647438
 42
0.1975880214926924
 10
-548.80393742888032
 20
-416.74001133500434
 42
0.1975880214926924
  0
LINE
  5
151
100
AcDbEntity
  8
ABA70-0105
370
               5
390
0
  6
STYLE_11
 62
               7
100
AcDbLine
 10
-680.27128306394638
 20
-375.60072625816275
 30
0.0
 11
-548.80393742888418
 21
-416.74001133500343
 31
0.0
  0
LWPOLYLINE
  5
152
100
AcDbEntity
  8
ABA70-0105
370
               5
390
0
  6
STYLE_11
 62
               7
100
AcDbPolyline
 90
        2
 70
             128
 10
-741.15622130720112
 20
-304.41129499057394
 42
0.3326869500294707
 10
-746.10052098349229
 20
-300.57242497313263
 42
0.3326869500294707
  0
LWPOLYLINE
  5
153
100
AcDbEntity
  8
ABA70-0105
370
               5
390
0
  6
STYLE_01
 62
               7
100
AcDbPolyline
 90
        2
 70
             128
 10
294.83959919130058
 20
-300.67242497313345
 42
0.2650626658697236
 10
407.93202483426057
 20
-416.7400113350032
 42
0.2650626658697236
  0
LINE
  5
154
100
AcDbEntity
  8
ABA70-0105
370
               9
390
0
  6
Continuous
 62
               7
100
AcDbLine
 10
270.85038737663143
 20
-364.17354993601685
 30
0.0
 11
356.48851632377239
 21
-451.13294941994565
 31
0.0
  0
LWPOLYLINE
  5
155
100
AcDbEntity
  8
ABA70-0105
370
               9
390
0
  6
Continuous
 62
               7
100
AcDbPolyline
 90
        2
 70
             128
 10
245.51648818036875
 20
-300.67242497313265
 42
0.4468049508494175
 10
240.54669597731873
 20
-306.22121041254314
 42
0.4468049508494175
  0
LWPOLYLINE
  5
156
100
AcDbEntity
  8
ABA70-0105
370
               9
390
0
  6
Continuous
 62
               7
100
AcDbPolyline
 90
        2
 70
             128
 10
240.54669597731873
 20
-306.22121041254314
 42
0.1880851149303583
 10
270.85038737663143
 20
-364.17354993601685
 42
0.1880851149303583
  0
LINE
  5
157
100
AcDbEntity
  8
ABA70-0105
370
               9
390
0
  6
Continuous
 62
               7
100
AcDbLine
 10
364.56181732610287
 20
-465.67242497313265
 30
0.0
 11
364.56181732610287
 21
-459.62912285886733
 31
0.0
  0
LINE
  5
158
100
AcDbEntity
  8
ABA70-0105
370
              15
390
0
  6
Continuous
 62
               7
100
AcDbLine
 10
471.06168548383732
 20
-465.63719371820872
 30
0.0
 11
536.06191426780799
 21
-465.63719371820872
 31
0.0
  0
LWPOLYLINE
  5
159
100
AcDbEntity
  8
ABA70-0105
370
               5
390
0
  6
Continuous
 62
               7
100
AcDbPolyline
 90
        2
 70
             128
 10
444.64893998447417
 20
-443.33286400647586
 42
0.1510880040117993
 10
446.92253773749155
 20
-445.21933172063683
 42
0.1510880040117993
  0
ARC
  5
15A
100
AcDbEntity
  8
ABA70-0105
370
              15
390
0
  6
Continuous
 62
               7
100
AcDbCircle
 10
448.8359548993177
 20
-440.59993405808274
 30
0.0
 40
5.000000000000445
100
AcDbArc
 50
213.133111383943
 51
247.49999999992457
  0
LWPOLYLINE
  5
15B
100
AcDbEntity
  8
ABA70-0105
370
               5
390
0
  6
Continuous
 62
               7
100
AcDbPolyline
 90
        2
 70
             128
 10
562.97728915184246
 20
-443.33286400647586
 42
-0.1510880040117062
 10
560.70369139882507
 20
-445.21933172063683
 42
-0.1510880040117062
  0
LINE
  5
15C
100
AcDbEntity
  8
ABA70-0105
370
              15
390
0
  6
STYLE_01
 62
               7
100
AcDbLine
 10
444.64893998446689
 20
-443.33286400652315
 30
0.0
 11
562.97728915184973
 21
-443.33286400647586
 31
0.0
  0
LINE
  5
15D
100
AcDbEntity
  8
ABA70-0105
370
               5
390
0
  6
STYLE_01
 62
               7
100
AcDbLine
 10
529.40223311024795
 20
-458.18482026582234
 30
0.0
 11
560.70369139882871
 21
-445.21933172064047
 31
0.0
  0
LINE
  5
15E
100
AcDbEntity
  8
ABA70-0105
370
               5
390
0
  6
STYLE_01
 62
               7
100
AcDbLine
 10
529.40223311037164
 20
-458.18482026582234
 30
0.0
 11
560.7036913989524
 21
-445.21933172064047
 31
0.0
  0
LINE
  5
15F
100
AcDbEntity
  8
ABA70-0105
370
              15
390
0
  6
STYLE_01
 62
               7
100
AcDbLine
 10
529.40223311037892
 20
-458.18482026582234
 30
0.0
 11
560.70369139895968
 21
-445.21933172064047
 31
0.0
  0
LINE
  5
160
100
AcDbEntity
  8
ABA70-0105
370
              15
390
0
  6
STYLE_01
 62
               7
100
AcDbLine
 10
478.22399602606868
 20
-458.18482026582234
 30
0.0
 11
446.92253773748791
 21
-445.21933172064047
 31
0.0
  0
LINE
  5
161
100
AcDbEntity
  8
ABA70-0105
370
              15
390
0
  6
STYLE_01
 62
               7
100
AcDbLine
 10
478.22399602619964
 20
-458.18482026582234
 30
0.0
 11
529.4022331102243
 21
-458.18482026577686
 31
0.0
  0
LINE
  5
162
100
AcDbEntity
  8
ABA70-0105
370
              15
390
0
  6
STYLE_01
 62
               7
100
AcDbLine
 10
529.40223311024795
 20
-458.18482026582234
 30
0.0
 11
478.22399602622329
 21
-458.18482026577686
 31
0.0
  0
ARC
  5
163
100
AcDbEntity
  8
ABA70-0105
370
              15
390
0
  6
STYLE_01
 62
               7
100
AcDbCircle
 10
476.31057886424981
 20
-462.80421792838098
 30
0.0
 40
5.0000000000002363
100
AcDbArc
 50
325.48686459505024
 51
67.50000000015109
  0
LWPOLYLINE
  5
164
100
AcDbEntity
  8
ABA70-0105
370
               5
390
0
  6
STYLE_01
 62
               7
100
AcDbPolyline
 90
        2
 70
             128
 10
527.19566869757136
 20
-465.63719371820793
 42
-0.4770458879009437
 10
529.402233110255
 20
-458.18482026582416
 42
-0.4770458879009437
  0
LINE
  5
165
100
AcDbEntity
  8
ABA70-0105
370
               5
390
0
  6
Continuous
 62
               7
100
AcDbLine
 10
537.06205712560779
 20
-505.29814267270768
 30
0.0
 11
472.06157752659794
 21
-505.29788898160797
 31
0.0
  0
LINE
  5
166
100
AcDbEntity
  8
ABA70-0105
370
               5
390
0
  6
Continuous
 62
               7
100
AcDbLine
 10
472.06157752560841
 20
-505.29814267270768
 30
0.0
 11
472.06168548383732
 21
-465.63719371820872
 31
0.0
  0
LINE
  5
167
100
AcDbEntity
  8
ABA70-0105
370
               5
390
0
  6
Continuous
 62
               7
100
AcDbLine
 10
537.06205712560779
 20
-505.29814267270768
 30
0.0
 11
537.06191426780799
 21
-465.63719371820872
 31
0.0
  0
LINE
  5
168
100
AcDbEntity
  8
ABA70-0105
370
               9
390
0
  6
Continuous
 62
               7
100
AcDbLine
 10
644.56181732610287
 20
-465.67242497313265
 30
0.0
 11
644.56181732610287
 21
-459.62912285886733
 31
0.0
  0
LINE
  5
169
100
AcDbEntity
  8
ABA70-0105
370
               9
390
0
  6
Continuous
 62
               7
100
AcDbLine
 10
644.56181732610287
 20
-465.67242497313265
 30
0.0
 11
364.56181732610287
 21
-465.67242497313265
 31
0.0
  0
LINE
  5
16A
100
AcDbEntity
  8
ABA70-0105
370
               9
390
0
  6
Continuous
 62
               7
100
AcDbLine
 10
734.0354085925884
 20
-363.51514087726019
 30
0.0
 11
648.39727964544556
 21
-450.47454036118899
 31
0.0
  0
LWPOLYLINE
  5
16B
100
AcDbEntity
  8
ABA70-0105
370
               9
390
0
  6
Continuous
 62
               7
100
AcDbPolyline
 90
        2
 70
             128
 10
764.33909999190121
 20
-306.22121041254314
 42
-0.1897761629920836
 10
734.0354085925884
 20
-363.51514087726019
 42
-0.1897761629920836
  0
LWPOLYLINE
  5
16C
100
AcDbEntity
  8
ABA70-0105
370
               9
390
0
  6
Continuous
 62
               7
100
AcDbPolyline
 90
        2
 70
             128
 10
759.36930778885119
 20
-300.67242497313265
 42
-0.4468049508494175
 10
764.33909999190121
 20
-306.22121041254314
 42
-0.4468049508494175
  0
LWPOLYLINE
  5
16D
100
AcDbEntity
  8
ABA70-0105
370
               9
390
0
  6
Continuous
 62
               7
100
AcDbPolyline
 90
        4
 70
             128
 10
364.56181732610287
 20
-459.62912285886733
 10
363.31364373797464
 20
-457.81877408272902
 42
0.0622424517576605
 10
360.41569496005286
 20
-454.56712539735719
 10
356.48851632377239
 20
-451.13294941994565
  0
LWPOLYLINE
  5
16E
100
AcDbEntity
  8
ABA70-0105
370
               9
390
0
  6
Continuous
 62
               7
100
AcDbPolyline
 90
        3
 70
             128
 10
648.39727964545284
 20
-450.47454036118717
 42
0.1596931274983819
 10
644.71468349146062
 20
-458.3622836473732
 10
644.56181732610287
 20
-459.62912285886733
  0
LINE
  5
16F
100
AcDbEntity
  8
ABA70-0105
370
               9
390
0
  6
Continuous
 62
               7
100
AcDbLine
 10
245.51648818036875
 20
-300.67242497313265
 30
0.0
 11
759.36930778885119
 21
-300.67242497313265
 31
0.0
  0
LWPOLYLINE
  5
170
100
AcDbEntity
  8
ABA70-0105
370
               5
390
0
  6
STYLE_01
 62
               7
100
AcDbPolyline
 90
        2
 70
             128
 10
444.64893998446689
 20
-443.33286400647586
 42
0.1975880214927052
 10
407.93202483426114
 20
-416.74001133500343
 42
0.1975880214927052
  0
LWPOLYLINE
  5
171
100
AcDbEntity
  8
ABA70-0105
370
               5
390
0
  6
STYLE_01
 62
               7
100
AcDbPolyline
 90
        2
 70
             128
 10
631.32708329373247
 20
-300.67242497313117
 42
-0.2209577206519108
 10
562.97728915184894
 20
-443.33286400647665
 42
-0.2209577206519108
  0
LINE
  5
172
100
AcDbEntity
  8
ABA70-0105
370
              15
390
0
  6
STYLE_01
 62
               7
100
AcDbLine
 10
733.065816630011
 20
-300.67242497313265
 30
0.0
 11
733.065816630011
 21
-316.58810694266077
 31
0.0
  0
LINE
  5
173
100
AcDbEntity
  8
ABA70-0105
370
              15
390
0
  6
STYLE_01
 62
               7
100
AcDbLine
 10
696.4858779437692
 20
-300.67242497313265
 30
0.0
 11
696.4858779437692
 21
-316.58810694266077
 31
0.0
  0
SPLINE
  5
174
100
AcDbEntity
  8
ABA70-0105
370
               5
390
0
  6
Continuous
 62
               7
100
AcDbSpline
210
0.0
220
0.0
230
1.0
 70
               9
 71
               2
 72
              17
 73
              14
 74
               0
 42
0.000001
 43
0.000001
 40
0.0
 40
0.0
 40
0.0
 40
1.0
 40
2.0
 40
3.0
 40
4.0
 40
5.0
 40
6.0
 40
7.0
 40
8.0
 40
9.0
 40
10.0
 40
11.0
 40
12.0
 40
12.0
 40
12.0
 10
-621.7726266142306
 20
762.84074942485199
 30
0.0
 10
-541.71509800296803
 20
798.00908093143698
 30
0.0
 10
-356.83015522549351
 20
798.00908093143698
 30
0.0
 10
-196.71509800296838
 20
727.67241791826723
 30
0.0
 10
-104.27262661423117
 20
605.84574394460662
 30
0.0
 10
-104.27262661423117
 20
465.17241791826723
 30
0.0
 10
-196.71509800296838
 20
343.34574394460662
 30
0.0
 10
-356.83015522549351
 20
273.00908093143693
 30
0.0
 10
-541.71509800296803
 20
273.00908093143693
 30
0.0
 10
-701.83015522549317
 20
343.34574394460662
 30
0.0
 10
-794.27262661423038
 20
465.17241791826723
 30
0.0
 10
-794.27262661423038
 20
605.84574394460662
 30
0.0
 10
-701.83015522549317
 20
727.67241791826723
 30
0.0
 10
-621.7726266142306
 20
762.84074942485199
 30
0.0
  0
LWPOLYLINE
  5
175
100
AcDbEntity
  8
ABA70-0105
370
              15
390
0
  6
Continuous
 62
               7
100
AcDbPolyline
 90
       72
 70
             128
 10
-154.27262661423117
 20
520.54402647783445
 42
0.0004134901057674
 10
-154.2873350640325
 20
521.85486694712642
 10
-154.30499933907004
 20
523.32105961315074
 42
0.0046155035635275
 10
-154.39528265452441
 20
527.56343982739395
 10
-154.44366584141892
 20
529.14881286611785
 42
0.0041693545624481
 10
-154.59298726224938
 20
532.99064596520066
 10
-154.60351096677869
 20
533.21350480482215
 42
0.0051330689610078
 10
-154.79865402080827
 20
536.60637163684146
 10
-154.81144374616986
 20
536.79494907631806
 42
0.0062797663726007
 10
-155.05365396015179
 20
539.80561544400871
 10
-155.06799906983974
 20
539.95969030102617
 42
0.0074429280799701
 10
-155.35945474316418
 20
542.65482598000995
 42
0.0083660152944328
 10
-155.73595226875432
 20
545.33932284234822
 10
-155.8206536205505
 20
545.87761742565976
 42
0.0177972269673927
 10
-156.46336815077598
 20
549.18982455765843
 42
0.0077955549825741
 10
-157.27510620656244
 20
552.46649070207559
 10
-157.46318496374658
 20
553.17797761473798
 42
0.0217532733450768
 10
-158.90345274877416
 20
557.80227017484458
 10
-159.34084655167658
 20
559.01771675032194
 42
0.0172489177442722
 10
-161.72544815073968
 20
564.9892278011589
 42
0.0165585732377167
 10
-164.50814942652391
 20
570.78627037519959
 10
-164.54830492746066
 20
570.86327944145546
 42
0.0158276013884463
 10
-167.78561630343165
 20
576.61965632116119
 10
-167.83549827360821
 20
576.70213038261022
 42
0.0150230056651511
 10
-171.52637688060202
 20
582.41003074438663
 10
-171.58546717327761
 20
582.49565773373035
 42
0.0142424023289294
 10
-175.72704327608403
 20
588.14589493859103
 10
-175.79486117446049
 20
588.2330954524341
 42
0.0135191922030387
 10
-180.38402198153119
 20
593.8156315870026
 10
-180.45996559392506
 20
593.90308336316866
 42
0.0127676133596851
 10
-185.49257330667649
 20
599.40788714254199
 10
-185.5756468708289
 20
599.49422181012915
 42
0.0120438854154848
 10
-191.04549746839541
 20
604.91138957144722
 10
-191.13465507800606
 20
604.99553294426403
 42
0.0114001466829887
 10
-197.03462104734081
 20
610.31467338878861
 10
-197.12903384893229
 20
610.39596747426617
 42
0.0107977636952914
 10
-203.45165865469778
 20
615.60660131121995
 10
-203.55034347534888
 20
615.68441353225626
 42
0.0101952564104164
 10
-210.28672343174696
 20
620.77674295195834
 10
-210.38862294358398
 20
620.85055742712484
 42
0.0096590459014447
 10
-217.52856430281702
 20
625.81520036401798
 10
-217.63278687047409
 20
625.88472233200378
 42
0.0091920476800187
 10
-225.16584175218941
 20
630.71196619085254
 10
-225.27157403862589
 20
630.77701003215884
 42
0.0087301173570958
 10
-233.18657651078297
 20
635.45763313746238
 10
-233.29293098521407
 20
635.5180460719248
 42
0.008304389563982
 10
-241.57754385029591
 20
640.04367991668573
 10
-241.68367440192969
 20
640.09938754863651
 42
0.0079367257292749
 10
-250.32496739525061
 20
644.46165407650756
 10
-250.43023008727118
 20
644.51271225944447
 42
0.0076024960841069
 10
-259.4150185564846
 20
648.70329783264413
 10
-259.51872222987436
 20
648.74975973231949
 42
0.0072744142771382
 10
-268.83300335485899
 20
652.76112851964876
 10
-268.93443442406794
 20
652.80307309194745
 42
0.0069878858908069
 10
-278.56340366691086
 20
656.62823312521618
 10
-278.66199925830324
 20
656.66581408178081
 42
0.0068182310713795
 10
-288.59112913456329
 20
660.29615268160057
 10
-291.30201780864172
 20
661.24561873866639
 42
0.0127935765913701
 10
-306.83029885193378
 20
666.24209540553613
 10
-309.69404956013034
 20
667.08333932710616
 42
0.0120303771164315
 10
-331.21639654899582
 20
672.84699542862677
 10
-331.53570775057506
 20
672.92432423080197
 42
0.0114105911185631
 10
-353.94695961033153
 20
677.81320121358385
 10
-354.2222562467424
 20
677.86670567562055
 42
0.0109559796869976
 10
-377.382836095735
 20
681.84351911090255
 10
-377.60920002979856
 20
681.87729940143049
 42
0.0105701482926773
 10
-401.37381268077866
 20
684.91167171238294
 10
-402.10886119136012
 20
684.98977427765828
 42
0.0105355434225916
 10
-425.34386817612108
 20
686.96454647245014
 10
-425.98059035449899
 20
687.00517160416553
 42
0.0090806717932027
 10
-448.00200204387113
 20
688.00908093143698
 42
0.0005995972247425
 10
-449.6009796776118
 20
688.050977802136
 42
0.0005995972247425
  0
LWPOLYLINE
  5
176
100
AcDbEntity
  8
ABA70-0105
370
              15
390
0
  6
Continuous
 62
               7
100
AcDbPolyline
 90
       89
 70
             128
 10
-449.26151201450568
 20
318.050977802136
 42
0.000546070854922
 10
-448.21604331481615
 20
318.0809782374406
 10
-440.91407285044352
 20
318.29849485139641
 42
0.0166429699922657
 10
-425.2975293723116
 20
319.28462566553173
 10
-417.99432361669051
 20
319.99044328415158
 42
0.009262881965665
 10
-401.55082746376763
 20
321.88767499203482
 10
-401.49399143880783
 20
321.89530199244473
 42
0.0093063735795977
 10
-385.24565073414124
 20
324.38438661936789
 42
0.0094336680126111
 10
-369.10206405919166
 20
327.48053728182111
 10
-366.68731820675055
 20
327.99106864243993
 42
0.0113565020213643
 10
-352.77026428471481
 20
331.26530949776554
 10
-350.07132660845548
 20
331.96533388511369
 42
0.0062753233490685
 10
-341.65534240933152
 20
334.26129504419606
 10
-340.79069395478643
 20
334.50887950202593
 42
0.0073118199864729
 10
-334.16212160034479
 20
336.51224098770342
 10
-333.62403648008876
 20
336.68349321937234
 42
0.0065975887819994
 10
-328.12508533105313
 20
338.5138520753365
 10
-327.44123635977758
 20
338.75154321372793
 42
0.0091272867761373
 10
-323.36155710417711
 20
340.25356159795479
 10
-322.53876606284621
 20
340.57366161310676
 42
0.0056034662054888
 10
-320.14288416058184
 20
341.5368103063654
 10
-319.91450562725947
 20
341.6316054624117
 42
0.0060090948240177
 10
-317.99607200851824
 20
342.45507210484863
 42
0.000818405378205
 10
-316.08892603477261
 20
343.30471731804892
 10
-314.98660447005477
 20
343.797972306541
 42
-0.0019166935947766
 10
-310.8692158949724
 20
345.62146553325817
 10
-310.20603099444634
 20
345.91213857714536
 42
-0.0000494559272447
 10
-304.75504618490004
 20
348.30065512182097
 10
-304.39971883247574
 20
348.456310830804
 42
0.0018542808155019
 10
-298.40852899833135
 20
351.10735408986739
 10
-297.73868724351951
 20
351.40672798756185
 42
0.0018231980129482
 10
-293.10463865137933
 20
353.49813985692077
 42
0.003110967670718
 10
-288.49151268186199
 20
355.63515220811848
 10
-287.18060948745074
 20
356.25235834191488
 42
0.0073243766942765
 10
-280.01032271946144
 20
359.75752720769458
 10
-277.42588611346468
 20
361.06816652035656
 42
0.0131432155059395
 10
-265.31028163672545
 20
367.61818643475863
 10
-263.75189235142636
 20
368.51440341727118
 42
0.0083044276684457
 10
-254.89720131384763
 20
373.80427079744885
 10
-254.81853042702039
 20
373.85306031082797
 42
0.0084507441752994
 10
-246.30172878114081
 20
379.33638199414315
 10
-246.22228986224275
 20
379.38944688338734
 42
0.0086483882946662
 10
-238.05499803493751
 20
385.05187408164852
 10
-237.97527710377403
 20
385.10921168982765
 42
0.008880706844749
 10
-230.16889244633762
 20
390.93690542394847
 10
-230.08951087516755
 20
390.99839145422811
 42
0.0090695465134289
 10
-222.65385495936334
 20
396.97666364080885
 10
-222.57536984486296
 20
397.04214453131675
 42
0.009279227916978
 10
-215.51859431032312
 20
403.15531622111536
 10
-215.44134079203229
 20
403.22479056468603
 42
0.0095393836621813
 10
-208.77145160390569
 20
409.45725254681412
 10
-208.69616158216513
 20
409.53034461131347
 42
0.0097916992116041
 10
-202.41987237919091
 20
415.86681016702607
 10
-202.3473685143108
 20
415.94293440800561
 42
0.0100047077452599
 10
-196.46875741620261
 20
422.36771368634743
 10
-196.39941298414431
 20
422.44661403036918
 42
0.0102527661032687
 10
-190.92129735471417
 20
428.94357545358213
 10
-190.85561304918065
 20
429.02479856200489
 42
0.0105337544472255
 10
-185.78019118826228
 20
435.57859561538112
 10
-185.71906540622194
 20
435.6610576548951
 42
0.0107655515105685
 10
-181.04602767214465
 20
442.25749630960649
 10
-180.98992606343472
 20
442.34041769174974
 42
0.0110017113507467
 10
-176.71693254432853
 20
448.96567276545585
 10
-176.65930046993037
 20
449.05950070482038
 42
0.0114305934460874
 10
-172.79872557977603
 20
455.67940062094328
 10
-172.71644749903805
 20
455.82820166155165
 42
0.0092661297880111
 10
-169.29177619019322
 20
462.30224070107738
 10
-168.81581080743899
 20
463.243822584138
 42
0.0057154736864608
 10
-166.51656493339351
 20
467.92445362218757
 10
-166.24723364084923
 20
468.48895321228071
 42
0.0017993665621002
 10
-164.5530540919865
 20
472.07296540710115
 10
-164.34430508189962
 20
472.51871567411911
 42
-0.0001732908900121
 10
-163.07958636181809
 20
475.21688592596922
 10
-163.00351794800781
 20
475.37902519272103
 42
0.0038159843496572
 10
-161.90817910674275
 20
477.76083829582569
 42
0.0182903655711699
 10
-160.91980545969773
 20
480.18717864245252
 10
-160.59032912835005
 20
481.08907960953798
 42
0.0137218464474634
 10
-159.48208578921708
 20
484.40211396615513
 42
0.0078537906492054
 10
-158.51754030117979
 20
487.76071995162897
 10
-158.40775232342435
 20
488.1669531653497
 42
0.0127650763572445
 10
-157.38394958773154
 20
492.3793192894866
 10
-157.17492159010146
 20
493.34627567952526
 42
0.0127770078046627
 10
-155.99914667364567
 20
499.54874736011118
 10
-155.93982568559341
 20
499.91219688428504
 42
0.0140564866854224
 10
-155.00036421106915
 20
506.89803456448612
 10
-154.84620576054306
 20
508.35288593412599
 42
0.0246316361872386
 10
-154.28530653970847
 20
518.30249113440118
 10
-154.27584128951014
 20
519.64294719414181
 42
0.0017467672439075
 10
-154.27262661423117
 20
520.5440264778365
 42
0.0017467672439075
  0
LWPOLYLINE
  5
177
100
AcDbEntity
  8
ABA70-0105
370
              15
390
0
  6
Continuous
 62
               7
100
AcDbPolyline
 90
       85
 70
             128
 10
-744.21529526397012
 20
520.74119133034901
 42
0.0013511511353054
 10
-744.21342501607819
 20
520.04909833323063
 10
-744.20123667973576
 20
517.79394256866431
 42
0.0189614518058798
 10
-743.9760824966886
 20
512.60008466775605
 10
-743.7942467423411
 20
510.3667934205348
 42
0.0107989301116014
 10
-743.2192357951742
 20
504.7951121153165
 42
0.0106556181073327
 10
-742.40575578564426
 20
499.25318949786464
 10
-742.28409641892813
 20
498.53172275612172
 42
0.0125777080526556
 10
-741.48982860005617
 20
494.45045218690609
 10
-741.40005533361295
 20
494.04396913385045
 42
0.0074233384009428
 10
-740.63459105695506
 20
490.80701319656424
 10
-740.61886895526982
 20
490.74467575468611
 42
0.013701927906472
 10
-739.75244609100332
 20
487.66750771389178
 10
-739.54888873861341
 20
487.01377502111427
 42
0.0113463503853524
 10
-738.96591322801623
 20
485.281051143779
 10
-738.85823074964401
 20
484.98351132384164
 42
0.0073243331044552
 10
-738.43491375719782
 20
483.86529944056599
 42
0.0033104163757353
 10
-737.98787265365172
 20
482.75624873613117
 10
-737.97970559870532
 20
482.736367964377
 42
-0.0011642345090927
 10
-737.51165808874453
 20
481.58942569769908
 10
-737.23859252019224
 20
480.91580384923134
 42
0.0007235566383242
 10
-736.22347567347742
 20
478.42199703992321
 10
-735.77184502035766
 20
477.31707135595195
 42
0.0041605291607905
 10
-733.81086595972783
 20
472.63119987216203
 10
-733.57752914394496
 20
472.08640260713315
 42
0.0075778075427433
 10
-731.02418247187211
 20
466.36595405847379
 10
-730.93594767697527
 20
466.17606060532637
 42
0.010590186213975
 10
-727.9923503543705
 20
460.17687839260788
 10
-727.91710494161498
 20
460.03139933282966
 42
0.0106529449733624
 10
-724.5647561404503
 20
453.87504536238839
 10
-724.51179590643528
 20
453.78253609214789
 42
0.0104723081383412
 10
-720.79264113217027
 20
447.59050127580599
 10
-720.21243121565317
 20
446.66880498859473
 42
0.015481528787848
 10
-714.96174060112025
 20
438.87389882255911
 10
-714.38932858460225
 20
438.07842672669392
 42
0.0102505410591085
 10
-709.48874863161473
 20
431.55453014749503
 42
0.0100225515092621
 10
-704.32771081040664
 20
425.23457524581806
 10
-704.25718169476909
 20
425.15165814879589
 42
0.0098576289399786
 10
-698.70470597240887
 20
418.8788121101303
 10
-698.5788989697528
 20
418.74220656702175
 42
0.0099613239524388
 10
-692.5252832724409
 20
412.42624459384734
 10
-692.39916314492871
 20
412.29980021779795
 42
0.0096827145909471
 10
-685.84503786584037
 20
405.97850086485778
 10
-685.76753242120981
 20
405.90659294335774
 42
0.0094508230628171
 10
-678.81864045552993
 20
399.69977032665764
 10
-678.69011433550077
 20
399.5892648773966
 42
0.0095057519588041
 10
-671.24981387241746
 20
393.43425267565533
 10
-671.08544783839943
 20
393.30346264307695
 42
0.0093789899885224
 10
-663.08448533875207
 20
387.17842955773091
 10
-662.96597905600311
 20
387.09118468414289
 42
0.0091788137829279
 10
-654.50305472669993
 20
381.09712925234129
 10
-653.1918816652767
 20
380.20414539494408
 42
0.0137050591495325
 10
-641.79609849601093
 20
372.89191299743158
 10
-640.54882863389685
 20
372.13902676274279
 42
0.0092003313017985
 10
-630.26736427619244
 20
366.18815792814621
 42
0.0089810879262442
 10
-619.77627568244634
 20
360.61494884467305
 10
-619.67024339985869
 20
360.56104019834135
 42
0.0088533301161858
 10
-608.77312960019276
 20
355.26143841798472
 10
-608.58535822108138
 20
355.1741958132111
 42
0.0089223489939608
 10
-597.12825746108797
 20
350.09754021984867
 10
-596.95234615069671
 20
350.02331994065105
 42
0.0087110156460095
 10
-584.968985764531
 20
345.21147889188194
 10
-584.8808018110783
 20
345.17784099315389
 42
0.0085541643235735
 10
-572.56093427299857
 20
340.71830223680104
 10
-572.42289154486093
 20
340.67098848952207
 42
0.0085807017310787
 10
-559.67984730822332
 20
336.54631463183074
 10
-559.51214933727488
 20
336.49519620139756
 42
0.0084996309304563
 10
-546.29859622359345
 20
332.71162698729961
 10
-546.1912602902803
 20
332.68285722516953
 42
0.0083857822478703
 10
-532.64186640504863
 20
329.29364587959844
 10
-530.43553387241968
 20
328.78091680442878
 42
0.0133307225190373
 10
-512.31784955013927
 20
325.07663732403955
 10
-510.16229528682288
 20
324.69547861890067
 42
0.0096041291719071
 10
-493.32894285798147
 20
322.05125026068589
 10
-492.95303579560073
 20
321.99957887414337
 42
0.0095068563136904
 10
-476.78438112383878
 20
320.0895164398928
 10
-473.85125684679656
 20
319.79944195469204
 42
0.0086207275834924
 10
-463.49797822161054
 20
318.955501288351
 10
-460.50384084013331
 20
318.76333337804959
 42
0.0011832837000307
 10
-456.12364445339767
 20
318.49261343302328
 10
-455.43046291721896
 20
318.45141753505624
 42
-0.0011127052153613
 10
-452.4363997921505
 20
318.2667924028944
 10
-452.20324319111921
 20
318.25189418049041
 42
-0.0018648257759984
 10
-449.67654159266101
 20
318.08097871626842
 42
-0.0004450959076299
 10
-449.26151201450568
 20
318.050977802136
 42
-0.0004450959076299
  0
LWPOLYLINE
  5
178
100
AcDbEntity
  8
ABA70-0105
370
              15
390
0
  6
Continuous
 62
               7
100
AcDbPolyline
 90
       72
 70
             128
 10
-449.6009796776118
 20
688.050977802136
 42
0.00049014343533
 10
-450.57136197883801
 20
688.02518984678125
 10
-456.92681024279341
 20
687.85005878350216
 42
0.0107005927877683
 10
-470.59373356145568
 20
687.18053559160228
 10
-476.7212519282192
 20
686.74875324320624
 42
0.0064266754794525
 10
-492.32311287216817
 20
685.44762789407696
 42
0.0069419461662128
 10
-507.88439935654765
 20
683.72989642945697
 10
-508.1475494443298
 20
683.69714470599331
 42
0.0070740456294559
 10
-523.8482384571314
 20
681.51704819360975
 10
-523.94652205111402
 20
681.50198097093994
 42
0.0072574461022378
 10
-539.38211307769438
 20
678.90581526516189
 10
-539.49478480096604
 20
678.88517872950183
 42
0.0074348145954242
 10
-554.62267784905816
 20
675.88126975896262
 10
-554.74888911022276
 20
675.85425169841437
 42
0.0076561946575655
 10
-569.52760748787045
 20
672.45310949888631
 10
-569.66659900285981
 20
672.418873221735
 42
0.0079472983406768
 10
-584.0550440228451
 20
668.63117984553128
 10
-584.20559141161061
 20
668.58897929612749
 42
0.0082695445152658
 10
-598.16387906759451
 20
664.42610089225707
 10
-598.32455498025774
 20
664.3752730395496
 42
0.0086074010153565
 10
-611.81474442870672
 20
659.85092904313274
 10
-611.98432094533382
 20
659.79078973462117
 42
0.0090275357882694
 10
-624.96951643152238
 20
654.92000846565156
 10
-625.14651442143145
 20
654.84994553811089
 42
0.0095389653833979
 10
-637.59050152953137
 20
649.64739525356003
 10
-638.49932044076377
 20
649.24690397673737
 42
0.0100747676886855
 10
-648.92868849796082
 20
644.39774086447574
 10
-650.49077056488454
 20
643.63280099683061
 42
0.0079613072048454
 10
-657.64024169377194
 20
639.98950387912919
 42
0.0054426095167633
 10
-664.68996444169238
 20
636.15562122417418
 10
-665.20792548115946
 20
635.8665867748316
 42
0.0113138148839024
 10
-673.14618945660391
 20
631.19824807826478
 10
-674.44002772442445
 20
630.39742894886706
 42
0.0101538466201945
 10
-682.62136513689802
 20
625.10086037316682
 10
-682.74603840301984
 20
625.01650612874209
 42
0.0107216658877517
 10
-690.45337781944136
 20
619.55719478311335
 10
-690.5746950884477
 20
619.46729519245241
 42
0.0113870581332182
 10
-697.79455841637196
 20
613.85804566121897
 10
-697.91115659332036
 20
613.7631227995015
 42
0.0121277803623378
 10
-704.63064747971589
 20
608.01626266666756
 10
-704.74098298674608
 20
607.91716528525899
 42
0.0128584941422363
 10
-710.94937032674966
 20
602.0458034927974
 10
-711.05219336073856
 20
601.94342722729345
 42
0.0136842417164357
 10
-716.74016706999646
 20
595.96143016805217
 10
-716.83405378727889
 20
595.85711720503809
 42
0.0145824813585485
 10
-721.99315710787846
 20
589.77754864237204
 10
-722.07675656973834
 20
589.6730011263644
 42
0.015475928559497
 10
-726.70047627033
 20
583.50888354083793
 10
-726.77250600435218
 20
583.40639705987837
 42
0.0163765283986218
 10
-730.85702325352963
 20
577.17028912667013
 10
-730.91696297703425
 20
577.07188944891959
 42
0.017333176195355
 10
-734.45897116436186
 20
570.77593915193825
 10
-734.50635332045613
 20
570.68443365858764
 42
0.0182442479159985
 10
-737.50367121798831
 20
564.33926490574652
 10
-737.53831881243036
 20
564.25840501647838
 42
0.0190672260816234
 10
-739.99110745950225
 20
557.87198223567566
 10
-740.05200590627464
 20
557.69335236875679
 42
0.0198252984640836
 10
-741.89360330277236
 20
551.49757040483189
 10
-742.08077773443028
 20
550.76230304954584
 42
0.018798160519002
 10
-743.12033072715712
 20
545.92490946485077
 10
-743.31191041534112
 20
544.83557382058939
 42
0.0168313079700834
 10
-743.69509568327771
 20
542.12485166681597
 42
0.00751312872874
 10
-743.94602023422112
 20
539.39745616954156
 10
-743.95692643533243
 20
539.25557424426233
 42
0.010801942089986
 10
-744.12345898479566
 20
536.23704605692046
 10
-744.14111772306751
 20
535.7102929737415
 42
0.0037863998234772
 10
-744.21669584826191
 20
532.79719615646718
 42
0.0032691979706325
 10
-744.25116095894987
 20
529.88330164399974
 10
-744.25804060883797
 20
528.58254901416421
 42
0.0041208424238579
 10
-744.24175490993457
 20
523.06705811695531
 10
-744.22845118843384
 20
521.87867589394023
 42
0.0001854699011359
 10
-744.21529526397012
 20
520.74119133034901
 42
0.0001854699011359
  0
CIRCLE
  5
179
100
AcDbEntity
  8
ABA70-0105
370
              15
390
0
  6
STYLE_11
 62
               7
100
AcDbCircle
 10
490.72737338582522
 20
748.0209168299898
 30
0.0
 40
18.497342219020076
  0
CIRCLE
  5
17A
100
AcDbEntity
  8
ABA70-0105
370
              15
390
0
  6
STYLE_11
 62
               7
100
AcDbCircle
 10
489.88252053357576
 20
535.18727082332953
 30
0.0
 40
22.499999999999993
  0
CIRCLE
  5
17B
100
AcDbEntity
  8
ABA70-0105
370
              15
390
0
  6
Continuous
 62
               7
100
AcDbCircle
 10
489.88252053357576
 20
535.18727082332953
 30
0.0
 40
104.99999999999997
  0
SPLINE
  5
17C
100
AcDbEntity
  8
ABA70-0105
370
               5
390
0
  6
STYLE_11
 62
               7
100
AcDbSpline
210
0.0
220
0.0
230
1.0
 70
               9
 71
               2
 72
              17
 73
              14
 74
               0
 42
0.000001
 43
0.000001
 40
0.0
 40
0.0
 40
0.0
 40
1.0
 40
2.0
 40
3.0
 40
4.0
 40
5.0
 40
6.0
 40
7.0
 40
8.0
 40
9.0
 40
10.0
 40
11.0
 40
12.0
 40
12.0
 40
12.0
 10
318.22737338576923
 20
762.84074942485199
 30
0.0
 10
398.28490199703191
 20
798.00908093143698
 30
0.0
 10
583.1698447745066
 20
798.00908093143698
 30
0.0
 10
743.28490199703197
 20
727.67241791826723
 30
0.0
 10
835.72737338576917
 20
605.84574394460662
 30
0.0
 10
835.72737338576917
 20
465.17241791826723
 30
0.0
 10
743.28490199703197
 20
343.34574394460662
 30
0.0
 10
583.1698447745066
 20
273.00908093143693
 30
0.0
 10
398.28490199703191
 20
273.00908093143693
 30
0.0
 10
238.16984477450654
 20
343.34574394460662
 30
0.0
 10
145.72737338576923
 20
465.17241791826723
 30
0.0
 10
145.72737338576923
 20
605.84574394460662
 30
0.0
 10
238.16984477450654
 20
727.67241791826723
 30
0.0
 10
318.22737338576923
 20
762.84074942485199
 30
0.0
  0
MTEXT
  5
17D
100
AcDbEntity
  8
ABA70-0105
390
0
 62
               7
100
AcDbMText
 10
346.87465238458242
 20
971.78302833672637
 30
0.0
 40
24.432617187500004
 41
0.0
 71
               1
 72
               1
  1
カウンター切込寸法
  7
ＭＳ ゴシック
 73
               1
 44
0.7828267384257843
  0
MTEXT
  5
17E
100
AcDbEntity
  8
ABA70-0105
390
0
 62
               7
100
AcDbMText
 10
107.36379465407714
 20
176.3738738436133
 30
0.0
 40
24.432617187500004
 41
764.7717154610109
 71
               1
 72
               1
  1
※陶器製品には寸法公差があります。\P  洗面器の収め方をご確認の上、必ず現物を合わせて\P  カウンターに切込を行ってください。
  7
ＭＳ ゴシック
 73
               1
 44
1.0437689845677123
  0
ENDSEC
  0
SECTION
  2
OBJECTS
  0
DICTIONARY
  5
19
100
AcDbDictionary
280
               0
281
               1
  3
ACAD_GROUP
350
1A
  3
ACAD_MLINESTYLE
350
1B
  3
ACAD_LAYOUT
350
1E
  3
ACAD_PLOTSETTINGS
350
22
  3
ACAD_PLOTSTYLENAME
350
1F
  0
DICTIONARY
  5
1A
102
{ACAD_REACTORS
330
19
102
}
100
AcDbDictionary
280
               0
281
               1
  0
DICTIONARY
  5
1B
102
{ACAD_REACTORS
330
19
102
}
100
AcDbDictionary
280
               0
281
               1
  3
Standard
350
1C
  0
MLINESTYLE
  5
1C
102
{ACAD_REACTORS
330
1B
102
}
100
AcDbMlineStyle
  2
Standard
 70
               0
  3

 62
               0
 51
90.0
 52
90.0
 71
               2
 49
0.5
 62
             256
  6
ByLayer
 49
-0.5
 62
             256
  6
ByLayer
  0
ACDBDICTIONARYWDFLT
  5
1F
102
{ACAD_REACTORS
330
19
102
}
100
AcDbDictionary
281
               1
  3
Normal
350
1D
100
AcDbDictionaryWithDefault
340
1D
  0
ACDBPLACEHOLDER
  5
1D
102
{ACAD_REACTORS
330
1F
102
}
  0
LAYOUT
  5
20
102
{ACAD_REACTORS
330
1E
102
}
100
AcDbPlotSettings
  1

  2

  4

  6

 40
0.0
 41
0.0
 42
0.0
 43
0.0
 44
0.0
 45
0.0
 46
0.0
 47
0.0
 48
0.0
 49
0.0
140
0.0
141
0.0
142
1.0
143
1.0
 70
            1024
 72
               0
 73
               0
 74
               0
  7

 75
               0
147
1.0
148
0.0
149
0.0
100
AcDbLayout
  1
Model
 70
               0
 71
               0
 10
0.0
 20
0.0
 11
0.0
 21
0.0
 12
0.0
 22
0.0
 32
0.0
 14
0.0
 24
0.0
 34
0.0
 15
0.0
 25
0.0
 35
0.0
146
0.0
 13
0.0
 23
0.0
 33
0.0
 16
0.0
 26
0.0
 36
0.0
 17
0.0
 27
0.0
 37
0.0
 76
               0
330
A
331
0
345
0
346
0
  0
LAYOUT
  5
21
102
{ACAD_REACTORS
330
1E
102
}
100
AcDbPlotSettings
  1

  2

  4

  6

 40
0.0
 41
0.0
 42
0.0
 43
0.0
 44
0.0
 45
0.0
 46
0.0
 47
0.0
 48
0.0
 49
0.0
140
0.0
141
0.0
142
1.0
143
1.0
 70
               0
 72
               0
 73
               0
 74
               0
  7

 75
               0
147
1.0
148
0.0
149
0.0
100
AcDbLayout
  1
Layout1
 70
               0
 71
               0
 10
0.0
 20
0.0
 11
0.0
 21
0.0
 12
0.0
 22
0.0
 32
0.0
 14
0.0
 24
0.0
 34
0.0
 15
0.0
 25
0.0
 35
0.0
146
0.0
 13
0.0
 23
0.0
 33
0.0
 16
0.0
 26
0.0
 36
0.0
 17
0.0
 27
0.0
 37
0.0
 76
               0
330
B
331
0
345
0
346
0
  0
DICTIONARY
  5
1E
102
{ACAD_REACTORS
330
19
102
}
100
AcDbDictionary
280
               0
281
               1
  3
Layout1
350
21
  3
Model
350
20
  0
DICTIONARY
  5
22
102
{ACAD_REACTORS
330
19
102
}
100
AcDbDictionary
280
               0
281
               1
  0
ENDSEC
  0
EOF
