  0
SECTION
  2
HEADER
  9
$ACADVER
  1
AC1015
  9
$ACADMAINTVER
 70
               6
  9
$DWGCODEPAGE
  3
ANSI_932
  9
$INSBASE
 10
0.0
 20
0.0
 30
0.0
  9
$EXTMIN
 10
15610.804255317729
 20
8429.5588678865133
 30
-14.428611111111111
  9
$EXTMAX
 10
17710.804255317729
 20
11399.558867886513
 30
14.428611111111111
  9
$LIMMIN
 10
0.0
 20
0.0
  9
$LIMMAX
 10
0.0
 20
0.0
  9
$ORTHOMODE
 70
               0
  9
$REGENMODE
 70
               1
  9
$FILLMODE
 70
               1
  9
$QTEXTMODE
 70
               0
  9
$MIRRTEXT
 70
               1
  9
$LTSCALE
 40
127.0
  9
$ATTMODE
 70
               1
  9
$TEXTSIZE
 40
0.2
  9
$TRACEWID
 40
1.0
  9
$TEXTSTYLE
  7
Standard
  9
$CLAYER
  8
ABA70-1506
  9
$CELTYPE
  6
Continuous
  9
$CECOLOR
 62
             256
  9
$CELTSCALE
 40
1.0
  9
$DISPSILH
 70
               0
  9
$DIMSCALE
 40
1.0
  9
$DIMASZ
 40
31.75
  9
$DIMEXO
 40
0.0
  9
$DIMDLI
 40
6.9999999999999396
  9
$DIMRND
 40
0.0
  9
$DIMDLE
 40
0.0
  9
$DIMEXE
 40
19.999999999996199
  9
$DIMTP
 40
0.0
  9
$DIMTM
 40
0.0
  9
$DIMTXT
 40
24.432617187500004
  9
$DIMCEN
 40
0.0
  9
$DIMTSZ
 40
0.0
  9
$DIMTOL
 70
               0
  9
$DIMLIM
 70
               0
  9
$DIMTIH
 70
               0
  9
$DIMTOH
 70
               0
  9
$DIMSE1
 70
               0
  9
$DIMSE2
 70
               0
  9
$DIMTAD
 70
               1
  9
$DIMZIN
 70
              11
  9
$DIMBLK
  1
VW_FILLEDARROW
  9
$DIMASO
 70
               1
  9
$DIMSHO
 70
               1
  9
$DIMPOST
  1
<>
  9
$DIMAPOST
  1
[]
  9
$DIMALT
 70
               0
  9
$DIMALTD
 70
               3
  9
$DIMALTF
 40
0.0393700787401575
  9
$DIMLFAC
 40
1.0
  9
$DIMTOFL
 70
               0
  9
$DIMTVP
 40
0.0
  9
$DIMTIX
 70
               1
  9
$DIMSOXD
 70
               0
  9
$DIMSAH
 70
               0
  9
$DIMBLK1
  1

  9
$DIMBLK2
  1

  9
$DIMSTYLE
  2
JIS
  9
$DIMCLRD
 70
               0
  9
$DIMCLRE
 70
               0
  9
$DIMCLRT
 70
               0
  9
$DIMTFAC
 40
1.0
  9
$DIMGAP
 40
1.00000000000108
  9
$DIMJUST
 70
               0
  9
$DIMSD1
 70
               0
  9
$DIMSD2
 70
               0
  9
$DIMTOLJ
 70
               1
  9
$DIMTZIN
 70
              11
  9
$DIMALTZ
 70
              15
  9
$DIMALTTZ
 70
              15
  9
$DIMUPT
 70
               0
  9
$DIMDEC
 70
               1
  9
$DIMTDEC
 70
               1
  9
$DIMALTU
 70
               4
  9
$DIMALTTD
 70
               2
  9
$DIMTXSTY
  7
ＭＳ ゴシック
  9
$DIMAUNIT
 70
               0
  9
$DIMADEC
 70
               2
  9
$DIMALTRND
 40
0.0
  9
$DIMAZIN
 70
               0
  9
$DIMDSEP
 70
              46
  9
$DIMATFIT
 70
               0
  9
$DIMFRAC
 70
               2
  9
$DIMLDRBLK
  1

  9
$DIMLUNIT
 70
               2
  9
$DIMLWD
 70
              -2
  9
$DIMLWE
 70
              -2
  9
$DIMTMOVE
 70
               0
  9
$LUNITS
 70
               2
  9
$LUPREC
 70
               4
  9
$SKETCHINC
 40
0.1
  9
$FILLETRAD
 40
0.0
  9
$AUNITS
 70
               0
  9
$AUPREC
 70
               0
  9
$MENU
  1
acad
  9
$ELEVATION
 40
0.0
  9
$PELEVATION
 40
0.0
  9
$THICKNESS
 40
0.0
  9
$LIMCHECK
 70
               0
  9
$CHAMFERA
 40
0.0
  9
$CHAMFERB
 40
0.0
  9
$CHAMFERC
 40
0.0
  9
$CHAMFERD
 40
0.0
  9
$SKPOLY
 70
               0
  9
$TDCREATE
 40
2455741.710706018
  9
$TDUCREATE
 40
0.000000000
  9
$TDUPDATE
 40
2455741.710706018
  9
$TDUUPDATE
 40
0.000000000
  9
$TDINDWG
 40
0.0000000000
  9
$TDUSRTIMER
 40
0.0000000000
  9
$USRTIMER
 70
               1
  9
$ANGBASE
 50
0.0
  9
$ANGDIR
 70
               0
  9
$PDMODE
 70
               1
  9
$PDSIZE
 40
-2.0
  9
$PLINEWID
 40
0.0
  9
$SPLFRAME
 70
               0
  9
$SPLINETYPE
 70
               6
  9
$SPLINESEGS
 70
               8
  9
$HANDSEED
  5
15A
  9
$SURFTAB1
 70
               6
  9
$SURFTAB2
 70
               6
  9
$SURFTYPE
 70
               6
  9
$SURFU
 70
               6
  9
$SURFV
 70
               6
  9
$UCSBASE
  2

  9
$UCSNAME
  2

  9
$UCSORG
 10
0.0
 20
0.0
 30
0.0
  9
$UCSXDIR
 10
1.0
 20
0.0
 30
0.0
  9
$UCSYDIR
 10
0.0
 20
1.0
 30
0.0
  9
$UCSORTHOREF
  2

  9
$UCSORTHOVIEW
 70
               0
  9
$UCSORGTOP
 10
0.0
 20
0.0
 30
0.0
  9
$UCSORGBOTTOM
 10
0.0
 20
0.0
 30
0.0
  9
$UCSORGLEFT
 10
0.0
 20
0.0
 30
0.0
  9
$UCSORGRIGHT
 10
0.0
 20
0.0
 30
0.0
  9
$UCSORGFRONT
 10
0.0
 20
0.0
 30
0.0
  9
$UCSORGBACK
 10
0.0
 20
0.0
 30
0.0
  9
$PUCSBASE
  2

  9
$PUCSNAME
  2

  9
$PUCSORG
 10
0.0
 20
0.0
 30
0.0
  9
$PUCSXDIR
 10
1.0
 20
0.0
 30
0.0
  9
$PUCSYDIR
 10
0.0
 20
1.0
 30
0.0
  9
$PUCSORTHOREF
  2

  9
$PUCSORTHOVIEW
 70
               0
  9
$PUCSORGTOP
 10
0.0
 20
0.0
 30
0.0
  9
$PUCSORGBOTTOM
 10
0.0
 20
0.0
 30
0.0
  9
$PUCSORGLEFT
 10
0.0
 20
0.0
 30
0.0
  9
$PUCSORGRIGHT
 10
0.0
 20
0.0
 30
0.0
  9
$PUCSORGFRONT
 10
0.0
 20
0.0
 30
0.0
  9
$PUCSORGBACK
 10
0.0
 20
0.0
 30
0.0
  9
$USERI1
 70
               0
  9
$USERI2
 70
               0
  9
$USERI3
 70
               0
  9
$USERI4
 70
               0
  9
$USERI5
 70
               0
  9
$USERR1
 40
0.0
  9
$USERR2
 40
0.0
  9
$USERR3
 40
0.0
  9
$USERR4
 40
0.0
  9
$USERR5
 40
0.0
  9
$WORLDVIEW
 70
               1
  9
$SHADEDGE
 70
               3
  9
$SHADEDIF
 70
              70
  9
$TILEMODE
 70
               1
  9
$MAXACTVP
 70
              64
  9
$PINSBASE
 10
0.0
 20
0.0
 30
0.0
  9
$PLIMCHECK
 70
               0
  9
$PEXTMIN
 10
1.0000000000000000E+20
 20
1.0000000000000000E+20
 30
1.0000000000000000E+20
  9
$PEXTMAX
 10
-1.0000000000000000E+20
 20
-1.0000000000000000E+20
 30
-1.0000000000000000E+20
  9
$PLIMMIN
 10
0.0
 20
0.0
  9
$PLIMMAX
 10
12.0
 20
9.0
  9
$UNITMODE
 70
               0
  9
$VISRETAIN
 70
               0
  9
$PLINEGEN
 70
               1
  9
$PSLTSCALE
 70
               0
  9
$TREEDEPTH
 70
            3020
  9
$CMLSTYLE
  2
Standard
  9
$CMLJUST
 70
               0
  9
$CMLSCALE
 40
1.0
  9
$PROXYGRAPHICS
 70
               0
  9
$MEASUREMENT
 70
               1
  9
$CELWEIGHT
370
               0
  9
$ENDCAPS
280
               0
  9
$JOINSTYLE
280
               0
  9
$LWDISPLAY
290
               1
  9
$INSUNITS
 70
               4
  9
$HYPERLINKBASE
  1

  9
$STYLESHEET
  1

  9
$XEDIT
290
               1
  9
$CEPSNTYPE
380
               0
  9
$PSTYLEMODE
290
               1
  9
$FINGERPRINTGUID
  2

  9
$VERSIONGUID
  2

  9
$EXTNAMES
290
               1
  9
$PSVPSCALE
 40
0.0
  0
ENDSEC
  0
SECTION
  2
CLASSES
  0
CLASS
  1
LWPOLYLINE
  2
AcDbPolyline
  3
AutoCAD 2000
 90
        0
280
               0
281
               1
  0
CLASS
  1
IMAGE
  2
AcDbRasterImage
  3
ISM
 90
      127
280
               0
281
               1
  0
CLASS
  1
OLE2FRAME
  2
AcDbOle2Frame
  3
AutoCAD 2000
 90
        0
280
               0
281
               1
  0
CLASS
  1
HATCH
  2
AcDbHatch
  3
AutoCAD 2000
 90
        0
280
               0
281
               1
  0
CLASS
  1
DICTIONARYVAR
  2
AcDbDictionaryVar
  3
AutoCAD 2000
 90
        0
280
               0
281
               0
  0
CLASS
  1
RASTERVARIABLES
  2
AcDbRasterVariables
  3
ISM
 90
        0
280
               0
281
               0
  0
CLASS
  1
IMAGEDEF
  2
AcDbRasterImageDef
  3
ISM
 90
        0
280
               0
281
               0
  0
CLASS
  1
IMAGEDEF_REACTOR
  2
AcDbRasterImageDefReactor
  3
ISM
 90
        1
280
               0
281
               0
  0
CLASS
  1
IDBUFFER
  2
AcDbIdBuffer
  3
AutoCAD 2000
 90
        0
280
               0
281
               0
  0
CLASS
  1
SPATIAL_FILTER
  2
AcDbSpatialFilter
  3
AutoCAD 2000
 90
        0
280
               0
281
               0
  0
CLASS
  1
XRECORD
  2
AcDbXrecord
  3
AutoCAD 2000
 90
        0
280
               0
281
               0
  0
CLASS
  1
SORTENTSTABLE
  2
AcDbSortentsTable
  3
AutoCAD 2000
 90
        0
280
               0
281
               0
  0
CLASS
  1
LAYER_INDEX
  2
AcDbLayerIndex
  3
AutoCAD 2000
 90
        0
280
               0
281
               0
  0
CLASS
  1
SPATIAL_INDEX
  2
AcDbSpatialIndex
  3
AutoCAD 2000
 90
        0
280
               0
281
               0
  0
CLASS
  1
OBJECT_PTR
  2
CAseDLPNTableRecord
  3
"ASE-LPNTableRecord"
 90
        1
280
               0
281
               0
  0
CLASS
  1
LAYOUT
  2
AcDbLayout
  3
AutoCAD 2000
 90
        0
280
               0
281
               0
  0
CLASS
  1
PLOTSETTINGS
  2
AcDbPlotSettings
  3
AutoCAD 2000
 90
        0
280
               0
281
               0
  0
CLASS
  1
ACDBDICTIONARYWDFLT
  2
AcDbDictionaryWithDefault
  3
AutoCAD 2000
 90
        0
280
               0
281
               0
  0
CLASS
  1
ACDBPLACEHOLDER
  2
AcDbPlaceHolder
  3
AutoCAD 2000
 90
        0
280
               0
281
               0
  0
ENDSEC
  0
SECTION
  2
TABLES
  0
TABLE
  2
VPORT
  5
7
100
AcDbSymbolTable
 70
               1
  0
VPORT
  5
15
100
AcDbSymbolTableRecord
100
AcDbViewportTableRecord
  2
*ACTIVE
 70
               0
 10
0.0
 20
0.0
 11
1.0
 21
1.0
 12
16660.804255317729
 22
9914.5588678865133
 13
0.0
 23
0.0
 14
1.0
 24
1.0
 15
0.0
 25
0.0
 16
0.0
 26
0.0
 36
1.0
 17
0.0
 27
0.0
 37
0.0
 40
2970.0
 41
0.688564
 42
50.0
 43
0.0
 44
0.0
 50
0.0
 51
0.0
 71
               0
 72
            2000
 73
               1
 74
               1
 75
               0
 76
               0
 77
               0
 78
               0
281
               0
 65
               0
110
0.0
120
0.0
130
0.0
111
1.0
121
0.0
131
0.0
112
0.0
122
1.0
132
0.0
345
0
346
0
 79
               0
146
0.0
  0
ENDTAB
  0
TABLE
  2
LTYPE
  5
4
100
AcDbSymbolTable
 70
              14
  0
LTYPE
  5
11
100
AcDbSymbolTableRecord
100
AcDbLinetypeTableRecord
  2
ByBlock
 70
              64
  3

 72
              65
 73
               0
 40
0.0
  0
LTYPE
  5
12
100
AcDbSymbolTableRecord
100
AcDbLinetypeTableRecord
  2
ByLayer
 70
              64
  3

 72
              65
 73
               0
 40
0.0
  0
LTYPE
  5
13
100
AcDbSymbolTableRecord
100
AcDbLinetypeTableRecord
  2
Continuous
 70
              64
  3
Solid line
 72
              65
 73
               0
 40
0.0
  0
LTYPE
  5
33
100
AcDbSymbolTableRecord
100
AcDbLinetypeTableRecord
  2
STYLE_01
 70
               0
  3

 72
              65
 73
               2
 40
0.15
 49
0.1
 74
               0
 49
-0.05
 74
               0
  0
LTYPE
  5
34
100
AcDbSymbolTableRecord
100
AcDbLinetypeTableRecord
  2
STYLE_02
 70
               0
  3

 72
              65
 73
               2
 40
3.5842082677165359
 49
3.5842082677165359
 74
               0
 49
-0.0002
 74
               0
  0
LTYPE
  5
35
100
AcDbSymbolTableRecord
100
AcDbLinetypeTableRecord
  2
STYLE_03
 70
               0
  3

 72
              65
 73
               2
 40
0.5
 49
0.416656
 74
               0
 49
-0.083344
 74
               0
  0
LTYPE
  5
36
100
AcDbSymbolTableRecord
100
AcDbLinetypeTableRecord
  2
STYLE_04
 70
               0
  3

 72
              65
 73
               2
 40
0.611084
 49
0.52777
 74
               0
 49
-0.083314
 74
               0
  0
LTYPE
  5
37
100
AcDbSymbolTableRecord
100
AcDbLinetypeTableRecord
  2
STYLE_05
 70
               0
  3

 72
              65
 73
               2
 40
0.083312
 49
0.02777
 74
               0
 49
-0.055542
 74
               0
  0
LTYPE
  5
38
100
AcDbSymbolTableRecord
100
AcDbLinetypeTableRecord
  2
STYLE_06
 70
               0
  3

 72
              65
 73
               4
 40
0.416656
 49
0.25
 74
               0
 49
-0.083312
 74
               0
 49
0.027772
 74
               0
 49
-0.055572
 74
               0
  0
LTYPE
  5
39
100
AcDbSymbolTableRecord
100
AcDbLinetypeTableRecord
  2
STYLE_07
 70
               0
  3

 72
              65
 73
               6
 40
0.75
 49
0.25
 74
               0
 49
-0.083312
 74
               0
 49
0.2500000000000001
 74
               0
 49
-0.083344
 74
               0
 49
0.027772
 74
               0
 49
-0.055572
 74
               0
  0
LTYPE
  5
3A
100
AcDbSymbolTableRecord
100
AcDbLinetypeTableRecord
  2
STYLE_08
 70
               0
  3

 72
              65
 73
               6
 40
0.5
 49
0.25
 74
               0
 49
-0.083312
 74
               0
 49
0.027772
 74
               0
 49
-0.055572
 74
               0
 49
0.027772
 74
               0
 49
-0.055572
 74
               0
  0
LTYPE
  5
3B
100
AcDbSymbolTableRecord
100
AcDbLinetypeTableRecord
  2
STYLE_09
 70
               0
  3

 72
              65
 73
               4
 40
2.0
 49
1.5
 74
               0
 49
-0.1111139999999999
 74
               0
 49
0.2777720000000001
 74
               0
 49
-0.1111139999999999
 74
               0
  0
LTYPE
  5
3C
100
AcDbSymbolTableRecord
100
AcDbLinetypeTableRecord
  2
STYLE_10
 70
               0
  3

 72
              65
 73
               6
 40
2.375
 49
1.5
 74
               0
 49
-0.1111139999999999
 74
               0
 49
0.2777720000000001
 74
               0
 49
-0.1111139999999999
 74
               0
 49
0.25
 74
               0
 49
-0.125
 74
               0
  0
LTYPE
  5
3D
100
AcDbSymbolTableRecord
100
AcDbLinetypeTableRecord
  2
STYLE_11
 70
               0
  3

 72
              65
 73
               2
 40
0.1574803149606299
 49
0.078740157480315
 74
               0
 49
-0.078740157480315
 74
               0
  0
ENDTAB
  0
TABLE
  2
LAYER
  5
2
100
AcDbSymbolTable
 70
               5
  0
LAYER
  5
14
100
AcDbSymbolTableRecord
100
AcDbLayerTableRecord
  2
0
 70
               0
 62
               7
  6
Continuous
290
               1
370
              -3
390
1D
  0
LAYER
  5
3E
100
AcDbSymbolTableRecord
100
AcDbLayerTableRecord
  2
Defpoints
 70
               0
 62
               7
  6
Continuous
290
               0
370
              -3
390
1D
  0
LAYER
  5
3F
100
AcDbSymbolTableRecord
100
AcDbLayerTableRecord
  2
template
 70
               0
 62
               7
  6
Continuous
290
               1
370
              -3
390
1D
  0
LAYER
  5
40
100
AcDbSymbolTableRecord
100
AcDbLayerTableRecord
  2
notes
 70
               0
 62
               7
  6
Continuous
290
               1
370
              -3
390
1D
  0
LAYER
  5
41
100
AcDbSymbolTableRecord
100
AcDbLayerTableRecord
  2
ABA70-1506
 70
               0
 62
               7
  6
Continuous
290
               1
370
              -3
390
1D
  0
ENDTAB
  0
TABLE
  2
STYLE
  5
3
100
AcDbSymbolTable
 70
               2
  0
STYLE
  5
17
100
AcDbSymbolTableRecord
100
AcDbTextStyleTableRecord
  2
Standard
 70
               0
 40
0.0
 41
1.0
 50
0.0
 71
               0
 42
0.0
  3
txt
  4
BIGFONT.SHX
  0
STYLE
  5
32
100
AcDbSymbolTableRecord
100
AcDbTextStyleTableRecord
  2
ＭＳ ゴシック
 70
               0
 40
0.0
 41
1.0
 50
0.0
 71
               0
 42
0.0
  3

  4
ＭＳ ゴシック
1001
ACAD
1000
ＭＳ ゴシック
1071
        0
  0
ENDTAB
  0
TABLE
  2
VIEW
  5
5
100
AcDbSymbolTable
 70
               0
  0
ENDTAB
  0
TABLE
  2
UCS
  5
6
100
AcDbSymbolTable
 70
               0
  0
ENDTAB
  0
TABLE
  2
APPID
  5
8
100
AcDbSymbolTable
 70
               1
  0
APPID
  5
16
100
AcDbSymbolTableRecord
100
AcDbRegAppTableRecord
  2
ACAD
 70
               0
  0
ENDTAB
  0
TABLE
  2
DIMSTYLE
  5
9
100
AcDbSymbolTable
 70
               3
100
AcDbDimStyleTable
 71
               0
  0
DIMSTYLE
105
18
100
AcDbSymbolTableRecord
100
AcDbDimStyleTableRecord
  2
Standard
 70
               0
  3

  4

 40
1.0
 41
0.18
 42
0.0625
 43
0.38
 44
0.18
 45
0.0
 46
0.0
 47
0.0
 48
0.0
 71
               0
 72
               0
 73
               1
 74
               1
 75
               0
 76
               0
 77
               0
 78
               0
 79
               0
140
0.18
141
0.09
142
0.0
143
25.399999999999999
144
1.0
145
0.0
146
1.0
147
0.09
148
0.0
170
               0
171
               2
172
               0
173
               0
174
               0
175
               0
176
               0
177
               0
178
               0
179
               0
271
               4
272
               4
273
               2
274
               2
275
               0
276
               0
277
               2
278
              46
279
               0
280
               0
281
               0
282
               0
283
               1
284
               0
285
               0
286
               0
288
               0
289
               3
340
17
341
0
342
0
343
0
344
0
371
              -2
372
              -2
  0
DIMSTYLE
105
4A
100
AcDbSymbolTableRecord
100
AcDbDimStyleTableRecord
  2
tfrom線あり
 70
               0
  3
<>
  4
[]
 40
1.0
 41
3.999755859375
 42
24.999999999999996
 43
0.9999999999999999
 44
0.0
 45
0.0
 46
0.0
 47
0.0
 48
0.0
 71
               0
 72
               0
 73
               0
 74
               0
 75
               0
 76
               0
 77
               1
 78
              11
 79
               0
140
24.432617187500004
141
0.0
142
0.0
143
0.0393700787401575
144
1.0
145
0.0
146
1.0
147
0.4999999999999999
148
0.0
170
               0
171
               3
172
               0
173
               0
174
               1
175
               0
176
               0
177
               0
178
               0
179
               2
271
               1
272
               1
273
               4
274
               2
275
               0
276
               2
277
               2
278
              46
279
               0
280
               0
281
               0
282
               0
283
               1
284
              11
285
              15
286
              15
288
               0
289
               0
340
32
341
42
342
42
343
0
344
0
371
              -2
372
              -2
  0
DIMSTYLE
105
4F
100
AcDbSymbolTableRecord
100
AcDbDimStyleTableRecord
  2
JIS
 70
               0
  3
<>
  4
[]
 40
1.0
 41
31.75
 42
0.0
 43
6.9999999999999396
 44
19.999999999996199
 45
0.0
 46
0.0
 47
0.0
 48
0.0
 71
               0
 72
               0
 73
               0
 74
               0
 75
               0
 76
               0
 77
               1
 78
              11
 79
               0
140
24.432617187500004
141
0.0
142
0.0
143
0.0393700787401575
144
1.0
145
0.0
146
1.0
147
1.00000000000108
148
0.0
170
               0
171
               3
172
               0
173
               0
174
               1
175
               0
176
               0
177
               0
178
               0
179
               2
271
               1
272
               1
273
               4
274
               2
275
               0
276
               2
277
               2
278
              46
279
               0
280
               0
281
               0
282
               0
283
               1
284
              11
285
              15
286
              15
288
               0
289
               0
340
32
341
4B
342
4B
343
0
344
0
371
              -2
372
              -2
  0
ENDTAB
  0
TABLE
  2
BLOCK_RECORD
  5
1
100
AcDbSymbolTable
 70
              17
  0
BLOCK_RECORD
  5
A
100
AcDbSymbolTableRecord
100
AcDbBlockTableRecord
  2
*MODEL_SPACE
340
20
  0
BLOCK_RECORD
  5
B
100
AcDbSymbolTableRecord
100
AcDbBlockTableRecord
  2
*PAPER_SPACE
340
21
  0
BLOCK_RECORD
  5
42
100
AcDbSymbolTableRecord
100
AcDbBlockTableRecord
  2
_DOT
340
0
  0
BLOCK_RECORD
  5
4B
100
AcDbSymbolTableRecord
100
AcDbBlockTableRecord
  2
VW_FILLEDARROW
340
0
  0
BLOCK_RECORD
  5
23
100
AcDbSymbolTableRecord
100
AcDbBlockTableRecord
  2
グループ
340
0
102
{BLKREFS
331
109
102
}
  0
BLOCK_RECORD
  5
24
100
AcDbSymbolTableRecord
100
AcDbBlockTableRecord
  2
*D3
340
0
  0
BLOCK_RECORD
  5
25
100
AcDbSymbolTableRecord
100
AcDbBlockTableRecord
  2
*D4
340
0
  0
BLOCK_RECORD
  5
26
100
AcDbSymbolTableRecord
100
AcDbBlockTableRecord
  2
*D5
340
0
  0
BLOCK_RECORD
  5
27
100
AcDbSymbolTableRecord
100
AcDbBlockTableRecord
  2
*D6
340
0
  0
BLOCK_RECORD
  5
28
100
AcDbSymbolTableRecord
100
AcDbBlockTableRecord
  2
*D7
340
0
  0
BLOCK_RECORD
  5
29
100
AcDbSymbolTableRecord
100
AcDbBlockTableRecord
  2
*D8
340
0
  0
BLOCK_RECORD
  5
2A
100
AcDbSymbolTableRecord
100
AcDbBlockTableRecord
  2
*D9
340
0
  0
BLOCK_RECORD
  5
2B
100
AcDbSymbolTableRecord
100
AcDbBlockTableRecord
  2
*D10
340
0
  0
BLOCK_RECORD
  5
2C
100
AcDbSymbolTableRecord
100
AcDbBlockTableRecord
  2
*D11
340
0
  0
BLOCK_RECORD
  5
2D
100
AcDbSymbolTableRecord
100
AcDbBlockTableRecord
  2
*D12
340
0
  0
BLOCK_RECORD
  5
2E
100
AcDbSymbolTableRecord
100
AcDbBlockTableRecord
  2
*D13
340
0
  0
BLOCK_RECORD
  5
2F
100
AcDbSymbolTableRecord
100
AcDbBlockTableRecord
  2
*D14
340
0
  0
BLOCK_RECORD
  5
30
100
AcDbSymbolTableRecord
100
AcDbBlockTableRecord
  2
グループ-1
340
0
102
{BLKREFS
331
156
102
}
  0
BLOCK_RECORD
  5
31
100
AcDbSymbolTableRecord
100
AcDbBlockTableRecord
  2
グループ-2
340
0
102
{BLKREFS
331
158
102
}
  0
ENDTAB
  0
ENDSEC
  0
SECTION
  2
BLOCKS
  0
BLOCK
  5
D
100
AcDbEntity
  8
0
390
0
100
AcDbBlockBegin
  2
*MODEL_SPACE
 70
               0
 10
0.0
 20
0.0
 30
0.0
  3
*MODEL_SPACE
  1

  0
ENDBLK
  5
E
100
AcDbEntity
  8
0
390
0
100
AcDbBlockEnd
  0
BLOCK
  5
F
100
AcDbEntity
 67
               1
  8
0
390
0
100
AcDbBlockBegin
  2
*PAPER_SPACE
 70
               0
 10
0.0
 20
0.0
 30
0.0
  3
*PAPER_SPACE
  1

  0
ENDBLK
  5
10
100
AcDbEntity
 67
               1
  8
0
390
0
100
AcDbBlockEnd
  0
BLOCK
  5
43
100
AcDbEntity
  8
0
390
0
100
AcDbBlockBegin
  2
_DOT
 70
               0
 10
0.0
 20
0.0
 30
0.0
  3
_DOT
  1

  0
POLYLINE
  5
44
100
AcDbEntity
  8
0
370
              -2
390
0
  6
ByBlock
 62
               0
100
AcDb2dPolyline
 66
               1
 10
0.0
 20
0.0
 30
0.0
 70
               1
 40
0.5
 41
0.5
  0
VERTEX
  5
45
100
AcDbEntity
  8
0
370
              -2
390
0
  6
ByBlock
 62
               0
100
AcDbVertex
100
AcDb2dVertex
 10
-0.25
 20
0.0
 30
0.0
 42
1.0
  0
VERTEX
  5
46
100
AcDbEntity
  8
0
370
              -2
390
0
  6
ByBlock
 62
               0
100
AcDbVertex
100
AcDb2dVertex
 10
0.25
 20
0.0
 30
0.0
 42
1.0
  0
SEQEND
  5
47
100
AcDbEntity
  8
0
390
0
  0
LINE
  5
48
100
AcDbEntity
  8
0
370
              -2
390
0
  6
ByBlock
 62
               0
100
AcDbLine
 10
-0.5
 20
0.0
 30
0.0
 11
-1.0
 21
0.0
 31
0.0
  0
ENDBLK
  5
49
100
AcDbEntity
  8
0
390
0
100
AcDbBlockEnd
  0
BLOCK
  5
4C
100
AcDbEntity
  8
0
370
              -2
390
0
  6
ByBlock
 62
               0
100
AcDbBlockBegin
  2
VW_FILLEDARROW
 70
               0
 10
0.0
 20
0.0
 30
0.0
  3
VW_FILLEDARROW
  1

  0
SOLID
  5
4D
100
AcDbEntity
  8
0
370
              -2
390
0
 62
               0
100
AcDbTrace
 10
0.0
 20
0.0
 30
0.0
 11
-0.9921874999999999
 21
-0.2658558393652545
 31
0.0
 12
-0.9921874999999999
 22
0.2658558393652548
 32
0.0
 13
-0.9921874999999999
 23
0.2658558393652548
 33
0.0
  0
ENDBLK
  5
4E
100
AcDbEntity
  8
0
390
0
100
AcDbBlockEnd
  0
BLOCK
  5
50
100
AcDbEntity
  8
template
390
0
100
AcDbBlockBegin
  2
グループ
 70
               0
 10
0.0
 20
0.0
 30
0.0
  3
グループ
  1

  0
LWPOLYLINE
  5
51
100
AcDbEntity
  8
0
370
              15
390
0
  6
Continuous
 62
               7
100
AcDbPolyline
 90
        8
 70
             129
 10
887.42850780307481
 20
-1334.4897210236859
 10
887.42850780307481
 20
-1340.4871097172618
 10
877.92731088507151
 20
-1340.4871097172618
 10
877.92731088507151
 20
-1364.9380729807706
 10
869.57193362328871
 20
-1364.9380729807706
 10
869.57193362328871
 20
-1340.4871097172618
 10
860.23897667697929
 20
-1340.4871097172618
 10
860.23897667697929
 20
-1334.4897210236859
  0
LWPOLYLINE
  5
52
100
AcDbEntity
  8
0
370
              15
390
0
  6
Continuous
 62
               7
100
AcDbPolyline
 90
      101
 70
             128
 10
900.15679963363175
 20
-1335.2179695166224
 10
900.17214966241681
 20
-1335.2136087599372
 42
-0.0222221607812452
 10
900.46215423908779
 20
-1335.1449842946927
 10
900.47794800307383
 20
-1335.1419808715971
 42
-0.0146883565588934
 10
900.74065070830557
 20
-1335.0999776846463
 42
-0.0127458844187264
 10
901.00528967545358
 20
-1335.0724407165742
 10
901.06774475377142
 20
-1335.0675472939856
 42
-0.0198099018564238
 10
901.45859386324787
 20
-1335.0524621365889
 10
901.51040533269202
 20
-1335.052515912254
 42
-0.014761738276327
 10
902.00502879366297
 20
-1335.0676359374988
 10
902.07772024854614
 20
-1335.072008544387
 42
-0.0162624549002029
 10
902.46787387800578
 20
-1335.108241419659
 10
902.58940626927017
 20
-1335.1235279786561
 42
-0.0080020874659354
 10
902.73498530035658
 20
-1335.1442108259239
 10
902.77330477094858
 20
-1335.1502821037345
 42
-0.0053821929678317
 10
902.84178887626638
 20
-1335.1618896275565
 10
902.11538317706777
 20
-1337.3428180832705
 42
0.01086677573739
 10
902.04806610694311
 20
-1337.3296309680516
 10
902.01059808374748
 20
-1337.3231332254561
 42
0.0170663203307341
 10
901.8673812968334
 20
-1337.3033036281645
 10
901.79950596414892
 20
-1337.2962564575769
 42
0.022016237527672
 10
901.51912655629246
 20
-1337.2795740968068
 10
901.44127098924127
 20
-1337.2783747295402
 42
0.028260691578763
 10
901.10563466566362
 20
-1337.2921780065094
 10
901.06172139189073
 20
-1337.2964779965132
 42
0.0169677213689564
 10
900.8157968969324
 20
-1337.3290150460648
 42
0.0190576269861447
 10
900.57288893435577
 20
-1337.3791619181704
 10
900.56662974624146
 20
-1337.3807048922806
 42
0.0213685642848188
 10
900.31624526176222
 20
-1337.4539051773859
 10
900.3107553668475
 20
-1337.4557681734445
 42
0.0237595297595475
 10
900.05726048195015
 20
-1337.5554526953395
 10
900.05215840791914
 20
-1337.5577444708183
 42
0.0261857468820483
 10
899.79998763169021
 20
-1337.6872808081923
 10
899.78956144260201
 20
-1337.6933462826614
 42
0.0272553062022719
 10
899.55313166736369
 20
-1337.8487184886053
 10
899.51836865385451
 20
-1337.8743796366973
 42
0.03259968931689
 10
899.36821331020269
 20
-1338.001127509669
 10
899.34450388107882
 20
-1338.0239455381825
 42
0.0138050960634597
 10
899.25262072486953
 20
-1338.1173951997334
 42
0.0125280103795566
 10
899.16577819203962
 20
-1338.2155585263292
 10
899.14209774712765
 20
-1338.2437170245209
 42
0.0205218024740018
 10
899.01699767161551
 20
-1338.4055103387479
 10
898.99453133112684
 20
-1338.437170068577
 42
0.0163110129586428
 10
898.83882095187516
 20
-1338.6725005036476
 10
898.83609705582455
 20
-1338.6769242656324
 42
0.0131897341900631
 10
898.68929653491591
 20
-1338.930056358002
 10
898.68759643955218
 20
-1338.9331745971326
 42
0.0107895576063121
 10
898.54981973734573
 20
-1339.199389806759
 10
898.5490868478164
 20
-1339.2008840394142
 42
0.0091371507222248
 10
898.4206068991648
 20
-1339.4754092371782
 10
898.3908612677576
 20
-1339.5421157443325
 42
0.0135418326351088
 10
898.21914732868436
 20
-1339.9570535296054
 10
898.18554252025513
 20
-1340.0449196718735
 42
0.0092834542406019
 10
898.01431346033087
 20
-1340.5188181701878
 10
897.98869633262177
 20
-1340.5940592399559
 42
0.0054261043575737
 10
897.88105818432018
 20
-1340.9218232130465
 10
897.8635321980961
 20
-1340.9772113754241
 42
0.0008225090817605
 10
897.79486214631277
 20
-1341.1954801334257
 10
896.8101730143793
 20
-1344.2203714266823
 10
900.04279685445317
 20
-1344.2203714266823
 10
899.53860442459973
 20
-1346.1248497250347
 10
896.28254814261641
 20
-1346.1248497250347
 10
890.45339911026258
 20
-1364.9380727910395
 10
888.62830149995227
 20
-1364.9380727910395
 10
894.4629795354532
 20
-1346.1248497250347
 10
892.05786316641286
 20
-1346.1248497250347
 10
892.5620555962663
 20
-1344.2203714266823
 10
894.99060440721632
 20
-1344.2203714266823
 10
895.85075932540497
 20
-1341.5839584259834
 42
-0.0005863560652156
 10
895.88749400360086
 20
-1341.4671320057159
 10
895.96358183726886
 20
-1341.2261397063062
 42
-0.0087522378926788
 10
896.16304998072587
 20
-1340.6308636191593
 10
896.25531425614099
 20
-1340.3707234506417
 42
-0.0077400953830428
 10
896.51324791527031
 20
-1339.6777187730986
 10
896.52901288684905
 20
-1339.637287889713
 42
-0.0082369946330594
 10
896.77609735746114
 20
-1339.0332088235168
 42
-0.0085725238362489
 10
897.04334345346786
 20
-1338.4377827842213
 10
897.14497305447071
 20
-1338.2213616822462
 42
-0.0168109410597172
 10
897.43191748320146
 20
-1337.6601541561402
 10
897.55776087369225
 20
-1337.4331901230855
 42
-0.0007817726868056
 10
897.61204522371713
 20
-1337.3356458781118
 10
897.61217352972994
 20
-1337.3354161693833
 42
-0.0036626142161349
 10
897.6670613937556
 20
-1337.2388182894067
 42
-0.0080221150672844
 10
897.72418564916472
 20
-1337.1435390546499
 10
897.75488560052349
 20
-1337.0941481055315
 42
-0.0202139325568902
 10
897.88254134033173
 20
-1336.9061665048482
 10
897.93660880551784
 20
-1336.8330876406094
 42
-0.0249323791798366
 10
898.19577159923824
 20
-1336.5170423984537
 10
898.219911413364
 20
-1336.4904281255426
 42
-0.0242132121540895
 10
898.55959215490702
 20
-1336.1505446393378
 10
898.60750372765358
 20
-1336.1070355031552
 42
-0.0251017527859385
 10
898.8914854282973
 20
-1335.8740427573875
 10
898.89293090511035
 20
-1335.8729734998092
 42
-0.0130868069035934
 10
899.19119155506837
 20
-1335.6641930312662
 10
899.19275337421232
 20
-1335.6631595909905
 42
-0.0290329526388077
 10
899.50386451560439
 20
-1335.4823340893618
 10
899.53371007759426
 20
-1335.4672317065204
 42
-0.0160250190047949
 10
899.79961449135521
 20
-1335.3432155963092
 42
-0.0267600374780309
 10
900.07489056882525
 20
-1335.24246727576
 10
900.10162648834478
 20
-1335.2342747169348
 42
-0.0049981587669928
 10
900.15679963363175
 20
-1335.2179695166224
 42
-0.0049981587669928
  0
LWPOLYLINE
  5
53
100
AcDbEntity
  8
0
370
              15
390
0
  6
Continuous
 62
               7
100
AcDbPolyline
 90
      118
 70
             128
 10
919.97116719807866
 20
-1344.2943547545096
 10
921.84628912257813
 20
-1344.2943547545096
 10
921.00825021697824
 20
-1346.9759212809097
 42
-0.0010587229244717
 10
921.03970603257608
 20
-1346.939016747524
 10
921.09790012318217
 20
-1346.8710344913786
 42
-0.0071874740413046
 10
921.24827534127417
 20
-1346.7003937993563
 10
921.38999811454244
 20
-1346.5441576580365
 42
-0.0148118053513779
 10
921.84012740725132
 20
-1346.0765438120272
 10
921.92734974215728
 20
-1345.9911464911695
 42
-0.0086273358692718
 10
922.26289854316542
 20
-1345.6737708571534
 10
922.30673225939165
 20
-1345.6337212128201
 42
-0.0103138323115429
 10
922.56475596162477
 20
-1345.407558075482
 10
922.61053036796045
 20
-1345.3690760282145
 42
-0.0060206748564274
 10
922.78337843206407
 20
-1345.2272813774675
 10
922.78540956295512
 20
-1345.2256556718321
 42
-0.0067069027290416
 10
922.95770237761258
 20
-1345.0915050380413
 10
922.96025114354586
 20
-1345.0895748681605
 42
-0.0076184352049488
 10
923.13115640940987
 20
-1344.9641999929222
 42
-0.0089652861668072
 10
923.30611737214338
 20
-1344.84456673259
 10
923.34246909228841
 20
-1344.820655519107
 42
-0.0156916245939222
 10
923.5384285894495
 20
-1344.7003930326323
 42
-0.0023299011069693
 10
923.73869063340589
 20
-1344.5872150931043
 10
923.75407476580915
 20
-1344.5786150980266
 42
-0.0107669341481016
 10
923.98831159091708
 20
-1344.4542149646736
 10
924.0105763919853
 20
-1344.4429982147271
 42
-0.0078058045897393
 10
924.29416650993721
 20
-1344.3056367590891
 10
924.30407359764718
 20
-1344.3010276312202
 42
-0.0181829330470019
 10
924.61438300226393
 20
-1344.1701638901241
 10
924.66843844482628
 20
-1344.1496487701822
 42
-0.0208411536031712
 10
925.01752341227984
 20
-1344.0335583076881
 10
925.03187951240784
 20
-1344.0294398627343
 42
-0.022279981713889
 10
925.3605993063245
 20
-1343.9507982965943
 10
925.369488269567
 20
-1343.9490862860082
 42
-0.0215509523880639
 10
925.68595923784142
 20
-1343.9021705974747
 10
925.72844119889055
 20
-1343.8977330706839
 42
-0.0182545924872353
 10
925.96254997819551
 20
-1343.881889245293
 10
926.00195099454572
 20
-1343.8806647002136
 42
-0.0072962856529007
 10
926.15787387423256
 20
-1343.8780953716916
 10
926.18697354480855
 20
-1343.8780405362879
 42
-0.0059227516318757
 10
926.2847230439495
 20
-1343.8790142480784
 10
926.31396526146034
 20
-1343.8796520146825
 42
-0.0011833111901854
 10
926.35321654515383
 20
-1343.8806010189917
 10
925.55782994954666
 20
-1346.4193349640907
 42
0.0143932051598805
 10
925.53142856719546
 20
-1346.4091359940453
 10
925.52415659477879
 20
-1346.4065647751881
 42
0.0234388603530011
 10
925.48232572884706
 20
-1346.393945539473
 10
925.47364406593397
 20
-1346.3917645774677
 42
0.019916274298183
 10
925.41335523185228
 20
-1346.3791478421322
 10
925.39254129404776
 20
-1346.3756506427042
 42
0.0293643550666261
 10
925.28946643528752
 20
-1346.3645005970509
 10
925.26478125456833
 20
-1346.3632889800324
 42
0.0214606686863714
 10
925.11164033861519
 20
-1346.3623504196148
 10
925.10226842779787
 20
-1346.3626953311591
 42
0.0167564054173993
 10
924.93074823668678
 20
-1346.3747723735273
 10
924.92228844393048
 20
-1346.3756537139543
 42
0.0137677553240766
 10
924.73493513066455
 20
-1346.400403022498
 10
924.72758339115785
 20
-1346.4015809424659
 42
0.0118497261482254
 10
924.52708562705527
 20
-1346.4385982926551
 10
924.52093561980928
 20
-1346.4398851553751
 42
0.0106421143889724
 10
924.31005473252526
 20
-1346.4887175309498
 10
924.30514592413522
 20
-1346.489964873635
 42
0.0099746379706321
 10
924.08668745497073
 20
-1346.5501394019504
 10
924.02513941480242
 20
-1346.5684212805804
 42
0.0191613675859732
 10
923.68915495228691
 20
-1346.6823986608674
 10
923.60109517953742
 20
-1346.7160855711929
 42
0.0205274080144368
 10
923.21578840764073
 20
-1346.881913979018
 10
923.15813912565829
 20
-1346.9095819435906
 42
0.0181256912196064
 10
922.89986218499178
 20
-1347.0452657625683
 10
922.84690680168444
 20
-1347.0755833757792
 42
0.0140709242402873
 10
922.7019518670495
 20
-1347.1640780492173
 10
922.67570299843271
 20
-1347.1811348679316
 42
0.0086667884395987
 10
922.58677683688848
 20
-1347.2411375358156
 42
0.0036408192034625
 10
922.49934359883844
 20
-1347.30331839362
 10
922.46411672438649
 20
-1347.3287593395207
 42
0.0052260781272892
 10
922.30788802701056
 20
-1347.4440917261436
 10
922.29168117073573
 20
-1347.4563198367732
 42
0.0050024435898219
 10
922.10567782767976
 20
-1347.5996024050332
 10
922.09035967116176
 20
-1347.6116484274812
 42
0.013613871027649
 10
921.87991840284246
 20
-1347.7866149323893
 10
921.84625052704291
 20
-1347.8161939051088
 42
0.017281518691684
 10
921.58184698537809
 20
-1348.0651905777345
 10
921.57928463953772
 20
-1348.0677763948793
 42
0.0189403857992159
 10
921.3287028409577
 20
-1348.3405816596844
 10
921.29607134742764
 20
-1348.3789255911747
 42
0.0185044199499275
 10
921.10411490844263
 20
-1348.6221741723034
 42
0.0088565243898951
 10
920.9256548018152
 20
-1348.8756905924522
 10
920.91647682216569
 20
-1348.8892319722136
 42
0.0157195347234652
 10
920.73325621582853
 20
-1349.1787541815343
 10
920.687173273908
 20
-1349.2569063785377
 42
0.0095451879775554
 10
920.52208772376309
 20
-1349.5495010209065
 10
920.51093980483915
 20
-1349.570171693028
 42
0.0100351706251944
 10
920.3788960556742
 20
-1349.8272272535294
 42
0.0086935915418291
 10
920.25656490388019
 20
-1350.0890603989335
 10
920.25324416246565
 20
-1350.0965027219056
 42
0.0072580174866602
 10
920.13289771052291
 20
-1350.3770947134833
 10
920.1296360772144
 20
-1350.3850147395065
 42
0.0060005122616345
 10
920.01043540887065
 20
-1350.6846244101146
 10
920.00722443053007
 20
-1350.6929859380166
 42
0.0049017786975175
 10
919.88832427167199
 20
-1351.0119149186223
 10
919.88515846528219
 20
-1351.0206678558511
 42
0.0039415167599449
 10
919.76572218723106
 20
-1351.3592099182486
 10
919.76259108457339
 20
-1351.3683131191406
 42
0.0031035838769637
 10
919.64178629887556
 20
-1351.7267529809285
 10
919.63867625434989
 20
-1351.736173602289
 42
0.0025070747154479
 10
919.51577490303816
 20
-1352.1148208192214
 10
919.47848100660917
 20
-1352.2317124844858
 42
0.0029081910283904
 10
919.28646270880756
 20
-1352.8458761427471
 10
919.24565954028128
 20
-1352.9790993850534
 42
0.0009266453734212
 10
918.97724216592712
 20
-1353.8613238451076
 10
918.95635469334729
 20
-1353.9304357241422
 42
-0.0005809993666308
 10
918.67901801273479
 20
-1354.8442438308516
 10
918.61273621446219
 20
-1355.0617287630105
 42
-0.0012018708165088
 10
918.46575190503268
 20
-1355.539891427532
 10
918.41343205345208
 20
-1355.7086505684463
 42
-0.0002691059599173
 10
918.36986257229853
 20
-1355.8489181887398
 10
915.53690667400929
 20
-1364.9380727910395
 10
913.71891778203076
 20
-1364.9380727910395
 10
919.97116719807866
 20
-1344.2943547545096
  0
SPLINE
  5
54
100
AcDbEntity
  8
0
370
              15
390
0
  6
Continuous
 62
               7
100
AcDbSpline
210
0.0
220
0.0
230
1.0
 70
              13
 71
               2
 72
             782
 73
             779
 74
               0
 42
0.000001
 43
0.000001
 40
0.0
 40
0.0
 40
0.0
 40
1.0
 40
1.0
 40
2.0
 40
2.0
 40
3.0
 40
3.0
 40
4.0
 40
4.0
 40
5.0
 40
5.0
 40
6.0
 40
6.0
 40
7.0
 40
7.0
 40
8.0
 40
8.0
 40
9.0
 40
9.0
 40
10.0
 40
10.0
 40
11.0
 40
11.0
 40
12.0
 40
12.0
 40
13.0
 40
13.0
 40
14.0
 40
14.0
 40
15.0
 40
15.0
 40
16.0
 40
16.0
 40
17.0
 40
17.0
 40
18.0
 40
18.0
 40
19.0
 40
19.0
 40
20.0
 40
20.0
 40
21.0
 40
21.0
 40
22.0
 40
22.0
 40
23.0
 40
23.0
 40
24.0
 40
24.0
 40
25.0
 40
25.0
 40
26.0
 40
26.0
 40
27.0
 40
27.0
 40
28.0
 40
28.0
 40
29.0
 40
29.0
 40
30.0
 40
30.0
 40
31.0
 40
31.0
 40
32.0
 40
32.0
 40
33.0
 40
33.0
 40
34.0
 40
34.0
 40
35.0
 40
35.0
 40
36.0
 40
36.0
 40
37.0
 40
37.0
 40
38.0
 40
38.0
 40
39.0
 40
39.0
 40
40.0
 40
40.0
 40
41.0
 40
41.0
 40
42.0
 40
42.0
 40
43.0
 40
43.0
 40
44.0
 40
44.0
 40
45.0
 40
45.0
 40
46.0
 40
46.0
 40
47.0
 40
47.0
 40
48.0
 40
48.0
 40
49.0
 40
49.0
 40
50.0
 40
50.0
 40
51.0
 40
51.0
 40
52.0
 40
52.0
 40
53.0
 40
53.0
 40
54.0
 40
54.0
 40
55.0
 40
55.0
 40
56.0
 40
56.0
 40
57.0
 40
57.0
 40
58.0
 40
58.0
 40
59.0
 40
59.0
 40
60.0
 40
60.0
 40
61.0
 40
61.0
 40
62.0
 40
62.0
 40
63.0
 40
63.0
 40
64.0
 40
64.0
 40
65.0
 40
65.0
 40
66.0
 40
66.0
 40
67.0
 40
67.0
 40
68.0
 40
68.0
 40
69.0
 40
69.0
 40
70.0
 40
70.0
 40
71.0
 40
71.0
 40
72.0
 40
72.0
 40
73.0
 40
73.0
 40
74.0
 40
74.0
 40
75.0
 40
75.0
 40
76.0
 40
76.0
 40
77.0
 40
77.0
 40
78.0
 40
78.0
 40
79.0
 40
79.0
 40
80.0
 40
80.0
 40
81.0
 40
81.0
 40
82.0
 40
82.0
 40
83.0
 40
83.0
 40
84.0
 40
84.0
 40
85.0
 40
85.0
 40
86.0
 40
86.0
 40
87.0
 40
87.0
 40
88.0
 40
88.0
 40
89.0
 40
89.0
 40
90.0
 40
90.0
 40
91.0
 40
91.0
 40
92.0
 40
92.0
 40
93.0
 40
93.0
 40
94.0
 40
94.0
 40
95.0
 40
95.0
 40
96.0
 40
96.0
 40
97.0
 40
97.0
 40
98.0
 40
98.0
 40
99.0
 40
99.0
 40
100.0
 40
100.0
 40
101.0
 40
101.0
 40
102.0
 40
102.0
 40
103.0
 40
103.0
 40
104.0
 40
104.0
 40
105.0
 40
105.0
 40
106.0
 40
106.0
 40
107.0
 40
107.0
 40
108.0
 40
108.0
 40
109.0
 40
109.0
 40
110.0
 40
110.0
 40
111.0
 40
111.0
 40
112.0
 40
112.0
 40
113.0
 40
113.0
 40
114.0
 40
114.0
 40
115.0
 40
115.0
 40
116.0
 40
116.0
 40
117.0
 40
117.0
 40
118.0
 40
118.0
 40
119.0
 40
119.0
 40
120.0
 40
120.0
 40
121.0
 40
121.0
 40
122.0
 40
122.0
 40
123.0
 40
123.0
 40
124.0
 40
124.0
 40
125.0
 40
125.0
 40
126.0
 40
126.0
 40
127.0
 40
127.0
 40
128.0
 40
128.0
 40
129.0
 40
129.0
 40
130.0
 40
130.0
 40
131.0
 40
131.0
 40
132.0
 40
132.0
 40
133.0
 40
133.0
 40
134.0
 40
134.0
 40
135.0
 40
135.0
 40
136.0
 40
136.0
 40
137.0
 40
137.0
 40
138.0
 40
138.0
 40
139.0
 40
139.0
 40
140.0
 40
140.0
 40
141.0
 40
141.0
 40
142.0
 40
142.0
 40
143.0
 40
143.0
 40
144.0
 40
144.0
 40
145.0
 40
145.0
 40
146.0
 40
146.0
 40
147.0
 40
147.0
 40
148.0
 40
148.0
 40
149.0
 40
149.0
 40
150.0
 40
150.0
 40
151.0
 40
151.0
 40
152.0
 40
152.0
 40
153.0
 40
153.0
 40
154.0
 40
154.0
 40
155.0
 40
155.0
 40
156.0
 40
156.0
 40
157.0
 40
157.0
 40
158.0
 40
158.0
 40
159.0
 40
159.0
 40
160.0
 40
160.0
 40
161.0
 40
161.0
 40
162.0
 40
162.0
 40
163.0
 40
163.0
 40
164.0
 40
164.0
 40
165.0
 40
165.0
 40
166.0
 40
166.0
 40
167.0
 40
167.0
 40
168.0
 40
168.0
 40
169.0
 40
169.0
 40
170.0
 40
170.0
 40
171.0
 40
171.0
 40
172.0
 40
172.0
 40
173.0
 40
173.0
 40
174.0
 40
174.0
 40
175.0
 40
175.0
 40
176.0
 40
176.0
 40
177.0
 40
177.0
 40
178.0
 40
178.0
 40
179.0
 40
179.0
 40
180.0
 40
180.0
 40
181.0
 40
181.0
 40
182.0
 40
182.0
 40
183.0
 40
183.0
 40
184.0
 40
184.0
 40
185.0
 40
185.0
 40
186.0
 40
186.0
 40
187.0
 40
187.0
 40
188.0
 40
188.0
 40
189.0
 40
189.0
 40
190.0
 40
190.0
 40
191.0
 40
191.0
 40
192.0
 40
192.0
 40
193.0
 40
193.0
 40
194.0
 40
194.0
 40
195.0
 40
195.0
 40
196.0
 40
196.0
 40
197.0
 40
197.0
 40
198.0
 40
198.0
 40
199.0
 40
199.0
 40
200.0
 40
200.0
 40
201.0
 40
201.0
 40
202.0
 40
202.0
 40
203.0
 40
203.0
 40
204.0
 40
204.0
 40
205.0
 40
205.0
 40
206.0
 40
206.0
 40
207.0
 40
207.0
 40
208.0
 40
208.0
 40
209.0
 40
209.0
 40
210.0
 40
210.0
 40
211.0
 40
211.0
 40
212.0
 40
212.0
 40
213.0
 40
213.0
 40
214.0
 40
214.0
 40
215.0
 40
215.0
 40
216.0
 40
216.0
 40
217.0
 40
217.0
 40
218.0
 40
218.0
 40
219.0
 40
219.0
 40
220.0
 40
220.0
 40
221.0
 40
221.0
 40
222.0
 40
222.0
 40
223.0
 40
223.0
 40
224.0
 40
224.0
 40
225.0
 40
225.0
 40
226.0
 40
226.0
 40
227.0
 40
227.0
 40
228.0
 40
228.0
 40
229.0
 40
229.0
 40
230.0
 40
230.0
 40
231.0
 40
231.0
 40
232.0
 40
232.0
 40
233.0
 40
233.0
 40
234.0
 40
234.0
 40
235.0
 40
235.0
 40
236.0
 40
236.0
 40
237.0
 40
237.0
 40
238.0
 40
238.0
 40
239.0
 40
239.0
 40
240.0
 40
240.0
 40
241.0
 40
241.0
 40
242.0
 40
242.0
 40
243.0
 40
243.0
 40
244.0
 40
244.0
 40
245.0
 40
245.0
 40
246.0
 40
246.0
 40
247.0
 40
247.0
 40
248.0
 40
248.0
 40
249.0
 40
249.0
 40
250.0
 40
250.0
 40
251.0
 40
251.0
 40
252.0
 40
252.0
 40
253.0
 40
253.0
 40
254.0
 40
254.0
 40
255.0
 40
255.0
 40
256.0
 40
256.0
 40
257.0
 40
257.0
 40
258.0
 40
258.0
 40
259.0
 40
259.0
 40
260.0
 40
260.0
 40
261.0
 40
261.0
 40
262.0
 40
262.0
 40
263.0
 40
263.0
 40
264.0
 40
264.0
 40
265.0
 40
265.0
 40
266.0
 40
266.0
 40
267.0
 40
267.0
 40
268.0
 40
268.0
 40
269.0
 40
269.0
 40
270.0
 40
270.0
 40
271.0
 40
271.0
 40
272.0
 40
272.0
 40
273.0
 40
273.0
 40
274.0
 40
274.0
 40
275.0
 40
275.0
 40
276.0
 40
276.0
 40
277.0
 40
277.0
 40
278.0
 40
278.0
 40
279.0
 40
279.0
 40
280.0
 40
280.0
 40
281.0
 40
281.0
 40
282.0
 40
282.0
 40
283.0
 40
283.0
 40
284.0
 40
284.0
 40
285.0
 40
285.0
 40
286.0
 40
286.0
 40
287.0
 40
287.0
 40
288.0
 40
288.0
 40
289.0
 40
289.0
 40
290.0
 40
290.0
 40
291.0
 40
291.0
 40
292.0
 40
292.0
 40
293.0
 40
293.0
 40
294.0
 40
294.0
 40
295.0
 40
295.0
 40
296.0
 40
296.0
 40
297.0
 40
297.0
 40
298.0
 40
298.0
 40
299.0
 40
299.0
 40
300.0
 40
300.0
 40
301.0
 40
301.0
 40
302.0
 40
302.0
 40
303.0
 40
303.0
 40
304.0
 40
304.0
 40
305.0
 40
305.0
 40
306.0
 40
306.0
 40
307.0
 40
307.0
 40
308.0
 40
308.0
 40
309.0
 40
309.0
 40
310.0
 40
310.0
 40
311.0
 40
311.0
 40
312.0
 40
312.0
 40
313.0
 40
313.0
 40
314.0
 40
314.0
 40
315.0
 40
315.0
 40
316.0
 40
316.0
 40
317.0
 40
317.0
 40
318.0
 40
318.0
 40
319.0
 40
319.0
 40
320.0
 40
320.0
 40
321.0
 40
321.0
 40
322.0
 40
322.0
 40
323.0
 40
323.0
 40
324.0
 40
324.0
 40
325.0
 40
325.0
 40
326.0
 40
326.0
 40
327.0
 40
327.0
 40
328.0
 40
328.0
 40
329.0
 40
329.0
 40
330.0
 40
330.0
 40
331.0
 40
331.0
 40
332.0
 40
332.0
 40
333.0
 40
333.0
 40
334.0
 40
334.0
 40
335.0
 40
335.0
 40
336.0
 40
336.0
 40
337.0
 40
337.0
 40
338.0
 40
338.0
 40
339.0
 40
339.0
 40
340.0
 40
340.0
 40
341.0
 40
341.0
 40
342.0
 40
342.0
 40
343.0
 40
343.0
 40
344.0
 40
344.0
 40
345.0
 40
345.0
 40
346.0
 40
346.0
 40
347.0
 40
347.0
 40
348.0
 40
348.0
 40
349.0
 40
349.0
 40
350.0
 40
350.0
 40
351.0
 40
351.0
 40
352.0
 40
352.0
 40
353.0
 40
353.0
 40
354.0
 40
354.0
 40
355.0
 40
355.0
 40
356.0
 40
356.0
 40
357.0
 40
357.0
 40
358.0
 40
358.0
 40
359.0
 40
359.0
 40
360.0
 40
360.0
 40
361.0
 40
361.0
 40
362.0
 40
362.0
 40
363.0
 40
363.0
 40
364.0
 40
364.0
 40
365.0
 40
365.0
 40
366.0
 40
366.0
 40
367.0
 40
367.0
 40
368.0
 40
368.0
 40
369.0
 40
369.0
 40
370.0
 40
370.0
 40
371.0
 40
371.0
 40
372.0
 40
372.0
 40
373.0
 40
373.0
 40
374.0
 40
374.0
 40
375.0
 40
375.0
 40
376.0
 40
376.0
 40
377.0
 40
377.0
 40
378.0
 40
378.0
 40
379.0
 40
379.0
 40
380.0
 40
380.0
 40
381.0
 40
381.0
 40
382.0
 40
382.0
 40
383.0
 40
383.0
 40
384.0
 40
384.0
 40
385.0
 40
385.0
 40
386.0
 40
386.0
 40
387.0
 40
387.0
 40
388.0
 40
388.0
 40
389.0
 40
389.0
 40
389.0
 10
930.29987164881129
 20
-1344.2834283911473
 30
0.0
 41
1.0
 10
931.11829575753177
 20
-1344.2834283911473
 30
0.0
 41
1.0
 10
931.93671986625225
 20
-1344.2834283911473
 30
0.0
 41
1.0
 10
931.52296613073554
 20
-1345.626054655397
 30
0.0
 41
1.0
 10
931.10921239521872
 20
-1346.9686809196467
 30
0.0
 41
1.0
 10
931.12755189037239
 20
-1346.9399801467571
 30
0.0
 41
0.9999957264353334
 10
931.14605888718984
 20
-1346.9113870966273
 30
0.0
 41
1.0
 10
931.17648821134094
 20
-1346.8643742182301
 30
0.0
 41
1.0
 10
931.20691753549204
 20
-1346.8173613398328
 30
0.0
 41
1.0
 10
931.28628318059964
 20
-1346.6947425329274
 30
0.0
 41
0.9995394069080855
 10
931.37294157215149
 20
-1346.5771644711858
 30
0.0
 41
1.0
 10
931.40869843441078
 20
-1346.5286495785929
 30
0.0
 41
1.0
 10
931.44445529667007
 20
-1346.4801346859999
 30
0.0
 41
1.0
 10
931.57818196448875
 20
-1346.2986944108727
 30
0.0
 41
0.9994460617143494
 10
931.72368244577569
 20
-1346.1265520132242
 30
0.0
 41
1.0
 10
931.72807062674997
 20
-1346.1213603328424
 30
0.0
 41
1.0
 10
931.73245880772436
 20
-1346.1161686524608
 30
0.0
 41
1.0
 10
931.86918292706207
 20
-1345.9544096155764
 30
0.0
 41
0.9994359394933763
 10
932.01645715741506
 20
-1345.8021934144101
 30
0.0
 41
1.0
 10
932.01884051137063
 20
-1345.7997300840348
 30
0.0
 41
1.0
 10
932.02122386532608
 20
-1345.7972667536592
 30
0.0
 41
1.0
 10
932.1637313877693
 20
-1345.6499772132429
 30
0.0
 41
0.9995293688567944
 10
932.31500306874864
 20
-1345.5117040010814
 30
0.0
 41
1.0
 10
932.33429682801261
 20
-1345.4940681154296
 30
0.0
 41
1.0
 10
932.35359058727659
 20
-1345.4764322297779
 30
0.0
 41
1.0
 10
932.46627474973218
 20
-1345.373430788916
 30
0.0
 41
0.999708761480295
 10
932.58379763868584
 20
-1345.2759865081193
 30
0.0
 41
1.0
 10
932.60296371186837
 20
-1345.2600949296057
 30
0.0
 41
1.0
 10
932.62212978505079
 20
-1345.244203351092
 30
0.0
 41
1.0
 10
932.70132052765098
 20
-1345.1785422273133
 30
0.0
 41
0.9999595338700135
 10
932.78167979849604
 20
-1345.1143164966666
 30
0.0
 41
1.0
 10
932.86203906934838
 20
-1345.0500907660137
 30
0.0
 41
0.9999749417498401
 10
932.943299603691
 20
-1344.987009212068
 30
0.0
 41
1.0
 10
932.96428574986589
 20
-1344.9707179247566
 30
0.0
 41
1.0
 10
932.98527189604079
 20
-1344.9544266374453
 30
0.0
 41
1.0
 10
933.06983978133303
 20
-1344.8887776276119
 30
0.0
 41
0.9999792037130209
 10
933.15524738109707
 20
-1344.8242248459724
 30
0.0
 41
1.0
 10
933.1760722070195
 20
-1344.8084850237065
 30
0.0
 41
1.0
 10
933.19689703294193
 20
-1344.7927452014403
 30
0.0
 41
1.0
 10
933.24065498087236
 20
-1344.7596720643246
 30
0.0
 41
0.9999993373740191
 10
933.28433666700971
 20
-1344.7264982689048
 30
0.0
 41
1.0
 10
933.3280183531507
 20
-1344.6933244734823
 30
0.0
 41
0.9999160953816699
 10
933.37254476406838
 20
-1344.6612934082855
 30
0.0
 41
1.0
 10
933.40536665148989
 20
-1344.6376822526991
 30
0.0
 41
1.0
 10
933.4381885389115
 20
-1344.6140710971126
 30
0.0
 41
1.0
 10
933.54835872466924
 20
-1344.5348177207452
 30
0.0
 41
0.9980964527231613
 10
933.66744771817002
 20
-1344.4697302478892
 30
0.0
 41
1.0
 10
933.70448032509717
 20
-1344.4494902682964
 30
0.0
 41
1.0
 10
933.74151293202442
 20
-1344.4292502887038
 30
0.0
 41
1.0
 10
933.92083994529833
 20
-1344.3312400380021
 30
0.0
 41
0.9984572810572789
 10
934.10992851165884
 20
-1344.2537177766549
 30
0.0
 41
1.0
 10
934.1135747810539
 20
-1344.2522228843172
 30
0.0
 41
1.0
 10
934.11722105044896
 20
-1344.2507279919796
 30
0.0
 41
1.0
 10
934.29901707801707
 20
-1344.1761955153088
 30
0.0
 41
0.9987838528033893
 10
934.48726973657699
 20
-1344.1199298751428
 30
0.0
 41
1.0
 10
934.49150768577658
 20
-1344.1186632214524
 30
0.0
 41
1.0
 10
934.49574563497617
 20
-1344.1173965677619
 30
0.0
 41
1.0
 10
934.67552239513714
 20
-1344.0636642349768
 30
0.0
 41
0.999065281620722
 10
934.85926832685209
 20
-1344.025660555435
 30
0.0
 41
1.0
 10
934.86445672788182
 20
-1344.0245874523289
 30
0.0
 41
1.0
 10
934.86964512891166
 20
-1344.0235143492228
 30
0.0
 41
1.0
 10
935.04301425856659
 20
-1343.9876568758932
 30
0.0
 41
0.9992909934270359
 10
935.21859002502629
 20
-1343.9649464434265
 30
0.0
 41
1.0
 10
935.39416579148281
 20
-1343.94223601096
 30
0.0
 41
0.9994553539448302
 10
935.57085722457441
 20
-1343.9311567067539
 30
0.0
 41
1.0
 10
935.60629163237172
 20
-1343.928934818706
 30
0.0
 41
1.0
 10
935.64172604016903
 20
-1343.9267129306581
 30
0.0
 41
1.0
 10
935.80795180673806
 20
-1343.9162898682464
 30
0.0
 41
0.999092809829273
 10
935.97446159864103
 20
-1343.920049509481
 30
0.0
 41
1.0
 10
936.01302343391387
 20
-1343.920920201014
 30
0.0
 41
1.0
 10
936.05158526918672
 20
-1343.9217908925471
 30
0.0
 41
1.0
 10
936.14097139054468
 20
-1343.9238091507154
 30
0.0
 41
0.999838208920621
 10
936.23022707332984
 20
-1343.9290412772434
 30
0.0
 41
1.0
 10
936.23065697954735
 20
-1343.9290664781456
 30
0.0
 41
1.0
 10
936.23108688576485
 20
-1343.9290916790476
 30
0.0
 41
1.0
 10
936.31948275611376
 20
-1343.9342734037714
 30
0.0
 41
0.9997558016759435
 10
936.40756333331683
 20
-1343.943355919138
 30
0.0
 41
1.0
 10
936.40803947174277
 20
-1343.9434050166201
 30
0.0
 41
1.0
 10
936.40851561016859
 20
-1343.9434541141022
 30
0.0
 41
1.0
 10
936.49564391051354
 20
-1343.9524384345038
 30
0.0
 41
0.9996565144182056
 10
936.58218176385981
 20
-1343.9659757411937
 30
0.0
 41
1.0
 10
936.58264768923641
 20
-1343.9660486269249
 30
0.0
 41
1.0
 10
936.5831136146129
 20
-1343.9661215126562
 30
0.0
 41
1.0
 10
936.66871961720074
 20
-1343.9795130478824
 30
0.0
 41
0.9995321806866535
 10
936.75334669752976
 20
-1343.9981135363118
 30
0.0
 41
1.0
 10
936.75373589210335
 20
-1343.9981990787783
 30
0.0
 41
1.0
 10
936.75412508667705
 20
-1343.9982846212445
 30
0.0
 41
1.0
 10
936.83797377785925
 20
-1344.0167140247415
 30
0.0
 41
0.9993819199219618
 10
936.92032031205395
 20
-1344.0409894080017
 30
0.0
 41
1.0
 10
936.92055874555274
 20
-1344.0410596971112
 30
0.0
 41
1.0
 10
936.92079717905153
 20
-1344.0411299862208
 30
0.0
 41
1.0
 10
937.00266684625024
 20
-1344.0652647912625
 30
0.0
 41
0.9992088568505916
 10
937.0823593652384
 20
-1344.0958300270568
 30
0.0
 41
1.0
 10
937.16204035611736
 20
-1344.1263896277901
 30
0.0
 41
0.9990226101773474
 10
937.23871102602459
 20
-1344.1638670594048
 30
0.0
 41
1.0
 10
937.31537016782215
 20
-1344.2013388559576
 30
0.0
 41
0.9988424273972117
 10
937.38807379503419
 20
-1344.2460036312104
 30
0.0
 41
1.0
 10
937.38834150341393
 20
-1344.2461680952829
 30
0.0
 41
1.0
 10
937.38860921179366
 20
-1344.2463325593553
 30
0.0
 41
1.0
 10
937.46184825576449
 20
-1344.2913262627528
 30
0.0
 41
0.9986928844491282
 10
937.53011112247418
 20
-1344.3435619970323
 30
0.0
 41
1.0
 10
937.530692414697
 20
-1344.3440068102602
 30
0.0
 41
1.0
 10
937.53127370691982
 20
-1344.3444516234881
 30
0.0
 41
1.0
 10
937.60069915807503
 20
-1344.3975769842236
 30
0.0
 41
0.998600726227902
 10
937.66412532784193
 20
-1344.4577377539172
 30
0.0
 41
1.0
 10
937.66501974329913
 20
-1344.4585861217522
 30
0.0
 41
1.0
 10
937.66591415875632
 20
-1344.4594344895872
 30
0.0
 41
1.0
 10
937.73112915943716
 20
-1344.5212919949508
 30
0.0
 41
0.9985581491382038
 10
937.78933677113901
 20
-1344.5897844852225
 30
0.0
 41
1.0
 10
937.79859522473487
 20
-1344.6006788429243
 30
0.0
 41
1.0
 10
937.80785367833073
 20
-1344.611573200626
 30
0.0
 41
1.0
 10
937.8845781972235
 20
-1344.7018544063005
 30
0.0
 41
0.9970460233520153
 10
937.94657009838295
 20
-1344.8028214904823
 30
0.0
 41
1.0
 10
937.96103946346238
 20
-1344.8263879495635
 30
0.0
 41
1.0
 10
937.97550882854193
 20
-1344.8499544086444
 30
0.0
 41
1.0
 10
938.0152455285546
 20
-1344.9146741326767
 30
0.0
 41
0.9988468816636342
 10
938.0485918993063
 20
-1344.9829065851047
 30
0.0
 41
1.0
 10
938.05562792179842
 20
-1344.9973035062435
 30
0.0
 41
1.0
 10
938.06266394429053
 20
-1345.011700427382
 30
0.0
 41
1.0
 10
938.08193827005812
 20
-1345.0511390375332
 30
0.0
 41
0.9998431189996929
 10
938.09980359755286
 20
-1345.0912355919731
 30
0.0
 41
1.0
 10
938.11766892508149
 20
-1345.1313321464893
 30
0.0
 41
0.9999989990028213
 10
938.13564764851083
 20
-1345.1713779840891
 30
0.0
 41
1.0
 10
938.1418199600846
 20
-1345.1851262008558
 30
0.0
 41
1.0
 10
938.14799227165827
 20
-1345.1988744176228
 30
0.0
 41
1.0
 10
938.17831561826858
 20
-1345.2664166888314
 30
0.0
 41
0.9998790356321278
 10
938.20652349840657
 20
-1345.3348694407691
 30
0.0
 41
1.0
 10
938.2133586796906
 20
-1345.3514565421956
 30
0.0
 41
1.0
 10
938.22019386097452
 20
-1345.3680436436221
 30
0.0
 41
1.0
 10
938.24375152335631
 20
-1345.4252115985112
 30
0.0
 41
0.9998227574561287
 10
938.26514027174494
 20
-1345.4832259067871
 30
0.0
 41
1.0
 10
938.28652902013437
 20
-1345.5412402150646
 30
0.0
 41
0.9996797971040683
 10
938.30495530509347
 20
-1345.6002623341826
 30
0.0
 41
1.0
 10
938.30885910781899
 20
-1345.6127667923515
 30
0.0
 41
1.0
 10
938.31276291054451
 20
-1345.6252712505204
 30
0.0
 41
1.0
 10
938.33899680095487
 20
-1345.7093022859765
 30
0.0
 41
0.9979274938734355
 10
938.35422132443409
 20
-1345.7960066446369
 30
0.0
 41
1.0
 10
938.35644501169486
 20
-1345.808670645456
 30
0.0
 41
1.0
 10
938.35866869895574
 20
-1345.8213346462751
 30
0.0
 41
1.0
 10
938.36959863865468
 20
-1345.8835811535689
 30
0.0
 41
0.9994985982137418
 10
938.37656680383157
 20
-1345.9463946547112
 30
0.0
 41
1.0
 10
938.38353496900834
 20
-1346.0092081558485
 30
0.0
 41
0.9996372611200992
 10
938.38711083477608
 20
-1346.0723057345308
 30
0.0
 41
1.0
 10
938.38727941226557
 20
-1346.0752803516152
 30
0.0
 41
1.0
 10
938.38744798975495
 20
-1346.0782549686999
 30
0.0
 41
1.0
 10
938.39136101050121
 20
-1346.1473017815445
 30
0.0
 41
0.9997730630736238
 10
938.39232932398932
 20
-1346.2164526055763
 30
0.0
 41
1.0
 10
938.39238643040744
 20
-1346.22053078472
 30
0.0
 41
1.0
 10
938.39244353682557
 20
-1346.2246089638638
 30
0.0
 41
1.0
 10
938.39352606314981
 20
-1346.3019161461852
 30
0.0
 41
0.9998772614069083
 10
938.39218597641798
 20
-1346.3792192927531
 30
0.0
 41
1.0
 10
938.3920967132193
 20
-1346.3843684565845
 30
0.0
 41
1.0
 10
938.39200745002063
 20
-1346.389517620416
 30
0.0
 41
1.0
 10
938.39048883689145
 20
-1346.4771190946506
 30
0.0
 41
0.9999415567326905
 10
938.38707652664505
 20
-1346.5646672563362
 30
0.0
 41
1.0
 10
938.38683520596987
 20
-1346.570858716068
 30
0.0
 41
1.0
 10
938.38659388529481
 20
-1346.5770501758
 30
0.0
 41
1.0
 10
938.38269893369795
 20
-1346.6769812569587
 30
0.0
 41
0.9999716810434098
 10
938.37730035057973
 20
-1346.7768423951793
 30
0.0
 41
1.0
 10
938.37408755179104
 20
-1346.8362716448339
 30
0.0
 41
1.0
 10
938.37087475300245
 20
-1346.8957008944885
 30
0.0
 41
1.0
 10
938.36280084384975
 20
-1347.0450492957716
 30
0.0
 41
0.9999819129906373
 10
938.35293105223286
 20
-1347.1942897734855
 30
0.0
 41
1.0
 10
938.34306126061631
 20
-1347.3435302511969
 30
0.0
 41
1.0
 10
938.34062194005242
 20
-1347.3807232970462
 30
0.0
 41
1.0
 10
938.36332017388281
 20
-1347.3419822997175
 30
0.0
 41
0.9999982127994569
 10
938.38616473264733
 20
-1347.3033274057443
 30
0.0
 41
1.0
 10
938.41307429252788
 20
-1347.2577941916961
 30
0.0
 41
1.0
 10
938.43998385240855
 20
-1347.2122609776482
 30
0.0
 41
1.0
 10
938.51664753093405
 20
-1347.082539655579
 30
0.0
 41
0.9998609190057378
 10
938.59759484379663
 20
-1346.9554472736486
 30
0.0
 41
1.0
 10
938.6272431652792
 20
-1346.9088975406898
 30
0.0
 41
1.0
 10
938.65689148676188
 20
-1346.8623478077313
 30
0.0
 41
1.0
 10
938.7391637069984
 20
-1346.7331752377372
 30
0.0
 41
0.99990676097348
 10
938.82493271646081
 20
-1346.6062975482982
 30
0.0
 41
1.0
 10
938.82733741966047
 20
-1346.6027402822451
 30
0.0
 41
1.0
 10
938.82974212286013
 20
-1346.5991830161922
 30
0.0
 41
1.0
 10
938.91070172592117
 20
-1346.479419858862
 30
0.0
 41
0.9998784952150989
 10
938.99535533560618
 20
-1346.3622386421484
 30
0.0
 41
1.0
 10
939.08000894528686
 20
-1346.2450574254403
 30
0.0
 41
0.9998532968284253
 10
939.16862656610863
 20
-1346.1308445169711
 30
0.0
 41
1.0
 10
939.18858835510105
 20
-1346.1051171959493
 30
0.0
 41
1.0
 10
939.20855014409358
 20
-1346.0793898749273
 30
0.0
 41
1.0
 10
939.32703419385189
 20
-1345.9266842639597
 30
0.0
 41
0.9991551975795396
 10
939.45765864347482
 20
-1345.7842247018768
 30
0.0
 41
1.0
 10
939.46116825945319
 20
-1345.780397100254
 30
0.0
 41
1.0
 10
939.46467787543156
 20
-1345.7765694986313
 30
0.0
 41
1.0
 10
939.58828309309649
 20
-1345.6417651397951
 30
0.0
 41
0.9997418144181018
 10
939.71788523279884
 20
-1345.5127157291809
 30
0.0
 41
1.0
 10
939.84748737249879
 20
-1345.3836663185689
 30
0.0
 41
0.9989238204633436
 10
939.98848992074886
 20
-1345.2671813565307
 30
0.0
 41
1.0
 10
940.03373759888882
 20
-1345.2298013649215
 30
0.0
 41
1.0
 10
940.07898527702889
 20
-1345.1924213733125
 30
0.0
 41
1.0
 10
940.21922533425129
 20
-1345.0765663200209
 30
0.0
 41
0.9990825084096853
 10
940.36886526685498
 20
-1344.973137322188
 30
0.0
 41
1.0
 10
940.37891063090854
 20
-1344.9661941091108
 30
0.0
 41
1.0
 10
940.38895599496209
 20
-1344.9592508960336
 30
0.0
 41
1.0
 10
940.51850519945401
 20
-1344.8697083243583
 30
0.0
 41
0.9998164899825488
 10
940.65138940283521
 20
-1344.7851940828386
 30
0.0
 41
1.0
 10
940.6632349633619
 20
-1344.7776603163124
 30
0.0
 41
1.0
 10
940.67508052388871
 20
-1344.7701265497863
 30
0.0
 41
1.0
 10
940.78427360621254
 20
-1344.7006798413217
 30
0.0
 41
0.9997473449130691
 10
940.89647756346085
 20
-1344.6362108835067
 30
0.0
 41
1.0
 10
941.00868152070916
 20
-1344.5717419256916
 30
0.0
 41
0.9999327861147479
 10
941.12235013146881
 20
-1344.5098919340123
 30
0.0
 41
1.0
 10
941.12290213403207
 20
-1344.5095915753318
 30
0.0
 41
1.0
 10
941.12345413659523
 20
-1344.5092912166513
 30
0.0
 41
1.0
 10
941.23822675247948
 20
-1344.4468405076118
 30
0.0
 41
0.9996956420483157
 10
941.35594007832071
 20
-1344.3901270406363
 30
0.0
 41
1.0
 10
941.38638048321218
 20
-1344.3754610639071
 30
0.0
 41
1.0
 10
941.41682088810353
 20
-1344.3607950871778
 30
0.0
 41
1.0
 10
941.51979799484729
 20
-1344.3111814287342
 30
0.0
 41
0.9998070570175864
 10
941.6246443837905
 20
-1344.2656508418322
 30
0.0
 41
1.0
 10
941.72949077273347
 20
-1344.2201202549306
 30
0.0
 41
0.9997827436147611
 10
941.83614370934311
 20
-1344.1789990836187
 30
0.0
 41
1.0
 10
941.85536655897363
 20
-1344.1715875099867
 30
0.0
 41
1.0
 10
941.87458940860415
 20
-1344.1641759363547
 30
0.0
 41
1.0
 10
942.01968804447756
 20
-1344.1082316177778
 30
0.0
 41
0.9988031841976367
 10
942.16955840708204
 20
-1344.0667315536102
 30
0.0
 41
1.0
 10
942.19447565544601
 20
-1344.0598318078032
 30
0.0
 41
1.0
 10
942.2193929038101
 20
-1344.052932061996
 30
0.0
 41
1.0
 10
942.38666292945641
 20
-1344.0066139195894
 30
0.0
 41
0.9984748040550027
 10
942.55801983810409
 20
-1343.9790196873248
 30
0.0
 41
1.0
 10
942.56275897435319
 20
-1343.9782565268115
 30
0.0
 41
1.0
 10
942.56749811060229
 20
-1343.9774933662979
 30
0.0
 41
1.0
 10
942.72937674675313
 20
-1343.95142545506
 30
0.0
 41
0.9984436495479933
 10
942.89315149047775
 20
-1343.9435475012413
 30
0.0
 41
1.0
 10
942.91484869860903
 20
-1343.9425038140416
 30
0.0
 41
1.0
 10
942.93654590674032
 20
-1343.941460126842
 30
0.0
 41
1.0
 10
943.05692623420236
 20
-1343.9356695474225
 30
0.0
 41
0.9987954789335233
 10
943.17729447911233
 20
-1343.9417060751648
 30
0.0
 41
1.0
 10
943.19725927160812
 20
-1343.9427073195034
 30
0.0
 41
1.0
 10
943.21722406410402
 20
-1343.9437085638422
 30
0.0
 41
1.0
 10
943.29766272402367
 20
-1343.9477426029073
 30
0.0
 41
0.9997941595877502
 10
943.37787150211659
 20
-1343.9550366688281
 30
0.0
 41
1.0
 10
943.45808028021463
 20
-1343.9623307347497
 30
0.0
 41
0.9998589466236496
 10
943.53799882707324
 20
-1343.9723145892003
 30
0.0
 41
1.0
 10
943.57040502887787
 20
-1343.976362946119
 30
0.0
 41
1.0
 10
943.60281123068251
 20
-1343.9804113030377
 30
0.0
 41
1.0
 10
943.74754218115311
 20
-1343.998491871326
 30
0.0
 41
0.999349506324908
 10
943.89059342491794
 20
-1344.0269575810676
 30
0.0
 41
1.0
 10
943.92352712207162
 20
-1344.0335110442827
 30
0.0
 41
1.0
 10
943.95646081922541
 20
-1344.0400645074978
 30
0.0
 41
1.0
 10
944.0657546424286
 20
-1344.0618128416329
 30
0.0
 41
0.9996788715561211
 10
944.17380621438463
 20
-1344.0890706409959
 30
0.0
 41
1.0
 10
944.17586921692418
 20
-1344.089591067569
 30
0.0
 41
1.0
 10
944.17793221946386
 20
-1344.0901114941421
 30
0.0
 41
1.0
 10
944.28185778634179
 20
-1344.1163284403592
 30
0.0
 41
0.9995480654492639
 10
944.38402002157045
 20
-1344.1487433969833
 30
0.0
 41
1.0
 10
944.38570966369957
 20
-1344.1492795018971
 30
0.0
 41
1.0
 10
944.38739930582858
 20
-1344.1498156068112
 30
0.0
 41
1.0
 10
944.48618225679979
 20
-1344.1811583536078
 30
0.0
 41
0.9993867959456058
 10
944.58252941524245
 20
-1344.2193377228975
 30
0.0
 41
1.0
 10
944.58377236432659
 20
-1344.2198302647935
 30
0.0
 41
1.0
 10
944.58501531341074
 20
-1344.2203228066894
 30
0.0
 41
1.0
 10
944.67887657368453
 20
-1344.2575170921871
 30
0.0
 41
0.9992050256521701
 10
944.76947624871832
 20
-1344.302070991426
 30
0.0
 41
1.0
 10
944.77021093143173
 20
-1344.3024322838874
 30
0.0
 41
1.0
 10
944.77094561414515
 20
-1344.3027935763487
 30
0.0
 41
1.0
 10
944.86007592375256
 20
-1344.3466248906652
 30
0.0
 41
0.9990222350741896
 10
944.94498598514542
 20
-1344.398158158363
 30
0.0
 41
1.0
 10
944.94516987042812
 20
-1344.3982697612678
 30
0.0
 41
1.0
 10
944.9453537557107
 20
-1344.3983813641726
 30
0.0
 41
1.0
 10
945.02989604653862
 20
-1344.449691426061
 30
0.0
 41
0.9988642743805378
 10
945.10917058115797
 20
-1344.5088156135866
 30
0.0
 41
1.0
 10
945.18844511577777
 20
-1344.5679398011125
 30
0.0
 41
0.9987681233310948
 10
945.26146890005373
 20
-1344.6346304925132
 30
0.0
 41
1.0
 10
945.26179782801933
 20
-1344.6349308937272
 30
0.0
 41
1.0
 10
945.26212675598481
 20
-1344.6352312949411
 30
0.0
 41
1.0
 10
945.33580839619253
 20
-1344.7025227887702
 30
0.0
 41
0.9987496570898327
 10
945.40240220151964
 20
-1344.7768356028569
 30
0.0
 41
1.0
 10
945.4031743712801
 20
-1344.7776972762149
 30
0.0
 41
1.0
 10
945.40394654104057
 20
-1344.7785589495727
 30
0.0
 41
1.0
 10
945.47208468588769
 20
-1344.8545951103738
 30
0.0
 41
0.9988147669826568
 10
945.53250694011274
 20
-1344.9368961172163
 30
0.0
 41
1.0
 10
945.53362626619094
 20
-1344.9384207485696
 30
0.0
 41
1.0
 10
945.53474559226913
 20
-1344.9399453799226
 30
0.0
 41
1.0
 10
945.59740649865012
 20
-1345.0252956494712
 30
0.0
 41
0.9989452636216534
 10
945.65197341161115
 20
-1345.1160343386284
 30
0.0
 41
1.0
 10
945.6533221376967
 20
-1345.1182771196545
 30
0.0
 41
1.0
 10
945.65467086378226
 20
-1345.1205199006804
 30
0.0
 41
1.0
 10
945.71193522891508
 20
-1345.2157441518905
 30
0.0
 41
0.9991046436070149
 10
945.76094444223668
 20
-1345.3154685849161
 30
0.0
 41
1.0
 10
945.76240830382665
 20
-1345.3184472649887
 30
0.0
 41
1.0
 10
945.76387216541661
 20
-1345.321425945061
 30
0.0
 41
1.0
 10
945.81580910191849
 20
-1345.4271077382316
 30
0.0
 41
0.9992763831100686
 10
945.85956223047356
 20
-1345.5364318001875
 30
0.0
 41
1.0
 10
945.86104150013682
 20
-1345.540127987721
 30
0.0
 41
1.0
 10
945.86252076980008
 20
-1345.5438241752545
 30
0.0
 41
1.0
 10
945.90923243768202
 20
-1345.6605406122781
 30
0.0
 41
0.9994163472883417
 10
945.94786546887065
 20
-1345.7801742007389
 30
0.0
 41
1.0
 10
945.94910362111762
 20
-1345.7840083445224
 30
0.0
 41
1.0
 10
945.95034177336458
 20
-1345.7878424883058
 30
0.0
 41
1.0
 10
945.99022533438279
 20
-1345.9113485497871
 30
0.0
 41
0.9997268055890305
 10
946.02429339029436
 20
-1346.0365835817363
 30
0.0
 41
1.0
 10
946.02522357056341
 20
-1346.040002947843
 30
0.0
 41
1.0
 10
946.02615375083235
 20
-1346.0434223139498
 30
0.0
 41
1.0
 10
946.05836144620537
 20
-1346.1618186136823
 30
0.0
 41
0.9996701318999964
 10
946.08444706297678
 20
-1346.2817125669503
 30
0.0
 41
1.0
 10
946.11053267974671
 20
-1346.40160652021
 30
0.0
 41
0.9995785451109173
 10
946.12961625708647
 20
-1346.5228122812418
 30
0.0
 41
1.0
 10
946.13383603926059
 20
-1346.5496134360089
 30
0.0
 41
1.0
 10
946.13805582143459
 20
-1346.576414590776
 30
0.0
 41
1.0
 10
946.16463079737298
 20
-1346.7452005644782
 30
0.0
 41
0.9979925101216898
 10
946.16965638329941
 20
-1346.9159918925702
 30
0.0
 41
1.0
 10
946.17048119572405
 20
-1346.9440226160468
 30
0.0
 41
1.0
 10
946.17130600814858
 20
-1346.9720533395234
 30
0.0
 41
1.0
 10
946.17468196922607
 20
-1347.0867832206548
 30
0.0
 41
0.9995314902262715
 10
946.17103177708725
 20
-1347.2015047044138
 30
0.0
 41
1.0
 10
946.16738158494911
 20
-1347.3162261881623
 30
0.0
 41
0.9996245486943958
 10
946.15745248981807
 20
-1347.4305754592879
 30
0.0
 41
1.0
 10
946.15728944182376
 20
-1347.4324532154242
 30
0.0
 41
1.0
 10
946.15712639382946
 20
-1347.4343309715603
 30
0.0
 41
1.0
 10
946.14687120270935
 20
-1347.5524357549598
 30
0.0
 41
0.9997286095001247
 10
946.13112587913804
 20
-1347.6699346638538
 30
0.0
 41
1.0
 10
946.13073238648803
 20
-1347.6728710885536
 30
0.0
 41
1.0
 10
946.13033889383792
 20
-1347.6758075132532
 30
0.0
 41
1.0
 10
946.1138065849666
 20
-1347.7991792715475
 30
0.0
 41
0.9998265533969509
 10
946.09269112623451
 20
-1347.9218497463316
 30
0.0
 41
1.0
 10
946.09201458409666
 20
-1347.9257801248434
 30
0.0
 41
1.0
 10
946.09133804195881
 20
-1347.9297105033552
 30
0.0
 41
1.0
 10
946.06886949895124
 20
-1348.060241735162
 30
0.0
 41
0.9999022530854566
 10
946.04276003434097
 20
-1348.1900937038019
 30
0.0
 41
1.0
 10
946.04178139317605
 20
-1348.1949608461869
 30
0.0
 41
1.0
 10
946.04080275201125
 20
-1348.1998279885715
 30
0.0
 41
1.0
 10
946.01273600506909
 20
-1348.339414241992
 30
0.0
 41
0.9999524761934924
 10
945.98195303623277
 20
-1348.4784267351627
 30
0.0
 41
1.0
 10
945.98067692905875
 20
-1348.4841894944584
 30
0.0
 41
1.0
 10
945.97940082188484
 20
-1348.4899522537539
 30
0.0
 41
1.0
 10
945.9460656386982
 20
-1348.6404902655274
 30
0.0
 41
0.9999813588737747
 10
945.91089463790081
 20
-1348.7906099781899
 30
0.0
 41
1.0
 10
945.90934071244556
 20
-1348.7972425686069
 30
0.0
 41
1.0
 10
945.9077867869903
 20
-1348.8038751590238
 30
0.0
 41
1.0
 10
945.86950793528536
 20
-1348.9672600525073
 30
0.0
 41
0.9999955237628675
 10
945.83025205729962
 20
-1349.1304129561363
 30
0.0
 41
1.0
 10
945.8179704216659
 20
-1349.1814571466566
 30
0.0
 41
1.0
 10
945.80568878603208
 20
-1349.2325013371772
 30
0.0
 41
1.0
 10
945.74186963677914
 20
-1349.4977426218452
 30
0.0
 41
0.9999993604332911
 10
945.67745068963188
 20
-1349.7628388724434
 30
0.0
 41
1.0
 10
945.67273185407635
 20
-1349.7822577805189
 30
0.0
 41
1.0
 10
945.66801301852081
 20
-1349.8016766885944
 30
0.0
 41
1.0
 10
945.594156400261
 20
-1350.1056107553518
 30
0.0
 41
0.999965991472191
 10
945.51529680437613
 20
-1350.4082853019086
 30
0.0
 41
1.0
 10
945.51034411544492
 20
-1350.4272944390932
 30
0.0
 41
1.0
 10
945.50539142651382
 20
-1350.4463035762776
 30
0.0
 41
1.0
 10
945.4166264527704
 20
-1350.7869963971896
 30
0.0
 41
0.9999441976024506
 10
945.32068341980812
 20
-1351.1257378224846
 30
0.0
 41
1.0
 10
945.303982901381
 20
-1351.1847015350179
 30
0.0
 41
1.0
 10
945.28728238295389
 20
-1351.2436652475512
 30
0.0
 41
1.0
 10
945.15793831313897
 20
-1351.7003340979063
 30
0.0
 41
0.9999625120735777
 10
945.02070554581542
 20
-1352.1546946319029
 30
0.0
 41
1.0
 10
944.98491560273226
 20
-1352.2731906585304
 30
0.0
 41
1.0
 10
944.9491256596491
 20
-1352.391686685158
 30
0.0
 41
1.0
 10
944.87460545560907
 20
-1352.6384137632572
 30
0.0
 41
0.9999793386305091
 10
944.79691943247121
 20
-1352.8841624024938
 30
0.0
 41
1.0
 10
944.7192334093337
 20
-1353.1299110417299
 30
0.0
 41
1.0
 10
944.708453850463
 20
-1353.1639289461045
 30
0.0
 41
1.0
 10
942.85808079719391
 20
-1359.0510008685719
 30
0.0
 41
1.0
 10
941.0077077439247
 20
-1364.9380727910395
 30
0.0
 41
1.0
 10
940.04645105390114
 20
-1364.9380727910395
 30
0.0
 41
1.0
 10
939.08519436387758
 20
-1364.9380727910395
 30
0.0
 41
1.0
 10
940.70413914255596
 20
-1359.7900442892501
 30
0.0
 41
1.0
 10
942.32308392123446
 20
-1354.6420157874607
 30
0.0
 41
1.0
 10
942.36824974440469
 20
-1354.497984565204
 30
0.0
 41
1.0
 10
942.41341556757482
 20
-1354.3539533429473
 30
0.0
 41
1.0
 10
942.58371998493863
 20
-1353.8108623137816
 30
0.0
 41
0.999991165788255
 10
942.74945279662597
 20
-1353.2663587823947
 30
0.0
 41
1.0
 10
942.77914874012708
 20
-1353.1687948423421
 30
0.0
 41
1.0
 10
942.80884468362819
 20
-1353.0712309022895
 30
0.0
 41
1.0
 10
942.91518560830661
 20
-1352.7218552510299
 30
0.0
 41
0.9999952428160223
 10
943.01936919763125
 20
-1352.3718302266816
 30
0.0
 41
1.0
 10
943.02442866796468
 20
-1352.3548319524029
 30
0.0
 41
1.0
 10
943.02948813829823
 20
-1352.3378336781243
 30
0.0
 41
1.0
 10
943.12355278695372
 20
-1352.0218052023399
 30
0.0
 41
0.9999931687505125
 10
943.21527862482981
 20
-1351.7050899890614
 30
0.0
 41
1.0
 10
943.22021388928897
 20
-1351.6880492797914
 30
0.0
 41
1.0
 10
943.22514915374825
 20
-1351.6710085705213
 30
0.0
 41
1.0
 10
943.30700446270384
 20
-1351.3883747757895
 30
0.0
 41
0.9999893840823655
 10
943.3862516891603
 20
-1351.1049986465443
 30
0.0
 41
1.0
 10
943.4654989156154
 20
-1350.8216225173046
 30
0.0
 41
0.9999833980059574
 10
943.54147515635339
 20
-1350.5373519342897
 30
0.0
 41
1.0
 10
943.55047909307973
 20
-1350.5036630557961
 30
0.0
 41
1.0
 10
943.55948302980607
 20
-1350.4699741773027
 30
0.0
 41
1.0
 10
943.62844757867151
 20
-1350.2119383450099
 30
0.0
 41
0.9999233658066331
 10
943.69100254989064
 20
-1349.9522741862913
 30
0.0
 41
1.0
 10
943.75355752111091
 20
-1349.6926100275689
 30
0.0
 41
1.0
 10
943.79304093996848
 20
-1349.5288033631427
 30
0.0
 41
1.0
 10
943.79801954394748
 20
-1349.5081484012653
 30
0.0
 41
1.0
 10
943.80299814792636
 20
-1349.4874934393879
 30
0.0
 41
1.0
 10
943.83252435882855
 20
-1349.3649966987068
 30
0.0
 41
0.9999868670869415
 10
943.86079344282223
 20
-1349.2422037530712
 30
0.0
 41
1.0
 10
943.86469092998141
 20
-1349.225274165648
 30
0.0
 41
1.0
 10
943.86858841714059
 20
-1349.2083445782248
 30
0.0
 41
1.0
 10
943.88906252682125
 20
-1349.1194108074139
 30
0.0
 41
0.9999778173351102
 10
943.9083501249338
 20
-1349.0302121901952
 30
0.0
 41
1.0
 10
943.92763772305125
 20
-1348.9410135729549
 30
0.0
 41
0.9999602692864088
 10
943.94533208168252
 20
-1348.8514852845262
 30
0.0
 41
1.0
 10
943.94853591375886
 20
-1348.8352748296466
 30
0.0
 41
1.0
 10
943.95173974583531
 20
-1348.8190643747671
 30
0.0
 41
1.0
 10
943.9758417686221
 20
-1348.6971151765647
 30
0.0
 41
0.9995617985320554
 10
943.9926851158408
 20
-1348.573953428858
 30
0.0
 41
1.0
 10
943.99514960574652
 20
-1348.5559326114958
 30
0.0
 41
1.0
 10
943.99761409565224
 20
-1348.5379117941338
 30
0.0
 41
1.0
 10
944.0178973567007
 20
-1348.3895967444309
 30
0.0
 41
0.9991121410639861
 10
944.0256227102891
 20
-1348.2401006456248
 30
0.0
 41
1.0
 10
944.02654150031367
 20
-1348.2223208090484
 30
0.0
 41
1.0
 10
944.02746029033824
 20
-1348.2045409724719
 30
0.0
 41
1.0
 10
944.03334806387738
 20
-1348.0906045468182
 30
0.0
 41
0.9989792494905241
 10
944.02892897176002
 20
-1347.97660171092
 30
0.0
 41
1.0
 10
944.02828099989131
 20
-1347.9598854649921
 30
0.0
 41
1.0
 10
944.02763302802259
 20
-1347.9431692190642
 30
0.0
 41
1.0
 10
944.02450987964266
 20
-1347.8625988750209
 30
0.0
 41
0.9997820295393856
 10
944.01802588226701
 20
-1347.7822291532777
 30
0.0
 41
1.0
 10
944.01154188489136
 20
-1347.7018594315339
 30
0.0
 41
0.9998335105973902
 10
944.00212968937967
 20
-1347.6217798150842
 30
0.0
 41
1.0
 10
944.00053476470327
 20
-1347.6082100846008
 30
0.0
 41
1.0
 10
943.99893984002688
 20
-1347.5946403541175
 30
0.0
 41
1.0
 10
943.98633779516285
 20
-1347.487421276704
 30
0.0
 41
0.9996876457879258
 10
943.96839388236424
 20
-1347.3809658489861
 30
0.0
 41
1.0
 10
943.96616221921897
 20
-1347.3677261137443
 30
0.0
 41
1.0
 10
943.96393055607371
 20
-1347.3544863785025
 30
0.0
 41
1.0
 10
943.95013473465224
 20
-1347.2726402345418
 30
0.0
 41
0.9995547496494763
 10
943.93148141275992
 20
-1347.1917627373523
 30
0.0
 41
1.0
 10
943.93110745588865
 20
-1347.1901413266467
 30
0.0
 41
1.0
 10
943.93073349901726
 20
-1347.188519915941
 30
0.0
 41
1.0
 10
943.91282809086772
 20
-1347.1108852401628
 30
0.0
 41
0.9994899427175575
 10
943.89000318218791
 20
-1347.0345519573266
 30
0.0
 41
1.0
 10
943.88954465544703
 20
-1347.0330185075372
 30
0.0
 41
1.0
 10
943.88908612870603
 20
-1347.0314850577481
 30
0.0
 41
1.0
 10
943.8671782735089
 20
-1346.9582186744935
 30
0.0
 41
0.9993784877591198
 10
943.84016263840203
 20
-1346.8866779693333
 30
0.0
 41
1.0
 10
943.83963094742512
 20
-1346.8852699866127
 30
0.0
 41
1.0
 10
943.83909925644821
 20
-1346.8838620038921
 30
0.0
 41
1.0
 10
943.81314700329528
 20
-1346.8151372641737
 30
0.0
 41
0.9992430832254525
 10
943.78193046813612
 20
-1346.7486381121059
 30
0.0
 41
1.0
 10
943.7813483520797
 20
-1346.7473980569889
 30
0.0
 41
1.0
 10
943.78076623602328
 20
-1346.7461580018721
 30
0.0
 41
1.0
 10
943.75071393297708
 20
-1346.6821389600382
 30
0.0
 41
0.9990789632797902
 10
943.71528330620004
 20
-1346.6209323482881
 30
0.0
 41
1.0
 10
943.7146876000179
 20
-1346.6199032624286
 30
0.0
 41
1.0
 10
943.71409189383576
 20
-1346.6188741765693
 30
0.0
 41
1.0
 10
943.67985267942322
 20
-1346.559725736538
 30
0.0
 41
0.9988874801119577
 10
943.64019340339132
 20
-1346.5040660241207
 30
0.0
 41
1.0
 10
943.63963787732678
 20
-1346.5032863724455
 30
0.0
 41
1.0
 10
943.63908235126223
 20
-1346.5025067207705
 30
0.0
 41
1.0
 10
943.60053412735874
 20
-1346.448406311702
 30
0.0
 41
0.9986762060692644
 10
943.55663165608303
 20
-1346.3985525972635
 30
0.0
 41
1.0
 10
943.55618769575119
 20
-1346.3980484554472
 30
0.0
 41
1.0
 10
943.55574373541936
 20
-1346.397544313631
 30
0.0
 41
1.0
 10
943.5127291848072
 20
-1346.3486988828249
 30
0.0
 41
0.9984621642489411
 10
943.46457162802903
 20
-1346.3049155823533
 30
0.0
 41
1.0
 10
943.46432499351238
 20
-1346.3046913501898
 30
0.0
 41
1.0
 10
943.46407835899572
 20
-1346.3044671180262
 30
0.0
 41
1.0
 10
943.41641407125121
 20
-1346.2611322818821
 30
0.0
 41
0.9982724693850277
 10
943.36399543940979
 20
-1346.2236879313646
 30
0.0
 41
1.0
 10
943.31157680756803
 20
-1346.1862435808464
 30
0.0
 41
0.9981399180157394
 10
943.25499074417451
 20
-1346.155457061403
 30
0.0
 41
1.0
 10
943.25494508209636
 20
-1346.155432218246
 30
0.0
 41
1.0
 10
943.25489942001809
 20
-1346.155407375089
 30
0.0
 41
1.0
 10
943.19822203246781
 20
-1346.1245711693311
 30
0.0
 41
0.9980927086836943
 10
943.13817668140155
 20
-1346.1009543604787
 30
0.0
 41
1.0
 10
943.13773651168981
 20
-1346.1007812346038
 30
0.0
 41
1.0
 10
943.13729634197807
 20
-1346.1006081087287
 30
0.0
 41
1.0
 10
943.07637065148754
 20
-1346.076645048126
 30
0.0
 41
0.9981411356561379
 10
943.01298213008727
 20
-1346.0602724066202
 30
0.0
 41
1.0
 10
943.01210001338666
 20
-1346.060044564415
 30
0.0
 41
1.0
 10
943.01121789668605
 20
-1346.0598167222097
 30
0.0
 41
1.0
 10
942.94606514188501
 20
-1346.0429883962934
 30
0.0
 41
0.9983031812935299
 10
942.87939771289132
 20
-1346.0338490351173
 30
0.0
 41
1.0
 10
942.87052668748538
 20
-1346.0326329164457
 30
0.0
 41
1.0
 10
942.86165566207933
 20
-1346.031416797774
 30
0.0
 41
1.0
 10
942.80730601957623
 20
-1346.023966067783
 30
0.0
 41
0.9983887708263414
 10
942.75246217028428
 20
-1346.0227213941498
 30
0.0
 41
1.0
 10
942.74439876506869
 20
-1346.022538396275
 30
0.0
 41
1.0
 10
942.73633535985311
 20
-1346.0223553984001
 30
0.0
 41
1.0
 10
942.69761832099346
 20
-1346.0214767205166
 30
0.0
 41
0.9998869563078761
 10
942.65889236778878
 20
-1346.0217625898763
 30
0.0
 41
1.0
 10
942.62016641458081
 20
-1346.022048459236
 30
0.0
 41
0.9999972320124223
 10
942.58144223536431
 20
-1346.0225165587651
 30
0.0
 41
1.0
 10
942.56208921878988
 20
-1346.0227504988543
 30
0.0
 41
1.0
 10
942.54273620221534
 20
-1346.0229844389437
 30
0.0
 41
1.0
 10
942.46530598984828
 20
-1346.0239204186516
 30
0.0
 41
0.99973049450882
 10
942.38800268361433
 20
-1346.0284495124374
 30
0.0
 41
1.0
 10
942.37895304190647
 20
-1346.0289797184275
 30
0.0
 41
1.0
 10
942.3699034001985
 20
-1346.0295099244177
 30
0.0
 41
1.0
 10
942.27450081055349
 20
-1346.0350994301834
 30
0.0
 41
0.9997888306415969
 10
942.1794084747122
 20
-1346.0446043946722
 30
0.0
 41
1.0
 10
942.17068741313824
 20
-1346.0454761093044
 30
0.0
 41
1.0
 10
942.16196635156427
 20
-1346.0463478239367
 30
0.0
 41
1.0
 10
942.04943189257574
 20
-1346.0575962176902
 30
0.0
 41
0.9984170238191028
 10
941.93887274522422
 20
-1346.081412299626
 30
0.0
 41
1.0
 10
941.90249161423799
 20
-1346.0892493354322
 30
0.0
 41
1.0
 10
941.86611048325176
 20
-1346.0970863712382
 30
0.0
 41
1.0
 10
941.75091941483049
 20
-1346.1219002377477
 30
0.0
 41
0.9976592854199005
 10
941.64019124842548
 20
-1346.1621989148948
 30
0.0
 41
1.0
 10
941.52946308202092
 20
-1346.2024975920419
 30
0.0
 41
0.9993255074352395
 10
941.42199128323045
 20
-1346.2508144905341
 30
0.0
 41
1.0
 10
941.41736610430678
 20
-1346.252893866734
 30
0.0
 41
1.0
 10
941.4127409253831
 20
-1346.2549732429338
 30
0.0
 41
1.0
 10
941.29601876874676
 20
-1346.3074488938255
 30
0.0
 41
0.9976475078275494
 10
941.18757142443644
 20
-1346.3753968834837
 30
0.0
 41
1.0
 10
941.16922903030184
 20
-1346.386889362298
 30
0.0
 41
1.0
 10
941.15088663616723
 20
-1346.3983818411125
 30
0.0
 41
1.0
 10
941.06668444461513
 20
-1346.4511389618808
 30
0.0
 41
0.9995131336407198
 10
940.98593672965615
 20
-1346.5090451738349
 30
0.0
 41
1.0
 10
940.9051890147008
 20
-1346.5669513857868
 30
0.0
 41
0.9995810107606381
 10
940.82792736697183
 20
-1346.6294330682526
 30
0.0
 41
1.0
 10
940.82495733576081
 20
-1346.6318349397179
 30
0.0
 41
1.0
 10
940.82198730454979
 20
-1346.6342368111832
 30
0.0
 41
1.0
 10
940.73878559439936
 20
-1346.7015222365794
 30
0.0
 41
0.9996617837954935
 10
940.65919490726219
 20
-1346.773042692141
 30
0.0
 41
1.0
 10
940.64706415638625
 20
-1346.7839434251307
 30
0.0
 41
1.0
 10
940.63493340551031
 20
-1346.7948441581204
 30
0.0
 41
1.0
 10
940.56665787811323
 20
-1346.8561967735932
 30
0.0
 41
0.9997267750052307
 10
940.5013243698304
 20
-1346.9206733101178
 30
0.0
 41
1.0
 10
940.43599086154472
 20
-1346.9851498466451
 30
0.0
 41
0.9999667288956335
 10
940.37171791838898
 20
-1347.0506836535487
 30
0.0
 41
1.0
 10
940.30289047061933
 20
-1347.1208613123015
 30
0.0
 41
1.0
 10
940.2340630228498
 20
-1347.1910389710542
 30
0.0
 41
1.0
 10
940.03213518415043
 20
-1347.3969280954675
 30
0.0
 41
0.9988205335174498
 10
939.85112956717023
 20
-1347.6214323275296
 30
0.0
 41
1.0
 10
939.82048960226712
 20
-1347.6594355779575
 30
0.0
 41
1.0
 10
939.78984963736411
 20
-1347.6974388283854
 30
0.0
 41
1.0
 10
939.54756409057325
 20
-1347.9979495613081
 30
0.0
 41
0.9997077826755066
 10
939.32008613946664
 20
-1348.3098193555268
 30
0.0
 41
1.0
 10
939.31836272433782
 20
-1348.3121821389041
 30
0.0
 41
1.0
 10
939.31663930920899
 20
-1348.3145449222814
 30
0.0
 41
1.0
 10
939.08571452784224
 20
-1348.6311402832575
 30
0.0
 41
0.9989147567078731
 10
938.88525102495805
 20
-1348.9678497444438
 30
0.0
 41
1.0
 10
938.86050987965314
 20
-1349.0094063249928
 30
0.0
 41
1.0
 10
938.83576873434811
 20
-1349.0509629055418
 30
0.0
 41
1.0
 10
938.68055743570801
 20
-1349.3116642899995
 30
0.0
 41
0.9997476598181834
 10
938.53721244819849
 20
-1349.5790740385817
 30
0.0
 41
1.0
 10
938.39386746068885
 20
-1349.8464837871641
 30
0.0
 41
0.9996258967109621
 10
938.26535920875722
 20
-1350.1213317237882
 30
0.0
 41
1.0
 10
938.25215929930528
 20
-1350.1495631238886
 30
0.0
 41
1.0
 10
938.23895938985345
 20
-1350.1777945239887
 30
0.0
 41
1.0
 10
938.09875066885752
 20
-1350.4776669219336
 30
0.0
 41
0.9998735413946722
 10
937.96814932213738
 20
-1350.7818465214004
 30
0.0
 41
1.0
 10
937.96470649407797
 20
-1350.7898651068626
 30
0.0
 41
1.0
 10
937.96126366601868
 20
-1350.7978836923246
 30
0.0
 41
1.0
 10
937.83754797541678
 20
-1351.0860261208686
 30
0.0
 41
0.9999377418858403
 10
937.72029317324223
 20
-1351.3768575885433
 30
0.0
 41
1.0
 10
937.60303837106585
 20
-1351.6676890562221
 30
0.0
 41
0.9999508299510196
 10
937.49157442768887
 20
-1351.9607887330428
 30
0.0
 41
1.0
 10
937.48849365902686
 20
-1351.9688897590054
 30
0.0
 41
1.0
 10
937.48541289036484
 20
-1351.9769907849682
 30
0.0
 41
1.0
 10
937.3677874096627
 20
-1352.2862925137165
 30
0.0
 41
0.999960922843368
 10
937.2556488067878
 20
-1352.5976255297346
 30
0.0
 41
1.0
 10
937.25269279643851
 20
-1352.6058323701432
 30
0.0
 41
1.0
 10
937.24973678608922
 20
-1352.6140392105517
 30
0.0
 41
1.0
 10
937.13168616252074
 20
-1352.9417859073733
 30
0.0
 41
0.9999674607398844
 10
937.01893863645125
 20
-1353.2713945273713
 30
0.0
 41
1.0
 10
936.96754024588631
 20
-1353.4216537230704
 30
0.0
 41
1.0
 10
936.91614185532126
 20
-1353.5719129187698
 30
0.0
 41
1.0
 10
936.80013124856396
 20
-1353.911060901271
 30
0.0
 41
0.9999287532305496
 10
936.69224984459424
 20
-1354.2528816402441
 30
0.0
 41
1.0
 10
936.64577258847737
 20
-1354.4001441845444
 30
0.0
 41
1.0
 10
936.5992953323605
 20
-1354.5474067288449
 30
0.0
 41
1.0
 10
936.58436844063885
 20
-1354.5947023791714
 30
0.0
 41
0.9999998222956358
 10
936.56949793189301
 20
-1354.6420157874607
 30
0.0
 41
1.0
 10
934.94884179509756
 20
-1359.7900442892501
 30
0.0
 41
1.0
 10
933.32818565830212
 20
-1364.9380727910395
 30
0.0
 41
1.0
 10
932.42287721441119
 20
-1364.9380727910395
 30
0.0
 41
1.0
 10
931.51756877052026
 20
-1364.9380727910395
 30
0.0
 41
1.0
 10
933.3696531819063
 20
-1359.0510008685719
 30
0.0
 41
1.0
 10
935.22173759329235
 20
-1353.1639289461045
 30
0.0
 41
1.0
 10
935.23185935159506
 20
-1353.1318857326548
 30
0.0
 41
1.0
 10
935.3044670204448
 20
-1352.901586190829
 30
0.0
 41
1.0
 10
935.37707468928966
 20
-1352.6712866490188
 30
0.0
 41
0.9999825681973007
 10
935.44695772850241
 20
-1352.4401457539502
 30
0.0
 41
1.0
 10
935.49524879066519
 20
-1352.2804211704477
 30
0.0
 41
1.0
 10
935.54353985282796
 20
-1352.1206965869451
 30
0.0
 41
1.0
 10
935.64069220614408
 20
-1351.7993613651734
 30
0.0
 41
0.9999672528959805
 10
935.7326310117669
 20
-1351.4764958195883
 30
0.0
 41
1.0
 10
935.73541989543469
 20
-1351.4667019742051
 30
0.0
 41
1.0
 10
935.73820877910248
 20
-1351.4569081288221
 30
0.0
 41
1.0
 10
935.82456981738926
 20
-1351.1536302740058
 30
0.0
 41
0.9999899749175409
 10
935.90821142692494
 20
-1350.8495911855493
 30
0.0
 41
1.0
 10
935.91831734594075
 20
-1350.8128559478773
 30
0.0
 41
1.0
 10
935.92842326495656
 20
-1350.7761207102053
 30
0.0
 41
1.0
 10
935.99185303645743
 20
-1350.5455520971054
 30
0.0
 41
0.9999214200502784
 10
936.04948246483741
 20
-1350.3134657548876
 30
0.0
 41
1.0
 10
936.06224831702173
 20
-1350.2620548694763
 30
0.0
 41
1.0
 10
936.07501416920604
 20
-1350.2106439840647
 30
0.0
 41
1.0
 10
936.10711189322069
 20
-1350.0813794126557
 30
0.0
 41
0.9999828681658809
 10
936.1376941452105
 20
-1349.9517479382109
 30
0.0
 41
1.0
 10
936.16827639720566
 20
-1349.8221164637453
 30
0.0
 41
0.9999389844479769
 10
936.1959873859945
 20
-1349.6918410078467
 30
0.0
 41
1.0
 10
936.20312512971509
 20
-1349.6582849040078
 30
0.0
 41
1.0
 10
936.21026287343557
 20
-1349.6247288001687
 30
0.0
 41
1.0
 10
936.25224934966468
 20
-1349.4273411365959
 30
0.0
 41
0.9998933699440634
 10
936.28845361406809
 20
-1349.2288115288318
 30
0.0
 41
1.0
 10
936.28982643928407
 20
-1349.2212835081368
 30
0.0
 41
1.0
 10
936.29119926450016
 20
-1349.2137554874419
 30
0.0
 41
1.0
 10
936.33014917933497
 20
-1349.000169838291
 30
0.0
 41
0.9996850305193886
 10
936.35833285559352
 20
-1348.7848988328556
 30
0.0
 41
1.0
 10
936.36032788896273
 20
-1348.7696604787347
 30
0.0
 41
1.0
 10
936.36232292233183
 20
-1348.7544221246142
 30
0.0
 41
1.0
 10
936.38973078479091
 20
-1348.5450768974588
 30
0.0
 41
0.9994697936707095
 10
936.40345534401104
 20
-1348.3343917021243
 30
0.0
 41
1.0
 10
936.40393241326069
 20
-1348.3270682299139
 30
0.0
 41
1.0
 10
936.40440948251035
 20
-1348.3197447577038
 30
0.0
 41
1.0
 10
936.4171799032307
 20
-1348.1237065067944
 30
0.0
 41
0.9991804893136803
 10
936.41405158695784
 20
-1347.92727765682
 30
0.0
 41
1.0
 10
936.41396770813571
 20
-1347.9220108554073
 30
0.0
 41
1.0
 10
936.41388382931359
 20
-1347.9167440539943
 30
0.0
 41
1.0
 10
936.41092327068509
 20
-1347.7308488068463
 30
0.0
 41
0.9988448329321524
 10
936.39013172506134
 20
-1347.5460962170132
 30
0.0
 41
1.0
 10
936.38853765135832
 20
-1347.531931361242
 30
0.0
 41
1.0
 10
936.3869435776553
 20
-1347.5177665054707
 30
0.0
 41
1.0
 10
936.36934017943759
 20
-1347.3613436271798
 30
0.0
 41
0.9985503209458704
 10
936.33502390713807
 20
-1347.2077194430906
 30
0.0
 41
1.0
 10
936.32743791506732
 20
-1347.1737591156921
 30
0.0
 41
1.0
 10
936.31985192299646
 20
-1347.1397987882938
 30
0.0
 41
1.0
 10
936.30070763483911
 20
-1347.0540952590043
 30
0.0
 41
0.999103678137127
 10
936.2743827731872
 20
-1346.9703181716764
 30
0.0
 41
1.0
 10
936.27040054773101
 20
-1346.9576450091652
 30
0.0
 41
1.0
 10
936.26641832227483
 20
-1346.944971846654
 30
0.0
 41
1.0
 10
936.24805791153585
 20
-1346.8865410843507
 30
0.0
 41
0.9998874504367591
 10
936.22795270385768
 20
-1346.8286874821281
 30
0.0
 41
1.0
 10
936.2078474961794
 20
-1346.770833879905
 30
0.0
 41
0.9994041637543277
 10
936.18379888324512
 20
-1346.7145051760156
 30
0.0
 41
1.0
 10
936.17960209902094
 20
-1346.7046751115331
 30
0.0
 41
1.0
 10
936.17540531479665
 20
-1346.6948450470506
 30
0.0
 41
1.0
 10
936.14752648380227
 20
-1346.6295448810838
 30
0.0
 41
0.999184684070209
 10
936.11447012710926
 20
-1346.5667068498037
 30
0.0
 41
1.0
 10
936.11333352071415
 20
-1346.5645462333491
 30
0.0
 41
1.0
 10
936.11219691431916
 20
-1346.5623856168943
 30
0.0
 41
1.0
 10
936.08141377041625
 20
-1346.5038688185234
 30
0.0
 41
0.9989253167921961
 10
936.04534434636116
 20
-1346.4484538901334
 30
0.0
 41
1.0
 10
936.04429022168654
 20
-1346.4468343953704
 30
0.0
 41
1.0
 10
936.04323609701191
 20
-1346.4452149006077
 30
0.0
 41
1.0
 10
936.00927492230596
 20
-1346.3930389617426
 30
0.0
 41
0.9986467172835135
 10
935.97007776966893
 20
-1346.3446729281136
 30
0.0
 41
1.0
 10
935.96920364096763
 20
-1346.3435943258346
 30
0.0
 41
1.0
 10
935.96832951226645
 20
-1346.3425157235558
 30
0.0
 41
1.0
 10
935.93088061703031
 20
-1346.2963068944825
 30
0.0
 41
0.9984001104267284
 10
935.8884538865143
 20
-1346.254621787115
 30
0.0
 41
1.0
 10
935.8878667484048
 20
-1346.2540449122337
 30
0.0
 41
1.0
 10
935.88727961029542
 20
-1346.2534680373524
 30
0.0
 41
1.0
 10
935.84602715599658
 20
-1346.2129366797458
 30
0.0
 41
0.9982442159082056
 10
935.80027105466161
 20
-1346.1775681184861
 30
0.0
 41
1.0
 10
935.80005625919955
 20
-1346.1774020858427
 30
0.0
 41
1.0
 10
935.79984146373749
 20
-1346.1772360531993
 30
0.0
 41
1.0
 10
935.75451495332561
 20
-1346.1421995572257
 30
0.0
 41
0.9982450060835437
 10
935.70536397425417
 20
-1346.1127677741924
 30
0.0
 41
1.0
 10
935.65621299518295
 20
-1346.0833359911592
 30
0.0
 41
0.998392263963522
 10
935.60404668901754
 20
-1346.0596563565045
 30
0.0
 41
1.0
 10
935.60381981169303
 20
-1346.0595533710232
 30
0.0
 41
1.0
 10
935.60359293436863
 20
-1346.0594503855418
 30
0.0
 41
1.0
 10
935.55097287355488
 20
-1346.0355647799249
 30
0.0
 41
0.998651714715001
 10
935.49615990068673
 20
-1346.0172636608031
 30
0.0
 41
1.0
 10
935.49548197925901
 20
-1346.0170373143717
 30
0.0
 41
1.0
 10
935.49480405783129
 20
-1346.0168109679403
 30
0.0
 41
1.0
 10
935.43863524210644
 20
-1345.9980571559552
 30
0.0
 41
0.9989435598956151
 10
935.38098185495323
 20
-1345.9845394537203
 30
0.0
 41
1.0
 10
935.37990173537298
 20
-1345.9842862034677
 30
0.0
 41
1.0
 10
935.37882161579273
 20
-1345.9840329532151
 30
0.0
 41
1.0
 10
935.31900798947822
 20
-1345.9700087504746
 30
0.0
 41
0.9992249241239819
 10
935.25827648058089
 20
-1345.9607334077596
 30
0.0
 41
1.0
 10
935.25686279228967
 20
-1345.9605174993517
 30
0.0
 41
1.0
 10
935.25544910399856
 20
-1345.9603015909438
 30
0.0
 41
1.0
 10
935.19189021852048
 20
-1345.950594431413
 30
0.0
 41
0.9994396597833773
 10
935.12782428198466
 20
-1345.9451615090672
 30
0.0
 41
1.0
 10
935.10868361450559
 20
-1345.9435383413484
 30
0.0
 41
1.0
 10
935.08954294702653
 20
-1345.9419151736297
 30
0.0
 41
1.0
 10
934.98719567553383
 20
-1345.9332359158468
 30
0.0
 41
0.9987693403121468
 10
934.88449205194672
 20
-1345.9347389792995
 30
0.0
 41
1.0
 10
934.87423771772069
 20
-1345.9348890510737
 30
0.0
 41
1.0
 10
934.86398338349477
 20
-1345.9350391228479
 30
0.0
 41
1.0
 10
934.75442761731483
 20
-1345.9366424671352
 30
0.0
 41
0.9989753644966377
 10
934.64546561729708
 20
-1345.9481454740603
 30
0.0
 41
1.0
 10
934.53650361728069
 20
-1345.9596484809856
 30
0.0
 41
0.9983190067306238
 10
934.42960480631621
 20
-1345.9836834727723
 30
0.0
 41
1.0
 10
934.42070385470925
 20
-1345.9856847513352
 30
0.0
 41
1.0
 10
934.41180290310217
 20
-1345.9876860298978
 30
0.0
 41
1.0
 10
934.28710218892525
 20
-1346.0157235788095
 30
0.0
 41
0.9985539388303673
 10
934.16613243524841
 20
-1346.0569872548544
 30
0.0
 41
1.0
 10
934.16378700428686
 20
-1346.0577872986707
 30
0.0
 41
1.0
 10
934.16144157332519
 20
-1346.058587342487
 30
0.0
 41
1.0
 10
934.03578095772582
 20
-1346.1014511061646
 30
0.0
 41
0.9988468746493592
 10
933.91481061542436
 20
-1346.1561691912277
 30
0.0
 41
1.0
 10
933.91162779343665
 20
-1346.1576088657871
 30
0.0
 41
1.0
 10
933.90844497144894
 20
-1346.1590485403467
 30
0.0
 41
1.0
 10
933.7811089851715
 20
-1346.2166459745288
 30
0.0
 41
0.9991322885919013
 10
933.65900840111556
 20
-1346.2846413067102
 30
0.0
 41
1.0
 10
933.64140639007053
 20
-1346.2944435087006
 30
0.0
 41
1.0
 10
933.6238043790255
 20
-1346.304245710691
 30
0.0
 41
1.0
 10
933.52162769796894
 20
-1346.3611458264713
 30
0.0
 41
0.9993860037849071
 10
933.423686693896
 20
-1346.4250618420597
 30
0.0
 41
1.0
 10
933.41806838104367
 20
-1346.4287283367546
 30
0.0
 41
1.0
 10
933.41245006819133
 20
-1346.4323948314495
 30
0.0
 41
1.0
 10
933.32574568982091
 20
-1346.4889778576494
 30
0.0
 41
0.9998821494952946
 10
933.24081931400974
 20
-1346.548196087725
 30
0.0
 41
1.0
 10
933.15589293819937
 20
-1346.6074143178
 30
0.0
 41
0.9997976482743735
 10
933.07341730780047
 20
-1346.670000725838
 30
0.0
 41
1.0
 10
933.058781042992
 20
-1346.6811074156205
 30
0.0
 41
1.0
 10
933.04414477818352
 20
-1346.6922141054031
 30
0.0
 41
1.0
 10
932.93239661816938
 20
-1346.777013893005
 30
0.0
 41
0.999809163080035
 10
932.82404634014154
 20
-1346.8661142437068
 30
0.0
 41
1.0
 10
932.81104058766459
 20
-1346.8768093441524
 30
0.0
 41
1.0
 10
932.79803483518776
 20
-1346.8875044445981
 30
0.0
 41
1.0
 10
932.66367305220672
 20
-1346.9979949961905
 30
0.0
 41
0.9995035112317322
 10
932.53653717444615
 20
-1347.1167288132026
 30
0.0
 41
1.0
 10
932.52688986405678
 20
-1347.1257385593626
 30
0.0
 41
1.0
 10
932.5172425536673
 20
-1347.1347483055224
 30
0.0
 41
1.0
 10
932.39381949090239
 20
-1347.2500146772779
 30
0.0
 41
0.9994630424299179
 10
932.2782110851183
 20
-1347.3731174205132
 30
0.0
 41
1.0
 10
932.27452824634543
 20
-1347.3770390000277
 30
0.0
 41
1.0
 10
932.27084540757244
 20
-1347.3809605795425
 30
0.0
 41
1.0
 10
932.16260267933308
 20
-1347.4962201637497
 30
0.0
 41
0.9995160693750003
 10
932.06173664980236
 20
-1347.617987581621
 30
0.0
 41
1.0
 10
932.05980292972254
 20
-1347.6203220058283
 30
0.0
 41
1.0
 10
932.0578692096426
 20
-1347.6226564300352
 30
0.0
 41
1.0
 10
931.96087062027175
 20
-1347.7397549994919
 30
0.0
 41
0.999656147051488
 10
931.87014440160453
 20
-1347.8617777619427
 30
0.0
 41
1.0
 10
931.8639867356992
 20
-1347.8700595509895
 30
0.0
 41
1.0
 10
931.85782906979398
 20
-1347.8783413400361
 30
0.0
 41
1.0
 10
931.77941818293493
 20
-1347.9838005243969
 30
0.0
 41
0.999834905517257
 10
931.70489090100637
 20
-1348.0920391080554
 30
0.0
 41
1.0
 10
931.63036361908121
 20
-1348.2002776917086
 30
0.0
 41
0.9999728109567746
 10
931.55744072317952
 20
-1348.3096036172506
 30
0.0
 41
1.0
 10
931.55612550776004
 20
-1348.3115753867646
 30
0.0
 41
1.0
 10
931.55481029234056
 20
-1348.3135471562789
 30
0.0
 41
1.0
 10
931.47925696559821
 20
-1348.4268166208522
 30
0.0
 41
0.9999972147275646
 10
931.40423915521956
 20
-1348.5404414636953
 30
0.0
 41
1.0
 10
931.39926761260381
 20
-1348.5479715521574
 30
0.0
 41
1.0
 10
931.39429606998817
 20
-1348.5555016406197
 30
0.0
 41
1.0
 10
931.30933517437586
 20
-1348.6841866603902
 30
0.0
 41
0.9999371979005065
 10
931.22727982497884
 20
-1348.8147435741557
 30
0.0
 41
1.0
 10
931.22377094060994
 20
-1348.8203265022321
 30
0.0
 41
1.0
 10
931.22026205624115
 20
-1348.8259094303082
 30
0.0
 41
1.0
 10
931.13118893810929
 20
-1348.9676322002222
 30
0.0
 41
0.9998272025610072
 10
931.0474455472264
 20
-1349.1125680769662
 30
0.0
 41
1.0
 10
931.03223037520434
 20
-1349.1389011914193
 30
0.0
 41
1.0
 10
931.01701520318238
 20
-1349.1652343058727
 30
0.0
 41
1.0
 10
930.9028414682532
 20
-1349.362836411527
 30
0.0
 41
0.9995217214838156
 10
930.80110177869676
 20
-1349.5671187393903
 30
0.0
 41
1.0
 10
930.79345821606125
 20
-1349.5824661890942
 30
0.0
 41
1.0
 10
930.78581465342575
 20
-1349.597813638798
 30
0.0
 41
1.0
 10
930.69890936083539
 20
-1349.7723100968808
 30
0.0
 41
0.9998269762607489
 10
930.6185548945648
 20
-1349.9499183836012
 30
0.0
 41
1.0
 10
930.53820042829489
 20
-1350.1275266703203
 30
0.0
 41
0.9998944747388798
 10
930.4630396337318
 20
-1350.307394395945
 30
0.0
 41
1.0
 10
930.45808596413849
 20
-1350.3192490508673
 30
0.0
 41
1.0
 10
930.4531322945453
 20
-1350.3311037057897
 30
0.0
 41
1.0
 10
930.37248523399069
 20
-1350.5241006458127
 30
0.0
 41
0.9999506734408782
 10
930.29568770508899
 20
-1350.7186614506641
 30
0.0
 41
1.0
 10
930.28108773981285
 20
-1350.7556493724833
 30
0.0
 41
1.0
 10
930.26648777453659
 20
-1350.7926372943027
 30
0.0
 41
1.0
 10
930.21889017618219
 20
-1350.913222255529
 30
0.0
 41
0.9999912393946779
 10
930.17230373216285
 20
-1351.0342014582161
 30
0.0
 41
1.0
 10
930.12571728813919
 20
-1351.155180660915
 30
0.0
 41
0.9999927113991551
 10
930.08005599374542
 20
-1351.276512068416
 30
0.0
 41
1.0
 10
930.06608756234812
 20
-1351.313629050414
 30
0.0
 41
1.0
 10
930.05211913095081
 20
-1351.3507460324117
 30
0.0
 41
1.0
 10
929.97852097376142
 20
-1351.5463114039105
 30
0.0
 41
0.9999487550950048
 10
929.90889734879408
 20
-1351.743326769081
 30
0.0
 41
1.0
 10
929.88530373885351
 20
-1351.8100900793843
 30
0.0
 41
1.0
 10
929.86171012891282
 20
-1351.8768533896878
 30
0.0
 41
1.0
 10
929.76702449454433
 20
-1352.1447872245067
 30
0.0
 41
0.9999808436937928
 10
929.67566290590366
 20
-1352.413872655769
 30
0.0
 41
1.0
 10
929.58430131725902
 20
-1352.6829580870431
 30
0.0
 41
0.999987393292162
 10
929.49564660854469
 20
-1352.9529474420451
 30
0.0
 41
1.0
 10
929.47555425167502
 20
-1353.0141367747988
 30
0.0
 41
1.0
 10
929.45546189480547
 20
-1353.0753261075527
 30
0.0
 41
1.0
 10
929.32662247234975
 20
-1353.4676941280684
 30
0.0
 41
0.9999794883025784
 10
929.20281968739141
 20
-1353.8616803343466
 30
0.0
 41
1.0
 10
929.19166742795414
 20
-1353.897170944583
 30
0.0
 41
1.0
 10
929.18051516851688
 20
-1353.9326615548193
 30
0.0
 41
1.0
 10
929.03795700462047
 20
-1354.3863343069024
 30
0.0
 41
0.999998276168228
 10
928.89708456460289
 20
-1354.840533329033
 30
0.0
 41
1.0
 10
927.30894423203029
 20
-1359.8893030600361
 30
0.0
 41
1.0
 10
925.72080389945768
 20
-1364.9380727910395
 30
0.0
 41
1.0
 10
924.77205328798129
 20
-1364.9380727910395
 30
0.0
 41
1.0
 10
923.82330267650491
 20
-1364.9380727910395
 30
0.0
 41
1.0
 10
927.06158716265804
 20
-1354.6107505910934
 30
0.0
 41
1.0
 10
930.29987164881129
 20
-1344.2834283911473
 30
0.0
 41
1.0
  0
LWPOLYLINE
  5
55
100
AcDbEntity
  8
0
370
              15
390
0
  6
Continuous
 62
               7
100
AcDbPolyline
 90
      232
 70
             128
 10
904.59632587498425
 20
-1345.3677712226624
 42
0.000437080068672
 10
904.54344870090802
 20
-1345.4364378619239
 10
904.50416446978477
 20
-1345.4875449748151
 42
0.0030481992175739
 10
904.37382575265565
 20
-1345.6592666671727
 10
904.33531408091517
 20
-1345.7106534509476
 42
0.0042058245754892
 10
904.13132903024484
 20
-1345.9876591960219
 10
904.07892390774464
 20
-1346.0600920428019
 42
0.0120948898743192
 10
903.78287999098518
 20
-1346.4908416473481
 10
903.68668749185622
 20
-1346.6383223825837
 42
0.0141601263949725
 10
903.38304344493929
 20
-1347.1339917193113
 10
903.34350617751534
 20
-1347.2028356867397
 42
0.0071131081299427
 10
903.13823385427486
 20
-1347.5723384855812
 42
0.0068458791003174
 10
902.94335432742503
 20
-1347.9474300490706
 10
902.93654246497408
 20
-1347.9609917627808
 42
0.0064120880286279
 10
902.73840021493595
 20
-1348.3684162376867
 10
902.73086552941277
 20
-1348.3844280944211
 42
0.0058857236449179
 10
902.52811013754115
 20
-1348.8288042054558
 10
902.51993521124712
 20
-1348.84729435909
 42
0.0053189741894369
 10
902.31123089857567
 20
-1349.3332578330173
 10
902.30248309289823
 20
-1349.3542397112042
 42
0.0047503650418229
 10
902.08650936674837
 20
-1349.8864391444115
 10
902.07724111839934
 20
-1349.9099155205217
 42
0.0042071762170169
 10
901.85269373467349
 20
-1350.4930091145864
 10
901.84294433232299
 20
-1350.5189752894612
 42
0.0036680086484977
 10
901.60848968900757
 20
-1351.1576106740015
 10
901.59828190916312
 20
-1351.1860592083367
 42
0.0032573142627019
 10
901.35264962318979
 20
-1351.8849118681092
 10
901.28399910235566
 20
-1352.0843749521432
 42
0.0026133366648819
 10
900.93555390359779
 20
-1353.114238235815
 10
900.87229711609723
 20
-1353.3044690712077
 42
0.0020592950740407
 10
900.65843404712996
 20
-1353.9565727238212
 10
900.65538225597174
 20
-1353.9660092122156
 42
0.0025609928536041
 10
900.45356175448103
 20
-1354.6011544345968
 10
900.45097038735139
 20
-1354.6094567755467
 42
0.003136235624023
 10
900.26147960167737
 20
-1355.2302196317169
 10
900.2593485587447
 20
-1355.2373609379454
 42
0.003722991802947
 10
900.08254817182365
 20
-1355.8463462399022
 10
900.08086958262231
 20
-1355.8522931300586
 42
0.004307762370812
 10
899.91712878055216
 20
-1356.4521118618454
 42
0.0047654161822918
 10
899.76430005803491
 20
-1357.0547979507533
 10
899.72983544919703
 20
-1357.1963597278977
 42
0.0112969368444821
 10
899.53397109105401
 20
-1358.0880518885192
 10
899.50596470195683
 20
-1358.2308799346197
 42
0.0130056762572012
 10
899.30512745831015
 20
-1359.4178210062646
 10
899.28458770816314
 20
-1359.5618991197409
 42
0.013872153214435
 10
899.18088470362522
 20
-1360.4687286055673
 10
899.16158921571764
 20
-1360.6922263274882
 42
0.0071254697007628
 10
899.12824256979479
 20
-1361.1554133363397
 10
899.12328159563106
 20
-1361.2414173309071
 42
0.0028881799200266
 10
899.10814330234166
 20
-1361.5331590407422
 42
0.006029729713342
 10
899.09821110256621
 20
-1361.8251079768513
 10
899.09714882089895
 20
-1361.873500348793
 42
0.0229523164159499
 10
899.10487984868473
 20
-1362.1962551950737
 10
899.10910562220488
 20
-1362.2566587290873
 42
0.0123673300669651
 10
899.12818426872343
 20
-1362.4577794542647
 42
0.0128577674471499
 10
899.15737965912945
 20
-1362.65767730419
 10
899.16450553251673
 20
-1362.6990061187885
 42
0.028571785376387
 10
899.22899953421245
 20
-1362.977122270102
 10
899.24266805787863
 20
-1363.0237770395781
 42
0.031628309915651
 10
899.35847863779304
 20
-1363.3427915414049
 10
899.36152732954861
 20
-1363.3497779137306
 42
0.0338984824238197
 10
899.51095904051579
 20
-1363.6373438779196
 10
899.51326776988617
 20
-1363.6411349071964
 42
0.0350228718357741
 10
899.69562806055922
 20
-1363.8981868918725
 10
899.6965133123341
 20
-1363.8992659696364
 42
0.0347476747524966
 10
899.91093799957434
 20
-1364.1264510168567
 42
0.0331337701912438
 10
900.15418132532056
 20
-1364.3225796789336
 10
900.15528142383687
 20
-1364.3233523821063
 42
0.0305233319079946
 10
900.42382611940991
 20
-1364.4884805521976
 10
900.4270561639114
 20
-1364.4902045640606
 42
0.0273744481151985
 10
900.71960987548573
 20
-1364.6263427079509
 10
900.72471441062328
 20
-1364.6283862924206
 42
0.0240964406194192
 10
901.04019148626662
 20
-1364.7373700187013
 10
901.04677481547901
 20
-1364.7392947583771
 42
0.0209636179811545
 10
901.38417496813429
 20
-1364.8227629063097
 10
901.39180742858025
 20
-1364.8243148193105
 42
0.0181388704692253
 10
901.75012982057876
 20
-1364.8837309125245
 10
901.75841066895691
 20
-1364.8847970963416
 42
0.0156086547586099
 10
902.13659803314579
 20
-1364.9215332829183
 10
902.17979328547779
 20
-1364.9243717853974
 42
0.0137148329024564
 10
902.50746643077161
 20
-1364.9368920406487
 10
902.55340262070911
 20
-1364.9373864737638
 42
0.0051057823885116
 10
902.78954820728984
 20
-1364.9375167281728
 42
0.0052256693316559
 10
903.02564549107444
 20
-1364.9327679037085
 10
903.09587227481791
 20
-1364.9306209376946
 42
0.0161507179048285
 10
903.47160935291924
 20
-1364.906970567368
 10
903.49162231329228
 20
-1364.9050603720805
 42
0.0101216737832246
 10
903.90564953478167
 20
-1364.8570674417151
 10
903.93970282420969
 20
-1364.8524197449053
 42
0.0245291776398438
 10
904.41649247976136
 20
-1364.763344666829
 10
904.50131579528636
 20
-1364.7431487464828
 42
0.0143509212558649
 10
904.85794689922443
 20
-1364.6473441127046
 42
0.0156557857036023
 10
905.20816296395299
 20
-1364.5303328968853
 10
905.21566417844633
 20
-1364.5275627351316
 42
0.0170137333631044
 10
905.57226017413097
 20
-1364.3819051202588
 10
905.57936409653519
 20
-1364.3787172846967
 42
0.018310536441182
 10
905.93871376469951
 20
-1364.2013822428733
 10
905.94566052934022
 20
-1364.1976318080001
 42
0.0194899958151807
 10
906.30414127031997
 20
-1363.9856528261121
 10
906.31115514966086
 20
-1363.9811274838144
 42
0.020486985295494
 10
906.66516945175636
 20
-1363.7316074687274
 10
906.67243506034185
 20
-1363.7260274033802
 42
0.0212516938554647
 10
907.01842499144493
 20
-1363.4361234064902
 10
907.0649416855257
 20
-1363.3936560963919
 42
0.0215248918249256
 10
907.32496785441322
 20
-1363.1348918173976
 10
907.36999758879153
 20
-1363.0860476960502
 42
0.0114578554954825
 10
907.52478974247106
 20
-1362.9102247625892
 10
907.53598427846237
 20
-1362.8969059990382
 42
0.0061531305135825
 10
907.66245892445215
 20
-1362.7426164657381
 42
0.0006325587127649
 10
907.78683740863687
 20
-1362.5866130900208
 10
907.80987754365538
 20
-1362.5576395694031
 42
0.0041897761555912
 10
907.97833294762904
 20
-1362.3421201933402
 10
908.0367950675203
 20
-1362.266018846356
 42
0.0092993880040216
 10
908.31340699475095
 20
-1361.8917400824625
 10
908.39580148794062
 20
-1361.7758030789068
 42
0.0159321727083017
 10
908.7424079705853
 20
-1361.2536288581475
 10
908.78676410597836
 20
-1361.181949293891
 42
0.0085547317021975
 10
909.02127587130008
 20
-1360.7880743446729
 42
0.0084601156888836
 10
909.24225204873653
 20
-1360.3864474956515
 10
909.25036752257256
 20
-1360.3710878133677
 42
0.0081429654285546
 10
909.47361679301264
 20
-1359.9313663008215
 10
909.48247695719408
 20
-1359.9131874588074
 42
0.0076574581327635
 10
909.70888446776291
 20
-1359.43000458355
 10
909.71836410848448
 20
-1359.4089401052515
 42
0.0070682724198872
 10
909.94880901629028
 20
-1358.8769028004726
 10
909.95879930027297
 20
-1358.8529136114585
 42
0.006455951444835
 10
910.1941325084548
 20
-1358.2666013449393
 10
910.20454186661959
 20
-1358.2396664194976
 42
0.0058311413908231
 10
910.44558860338225
 20
-1357.593634325114
 10
910.45634368076992
 20
-1357.5637499839531
 42
0.0052312425819428
 10
910.70392495881447
 20
-1356.8525475701076
 10
910.71496879519054
 20
-1356.8197208580491
 42
0.0046680544796336
 10
910.9698972229213
 20
-1356.037894542306
 10
911.01188937297923
 20
-1355.9049113049684
 42
0.0041666856445823
 10
911.21517538536364
 20
-1355.2419425299965
 10
911.25283782602685
 20
-1355.1153614223447
 42
0.0015170975157229
 10
911.37402440444043
 20
-1354.7034930708492
 42
-0.0004887993117738
 10
911.49436417753168
 20
-1354.2913746589161
 10
911.57084143505858
 20
-1354.0304172728661
 42
0.0002583378929462
 10
911.84405600512616
 20
-1353.0963605696757
 10
911.92582885470028
 20
-1352.816261310101
 42
0.0006636169672884
 10
912.11969661471085
 20
-1352.148908386517
 10
912.12479326907157
 20
-1352.1312768035896
 42
0.0010589131324638
 10
912.30624196997451
 20
-1351.498545460588
 10
912.31122404046937
 20
-1351.4810325535173
 42
0.001565552446299
 10
912.47949424763783
 20
-1350.8824158743671
 10
912.48432444805553
 20
-1350.8650237154216
 42
0.0021640440480012
 10
912.63861442003872
 20
-1350.299996697413
 10
912.64324863946661
 20
-1350.2827319674268
 42
0.0028763871851085
 10
912.78276435752173
 20
-1349.7507640165722
 10
912.78715022168672
 20
-1349.7336400384265
 42
0.0037310511946254
 10
912.91110691352583
 20
-1349.234192444394
 10
912.91518213381414
 20
-1349.2172321731514
 42
0.0047652197770852
 10
913.02280603432325
 20
-1348.7497544048433
 10
913.02649663364809
 20
-1348.7329948496865
 42
0.0060276699303047
 10
913.11702673280024
 20
-1348.2969190545491
 10
913.12024542308689
 20
-1348.2804178402525
 42
0.0075824337757439
 10
913.19293473250491
 20
-1347.8751506758138
 10
913.19558010988624
 20
-1347.8589957283566
 42
0.0095130624611646
 10
913.24969534551633
 20
-1347.4839063752916
 10
913.25668156939946
 20
-1347.4279728171705
 42
0.012105465323273
 10
913.28327289997685
 20
-1347.1630769887011
 10
913.28413938973597
 20
-1347.1516735457767
 42
0.0069050827391867
 10
913.29922820777415
 20
-1346.9087323189278
 10
913.30036350744206
 20
-1346.8852060618949
 42
0.0169063976686719
 10
913.30319078642287
 20
-1346.6890133345823
 10
913.30202013489179
 20
-1346.6286775732397
 42
0.0052007732895035
 10
913.29976668629865
 20
-1346.553084183081
 42
0.0054038123299897
 10
913.27980317446111
 20
-1346.4330658870786
 10
913.27471731858941
 20
-1346.4044074004898
 42
0.011205046046723
 10
913.23933295653137
 20
-1346.2280809621532
 10
913.22150799449014
 20
-1346.1485393754301
 42
0.0240764468009334
 10
913.13061062834436
 20
-1345.8183023399299
 10
913.11205186553093
 20
-1345.7616821749359
 42
0.0256812331834335
 10
912.968688945341
 20
-1345.3899579686777
 10
912.96327951951946
 20
-1345.3778266336876
 42
0.026836050121676
 10
912.79385227866976
 20
-1345.0468334996669
 10
912.78831587103434
 20
-1345.0373138293539
 42
0.0274670231729367
 10
912.59611489462145
 20
-1344.7450264544373
 10
912.59073359465924
 20
-1344.7377473068964
 42
0.0275035967098132
 10
912.37916071509699
 20
-1344.482231416592
 10
912.37409121413134
 20
-1344.4767523289624
 42
0.0269557673522201
 10
912.14668767069088
 20
-1344.2561100429994
 10
912.1419446129089
 20
-1344.2519800885391
 42
0.02591248022068
 10
911.9023897814775
 20
-1344.064289561386
 10
911.89785893629551
 20
-1344.0611040590557
 42
0.0245162153005956
 10
911.64994258320075
 20
-1343.9043710499454
 10
911.64541603687724
 20
-1343.901810852745
 42
0.0229282588842563
 10
911.39299648004919
 20
-1343.7739426602457
 10
911.38821598621303
 20
-1343.7717903604839
 42
0.0212984135700765
 10
911.13517803375066
 20
-1343.6705914432414
 10
911.12987374878333
 20
-1343.6687278804823
 42
0.0197555462347386
 10
910.88009541105816
 20
-1343.5919124625166
 42
0.0183511896789388
 10
910.62516668559556
 20
-1343.534329555551
 10
910.53880148887163
 20
-1343.5181267651658
 42
0.0338057877144312
 10
910.25329413961174
 20
-1343.4843183600256
 10
910.16228873457169
 20
-1343.4797387047643
 42
0.0091990524490717
 10
910.0564416259358
 20
-1343.4763628488422
 42
0.0028333980789336
 10
909.95052770994016
 20
-1343.4755347413256
 10
909.94961225689349
 20
-1343.4755327715015
 42
-0.002361982780504
 10
909.84186624179608
 20
-1343.474791930423
 10
909.80546107161172
 20
-1343.4743696239598
 42
0.000882459847429
 10
909.62490508166582
 20
-1343.4725938457207
 10
909.58104364935593
 20
-1343.4722398841959
 42
0.0038132665763906
 10
909.31276075348512
 20
-1343.4721209481293
 10
909.29622709868363
 20
-1343.472239714273
 42
0.0060665569335579
 10
908.9949466070974
 20
-1343.4780600136937
 10
908.98069627506698
 20
-1343.4785083216614
 42
0.0080356953336687
 10
908.65123755872389
 20
-1343.4941760437284
 10
908.6391675436405
 20
-1343.4949446266687
 42
0.0098996399106022
 10
908.28640445898736
 20
-1343.5244298558671
 10
908.27635874961493
 20
-1343.5254701520651
 42
0.0117740981366489
 10
907.90520189126732
 20
-1343.5727623995947
 10
907.89697919478363
 20
-1343.5740075161657
 42
0.013743521513845
 10
907.51239037529592
 20
-1343.6431044897281
 10
907.50573333617513
 20
-1343.644490385961
 42
0.0158359869388291
 10
907.11273624237162
 20
-1343.739382474442
 10
907.1073230555055
 20
-1343.7408724153122
 42
0.0180554124029893
 10
906.71100801089278
 20
-1343.8655104315512
 10
906.70645122280973
 20
-1343.8671264678173
 42
0.0203657431285382
 10
906.31197370499672
 20
-1344.0253868093337
 10
906.30783016599105
 20
-1344.0272484307748
 42
0.0226819684657288
 10
905.92039410978555
 20
-1344.222891009447
 10
905.91619431876927
 20
-1344.2252566013658
 42
0.024863498460645
 10
905.54101237758812
 20
-1344.4618832473127
 10
905.49281744880375
 20
-1344.4957402891387
 42
0.0267044190884283
 10
905.21852475188757
 20
-1344.7111806650069
 42
0.0139303002198896
 10
904.96235758595515
 20
-1344.9484195059126
 10
904.95750420022785
 20
-1344.9531721687788
 42
0.0283460963446713
 10
904.71343160599952
 20
-1345.2209028292252
 10
904.6737631008441
 20
-1345.269704406697
 42
0.0070695364819168
 10
904.59632587498425
 20
-1345.3677712226624
 42
0.0070695364819168
  0
LWPOLYLINE
  5
56
100
AcDbEntity
  8
0
370
              15
390
0
  6
Continuous
 62
               7
100
AcDbPolyline
 90
      226
 70
             128
 10
901.06750543773785
 20
-1361.0893600288464
 42
-0.0026277636607057
 10
901.06742755393782
 20
-1361.0225881030794
 10
901.06764491216984
 20
-1360.9694328856604
 42
-0.0088680296727914
 10
901.07142152846302
 20
-1360.7964171032543
 10
901.07376788757529
 20
-1360.7371370778037
 42
-0.0077381705613145
 10
901.0898139983392
 20
-1360.4458765819957
 10
901.09068190951155
 20
-1360.4335883483204
 42
-0.0068872530533739
 10
901.11731398926042
 20
-1360.1183665962437
 10
901.11851821344578
 20
-1360.1061256172325
 42
-0.0062130021487007
 10
901.15611193027416
 20
-1359.767255925989
 10
901.15761583380868
 20
-1359.7550820540775
 42
-0.0056726929671088
 10
901.20653769331125
 20
-1359.3928868319626
 10
901.20831113895542
 20
-1359.3807930317189
 42
-0.0052341884495975
 10
901.26892172521445
 20
-1358.9955997762063
 10
901.27093971399199
 20
-1358.9835948462085
 42
-0.0049768450167908
 10
901.34367839542222
 20
-1358.5757502787549
 10
901.36792741014017
 20
-1358.4472022957698
 42
-0.0089029805623325
 10
901.5050082619357
 20
-1357.7854268483438
 10
901.53775363725345
 20
-1357.640395417824
 42
-0.0080318257098789
 10
901.76730225159611
 20
-1356.6946857859632
 10
901.77928717804241
 20
-1356.6485551507803
 42
-0.0074265721317039
 10
902.06329871689502
 20
-1355.6184905723906
 10
902.08317826001212
 20
-1355.5503565117999
 42
-0.0069711922701489
 10
902.41048283851569
 20
-1354.4840887714822
 10
902.47043478562273
 20
-1354.298067413107
 42
-0.0052070422891852
 10
902.69986001088046
 20
-1353.6107953360804
 10
902.71714120301669
 20
-1353.5607680555675
 42
-0.0009167004448999
 10
902.92023309034221
 20
-1352.9763122073091
 42
-0.0025162726942414
 10
903.1273307206061
 20
-1352.3932709431429
 10
903.16455533241526
 20
-1352.2901213972273
 42
-0.0028212681456475
 10
903.41273125137332
 20
-1351.6143907650703
 10
903.42256201412954
 20
-1351.5880833203785
 42
-0.0031964916822847
 10
903.65885427178625
 20
-1350.9678785582664
 10
903.66848872578259
 20
-1350.9430685681298
 42
-0.0036281836451334
 10
903.89359468688644
 20
-1350.3756278872302
 10
903.90303309704245
 20
-1350.3523304557307
 42
-0.0041269166829688
 10
904.11765079370309
 20
-1349.8348895597489
 10
904.15028375012287
 20
-1349.7580111133902
 42
-0.0047472213055819
 10
904.30732855567749
 20
-1349.3975896455045
 10
904.31422263688762
 20
-1349.3821690481682
 42
-0.0025651659997371
 10
904.46258067073586
 20
-1349.054840992424
 42
-0.0057144634995036
 10
904.61633036450621
 20
-1348.7300313190635
 10
904.64436106990468
 20
-1348.6725229366748
 42
-0.0065388068374285
 10
904.82782809764819
 20
-1348.3082904400023
 10
904.8362865534267
 20
-1348.2920308606328
 42
-0.007451084301985
 10
905.01246879930454
 20
-1347.96534257951
 10
905.02064846983956
 20
-1347.9507018022341
 42
-0.0084648979853902
 10
905.19028232293567
 20
-1347.6587927912801
 10
905.19813844942382
 20
-1347.6457857996293
 42
-0.0095638542805224
 10
905.36197389701795
 20
-1347.3858969276507
 10
905.36944884069226
 20
-1347.3745275661913
 42
-0.0107191626804486
 10
905.52825042107725
 20
-1347.1439163316513
 10
905.53526715480825
 20
-1347.1341802392867
 42
-0.0118458573903881
 10
905.68981525332083
 20
-1346.9301080439759
 42
-0.0129184518188581
 10
905.85426787692609
 20
-1346.7339475278013
 10
905.88441264928611
 20
-1346.6998214489054
 42
-0.0217742579635611
 10
906.06102497162078
 20
-1346.516614678656
 10
906.07177051607789
 20
-1346.5063978454561
 42
-0.0097266568654902
 10
906.23782813493699
 20
-1346.3545502710156
 42
-0.018772090571699
 10
906.41217571082905
 20
-1346.2124814176245
 10
906.44288170150253
 20
-1346.1893223352288
 42
-0.0179428207517514
 10
906.67530242149678
 20
-1346.0267701581186
 10
906.67895474840714
 20
-1346.0244062232343
 42
-0.0170047877699453
 10
906.91471838594293
 20
-1345.8829457090792
 10
906.91850137469044
 20
-1345.8808474040425
 42
-0.0160190788363567
 10
907.15540992232479
 20
-1345.7591961020548
 42
-0.015110286149134
 10
907.39944170477168
 20
-1345.6525133260002
 10
907.45182820698324
 20
-1345.6314731931056
 42
-0.027194544188635
 10
907.81049076604165
 20
-1345.5096083823996
 10
907.8795555665323
 20
-1345.4902588411326
 42
-0.0237596594021453
 10
908.29535241355211
 20
-1345.3948081291519
 10
908.3634152672787
 20
-1345.3825534410257
 42
-0.0213715440556681
 10
908.64929019872784
 20
-1345.3436064095151
 10
908.70943736494382
 20
-1345.3380166948143
 42
-0.0101465655820661
 10
908.87692989693994
 20
-1345.3258731515502
 10
908.88627028313783
 20
-1345.325386236553
 42
-0.0100375910882628
 10
909.03542438370073
 20
-1345.3206104186277
 10
909.04568365337718
 20
-1345.3204879796133
 42
-0.0103625633384215
 10
909.17439164803591
 20
-1345.3216194131398
 10
909.19665729930432
 20
-1345.3222767716047
 42
-0.0115689250234876
 10
909.28070803683079
 20
-1345.32670627785
 42
-0.0072438037434452
 10
909.36454631627225
 20
-1345.3342954775994
 10
909.38134682574275
 20
-1345.3360620203234
 42
-0.0217917313138771
 10
909.49791658905451
 20
-1345.3534819130441
 10
909.56351667962474
 20
-1345.3662285214591
 42
-0.0332943556755175
 10
909.7679088446514
 20
-1345.4202688127662
 10
909.79808141319847
 20
-1345.4304368898836
 42
-0.0184824084810419
 10
909.93658646966696
 20
-1345.4828879052711
 42
-0.0198002050700385
 10
910.07066081016603
 20
-1345.5457719654703
 10
910.07254744754323
 20
-1345.5467497523503
 42
-0.0212242342969898
 10
910.20468638994623
 20
-1345.6225124911439
 10
910.20650168548855
 20
-1345.6236582933516
 42
-0.0226090605795186
 10
910.33500558671119
 20
-1345.7131379369168
 10
910.33685002844777
 20
-1345.7145501899035
 42
-0.0238457052221405
 10
910.46003210974118
 20
-1345.8185460857662
 10
910.46198483829971
 20
-1345.820360963532
 42
-0.0248160564147562
 10
910.57818634559999
 20
-1345.9396355647405
 10
910.58028997900237
 20
-1345.9420208984452
 42
-0.0254109591447604
 10
910.68789519686857
 20
-1346.0773092844097
 10
910.6901432187824
 20
-1346.0804508328101
 42
-0.0255528488295252
 10
910.78758989757898
 20
-1346.2324778870436
 10
910.78992099749576
 20
-1346.2365594986522
 42
-0.0252146793224302
 10
910.87570202350514
 20
-1346.4060617446498
 10
910.87800426266244
 20
-1346.411243826562
 42
-0.0244265635952732
 10
910.95065895642369
 20
-1346.5989903986081
 10
910.95990535789247
 20
-1346.626855816947
 42
-0.0231319612898874
 10
911.00582813688436
 20
-1346.7901568637481
 42
-0.0112130424360945
 10
911.04046415942207
 20
-1346.9563604639329
 10
911.04166668453513
 20
-1346.9628570508239
 42
-0.0210527881240268
 10
911.06735315990591
 20
-1347.1439126962655
 10
911.07086375472772
 20
-1347.1793182448125
 42
-0.0190029892428993
 10
911.08630522827241
 20
-1347.4328540910865
 10
911.08711520471638
 20
-1347.4683297054539
 42
-0.0137974553661589
 10
911.08556635188074
 20
-1347.7933611121884
 10
911.08472089692532
 20
-1347.8194798567802
 42
-0.0081336634214535
 10
911.06986156170274
 20
-1348.1248273243793
 42
-0.0073526923571413
 10
911.04555302832921
 20
-1348.4295755686537
 10
911.04429160454538
 20
-1348.4429122433305
 42
-0.0066886138693956
 10
911.00855601849855
 20
-1348.7734982868303
 10
911.00689892902892
 20
-1348.7871199058191
 42
-0.0061359187351422
 10
910.9590483269767
 20
-1349.1438838859283
 10
910.95701082590517
 20
-1349.1577786887483
 42
-0.0056698610060989
 10
910.89636049513717
 20
-1349.5410572575922
 10
910.89395506181518
 20
-1349.555216376817
 42
-0.0052721077270442
 10
910.81982286101356
 20
-1349.9653437165048
 10
910.81705971217377
 20
-1349.9797603518809
 42
-0.0049289272182416
 10
910.72876559407382
 20
-1350.4170688630029
 10
910.72565309939114
 20
-1350.4317377158193
 42
-0.0047415956715274
 10
910.62241510785896
 20
-1350.8965344732294
 10
910.5876468974991
 20
-1351.0463415686131
 42
-0.0084404470902943
 10
910.39763045392806
 20
-1351.8065655931414
 10
910.39150376594159
 20
-1351.8294297172977
 42
-0.003963594025745
 10
910.17005008165881
 20
-1352.6304185815407
 10
910.15667328647805
 20
-1352.677350198137
 42
-0.0072475040837424
 10
909.88922639861698
 20
-1353.5665699145206
 10
909.81901407179248
 20
-1353.7883102644839
 42
-0.0051345458826775
 10
909.5322546997287
 20
-1354.6626354523103
 10
909.5107284329689
 20
-1354.7260617194174
 42
-0.0019150016603301
 10
909.2551950260945
 20
-1355.4696108396663
 10
909.24872742168634
 20
-1355.4881983046218
 42
-0.0021524362752204
 10
909.00024937063449
 20
-1356.1925241262957
 10
908.99103894993755
 20
-1356.2182777045984
 42
-0.0024331286818788
 10
908.75478369090206
 20
-1356.8688770127155
 10
908.74573573835244
 20
-1356.8934203190672
 42
-0.0027449721786554
 10
908.52112116751607
 20
-1357.4925501979942
 10
908.51223116012341
 20
-1357.5158727878477
 42
-0.0031083229768958
 10
908.29868867351388
 20
-1358.0657968254261
 10
908.28995254184531
 20
-1358.0878865412662
 42
-0.0035311343282267
 10
908.08691135624645
 20
-1358.590869667014
 10
908.07832601710413
 20
-1358.6117123905115
 42
-0.0040245640950515
 10
907.88521421330438
 20
-1359.0700217131166
 10
907.87677809970262
 20
-1359.0896010811857
 42
-0.0046015135852397
 10
907.69302180653756
 20
-1359.505506110831
 10
907.68473562870508
 20
-1359.5238032502925
 42
-0.0052768638270867
 10
907.50975810975365
 20
-1359.8995761345534
 10
907.50162589913009
 20
-1359.9165694730896
 42
-0.0060672675643335
 10
907.33484628636074
 20
-1360.2544850962108
 10
907.32687680587821
 20
-1360.27015035521
 42
-0.0069904648870204
 10
907.16770841187781
 20
-1360.5724861618719
 10
907.15991701227256
 20
-1360.5867967110889
 42
-0.0080637022769591
 10
907.00776515192115
 20
-1360.8558320142522
 10
907.00017611928638
 20
-1360.868759879859
 42
-0.0093006455659528
 10
906.85443544275836
 20
-1361.1067742783562
 10
906.84708477601259
 20
-1361.1182922475325
 42
-0.0107060778045797
 10
906.7071362325762
 20
-1361.3275625649082
 10
906.70007446429338
 20
-1361.3376481074788
 42
-0.0122723111405004
 10
906.56528074609855
 20
-1361.5204414369632
 10
906.56495452254558
 20
-1361.5208618247714
 42
-0.0141836319628715
 10
906.42137291957033
 20
-1361.6954315826024
 10
906.41442516391783
 20
-1361.7034065828677
 42
-0.0175957477207675
 10
906.27451899588368
 20
-1361.8530274712718
 42
-0.0080466359667425
 10
906.12705523084094
 20
-1361.9953499994349
 10
906.08102068633605
 20
-1362.0383704375142
 42
-0.0269600260398421
 10
905.82774044035625
 20
-1362.250693696021
 10
905.76117330406089
 20
-1362.3006451106437
 42
-0.0178362839758901
 10
905.52122881440027
 20
-1362.4676630368997
 10
905.51398384339655
 20
-1362.4723315491067
 42
-0.0174650732648243
 10
905.2776476459585
 20
-1362.6131925140637
 42
-0.0169240130160951
 10
905.03218140009892
 20
-1362.7374847738422
 10
904.98619524454307
 20
-1362.7588467294083
 42
-0.0318883036841081
 10
904.63584438892201
 20
-1362.8951850389187
 10
904.56747885375717
 20
-1362.9168856593942
 42
-0.0284435909899725
 10
904.19142872746727
 20
-1363.0131030948687
 10
904.15627056696576
 20
-1363.0199966906978
 42
-0.0243909341008827
 10
903.84282710604975
 20
-1363.0657177217272
 10
903.79254637928307
 20
-1363.0705632686286
 42
-0.0196639292930969
 10
903.57695080175131
 20
-1363.0828115541424
 10
903.52512673058823
 20
-1363.0837148148792
 42
-0.010050151068206
 10
903.41270344892359
 20
-1363.083414416526
 10
903.38104358759097
 20
-1363.0826933446408
 42
-0.0019752031155657
 10
903.33195125089821
 20
-1363.0813811844309
 10
903.32919094766658
 20
-1363.0812964926045
 42
0.0065378752007836
 10
903.28561437292137
 20
-1363.0805296013898
 42
-0.0167974694633442
 10
903.24208354998916
 20
-1363.0788697028638
 10
903.23800421072747
 20
-1363.0785766919689
 42
-0.0081283276274033
 10
903.18644441299239
 20
-1363.0740296983313
 10
903.17470483911029
 20
-1363.0728017807526
 42
-0.0126703440181839
 10
903.09998654331741
 20
-1363.0630669896811
 10
903.07719867564015
 20
-1363.0595087337658
 42
-0.0117852088434891
 10
902.95765968980254
 20
-1363.0379457386075
 10
902.90227923804468
 20
-1363.0266021983741
 42
-0.0251774592302268
 10
902.67543519903836
 20
-1362.9681041889414
 10
902.63071600918681
 20
-1362.9541373696061
 42
-0.0146525199894823
 10
902.44432302164728
 20
-1362.8898708424076
 42
-0.0166929435859923
 10
902.26234536552317
 20
-1362.8140637093543
 10
902.25768873424749
 20
-1362.8119388087391
 42
-0.0191684358433512
 10
902.07250510299798
 20
-1362.718702724949
 10
902.06917251724121
 20
-1362.7168614773959
 42
-0.0221181781806163
 10
901.8858622133373
 20
-1362.6047279790239
 10
901.88351240933059
 20
-1362.603143681034
 42
-0.0254984685376553
 10
901.70722225894531
 20
-1362.4707325310646
 10
901.68474011124374
 20
-1362.4519802221287
 42
-0.0292492648804605
 10
901.55997117240031
 20
-1362.3348874224851
 42
-0.0159048957498429
 10
901.44613117494964
 20
-1362.2068674308853
 10
901.44481238437083
 20
-1362.2052858178658
 42
-0.0343813379558831
 10
901.34217512274449
 20
-1362.0634144920962
 10
901.31068359138328
 20
-1362.0129111000015
 42
-0.0369117275701862
 10
901.22479108948653
 20
-1361.849433859054
 42
-0.0191751379902623
 10
901.1575977039297
 20
-1361.6770292530482
 10
901.15583438017006
 20
-1361.6719359083731
 42
-0.0378178042228332
 10
901.10603966138569
 20
-1361.4829951322913
 10
901.100044365656
 20
-1361.4504345140977
 42
-0.0184846046466747
 10
901.07932716636105
 20
-1361.3086816935499
 42
-0.0179866351308685
 10
901.06899416128738
 20
-1361.1657908804682
 10
901.06893771884165
 20
-1361.1642331938563
 42
-0.0085497186138666
 10
901.06750543773785
 20
-1361.0893600288464
 42
-0.0085497186138666
  0
ENDBLK
  5
57
100
AcDbEntity
  8
template
390
0
100
AcDbBlockEnd
  0
BLOCK
  5
58
100
AcDbEntity
  8
notes
390
0
100
AcDbBlockBegin
  2
*D3
 70
               1
 10
0.0
 20
0.0
 30
0.0
  3
*D3
  1

  0
LINE
  5
59
100
AcDbEntity
  8
0
370
              -2
390
0
  6
Continuous
 62
               0
100
AcDbLine
 10
16534.022854553197
 20
9630.9514908648925
 30
0.0
 11
16611.901823669868
 21
9630.9514908648925
 31
0.0
  0
LINE
  5
5A
100
AcDbEntity
  8
0
370
              -2
390
0
  6
Continuous
 62
               0
100
AcDbLine
 10
16263.329073051693
 20
9458.9514908648925
 30
0.0
 11
16611.901823669868
 21
9458.9514908648925
 31
0.0
  0
LINE
  5
5B
100
AcDbEntity
  8
0
370
              -2
390
0
  6
Continuous
 62
               0
100
AcDbLine
 10
16611.901823669868
 20
9630.9514908648925
 30
0.0
 11
16611.901823669868
 21
9458.9514908648925
 31
0.0
  0
CIRCLE
  5
5C
102
{ACAD_REACTORS
330
5D
102
}
100
AcDbEntity
  8
0
370
              -2
390
0
  6
Continuous
 62
               0
100
AcDbCircle
 10
16611.901823669868
 20
9630.9514908648925
 30
0.0
 40
1.9998779296875
  0
HATCH
  5
5D
100
AcDbEntity
  8
0
370
              -2
390
0
  6
Continuous
 62
               0
100
AcDbHatch
 10
0.0
 20
0.0
 30
0.0
210
0.0
220
0.0
230
1.0
  2
SOLID
 70
               1
 71
               1
 91
        1
 92
        1
 93
        1
 72
               2
 10
16611.901823669868
 20
9630.9514908648925
 40
1.9998779296875
 50
0.0
 51
360.0
 73
               0
 97
        1
330
5C
 75
               0
 76
               1
 98
        1
 10
0.0
 20
0.0
  0
CIRCLE
  5
5E
102
{ACAD_REACTORS
330
5F
102
}
100
AcDbEntity
  8
0
370
              -2
390
0
  6
Continuous
 62
               0
100
AcDbCircle
 10
16611.901823669868
 20
9458.9514908648925
 30
0.0
 40
1.9998779296875
  0
HATCH
  5
5F
100
AcDbEntity
  8
0
370
              -2
390
0
  6
Continuous
 62
               0
100
AcDbHatch
 10
0.0
 20
0.0
 30
0.0
210
0.0
220
0.0
230
1.0
  2
SOLID
 70
               1
 71
               1
 91
        1
 92
        1
 93
        1
 72
               2
 10
16611.901823669868
 20
9458.9514908648925
 40
1.9998779296875
 50
0.0
 51
360.0
 73
               0
 97
        1
330
5E
 75
               0
 76
               1
 98
        1
 10
0.0
 20
0.0
  0
MTEXT
  5
60
100
AcDbEntity
  8
0
390
0
 62
               0
100
AcDbMText
 10
16578.024206482369
 20
9521.1389891827184
 30
0.0
 40
24.432617187500004
 41
0.0
 71
               1
 72
               1
  1
172
  7
ＭＳ ゴシック
 11
0.0
 21
1.0
 31
0.0
 73
               1
 44
0.7828267384257843
  0
POINT
  5
61
100
AcDbEntity
  8
Defpoints
370
               0
390
0
 62
               0
100
AcDbPoint
 10
16238.329073051693
 20
9458.9514908648925
 30
0.0
  0
POINT
  5
62
100
AcDbEntity
  8
Defpoints
370
               0
390
0
 62
               0
100
AcDbPoint
 10
16509.022854553197
 20
9630.9514908648925
 30
0.0
  0
POINT
  5
63
100
AcDbEntity
  8
Defpoints
370
               0
390
0
 62
               0
100
AcDbPoint
 10
16611.901823669868
 20
9630.9514908648925
 30
0.0
  0
ENDBLK
  5
64
100
AcDbEntity
  8
notes
390
0
100
AcDbBlockEnd
  0
BLOCK
  5
65
100
AcDbEntity
  8
notes
390
0
100
AcDbBlockBegin
  2
*D4
 70
               1
 10
0.0
 20
0.0
 30
0.0
  3
*D4
  1

  0
LINE
  5
66
100
AcDbEntity
  8
0
370
              -2
390
0
  6
Continuous
 62
               0
100
AcDbLine
 10
17355.667887353513
 20
9605.9517668101234
 30
0.0
 11
17430.667731898026
 21
9605.9517668101234
 31
0.0
  0
LINE
  5
67
100
AcDbEntity
  8
0
370
              -2
390
0
  6
Continuous
 62
               0
100
AcDbLine
 10
17175.508213617872
 20
9458.9517668101234
 30
0.0
 11
17430.667731898026
 21
9458.9517668101234
 31
0.0
  0
LINE
  5
68
100
AcDbEntity
  8
0
370
              -2
390
0
  6
Continuous
 62
               0
100
AcDbLine
 10
17430.667731898026
 20
9605.9517668101234
 30
0.0
 11
17430.667731898026
 21
9458.9517668101234
 31
0.0
  0
CIRCLE
  5
69
102
{ACAD_REACTORS
330
6A
102
}
100
AcDbEntity
  8
0
370
              -2
390
0
  6
Continuous
 62
               0
100
AcDbCircle
 10
17430.667731898026
 20
9605.9517668101234
 30
0.0
 40
1.9998779296875
  0
HATCH
  5
6A
100
AcDbEntity
  8
0
370
              -2
390
0
  6
Continuous
 62
               0
100
AcDbHatch
 10
0.0
 20
0.0
 30
0.0
210
0.0
220
0.0
230
1.0
  2
SOLID
 70
               1
 71
               1
 91
        1
 92
        1
 93
        1
 72
               2
 10
17430.667731898026
 20
9605.9517668101234
 40
1.9998779296875
 50
0.0
 51
360.0
 73
               0
 97
        1
330
69
 75
               0
 76
               1
 98
        1
 10
0.0
 20
0.0
  0
CIRCLE
  5
6B
102
{ACAD_REACTORS
330
6C
102
}
100
AcDbEntity
  8
0
370
              -2
390
0
  6
Continuous
 62
               0
100
AcDbCircle
 10
17430.667731898026
 20
9458.9517668101234
 30
0.0
 40
1.9998779296875
  0
HATCH
  5
6C
100
AcDbEntity
  8
0
370
              -2
390
0
  6
Continuous
 62
               0
100
AcDbHatch
 10
0.0
 20
0.0
 30
0.0
210
0.0
220
0.0
230
1.0
  2
SOLID
 70
               1
 71
               1
 91
        1
 92
        1
 93
        1
 72
               2
 10
17430.667731898026
 20
9458.9517668101234
 40
1.9998779296875
 50
0.0
 51
360.0
 73
               0
 97
        1
330
6B
 75
               0
 76
               1
 98
        1
 10
0.0
 20
0.0
  0
MTEXT
  5
6D
100
AcDbEntity
  8
0
390
0
 62
               0
100
AcDbMText
 10
17396.790114710526
 20
9508.6392651279475
 30
0.0
 40
24.432617187500004
 41
0.0
 71
               1
 72
               1
  1
147
  7
ＭＳ ゴシック
 11
0.0
 21
1.0
 31
0.0
 73
               1
 44
0.7828267384257843
  0
POINT
  5
6E
100
AcDbEntity
  8
Defpoints
370
               0
390
0
 62
               0
100
AcDbPoint
 10
17150.508213617872
 20
9458.9517668101234
 30
0.0
  0
POINT
  5
6F
100
AcDbEntity
  8
Defpoints
370
               0
390
0
 62
               0
100
AcDbPoint
 10
17330.667887353513
 20
9605.9517668101234
 30
0.0
  0
POINT
  5
70
100
AcDbEntity
  8
Defpoints
370
               0
390
0
 62
               0
100
AcDbPoint
 10
17430.667731898026
 20
9605.9517668101234
 30
0.0
  0
ENDBLK
  5
71
100
AcDbEntity
  8
notes
390
0
100
AcDbBlockEnd
  0
BLOCK
  5
72
100
AcDbEntity
  8
notes
390
0
100
AcDbBlockBegin
  2
*D5
 70
               1
 10
0.0
 20
0.0
 30
0.0
  3
*D5
  1

  0
LINE
  5
73
100
AcDbEntity
  8
0
370
              -2
390
0
  6
Continuous
 62
               0
100
AcDbLine
 10
17330.667887353513
 20
9580.9517668101234
 30
0.0
 11
17330.667887353513
 21
9358.9517668101234
 31
0.0
  0
LINE
  5
74
100
AcDbEntity
  8
0
370
              -2
390
0
  6
Continuous
 62
               0
100
AcDbLine
 10
17115.667887353513
 20
9434.0405528164756
 30
0.0
 11
17115.667887353513
 21
9358.9517668101234
 31
0.0
  0
LINE
  5
75
100
AcDbEntity
  8
0
370
              -2
390
0
  6
Continuous
 62
               0
100
AcDbLine
 10
17330.667887353513
 20
9358.9517668101234
 30
0.0
 11
17115.667887353513
 21
9358.9517668101234
 31
0.0
  0
CIRCLE
  5
76
102
{ACAD_REACTORS
330
77
102
}
100
AcDbEntity
  8
0
370
              -2
390
0
  6
Continuous
 62
               0
100
AcDbCircle
 10
17330.667887353513
 20
9358.9517668101234
 30
0.0
 40
1.9998779296875
  0
HATCH
  5
77
100
AcDbEntity
  8
0
370
              -2
390
0
  6
Continuous
 62
               0
100
AcDbHatch
 10
0.0
 20
0.0
 30
0.0
210
0.0
220
0.0
230
1.0
  2
SOLID
 70
               1
 71
               1
 91
        1
 92
        1
 93
        1
 72
               2
 10
17330.667887353513
 20
9358.9517668101234
 40
1.9998779296875
 50
0.0
 51
360.0
 73
               0
 97
        1
330
76
 75
               0
 76
               1
 98
        1
 10
0.0
 20
0.0
  0
CIRCLE
  5
78
102
{ACAD_REACTORS
330
79
102
}
100
AcDbEntity
  8
0
370
              -2
390
0
  6
Continuous
 62
               0
100
AcDbCircle
 10
17115.667887353513
 20
9358.9517668101234
 30
0.0
 40
1.9998779296875
  0
HATCH
  5
79
100
AcDbEntity
  8
0
370
              -2
390
0
  6
Continuous
 62
               0
100
AcDbHatch
 10
0.0
 20
0.0
 30
0.0
210
0.0
220
0.0
230
1.0
  2
SOLID
 70
               1
 71
               1
 91
        1
 92
        1
 93
        1
 72
               2
 10
17115.667887353513
 20
9358.9517668101234
 40
1.9998779296875
 50
0.0
 51
360.0
 73
               0
 97
        1
330
78
 75
               0
 76
               1
 98
        1
 10
0.0
 20
0.0
  0
MTEXT
  5
7A
100
AcDbEntity
  8
0
390
0
 62
               0
100
AcDbMText
 10
17199.355385671337
 20
9392.8293839976232
 30
0.0
 40
24.432617187500004
 41
0.0
 71
               1
 72
               1
  1
215
  7
ＭＳ ゴシック
 73
               1
 44
0.7828267384257843
  0
POINT
  5
7B
100
AcDbEntity
  8
Defpoints
370
               0
390
0
 62
               0
100
AcDbPoint
 10
17115.667887353513
 20
9459.0405528164756
 30
0.0
  0
POINT
  5
7C
100
AcDbEntity
  8
Defpoints
370
               0
390
0
 62
               0
100
AcDbPoint
 10
17330.667887353513
 20
9605.9517668101234
 30
0.0
  0
POINT
  5
7D
100
AcDbEntity
  8
Defpoints
370
               0
390
0
 62
               0
100
AcDbPoint
 10
17330.667887353513
 20
9358.9517668101234
 30
0.0
  0
ENDBLK
  5
7E
100
AcDbEntity
  8
notes
390
0
100
AcDbBlockEnd
  0
BLOCK
  5
7F
100
AcDbEntity
  8
notes
390
0
100
AcDbBlockBegin
  2
*D6
 70
               1
 10
0.0
 20
0.0
 30
0.0
  3
*D6
  1

  0
LINE
  5
80
100
AcDbEntity
  8
0
370
              -2
390
0
  6
Continuous
 62
               0
100
AcDbLine
 10
15896.919315113262
 20
10658.814336747224
 30
0.0
 11
15896.919315113262
 21
10946.874283452224
 31
0.0
  0
LINE
  5
81
100
AcDbEntity
  8
0
370
              -2
390
0
  6
Continuous
 62
               0
100
AcDbLine
 10
16511.901823669919
 20
10658.814336747224
 30
0.0
 11
16511.901823669919
 21
10946.874283452224
 31
0.0
  0
LINE
  5
82
100
AcDbEntity
  8
0
370
              -2
390
0
  6
Continuous
 62
               0
100
AcDbLine
 10
15896.919315113262
 20
10946.874283452224
 30
0.0
 11
16511.901823669919
 21
10946.874283452224
 31
0.0
  0
CIRCLE
  5
83
102
{ACAD_REACTORS
330
84
102
}
100
AcDbEntity
  8
0
370
              -2
390
0
  6
Continuous
 62
               0
100
AcDbCircle
 10
15896.919315113262
 20
10946.874283452224
 30
0.0
 40
1.9998779296875
  0
HATCH
  5
84
100
AcDbEntity
  8
0
370
              -2
390
0
  6
Continuous
 62
               0
100
AcDbHatch
 10
0.0
 20
0.0
 30
0.0
210
0.0
220
0.0
230
1.0
  2
SOLID
 70
               1
 71
               1
 91
        1
 92
        1
 93
        1
 72
               2
 10
15896.919315113262
 20
10946.874283452224
 40
1.9998779296875
 50
0.0
 51
360.0
 73
               0
 97
        1
330
83
 75
               0
 76
               1
 98
        1
 10
0.0
 20
0.0
  0
CIRCLE
  5
85
102
{ACAD_REACTORS
330
86
102
}
100
AcDbEntity
  8
0
370
              -2
390
0
  6
Continuous
 62
               0
100
AcDbCircle
 10
16511.901823669919
 20
10946.874283452224
 30
0.0
 40
1.9998779296875
  0
HATCH
  5
86
100
AcDbEntity
  8
0
370
              -2
390
0
  6
Continuous
 62
               0
100
AcDbHatch
 10
0.0
 20
0.0
 30
0.0
210
0.0
220
0.0
230
1.0
  2
SOLID
 70
               1
 71
               1
 91
        1
 92
        1
 93
        1
 72
               2
 10
16511.901823669919
 20
10946.874283452224
 40
1.9998779296875
 50
0.0
 51
360.0
 73
               0
 97
        1
330
85
 75
               0
 76
               1
 98
        1
 10
0.0
 20
0.0
  0
MTEXT
  5
87
100
AcDbEntity
  8
0
390
0
 62
               0
100
AcDbMText
 10
16180.598067709416
 20
10980.751900639723
 30
0.0
 40
24.432617187500004
 41
0.0
 71
               1
 72
               1
  1
615
  7
ＭＳ ゴシック
 73
               1
 44
0.7828267384257843
  0
POINT
  5
88
100
AcDbEntity
  8
Defpoints
370
               0
390
0
 62
               0
100
AcDbPoint
 10
16511.901823669919
 20
10633.814336747224
 30
0.0
  0
POINT
  5
89
100
AcDbEntity
  8
Defpoints
370
               0
390
0
 62
               0
100
AcDbPoint
 10
15896.919315113262
 20
10633.814336747224
 30
0.0
  0
POINT
  5
8A
100
AcDbEntity
  8
Defpoints
370
               0
390
0
 62
               0
100
AcDbPoint
 10
15896.919315113262
 20
10946.874283452224
 30
0.0
  0
ENDBLK
  5
8B
100
AcDbEntity
  8
notes
390
0
100
AcDbBlockEnd
  0
BLOCK
  5
8C
100
AcDbEntity
  8
notes
390
0
100
AcDbBlockBegin
  2
*D7
 70
               1
 10
0.0
 20
0.0
 30
0.0
  3
*D7
  1

  0
LINE
  5
8D
100
AcDbEntity
  8
0
370
              -2
390
0
  6
Continuous
 62
               0
100
AcDbLine
 10
16322.894089799869
 20
10846.872864690751
 30
0.0
 11
16611.901823669868
 21
10846.872864690751
 31
0.0
  0
LINE
  5
8E
100
AcDbEntity
  8
0
370
              -2
390
0
  6
Continuous
 62
               0
100
AcDbLine
 10
16322.894089799869
 20
10416.877363841701
 30
0.0
 11
16611.901823669868
 21
10416.877363841701
 31
0.0
  0
LINE
  5
8F
100
AcDbEntity
  8
0
370
              -2
390
0
  6
Continuous
 62
               0
100
AcDbLine
 10
16611.901823669868
 20
10846.872864690751
 30
0.0
 11
16611.901823669868
 21
10416.877363841701
 31
0.0
  0
CIRCLE
  5
90
102
{ACAD_REACTORS
330
91
102
}
100
AcDbEntity
  8
0
370
              -2
390
0
  6
Continuous
 62
               0
100
AcDbCircle
 10
16611.901823669868
 20
10846.872864690751
 30
0.0
 40
1.9998779296875
  0
HATCH
  5
91
100
AcDbEntity
  8
0
370
              -2
390
0
  6
Continuous
 62
               0
100
AcDbHatch
 10
0.0
 20
0.0
 30
0.0
210
0.0
220
0.0
230
1.0
  2
SOLID
 70
               1
 71
               1
 91
        1
 92
        1
 93
        1
 72
               2
 10
16611.901823669868
 20
10846.872864690751
 40
1.9998779296875
 50
0.0
 51
360.0
 73
               0
 97
        1
330
90
 75
               0
 76
               1
 98
        1
 10
0.0
 20
0.0
  0
CIRCLE
  5
92
102
{ACAD_REACTORS
330
93
102
}
100
AcDbEntity
  8
0
370
              -2
390
0
  6
Continuous
 62
               0
100
AcDbCircle
 10
16611.901823669868
 20
10416.877363841701
 30
0.0
 40
1.9998779296875
  0
HATCH
  5
93
100
AcDbEntity
  8
0
370
              -2
390
0
  6
Continuous
 62
               0
100
AcDbHatch
 10
0.0
 20
0.0
 30
0.0
210
0.0
220
0.0
230
1.0
  2
SOLID
 70
               1
 71
               1
 91
        1
 92
        1
 93
        1
 72
               2
 10
16611.901823669868
 20
10416.877363841701
 40
1.9998779296875
 50
0.0
 51
360.0
 73
               0
 97
        1
330
92
 75
               0
 76
               1
 98
        1
 10
0.0
 20
0.0
  0
MTEXT
  5
94
100
AcDbEntity
  8
0
390
0
 62
               0
100
AcDbMText
 10
16578.024206482369
 20
10608.06261258405
 30
0.0
 40
24.432617187500004
 41
0.0
 71
               1
 72
               1
  1
430
  7
ＭＳ ゴシック
 11
0.0
 21
1.0
 31
0.0
 73
               1
 44
0.7828267384257843
  0
POINT
  5
95
100
AcDbEntity
  8
Defpoints
370
               0
390
0
 62
               0
100
AcDbPoint
 10
16297.894089799869
 20
10416.877363841701
 30
0.0
  0
POINT
  5
96
100
AcDbEntity
  8
Defpoints
370
               0
390
0
 62
               0
100
AcDbPoint
 10
16297.894089799869
 20
10846.872864690751
 30
0.0
  0
POINT
  5
97
100
AcDbEntity
  8
Defpoints
370
               0
390
0
 62
               0
100
AcDbPoint
 10
16611.901823669868
 20
10846.872864690751
 30
0.0
  0
ENDBLK
  5
98
100
AcDbEntity
  8
notes
390
0
100
AcDbBlockEnd
  0
BLOCK
  5
99
100
AcDbEntity
  8
notes
390
0
100
AcDbBlockBegin
  2
*D8
 70
               1
 10
0.0
 20
0.0
 30
0.0
  3
*D8
  1

  0
LINE
  5
9A
100
AcDbEntity
  8
0
370
              -2
390
0
  6
Continuous
 62
               0
100
AcDbLine
 10
17233.009796552848
 20
10829.37496411348
 30
0.0
 11
17526.406235782848
 21
10829.37496411348
 31
0.0
  0
LINE
  5
9B
100
AcDbEntity
  8
0
370
              -2
390
0
  6
Continuous
 62
               0
100
AcDbLine
 10
17233.009796313821
 20
10434.37496411348
 30
0.0
 11
17526.406235782848
 21
10434.37496411348
 31
0.0
  0
LINE
  5
9C
100
AcDbEntity
  8
0
370
              -2
390
0
  6
Continuous
 62
               0
100
AcDbLine
 10
17526.406235782848
 20
10829.37496411348
 30
0.0
 11
17526.406235782848
 21
10434.37496411348
 31
0.0
  0
CIRCLE
  5
9D
102
{ACAD_REACTORS
330
9E
102
}
100
AcDbEntity
  8
0
370
              -2
390
0
  6
Continuous
 62
               0
100
AcDbCircle
 10
17526.406235782848
 20
10829.37496411348
 30
0.0
 40
1.9998779296875
  0
HATCH
  5
9E
100
AcDbEntity
  8
0
370
              -2
390
0
  6
Continuous
 62
               0
100
AcDbHatch
 10
0.0
 20
0.0
 30
0.0
210
0.0
220
0.0
230
1.0
  2
SOLID
 70
               1
 71
               1
 91
        1
 92
        1
 93
        1
 72
               2
 10
17526.406235782848
 20
10829.37496411348
 40
1.9998779296875
 50
0.0
 51
360.0
 73
               0
 97
        1
330
9D
 75
               0
 76
               1
 98
        1
 10
0.0
 20
0.0
  0
CIRCLE
  5
9F
102
{ACAD_REACTORS
330
A0
102
}
100
AcDbEntity
  8
0
370
              -2
390
0
  6
Continuous
 62
               0
100
AcDbCircle
 10
17526.406235782848
 20
10434.37496411348
 30
0.0
 40
1.9998779296875
  0
HATCH
  5
A0
100
AcDbEntity
  8
0
370
              -2
390
0
  6
Continuous
 62
               0
100
AcDbHatch
 10
0.0
 20
0.0
 30
0.0
210
0.0
220
0.0
230
1.0
  2
SOLID
 70
               1
 71
               1
 91
        1
 92
        1
 93
        1
 72
               2
 10
17526.406235782848
 20
10434.37496411348
 40
1.9998779296875
 50
0.0
 51
360.0
 73
               0
 97
        1
330
9F
 75
               0
 76
               1
 98
        1
 10
0.0
 20
0.0
  0
MTEXT
  5
A1
100
AcDbEntity
  8
0
390
0
 62
               0
100
AcDbMText
 10
17492.528618595348
 20
10608.062462431306
 30
0.0
 40
24.432617187500004
 41
0.0
 71
               1
 72
               1
  1
395
  7
ＭＳ ゴシック
 11
0.0
 21
1.0
 31
0.0
 73
               1
 44
0.7828267384257843
  0
POINT
  5
A2
100
AcDbEntity
  8
Defpoints
370
               0
390
0
 62
               0
100
AcDbPoint
 10
17208.009796313821
 20
10434.37496411348
 30
0.0
  0
POINT
  5
A3
100
AcDbEntity
  8
Defpoints
370
               0
390
0
 62
               0
100
AcDbPoint
 10
17208.009796552848
 20
10829.37496411348
 30
0.0
  0
POINT
  5
A4
100
AcDbEntity
  8
Defpoints
370
               0
390
0
 62
               0
100
AcDbPoint
 10
17526.406235782848
 20
10829.37496411348
 30
0.0
  0
ENDBLK
  5
A5
100
AcDbEntity
  8
notes
390
0
100
AcDbBlockEnd
  0
BLOCK
  5
A6
100
AcDbEntity
  8
notes
390
0
100
AcDbBlockBegin
  2
*D9
 70
               1
 10
0.0
 20
0.0
 30
0.0
  3
*D9
  1

  0
LINE
  5
A7
100
AcDbEntity
  8
0
370
              -2
390
0
  6
Continuous
 62
               0
100
AcDbLine
 10
17405.498363754283
 20
10659.0
 30
0.0
 11
17405.498363754283
 21
10946.874302779001
 31
0.0
  0
LINE
  5
A8
100
AcDbEntity
  8
0
370
              -2
390
0
  6
Continuous
 62
               0
100
AcDbLine
 10
16825.521228926158
 20
10659.0
 30
0.0
 11
16825.521228926158
 21
10946.874302779001
 31
0.0
  0
LINE
  5
A9
100
AcDbEntity
  8
0
370
              -2
390
0
  6
Continuous
 62
               0
100
AcDbLine
 10
17405.498363754283
 20
10946.874302779001
 30
0.0
 11
16825.521228926158
 21
10946.874302779001
 31
0.0
  0
CIRCLE
  5
AA
102
{ACAD_REACTORS
330
AB
102
}
100
AcDbEntity
  8
0
370
              -2
390
0
  6
Continuous
 62
               0
100
AcDbCircle
 10
17405.498363754283
 20
10946.874302779001
 30
0.0
 40
1.9998779296875
  0
HATCH
  5
AB
100
AcDbEntity
  8
0
370
              -2
390
0
  6
Continuous
 62
               0
100
AcDbHatch
 10
0.0
 20
0.0
 30
0.0
210
0.0
220
0.0
230
1.0
  2
SOLID
 70
               1
 71
               1
 91
        1
 92
        1
 93
        1
 72
               2
 10
17405.498363754283
 20
10946.874302779001
 40
1.9998779296875
 50
0.0
 51
360.0
 73
               0
 97
        1
330
AA
 75
               0
 76
               1
 98
        1
 10
0.0
 20
0.0
  0
CIRCLE
  5
AC
102
{ACAD_REACTORS
330
AD
102
}
100
AcDbEntity
  8
0
370
              -2
390
0
  6
Continuous
 62
               0
100
AcDbCircle
 10
16825.521228926158
 20
10946.874302779001
 30
0.0
 40
1.9998779296875
  0
HATCH
  5
AD
100
AcDbEntity
  8
0
370
              -2
390
0
  6
Continuous
 62
               0
100
AcDbHatch
 10
0.0
 20
0.0
 30
0.0
210
0.0
220
0.0
230
1.0
  2
SOLID
 70
               1
 71
               1
 91
        1
 92
        1
 93
        1
 72
               2
 10
16825.521228926158
 20
10946.874302779001
 40
1.9998779296875
 50
0.0
 51
360.0
 73
               0
 97
        1
330
AC
 75
               0
 76
               1
 98
        1
 10
0.0
 20
0.0
  0
MTEXT
  5
AE
100
AcDbEntity
  8
0
390
0
 62
               0
100
AcDbMText
 10
17091.697294658043
 20
10980.7519199665
 30
0.0
 40
24.432617187500004
 41
0.0
 71
               1
 72
               1
  1
580
  7
ＭＳ ゴシック
 73
               1
 44
0.7828267384257843
  0
POINT
  5
AF
100
AcDbEntity
  8
Defpoints
370
               0
390
0
 62
               0
100
AcDbPoint
 10
16825.521228926158
 20
10634.0
 30
0.0
  0
POINT
  5
B0
100
AcDbEntity
  8
Defpoints
370
               0
390
0
 62
               0
100
AcDbPoint
 10
17405.498363754283
 20
10634.0
 30
0.0
  0
POINT
  5
B1
100
AcDbEntity
  8
Defpoints
370
               0
390
0
 62
               0
100
AcDbPoint
 10
17405.498363754283
 20
10946.874302779001
 30
0.0
  0
ENDBLK
  5
B2
100
AcDbEntity
  8
notes
390
0
100
AcDbBlockEnd
  0
BLOCK
  5
B3
100
AcDbEntity
  8
notes
390
0
100
AcDbBlockBegin
  2
*D10
 70
               1
 10
0.0
 20
0.0
 30
0.0
  3
*D10
  1

  0
LINE
  5
B4
100
AcDbEntity
  8
0
370
              -2
390
0
  6
Continuous
 62
               0
100
AcDbLine
 10
17355.667731898026
 20
9630.9517668101234
 30
0.0
 11
17430.667731898026
 21
9630.9517668101234
 31
0.0
  0
LINE
  5
B5
100
AcDbEntity
  8
0
370
              -2
390
0
  6
Continuous
 62
               0
100
AcDbLine
 10
17355.667887353513
 20
9605.9517668101234
 30
0.0
 11
17430.667731898026
 21
9605.9517668101234
 31
0.0
  0
LINE
  5
B6
100
AcDbEntity
  8
0
370
              -2
390
0
  6
Continuous
 62
               0
100
AcDbLine
 10
17430.667731898026
 20
9630.9517668101234
 30
0.0
 11
17430.667731898026
 21
9677.75
 31
0.0
  0
LINE
  5
B7
100
AcDbEntity
  8
0
370
              -2
390
0
  6
Continuous
 62
               0
100
AcDbLine
 10
17430.667731898026
 20
9630.9517668101234
 30
0.0
 11
17430.667731898026
 21
9605.9517668101234
 31
0.0
  0
CIRCLE
  5
B8
102
{ACAD_REACTORS
330
B9
102
}
100
AcDbEntity
  8
0
370
              -2
390
0
  6
Continuous
 62
               0
100
AcDbCircle
 10
17430.667731898026
 20
9630.9517668101234
 30
0.0
 40
1.9998779296875
  0
HATCH
  5
B9
100
AcDbEntity
  8
0
370
              -2
390
0
  6
Continuous
 62
               0
100
AcDbHatch
 10
0.0
 20
0.0
 30
0.0
210
0.0
220
0.0
230
1.0
  2
SOLID
 70
               1
 71
               1
 91
        1
 92
        1
 93
        1
 72
               2
 10
17430.667731898026
 20
9630.9517668101234
 40
1.9998779296875
 50
0.0
 51
360.0
 73
               0
 97
        1
330
B8
 75
               0
 76
               1
 98
        1
 10
0.0
 20
0.0
  0
CIRCLE
  5
BA
102
{ACAD_REACTORS
330
BB
102
}
100
AcDbEntity
  8
0
370
              -2
390
0
  6
Continuous
 62
               0
100
AcDbCircle
 10
17430.667731898026
 20
9605.9517668101234
 30
0.0
 40
1.9998779296875
  0
HATCH
  5
BB
100
AcDbEntity
  8
0
370
              -2
390
0
  6
Continuous
 62
               0
100
AcDbHatch
 10
0.0
 20
0.0
 30
0.0
210
0.0
220
0.0
230
1.0
  2
SOLID
 70
               1
 71
               1
 91
        1
 92
        1
 93
        1
 72
               2
 10
17430.667731898026
 20
9605.9517668101234
 40
1.9998779296875
 50
0.0
 51
360.0
 73
               0
 97
        1
330
BA
 75
               0
 76
               1
 98
        1
 10
0.0
 20
0.0
  0
MTEXT
  5
BC
100
AcDbEntity
  8
0
390
0
 62
               0
100
AcDbMText
 10
17396.790114710526
 20
9646.0
 30
0.0
 40
24.432617187500004
 41
0.0
 71
               1
 72
               1
  1
25
  7
ＭＳ ゴシック
 11
0.0
 21
1.0
 31
0.0
 73
               1
 44
0.7828267384257843
  0
POINT
  5
BD
100
AcDbEntity
  8
Defpoints
370
               0
390
0
 62
               0
100
AcDbPoint
 10
17330.667887353513
 20
9605.9517668101234
 30
0.0
  0
POINT
  5
BE
100
AcDbEntity
  8
Defpoints
370
               0
390
0
 62
               0
100
AcDbPoint
 10
17330.667731898026
 20
9630.9517668101234
 30
0.0
  0
POINT
  5
BF
100
AcDbEntity
  8
Defpoints
370
               0
390
0
 62
               0
100
AcDbPoint
 10
17430.667731898026
 20
9630.9517668101234
 30
0.0
  0
ENDBLK
  5
C0
100
AcDbEntity
  8
notes
390
0
100
AcDbBlockEnd
  0
BLOCK
  5
C1
100
AcDbEntity
  8
notes
390
0
100
AcDbBlockBegin
  2
*D11
 70
               1
 10
0.0
 20
0.0
 30
0.0
  3
*D11
  1

  0
LINE
  5
C2
100
AcDbEntity
  8
0
370
              -2
390
0
  6
Continuous
 62
               0
100
AcDbLine
 10
15935.0
 20
10600.0
 30
0.0
 11
15935.0
 21
10316.877363842001
 31
0.0
  0
LINE
  5
C3
100
AcDbEntity
  8
0
370
              -2
390
0
  6
Continuous
 62
               0
100
AcDbLine
 10
16485.0
 20
10600.0
 30
0.0
 11
16485.0
 21
10316.877363842001
 31
0.0
  0
LINE
  5
C4
100
AcDbEntity
  8
0
370
              -2
390
0
  6
Continuous
 62
               0
100
AcDbLine
 10
15935.0
 20
10316.877363842001
 30
0.0
 11
16485.0
 21
10316.877363842001
 31
0.0
  0
CIRCLE
  5
C5
102
{ACAD_REACTORS
330
C6
102
}
100
AcDbEntity
  8
0
370
              -2
390
0
  6
Continuous
 62
               0
100
AcDbCircle
 10
15935.0
 20
10316.877363842001
 30
0.0
 40
1.9998779296875
  0
HATCH
  5
C6
100
AcDbEntity
  8
0
370
              -2
390
0
  6
Continuous
 62
               0
100
AcDbHatch
 10
0.0
 20
0.0
 30
0.0
210
0.0
220
0.0
230
1.0
  2
SOLID
 70
               1
 71
               1
 91
        1
 92
        1
 93
        1
 72
               2
 10
15935.0
 20
10316.877363842001
 40
1.9998779296875
 50
0.0
 51
360.0
 73
               0
 97
        1
330
C5
 75
               0
 76
               1
 98
        1
 10
0.0
 20
0.0
  0
CIRCLE
  5
C7
102
{ACAD_REACTORS
330
C8
102
}
100
AcDbEntity
  8
0
370
              -2
390
0
  6
Continuous
 62
               0
100
AcDbCircle
 10
16485.0
 20
10316.877363842001
 30
0.0
 40
1.9998779296875
  0
HATCH
  5
C8
100
AcDbEntity
  8
0
370
              -2
390
0
  6
Continuous
 62
               0
100
AcDbHatch
 10
0.0
 20
0.0
 30
0.0
210
0.0
220
0.0
230
1.0
  2
SOLID
 70
               1
 71
               1
 91
        1
 92
        1
 93
        1
 72
               2
 10
16485.0
 20
10316.877363842001
 40
1.9998779296875
 50
0.0
 51
360.0
 73
               0
 97
        1
330
C7
 75
               0
 76
               1
 98
        1
 10
0.0
 20
0.0
  0
MTEXT
  5
C9
100
AcDbEntity
  8
0
390
0
 62
               0
100
AcDbMText
 10
16186.187498317824
 20
10350.7549810295
 30
0.0
 40
24.432617187500004
 41
0.0
 71
               1
 72
               1
  1
595
  7
ＭＳ ゴシック
 73
               1
 44
0.7828267384257843
  0
POINT
  5
CA
100
AcDbEntity
  8
Defpoints
370
               0
390
0
 62
               0
100
AcDbPoint
 10
16485.0
 20
10625.0
 30
0.0
  0
POINT
  5
CB
100
AcDbEntity
  8
Defpoints
370
               0
390
0
 62
               0
100
AcDbPoint
 10
15935.0
 20
10625.0
 30
0.0
  0
POINT
  5
CC
100
AcDbEntity
  8
Defpoints
370
               0
390
0
 62
               0
100
AcDbPoint
 10
15935.0
 20
10316.877363842001
 30
0.0
  0
ENDBLK
  5
CD
100
AcDbEntity
  8
notes
390
0
100
AcDbBlockEnd
  0
BLOCK
  5
CE
100
AcDbEntity
  8
notes
390
0
100
AcDbBlockBegin
  2
*D12
 70
               1
 10
0.0
 20
0.0
 30
0.0
  3
*D12
  1

  0
LINE
  5
CF
100
AcDbEntity
  8
0
370
              -2
390
0
  6
Continuous
 62
               0
100
AcDbLine
 10
16077.881407813436
 20
10820.0
 30
0.0
 11
15796.919315113437
 21
10820.0
 31
0.0
  0
LINE
  5
D0
100
AcDbEntity
  8
0
370
              -2
390
0
  6
Continuous
 62
               0
100
AcDbLine
 10
16077.881407813436
 20
10445.0
 30
0.0
 11
15796.919315113437
 21
10445.0
 31
0.0
  0
LINE
  5
D1
100
AcDbEntity
  8
0
370
              -2
390
0
  6
Continuous
 62
               0
100
AcDbLine
 10
15796.919315113437
 20
10820.0
 30
0.0
 11
15796.919315113437
 21
10445.0
 31
0.0
  0
CIRCLE
  5
D2
102
{ACAD_REACTORS
330
D3
102
}
100
AcDbEntity
  8
0
370
              -2
390
0
  6
Continuous
 62
               0
100
AcDbCircle
 10
15796.919315113437
 20
10820.0
 30
0.0
 40
1.9998779296875
  0
HATCH
  5
D3
100
AcDbEntity
  8
0
370
              -2
390
0
  6
Continuous
 62
               0
100
AcDbHatch
 10
0.0
 20
0.0
 30
0.0
210
0.0
220
0.0
230
1.0
  2
SOLID
 70
               1
 71
               1
 91
        1
 92
        1
 93
        1
 72
               2
 10
15796.919315113437
 20
10820.0
 40
1.9998779296875
 50
0.0
 51
360.0
 73
               0
 97
        1
330
D2
 75
               0
 76
               1
 98
        1
 10
0.0
 20
0.0
  0
CIRCLE
  5
D4
102
{ACAD_REACTORS
330
D5
102
}
100
AcDbEntity
  8
0
370
              -2
390
0
  6
Continuous
 62
               0
100
AcDbCircle
 10
15796.919315113437
 20
10445.0
 30
0.0
 40
1.9998779296875
  0
HATCH
  5
D5
100
AcDbEntity
  8
0
370
              -2
390
0
  6
Continuous
 62
               0
100
AcDbHatch
 10
0.0
 20
0.0
 30
0.0
210
0.0
220
0.0
230
1.0
  2
SOLID
 70
               1
 71
               1
 91
        1
 92
        1
 93
        1
 72
               2
 10
15796.919315113437
 20
10445.0
 40
1.9998779296875
 50
0.0
 51
360.0
 73
               0
 97
        1
330
D4
 75
               0
 76
               1
 98
        1
 10
0.0
 20
0.0
  0
MTEXT
  5
D6
100
AcDbEntity
  8
0
390
0
 62
               0
100
AcDbMText
 10
15763.041697925937
 20
10608.687498317824
 30
0.0
 40
24.432617187500004
 41
0.0
 71
               1
 72
               1
  1
410
  7
ＭＳ ゴシック
 11
0.0
 21
1.0
 31
0.0
 73
               1
 44
0.7828267384257843
  0
POINT
  5
D7
100
AcDbEntity
  8
Defpoints
370
               0
390
0
 62
               0
100
AcDbPoint
 10
16102.881407813436
 20
10445.0
 30
0.0
  0
POINT
  5
D8
100
AcDbEntity
  8
Defpoints
370
               0
390
0
 62
               0
100
AcDbPoint
 10
16102.881407813436
 20
10820.0
 30
0.0
  0
POINT
  5
D9
100
AcDbEntity
  8
Defpoints
370
               0
390
0
 62
               0
100
AcDbPoint
 10
15796.919315113437
 20
10820.0
 30
0.0
  0
ENDBLK
  5
DA
100
AcDbEntity
  8
notes
390
0
100
AcDbBlockEnd
  0
BLOCK
  5
DB
100
AcDbEntity
  8
notes
390
0
100
AcDbBlockBegin
  2
*D13
 70
               1
 10
0.0
 20
0.0
 30
0.0
  3
*D13
  1

  0
LINE
  5
DC
100
AcDbEntity
  8
0
370
              -2
390
0
  6
Continuous
 62
               0
100
AcDbLine
 10
17143.167670926439
 20
9630.9515195068143
 30
0.0
 11
17118.16782221735
 21
9630.9515195068143
 31
0.0
  0
LINE
  5
DD
100
AcDbEntity
  8
0
370
              -2
390
0
  6
Continuous
 62
               0
100
AcDbLine
 10
17143.16782221735
 20
9500.9515195068143
 30
0.0
 11
17118.16782221735
 21
9500.9515195068143
 31
0.0
  0
LINE
  5
DE
100
AcDbEntity
  8
0
370
              -2
390
0
  6
Continuous
 62
               0
100
AcDbLine
 10
17118.16782221735
 20
9630.9515195068143
 30
0.0
 11
17118.16782221735
 21
9780.2640195068143
 31
0.0
  0
LINE
  5
DF
100
AcDbEntity
  8
0
370
              -2
390
0
  6
Continuous
 62
               0
100
AcDbLine
 10
17118.16782221735
 20
9630.9515195068143
 30
0.0
 11
17118.16782221735
 21
9500.9515195068143
 31
0.0
  0
CIRCLE
  5
E0
102
{ACAD_REACTORS
330
E1
102
}
100
AcDbEntity
  8
0
370
              -2
390
0
  6
Continuous
 62
               0
100
AcDbCircle
 10
17118.16782221735
 20
9630.9515195068143
 30
0.0
 40
1.9998779296875
  0
HATCH
  5
E1
100
AcDbEntity
  8
0
370
              -2
390
0
  6
Continuous
 62
               0
100
AcDbHatch
 10
0.0
 20
0.0
 30
0.0
210
0.0
220
0.0
230
1.0
  2
SOLID
 70
               1
 71
               1
 91
        1
 92
        1
 93
        1
 72
               2
 10
17118.16782221735
 20
9630.9515195068143
 40
1.9998779296875
 50
0.0
 51
360.0
 73
               0
 97
        1
330
E0
 75
               0
 76
               1
 98
        1
 10
0.0
 20
0.0
  0
CIRCLE
  5
E2
102
{ACAD_REACTORS
330
E3
102
}
100
AcDbEntity
  8
0
370
              -2
390
0
  6
Continuous
 62
               0
100
AcDbCircle
 10
17118.16782221735
 20
9500.9515195068143
 30
0.0
 40
1.9998779296875
  0
HATCH
  5
E3
100
AcDbEntity
  8
0
370
              -2
390
0
  6
Continuous
 62
               0
100
AcDbHatch
 10
0.0
 20
0.0
 30
0.0
210
0.0
220
0.0
230
1.0
  2
SOLID
 70
               1
 71
               1
 91
        1
 92
        1
 93
        1
 72
               2
 10
17118.16782221735
 20
9500.9515195068143
 40
1.9998779296875
 50
0.0
 51
360.0
 73
               0
 97
        1
330
E2
 75
               0
 76
               1
 98
        1
 10
0.0
 20
0.0
  0
MTEXT
  5
E4
100
AcDbEntity
  8
0
390
0
 62
               0
100
AcDbMText
 10
17084.290205029851
 20
9637.3890195068143
 30
0.0
 40
24.432617187500004
 41
0.0
 71
               1
 72
               1
  1
130(深さ)
  7
ＭＳ ゴシック
 11
0.0
 21
1.0
 31
0.0
 73
               1
 44
0.7828267384257843
  0
POINT
  5
E5
100
AcDbEntity
  8
Defpoints
370
               0
390
0
 62
               0
100
AcDbPoint
 10
17118.16782221735
 20
9500.9515195068143
 30
0.0
  0
POINT
  5
E6
100
AcDbEntity
  8
Defpoints
370
               0
390
0
 62
               0
100
AcDbPoint
 10
17118.167670926439
 20
9630.9515195068143
 30
0.0
  0
POINT
  5
E7
100
AcDbEntity
  8
Defpoints
370
               0
390
0
 62
               0
100
AcDbPoint
 10
17118.16782221735
 20
9630.9515195068143
 30
0.0
  0
ENDBLK
  5
E8
100
AcDbEntity
  8
notes
390
0
100
AcDbBlockEnd
  0
BLOCK
  5
E9
100
AcDbEntity
  8
ABA70-1506
390
0
100
AcDbBlockBegin
  2
*D14
 70
               1
 10
0.0
 20
0.0
 30
0.0
  3
*D14
  1

  0
LINE
  5
EA
100
AcDbEntity
  8
0
370
              -2
390
0
  6
Continuous
 62
               0
100
AcDbLine
 10
16905.668076321308
 20
9580.9512722054405
 30
0.0
 11
16905.668076321308
 21
9537.875
 31
0.0
  0
LINE
  5
EB
100
AcDbEntity
  8
0
370
              -2
390
0
  6
Continuous
 62
               0
100
AcDbLine
 10
16930.668076321308
 20
9580.951743381278
 30
0.0
 11
16930.668076321308
 21
9537.875
 31
0.0
  0
LINE
  5
EC
100
AcDbEntity
  8
0
370
              -2
390
0
  6
Continuous
 62
               0
100
AcDbLine
 10
16905.668076321308
 20
9537.875
 30
0.0
 11
16855.25
 21
9537.875
 31
0.0
  0
LINE
  5
ED
100
AcDbEntity
  8
0
370
              -2
390
0
  6
Continuous
 62
               0
100
AcDbLine
 10
16905.668076321308
 20
9537.875
 30
0.0
 11
16930.668076321308
 21
9537.875
 31
0.0
  0
CIRCLE
  5
EE
102
{ACAD_REACTORS
330
EF
102
}
100
AcDbEntity
  8
0
370
              -2
390
0
  6
Continuous
 62
               0
100
AcDbCircle
 10
16905.668076321308
 20
9537.875
 30
0.0
 40
1.9998779296875
  0
HATCH
  5
EF
100
AcDbEntity
  8
0
370
              -2
390
0
  6
Continuous
 62
               0
100
AcDbHatch
 10
0.0
 20
0.0
 30
0.0
210
0.0
220
0.0
230
1.0
  2
SOLID
 70
               1
 71
               1
 91
        1
 92
        1
 93
        1
 72
               2
 10
16905.668076321308
 20
9537.875
 40
1.9998779296875
 50
0.0
 51
360.0
 73
               0
 97
        1
330
EE
 75
               0
 76
               1
 98
        1
 10
0.0
 20
0.0
  0
CIRCLE
  5
F0
102
{ACAD_REACTORS
330
F1
102
}
100
AcDbEntity
  8
0
370
              -2
390
0
  6
Continuous
 62
               0
100
AcDbCircle
 10
16930.668076321308
 20
9537.875
 30
0.0
 40
1.9998779296875
  0
HATCH
  5
F1
100
AcDbEntity
  8
0
370
              -2
390
0
  6
Continuous
 62
               0
100
AcDbHatch
 10
0.0
 20
0.0
 30
0.0
210
0.0
220
0.0
230
1.0
  2
SOLID
 70
               1
 71
               1
 91
        1
 92
        1
 93
        1
 72
               2
 10
16930.668076321308
 20
9537.875
 40
1.9998779296875
 50
0.0
 51
360.0
 73
               0
 97
        1
330
F0
 75
               0
 76
               1
 98
        1
 10
0.0
 20
0.0
  0
MTEXT
  5
F2
100
AcDbEntity
  8
0
390
0
 62
               0
100
AcDbMText
 10
16855.25
 20
9571.7526171874997
 30
0.0
 40
24.432617187500004
 41
0.0
 71
               1
 72
               1
  1
25
  7
ＭＳ ゴシック
 73
               1
 44
0.7828267384257843
  0
POINT
  5
F3
100
AcDbEntity
  8
Defpoints
370
               0
390
0
 62
               0
100
AcDbPoint
 10
16930.668076321308
 20
9605.951743381278
 30
0.0
  0
POINT
  5
F4
100
AcDbEntity
  8
Defpoints
370
               0
390
0
 62
               0
100
AcDbPoint
 10
16905.668076321308
 20
9605.9512722054405
 30
0.0
  0
POINT
  5
F5
100
AcDbEntity
  8
Defpoints
370
               0
390
0
 62
               0
100
AcDbPoint
 10
16905.668076321308
 20
9537.875
 30
0.0
  0
ENDBLK
  5
F6
100
AcDbEntity
  8
ABA70-1506
390
0
100
AcDbBlockEnd
  0
BLOCK
  5
F7
100
AcDbEntity
  8
ABA70-1506
390
0
100
AcDbBlockBegin
  2
グループ-1
 70
               0
 10
0.0
 20
0.0
 30
0.0
  3
グループ-1
  1

  0
SPLINE
  5
F8
100
AcDbEntity
  8
0
370
              15
390
0
  6
Continuous
 62
               7
100
AcDbSpline
210
0.0
220
0.0
230
1.0
 70
               8
 71
               2
 72
               8
 73
               5
 74
               0
 42
0.000001
 43
0.000001
 40
0.0
 40
0.0
 40
0.0
 40
1.0
 40
2.0
 40
3.0
 40
3.0
 40
3.0
 10
-193.67824344381805
 20
715.38439246634573
 30
0.0
 10
-193.67859325651969
 20
761.81930932461148
 30
0.0
 10
-232.29729782715737
 20
842.24652394885084
 30
0.0
 10
-299.18615664054454
 20
888.68071227265125
 30
0.0
 10
-337.80425531772926
 20
888.68029165302551
 30
0.0
  0
SPLINE
  5
F9
100
AcDbEntity
  8
0
370
              15
390
0
  6
Continuous
 62
               7
100
AcDbSpline
210
0.0
220
0.0
230
1.0
 70
               8
 71
               2
 72
               8
 73
               5
 74
               0
 42
0.000001
 43
0.000001
 40
0.0
 40
0.0
 40
0.0
 40
1.0
 40
2.0
 40
3.0
 40
3.0
 40
3.0
 10
-337.80172225848969
 20
542.08535373247219
 30
0.0
 10
-299.18362358121533
 20
542.08574922826574
 30
0.0
 10
-232.29544349880339
 20
588.52135110544816
 30
0.0
 10
-193.67791452479827
 20
668.94938184518196
 30
0.0
 10
-193.67824344313422
 20
715.38429870355571
 30
0.0
  0
ENDBLK
  5
FA
100
AcDbEntity
  8
ABA70-1506
390
0
100
AcDbBlockEnd
  0
BLOCK
  5
FB
100
AcDbEntity
  8
ABA70-1506
390
0
100
AcDbBlockBegin
  2
グループ-2
 70
               0
 10
0.0
 20
0.0
 30
0.0
  3
グループ-2
  1

  0
SPLINE
  5
FC
100
AcDbEntity
  8
0
370
              15
390
0
  6
Continuous
 62
               7
100
AcDbSpline
210
0.0
220
0.0
230
1.0
 70
               8
 71
               2
 72
               8
 73
               5
 74
               0
 42
0.000001
 43
0.000001
 40
0.0
 40
0.0
 40
0.0
 40
1.0
 40
2.0
 40
3.0
 40
3.0
 40
3.0
 10
-728.39850073251637
 20
715.59818661923578
 30
0.0
 10
-728.39812301660504
 20
668.77901425276866
 30
0.0
 10
-686.69895336828677
 20
587.6862530459224
 30
0.0
 10
-614.47462833583813
 20
540.86781524264632
 30
0.0
 10
-572.77611291075618
 20
540.86823934295921
 30
0.0
  0
SPLINE
  5
FD
100
AcDbEntity
  8
0
370
              15
390
0
  6
Continuous
 62
               7
100
AcDbSpline
210
0.0
220
0.0
230
1.0
 70
               8
 71
               2
 72
               8
 73
               5
 74
               0
 42
0.000001
 43
0.000001
 40
0.0
 40
0.0
 40
0.0
 40
1.0
 40
2.0
 40
3.0
 40
3.0
 40
3.0
 10
-572.77884802235928
 20
890.33129942290373
 30
0.0
 10
-614.47736344753798
 20
890.33090065432623
 30
0.0
 10
-686.70095560925995
 20
843.51103760031413
 30
0.0
 10
-728.39885588813763
 20
762.41745352450221
 30
0.0
 10
-728.39850073325499
 20
715.59828115792641
 30
0.0
  0
ENDBLK
  5
FE
100
AcDbEntity
  8
ABA70-1506
390
0
100
AcDbBlockEnd
  0
ENDSEC
  0
SECTION
  2
ENTITIES
  0
MTEXT
  5
FF
100
AcDbEntity
  8
template
390
0
 62
               7
100
AcDbMText
 10
15692.804255317969
 20
8767.1412386528136
 30
0.0
 40
16.288411458333332
 41
0.0
 71
               1
 72
               1
  1
品名
  7
ＭＳ ゴシック
 73
               1
 44
0.7828267384257843
  0
MTEXT
  5
100
100
AcDbEntity
  8
template
390
0
 62
               7
100
AcDbMText
 10
15692.804255317969
 20
8682.1412386528136
 30
0.0
 40
16.288411458333332
 41
0.0
 71
               1
 72
               1
  1
仕様
  7
ＭＳ ゴシック
 73
               1
 44
0.7828267384257843
  0
MTEXT
  5
101
100
AcDbEntity
  8
template
390
0
 62
               7
100
AcDbMText
 10
15745.804255317969
 20
8738.5587777153123
 30
0.0
 40
24.432617187500004
 41
0.0
 71
               1
 72
               1
  1
洗面器  -HATRIA,Daytime-
  7
ＭＳ ゴシック
 73
               1
 44
0.7828267384257843
  0
LINE
  5
102
100
AcDbEntity
  8
template
370
               5
390
0
  6
Continuous
 62
               7
100
AcDbLine
 10
17635.804255317489
 20
8690.5561605278126
 30
0.0
 11
15685.804255317487
 21
8690.5561605278126
 31
0.0
  0
LWPOLYLINE
  5
103
100
AcDbEntity
  8
template
370
               5
390
0
  6
Continuous
 62
               7
100
AcDbPolyline
 90
        5
 70
             128
 10
17635.804255317969
 20
11320.556160527813
 10
15685.804255317969
 20
11320.556160527813
 10
15685.804255317969
 20
8520.5561605278126
 10
17635.804255317969
 20
8520.5561605278126
 10
17635.804255317969
 20
11320.556160527813
  0
LINE
  5
104
100
AcDbEntity
  8
template
370
               5
390
0
  6
Continuous
 62
               7
100
AcDbLine
 10
17635.804255317489
 20
8775.5561605278126
 30
0.0
 11
15685.804255317487
 21
8775.5561605278126
 31
0.0
  0
LINE
  5
105
100
AcDbEntity
  8
template
370
               5
390
0
  6
Continuous
 62
               7
100
AcDbLine
 10
17635.804255317969
 20
8605.5561605278126
 30
0.0
 11
16882.804255317969
 21
8605.5561605278126
 31
0.0
  0
MTEXT
  5
106
100
AcDbEntity
  8
template
390
0
 62
               7
100
AcDbMText
 10
15745.804255317969
 20
8653.5587777153123
 30
0.0
 40
24.432617187500004
 41
0.0
 71
               1
 72
               1
  1
オーバーカウンター/オーバーフロー付/\P陶器/ホワイト
  7
ＭＳ ゴシック
 73
               1
 44
1.1307497332816883
  0
MTEXT
  5
107
100
AcDbEntity
  8
template
390
0
 62
               7
100
AcDbMText
 10
15685.804255318173
 20
8508.7023384709555
 30
0.0
 40
21.717881944444446
 41
0.0
 71
               1
 72
               1
  1
110628HS
  7
ＭＳ ゴシック
 73
               1
 44
0.7828267384257843
  0
MTEXT
  5
108
100
AcDbEntity
  8
template
390
0
 62
               7
100
AcDbMText
 10
16912.675661570229
 20
8575.6457660545057
 30
0.0
 40
24.432617187500004
 41
0.0
 71
               1
 72
               1
  1
大洋金物株式会社 ティーフォルム事業部
  7
ＭＳ ゴシック
 73
               1
 44
0.7828267384257843
  0
INSERT
  5
109
100
AcDbEntity
  8
template
390
0
 62
               7
100
AcDbBlockReference
  2
グループ
 10
16660.804255317729
 20
9914.5588678865133
 30
0.0
  0
MTEXT
  5
10A
100
AcDbEntity
  8
template
390
0
 62
               7
100
AcDbMText
 10
17444.804255318228
 20
8653.5587777153123
 30
0.0
 40
24.432617187500004
 41
0.0
 71
               1
 72
               1
  1
1:10
  7
ＭＳ ゴシック
 73
               1
 44
0.7828267384257843
  0
MTEXT
  5
10B
100
AcDbEntity
  8
template
390
0
 62
               7
100
AcDbMText
 10
17391.804255318228
 20
8682.1412386528136
 30
0.0
 40
16.288411458333332
 41
0.0
 71
               1
 72
               1
  1
縮尺
  7
ＭＳ ゴシック
 73
               1
 44
0.7828267384257843
  0
LINE
  5
10C
100
AcDbEntity
  8
template
370
               5
390
0
  6
Continuous
 62
               7
100
AcDbLine
 10
17384.804255318228
 20
8605.5561605278126
 30
0.0
 11
17384.804255318228
 21
8690.5561605278126
 31
0.0
  0
MTEXT
  5
10D
100
AcDbEntity
  8
template
390
0
 62
               7
100
AcDbMText
 10
17140.804255318228
 20
8682.1412386528136
 30
0.0
 40
16.288411458333332
 41
0.0
 71
               1
 72
               1
  1
容量
  7
ＭＳ ゴシック
 73
               1
 44
0.7828267384257843
  0
MTEXT
  5
10E
100
AcDbEntity
  8
template
390
0
 62
               7
100
AcDbMText
 10
17193.804255318228
 20
8653.5587777153123
 30
0.0
 40
24.432617187500004
 41
0.0
 71
               1
 72
               1
  1
5.5L
  7
ＭＳ ゴシック
 73
               1
 44
0.7828267384257843
  0
LINE
  5
10F
100
AcDbEntity
  8
template
370
               5
390
0
  6
Continuous
 62
               7
100
AcDbLine
 10
17133.804255318228
 20
8605.5561605278126
 30
0.0
 11
17133.804255318228
 21
8690.5561605278126
 31
0.0
  0
MTEXT
  5
110
100
AcDbEntity
  8
template
390
0
 62
               7
100
AcDbMText
 10
16889.804255318228
 20
8767.1412386528136
 30
0.0
 40
16.288411458333332
 41
0.0
 71
               1
 72
               1
  1
品番
  7
ＭＳ ゴシック
 73
               1
 44
0.7828267384257843
  0
MTEXT
  5
111
100
AcDbEntity
  8
template
390
0
 62
               7
100
AcDbMText
 10
16889.804255318228
 20
8682.1412386528136
 30
0.0
 40
16.288411458333332
 41
0.0
 71
               1
 72
               1
  1
重量
  7
ＭＳ ゴシック
 73
               1
 44
0.7828267384257843
  0
MTEXT
  5
112
100
AcDbEntity
  8
template
390
0
 62
               7
100
AcDbMText
 10
16942.804255318228
 20
8738.5587777153123
 30
0.0
 40
24.432617187500004
 41
0.0
 71
               1
 72
               1
  1
ABA70-1506
  7
ＭＳ ゴシック
 73
               1
 44
0.7828267384257843
  0
MTEXT
  5
113
100
AcDbEntity
  8
template
390
0
 62
               7
100
AcDbMText
 10
16942.804255318228
 20
8653.5587777153123
 30
0.0
 40
24.432617187500004
 41
0.0
 71
               1
 72
               1
  1
11kg
  7
ＭＳ ゴシック
 73
               1
 44
0.7828267384257843
  0
LINE
  5
114
100
AcDbEntity
  8
template
370
               5
390
0
  6
Continuous
 62
               7
100
AcDbLine
 10
16882.804255318228
 20
8520.5561605278126
 30
0.0
 11
16882.804255318228
 21
8775.5561605278126
 31
0.0
  0
DIMENSION
  5
115
100
AcDbEntity
  8
notes
370
               5
390
0
  6
Continuous
 62
               7
100
AcDbDimension
  2
*D3
 10
16611.901823669868
 20
9630.9514908648925
 30
0.0
 11
16611.901823669868
 21
9544.9514908648925
 31
0.0
 71
               5
 72
               1
 41
1.0
 42
0.0
  3
tfrom線あり
100
AcDbAlignedDimension
 13
16238.329073051693
 23
9458.9514908648925
 33
0.0
 14
16509.022854553197
 24
9630.9514908648925
 34
0.0
 50
90.0
100
AcDbRotatedDimension
1001
ACAD
1000
DSTYLE
1002
{
1070
             279
1070
               2
1070
             340
1005
32
1070
             147
1040
5.0
1002
}
  0
DIMENSION
  5
116
100
AcDbEntity
  8
notes
370
               5
390
0
  6
Continuous
 62
               7
100
AcDbDimension
  2
*D4
 10
17430.667731898026
 20
9605.9517668101234
 30
0.0
 11
17430.667731898026
 21
9532.4517668101234
 31
0.0
 71
               5
 72
               1
 41
1.0
 42
0.0
  3
tfrom線あり
100
AcDbAlignedDimension
 13
17150.508213617872
 23
9458.9517668101234
 33
0.0
 14
17330.667887353513
 24
9605.9517668101234
 34
0.0
 50
90.0
100
AcDbRotatedDimension
1001
ACAD
1000
DSTYLE
1002
{
1070
             279
1070
               2
1070
             340
1005
32
1070
             147
1040
5.0
1002
}
  0
DIMENSION
  5
117
100
AcDbEntity
  8
notes
370
               5
390
0
  6
Continuous
 62
               7
100
AcDbDimension
  2
*D5
 10
17330.667887353513
 20
9358.9517668101234
 30
0.0
 11
17223.167887353513
 21
9358.9517668101234
 31
0.0
 71
               5
 72
               1
 41
1.0
 42
0.0
  3
tfrom線あり
100
AcDbAlignedDimension
 13
17115.667887353513
 23
9459.0405528164756
 33
0.0
 14
17330.667887353513
 24
9605.9517668101234
 34
0.0
100
AcDbRotatedDimension
1001
ACAD
1000
DSTYLE
1002
{
1070
             279
1070
               2
1070
             340
1005
32
1070
             147
1040
5.0
1002
}
  0
DIMENSION
  5
118
100
AcDbEntity
  8
notes
370
               5
390
0
  6
Continuous
 62
               7
100
AcDbDimension
  2
*D6
 10
15896.919315113262
 20
10946.874283452224
 30
0.0
 11
16204.41056939159
 21
10946.874283452224
 31
0.0
 71
               5
 72
               1
 41
1.0
 42
0.0
  3
tfrom線あり
100
AcDbAlignedDimension
 13
16511.901823669919
 23
10633.814336747224
 33
0.0
 14
15896.919315113262
 24
10633.814336747224
 34
0.0
100
AcDbRotatedDimension
1001
ACAD
1000
DSTYLE
1002
{
1070
             279
1070
               2
1070
             340
1005
32
1070
             147
1040
5.0
1002
}
  0
DIMENSION
  5
119
100
AcDbEntity
  8
notes
370
               5
390
0
  6
Continuous
 62
               7
100
AcDbDimension
  2
*D7
 10
16611.901823669868
 20
10846.872864690751
 30
0.0
 11
16611.901823669868
 21
10631.875114266226
 31
0.0
 71
               5
 72
               1
 41
1.0
 42
0.0
  3
tfrom線あり
100
AcDbAlignedDimension
 13
16297.894089799869
 23
10416.877363841701
 33
0.0
 14
16297.894089799869
 24
10846.872864690751
 34
0.0
 50
90.0
100
AcDbRotatedDimension
1001
ACAD
1000
DSTYLE
1002
{
1070
             279
1070
               2
1070
             340
1005
32
1070
             147
1040
5.0
1002
}
  0
DIMENSION
  5
11A
100
AcDbEntity
  8
notes
370
               5
390
0
  6
Continuous
 62
               7
100
AcDbDimension
  2
*D8
 10
17526.406235782848
 20
10829.37496411348
 30
0.0
 11
17526.406235782848
 21
10631.87496411348
 31
0.0
 71
               5
 72
               1
 41
1.0
 42
0.0
  3
tfrom線あり
100
AcDbAlignedDimension
 13
17208.009796313821
 23
10434.37496411348
 33
0.0
 14
17208.009796552848
 24
10829.37496411348
 34
0.0
 50
90.0
100
AcDbRotatedDimension
1001
ACAD
1000
DSTYLE
1002
{
1070
             279
1070
               2
1070
             340
1005
32
1070
             147
1040
5.0
1002
}
  0
DIMENSION
  5
11B
100
AcDbEntity
  8
notes
370
               5
390
0
  6
Continuous
 62
               7
100
AcDbDimension
  2
*D9
 10
17405.498363754283
 20
10946.874302779001
 30
0.0
 11
17115.509796340219
 21
10946.874302779001
 31
0.0
 71
               5
 72
               1
 41
1.0
 42
0.0
  3
tfrom線あり
100
AcDbAlignedDimension
 13
16825.521228926158
 23
10634.0
 33
0.0
 14
17405.498363754283
 24
10634.0
 34
0.0
100
AcDbRotatedDimension
1001
ACAD
1000
DSTYLE
1002
{
1070
             279
1070
               2
1070
             340
1005
32
1070
             147
1040
5.0
1002
}
  0
MTEXT
  5
11C
100
AcDbEntity
  8
notes
390
0
 62
               7
100
AcDbMText
 10
16775.0
 20
10134.971647383456
 30
0.0
 40
24.432617187500004
 41
0.0
 71
               1
 72
               1
  1
※カウンタートップ置きの場合も壁固定が必要です。\P
  7
ＭＳ ゴシック
 73
               1
 44
0.7828267384257843
  0
MTEXT
  5
11D
100
AcDbEntity
  8
notes
390
0
 62
               7
100
AcDbMText
 10
16775.0
 20
10279.997756076389
 30
0.0
 40
24.432617187500004
 41
764.7717154610109
 71
               1
 72
               1
  1
※陶器製品には寸法公差があります。\P  洗面器の収め方をご確認の上、必ず現物を合わせて\P  カウンターに切込を行ってください。
  7
ＭＳ ゴシック
 73
               1
 44
1.0437689845677123
  0
DIMENSION
  5
11E
100
AcDbEntity
  8
notes
370
               5
390
0
  6
Continuous
 62
               7
100
AcDbDimension
  2
*D10
 10
17430.667731898026
 20
9630.9517668101234
 30
0.0
 11
17435.667731898026
 21
9646.0
 31
0.0
 70
             128
 71
               5
 72
               1
 41
1.0
 42
0.0
  3
tfrom線あり
100
AcDbAlignedDimension
 13
17330.667887353513
 23
9605.9517668101234
 33
0.0
 14
17330.667731898026
 24
9630.9517668101234
 34
0.0
 50
90.0
100
AcDbRotatedDimension
1001
ACAD
1000
DSTYLE
1002
{
1070
             279
1070
               2
1070
             340
1005
32
1070
             174
1070
               0
1070
             147
1040
5.0
1002
}
  0
DIMENSION
  5
11F
100
AcDbEntity
  8
notes
370
               5
390
0
  6
Continuous
 62
               7
100
AcDbDimension
  2
*D11
 10
15935.0
 20
10316.877363842001
 30
0.0
 11
16210.0
 21
10316.877363842001
 31
0.0
 71
               5
 72
               1
 41
1.0
 42
0.0
  1
595
  3
tfrom線あり
100
AcDbAlignedDimension
 13
16485.0
 23
10625.0
 33
0.0
 14
15935.0
 24
10625.0
 34
0.0
100
AcDbRotatedDimension
1001
ACAD
1000
DSTYLE
1002
{
1070
             279
1070
               2
1070
             340
1005
32
1070
             147
1040
5.0
1002
}
  0
DIMENSION
  5
120
100
AcDbEntity
  8
notes
370
               5
390
0
  6
Continuous
 62
               7
100
AcDbDimension
  2
*D12
 10
15796.919315113437
 20
10820.0
 30
0.0
 11
15796.919315113437
 21
10632.5
 31
0.0
 71
               5
 72
               1
 41
1.0
 42
0.0
  1
410
  3
tfrom線あり
100
AcDbAlignedDimension
 13
16102.881407813436
 23
10445.0
 33
0.0
 14
16102.881407813436
 24
10820.0
 34
0.0
 50
90.0
100
AcDbRotatedDimension
1001
ACAD
1000
DSTYLE
1002
{
1070
             279
1070
               2
1070
             340
1005
32
1070
             147
1040
5.0
1002
}
  0
MTEXT
  5
121
100
AcDbEntity
  8
notes
390
0
 62
               7
100
AcDbMText
 10
16972.634794318477
 20
11113.8776171875
 30
0.0
 40
24.432617187500004
 41
0.0
 71
               1
 72
               1
  1
カウンター切込寸法
  7
ＭＳ ゴシック
 73
               1
 44
0.7828267384257843
  0
DIMENSION
  5
122
100
AcDbEntity
  8
notes
370
               5
390
0
  6
Continuous
 62
               7
100
AcDbDimension
  2
*D13
 10
17118.16782221735
 20
9630.9515195068143
 30
0.0
 11
17123.16782221735
 21
9637.3890195068143
 31
0.0
 70
             128
 71
               5
 72
               1
 41
1.0
 42
0.0
  3
tfrom線あり
100
AcDbAlignedDimension
 13
17118.16782221735
 23
9500.9515195068143
 33
0.0
 14
17118.167670926439
 24
9630.9515195068143
 34
0.0
 50
90.0
100
AcDbRotatedDimension
1001
ACAD
1000
DSTYLE
1002
{
1070
             279
1070
               2
1070
             340
1005
32
1070
               3
1000
<>(深さ)
1070
             174
1070
               0
1070
             147
1040
5.0
1002
}
  0
SPLINE
  5
123
100
AcDbEntity
  8
ABA70-1506
370
              15
390
0
  6
Continuous
 62
               7
100
AcDbSpline
210
0.0
220
0.0
230
1.0
 70
              13
 71
               2
 72
              12
 73
               9
 74
               0
 42
0.000001
 43
0.000001
 40
0.0
 40
0.0
 40
0.0
 40
0.25
 40
0.25
 40
0.5
 40
0.5
 40
0.75
 40
0.75
 40
1.0
 40
1.0
 40
1.0
 10
16209.605143454492
 20
10810.319482007777
 30
0.0
 41
1.0
 10
16209.605143454492
 20
10807.0
 30
0.0
 41
0.7071067811865476
 10
16200.382753805485
 20
10807.0
 30
0.0
 41
1.0
 10
16191.160364156478
 20
10807.0
 30
0.0
 41
0.7071067811865476
 10
16191.160364156478
 20
10810.319482007777
 30
0.0
 41
1.0
 10
16191.160364156478
 20
10813.638964015554
 30
0.0
 41
0.7071067811865476
 10
16200.382753805485
 20
10813.638964015554
 30
0.0
 41
1.0
 10
16209.605143454492
 20
10813.638964015554
 30
0.0
 41
0.7071067811865476
 10
16209.605143454492
 20
10810.319482007777
 30
0.0
 41
1.0
  0
LINE
  5
124
100
AcDbEntity
  8
ABA70-1506
370
              15
390
0
  6
Continuous
 62
               7
100
AcDbLine
 10
16905.667765410337
 20
9630.9512722044728
 30
0.0
 11
17330.667576442542
 21
9630.9517668091557
 31
0.0
  0
LINE
  5
125
100
AcDbEntity
  8
ABA70-1506
370
              15
390
0
  6
Continuous
 62
               7
100
AcDbLine
 10
16905.668076321308
 20
9605.9512722054405
 30
0.0
 11
17330.667887353513
 21
9605.9517668101234
 31
0.0
  0
LINE
  5
126
100
AcDbEntity
  8
ABA70-1506
370
              15
390
0
  6
Continuous
 62
               7
100
AcDbLine
 10
17330.667887353513
 20
9605.9517668101234
 30
0.0
 11
17330.667731898026
 21
9630.9517668101234
 31
0.0
  0
LINE
  5
127
100
AcDbEntity
  8
ABA70-1506
370
              15
390
0
  6
Continuous
 62
               7
100
AcDbLine
 10
16905.668076321308
 20
9605.9512722054405
 30
0.0
 11
16905.667920865824
 21
9630.9512722054405
 31
0.0
  0
LWPOLYLINE
  5
128
100
AcDbEntity
  8
ABA70-1506
370
              15
390
0
  6
Continuous
 62
               7
100
AcDbPolyline
 90
        3
 70
             128
 10
16932.0
 20
9605.9513028499077
 10
16933.028603801824
 20
9601.2324114127896
 42
0.3449227684447509
 10
17080.511379062526
 20
9479.0405528164756
 42
0.3449227684447509
  0
LINE
  5
129
100
AcDbEntity
  8
ABA70-1506
370
              15
390
0
  6
Continuous
 62
               7
100
AcDbLine
 10
17150.508213617872
 20
9479.0405528164756
 30
0.0
 11
17080.511379062566
 21
9479.0405528164756
 31
0.0
  0
LWPOLYLINE
  5
12A
100
AcDbEntity
  8
ABA70-1506
370
              15
390
0
  6
Continuous
 62
               7
100
AcDbPolyline
 90
        3
 70
             128
 10
17150.508213617912
 20
9479.0405528164756
 42
0.3379716636492024
 10
17303.996150893807
 20
9601.917395280605
 10
17305.0
 20
9605.9517369384466
  0
LINE
  5
12B
100
AcDbEntity
  8
ABA70-1506
370
              15
390
0
  6
Continuous
 62
               7
100
AcDbLine
 10
17150.508213617872
 20
9479.0405528164756
 30
0.0
 11
17150.508213617872
 21
9459.0405528164756
 31
0.0
  0
LINE
  5
12C
100
AcDbEntity
  8
ABA70-1506
370
              15
390
0
  6
Continuous
 62
               7
100
AcDbLine
 10
17150.508213617872
 20
9459.0405528164756
 30
0.0
 11
17080.511379062566
 21
9459.0405528164756
 31
0.0
  0
LINE
  5
12D
100
AcDbEntity
  8
ABA70-1506
370
              15
390
0
  6
Continuous
 62
               7
100
AcDbLine
 10
17080.511379062566
 20
9479.0405528164756
 30
0.0
 11
17080.511379062566
 21
9459.0405528164756
 31
0.0
  0
LINE
  5
12E
100
AcDbEntity
  8
ABA70-1506
370
              15
390
0
  6
Continuous
 62
               7
100
AcDbLine
 10
15889.994917086511
 20
9630.9497897507299
 30
0.0
 11
16509.022854553197
 21
9630.9514908648925
 31
0.0
  0
LINE
  5
12F
100
AcDbEntity
  8
ABA70-1506
370
              15
390
0
  6
Continuous
 62
               7
100
AcDbLine
 10
15889.995227997482
 20
9605.9497897516958
 30
0.0
 11
16509.023165464168
 21
9605.9514908658603
 31
0.0
  0
LINE
  5
130
100
AcDbEntity
  8
ABA70-1506
370
              15
390
0
  6
Continuous
 62
               7
100
AcDbLine
 10
15889.995227997482
 20
9605.9497897516958
 30
0.0
 11
15889.995072541999
 21
9630.9497897516958
 31
0.0
  0
LWPOLYLINE
  5
131
100
AcDbEntity
  8
ABA70-1506
370
              15
390
0
  6
Continuous
 62
               7
100
AcDbPolyline
 90
        2
 70
             128
 10
15916.137226970493
 20
9605.9501497979618
 42
0.3393114227246554
 10
16073.507161287107
 20
9479.0389592331576
 42
0.3393114227246554
  0
LINE
  5
132
100
AcDbEntity
  8
ABA70-1506
370
              15
390
0
  6
Continuous
 62
               7
100
AcDbLine
 10
16234.994495862833
 20
9479.0390703627345
 30
0.0
 11
16234.994495862833
 21
9459.0390703627345
 31
0.0
  0
LINE
  5
133
100
AcDbEntity
  8
ABA70-1506
370
              15
390
0
  6
Continuous
 62
               7
100
AcDbLine
 10
16234.994495862833
 20
9459.0390703627345
 30
0.0
 11
16164.997661307527
 21
9459.0390703627345
 31
0.0
  0
LINE
  5
134
100
AcDbEntity
  8
ABA70-1506
370
              15
390
0
  6
Continuous
 62
               7
100
AcDbLine
 10
16164.997661307527
 20
9479.0390703627345
 30
0.0
 11
16164.997661307527
 21
9459.0390703627345
 31
0.0
  0
LINE
  5
135
100
AcDbEntity
  8
ABA70-1506
370
              15
390
0
  6
Continuous
 62
               7
100
AcDbLine
 10
16509.023010016186
 20
9605.9502843563823
 30
0.0
 11
16509.022854560699
 21
9630.9502843563823
 31
0.0
  0
LWPOLYLINE
  5
136
100
AcDbEntity
  8
ABA70-1506
370
              15
390
0
  6
Continuous
 62
               7
100
AcDbPolyline
 90
        2
 70
             128
 10
16483.854930199865
 20
9605.9501497979618
 42
-0.339311422724655
 10
16326.484995883251
 20
9479.0389592331576
 42
-0.339311422724655
  0
LINE
  5
137
100
AcDbEntity
  8
ABA70-1506
370
              15
390
0
  6
Continuous
 62
               7
100
AcDbLine
 10
16069.507161287109
 20
9479.0389592331576
 30
0.0
 11
16330.484995883249
 21
9479.0389592331576
 31
0.0
  0
ARC
  5
138
100
AcDbEntity
  8
ABA70-1506
370
              15
390
0
  6
Continuous
 62
               7
100
AcDbCircle
 10
16296.91056939159
 20
10631.875114266226
 30
0.0
 40
215.0
100
AcDbArc
 50
270.0
 51
89.737898767449565
  0
ARC
  5
139
100
AcDbEntity
  8
ABA70-1506
370
              15
390
0
  6
Continuous
 62
               7
100
AcDbCircle
 10
16111.91056939159
 20
10631.875114266226
 30
0.0
 40
215.0
100
AcDbArc
 50
90.0
 51
269.73789876744956
  0
LINE
  5
13A
100
AcDbEntity
  8
ABA70-1506
370
              15
390
0
  6
Continuous
 62
               7
100
AcDbLine
 10
16297.894089799869
 20
10846.872864690751
 30
0.0
 11
16111.91056939159
 21
10846.875114266226
 31
0.0
  0
LWPOLYLINE
  5
13B
100
AcDbEntity
  8
ABA70-1506
370
               5
390
0
  6
STYLE_11
 62
               7
100
AcDbPolyline
 90
        5
 70
             128
 10
17138.009825004308
 20
10631.874938806584
 42
0.4142138930167599
 10
17115.509796340219
 20
10654.374941884449
 42
0.4142132317295064
 10
17093.009767862357
 20
10631.874938620356
 42
0.4142138930167592
 10
17115.509796526447
 20
10609.374935542492
 42
0.4142132317295101
 10
17138.009825004308
 20
10631.874938806584
 42
0.4142132317295101
  0
ARC
  5
13C
100
AcDbEntity
  8
ABA70-1506
370
               5
390
0
  6
STYLE_11
 62
               7
100
AcDbCircle
 10
17212.424133987111
 20
10631.874938713576
 30
0.0
 40
215.0
100
AcDbArc
 50
269.99999999999994
 51
89.737898767449565
  0
ARC
  5
13D
100
AcDbEntity
  8
ABA70-1506
370
               5
390
0
  6
STYLE_11
 62
               7
100
AcDbCircle
 10
17027.424133987111
 20
10631.874938713576
 30
0.0
 40
215.00000000000011
100
AcDbArc
 50
90.0
 51
269.73789876744956
  0
LINE
  5
13E
100
AcDbEntity
  8
ABA70-1506
370
               5
390
0
  6
STYLE_11
 62
               7
100
AcDbLine
 10
17026.440613578834
 20
10416.877188289051
 30
0.0
 11
17212.424133987111
 21
10416.874938713576
 31
0.0
  0
LINE
  5
13F
100
AcDbEntity
  8
ABA70-1506
370
               5
390
0
  6
STYLE_11
 62
               7
100
AcDbLine
 10
17213.407654395392
 20
10846.872689138101
 30
0.0
 11
17027.424133987111
 21
10846.874938713576
 31
0.0
  0
ARC
  5
140
100
AcDbEntity
  8
ABA70-1506
370
              15
390
0
  6
Continuous
 62
               7
100
AcDbCircle
 10
17208.009796433333
 20
10631.87496411348
 30
0.0
 40
197.5
100
AcDbArc
 50
269.9999999653287
 51
89.999999965328669
  0
ARC
  5
141
100
AcDbEntity
  8
ABA70-1506
370
              15
390
0
  6
Continuous
 62
               7
100
AcDbCircle
 10
17023.009796247105
 20
10631.87496411348
 30
0.0
 40
197.5
100
AcDbArc
 50
90.000000034671331
 51
270.0000000346713
  0
LINE
  5
142
100
AcDbEntity
  8
ABA70-1506
370
              15
390
0
  6
Continuous
 62
               7
100
AcDbLine
 10
17023.009796127593
 20
10829.37496411348
 30
0.0
 11
17208.009796552848
 21
10829.37496411348
 31
0.0
  0
LINE
  5
143
100
AcDbEntity
  8
ABA70-1506
370
              15
390
0
  6
Continuous
 62
               7
100
AcDbLine
 10
17208.009796313821
 20
10434.37496411348
 30
0.0
 11
17023.009796366619
 21
10434.37496411348
 31
0.0
  0
SPLINE
  5
144
100
AcDbEntity
  8
ABA70-1506
370
              15
390
0
  6
STYLE_11
 62
               7
100
AcDbSpline
210
0.0
220
0.0
230
1.0
 70
               8
 71
               2
 72
               8
 73
               5
 74
               0
 42
0.000001
 43
0.000001
 40
0.0
 40
0.0
 40
0.0
 40
1.0
 40
2.0
 40
3.0
 40
3.0
 40
3.0
 10
15889.995072541999
 20
9630.9497897516958
 30
0.0
 10
15946.030011669185
 20
9630.2374983264872
 30
0.0
 10
15991.0
 20
9525.0
 30
0.0
 10
16105.0
 20
9500.9514275971451
 30
0.0
 10
16166.0
 20
9500.9514275971451
 30
0.0
  0
SPLINE
  5
145
100
AcDbEntity
  8
ABA70-1506
370
              15
390
0
  6
STYLE_11
 62
               7
100
AcDbSpline
210
0.0
220
0.0
230
1.0
 70
               8
 71
               2
 72
               8
 73
               5
 74
               0
 42
0.000001
 43
0.000001
 40
0.0
 40
0.0
 40
0.0
 40
1.0
 40
2.0
 40
3.0
 40
3.0
 40
3.0
 10
16509.997084628361
 20
9630.9497897516958
 30
0.0
 10
16453.962145501173
 20
9630.2374983264872
 30
0.0
 10
16408.99215717036
 20
9525.0
 30
0.0
 10
16294.99215717036
 20
9500.9514275971451
 30
0.0
 10
16233.99215717036
 20
9500.9514275971451
 30
0.0
  0
SPLINE
  5
146
100
AcDbEntity
  8
ABA70-1506
370
              15
390
0
  6
STYLE_11
 62
               7
100
AcDbSpline
210
0.0
220
0.0
230
1.0
 70
               8
 71
               2
 72
               7
 73
               4
 74
               0
 42
0.000001
 43
0.000001
 40
0.0
 40
0.0
 40
0.0
 40
1.0
 40
2.0
 40
2.0
 40
2.0
 10
16905.668076320999
 20
9630.9497897516958
 30
0.0
 10
16961.703015448184
 20
9630.2374983264872
 30
0.0
 10
17008.0
 20
9510.0
 30
0.0
 10
17082.0
 20
9500.9514275971451
 30
0.0
  0
LINE
  5
147
100
AcDbEntity
  8
ABA70-1506
370
              15
390
0
  6
STYLE_11
 62
               7
100
AcDbLine
 10
17138.009796340219
 20
9459.0405528164756
 30
0.0
 11
17138.009796340219
 21
9500.9514275971451
 31
0.0
  0
LINE
  5
148
100
AcDbEntity
  8
ABA70-1506
370
              15
390
0
  6
STYLE_11
 62
               7
100
AcDbLine
 10
17093.009796340219
 20
9459.0405528164756
 30
0.0
 11
17093.009796340219
 21
9500.9514275971451
 31
0.0
  0
SPLINE
  5
149
100
AcDbEntity
  8
ABA70-1506
370
              15
390
0
  6
STYLE_11
 62
               7
100
AcDbSpline
210
0.0
220
0.0
230
1.0
 70
               8
 71
               2
 72
               7
 73
               4
 74
               0
 42
0.000001
 43
0.000001
 40
0.0
 40
0.0
 40
0.0
 40
1.0
 40
2.0
 40
2.0
 40
2.0
 10
17325.351516359442
 20
9630.9497897516958
 30
0.0
 10
17269.316577232254
 20
9630.2374983264872
 30
0.0
 10
17223.019592680441
 20
9510.0
 30
0.0
 10
17149.019592680441
 20
9500.9514275971451
 30
0.0
  0
LINE
  5
14A
100
AcDbEntity
  8
ABA70-1506
370
              15
390
0
  6
STYLE_11
 62
               7
100
AcDbLine
 10
16222.49607858518
 20
9459.0405528164756
 30
0.0
 11
16222.49607858518
 21
9500.9514275971451
 31
0.0
  0
LINE
  5
14B
100
AcDbEntity
  8
ABA70-1506
370
              15
390
0
  6
STYLE_11
 62
               7
100
AcDbLine
 10
16177.49607858518
 20
9459.0405528164756
 30
0.0
 11
16177.49607858518
 21
9500.9514275971451
 31
0.0
  0
DIMENSION
  5
14C
100
AcDbEntity
  8
ABA70-1506
370
               5
390
0
  6
Continuous
 62
               7
100
AcDbDimension
  2
*D14
 10
16905.668076321308
 20
9537.875
 30
0.0
 11
16887.0
 21
9542.875
 31
0.0
 70
             128
 71
               5
 72
               1
 41
1.0
 42
0.0
  3
tfrom線あり
100
AcDbAlignedDimension
 13
16930.668076321308
 23
9605.951743381278
 33
0.0
 14
16905.668076321308
 24
9605.9512722054405
 34
0.0
100
AcDbRotatedDimension
1001
ACAD
1000
DSTYLE
1002
{
1070
             279
1070
               2
1070
             340
1005
32
1070
             174
1070
               0
1070
             147
1040
5.0
1002
}
  0
LWPOLYLINE
  5
14D
100
AcDbEntity
  8
ABA70-1506
370
              15
390
0
  6
Continuous
 62
               7
100
AcDbPolyline
 90
        5
 70
             128
 10
16234.896662454297
 20
10631.701502203507
 42
0.4142137749297874
 10
16199.896634521227
 20
10666.70150389126
 42
0.4142133498164348
 10
16164.896607433477
 20
10631.701501358189
 42
0.4142137749297854
 10
16199.896635366547
 20
10596.701499670437
 42
0.4142133498164363
 10
16234.896662454297
 20
10631.701502203507
 42
0.4142133498164363
  0
LWPOLYLINE
  5
14E
100
AcDbEntity
  8
ABA70-1506
370
              15
390
0
  6
Continuous
 62
               7
100
AcDbPolyline
 90
        5
 70
             128
 10
16222.496260408787
 20
10631.875114359233
 42
0.4142138930167606
 10
16199.996231744697
 20
10654.375117437097
 42
0.4142132317295078
 10
16177.496203266835
 20
10631.875114173004
 42
0.4142138930167621
 10
16199.996231930925
 20
10609.37511109514
 42
0.4142132317295071
 10
16222.496260408787
 20
10631.875114359233
 42
0.4142132317295071
  0
LINE
  5
14F
100
AcDbEntity
  8
ABA70-1506
370
              15
390
0
  6
Continuous
 62
               7
100
AcDbLine
 10
16110.955191390285
 20
10417.000847231428
 30
0.0
 11
16296.938711798564
 21
10416.998597655953
 31
0.0
  0
SPLINE
  5
150
100
AcDbEntity
  8
ABA70-1506
370
              15
390
0
  6
Continuous
 62
               7
100
AcDbSpline
210
0.0
220
0.0
230
1.0
 70
               8
 71
               2
 72
               8
 73
               5
 74
               0
 42
0.000001
 43
0.000001
 40
0.0
 40
0.0
 40
0.0
 40
1.0
 40
2.0
 40
3.0
 40
3.0
 40
3.0
 10
16305.955401384103
 20
10467.619805279455
 30
0.0
 10
16345.034323793892
 20
10467.619793862121
 30
0.0
 10
16412.721013143451
 20
10511.231308772622
 30
0.0
 10
16451.799953273523
 20
10586.768691227378
 30
0.0
 10
16451.799963504382
 20
10630.380225913375
 30
0.0
  0
SPLINE
  5
151
100
AcDbEntity
  8
ABA70-1506
370
              15
390
0
  6
Continuous
 62
               7
100
AcDbSpline
210
0.0
220
0.0
230
1.0
 70
               8
 71
               2
 72
               8
 73
               5
 74
               0
 42
0.000001
 43
0.000001
 40
0.0
 40
0.0
 40
0.0
 40
1.0
 40
2.0
 40
3.0
 40
3.0
 40
3.0
 10
15952.31260612949
 20
10630.378794197775
 30
0.0
 10
15952.312960116451
 20
10586.767259513354
 30
0.0
 10
15991.392495648313
 20
10511.230260688471
 30
0.0
 10
16059.079528751723
 20
10467.619410241436
 30
0.0
 10
16098.1584511601
 20
10467.619805286127
 30
0.0
  0
SPLINE
  5
152
100
AcDbEntity
  8
ABA70-1506
370
              15
390
0
  6
Continuous
 62
               7
100
AcDbSpline
210
0.0
220
0.0
230
1.0
 70
               8
 71
               2
 72
               8
 73
               5
 74
               0
 42
0.000001
 43
0.000001
 40
0.0
 40
0.0
 40
0.0
 40
1.0
 40
2.0
 40
3.0
 40
3.0
 40
3.0
 10
16098.15588787426
 20
10793.140731762735
 30
0.0
 10
16059.076965465791
 20
10793.140360314272
 30
0.0
 10
15991.390619192549
 20
10749.528182262138
 30
0.0
 10
15952.31227328553
 20
10673.990416944029
 30
0.0
 10
15952.312606128797
 20
10630.378882259507
 30
0.0
  0
SPLINE
  5
153
100
AcDbEntity
  8
ABA70-1506
370
              15
390
0
  6
Continuous
 62
               7
100
AcDbSpline
210
0.0
220
0.0
230
1.0
 70
               8
 71
               2
 72
               8
 73
               5
 74
               0
 42
0.000001
 43
0.000001
 40
0.0
 40
0.0
 40
0.0
 40
1.0
 40
2.0
 40
3.0
 40
3.0
 40
3.0
 10
16451.799963504382
 20
10630.380311134713
 30
0.0
 10
16451.799953273523
 20
10673.99184582071
 30
0.0
 10
16412.721013143451
 20
10749.529228275469
 30
0.0
 10
16345.034323793892
 20
10793.14074318597
 30
0.0
 10
16305.955401384103
 20
10793.140731768633
 30
0.0
  0
LINE
  5
154
100
AcDbEntity
  8
ABA70-1506
370
              15
390
0
  6
Continuous
 62
               7
100
AcDbLine
 10
16098.157130062242
 20
10467.619805279453
 30
0.0
 11
16305.955439565651
 21
10467.619805279453
 31
0.0
  0
LINE
  5
155
100
AcDbEntity
  8
ABA70-1506
370
              15
390
0
  6
Continuous
 62
               7
100
AcDbLine
 10
16305.955439565651
 20
10793.140731768639
 30
0.0
 11
16098.157130062242
 21
10793.140731768639
 31
0.0
  0
INSERT
  5
156
100
AcDbEntity
  8
ABA70-1506
390
0
 62
               7
100
AcDbBlockReference
  2
グループ-1
 10
16660.804255317729
 20
9914.5588678865133
 30
0.0
  0
SPLINE
  5
157
100
AcDbEntity
  8
ABA70-1506
370
              15
390
0
  6
Continuous
 62
               7
100
AcDbSpline
210
0.0
220
0.0
230
1.0
 70
               8
 71
               2
 72
               8
 73
               5
 74
               0
 42
0.000001
 43
0.000001
 40
0.0
 40
0.0
 40
0.0
 40
1.0
 40
2.0
 40
3.0
 40
3.0
 40
3.0
 10
16072.026821715361
 20
10816.140731768639
 30
0.0
 10
16030.478194846648
 20
10816.140308775104
 30
0.0
 10
15958.514216003563
 20
10766.476166635734
 30
0.0
 10
15916.96620206996
 20
10680.456195123084
 30
0.0
 10
15916.966555948209
 20
10630.792785630003
 30
0.0
  0
INSERT
  5
158
100
AcDbEntity
  8
ABA70-1506
390
0
 62
               7
100
AcDbBlockReference
  2
グループ-2
 10
16660.804255317729
 20
9914.5588678865133
 30
0.0
  0
SPLINE
  5
159
100
AcDbEntity
  8
ABA70-1506
370
              15
390
0
  6
Continuous
 62
               7
100
AcDbSpline
210
0.0
220
0.0
230
1.0
 70
               8
 71
               2
 72
               8
 73
               5
 74
               0
 42
0.000001
 43
0.000001
 40
0.0
 40
0.0
 40
0.0
 40
1.0
 40
2.0
 40
3.0
 40
3.0
 40
3.0
 10
16330.001310348511
 20
10444.0
 30
0.0
 10
16371.22454584763
 20
10444.000425826651
 30
0.0
 10
16442.624933077659
 20
10493.997207343768
 30
0.0
 10
16483.847560441918
 20
10580.593321493036
 30
0.0
 10
16483.84720933509
 20
10630.589365456761
 30
0.0
  0
ENDSEC
  0
SECTION
  2
OBJECTS
  0
DICTIONARY
  5
19
100
AcDbDictionary
280
               0
281
               1
  3
ACAD_GROUP
350
1A
  3
ACAD_MLINESTYLE
350
1B
  3
ACAD_LAYOUT
350
1E
  3
ACAD_PLOTSETTINGS
350
22
  3
ACAD_PLOTSTYLENAME
350
1F
  0
DICTIONARY
  5
1A
102
{ACAD_REACTORS
330
19
102
}
100
AcDbDictionary
280
               0
281
               1
  0
DICTIONARY
  5
1B
102
{ACAD_REACTORS
330
19
102
}
100
AcDbDictionary
280
               0
281
               1
  3
Standard
350
1C
  0
MLINESTYLE
  5
1C
102
{ACAD_REACTORS
330
1B
102
}
100
AcDbMlineStyle
  2
Standard
 70
               0
  3

 62
               0
 51
90.0
 52
90.0
 71
               2
 49
0.5
 62
             256
  6
ByLayer
 49
-0.5
 62
             256
  6
ByLayer
  0
ACDBDICTIONARYWDFLT
  5
1F
102
{ACAD_REACTORS
330
19
102
}
100
AcDbDictionary
281
               1
  3
Normal
350
1D
100
AcDbDictionaryWithDefault
340
1D
  0
ACDBPLACEHOLDER
  5
1D
102
{ACAD_REACTORS
330
1F
102
}
  0
LAYOUT
  5
20
102
{ACAD_REACTORS
330
1E
102
}
100
AcDbPlotSettings
  1

  2

  4

  6

 40
0.0
 41
0.0
 42
0.0
 43
0.0
 44
0.0
 45
0.0
 46
0.0
 47
0.0
 48
0.0
 49
0.0
140
0.0
141
0.0
142
1.0
143
1.0
 70
            1024
 72
               0
 73
               0
 74
               0
  7

 75
               0
147
1.0
148
0.0
149
0.0
100
AcDbLayout
  1
Model
 70
               0
 71
               0
 10
0.0
 20
0.0
 11
0.0
 21
0.0
 12
0.0
 22
0.0
 32
0.0
 14
0.0
 24
0.0
 34
0.0
 15
0.0
 25
0.0
 35
0.0
146
0.0
 13
0.0
 23
0.0
 33
0.0
 16
0.0
 26
0.0
 36
0.0
 17
0.0
 27
0.0
 37
0.0
 76
               0
330
A
331
0
345
0
346
0
  0
LAYOUT
  5
21
102
{ACAD_REACTORS
330
1E
102
}
100
AcDbPlotSettings
  1

  2

  4

  6

 40
0.0
 41
0.0
 42
0.0
 43
0.0
 44
0.0
 45
0.0
 46
0.0
 47
0.0
 48
0.0
 49
0.0
140
0.0
141
0.0
142
1.0
143
1.0
 70
               0
 72
               0
 73
               0
 74
               0
  7

 75
               0
147
1.0
148
0.0
149
0.0
100
AcDbLayout
  1
Layout1
 70
               0
 71
               0
 10
0.0
 20
0.0
 11
0.0
 21
0.0
 12
0.0
 22
0.0
 32
0.0
 14
0.0
 24
0.0
 34
0.0
 15
0.0
 25
0.0
 35
0.0
146
0.0
 13
0.0
 23
0.0
 33
0.0
 16
0.0
 26
0.0
 36
0.0
 17
0.0
 27
0.0
 37
0.0
 76
               0
330
B
331
0
345
0
346
0
  0
DICTIONARY
  5
1E
102
{ACAD_REACTORS
330
19
102
}
100
AcDbDictionary
280
               0
281
               1
  3
Layout1
350
21
  3
Model
350
20
  0
DICTIONARY
  5
22
102
{ACAD_REACTORS
330
19
102
}
100
AcDbDictionary
280
               0
281
               1
  0
ENDSEC
  0
EOF
