  0
SECTION
  2
HEADER
  9
$ACADVER
  1
AC1015
  9
$ACADMAINTVER
 70
               6
  9
$DWGCODEPAGE
  3
ANSI_932
  9
$INSBASE
 10
0.0
 20
0.0
 30
0.0
  9
$EXTMIN
 10
-975.00000000024124
 20
-1418.7614075562062
 30
-14.834305555555554
  9
$EXTMAX
 10
975.00000000024124
 20
1418.7614075562062
 30
14.834305555555554
  9
$LIMMIN
 10
0.0
 20
0.0
  9
$LIMMAX
 10
0.0
 20
0.0
  9
$ORTHOMODE
 70
               0
  9
$REGENMODE
 70
               1
  9
$FILLMODE
 70
               1
  9
$QTEXTMODE
 70
               0
  9
$MIRRTEXT
 70
               1
  9
$LTSCALE
 40
5.0800000000000001
  9
$ATTMODE
 70
               1
  9
$TEXTSIZE
 40
0.2
  9
$TRACEWID
 40
1.0
  9
$TEXTSTYLE
  7
Standard
  9
$CLAYER
  8
template
  9
$CELTYPE
  6
Continuous
  9
$CECOLOR
 62
             256
  9
$CELTSCALE
 40
1.0
  9
$DISPSILH
 70
               0
  9
$DIMSCALE
 40
1.0
  9
$DIMASZ
 40
22.4482421875
  9
$DIMEXO
 40
15.875
  9
$DIMDLI
 40
10.16
  9
$DIMRND
 40
0.0
  9
$DIMDLE
 40
1.5874999999999999
  9
$DIMEXE
 40
31.75
  9
$DIMTP
 40
0.0
  9
$DIMTM
 40
0.0
  9
$DIMTXT
 40
24.432617187500004
  9
$DIMCEN
 40
0.0
  9
$DIMTSZ
 40
0.0
  9
$DIMTOL
 70
               0
  9
$DIMLIM
 70
               0
  9
$DIMTIH
 70
               0
  9
$DIMTOH
 70
               0
  9
$DIMSE1
 70
               0
  9
$DIMSE2
 70
               0
  9
$DIMTAD
 70
               1
  9
$DIMZIN
 70
              11
  9
$DIMBLK
  1
VW_SLASH
  9
$DIMASO
 70
               1
  9
$DIMSHO
 70
               1
  9
$DIMPOST
  1
<>
  9
$DIMAPOST
  1
[]
  9
$DIMALT
 70
               0
  9
$DIMALTD
 70
               1
  9
$DIMALTF
 40
1.0
  9
$DIMLFAC
 40
1.0
  9
$DIMTOFL
 70
               1
  9
$DIMTVP
 40
0.0
  9
$DIMTIX
 70
               1
  9
$DIMSOXD
 70
               0
  9
$DIMSAH
 70
               0
  9
$DIMBLK1
  1

  9
$DIMBLK2
  1

  9
$DIMSTYLE
  2
Arch
  9
$DIMCLRD
 70
               0
  9
$DIMCLRE
 70
               0
  9
$DIMCLRT
 70
               0
  9
$DIMTFAC
 40
1.0
  9
$DIMGAP
 40
1.5874999999999999
  9
$DIMJUST
 70
               0
  9
$DIMSD1
 70
               0
  9
$DIMSD2
 70
               0
  9
$DIMTOLJ
 70
               1
  9
$DIMTZIN
 70
              11
  9
$DIMALTZ
 70
              11
  9
$DIMALTTZ
 70
              11
  9
$DIMUPT
 70
               0
  9
$DIMDEC
 70
               1
  9
$DIMTDEC
 70
               1
  9
$DIMALTU
 70
               2
  9
$DIMALTTD
 70
               2
  9
$DIMTXSTY
  7
ＭＳ ゴシック
  9
$DIMAUNIT
 70
               0
  9
$DIMADEC
 70
               2
  9
$DIMALTRND
 40
0.0
  9
$DIMAZIN
 70
               0
  9
$DIMDSEP
 70
              46
  9
$DIMATFIT
 70
               0
  9
$DIMFRAC
 70
               2
  9
$DIMLDRBLK
  1

  9
$DIMLUNIT
 70
               2
  9
$DIMLWD
 70
              -2
  9
$DIMLWE
 70
              -2
  9
$DIMTMOVE
 70
               0
  9
$LUNITS
 70
               2
  9
$LUPREC
 70
               4
  9
$SKETCHINC
 40
0.1
  9
$FILLETRAD
 40
0.0
  9
$AUNITS
 70
               0
  9
$AUPREC
 70
               0
  9
$MENU
  1
acad
  9
$ELEVATION
 40
0.0
  9
$PELEVATION
 40
0.0
  9
$THICKNESS
 40
0.0
  9
$LIMCHECK
 70
               0
  9
$CHAMFERA
 40
0.0
  9
$CHAMFERB
 40
0.0
  9
$CHAMFERC
 40
0.0
  9
$CHAMFERD
 40
0.0
  9
$SKPOLY
 70
               0
  9
$TDCREATE
 40
2456002.681273148
  9
$TDUCREATE
 40
0.000000000
  9
$TDUPDATE
 40
2456002.681273148
  9
$TDUUPDATE
 40
0.000000000
  9
$TDINDWG
 40
0.0000000000
  9
$TDUSRTIMER
 40
0.0000000000
  9
$USRTIMER
 70
               1
  9
$ANGBASE
 50
0.0
  9
$ANGDIR
 70
               0
  9
$PDMODE
 70
               1
  9
$PDSIZE
 40
-2.0
  9
$PLINEWID
 40
0.0
  9
$SPLFRAME
 70
               0
  9
$SPLINETYPE
 70
               6
  9
$SPLINESEGS
 70
               8
  9
$HANDSEED
  5
2BD
  9
$SURFTAB1
 70
               6
  9
$SURFTAB2
 70
               6
  9
$SURFTYPE
 70
               6
  9
$SURFU
 70
               6
  9
$SURFV
 70
               6
  9
$UCSBASE
  2

  9
$UCSNAME
  2

  9
$UCSORG
 10
0.0
 20
0.0
 30
0.0
  9
$UCSXDIR
 10
1.0
 20
0.0
 30
0.0
  9
$UCSYDIR
 10
0.0
 20
1.0
 30
0.0
  9
$UCSORTHOREF
  2

  9
$UCSORTHOVIEW
 70
               0
  9
$UCSORGTOP
 10
0.0
 20
0.0
 30
0.0
  9
$UCSORGBOTTOM
 10
0.0
 20
0.0
 30
0.0
  9
$UCSORGLEFT
 10
0.0
 20
0.0
 30
0.0
  9
$UCSORGRIGHT
 10
0.0
 20
0.0
 30
0.0
  9
$UCSORGFRONT
 10
0.0
 20
0.0
 30
0.0
  9
$UCSORGBACK
 10
0.0
 20
0.0
 30
0.0
  9
$PUCSBASE
  2

  9
$PUCSNAME
  2

  9
$PUCSORG
 10
0.0
 20
0.0
 30
0.0
  9
$PUCSXDIR
 10
1.0
 20
0.0
 30
0.0
  9
$PUCSYDIR
 10
0.0
 20
1.0
 30
0.0
  9
$PUCSORTHOREF
  2

  9
$PUCSORTHOVIEW
 70
               0
  9
$PUCSORGTOP
 10
0.0
 20
0.0
 30
0.0
  9
$PUCSORGBOTTOM
 10
0.0
 20
0.0
 30
0.0
  9
$PUCSORGLEFT
 10
0.0
 20
0.0
 30
0.0
  9
$PUCSORGRIGHT
 10
0.0
 20
0.0
 30
0.0
  9
$PUCSORGFRONT
 10
0.0
 20
0.0
 30
0.0
  9
$PUCSORGBACK
 10
0.0
 20
0.0
 30
0.0
  9
$USERI1
 70
               0
  9
$USERI2
 70
               0
  9
$USERI3
 70
               0
  9
$USERI4
 70
               0
  9
$USERI5
 70
               0
  9
$USERR1
 40
0.0
  9
$USERR2
 40
0.0
  9
$USERR3
 40
0.0
  9
$USERR4
 40
0.0
  9
$USERR5
 40
0.0
  9
$WORLDVIEW
 70
               1
  9
$SHADEDGE
 70
               3
  9
$SHADEDIF
 70
              70
  9
$TILEMODE
 70
               1
  9
$MAXACTVP
 70
              64
  9
$PINSBASE
 10
0.0
 20
0.0
 30
0.0
  9
$PLIMCHECK
 70
               0
  9
$PEXTMIN
 10
1.0000000000000000E+20
 20
1.0000000000000000E+20
 30
1.0000000000000000E+20
  9
$PEXTMAX
 10
-1.0000000000000000E+20
 20
-1.0000000000000000E+20
 30
-1.0000000000000000E+20
  9
$PLIMMIN
 10
0.0
 20
0.0
  9
$PLIMMAX
 10
12.0
 20
9.0
  9
$UNITMODE
 70
               0
  9
$VISRETAIN
 70
               0
  9
$PLINEGEN
 70
               1
  9
$PSLTSCALE
 70
               0
  9
$TREEDEPTH
 70
            3020
  9
$CMLSTYLE
  2
Standard
  9
$CMLJUST
 70
               0
  9
$CMLSCALE
 40
1.0
  9
$PROXYGRAPHICS
 70
               0
  9
$MEASUREMENT
 70
               1
  9
$CELWEIGHT
370
               0
  9
$ENDCAPS
280
               0
  9
$JOINSTYLE
280
               0
  9
$LWDISPLAY
290
               1
  9
$INSUNITS
 70
               4
  9
$HYPERLINKBASE
  1

  9
$STYLESHEET
  1

  9
$XEDIT
290
               1
  9
$CEPSNTYPE
380
               0
  9
$PSTYLEMODE
290
               1
  9
$FINGERPRINTGUID
  2

  9
$VERSIONGUID
  2

  9
$EXTNAMES
290
               1
  9
$PSVPSCALE
 40
0.0
  0
ENDSEC
  0
SECTION
  2
CLASSES
  0
CLASS
  1
LWPOLYLINE
  2
AcDbPolyline
  3
AutoCAD 2000
 90
        0
280
               0
281
               1
  0
CLASS
  1
IMAGE
  2
AcDbRasterImage
  3
ISM
 90
      127
280
               0
281
               1
  0
CLASS
  1
OLE2FRAME
  2
AcDbOle2Frame
  3
AutoCAD 2000
 90
        0
280
               0
281
               1
  0
CLASS
  1
HATCH
  2
AcDbHatch
  3
AutoCAD 2000
 90
        0
280
               0
281
               1
  0
CLASS
  1
DICTIONARYVAR
  2
AcDbDictionaryVar
  3
AutoCAD 2000
 90
        0
280
               0
281
               0
  0
CLASS
  1
RASTERVARIABLES
  2
AcDbRasterVariables
  3
ISM
 90
        0
280
               0
281
               0
  0
CLASS
  1
IMAGEDEF
  2
AcDbRasterImageDef
  3
ISM
 90
        0
280
               0
281
               0
  0
CLASS
  1
IMAGEDEF_REACTOR
  2
AcDbRasterImageDefReactor
  3
ISM
 90
        1
280
               0
281
               0
  0
CLASS
  1
IDBUFFER
  2
AcDbIdBuffer
  3
AutoCAD 2000
 90
        0
280
               0
281
               0
  0
CLASS
  1
SPATIAL_FILTER
  2
AcDbSpatialFilter
  3
AutoCAD 2000
 90
        0
280
               0
281
               0
  0
CLASS
  1
XRECORD
  2
AcDbXrecord
  3
AutoCAD 2000
 90
        0
280
               0
281
               0
  0
CLASS
  1
SORTENTSTABLE
  2
AcDbSortentsTable
  3
AutoCAD 2000
 90
        0
280
               0
281
               0
  0
CLASS
  1
LAYER_INDEX
  2
AcDbLayerIndex
  3
AutoCAD 2000
 90
        0
280
               0
281
               0
  0
CLASS
  1
SPATIAL_INDEX
  2
AcDbSpatialIndex
  3
AutoCAD 2000
 90
        0
280
               0
281
               0
  0
CLASS
  1
OBJECT_PTR
  2
CAseDLPNTableRecord
  3
"ASE-LPNTableRecord"
 90
        1
280
               0
281
               0
  0
CLASS
  1
LAYOUT
  2
AcDbLayout
  3
AutoCAD 2000
 90
        0
280
               0
281
               0
  0
CLASS
  1
PLOTSETTINGS
  2
AcDbPlotSettings
  3
AutoCAD 2000
 90
        0
280
               0
281
               0
  0
CLASS
  1
ACDBDICTIONARYWDFLT
  2
AcDbDictionaryWithDefault
  3
AutoCAD 2000
 90
        0
280
               0
281
               0
  0
CLASS
  1
ACDBPLACEHOLDER
  2
AcDbPlaceHolder
  3
AutoCAD 2000
 90
        0
280
               0
281
               0
  0
ENDSEC
  0
SECTION
  2
TABLES
  0
TABLE
  2
VPORT
  5
7
100
AcDbSymbolTable
 70
               1
  0
VPORT
  5
15
100
AcDbSymbolTableRecord
100
AcDbViewportTableRecord
  2
*ACTIVE
 70
               0
 10
0.0
 20
0.0
 11
1.0
 21
1.0
 12
0.0
 22
0.0
 13
0.0
 23
0.0
 14
1.0
 24
1.0
 15
0.0
 25
0.0
 16
0.0
 26
0.0
 36
1.0
 17
0.0
 27
0.0
 37
0.0
 40
2837.5228151124124
 41
0.688564
 42
50.0
 43
0.0
 44
0.0
 50
0.0
 51
0.0
 71
               0
 72
            2000
 73
               1
 74
               1
 75
               0
 76
               0
 77
               0
 78
               0
281
               0
 65
               0
110
0.0
120
0.0
130
0.0
111
1.0
121
0.0
131
0.0
112
0.0
122
1.0
132
0.0
345
0
346
0
 79
               0
146
0.0
  0
ENDTAB
  0
TABLE
  2
LTYPE
  5
4
100
AcDbSymbolTable
 70
              27
  0
LTYPE
  5
11
100
AcDbSymbolTableRecord
100
AcDbLinetypeTableRecord
  2
ByBlock
 70
              64
  3

 72
              65
 73
               0
 40
0.0
  0
LTYPE
  5
12
100
AcDbSymbolTableRecord
100
AcDbLinetypeTableRecord
  2
ByLayer
 70
              64
  3

 72
              65
 73
               0
 40
0.0
  0
LTYPE
  5
13
100
AcDbSymbolTableRecord
100
AcDbLinetypeTableRecord
  2
Continuous
 70
              64
  3
Solid line
 72
              65
 73
               0
 40
0.0
  0
LTYPE
  5
41
100
AcDbSymbolTableRecord
100
AcDbLinetypeTableRecord
  2
STYLE_01
 70
               0
  3

 72
              65
 73
               2
 40
0.6944448818897638
 49
0.3472224409448819
 74
               0
 49
-0.3472224409448819
 74
               0
  0
LTYPE
  5
42
100
AcDbSymbolTableRecord
100
AcDbLinetypeTableRecord
  2
STYLE_02
 70
               0
  3

 72
              65
 73
               4
 40
1.128472933070866
 49
0.3472224409448819
 74
               0
 49
-0.3472224409448819
 74
               0
 49
0.0868056102362205
 74
               0
 49
-0.3472224409448818
 74
               0
  0
LTYPE
  5
43
100
AcDbSymbolTableRecord
100
AcDbLinetypeTableRecord
  2
STYLE_03
 70
               0
  3

 72
              65
 73
               4
 40
1.128472933070866
 49
0.3472224409448819
 74
               0
 49
-0.3472224409448819
 74
               0
 49
0.0868056102362205
 74
               0
 49
-0.3472224409448818
 74
               0
  0
LTYPE
  5
44
100
AcDbSymbolTableRecord
100
AcDbLinetypeTableRecord
  2
STYLE_04
 70
               0
  3

 72
              65
 73
               4
 40
0.749496062992126
 49
0.6192883858267717
 74
               0
 49
-0.0434025590551181
 74
               0
 49
0.0434025590551181
 74
               0
 49
-0.0434025590551181
 74
               0
  0
LTYPE
  5
45
100
AcDbSymbolTableRecord
100
AcDbLinetypeTableRecord
  2
STYLE_05
 70
               0
  3

 72
              65
 73
               4
 40
0.749496062992126
 49
0.6192883858267717
 74
               0
 49
-0.0434025590551181
 74
               0
 49
0.0434025590551181
 74
               0
 49
-0.0434025590551181
 74
               0
  0
LTYPE
  5
46
100
AcDbSymbolTableRecord
100
AcDbLinetypeTableRecord
  2
STYLE_06
 70
               0
  3

 72
              65
 73
               4
 40
0.6591845472440944
 49
0.5024827755905512
 74
               0
 49
-0.0364758858267716
 74
               0
 49
0.08375
 74
               0
 49
-0.0364758858267716
 74
               0
  0
LTYPE
  5
47
100
AcDbSymbolTableRecord
100
AcDbLinetypeTableRecord
  2
STYLE_07
 70
               0
  3

 72
              65
 73
               4
 40
0.6591845472440944
 49
0.5024827755905512
 74
               0
 49
-0.0364758858267716
 74
               0
 49
0.08375
 74
               0
 49
-0.0364758858267716
 74
               0
  0
LTYPE
  5
48
100
AcDbSymbolTableRecord
100
AcDbLinetypeTableRecord
  2
STYLE_08
 70
               0
  3

 72
              65
 73
               6
 40
6.25
 49
3.125
 74
               0
 49
-1.0413999999999999
 74
               0
 49
0.3471500000000002
 74
               0
 49
-0.6946500000000001
 74
               0
 49
0.3471499999999995
 74
               0
 49
-0.6946500000000001
 74
               0
  0
LTYPE
  5
49
100
AcDbSymbolTableRecord
100
AcDbLinetypeTableRecord
  2
STYLE_09
 70
               0
  3

 72
              65
 73
               4
 40
25.0
 49
18.75
 74
               0
 49
-1.3889249999999991
 74
               0
 49
3.4721500000000018
 74
               0
 49
-1.3889249999999991
 74
               0
  0
LTYPE
  5
4A
100
AcDbSymbolTableRecord
100
AcDbLinetypeTableRecord
  2
STYLE_10
 70
               0
  3

 72
              65
 73
               6
 40
29.6875
 49
18.75
 74
               0
 49
-1.3889249999999991
 74
               0
 49
3.4721500000000018
 74
               0
 49
-1.3889249999999991
 74
               0
 49
3.125
 74
               0
 49
-1.5625
 74
               0
  0
LTYPE
  5
4B
100
AcDbSymbolTableRecord
100
AcDbLinetypeTableRecord
  2
STYLE_11
 70
               0
  3

 72
              65
 73
               8
 40
0.3149606299212597
 49
0.1771653543307086
 74
               0
 49
-0.0196850393700787
 74
               0
 49
0.0196850393700787
 74
               0
 49
-0.0196850393700787
 74
               0
 49
0.0196850393700787
 74
               0
 49
-0.0196850393700787
 74
               0
 49
0.0196850393700787
 74
               0
 49
-0.0196850393700787
 74
               0
  0
LTYPE
  5
4C
100
AcDbSymbolTableRecord
100
AcDbLinetypeTableRecord
  2
STYLE_12
 70
               0
  3

 72
              65
 73
              10
 40
0.3149606299212597
 49
0.1377952755905512
 74
               0
 49
-0.0196850393700787
 74
               0
 49
0.0196850393700787
 74
               0
 49
-0.0196850393700787
 74
               0
 49
0.0196850393700787
 74
               0
 49
-0.0196850393700787
 74
               0
 49
0.0196850393700787
 74
               0
 49
-0.0196850393700787
 74
               0
 49
0.0196850393700787
 74
               0
 49
-0.0196850393700787
 74
               0
  0
LTYPE
  5
4D
100
AcDbSymbolTableRecord
100
AcDbLinetypeTableRecord
  2
STYLE_13
 70
               0
  3

 72
              65
 73
              10
 40
0.3149606299212597
 49
0.1377952755905512
 74
               0
 49
-0.0196850393700787
 74
               0
 49
0.0196850393700787
 74
               0
 49
-0.0196850393700787
 74
               0
 49
0.0196850393700787
 74
               0
 49
-0.0196850393700787
 74
               0
 49
0.0196850393700787
 74
               0
 49
-0.0196850393700787
 74
               0
 49
0.0196850393700787
 74
               0
 49
-0.0196850393700787
 74
               0
  0
LTYPE
  5
4E
100
AcDbSymbolTableRecord
100
AcDbLinetypeTableRecord
  2
STYLE_14
 70
               0
  3

 72
              65
 73
              10
 40
0.2755905511811023
 49
0.0984251968503937
 74
               0
 49
-0.0196850393700787
 74
               0
 49
0.0196850393700787
 74
               0
 49
-0.0196850393700787
 74
               0
 49
0.0196850393700787
 74
               0
 49
-0.0196850393700787
 74
               0
 49
0.0196850393700787
 74
               0
 49
-0.0196850393700787
 74
               0
 49
0.0196850393700787
 74
               0
 49
-0.0196850393700787
 74
               0
  0
LTYPE
  5
4F
100
AcDbSymbolTableRecord
100
AcDbLinetypeTableRecord
  2
STYLE_15
 70
               0
  3

 72
              65
 73
              10
 40
0.2755905511811023
 49
0.0984251968503937
 74
               0
 49
-0.0196850393700787
 74
               0
 49
0.0196850393700787
 74
               0
 49
-0.0196850393700787
 74
               0
 49
0.0196850393700787
 74
               0
 49
-0.0196850393700787
 74
               0
 49
0.0196850393700787
 74
               0
 49
-0.0196850393700787
 74
               0
 49
0.0196850393700787
 74
               0
 49
-0.0196850393700787
 74
               0
  0
LTYPE
  5
50
100
AcDbSymbolTableRecord
100
AcDbLinetypeTableRecord
  2
STYLE_16
 70
               0
  3

 72
              65
 73
               2
 40
0.3169606299212598
 49
0.3149606299212598
 74
               0
 49
-0.005
 74
               0
  0
LTYPE
  5
51
100
AcDbSymbolTableRecord
100
AcDbLinetypeTableRecord
  2
STYLE_17
 70
               0
  3

 72
              65
 73
               2
 40
0.3169606299212598
 49
0.3149606299212598
 74
               0
 49
-0.005
 74
               0
  0
LTYPE
  5
52
100
AcDbSymbolTableRecord
100
AcDbLinetypeTableRecord
  2
STYLE_18
 70
               0
  3

 72
              65
 73
               4
 40
0.2559055118110236
 49
0.1838582677165354
 74
               0
 49
-0.024015748031496
 74
               0
 49
0.0240157480314961
 74
               0
 49
-0.0240157480314961
 74
               0
  0
LTYPE
  5
53
100
AcDbSymbolTableRecord
100
AcDbLinetypeTableRecord
  2
STYLE_19
 70
               0
  3

 72
              65
 73
               2
 40
0.3169606299212598
 49
0.3149606299212598
 74
               0
 49
-0.005
 74
               0
  0
LTYPE
  5
54
100
AcDbSymbolTableRecord
100
AcDbLinetypeTableRecord
  2
STYLE_20
 70
               0
  3

 72
              65
 73
               4
 40
0.2559055118110236
 49
0.1838582677165354
 74
               0
 49
-0.024015748031496
 74
               0
 49
0.0240157480314961
 74
               0
 49
-0.0240157480314961
 74
               0
  0
LTYPE
  5
55
100
AcDbSymbolTableRecord
100
AcDbLinetypeTableRecord
  2
STYLE_21
 70
               0
  3

 72
              65
 73
               2
 40
1.3888897637795274
 49
0.6944448818897637
 74
               0
 49
-0.6944448818897637
 74
               0
  0
LTYPE
  5
56
100
AcDbSymbolTableRecord
100
AcDbLinetypeTableRecord
  2
STYLE_22
 70
               0
  3

 72
              65
 73
               6
 40
59.375
 49
37.5
 74
               0
 49
-2.7778499999999982
 74
               0
 49
6.9443000000000037
 74
               0
 49
-2.7778499999999982
 74
               0
 49
6.25
 74
               0
 49
-3.125
 74
               0
  0
LTYPE
  5
57
100
AcDbSymbolTableRecord
100
AcDbLinetypeTableRecord
  2
STYLE_23
 70
               0
  3

 72
              65
 73
               2
 40
3.9370078740157481
 49
1.9685039370078741
 74
               0
 49
-1.9685039370078741
 74
               0
  0
LTYPE
  5
58
100
AcDbSymbolTableRecord
100
AcDbLinetypeTableRecord
  2
STYLE_24
 70
               0
  3

 72
              65
 73
               2
 40
39.370078740157474
 49
19.685039370078737
 74
               0
 49
-19.685039370078737
 74
               0
  0
ENDTAB
  0
TABLE
  2
LAYER
  5
2
100
AcDbSymbolTable
 70
               5
  0
LAYER
  5
14
100
AcDbSymbolTableRecord
100
AcDbLayerTableRecord
  2
0
 70
               0
 62
               7
  6
Continuous
290
               1
370
              -3
390
1D
  0
LAYER
  5
59
100
AcDbSymbolTableRecord
100
AcDbLayerTableRecord
  2
Defpoints
 70
               0
 62
               7
  6
Continuous
290
               0
370
              -3
390
1D
  0
LAYER
  5
5A
100
AcDbSymbolTableRecord
100
AcDbLayerTableRecord
  2
template
 70
               0
 62
               7
  6
Continuous
290
               1
370
              -3
390
1D
  0
LAYER
  5
5B
100
AcDbSymbolTableRecord
100
AcDbLayerTableRecord
  2
notes
 70
               0
 62
               7
  6
Continuous
290
               1
370
              -3
390
1D
  0
LAYER
  5
5C
100
AcDbSymbolTableRecord
100
AcDbLayerTableRecord
  2
ADF70-0001
 70
               0
 62
               7
  6
Continuous
290
               1
370
              -3
390
1D
  0
ENDTAB
  0
TABLE
  2
STYLE
  5
3
100
AcDbSymbolTable
 70
               2
  0
STYLE
  5
17
100
AcDbSymbolTableRecord
100
AcDbTextStyleTableRecord
  2
Standard
 70
               0
 40
0.0
 41
1.0
 50
0.0
 71
               0
 42
0.0
  3
txt
  4
BIGFONT.SHX
  0
STYLE
  5
40
100
AcDbSymbolTableRecord
100
AcDbTextStyleTableRecord
  2
ＭＳ ゴシック
 70
               0
 40
0.0
 41
1.0
 50
0.0
 71
               0
 42
0.0
  3

  4
ＭＳ ゴシック
1001
ACAD
1000
ＭＳ ゴシック
1071
        0
  0
ENDTAB
  0
TABLE
  2
VIEW
  5
5
100
AcDbSymbolTable
 70
               0
  0
ENDTAB
  0
TABLE
  2
UCS
  5
6
100
AcDbSymbolTable
 70
               0
  0
ENDTAB
  0
TABLE
  2
APPID
  5
8
100
AcDbSymbolTable
 70
               1
  0
APPID
  5
16
100
AcDbSymbolTableRecord
100
AcDbRegAppTableRecord
  2
ACAD
 70
               0
  0
ENDTAB
  0
TABLE
  2
DIMSTYLE
  5
9
100
AcDbSymbolTable
 70
               4
100
AcDbDimStyleTable
 71
               0
  0
DIMSTYLE
105
18
100
AcDbSymbolTableRecord
100
AcDbDimStyleTableRecord
  2
Standard
 70
               0
  3

  4

 40
1.0
 41
0.18
 42
0.0625
 43
0.38
 44
0.18
 45
0.0
 46
0.0
 47
0.0
 48
0.0
 71
               0
 72
               0
 73
               1
 74
               1
 75
               0
 76
               0
 77
               0
 78
               0
 79
               0
140
0.18
141
0.09
142
0.0
143
25.399999999999999
144
1.0
145
0.0
146
1.0
147
0.09
148
0.0
170
               0
171
               2
172
               0
173
               0
174
               0
175
               0
176
               0
177
               0
178
               0
179
               0
271
               4
272
               4
273
               2
274
               2
275
               0
276
               0
277
               2
278
              46
279
               0
280
               0
281
               0
282
               0
283
               1
284
               0
285
               0
286
               0
288
               0
289
               3
340
17
341
0
342
0
343
0
344
0
371
              -2
372
              -2
  0
DIMSTYLE
105
65
100
AcDbSymbolTableRecord
100
AcDbDimStyleTableRecord
  2
tfrom線あり
 70
               0
  3
<>
  4
[]
 40
1.0
 41
3.999755859375
 42
24.999999999999996
 43
0.9999999999999999
 44
0.0
 45
0.0
 46
0.0
 47
0.0
 48
0.0
 71
               0
 72
               0
 73
               0
 74
               0
 75
               0
 76
               0
 77
               1
 78
              11
 79
               0
140
24.432617187500004
141
0.0
142
0.0
143
1.0
144
1.0
145
0.0
146
1.0
147
0.4999999999999999
148
0.0
170
               0
171
               1
172
               0
173
               0
174
               1
175
               0
176
               0
177
               0
178
               0
179
               2
271
               1
272
               1
273
               2
274
               2
275
               0
276
               2
277
               2
278
              46
279
               0
280
               0
281
               0
282
               0
283
               1
284
              11
285
              11
286
              11
288
               0
289
               0
340
40
341
5D
342
5D
343
0
344
0
371
              -2
372
              -2
  0
DIMSTYLE
105
66
100
AcDbSymbolTableRecord
100
AcDbDimStyleTableRecord
  2
TformSENN
 70
               0
  3
<>
  4
[]
 40
1.0
 41
3.999755859375
 42
24.999999999999996
 43
0.9999999999999999
 44
0.0
 45
0.0
 46
0.0
 47
0.0
 48
0.0
 71
               0
 72
               0
 73
               0
 74
               0
 75
               0
 76
               0
 77
               1
 78
              11
 79
               0
140
24.432617187500004
141
0.0
142
0.0
143
1.0
144
1.0
145
0.0
146
0.8
147
0.4999999999999999
148
0.0
170
               0
171
               1
172
               1
173
               0
174
               1
175
               0
176
               0
177
               0
178
               0
179
               2
271
               1
272
               1
273
               2
274
               2
275
               0
276
               2
277
               2
278
              46
279
               0
280
               0
281
               0
282
               0
283
               1
284
              11
285
              11
286
              11
288
               0
289
               0
340
40
341
5D
342
5D
343
0
344
0
371
              -2
372
              -2
  0
DIMSTYLE
105
70
100
AcDbSymbolTableRecord
100
AcDbDimStyleTableRecord
  2
Arch
 70
               0
  3
<>
  4
[]
 40
1.0
 41
22.4482421875
 42
15.875
 43
10.16
 44
31.75
 45
0.0
 46
1.5874999999999999
 47
0.0
 48
0.0
 71
               0
 72
               0
 73
               0
 74
               0
 75
               0
 76
               0
 77
               1
 78
              11
 79
               0
140
24.432617187500004
141
0.0
142
0.0
143
1.0
144
1.0
145
0.0
146
1.0
147
1.5874999999999999
148
0.0
170
               0
171
               1
172
               1
173
               0
174
               1
175
               0
176
               0
177
               0
178
               0
179
               2
271
               1
272
               1
273
               2
274
               2
275
               0
276
               2
277
               2
278
              46
279
               0
280
               0
281
               0
282
               0
283
               1
284
              11
285
              11
286
              11
288
               0
289
               0
340
40
341
6C
342
67
343
0
344
0
371
              -2
372
              -2
  0
ENDTAB
  0
TABLE
  2
BLOCK_RECORD
  5
1
100
AcDbSymbolTable
 70
              32
  0
BLOCK_RECORD
  5
A
100
AcDbSymbolTableRecord
100
AcDbBlockTableRecord
  2
*MODEL_SPACE
340
20
  0
BLOCK_RECORD
  5
B
100
AcDbSymbolTableRecord
100
AcDbBlockTableRecord
  2
*PAPER_SPACE
340
21
  0
BLOCK_RECORD
  5
5D
100
AcDbSymbolTableRecord
100
AcDbBlockTableRecord
  2
_DOT
340
0
  0
BLOCK_RECORD
  5
67
100
AcDbSymbolTableRecord
100
AcDbBlockTableRecord
  2
VW_SLASH
340
0
  0
BLOCK_RECORD
  5
6C
100
AcDbSymbolTableRecord
100
AcDbBlockTableRecord
  2
VW_FILLEDARROW
340
0
  0
BLOCK_RECORD
  5
23
100
AcDbSymbolTableRecord
100
AcDbBlockTableRecord
  2
グループ
340
0
102
{BLKREFS
331
1E9
102
}
  0
BLOCK_RECORD
  5
24
100
AcDbSymbolTableRecord
100
AcDbBlockTableRecord
  2
*D4
340
0
  0
BLOCK_RECORD
  5
25
100
AcDbSymbolTableRecord
100
AcDbBlockTableRecord
  2
*D5
340
0
  0
BLOCK_RECORD
  5
26
100
AcDbSymbolTableRecord
100
AcDbBlockTableRecord
  2
*D6
340
0
  0
BLOCK_RECORD
  5
27
100
AcDbSymbolTableRecord
100
AcDbBlockTableRecord
  2
*D7
340
0
  0
BLOCK_RECORD
  5
28
100
AcDbSymbolTableRecord
100
AcDbBlockTableRecord
  2
*D8
340
0
  0
BLOCK_RECORD
  5
29
100
AcDbSymbolTableRecord
100
AcDbBlockTableRecord
  2
*D9
340
0
  0
BLOCK_RECORD
  5
2A
100
AcDbSymbolTableRecord
100
AcDbBlockTableRecord
  2
*D10
340
0
  0
BLOCK_RECORD
  5
2B
100
AcDbSymbolTableRecord
100
AcDbBlockTableRecord
  2
*D11
340
0
  0
BLOCK_RECORD
  5
2C
100
AcDbSymbolTableRecord
100
AcDbBlockTableRecord
  2
*D12
340
0
  0
BLOCK_RECORD
  5
2D
100
AcDbSymbolTableRecord
100
AcDbBlockTableRecord
  2
*D13
340
0
  0
BLOCK_RECORD
  5
2E
100
AcDbSymbolTableRecord
100
AcDbBlockTableRecord
  2
*D14
340
0
  0
BLOCK_RECORD
  5
2F
100
AcDbSymbolTableRecord
100
AcDbBlockTableRecord
  2
*D15
340
0
  0
BLOCK_RECORD
  5
30
100
AcDbSymbolTableRecord
100
AcDbBlockTableRecord
  2
*D16
340
0
  0
BLOCK_RECORD
  5
31
100
AcDbSymbolTableRecord
100
AcDbBlockTableRecord
  2
*D17
340
0
  0
BLOCK_RECORD
  5
32
100
AcDbSymbolTableRecord
100
AcDbBlockTableRecord
  2
*D18
340
0
  0
BLOCK_RECORD
  5
33
100
AcDbSymbolTableRecord
100
AcDbBlockTableRecord
  2
*D19
340
0
  0
BLOCK_RECORD
  5
34
100
AcDbSymbolTableRecord
100
AcDbBlockTableRecord
  2
*D20
340
0
  0
BLOCK_RECORD
  5
35
100
AcDbSymbolTableRecord
100
AcDbBlockTableRecord
  2
*D21
340
0
  0
BLOCK_RECORD
  5
36
100
AcDbSymbolTableRecord
100
AcDbBlockTableRecord
  2
*D22
340
0
  0
BLOCK_RECORD
  5
37
100
AcDbSymbolTableRecord
100
AcDbBlockTableRecord
  2
*D23
340
0
  0
BLOCK_RECORD
  5
38
100
AcDbSymbolTableRecord
100
AcDbBlockTableRecord
  2
*D24
340
0
  0
BLOCK_RECORD
  5
39
100
AcDbSymbolTableRecord
100
AcDbBlockTableRecord
  2
*D25
340
0
  0
BLOCK_RECORD
  5
3A
100
AcDbSymbolTableRecord
100
AcDbBlockTableRecord
  2
*D26
340
0
  0
BLOCK_RECORD
  5
3B
100
AcDbSymbolTableRecord
100
AcDbBlockTableRecord
  2
*D27
340
0
  0
BLOCK_RECORD
  5
3C
100
AcDbSymbolTableRecord
100
AcDbBlockTableRecord
  2
*D28
340
0
  0
BLOCK_RECORD
  5
3D
100
AcDbSymbolTableRecord
100
AcDbBlockTableRecord
  2
*D29
340
0
  0
BLOCK_RECORD
  5
3E
100
AcDbSymbolTableRecord
100
AcDbBlockTableRecord
  2
*D30
340
0
  0
BLOCK_RECORD
  5
3F
100
AcDbSymbolTableRecord
100
AcDbBlockTableRecord
  2
グループ-1
340
0
102
{BLKREFS
331
274
102
}
  0
ENDTAB
  0
ENDSEC
  0
SECTION
  2
BLOCKS
  0
BLOCK
  5
D
100
AcDbEntity
  8
0
390
0
100
AcDbBlockBegin
  2
*MODEL_SPACE
 70
               0
 10
0.0
 20
0.0
 30
0.0
  3
*MODEL_SPACE
  1

  0
ENDBLK
  5
E
100
AcDbEntity
  8
0
390
0
100
AcDbBlockEnd
  0
BLOCK
  5
F
100
AcDbEntity
 67
               1
  8
0
390
0
100
AcDbBlockBegin
  2
*PAPER_SPACE
 70
               0
 10
0.0
 20
0.0
 30
0.0
  3
*PAPER_SPACE
  1

  0
ENDBLK
  5
10
100
AcDbEntity
 67
               1
  8
0
390
0
100
AcDbBlockEnd
  0
BLOCK
  5
5E
100
AcDbEntity
  8
0
390
0
100
AcDbBlockBegin
  2
_DOT
 70
               0
 10
0.0
 20
0.0
 30
0.0
  3
_DOT
  1

  0
POLYLINE
  5
5F
100
AcDbEntity
  8
0
370
              -2
390
0
  6
ByBlock
 62
               0
100
AcDb2dPolyline
 66
               1
 10
0.0
 20
0.0
 30
0.0
 70
               1
 40
0.5
 41
0.5
  0
VERTEX
  5
60
100
AcDbEntity
  8
0
370
              -2
390
0
  6
ByBlock
 62
               0
100
AcDbVertex
100
AcDb2dVertex
 10
-0.25
 20
0.0
 30
0.0
 42
1.0
  0
VERTEX
  5
61
100
AcDbEntity
  8
0
370
              -2
390
0
  6
ByBlock
 62
               0
100
AcDbVertex
100
AcDb2dVertex
 10
0.25
 20
0.0
 30
0.0
 42
1.0
  0
SEQEND
  5
62
100
AcDbEntity
  8
0
390
0
  0
LINE
  5
63
100
AcDbEntity
  8
0
370
              -2
390
0
  6
ByBlock
 62
               0
100
AcDbLine
 10
-0.5
 20
0.0
 30
0.0
 11
-1.0
 21
0.0
 31
0.0
  0
ENDBLK
  5
64
100
AcDbEntity
  8
0
390
0
100
AcDbBlockEnd
  0
BLOCK
  5
68
100
AcDbEntity
  8
0
370
              -2
390
0
  6
ByBlock
 62
               0
100
AcDbBlockBegin
  2
VW_SLASH
 70
               0
 10
0.0
 20
0.0
 30
0.0
  3
VW_SLASH
  1

  0
LINE
  5
69
100
AcDbEntity
  8
0
370
              -2
390
0
  6
ByBlock
 62
               0
100
AcDbLine
 10
0.0
 20
0.0
 30
0.0
 11
-1.0
 21
0.0
 31
0.0
  0
LINE
  5
6A
100
AcDbEntity
  8
0
370
              20
390
0
  6
ByBlock
 62
               0
100
AcDbLine
 10
-0.4987813153181721
 20
-0.4987813153181719
 30
0.0
 11
0.4987813153181721
 21
0.4987813153181719
 31
0.0
  0
ENDBLK
  5
6B
100
AcDbEntity
  8
0
390
0
100
AcDbBlockEnd
  0
BLOCK
  5
6D
100
AcDbEntity
  8
0
370
              -2
390
0
  6
ByBlock
 62
               0
100
AcDbBlockBegin
  2
VW_FILLEDARROW
 70
               0
 10
0.0
 20
0.0
 30
0.0
  3
VW_FILLEDARROW
  1

  0
SOLID
  5
6E
100
AcDbEntity
  8
0
370
              -2
390
0
 62
               0
100
AcDbTrace
 10
0.0
 20
0.0
 30
0.0
 11
-1.4107666015625
 21
-0.3780137715974714
 31
0.0
 12
-1.4107666015625
 22
0.3780137715974717
 32
0.0
 13
-1.4107666015625
 23
0.3780137715974717
 33
0.0
  0
ENDBLK
  5
6F
100
AcDbEntity
  8
0
390
0
100
AcDbBlockEnd
  0
BLOCK
  5
71
100
AcDbEntity
  8
template
390
0
100
AcDbBlockBegin
  2
グループ
 70
               0
 10
0.0
 20
0.0
 30
0.0
  3
グループ
  1

  0
LWPOLYLINE
  5
72
100
AcDbEntity
  8
0
370
              15
390
0
  6
Continuous
 62
               7
100
AcDbPolyline
 90
        8
 70
             129
 10
778.48717237179358
 20
-1466.9333357047253
 10
778.48717237179358
 20
-1472.9307243983012
 10
768.98597545379039
 20
-1472.9307243983012
 10
768.98597545379039
 20
-1497.38168766181
 10
760.63059819200748
 20
-1497.38168766181
 10
760.63059819200748
 20
-1472.9307243983012
 10
751.29764124569806
 20
-1472.9307243983012
 10
751.29764124569806
 20
-1466.9333357047253
  0
LWPOLYLINE
  5
73
100
AcDbEntity
  8
0
370
              15
390
0
  6
Continuous
 62
               7
100
AcDbPolyline
 90
      101
 70
             128
 10
791.21546420235063
 20
-1467.6615841976618
 10
791.2308142311357
 20
-1467.6572234409766
 42
-0.0222221607812418
 10
791.52081880780668
 20
-1467.5885989757321
 10
791.53661257179635
 20
-1467.5855955526358
 42
-0.0146883565587185
 10
791.79931527702445
 20
-1467.5435923656858
 42
-0.0127458844183696
 10
792.06395424418099
 20
-1467.5160553976129
 10
792.12640932249019
 20
-1467.5111619750251
 42
-0.0198099018566508
 10
792.51725843196255
 20
-1467.4960768176284
 10
792.5690699014109
 20
-1467.4961305932934
 42
-0.0147617382762621
 10
793.06369336238504
 20
-1467.5112506185385
 10
793.1363848172615
 20
-1467.5156232254262
 42
-0.016262454900334
 10
793.52653844672454
 20
-1467.5518561006984
 10
793.6480708379828
 20
-1467.5671426596948
 42
-0.0080020874666067
 10
793.79364986907535
 20
-1467.5878255069633
 10
793.83196933967383
 20
-1467.5938967847749
 42
-0.0053821929666171
 10
793.90045344498526
 20
-1467.605504308596
 10
793.17404774578654
 20
-1469.7864327643099
 42
0.0108667757404252
 10
793.10673067565119
 20
-1469.7732456490892
 10
793.06926265246625
 20
-1469.7667479064955
 42
0.0170663203310805
 10
792.92604586555137
 20
-1469.7469183092039
 10
792.85817053286769
 20
-1469.7398711386163
 42
0.0220162375274595
 10
792.57779112501282
 20
-1469.7231887778462
 10
792.49993555795982
 20
-1469.7219894105797
 42
0.0282606915787699
 10
792.16429923438238
 20
-1469.7357926875488
 10
792.12038596060404
 20
-1469.7400926775531
 42
0.016967721369229
 10
791.87446146565117
 20
-1469.7726297271042
 42
0.019057626986711
 10
791.63155350306636
 20
-1469.8227765992119
 10
791.62529431496034
 20
-1469.8243195733201
 42
0.021368564284596
 10
791.37490983048383
 20
-1469.8975198584244
 10
791.36941993556638
 20
-1469.899382854484
 42
0.0237595297595264
 10
791.11592505066903
 20
-1469.9990673763789
 10
791.11082297663802
 20
-1470.0013591518577
 42
0.0261857468818285
 10
790.85865220040705
 20
-1470.1308954892327
 10
790.8482260113218
 20
-1470.1369609637002
 42
0.0272553062018961
 10
790.61179623608257
 20
-1470.2923331696447
 10
790.57703322257385
 20
-1470.3179943177365
 42
0.0325996893174011
 10
790.42687787892157
 20
-1470.4447421907084
 10
790.40316844979975
 20
-1470.4675602192201
 42
0.0138050960635759
 10
790.3112852935883
 20
-1470.5610098807729
 42
0.0125280103797611
 10
790.22444276075578
 20
-1470.6591732073719
 10
790.20076231584642
 20
-1470.6873317055604
 42
0.0205218024738806
 10
790.07566224033405
 20
-1470.8491250197876
 10
790.0531958998456
 20
-1470.8807847496164
 42
0.0163110129587224
 10
789.89748552059064
 20
-1471.1161151846923
 10
789.89476162454332
 20
-1471.1205389466718
 42
0.0131897341892145
 10
789.74796110363854
 20
-1471.3736710390342
 10
789.74626100827095
 20
-1471.3767892781721
 42
0.0107895576068261
 10
789.60848430605813
 20
-1471.6430044878114
 10
789.60775141653517
 20
-1471.6444987204536
 42
0.0091371507213891
 10
789.47927146788857
 20
-1471.9190239182067
 10
789.44952583647648
 20
-1471.9857304253719
 42
0.0135418326353432
 10
789.27781189740313
 20
-1472.4006682106449
 10
789.2442070889698
 20
-1472.4885343529236
 42
0.009283454241449
 10
789.07297802904964
 20
-1472.9624328512273
 10
789.04736090133531
 20
-1473.0376739210108
 42
0.0054261043575673
 10
788.93972275303906
 20
-1473.365437894086
 10
788.92219676682294
 20
-1473.4208260564383
 42
0.0008225090825366
 10
788.85352671503165
 20
-1473.6390948144651
 10
787.86883758309818
 20
-1476.6639861077217
 10
791.10146142317194
 20
-1476.6639861077217
 10
790.59726899331849
 20
-1478.5684644060741
 10
787.34121271133517
 20
-1478.5684644060741
 10
781.51206367898135
 20
-1497.381687472079
 10
779.68696606867115
 20
-1497.381687472079
 10
785.52164410417208
 20
-1478.5684644060741
 10
783.11652773513174
 20
-1478.5684644060741
 10
783.62072016498519
 20
-1476.6639861077217
 10
786.04926897593509
 20
-1476.6639861077217
 10
786.90942389412385
 20
-1474.0275731070228
 42
-0.0005863560647422
 10
786.94615857230406
 20
-1473.9107466868045
 10
787.02224640598763
 20
-1473.6697543873456
 42
-0.0087522378926035
 10
787.22171454944339
 20
-1473.0744783002021
 10
787.31397882485976
 20
-1472.8143381316809
 42
-0.0077400953829899
 10
787.57191248398908
 20
-1472.121333454138
 10
787.58767745556827
 20
-1472.0809025707511
 42
-0.0082369946329911
 10
787.83476192617991
 20
-1471.4768235045563
 42
-0.0085725238364432
 10
788.1020080221831
 20
-1470.8813974652683
 10
788.20363762319062
 20
-1470.6649763632831
 42
-0.016810941059609
 10
788.49058205192023
 20
-1470.1037688371796
 10
788.61642544232598
 20
-1469.8768048042782
 42
-0.0007817726877554
 10
788.6707097924359
 20
-1469.7792605591512
 10
788.67083809844439
 20
-1469.7790308504307
 42
-0.0036626142169117
 10
788.72572596247437
 20
-1469.6824329704461
 42
-0.0080221150679402
 10
788.78285021787985
 20
-1469.5871537356952
 10
788.81355016924226
 20
-1469.537762786571
 42
-0.020213932556892
 10
788.9412059090472
 20
-1469.3497811858922
 10
788.9952733742366
 20
-1469.2767023216488
 42
-0.0249323791802347
 10
789.25443616795417
 20
-1468.9606570794963
 10
789.27857598208277
 20
-1468.9340428065821
 42
-0.0242132121536747
 10
789.61825672362636
 20
-1468.5941593203765
 10
789.66616829637599
 20
-1468.5506501841915
 42
-0.0251017527860954
 10
789.95014999701618
 20
-1468.317657438427
 10
789.95159547382536
 20
-1468.3165881808513
 42
-0.0130868069034421
 10
790.24985612378725
 20
-1468.1078077123057
 10
790.25141794292995
 20
-1468.1067742720306
 42
-0.0290329526391151
 10
790.56252908432327
 20
-1467.9259487704012
 10
790.59237464631542
 20
-1467.9108463875584
 42
-0.0160250190043358
 10
790.85827906007398
 20
-1467.7868302773486
 42
-0.0267600374783999
 10
791.13355513754129
 20
-1467.6860819568003
 10
791.16029105706366
 20
-1467.6778893979742
 42
-0.0049981587669845
 10
791.21546420235063
 20
-1467.6615841976618
 42
-0.0049981587669845
  0
LWPOLYLINE
  5
74
100
AcDbEntity
  8
0
370
              15
390
0
  6
Continuous
 62
               7
100
AcDbPolyline
 90
      118
 70
             128
 10
811.02983176679754
 20
-1476.7379694355491
 10
812.9049536912969
 20
-1476.7379694355491
 10
812.06691478569701
 20
-1479.4195359619491
 42
-0.001058722923777
 10
812.09837060126961
 20
-1479.3826314285932
 10
812.15656469190094
 20
-1479.3146491724181
 42
-0.0071874740410468
 10
812.30693991000328
 20
-1479.1440084803844
 10
812.4486626832612
 20
-1478.9877723390759
 42
-0.0148118053514632
 10
812.89879197597668
 20
-1478.5201584930603
 10
812.98601431088287
 20
-1478.4347611722023
 42
-0.0086273358691592
 10
813.32156311188419
 20
-1478.1173855381928
 10
813.36539682811303
 20
-1478.077335893857
 42
-0.0103138323111936
 10
813.62342053034365
 20
-1477.8511727565215
 10
813.66919493667035
 20
-1477.8126907092615
 42
-0.0060206748565023
 10
813.84204300078295
 20
-1477.670896058507
 10
813.84407413166548
 20
-1477.6692703528784
 42
-0.0067069027295259
 10
814.01636694633135
 20
-1477.5351197190807
 10
814.01891571224337
 20
-1477.5331895492159
 42
-0.0076184352057214
 10
814.18982097812864
 20
-1477.4078146739616
 42
-0.0089652861675589
 10
814.36478194085771
 20
-1477.2881814136324
 10
814.40113366100888
 20
-1477.2642702001453
 42
-0.0156916245936195
 10
814.59709315816826
 20
-1477.1440077136717
 42
-0.0023299011065017
 10
814.79735520216093
 20
-1477.0308297741235
 10
814.81273933452803
 20
-1477.022229779066
 42
-0.0107669341489495
 10
815.04697615962425
 20
-1476.8978296457192
 10
815.06924096070418
 20
-1476.8866128957666
 42
-0.0078058045897864
 10
815.35283107865962
 20
-1476.749251440127
 10
815.36273816636606
 20
-1476.7446423122597
 42
-0.0181829330467853
 10
815.67304757098532
 20
-1476.6137785711626
 10
815.72710301354414
 20
-1476.5932634512221
 42
-0.0208411536033493
 10
816.07618798099872
 20
-1476.4771729887275
 10
816.09054408112559
 20
-1476.4730545437742
 42
-0.0222799817141627
 10
816.41926387504338
 20
-1476.3944129776337
 10
816.42815283828133
 20
-1476.3927009670485
 42
-0.0215509523884936
 10
816.74462380656018
 20
-1476.3457852785141
 10
816.78710576760488
 20
-1476.3413477517238
 42
-0.0182545924875452
 10
817.02121454691439
 20
-1476.3255039263324
 10
817.0606155632679
 20
-1476.3242793812531
 42
-0.0072962856531071
 10
817.21653844295133
 20
-1476.3217100527311
 10
817.24563811351902
 20
-1476.3216552173274
 42
-0.0059227516322987
 10
817.34338761266838
 20
-1476.3226289291179
 10
817.37262983010476
 20
-1476.3232666957203
 42
-0.0011833111930236
 10
817.4118811138726
 20
-1476.3242157000311
 10
816.61649451826543
 20
-1478.8629496451301
 42
0.0143932051604503
 10
816.59009313590832
 20
-1478.8527506750825
 10
816.58282116349767
 20
-1478.8501794562276
 42
0.0234388603546857
 10
816.54099029756412
 20
-1478.8375602205119
 10
816.53230863465285
 20
-1478.8353792585071
 42
0.0199162742987595
 10
816.47201980057514
 20
-1478.8227625231725
 10
816.45120586276664
 20
-1478.8192653237436
 42
0.0293643550671928
 10
816.34813100400527
 20
-1478.8081152780903
 10
816.3234458232871
 20
-1478.8069036610718
 42
0.0214606686862289
 10
816.17030490733646
 20
-1478.8059651006542
 10
816.16093299651664
 20
-1478.8063100121985
 42
0.0167564054179511
 10
815.9894128054051
 20
-1478.818387054567
 10
815.98095301264925
 20
-1478.8192683949937
 42
0.0137677553242526
 10
815.79359969938378
 20
-1478.8440177035375
 10
815.78624795987673
 20
-1478.8451956235053
 42
0.0118497261482084
 10
815.5857501957779
 20
-1478.8822129736939
 10
815.57960018852816
 20
-1478.8834998364146
 42
0.0106421143888602
 10
815.36871930124391
 20
-1478.9323322119892
 10
815.3638104928541
 20
-1478.9335795546745
 42
0.0099746379705493
 10
815.14535202369041
 20
-1478.9937540829897
 10
815.08380398352131
 20
-1479.0120359616199
 42
0.0191613675860476
 10
814.74781952100193
 20
-1479.1260133419082
 10
814.65975974825699
 20
-1479.1597002522321
 42
0.0205274080144565
 10
814.27445297635961
 20
-1479.3255286600574
 10
814.21680369438093
 20
-1479.3531966246283
 42
0.0181256912197352
 10
813.95852675371054
 20
-1479.4888804436077
 10
813.90557137039013
 20
-1479.5191980568261
 42
0.0140709242417536
 10
813.76061643576827
 20
-1479.6076927302568
 10
813.73436756715819
 20
-1479.6247495489667
 42
0.0086667884388291
 10
813.64544140560724
 20
-1479.684752216855
 42
0.0036408192033368
 10
813.55800816755652
 20
-1479.7469330746599
 10
813.52278129310525
 20
-1479.7723740205602
 42
0.0052260781278642
 10
813.36655259571523
 20
-1479.8877064071937
 10
813.35034573945461
 20
-1479.8999345178127
 42
0.0050024435900619
 10
813.1643423964083
 20
-1480.0432170860649
 10
813.14902423988053
 20
-1480.0552631085206
 42
0.0136138710277163
 10
812.93858297155839
 20
-1480.2302296134312
 10
812.90491509576168
 20
-1480.2598085861482
 42
0.0172815186915594
 10
812.64051155410277
 20
-1480.508805258768
 10
812.6379492082566
 20
-1480.5113910759187
 42
0.0189403857993491
 10
812.38736740968056
 20
-1480.7841963407193
 10
812.35473591614118
 20
-1480.8225402722203
 42
0.018504419950395
 10
812.16277947716139
 20
-1481.0657888533428
 42
0.0088565243897172
 10
811.98431937053772
 20
-1481.319305273486
 10
811.97514139088446
 20
-1481.332846653253
 42
0.0157195347234594
 10
811.7919207845473
 20
-1481.6223688625737
 10
811.74583784262063
 20
-1481.7005210595876
 42
0.009545187977935
 10
811.58075229248186
 20
-1481.993115701946
 10
811.56960437355349
 20
-1482.0137863740756
 42
0.0100351706260162
 10
811.43756062439297
 20
-1482.2708419345688
 42
0.0086935915421133
 10
811.3152294725985
 20
-1482.5326750799743
 10
811.31190873118453
 20
-1482.540117402945
 42
0.0072580174862701
 10
811.1915622792402
 20
-1482.8207093945264
 10
811.18830064593317
 20
-1482.8286294205459
 42
0.0060005122617791
 10
811.06909997758385
 20
-1483.1282390911686
 10
811.06588899924884
 20
-1483.136600619056
 42
0.0049017786976902
 10
810.94698884039246
 20
-1483.4555295996572
 10
810.94382303400096
 20
-1483.4642825368906
 42
0.0039415167600153
 10
810.82438675594062
 20
-1483.8028245993146
 10
810.82125565329216
 20
-1483.81192780018
 42
0.0031035838765188
 10
810.70045086759933
 20
-1484.1703676619534
 10
810.69734082306877
 20
-1484.1797882833284
 42
0.002507074715495
 10
810.57443947175295
 20
-1484.5584355002736
 10
810.53714557532794
 20
-1484.6753271655252
 42
0.0029081910285217
 10
810.34512727751314
 20
-1485.2894908238293
 10
810.30432410900005
 20
-1485.4227140660928
 42
0.0009266453731741
 10
810.03590673470421
 20
-1486.3049385259542
 10
810.01501926203036
 20
-1486.3740504052998
 42
-0.0005809993665472
 10
809.73768258145367
 20
-1487.287858511891
 10
809.67140078317152
 20
-1487.5053434440808
 42
-0.0012018708169764
 10
809.52441647375144
 20
-1487.9835061085714
 10
809.47209662209241
 20
-1488.1522652497385
 42
-0.0002691059603041
 10
809.42852714101741
 20
-1488.2925328697793
 10
806.59557124272806
 20
-1497.381687472079
 10
804.77758235074953
 20
-1497.381687472079
 10
811.02983176679754
 20
-1476.7379694355491
  0
SPLINE
  5
75
100
AcDbEntity
  8
0
370
              15
390
0
  6
Continuous
 62
               7
100
AcDbSpline
210
0.0
220
0.0
230
1.0
 70
              13
 71
               2
 72
             782
 73
             779
 74
               0
 42
0.000001
 43
0.000001
 40
0.0
 40
0.0
 40
0.0
 40
1.0
 40
1.0
 40
2.0
 40
2.0
 40
3.0
 40
3.0
 40
4.0
 40
4.0
 40
5.0
 40
5.0
 40
6.0
 40
6.0
 40
7.0
 40
7.0
 40
8.0
 40
8.0
 40
9.0
 40
9.0
 40
10.0
 40
10.0
 40
11.0
 40
11.0
 40
12.0
 40
12.0
 40
13.0
 40
13.0
 40
14.0
 40
14.0
 40
15.0
 40
15.0
 40
16.0
 40
16.0
 40
17.0
 40
17.0
 40
18.0
 40
18.0
 40
19.0
 40
19.0
 40
20.0
 40
20.0
 40
21.0
 40
21.0
 40
22.0
 40
22.0
 40
23.0
 40
23.0
 40
24.0
 40
24.0
 40
25.0
 40
25.0
 40
26.0
 40
26.0
 40
27.0
 40
27.0
 40
28.0
 40
28.0
 40
29.0
 40
29.0
 40
30.0
 40
30.0
 40
31.0
 40
31.0
 40
32.0
 40
32.0
 40
33.0
 40
33.0
 40
34.0
 40
34.0
 40
35.0
 40
35.0
 40
36.0
 40
36.0
 40
37.0
 40
37.0
 40
38.0
 40
38.0
 40
39.0
 40
39.0
 40
40.0
 40
40.0
 40
41.0
 40
41.0
 40
42.0
 40
42.0
 40
43.0
 40
43.0
 40
44.0
 40
44.0
 40
45.0
 40
45.0
 40
46.0
 40
46.0
 40
47.0
 40
47.0
 40
48.0
 40
48.0
 40
49.0
 40
49.0
 40
50.0
 40
50.0
 40
51.0
 40
51.0
 40
52.0
 40
52.0
 40
53.0
 40
53.0
 40
54.0
 40
54.0
 40
55.0
 40
55.0
 40
56.0
 40
56.0
 40
57.0
 40
57.0
 40
58.0
 40
58.0
 40
59.0
 40
59.0
 40
60.0
 40
60.0
 40
61.0
 40
61.0
 40
62.0
 40
62.0
 40
63.0
 40
63.0
 40
64.0
 40
64.0
 40
65.0
 40
65.0
 40
66.0
 40
66.0
 40
67.0
 40
67.0
 40
68.0
 40
68.0
 40
69.0
 40
69.0
 40
70.0
 40
70.0
 40
71.0
 40
71.0
 40
72.0
 40
72.0
 40
73.0
 40
73.0
 40
74.0
 40
74.0
 40
75.0
 40
75.0
 40
76.0
 40
76.0
 40
77.0
 40
77.0
 40
78.0
 40
78.0
 40
79.0
 40
79.0
 40
80.0
 40
80.0
 40
81.0
 40
81.0
 40
82.0
 40
82.0
 40
83.0
 40
83.0
 40
84.0
 40
84.0
 40
85.0
 40
85.0
 40
86.0
 40
86.0
 40
87.0
 40
87.0
 40
88.0
 40
88.0
 40
89.0
 40
89.0
 40
90.0
 40
90.0
 40
91.0
 40
91.0
 40
92.0
 40
92.0
 40
93.0
 40
93.0
 40
94.0
 40
94.0
 40
95.0
 40
95.0
 40
96.0
 40
96.0
 40
97.0
 40
97.0
 40
98.0
 40
98.0
 40
99.0
 40
99.0
 40
100.0
 40
100.0
 40
101.0
 40
101.0
 40
102.0
 40
102.0
 40
103.0
 40
103.0
 40
104.0
 40
104.0
 40
105.0
 40
105.0
 40
106.0
 40
106.0
 40
107.0
 40
107.0
 40
108.0
 40
108.0
 40
109.0
 40
109.0
 40
110.0
 40
110.0
 40
111.0
 40
111.0
 40
112.0
 40
112.0
 40
113.0
 40
113.0
 40
114.0
 40
114.0
 40
115.0
 40
115.0
 40
116.0
 40
116.0
 40
117.0
 40
117.0
 40
118.0
 40
118.0
 40
119.0
 40
119.0
 40
120.0
 40
120.0
 40
121.0
 40
121.0
 40
122.0
 40
122.0
 40
123.0
 40
123.0
 40
124.0
 40
124.0
 40
125.0
 40
125.0
 40
126.0
 40
126.0
 40
127.0
 40
127.0
 40
128.0
 40
128.0
 40
129.0
 40
129.0
 40
130.0
 40
130.0
 40
131.0
 40
131.0
 40
132.0
 40
132.0
 40
133.0
 40
133.0
 40
134.0
 40
134.0
 40
135.0
 40
135.0
 40
136.0
 40
136.0
 40
137.0
 40
137.0
 40
138.0
 40
138.0
 40
139.0
 40
139.0
 40
140.0
 40
140.0
 40
141.0
 40
141.0
 40
142.0
 40
142.0
 40
143.0
 40
143.0
 40
144.0
 40
144.0
 40
145.0
 40
145.0
 40
146.0
 40
146.0
 40
147.0
 40
147.0
 40
148.0
 40
148.0
 40
149.0
 40
149.0
 40
150.0
 40
150.0
 40
151.0
 40
151.0
 40
152.0
 40
152.0
 40
153.0
 40
153.0
 40
154.0
 40
154.0
 40
155.0
 40
155.0
 40
156.0
 40
156.0
 40
157.0
 40
157.0
 40
158.0
 40
158.0
 40
159.0
 40
159.0
 40
160.0
 40
160.0
 40
161.0
 40
161.0
 40
162.0
 40
162.0
 40
163.0
 40
163.0
 40
164.0
 40
164.0
 40
165.0
 40
165.0
 40
166.0
 40
166.0
 40
167.0
 40
167.0
 40
168.0
 40
168.0
 40
169.0
 40
169.0
 40
170.0
 40
170.0
 40
171.0
 40
171.0
 40
172.0
 40
172.0
 40
173.0
 40
173.0
 40
174.0
 40
174.0
 40
175.0
 40
175.0
 40
176.0
 40
176.0
 40
177.0
 40
177.0
 40
178.0
 40
178.0
 40
179.0
 40
179.0
 40
180.0
 40
180.0
 40
181.0
 40
181.0
 40
182.0
 40
182.0
 40
183.0
 40
183.0
 40
184.0
 40
184.0
 40
185.0
 40
185.0
 40
186.0
 40
186.0
 40
187.0
 40
187.0
 40
188.0
 40
188.0
 40
189.0
 40
189.0
 40
190.0
 40
190.0
 40
191.0
 40
191.0
 40
192.0
 40
192.0
 40
193.0
 40
193.0
 40
194.0
 40
194.0
 40
195.0
 40
195.0
 40
196.0
 40
196.0
 40
197.0
 40
197.0
 40
198.0
 40
198.0
 40
199.0
 40
199.0
 40
200.0
 40
200.0
 40
201.0
 40
201.0
 40
202.0
 40
202.0
 40
203.0
 40
203.0
 40
204.0
 40
204.0
 40
205.0
 40
205.0
 40
206.0
 40
206.0
 40
207.0
 40
207.0
 40
208.0
 40
208.0
 40
209.0
 40
209.0
 40
210.0
 40
210.0
 40
211.0
 40
211.0
 40
212.0
 40
212.0
 40
213.0
 40
213.0
 40
214.0
 40
214.0
 40
215.0
 40
215.0
 40
216.0
 40
216.0
 40
217.0
 40
217.0
 40
218.0
 40
218.0
 40
219.0
 40
219.0
 40
220.0
 40
220.0
 40
221.0
 40
221.0
 40
222.0
 40
222.0
 40
223.0
 40
223.0
 40
224.0
 40
224.0
 40
225.0
 40
225.0
 40
226.0
 40
226.0
 40
227.0
 40
227.0
 40
228.0
 40
228.0
 40
229.0
 40
229.0
 40
230.0
 40
230.0
 40
231.0
 40
231.0
 40
232.0
 40
232.0
 40
233.0
 40
233.0
 40
234.0
 40
234.0
 40
235.0
 40
235.0
 40
236.0
 40
236.0
 40
237.0
 40
237.0
 40
238.0
 40
238.0
 40
239.0
 40
239.0
 40
240.0
 40
240.0
 40
241.0
 40
241.0
 40
242.0
 40
242.0
 40
243.0
 40
243.0
 40
244.0
 40
244.0
 40
245.0
 40
245.0
 40
246.0
 40
246.0
 40
247.0
 40
247.0
 40
248.0
 40
248.0
 40
249.0
 40
249.0
 40
250.0
 40
250.0
 40
251.0
 40
251.0
 40
252.0
 40
252.0
 40
253.0
 40
253.0
 40
254.0
 40
254.0
 40
255.0
 40
255.0
 40
256.0
 40
256.0
 40
257.0
 40
257.0
 40
258.0
 40
258.0
 40
259.0
 40
259.0
 40
260.0
 40
260.0
 40
261.0
 40
261.0
 40
262.0
 40
262.0
 40
263.0
 40
263.0
 40
264.0
 40
264.0
 40
265.0
 40
265.0
 40
266.0
 40
266.0
 40
267.0
 40
267.0
 40
268.0
 40
268.0
 40
269.0
 40
269.0
 40
270.0
 40
270.0
 40
271.0
 40
271.0
 40
272.0
 40
272.0
 40
273.0
 40
273.0
 40
274.0
 40
274.0
 40
275.0
 40
275.0
 40
276.0
 40
276.0
 40
277.0
 40
277.0
 40
278.0
 40
278.0
 40
279.0
 40
279.0
 40
280.0
 40
280.0
 40
281.0
 40
281.0
 40
282.0
 40
282.0
 40
283.0
 40
283.0
 40
284.0
 40
284.0
 40
285.0
 40
285.0
 40
286.0
 40
286.0
 40
287.0
 40
287.0
 40
288.0
 40
288.0
 40
289.0
 40
289.0
 40
290.0
 40
290.0
 40
291.0
 40
291.0
 40
292.0
 40
292.0
 40
293.0
 40
293.0
 40
294.0
 40
294.0
 40
295.0
 40
295.0
 40
296.0
 40
296.0
 40
297.0
 40
297.0
 40
298.0
 40
298.0
 40
299.0
 40
299.0
 40
300.0
 40
300.0
 40
301.0
 40
301.0
 40
302.0
 40
302.0
 40
303.0
 40
303.0
 40
304.0
 40
304.0
 40
305.0
 40
305.0
 40
306.0
 40
306.0
 40
307.0
 40
307.0
 40
308.0
 40
308.0
 40
309.0
 40
309.0
 40
310.0
 40
310.0
 40
311.0
 40
311.0
 40
312.0
 40
312.0
 40
313.0
 40
313.0
 40
314.0
 40
314.0
 40
315.0
 40
315.0
 40
316.0
 40
316.0
 40
317.0
 40
317.0
 40
318.0
 40
318.0
 40
319.0
 40
319.0
 40
320.0
 40
320.0
 40
321.0
 40
321.0
 40
322.0
 40
322.0
 40
323.0
 40
323.0
 40
324.0
 40
324.0
 40
325.0
 40
325.0
 40
326.0
 40
326.0
 40
327.0
 40
327.0
 40
328.0
 40
328.0
 40
329.0
 40
329.0
 40
330.0
 40
330.0
 40
331.0
 40
331.0
 40
332.0
 40
332.0
 40
333.0
 40
333.0
 40
334.0
 40
334.0
 40
335.0
 40
335.0
 40
336.0
 40
336.0
 40
337.0
 40
337.0
 40
338.0
 40
338.0
 40
339.0
 40
339.0
 40
340.0
 40
340.0
 40
341.0
 40
341.0
 40
342.0
 40
342.0
 40
343.0
 40
343.0
 40
344.0
 40
344.0
 40
345.0
 40
345.0
 40
346.0
 40
346.0
 40
347.0
 40
347.0
 40
348.0
 40
348.0
 40
349.0
 40
349.0
 40
350.0
 40
350.0
 40
351.0
 40
351.0
 40
352.0
 40
352.0
 40
353.0
 40
353.0
 40
354.0
 40
354.0
 40
355.0
 40
355.0
 40
356.0
 40
356.0
 40
357.0
 40
357.0
 40
358.0
 40
358.0
 40
359.0
 40
359.0
 40
360.0
 40
360.0
 40
361.0
 40
361.0
 40
362.0
 40
362.0
 40
363.0
 40
363.0
 40
364.0
 40
364.0
 40
365.0
 40
365.0
 40
366.0
 40
366.0
 40
367.0
 40
367.0
 40
368.0
 40
368.0
 40
369.0
 40
369.0
 40
370.0
 40
370.0
 40
371.0
 40
371.0
 40
372.0
 40
372.0
 40
373.0
 40
373.0
 40
374.0
 40
374.0
 40
375.0
 40
375.0
 40
376.0
 40
376.0
 40
377.0
 40
377.0
 40
378.0
 40
378.0
 40
379.0
 40
379.0
 40
380.0
 40
380.0
 40
381.0
 40
381.0
 40
382.0
 40
382.0
 40
383.0
 40
383.0
 40
384.0
 40
384.0
 40
385.0
 40
385.0
 40
386.0
 40
386.0
 40
387.0
 40
387.0
 40
388.0
 40
388.0
 40
389.0
 40
389.0
 40
389.0
 10
821.35853621753017
 20
-1476.7270430721867
 30
0.0
 41
1.0
 10
822.17696032625065
 20
-1476.7270430721867
 30
0.0
 41
1.0
 10
822.99538443497113
 20
-1476.7270430721867
 30
0.0
 41
1.0
 10
822.58163069945431
 20
-1478.0696693364364
 30
0.0
 41
1.0
 10
822.16787696393749
 20
-1479.4122956006861
 30
0.0
 41
1.0
 10
822.18621645908229
 20
-1479.3835948278102
 30
0.0
 41
0.9999957264358411
 10
822.20472345589064
 20
-1479.3550017776945
 30
0.0
 41
1.0
 10
822.23515278005073
 20
-1479.3079888992834
 30
0.0
 41
1.0
 10
822.26558210421081
 20
-1479.2609760208722
 30
0.0
 41
1.0
 10
822.34494774931886
 20
-1479.1383572139664
 30
0.0
 41
0.9995394069081615
 10
822.4316061408731
 20
-1479.0207791522214
 30
0.0
 41
1.0
 10
822.46736300313057
 20
-1478.9722642596312
 30
0.0
 41
1.0
 10
822.50311986538804
 20
-1478.9237493670407
 30
0.0
 41
1.0
 10
822.63684653320615
 20
-1478.7423090919137
 30
0.0
 41
0.9994460617143319
 10
822.78234701449446
 20
-1478.5701666942637
 30
0.0
 41
1.0
 10
822.78673519546874
 20
-1478.5649750138818
 30
0.0
 41
1.0
 10
822.79112337644301
 20
-1478.5597833335003
 30
0.0
 41
1.0
 10
822.92784749578163
 20
-1478.3980242966149
 30
0.0
 41
0.9994359394934059
 10
823.07512172613383
 20
-1478.2458080954495
 30
0.0
 41
1.0
 10
823.07750508008803
 20
-1478.2433447650756
 30
0.0
 41
1.0
 10
823.07988843404212
 20
-1478.2408814347016
 30
0.0
 41
1.0
 10
823.22239595648546
 20
-1478.0935918942848
 30
0.0
 41
0.9995293688567912
 10
823.37366763746752
 20
-1477.9553186821208
 30
0.0
 41
1.0
 10
823.39296139672808
 20
-1477.937682796472
 30
0.0
 41
1.0
 10
823.41225515598865
 20
-1477.9200469108234
 30
0.0
 41
1.0
 10
823.52493931844879
 20
-1477.8170454699573
 30
0.0
 41
0.9997087614803716
 10
823.64246220740461
 20
-1477.7196011891588
 30
0.0
 41
1.0
 10
823.66162828058623
 20
-1477.7037096106455
 30
0.0
 41
1.0
 10
823.68079435376796
 20
-1477.6878180321326
 30
0.0
 41
1.0
 10
823.7599850963627
 20
-1477.6221569083582
 30
0.0
 41
0.999959533870022
 10
823.84034436721481
 20
-1477.557931177706
 30
0.0
 41
1.0
 10
823.92070363806761
 20
-1477.4937054470529
 30
0.0
 41
0.9999749417494547
 10
824.00196417240306
 20
-1477.4306238931126
 30
0.0
 41
1.0
 10
824.02295031857068
 20
-1477.414332605807
 30
0.0
 41
1.0
 10
824.04393646473829
 20
-1477.3980413185013
 30
0.0
 41
1.0
 10
824.12850435003656
 20
-1477.332392308663
 30
0.0
 41
0.9999792037125027
 10
824.21391194981584
 20
-1477.2678395270118
 30
0.0
 41
1.0
 10
824.23473677583138
 20
-1477.2520997046754
 30
0.0
 41
1.0
 10
824.25556160184703
 20
-1477.236359882339
 30
0.0
 41
1.0
 10
824.29931954966344
 20
-1477.2032867453095
 30
0.0
 41
0.999999337376012
 10
824.34300123572848
 20
-1477.1701129499443
 30
0.0
 41
1.0
 10
824.3866829218781
 20
-1477.1369391545156
 30
0.0
 41
0.9999160953818158
 10
824.43120933280818
 20
-1477.1049080893097
 30
0.0
 41
1.0
 10
824.46403122021923
 20
-1477.0812969337308
 30
0.0
 41
1.0
 10
824.49685310763027
 20
-1477.0576857781521
 30
0.0
 41
1.0
 10
824.6070232933904
 20
-1476.9784324017833
 30
0.0
 41
0.9980964527232458
 10
824.72611228689277
 20
-1476.9133449289263
 30
0.0
 41
1.0
 10
824.76314489381889
 20
-1476.8931049493344
 30
0.0
 41
1.0
 10
824.80017750074501
 20
-1476.8728649697423
 30
0.0
 41
1.0
 10
824.979504514018
 20
-1476.7748547190411
 30
0.0
 41
0.9984572810572799
 10
825.1685930803776
 20
-1476.6973324576943
 30
0.0
 41
1.0
 10
825.17223934977278
 20
-1476.6958375653567
 30
0.0
 41
1.0
 10
825.17588561916784
 20
-1476.694342673019
 30
0.0
 41
1.0
 10
825.3576816467363
 20
-1476.619810196348
 30
0.0
 41
0.9987838528034205
 10
825.54593430529576
 20
-1476.5635445561823
 30
0.0
 41
1.0
 10
825.55017225449672
 20
-1476.5622779024914
 30
0.0
 41
1.0
 10
825.55441020369767
 20
-1476.5610112488005
 30
0.0
 41
1.0
 10
825.73418696385738
 20
-1476.507278916016
 30
0.0
 41
0.99906528162077
 10
825.91793289557086
 20
-1476.4692752364745
 30
0.0
 41
1.0
 10
825.92312129660104
 20
-1476.4682021333683
 30
0.0
 41
1.0
 10
825.92830969763122
 20
-1476.467129030262
 30
0.0
 41
1.0
 10
826.10167882728547
 20
-1476.4312715569326
 30
0.0
 41
0.9992909934269929
 10
826.27725459374506
 20
-1476.4085611244659
 30
0.0
 41
1.0
 10
826.45283036020135
 20
-1476.3858506919996
 30
0.0
 41
0.9994553539448153
 10
826.62952179329261
 20
-1476.3747713877933
 30
0.0
 41
1.0
 10
826.6649562010914
 20
-1476.3725494997452
 30
0.0
 41
1.0
 10
826.7003906088903
 20
-1476.3703276116973
 30
0.0
 41
1.0
 10
826.86661637545842
 20
-1476.3599045492858
 30
0.0
 41
0.9990928098292742
 10
827.0331261673598
 20
-1476.3636641905205
 30
0.0
 41
1.0
 10
827.07168800263344
 20
-1476.3645348820535
 30
0.0
 41
1.0
 10
827.11024983790696
 20
-1476.3654055735865
 30
0.0
 41
1.0
 10
827.19963595926424
 20
-1476.3674238317549
 30
0.0
 41
0.9998382089206418
 10
827.28889164204872
 20
-1476.3726559582828
 30
0.0
 41
1.0
 10
827.28932154826612
 20
-1476.372681159185
 30
0.0
 41
1.0
 10
827.28975145448351
 20
-1476.372706360087
 30
0.0
 41
1.0
 10
827.37814732483241
 20
-1476.3778880848108
 30
0.0
 41
0.9997558016758464
 10
827.46622790203571
 20
-1476.3869706001774
 30
0.0
 41
1.0
 10
827.46670404046176
 20
-1476.3870196976595
 30
0.0
 41
1.0
 10
827.46718017888782
 20
-1476.3870687951419
 30
0.0
 41
1.0
 10
827.5543084792331
 20
-1476.3960531155435
 30
0.0
 41
0.9996565144180651
 10
827.64084633257858
 20
-1476.4095904222331
 30
0.0
 41
1.0
 10
827.64131225795791
 20
-1476.4096633079648
 30
0.0
 41
1.0
 10
827.64177818333735
 20
-1476.4097361936963
 30
0.0
 41
1.0
 10
827.72738418592246
 20
-1476.4231277289223
 30
0.0
 41
0.9995321806867704
 10
827.81201126624853
 20
-1476.4417282173513
 30
0.0
 41
1.0
 10
827.81240046081962
 20
-1476.441813759817
 30
0.0
 41
1.0
 10
827.8127896553907
 20
-1476.4418993022828
 30
0.0
 41
1.0
 10
827.89663834657608
 20
-1476.4603287057805
 30
0.0
 41
0.9993819199219647
 10
827.97898488077271
 20
-1476.4846040890411
 30
0.0
 41
1.0
 10
827.97922331427026
 20
-1476.4846743781504
 30
0.0
 41
1.0
 10
827.97946174776769
 20
-1476.4847446672595
 30
0.0
 41
1.0
 10
828.06133141496832
 20
-1476.5088794723017
 30
0.0
 41
0.9992088568505806
 10
828.14102393395717
 20
-1476.5394447080962
 30
0.0
 41
1.0
 10
828.22070492483624
 20
-1476.5700043088295
 30
0.0
 41
0.9990226101773436
 10
828.29737559474336
 20
-1476.6074817404442
 30
0.0
 41
1.0
 10
828.37403473654103
 20
-1476.6449535369973
 30
0.0
 41
0.9988424273972602
 10
828.44673836375262
 20
-1476.6896183122496
 30
0.0
 41
1.0
 10
828.44700607213258
 20
-1476.6897827763223
 30
0.0
 41
1.0
 10
828.44727378051243
 20
-1476.6899472403948
 30
0.0
 41
1.0
 10
828.5205128244836
 20
-1476.7349409437923
 30
0.0
 41
0.9986928844491293
 10
828.58877569119284
 20
-1476.7871766780715
 30
0.0
 41
1.0
 10
828.58935698341577
 20
-1476.7876214912994
 30
0.0
 41
1.0
 10
828.5899382756387
 20
-1476.7880663045275
 30
0.0
 41
1.0
 10
828.65936372679403
 20
-1476.8411916652631
 30
0.0
 41
0.9986007262278989
 10
828.72278989656081
 20
-1476.9013524349566
 30
0.0
 41
1.0
 10
828.72368431201801
 20
-1476.9022008027916
 30
0.0
 41
1.0
 10
828.7245787274752
 20
-1476.9030491706267
 30
0.0
 41
1.0
 10
828.78979372815604
 20
-1476.9649066759901
 30
0.0
 41
0.998558149138145
 10
828.84800133985868
 20
-1477.0333991662628
 30
0.0
 41
1.0
 10
828.8572597934542
 20
-1477.0442935239641
 30
0.0
 41
1.0
 10
828.86651824704961
 20
-1477.0551878816655
 30
0.0
 41
1.0
 10
828.94324276594261
 20
-1477.1454690873402
 30
0.0
 41
0.9970460233520111
 10
829.00523466710229
 20
-1477.2464361715226
 30
0.0
 41
1.0
 10
829.01970403218161
 20
-1477.2700026306034
 30
0.0
 41
1.0
 10
829.03417339726093
 20
-1477.2935690896843
 30
0.0
 41
1.0
 10
829.07391009727337
 20
-1477.3582888137162
 30
0.0
 41
0.9988468816636309
 10
829.10725646802507
 20
-1477.4265212661442
 30
0.0
 41
1.0
 10
829.11429249051685
 20
-1477.440918187282
 30
0.0
 41
1.0
 10
829.12132851300862
 20
-1477.4553151084201
 30
0.0
 41
1.0
 10
829.14060283877666
 20
-1477.4947537185719
 30
0.0
 41
0.9998431189999151
 10
829.15846816627163
 20
-1477.5348502730126
 30
0.0
 41
1.0
 10
829.17633349374671
 20
-1477.5749468274084
 30
0.0
 41
0.9999989990048418
 10
829.19431221718298
 20
-1477.6149926650244
 30
0.0
 41
1.0
 10
829.20048452878007
 20
-1477.6287408818434
 30
0.0
 41
1.0
 10
829.20665684037715
 20
-1477.6424890986623
 30
0.0
 41
1.0
 10
829.23698018698769
 20
-1477.7100313698713
 30
0.0
 41
0.9998790356319992
 10
829.26518806712591
 20
-1477.7784841218095
 30
0.0
 41
1.0
 10
829.27202324840914
 20
-1477.7950712232341
 30
0.0
 41
1.0
 10
829.27885842969226
 20
-1477.8116583246588
 30
0.0
 41
1.0
 10
829.30241609207269
 20
-1477.8688262795436
 30
0.0
 41
0.9998227574560473
 10
829.32380484046382
 20
-1477.9268405878265
 30
0.0
 41
1.0
 10
829.34519358885404
 20
-1477.9848548961068
 30
0.0
 41
0.9996797971041566
 10
829.36361987381292
 20
-1478.0438770152239
 30
0.0
 41
1.0
 10
829.36752367653821
 20
-1478.0563814733919
 30
0.0
 41
1.0
 10
829.37142747926339
 20
-1478.0688859315599
 30
0.0
 41
1.0
 10
829.39766136967353
 20
-1478.152916967015
 30
0.0
 41
0.9979274938734335
 10
829.41288589315286
 20
-1478.2396213256764
 30
0.0
 41
1.0
 10
829.41510958041408
 20
-1478.2522853264982
 30
0.0
 41
1.0
 10
829.41733326767542
 20
-1478.26494932732
 30
0.0
 41
1.0
 10
829.42826320737345
 20
-1478.3271958346095
 30
0.0
 41
0.9994985982138459
 10
829.43523137255045
 20
-1478.3900093357506
 30
0.0
 41
1.0
 10
829.44219953772756
 20
-1478.4528228368947
 30
0.0
 41
0.9996372611201994
 10
829.44577540349519
 20
-1478.5159204155757
 30
0.0
 41
1.0
 10
829.44594398098457
 20
-1478.5188950326574
 30
0.0
 41
1.0
 10
829.44611255847383
 20
-1478.5218696497393
 30
0.0
 41
1.0
 10
829.4500255792201
 20
-1478.5909164625846
 30
0.0
 41
0.9997730630736933
 10
829.4509938927082
 20
-1478.6600672866175
 30
0.0
 41
1.0
 10
829.45105099912632
 20
-1478.6641454657604
 30
0.0
 41
1.0
 10
829.45110810554445
 20
-1478.6682236449033
 30
0.0
 41
1.0
 10
829.45219063186869
 20
-1478.7455308272256
 30
0.0
 41
0.9998772614069332
 10
829.45085054513686
 20
-1478.8228339737943
 30
0.0
 41
1.0
 10
829.45076128193818
 20
-1478.8279831376249
 30
0.0
 41
1.0
 10
829.45067201873951
 20
-1478.8331323014554
 30
0.0
 41
1.0
 10
829.44915340560999
 20
-1478.9207337756975
 30
0.0
 41
0.9999415567328835
 10
829.44574109536416
 20
-1479.0082819373702
 30
0.0
 41
1.0
 10
829.44549977468887
 20
-1479.0144733971047
 30
0.0
 41
1.0
 10
829.4452584540137
 20
-1479.0206648568394
 30
0.0
 41
1.0
 10
829.44136350241649
 20
-1479.1205959379968
 30
0.0
 41
0.9999716810429404
 10
829.43596491929782
 20
-1479.2204570762315
 30
0.0
 41
1.0
 10
829.43275212050867
 20
-1479.2798863258952
 30
0.0
 41
1.0
 10
829.42953932171952
 20
-1479.3393155755589
 30
0.0
 41
1.0
 10
829.4214654125675
 20
-1479.4886639768267
 30
0.0
 41
0.999981912991355
 10
829.41159562095174
 20
-1479.6379044545249
 30
0.0
 41
1.0
 10
829.40172582933519
 20
-1479.7871449322363
 30
0.0
 41
1.0
 10
829.39928650877118
 20
-1479.8243379780856
 30
0.0
 41
1.0
 10
829.4219847426109
 20
-1479.785596980742
 30
0.0
 41
0.9999982128235846
 10
829.44482930141032
 20
-1479.7469420867089
 30
0.0
 41
1.0
 10
829.47173886126893
 20
-1479.7014088726983
 30
0.0
 41
1.0
 10
829.49864842112743
 20
-1479.6558756586876
 30
0.0
 41
1.0
 10
829.57531209965236
 20
-1479.5261543366194
 30
0.0
 41
0.9998609190057267
 10
829.6562594125146
 20
-1479.3990619546894
 30
0.0
 41
1.0
 10
829.68590773399876
 20
-1479.3525122217284
 30
0.0
 41
1.0
 10
829.71555605548292
 20
-1479.3059624887671
 30
0.0
 41
1.0
 10
829.7978282757183
 20
-1479.1767899187748
 30
0.0
 41
0.9999067609731394
 10
829.88359728517958
 20
-1479.0499122293377
 30
0.0
 41
1.0
 10
829.88600198838344
 20
-1479.0463549632784
 30
0.0
 41
1.0
 10
829.88840669158742
 20
-1479.0427976972192
 30
0.0
 41
1.0
 10
829.96936629464449
 20
-1478.9230345398955
 30
0.0
 41
0.9998784952148522
 10
830.05401990432506
 20
-1478.8058533231879
 30
0.0
 41
1.0
 10
830.13867351400734
 20
-1478.688672106478
 30
0.0
 41
0.9998532968284212
 10
830.22729113483069
 20
-1478.5744591980065
 30
0.0
 41
1.0
 10
830.24725292381981
 20
-1478.548731876989
 30
0.0
 41
1.0
 10
830.26721471280882
 20
-1478.5230045559715
 30
0.0
 41
1.0
 10
830.38569876256929
 20
-1478.3702989450005
 30
0.0
 41
0.9991551975795051
 10
830.51632321219358
 20
-1478.2278393829163
 30
0.0
 41
1.0
 10
830.51983282817446
 20
-1478.2240117812908
 30
0.0
 41
1.0
 10
830.52334244415533
 20
-1478.2201841796652
 30
0.0
 41
1.0
 10
830.64694766181913
 20
-1478.0853798208307
 30
0.0
 41
0.9997418144181466
 10
830.77654980151772
 20
-1477.9563304102203
 30
0.0
 41
1.0
 10
830.90615194121779
 20
-1477.8272809996083
 30
0.0
 41
0.9989238204633065
 10
831.04715448946695
 20
-1477.7107960375708
 30
0.0
 41
1.0
 10
831.09240216760645
 20
-1477.6734160459621
 30
0.0
 41
1.0
 10
831.13764984574584
 20
-1477.6360360543533
 30
0.0
 41
1.0
 10
831.27788990296915
 20
-1477.520181001061
 30
0.0
 41
0.9990825084096853
 10
831.42752983557375
 20
-1477.4167520032274
 30
0.0
 41
1.0
 10
831.43757519963287
 20
-1477.4098087901466
 30
0.0
 41
1.0
 10
831.44762056369188
 20
-1477.4028655770655
 30
0.0
 41
1.0
 10
831.57716976817994
 20
-1477.3133230053932
 30
0.0
 41
0.9998164899824873
 10
831.71005397155398
 20
-1477.2288087638781
 30
0.0
 41
1.0
 10
831.72189953207771
 20
-1477.2212749973537
 30
0.0
 41
1.0
 10
831.73374509260134
 20
-1477.2137412308296
 30
0.0
 41
1.0
 10
831.84293817492937
 20
-1477.1442945223623
 30
0.0
 41
0.9997473449132134
 10
831.95514213217973
 20
-1477.0798255645461
 30
0.0
 41
1.0
 10
832.06734608942975
 20
-1477.0153566067302
 30
0.0
 41
0.9999327861147728
 10
832.18101470019508
 20
-1476.9535066150477
 30
0.0
 41
1.0
 10
832.18156670275459
 20
-1476.9532062563692
 30
0.0
 41
1.0
 10
832.18211870531411
 20
-1476.9529058976907
 30
0.0
 41
1.0
 10
832.29689132119893
 20
-1476.890455188651
 30
0.0
 41
0.9996956420484422
 10
832.41460464704096
 20
-1476.8337417216753
 30
0.0
 41
1.0
 10
832.44504505193117
 20
-1476.8190757449465
 30
0.0
 41
1.0
 10
832.4754854568215
 20
-1476.8044097682177
 30
0.0
 41
1.0
 10
832.57846256356811
 20
-1476.754796109773
 30
0.0
 41
0.9998070570176654
 10
832.68330895250938
 20
-1476.7092655228716
 30
0.0
 41
1.0
 10
832.78815534145167
 20
-1476.6637349359703
 30
0.0
 41
0.9997827436147957
 10
832.89480827806449
 20
-1476.6226137646572
 30
0.0
 41
1.0
 10
832.91403112769376
 20
-1476.6152021910257
 30
0.0
 41
1.0
 10
832.93325397732292
 20
-1476.6077906173941
 30
0.0
 41
1.0
 10
833.07835261319531
 20
-1476.5518462988175
 30
0.0
 41
0.9988031841976359
 10
833.22822297579978
 20
-1476.5103462346499
 30
0.0
 41
1.0
 10
833.2531402241641
 20
-1476.5034464888427
 30
0.0
 41
1.0
 10
833.27805747252853
 20
-1476.4965467430357
 30
0.0
 41
1.0
 10
833.44532749817472
 20
-1476.4502286006289
 30
0.0
 41
0.9984748040549814
 10
833.61668440682286
 20
-1476.4226343683642
 30
0.0
 41
1.0
 10
833.62142354307184
 20
-1476.4218712078509
 30
0.0
 41
1.0
 10
833.62616267932071
 20
-1476.4211080473374
 30
0.0
 41
1.0
 10
833.78804131547179
 20
-1476.3950401360994
 30
0.0
 41
0.998443649547992
 10
833.95181605919663
 20
-1476.3871621822807
 30
0.0
 41
1.0
 10
833.97351326732826
 20
-1476.3861184950811
 30
0.0
 41
1.0
 10
833.99521047545988
 20
-1476.3850748078814
 30
0.0
 41
1.0
 10
834.11559080292159
 20
-1476.379284228462
 30
0.0
 41
0.9987954789335098
 10
834.23595904783122
 20
-1476.3853207562042
 30
0.0
 41
1.0
 10
834.25592384032643
 20
-1476.3863220005428
 30
0.0
 41
1.0
 10
834.27588863282165
 20
-1476.3873232448814
 30
0.0
 41
1.0
 10
834.35632729274198
 20
-1476.3913572839465
 30
0.0
 41
0.9997941595876116
 10
834.43653607083547
 20
-1476.3986513498676
 30
0.0
 41
1.0
 10
834.51674484892646
 20
-1476.4059454157882
 30
0.0
 41
0.9998589466236172
 10
834.5966633957778
 20
-1476.4159292702379
 30
0.0
 41
1.0
 10
834.62906959758959
 20
-1476.4199776271576
 30
0.0
 41
1.0
 10
834.66147579940139
 20
-1476.4240259840772
 30
0.0
 41
1.0
 10
834.80620674987438
 20
-1476.4421065523661
 30
0.0
 41
0.9993495063249585
 10
834.9492579936416
 20
-1476.4705722621079
 30
0.0
 41
1.0
 10
834.98219169079243
 20
-1476.4771257253224
 30
0.0
 41
1.0
 10
835.01512538794316
 20
-1476.4836791885371
 30
0.0
 41
1.0
 10
835.12441921114714
 20
-1476.5054275226723
 30
0.0
 41
0.999678871556095
 10
835.23247078310351
 20
-1476.5326853220354
 30
0.0
 41
1.0
 10
835.23453378564295
 20
-1476.5332057486085
 30
0.0
 41
1.0
 10
835.2365967881824
 20
-1476.5337261751815
 30
0.0
 41
1.0
 10
835.34052235506101
 20
-1476.5599431213989
 30
0.0
 41
0.99954806544928
 10
835.44268459028933
 20
-1476.5923580780227
 30
0.0
 41
1.0
 10
835.44437423241857
 20
-1476.5928941829366
 30
0.0
 41
1.0
 10
835.44606387454769
 20
-1476.5934302878507
 30
0.0
 41
1.0
 10
835.5448468255189
 20
-1476.6247730346472
 30
0.0
 41
0.9993867959456434
 10
835.64119398396133
 20
-1476.662952403937
 30
0.0
 41
1.0
 10
835.64243693304604
 20
-1476.6634449458331
 30
0.0
 41
1.0
 10
835.64367988213075
 20
-1476.6639374877293
 30
0.0
 41
1.0
 10
835.73754114240387
 20
-1476.7011317732267
 30
0.0
 41
0.9992050256521727
 10
835.8281408174372
 20
-1476.7456856724655
 30
0.0
 41
1.0
 10
835.82887550015084
 20
-1476.7460469649268
 30
0.0
 41
1.0
 10
835.82961018286449
 20
-1476.7464082573883
 30
0.0
 41
1.0
 10
835.91874049247076
 20
-1476.7902395717044
 30
0.0
 41
0.9990222350742155
 10
836.00365055386419
 20
-1476.8417728394024
 30
0.0
 41
1.0
 10
836.00383443914689
 20
-1476.8418844423072
 30
0.0
 41
1.0
 10
836.00401832442958
 20
-1476.841996045212
 30
0.0
 41
1.0
 10
836.08856061525739
 20
-1476.8933061071004
 30
0.0
 41
0.9988642743805258
 10
836.16783514987685
 20
-1476.9524302946261
 30
0.0
 41
1.0
 10
836.24710968449585
 20
-1477.0115544821513
 30
0.0
 41
0.9987681233309762
 10
836.32013346877204
 20
-1477.0782451735524
 30
0.0
 41
1.0
 10
836.32046239673787
 20
-1477.0785455747664
 30
0.0
 41
1.0
 10
836.32079132470358
 20
-1477.0788459759806
 30
0.0
 41
1.0
 10
836.39447296491073
 20
-1477.146137469809
 30
0.0
 41
0.9987496570897991
 10
836.46106677023874
 20
-1477.2204502838965
 30
0.0
 41
1.0
 10
836.4618389399991
 20
-1477.2213119572543
 30
0.0
 41
1.0
 10
836.46261110975945
 20
-1477.2221736306121
 30
0.0
 41
1.0
 10
836.53074925460714
 20
-1477.2982097914139
 30
0.0
 41
0.9988147669826726
 10
836.59117150883253
 20
-1477.3805107982571
 30
0.0
 41
1.0
 10
836.59229083491027
 20
-1477.3820354296095
 30
0.0
 41
1.0
 10
836.59341016098801
 20
-1477.3835600609621
 30
0.0
 41
1.0
 10
836.656071067369
 20
-1477.4689103305107
 30
0.0
 41
0.9989452636216564
 10
836.71063798033003
 20
-1477.5596490196679
 30
0.0
 41
1.0
 10
836.71198670641559
 20
-1477.561891800694
 30
0.0
 41
1.0
 10
836.71333543250114
 20
-1477.5641345817198
 30
0.0
 41
1.0
 10
836.77059979763374
 20
-1477.6593588329295
 30
0.0
 41
0.9991046436070133
 10
836.81960901095511
 20
-1477.7590832659546
 30
0.0
 41
1.0
 10
836.8210728725453
 20
-1477.7620619460276
 30
0.0
 41
1.0
 10
836.8225367341355
 20
-1477.7650406261005
 30
0.0
 41
1.0
 10
836.87447367063703
 20
-1477.8707224192708
 30
0.0
 41
0.9992763831101285
 10
836.91822679919221
 20
-1477.9800464812265
 30
0.0
 41
1.0
 10
836.91970606885548
 20
-1477.9837426687602
 30
0.0
 41
1.0
 10
836.92118533851885
 20
-1477.9874388562939
 30
0.0
 41
1.0
 10
836.96789700639977
 20
-1478.1041552933148
 30
0.0
 41
0.9994163472883252
 10
837.00653003758964
 20
-1478.2237888817792
 30
0.0
 41
1.0
 10
837.0077681898365
 20
-1478.2276230255623
 30
0.0
 41
1.0
 10
837.00900634208335
 20
-1478.2314571693453
 30
0.0
 41
1.0
 10
837.04888990310155
 20
-1478.3549632308266
 30
0.0
 41
0.999726805589057
 10
837.08295795901313
 20
-1478.4801982627757
 30
0.0
 41
1.0
 10
837.08388813928264
 20
-1478.4836176288841
 30
0.0
 41
1.0
 10
837.08481831955203
 20
-1478.4870369949924
 30
0.0
 41
1.0
 10
837.11702601492482
 20
-1478.6054332947253
 30
0.0
 41
0.9996701319000644
 10
837.14311163169566
 20
-1478.7253272479898
 30
0.0
 41
1.0
 10
837.16919724846605
 20
-1478.8452212012528
 30
0.0
 41
0.9995785451109509
 10
837.18828082580512
 20
-1478.9664269622804
 30
0.0
 41
1.0
 10
837.19250060797935
 20
-1478.9932281170484
 30
0.0
 41
1.0
 10
837.19672039015359
 20
-1479.0200292718164
 30
0.0
 41
1.0
 10
837.22329536609186
 20
-1479.1888152455201
 30
0.0
 41
0.9979925101217698
 10
837.22832095201818
 20
-1479.3596065736097
 30
0.0
 41
1.0
 10
837.22914576444282
 20
-1479.3876372970872
 30
0.0
 41
1.0
 10
837.22997057686734
 20
-1479.4156680205647
 30
0.0
 41
1.0
 10
837.23334653794484
 20
-1479.5303979016951
 30
0.0
 41
0.9995314902262488
 10
837.22969634580602
 20
-1479.6451193854532
 30
0.0
 41
1.0
 10
837.22604615366811
 20
-1479.7598408691993
 30
0.0
 41
0.9996245486943716
 10
837.21611705853729
 20
-1479.8741901403218
 30
0.0
 41
1.0
 10
837.21595401054276
 20
-1479.8760678964609
 30
0.0
 41
1.0
 10
837.21579096254823
 20
-1479.8779456525997
 30
0.0
 41
1.0
 10
837.2055357714288
 20
-1479.9960504359954
 30
0.0
 41
0.9997286095001366
 10
837.18979044785738
 20
-1480.1135493448896
 30
0.0
 41
1.0
 10
837.18939695520703
 20
-1480.1164857695912
 30
0.0
 41
1.0
 10
837.1890034625568
 20
-1480.1194221942926
 30
0.0
 41
1.0
 10
837.17247115368366
 20
-1480.2427939525971
 30
0.0
 41
0.9998265533969766
 10
837.15135569495101
 20
-1480.3654644273856
 30
0.0
 41
1.0
 10
837.15067915281429
 20
-1480.3693948058901
 30
0.0
 41
1.0
 10
837.15000261067769
 20
-1480.3733251843946
 30
0.0
 41
1.0
 10
837.12753406767172
 20
-1480.5038564161928
 30
0.0
 41
0.9999022530849986
 10
837.10142460306156
 20
-1480.6337083848323
 30
0.0
 41
1.0
 10
837.10044596189573
 20
-1480.6385755272217
 30
0.0
 41
1.0
 10
837.09946732073001
 20
-1480.643442669611
 30
0.0
 41
1.0
 10
837.07140057379104
 20
-1480.7830289230164
 30
0.0
 41
0.9999524761940082
 10
837.04061760495574
 20
-1480.922041416183
 30
0.0
 41
1.0
 10
837.03934149777967
 20
-1480.9278041754883
 30
0.0
 41
1.0
 10
837.03806539060361
 20
-1480.9335669347934
 30
0.0
 41
1.0
 10
837.00473020741538
 20
-1481.0841049465744
 30
0.0
 41
0.9999813588732043
 10
836.96955920661219
 20
-1481.2342246592611
 30
0.0
 41
1.0
 10
836.96800528116069
 20
-1481.2408572496622
 30
0.0
 41
1.0
 10
836.96645135570907
 20
-1481.2474898400633
 30
0.0
 41
1.0
 10
836.92817250400253
 20
-1481.410874733554
 30
0.0
 41
0.9999955237710794
 10
836.88891662602373
 20
-1481.5740276371539
 30
0.0
 41
1.0
 10
836.87663499038729
 20
-1481.6250718276851
 30
0.0
 41
1.0
 10
836.86435335475085
 20
-1481.6761160182166
 30
0.0
 41
1.0
 10
836.8005342055169
 20
-1481.9413573028055
 30
0.0
 41
0.9999993604377968
 10
836.73611525832769
 20
-1482.2064535535774
 30
0.0
 41
1.0
 10
836.73139642278363
 20
-1482.2258724616056
 30
0.0
 41
1.0
 10
836.72667758723958
 20
-1482.2452913696338
 30
0.0
 41
1.0
 10
836.65282096897977
 20
-1482.5492254363908
 30
0.0
 41
0.9999659914733151
 10
836.57396137309513
 20
-1482.8518999829473
 30
0.0
 41
1.0
 10
836.56900868416392
 20
-1482.8709091201322
 30
0.0
 41
1.0
 10
836.56405599523259
 20
-1482.889918257317
 30
0.0
 41
1.0
 10
836.47529102148678
 20
-1483.2306110782379
 30
0.0
 41
0.9999441976028586
 10
836.37934798851927
 20
-1483.5693525035513
 30
0.0
 41
1.0
 10
836.36264747009591
 20
-1483.628316216071
 30
0.0
 41
1.0
 10
836.34594695167266
 20
-1483.6872799285907
 30
0.0
 41
1.0
 10
836.21660288185933
 20
-1484.1439487789407
 30
0.0
 41
0.9999625120734003
 10
836.07937011454067
 20
-1484.5983093129205
 30
0.0
 41
1.0
 10
836.04358017145148
 20
-1484.7168053395681
 30
0.0
 41
1.0
 10
836.0077902283623
 20
-1484.8353013662156
 30
0.0
 41
1.0
 10
835.93327002432488
 20
-1485.0820284443053
 30
0.0
 41
0.9999793386310287
 10
835.8555840011901
 20
-1485.3277770835332
 30
0.0
 41
1.0
 10
835.77789797805258
 20
-1485.5735257227693
 30
0.0
 41
1.0
 10
835.76711841918177
 20
-1485.607543627144
 30
0.0
 41
1.0
 10
833.91674536591267
 20
-1491.4946155496114
 30
0.0
 41
1.0
 10
832.06637231264358
 20
-1497.381687472079
 30
0.0
 41
1.0
 10
831.10511562262002
 20
-1497.381687472079
 30
0.0
 41
1.0
 10
830.14385893259646
 20
-1497.381687472079
 30
0.0
 41
1.0
 10
831.76280371127484
 20
-1492.2336589702895
 30
0.0
 41
1.0
 10
833.38174848995322
 20
-1487.0856304685001
 30
0.0
 41
1.0
 10
833.42691431312824
 20
-1486.941599246228
 30
0.0
 41
1.0
 10
833.47208013630336
 20
-1486.7975680239558
 30
0.0
 41
1.0
 10
833.64238455366592
 20
-1486.2544769947935
 30
0.0
 41
0.9999911657904498
 10
833.80811736534486
 20
-1485.7099734634342
 30
0.0
 41
1.0
 10
833.83781330884131
 20
-1485.6124095233965
 30
0.0
 41
1.0
 10
833.86750925233787
 20
-1485.5148455833589
 30
0.0
 41
1.0
 10
833.97385017702118
 20
-1485.1654699320829
 30
0.0
 41
0.9999952428123212
 10
834.07803376635002
 20
-1484.815444907721
 30
0.0
 41
1.0
 10
834.08309323668846
 20
-1484.7984466334256
 30
0.0
 41
1.0
 10
834.08815270702701
 20
-1484.7814483591301
 30
0.0
 41
1.0
 10
834.18221735568193
 20
-1484.4654198833477
 30
0.0
 41
0.9999931687525602
 10
834.27394319354869
 20
-1484.1487046701009
 30
0.0
 41
1.0
 10
834.27887845800808
 20
-1484.1316639608303
 30
0.0
 41
1.0
 10
834.28381372246747
 20
-1484.1146232515598
 30
0.0
 41
1.0
 10
834.36566903141909
 20
-1483.8319894568413
 30
0.0
 41
0.9999893840784985
 10
834.44491625787919
 20
-1483.5486133275838
 30
0.0
 41
1.0
 10
834.52416348433485
 20
-1483.2652371983418
 30
0.0
 41
0.9999833980060997
 10
834.60013972507852
 20
-1482.9809666153055
 30
0.0
 41
1.0
 10
834.60914366179941
 20
-1482.9472777368323
 30
0.0
 41
1.0
 10
834.61814759852018
 20
-1482.9135888583594
 30
0.0
 41
1.0
 10
834.68711214738903
 20
-1482.6555530260537
 30
0.0
 41
0.9999233658066771
 10
834.74966711860941
 20
-1482.3958888673308
 30
0.0
 41
1.0
 10
834.81222208982967
 20
-1482.1362247086083
 30
0.0
 41
1.0
 10
834.85170550868725
 20
-1481.9724180441822
 30
0.0
 41
1.0
 10
834.85668411265908
 20
-1481.9517630823343
 30
0.0
 41
1.0
 10
834.86166271663092
 20
-1481.9311081204864
 30
0.0
 41
1.0
 10
834.89118892753743
 20
-1481.8086113797867
 30
0.0
 41
0.9999868670849543
 10
834.919458011541
 20
-1481.6858184341106
 30
0.0
 41
1.0
 10
834.92335549870063
 20
-1481.6688888466856
 30
0.0
 41
1.0
 10
834.92725298586015
 20
-1481.6519592592606
 30
0.0
 41
1.0
 10
834.94772709553649
 20
-1481.5630254884679
 30
0.0
 41
0.9999778173351827
 10
834.96701469365269
 20
-1481.4738268712347
 30
0.0
 41
1.0
 10
834.98630229176888
 20
-1481.3846282540003
 30
0.0
 41
0.9999602692855721
 10
835.00399665040152
 20
-1481.2950999655648
 30
0.0
 41
1.0
 10
835.00720048247786
 20
-1481.2788895106855
 30
0.0
 41
1.0
 10
835.01040431455419
 20
-1481.2626790558065
 30
0.0
 41
1.0
 10
835.03450633733996
 20
-1481.1407298576096
 30
0.0
 41
0.999561798532089
 10
835.05134968455866
 20
-1481.0175681099047
 30
0.0
 41
1.0
 10
835.0538141744654
 20
-1480.9995472925352
 30
0.0
 41
1.0
 10
835.05627866437214
 20
-1480.981526475166
 30
0.0
 41
1.0
 10
835.07656192541981
 20
-1480.8332114254695
 30
0.0
 41
0.999112141063951
 10
835.08428727900787
 20
-1480.6837153266642
 30
0.0
 41
1.0
 10
835.08520606903244
 20
-1480.6659354900887
 30
0.0
 41
1.0
 10
835.08612485905689
 20
-1480.6481556535132
 30
0.0
 41
1.0
 10
835.09201263259592
 20
-1480.5342192278599
 30
0.0
 41
0.9989792494906079
 10
835.08759354047879
 20
-1480.4202163919595
 30
0.0
 41
1.0
 10
835.08694556861019
 20
-1480.4035001460343
 30
0.0
 41
1.0
 10
835.0862975967417
 20
-1480.3867839001091
 30
0.0
 41
1.0
 10
835.08317444836132
 20
-1480.3062135560604
 30
0.0
 41
0.9997820295394787
 10
835.07669045098578
 20
-1480.2258438343172
 30
0.0
 41
1.0
 10
835.07020645361035
 20
-1480.1454741125754
 30
0.0
 41
0.9998335105972859
 10
835.06079425809889
 20
-1480.0653944961273
 30
0.0
 41
1.0
 10
835.05919933342238
 20
-1480.0518247656421
 30
0.0
 41
1.0
 10
835.05760440874576
 20
-1480.0382550351569
 30
0.0
 41
1.0
 10
835.04500236388151
 20
-1479.9310359577407
 30
0.0
 41
0.999687645787873
 10
835.0270584510838
 20
-1479.8245805300292
 30
0.0
 41
1.0
 10
835.02482678793831
 20
-1479.811340794786
 30
0.0
 41
1.0
 10
835.0225951247927
 20
-1479.7981010595429
 30
0.0
 41
1.0
 10
835.00879930337169
 20
-1479.7162549155835
 30
0.0
 41
0.9995547496494481
 10
834.9901459814788
 20
-1479.6353774183917
 30
0.0
 41
1.0
 10
834.98977202460742
 20
-1479.6337560076861
 30
0.0
 41
1.0
 10
834.98939806773615
 20
-1479.6321345969804
 30
0.0
 41
1.0
 10
834.97149265958649
 20
-1479.5544999212018
 30
0.0
 41
0.99948994271752
 10
834.94866775090679
 20
-1479.478166638366
 30
0.0
 41
1.0
 10
834.94820922416602
 20
-1479.4766331885771
 30
0.0
 41
1.0
 10
834.94775069742514
 20
-1479.4750997387885
 30
0.0
 41
1.0
 10
834.92584284222744
 20
-1479.4018333555321
 30
0.0
 41
0.9993784877591011
 10
834.8988272071208
 20
-1479.3302926503727
 30
0.0
 41
1.0
 10
834.89829551614389
 20
-1479.3288846676521
 30
0.0
 41
1.0
 10
834.89776382516698
 20
-1479.3274766849315
 30
0.0
 41
1.0
 10
834.87181157201405
 20
-1479.2587519452131
 30
0.0
 41
0.9992430832254241
 10
834.84059503685489
 20
-1479.1922527931454
 30
0.0
 41
1.0
 10
834.84001292079802
 20
-1479.1910127380274
 30
0.0
 41
1.0
 10
834.83943080474126
 20
-1479.1897726829097
 30
0.0
 41
1.0
 10
834.80937850169551
 20
-1479.1257536410767
 30
0.0
 41
0.9990789632797754
 10
834.77394787491892
 20
-1479.0645470293275
 30
0.0
 41
1.0
 10
834.77335216873689
 20
-1479.0635179434685
 30
0.0
 41
1.0
 10
834.77275646255498
 20
-1479.0624888576092
 30
0.0
 41
1.0
 10
834.7385172481421
 20
-1479.0033404175776
 30
0.0
 41
0.9988874801120361
 10
834.69885797211009
 20
-1478.9476807051601
 30
0.0
 41
1.0
 10
834.69830244604645
 20
-1478.9469010534863
 30
0.0
 41
1.0
 10
834.69774691998271
 20
-1478.9461214018122
 30
0.0
 41
1.0
 10
834.65919869607853
 20
-1478.8920209927428
 30
0.0
 41
0.9986762060693463
 10
834.61529622480191
 20
-1478.8421672783029
 30
0.0
 41
1.0
 10
834.61485226446985
 20
-1478.8416631364864
 30
0.0
 41
1.0
 10
834.6144083041379
 20
-1478.84115899467
 30
0.0
 41
1.0
 10
834.5713937535254
 20
-1478.7923135638634
 30
0.0
 41
0.9984621642488152
 10
834.52323619674792
 20
-1478.7485302633927
 30
0.0
 41
1.0
 10
834.52298956223126
 20
-1478.748306031229
 30
0.0
 41
1.0
 10
834.52274292771449
 20
-1478.7480817990654
 30
0.0
 41
1.0
 10
834.47507863997055
 20
-1478.7047469629219
 30
0.0
 41
0.998272469385181
 10
834.42266000812867
 20
-1478.667302612404
 30
0.0
 41
1.0
 10
834.37024137628725
 20
-1478.6298582618861
 30
0.0
 41
0.9981399180157177
 10
834.31365531289396
 20
-1478.5990717424429
 30
0.0
 41
1.0
 10
834.31360965081547
 20
-1478.5990468992857
 30
0.0
 41
1.0
 10
834.31356398873697
 20
-1478.5990220561284
 30
0.0
 41
1.0
 10
834.25688660118726
 20
-1478.5681858503708
 30
0.0
 41
0.9980927086837172
 10
834.19684125012157
 20
-1478.5445690415186
 30
0.0
 41
1.0
 10
834.19640108040926
 20
-1478.5443959156432
 30
0.0
 41
1.0
 10
834.19596091069695
 20
-1478.5442227897681
 30
0.0
 41
1.0
 10
834.13503522020574
 20
-1478.520259729165
 30
0.0
 41
0.9981411356560656
 10
834.0716466988049
 20
-1478.5038870876595
 30
0.0
 41
1.0
 10
834.07076458210486
 20
-1478.5036592454544
 30
0.0
 41
1.0
 10
834.06988246540493
 20
-1478.5034314032491
 30
0.0
 41
1.0
 10
834.00472971060378
 20
-1478.4866030773328
 30
0.0
 41
0.998303181293587
 10
833.93806228161043
 20
-1478.4774637161568
 30
0.0
 41
1.0
 10
833.92919125620404
 20
-1478.4762475974851
 30
0.0
 41
1.0
 10
833.92032023079764
 20
-1478.4750314788134
 30
0.0
 41
1.0
 10
833.86597058829489
 20
-1478.4675807488225
 30
0.0
 41
0.9983887708263167
 10
833.81112673900304
 20
-1478.4663360751892
 30
0.0
 41
1.0
 10
833.80306333377951
 20
-1478.4661530773142
 30
0.0
 41
1.0
 10
833.79499992855597
 20
-1478.4659700794393
 30
0.0
 41
1.0
 10
833.75628288970427
 20
-1478.4650914015558
 30
0.0
 41
0.9998869563080778
 10
833.71755693650755
 20
-1478.4653772709157
 30
0.0
 41
1.0
 10
833.67883098334073
 20
-1478.4656631402752
 30
0.0
 41
0.9999972320182469
 10
833.64010680416561
 20
-1478.4661312398034
 30
0.0
 41
1.0
 10
833.6207537875498
 20
-1478.4663651798933
 30
0.0
 41
1.0
 10
833.60140077093411
 20
-1478.4665991199831
 30
0.0
 41
1.0
 10
833.52397055856045
 20
-1478.4675350996911
 30
0.0
 41
0.9997304945087006
 10
833.44666725231968
 20
-1478.4720641934775
 30
0.0
 41
1.0
 10
833.43761761061842
 20
-1478.4725943994672
 30
0.0
 41
1.0
 10
833.42856796891726
 20
-1478.4731246054571
 30
0.0
 41
1.0
 10
833.33316537927419
 20
-1478.4787141112226
 30
0.0
 41
0.9997888306415491
 10
833.23807304343529
 20
-1478.4882190757112
 30
0.0
 41
1.0
 10
833.22935198185917
 20
-1478.4890907903437
 30
0.0
 41
1.0
 10
833.22063092028304
 20
-1478.4899625049761
 30
0.0
 41
1.0
 10
833.10809646129451
 20
-1478.5012108987296
 30
0.0
 41
0.998417023819112
 10
832.99753731394298
 20
-1478.5250269806654
 30
0.0
 41
1.0
 10
832.96115618295721
 20
-1478.5328640164714
 30
0.0
 41
1.0
 10
832.92477505197144
 20
-1478.5407010522774
 30
0.0
 41
1.0
 10
832.80958398354937
 20
-1478.5655149187871
 30
0.0
 41
0.9976592854199307
 10
832.69885581714436
 20
-1478.6058135959343
 30
0.0
 41
1.0
 10
832.58812765073878
 20
-1478.6461122730816
 30
0.0
 41
0.9993255074352523
 10
832.48065585194854
 20
-1478.6944291715738
 30
0.0
 41
1.0
 10
832.47603067302521
 20
-1478.6965085477736
 30
0.0
 41
1.0
 10
832.47140549410199
 20
-1478.6985879239733
 30
0.0
 41
1.0
 10
832.35468333746508
 20
-1478.7510635748652
 30
0.0
 41
0.9976475078275566
 10
832.24623599315441
 20
-1478.8190115645236
 30
0.0
 41
1.0
 10
832.22789359902049
 20
-1478.8305040433374
 30
0.0
 41
1.0
 10
832.20955120488645
 20
-1478.8419965221515
 30
0.0
 41
1.0
 10
832.12534901333413
 20
-1478.89475364292
 30
0.0
 41
0.9995131336407022
 10
832.04460129837491
 20
-1478.9526598548744
 30
0.0
 41
1.0
 10
831.96385358341468
 20
-1479.0105660668296
 30
0.0
 41
0.9995810107605868
 10
831.88659193568492
 20
-1479.0730477492966
 30
0.0
 41
1.0
 10
831.88362190447674
 20
-1479.0754496207596
 30
0.0
 41
1.0
 10
831.88065187326856
 20
-1479.0778514922226
 30
0.0
 41
1.0
 10
831.79745016312017
 20
-1479.145136917617
 30
0.0
 41
0.9996617837954509
 10
831.71785947598505
 20
-1479.2166573731768
 30
0.0
 41
1.0
 10
831.70572872510843
 20
-1479.2275581061672
 30
0.0
 41
1.0
 10
831.69359797423181
 20
-1479.2384588391576
 30
0.0
 41
1.0
 10
831.62532244683337
 20
-1479.2998114546317
 30
0.0
 41
0.9997267750052586
 10
831.55998893854917
 20
-1479.3642879911572
 30
0.0
 41
1.0
 10
831.49465543025929
 20
-1479.4287645276886
 30
0.0
 41
0.9999667288962382
 10
831.43038248710604
 20
-1479.49429833459
 30
0.0
 41
1.0
 10
831.3615550393373
 20
-1479.5644759933418
 30
0.0
 41
1.0
 10
831.29272759156856
 20
-1479.6346536520937
 30
0.0
 41
1.0
 10
831.09079975287227
 20
-1479.840542776504
 30
0.0
 41
0.9988205335175189
 10
830.90979413589173
 20
-1480.0650470085657
 30
0.0
 41
1.0
 10
830.87915417098725
 20
-1480.1030502589952
 30
0.0
 41
1.0
 10
830.84851420608288
 20
-1480.1410535094249
 30
0.0
 41
1.0
 10
830.60622865929258
 20
-1480.4415642423471
 30
0.0
 41
0.9997077826755042
 10
830.37875070818632
 20
-1480.7534340365648
 30
0.0
 41
1.0
 10
830.37702729305704
 20
-1480.7557968199428
 30
0.0
 41
1.0
 10
830.37530387792776
 20
-1480.7581596033208
 30
0.0
 41
1.0
 10
830.14437909656306
 20
-1481.0747549642942
 30
0.0
 41
0.9989147567078969
 10
829.94391559368046
 20
-1481.4114644254771
 30
0.0
 41
1.0
 10
829.91917444837077
 20
-1481.4530210060343
 30
0.0
 41
1.0
 10
829.89443330306096
 20
-1481.4945775865915
 30
0.0
 41
1.0
 10
829.73922200442598
 20
-1481.7552789710398
 30
0.0
 41
0.9997476598181133
 10
829.59587701691726
 20
-1482.0226887196211
 30
0.0
 41
1.0
 10
829.45253202940785
 20
-1482.2900984682033
 30
0.0
 41
0.999625896710982
 10
829.32402377747644
 20
-1482.5649464048267
 30
0.0
 41
1.0
 10
829.31082386802518
 20
-1482.5931778049257
 30
0.0
 41
1.0
 10
829.29762395857392
 20
-1482.6214092050245
 30
0.0
 41
1.0
 10
829.15741523757572
 20
-1482.9212816029742
 30
0.0
 41
0.9998735413944422
 10
829.02681389085615
 20
-1483.2254612024399
 30
0.0
 41
1.0
 10
829.02337106279788
 20
-1483.2334797878993
 30
0.0
 41
1.0
 10
829.0199282347395
 20
-1483.241498373359
 30
0.0
 41
1.0
 10
828.89621254413862
 20
-1483.5296408019012
 30
0.0
 41
0.9999377418861905
 10
828.77895774196111
 20
-1483.8204722695828
 30
0.0
 41
1.0
 10
828.66170293978485
 20
-1484.1113037372613
 30
0.0
 41
0.999950829950905
 10
828.55023899640776
 20
-1484.4044034140823
 30
0.0
 41
1.0
 10
828.54715822774574
 20
-1484.4125044400448
 30
0.0
 41
1.0
 10
828.54407745908361
 20
-1484.4206054660076
 30
0.0
 41
1.0
 10
828.42645197837999
 20
-1484.72990719476
 30
0.0
 41
0.999960922843492
 10
828.3143133755043
 20
-1485.0412402107806
 30
0.0
 41
1.0
 10
828.31135736515614
 20
-1485.0494470511858
 30
0.0
 41
1.0
 10
828.30840135480798
 20
-1485.0576538915911
 30
0.0
 41
1.0
 10
828.19035073123746
 20
-1485.3854005884186
 30
0.0
 41
0.9999674607403604
 10
828.07760320516593
 20
-1485.7150092084225
 30
0.0
 41
1.0
 10
828.0262048146019
 20
-1485.865268404119
 30
0.0
 41
1.0
 10
827.97480642403787
 20
-1486.0155275998156
 30
0.0
 41
1.0
 10
827.85879581728022
 20
-1486.3546755823177
 30
0.0
 41
0.9999287532308028
 10
827.75091441331301
 20
-1486.6964963212836
 30
0.0
 41
1.0
 10
827.70443715719921
 20
-1486.8437588655738
 30
0.0
 41
1.0
 10
827.65795990108552
 20
-1486.9910214098643
 30
0.0
 41
1.0
 10
827.6430330093342
 20
-1487.0383170602845
 30
0.0
 41
0.9999998224368251
 10
827.62816250061178
 20
-1487.0856304685001
 30
0.0
 41
1.0
 10
826.00750636381633
 20
-1492.2336589702895
 30
0.0
 41
1.0
 10
824.38685022702089
 20
-1497.381687472079
 30
0.0
 41
1.0
 10
823.48154178312996
 20
-1497.381687472079
 30
0.0
 41
1.0
 10
822.57623333923902
 20
-1497.381687472079
 30
0.0
 41
1.0
 10
824.42831775062507
 20
-1491.4946155496114
 30
0.0
 41
1.0
 10
826.28040216201111
 20
-1485.607543627144
 30
0.0
 41
1.0
 10
826.29052392031394
 20
-1485.5755004136943
 30
0.0
 41
1.0
 10
826.36313158916369
 20
-1485.3452008718684
 30
0.0
 41
1.0
 10
826.4357392580157
 20
-1485.1149013300351
 30
0.0
 41
0.9999825681979222
 10
826.50562229722959
 20
-1484.8837604349624
 30
0.0
 41
1.0
 10
826.55391335938862
 20
-1484.7240358514721
 30
0.0
 41
1.0
 10
826.60220442154775
 20
-1484.5643112679818
 30
0.0
 41
1.0
 10
826.69935677486319
 20
-1484.2429760462119
 30
0.0
 41
0.9999672528972191
 10
826.79129558048578
 20
-1483.9201105006277
 30
0.0
 41
1.0
 10
826.79408446415596
 20
-1483.9103166552366
 30
0.0
 41
1.0
 10
826.79687334782602
 20
-1483.9005228098454
 30
0.0
 41
1.0
 10
826.88323438610655
 20
-1483.5972449550504
 30
0.0
 41
0.9999899749124795
 10
826.96687599564382
 20
-1483.2932058665888
 30
0.0
 41
1.0
 10
826.97698191466156
 20
-1483.2564706289095
 30
0.0
 41
1.0
 10
826.98708783367931
 20
-1483.2197353912302
 30
0.0
 41
1.0
 10
827.05051760517699
 20
-1482.9891667781417
 30
0.0
 41
0.9999214200503845
 10
827.10814703355618
 20
-1482.757080435927
 30
0.0
 41
1.0
 10
827.12091288573697
 20
-1482.7056695505298
 30
0.0
 41
1.0
 10
827.13367873791788
 20
-1482.6542586651324
 30
0.0
 41
1.0
 10
827.16577646193377
 20
-1482.5249940937183
 30
0.0
 41
0.9999828681663793
 10
827.19635871392927
 20
-1482.3953626192504
 30
0.0
 41
1.0
 10
827.22694096592363
 20
-1482.2657311447879
 30
0.0
 41
0.9999389844478325
 10
827.2546519547119
 20
-1482.1354556888925
 30
0.0
 41
1.0
 10
827.26178969843318
 20
-1482.1018995850504
 30
0.0
 41
1.0
 10
827.26892744215434
 20
-1482.0683434812081
 30
0.0
 41
1.0
 10
827.31091391838345
 20
-1481.8709558176354
 30
0.0
 41
0.9998933699442756
 10
827.34711818278538
 20
-1481.6724262098794
 30
0.0
 41
1.0
 10
827.34849100800216
 20
-1481.6648981891803
 30
0.0
 41
1.0
 10
827.34986383321893
 20
-1481.6573701684813
 30
0.0
 41
1.0
 10
827.38881374805499
 20
-1481.4437845193238
 30
0.0
 41
0.9996850305193483
 10
827.41699742431354
 20
-1481.2285135138857
 30
0.0
 41
1.0
 10
827.41899245768207
 20
-1481.2132751597696
 30
0.0
 41
1.0
 10
827.4209874910506
 20
-1481.1980368056536
 30
0.0
 41
1.0
 10
827.44839535350991
 20
-1480.9886915784964
 30
0.0
 41
0.9994697936707143
 10
827.46211991272992
 20
-1480.7780063831638
 30
0.0
 41
1.0
 10
827.46259698197969
 20
-1480.7706829109525
 30
0.0
 41
1.0
 10
827.46307405122934
 20
-1480.7633594387414
 30
0.0
 41
1.0
 10
827.4758444719497
 20
-1480.5673211878318
 30
0.0
 41
0.9991804893136652
 10
827.47271615567672
 20
-1480.3708923378595
 30
0.0
 41
1.0
 10
827.4726322768546
 20
-1480.3656255364467
 30
0.0
 41
1.0
 10
827.47254839803247
 20
-1480.3603587350337
 30
0.0
 41
1.0
 10
827.46958783940397
 20
-1480.1744634878869
 30
0.0
 41
0.9988448329321644
 10
827.44879629378011
 20
-1479.9897108980526
 30
0.0
 41
1.0
 10
827.44720222007709
 20
-1479.9755460422814
 30
0.0
 41
1.0
 10
827.44560814637407
 20
-1479.9613811865102
 30
0.0
 41
1.0
 10
827.42800474815635
 20
-1479.8049583082195
 30
0.0
 41
0.9985503209458787
 10
827.39368847585683
 20
-1479.65133412413
 30
0.0
 41
1.0
 10
827.38610248378586
 20
-1479.6173737967306
 30
0.0
 41
1.0
 10
827.37851649171489
 20
-1479.5834134693314
 30
0.0
 41
1.0
 10
827.35937220355777
 20
-1479.497709940043
 30
0.0
 41
0.9991036781370961
 10
827.33304734190608
 20
-1479.4139328527158
 30
0.0
 41
1.0
 10
827.32906511644956
 20
-1479.4012596902032
 30
0.0
 41
1.0
 10
827.32508289099292
 20
-1479.3885865276907
 30
0.0
 41
1.0
 10
827.30672248025417
 20
-1479.3301557653888
 30
0.0
 41
0.9998874504369815
 10
827.28661727257645
 20
-1479.2723021631675
 30
0.0
 41
1.0
 10
827.26651206489794
 20
-1479.214448560944
 30
0.0
 41
0.9994041637543638
 10
827.24246345196343
 20
-1479.1581198570536
 30
0.0
 41
1.0
 10
827.23826666773971
 20
-1479.1482897925723
 30
0.0
 41
1.0
 10
827.23406988351587
 20
-1479.138459728091
 30
0.0
 41
1.0
 10
827.20619105252092
 20
-1479.0731595621226
 30
0.0
 41
0.9991846840701165
 10
827.17313469582814
 20
-1479.0103215308432
 30
0.0
 41
1.0
 10
827.17199808943315
 20
-1479.0081609143886
 30
0.0
 41
1.0
 10
827.17086148303827
 20
-1479.0060002979342
 30
0.0
 41
1.0
 10
827.14007833913502
 20
-1478.9474834995631
 30
0.0
 41
0.9989253167923516
 10
827.10400891508004
 20
-1478.8920685711728
 30
0.0
 41
1.0
 10
827.10295479040565
 20
-1478.8904490764101
 30
0.0
 41
1.0
 10
827.10190066573114
 20
-1478.8888295816473
 30
0.0
 41
1.0
 10
827.06793949102496
 20
-1478.8366536427823
 30
0.0
 41
0.9986467172836506
 10
827.0287423383877
 20
-1478.788287609153
 30
0.0
 41
1.0
 10
827.02786820968709
 20
-1478.7872090068749
 30
0.0
 41
1.0
 10
827.02699408098647
 20
-1478.7861304045966
 30
0.0
 41
1.0
 10
826.98954518575079
 20
-1478.7399215755238
 30
0.0
 41
0.9984001104268649
 10
826.94711845523318
 20
-1478.6982364681544
 30
0.0
 41
1.0
 10
826.9465313171238
 20
-1478.6976595932731
 30
0.0
 41
1.0
 10
826.94594417901453
 20
-1478.6970827183918
 30
0.0
 41
1.0
 10
826.90469172471603
 20
-1478.6565513607857
 30
0.0
 41
0.9982442159082994
 10
826.85893562338038
 20
-1478.6211827995255
 30
0.0
 41
1.0
 10
826.85872082791843
 20
-1478.6210167668823
 30
0.0
 41
1.0
 10
826.8585060324566
 20
-1478.620850734239
 30
0.0
 41
1.0
 10
826.81317952204404
 20
-1478.5858142382649
 30
0.0
 41
0.9982450060835914
 10
826.76402854297294
 20
-1478.5563824552319
 30
0.0
 41
1.0
 10
826.71487756390195
 20
-1478.5269506721986
 30
0.0
 41
0.9983922639635233
 10
826.66271125773778
 20
-1478.5032710375447
 30
0.0
 41
1.0
 10
826.66248438041259
 20
-1478.5031680520628
 30
0.0
 41
1.0
 10
826.6622575030874
 20
-1478.5030650665813
 30
0.0
 41
1.0
 10
826.60963744227183
 20
-1478.4791794609635
 30
0.0
 41
0.9986517147148984
 10
826.55482446940186
 20
-1478.4608783418414
 30
0.0
 41
1.0
 10
826.55414654797596
 20
-1478.4606519954104
 30
0.0
 41
1.0
 10
826.55346862655006
 20
-1478.4604256489797
 30
0.0
 41
1.0
 10
826.49729981082896
 20
-1478.441671836996
 30
0.0
 41
0.998943559895713
 10
826.43964642368019
 20
-1478.4281541347618
 30
0.0
 41
1.0
 10
826.43856630409596
 20
-1478.4279008845083
 30
0.0
 41
1.0
 10
826.43748618451161
 20
-1478.4276476342545
 30
0.0
 41
1.0
 10
826.37767255819563
 20
-1478.4136234315138
 30
0.0
 41
0.999224924123981
 10
826.31694104929704
 20
-1478.4043480887985
 30
0.0
 41
1.0
 10
826.31552736100718
 20
-1478.4041321803909
 30
0.0
 41
1.0
 10
826.31411367271733
 20
-1478.4039162719832
 30
0.0
 41
1.0
 10
826.25055478723698
 20
-1478.394209112452
 30
0.0
 41
0.9994396597833058
 10
826.18648885070002
 20
-1478.3887761901065
 30
0.0
 41
1.0
 10
826.16734818322266
 20
-1478.3871530223878
 30
0.0
 41
1.0
 10
826.1482075157453
 20
-1478.3855298546691
 30
0.0
 41
1.0
 10
826.04586024425248
 20
-1478.3768505968862
 30
0.0
 41
0.9987693403121666
 10
825.94315662066526
 20
-1478.3783536603389
 30
0.0
 41
1.0
 10
825.93290228643764
 20
-1478.3785037321131
 30
0.0
 41
1.0
 10
825.92264795221013
 20
-1478.3786538038873
 30
0.0
 41
1.0
 10
825.81309218603178
 20
-1478.3802571481747
 30
0.0
 41
0.9989753644966298
 10
825.70413018601596
 20
-1478.3917601550997
 30
0.0
 41
1.0
 10
825.59516818599934
 20
-1478.403263162025
 30
0.0
 41
0.9983190067305944
 10
825.48826937503406
 20
-1478.427298153812
 30
0.0
 41
1.0
 10
825.47936842342756
 20
-1478.4292994323746
 30
0.0
 41
1.0
 10
825.47046747182105
 20
-1478.4313007109372
 30
0.0
 41
1.0
 10
825.3457667576422
 20
-1478.4593382598493
 30
0.0
 41
0.9985539388302918
 10
825.22479700396343
 20
-1478.5006019358952
 30
0.0
 41
1.0
 10
825.2224515730037
 20
-1478.5014019797109
 30
0.0
 41
1.0
 10
825.22010614204396
 20
-1478.5022020235265
 30
0.0
 41
1.0
 10
825.09444552644766
 20
-1478.5450657872032
 30
0.0
 41
0.9988468746494535
 10
824.97347518414847
 20
-1478.5997838722647
 30
0.0
 41
1.0
 10
824.97029236215803
 20
-1478.6012235468254
 30
0.0
 41
1.0
 10
824.96710954016771
 20
-1478.6026632213861
 30
0.0
 41
1.0
 10
824.83977355388834
 20
-1478.6602606555691
 30
0.0
 41
0.9991322885919431
 10
824.71767296983069
 20
-1478.7282559877515
 30
0.0
 41
1.0
 10
824.70007095878668
 20
-1478.7380581897414
 30
0.0
 41
1.0
 10
824.68246894774279
 20
-1478.7478603917311
 30
0.0
 41
1.0
 10
824.58029226668793
 20
-1478.8047605075108
 30
0.0
 41
0.9993860037849675
 10
824.48235126261477
 20
-1478.8686765230991
 30
0.0
 41
1.0
 10
824.47673294976516
 20
-1478.8723430177922
 30
0.0
 41
1.0
 10
824.47111463691567
 20
-1478.8760095124853
 30
0.0
 41
1.0
 10
824.38441025854229
 20
-1478.932592538687
 30
0.0
 41
0.9998821494954356
 10
824.29948388272862
 20
-1478.9918107687645
 30
0.0
 41
1.0
 10
824.21455750691496
 20
-1479.0510289988417
 30
0.0
 41
0.9997976482744772
 10
824.13208187651014
 20
-1479.1136154068845
 30
0.0
 41
1.0
 10
824.11744561170622
 20
-1479.1247220966634
 30
0.0
 41
1.0
 10
824.1028093469024
 20
-1479.1358287864425
 30
0.0
 41
1.0
 10
823.99106118689008
 20
-1479.2206285740431
 30
0.0
 41
0.9998091630799828
 10
823.88271090886406
 20
-1479.3097289247432
 30
0.0
 41
1.0
 10
823.86970515638541
 20
-1479.3204240251903
 30
0.0
 41
1.0
 10
823.85669940390665
 20
-1479.3311191256375
 30
0.0
 41
1.0
 10
823.72233762092333
 20
-1479.441609677232
 30
0.0
 41
0.9995035112317167
 10
823.59520174315901
 20
-1479.5603434942477
 30
0.0
 41
1.0
 10
823.58555443277214
 20
-1479.5693532404052
 30
0.0
 41
1.0
 10
823.57590712238527
 20
-1479.5783629865628
 30
0.0
 41
1.0
 10
823.45248405961991
 20
-1479.6936293583187
 30
0.0
 41
0.999463042429891
 10
823.33687565383707
 20
-1479.8167321015526
 30
0.0
 41
1.0
 10
823.33319281506806
 20
-1479.820653681063
 30
0.0
 41
1.0
 10
823.32950997629905
 20
-1479.8245752605735
 30
0.0
 41
1.0
 10
823.22126724805662
 20
-1479.9398348447839
 30
0.0
 41
0.9995160693750209
 10
823.12040121852112
 20
-1480.0616022626605
 30
0.0
 41
1.0
 10
823.11846749844221
 20
-1480.0639366868663
 30
0.0
 41
1.0
 10
823.11653377836319
 20
-1480.0662711110724
 30
0.0
 41
1.0
 10
823.01953518898927
 20
-1480.1833696805329
 30
0.0
 41
0.9996561470514167
 10
822.9288089703233
 20
-1480.3053924429821
 30
0.0
 41
1.0
 10
822.92265130442092
 20
-1480.3136742320248
 30
0.0
 41
1.0
 10
822.91649363851855
 20
-1480.3219560210678
 30
0.0
 41
1.0
 10
822.83808275165654
 20
-1480.4274152054322
 30
0.0
 41
0.9998349055173549
 10
822.76355546972525
 20
-1480.5356537890948
 30
0.0
 41
1.0
 10
822.6890281878043
 20
-1480.6438923727419
 30
0.0
 41
0.9999728109555798
 10
822.61610529189898
 20
-1480.7532182982891
 30
0.0
 41
1.0
 10
822.61479007647927
 20
-1480.7551900678036
 30
0.0
 41
1.0
 10
822.61347486105944
 20
-1480.7571618373183
 30
0.0
 41
1.0
 10
822.53792153430572
 20
-1480.8704313019084
 30
0.0
 41
0.9999972147420453
 10
822.46290372391047
 20
-1480.984056144777
 30
0.0
 41
1.0
 10
822.45793218130871
 20
-1480.9915862332182
 30
0.0
 41
1.0
 10
822.45296063870705
 20
-1480.9991163216591
 30
0.0
 41
1.0
 10
822.36799974309133
 20
-1481.1278013414349
 30
0.0
 41
0.9999371979010054
 10
822.28594439369112
 20
-1481.2583582552054
 30
0.0
 41
1.0
 10
822.28243550932552
 20
-1481.2639411832765
 30
0.0
 41
1.0
 10
822.27892662495992
 20
-1481.2695241113477
 30
0.0
 41
1.0
 10
822.18985350683056
 20
-1481.4112468812575
 30
0.0
 41
0.9998272025609835
 10
822.1061101159504
 20
-1481.556182757997
 30
0.0
 41
1.0
 10
822.09089494392583
 20
-1481.5825158724547
 30
0.0
 41
1.0
 10
822.07567977190126
 20
-1481.6088489869121
 30
0.0
 41
1.0
 10
821.96150603697015
 20
-1481.8064510925697
 30
0.0
 41
0.9995217214838242
 10
821.85976634741371
 20
-1482.0107334204333
 30
0.0
 41
1.0
 10
821.85212278478025
 20
-1482.026080870133
 30
0.0
 41
1.0
 10
821.8444792221469
 20
-1482.0414283198327
 30
0.0
 41
1.0
 10
821.75757392955541
 20
-1482.215924777918
 30
0.0
 41
0.9998269762607344
 10
821.67721946328368
 20
-1482.3935330646407
 30
0.0
 41
1.0
 10
821.59686499701388
 20
-1482.5711413513593
 30
0.0
 41
0.9998944747387064
 10
821.52170420245113
 20
-1482.7510090769833
 30
0.0
 41
1.0
 10
821.51675053285624
 20
-1482.7628637319096
 30
0.0
 41
1.0
 10
821.51179686326134
 20
-1482.774718386836
 30
0.0
 41
1.0
 10
821.43114980271218
 20
-1482.9677153268458
 30
0.0
 41
0.9999506734413128
 10
821.35435227380776
 20
-1483.1622761317035
 30
0.0
 41
1.0
 10
821.33975230853321
 20
-1483.1992640535186
 30
0.0
 41
1.0
 10
821.32515234325865
 20
-1483.236251975334
 30
0.0
 41
1.0
 10
821.27755474490277
 20
-1483.3568369365635
 30
0.0
 41
0.9999912393962378
 10
821.23096830088173
 20
-1483.4778161392555
 30
0.0
 41
1.0
 10
821.18438185685591
 20
-1483.5987953419599
 30
0.0
 41
0.9999927113938535
 10
821.13872056245862
 20
-1483.7201267494702
 30
0.0
 41
1.0
 10
821.12475213106404
 20
-1483.7572437314607
 30
0.0
 41
1.0
 10
821.11078369966958
 20
-1483.7943607134512
 30
0.0
 41
1.0
 10
821.03718554248303
 20
-1483.9899260849425
 30
0.0
 41
0.9999487550948717
 10
820.96756191751126
 20
-1484.186941450125
 30
0.0
 41
1.0
 10
820.94396830757341
 20
-1484.2537047604201
 30
0.0
 41
1.0
 10
820.92037469763568
 20
-1484.3204680707154
 30
0.0
 41
1.0
 10
820.82568906326526
 20
-1484.5884019055397
 30
0.0
 41
0.9999808436949806
 10
820.73432747462243
 20
-1484.8574873368084
 30
0.0
 41
1.0
 10
820.64296588598154
 20
-1485.1265727680711
 30
0.0
 41
0.9999873932911908
 10
820.55431117726471
 20
-1485.3965621230809
 30
0.0
 41
1.0
 10
820.53421882039447
 20
-1485.4577514558364
 30
0.0
 41
1.0
 10
820.51412646352424
 20
-1485.5189407885921
 30
0.0
 41
1.0
 10
820.38528704107193
 20
-1485.9113088090976
 30
0.0
 41
0.9999794883032596
 10
820.26148425611052
 20
-1486.3052950153851
 30
0.0
 41
1.0
 10
820.25033199668223
 20
-1486.3407856255926
 30
0.0
 41
1.0
 10
820.23917973725406
 20
-1486.3762762358003
 30
0.0
 41
1.0
 10
820.09662157334856
 20
-1486.8299489879128
 30
0.0
 41
0.9999982761843438
 10
819.95574913332166
 20
-1487.2841480100724
 30
0.0
 41
1.0
 10
818.36760880074905
 20
-1492.3329177410756
 30
0.0
 41
1.0
 10
816.77946846817645
 20
-1497.381687472079
 30
0.0
 41
1.0
 10
815.83071785670006
 20
-1497.381687472079
 30
0.0
 41
1.0
 10
814.88196724522368
 20
-1497.381687472079
 30
0.0
 41
1.0
 10
818.12025173137692
 20
-1487.0543652721328
 30
0.0
 41
1.0
 10
821.35853621753017
 20
-1476.7270430721867
 30
0.0
 41
1.0
  0
LWPOLYLINE
  5
76
100
AcDbEntity
  8
0
370
              15
390
0
  6
Continuous
 62
               7
100
AcDbPolyline
 90
      232
 70
             128
 10
795.65499044370313
 20
-1477.8113859037019
 42
0.0004370800693705
 10
795.60211326965418
 20
-1477.8800525429281
 10
795.56282903850365
 20
-1477.9311596558546
 42
0.0030481992175511
 10
795.432490321366
 20
-1478.1028813482235
 10
795.39397864963405
 20
-1478.154268131987
 42
0.0042058245751972
 10
795.18999359896861
 20
-1478.4312738770545
 10
795.13758847646352
 20
-1478.5037067238413
 42
0.0120948898743399
 10
794.84154455970076
 20
-1478.9344563283926
 10
794.7453520605759
 20
-1479.081937063622
 42
0.0141601263950471
 10
794.44170801365817
 20
-1479.5776064003508
 10
794.40217074623172
 20
-1479.6464503677832
 42
0.007113108130332
 10
794.19689842299374
 20
-1480.0159531666206
 42
0.0068458791003448
 10
794.00201889615482
 20
-1480.3910447300882
 10
793.99520703369285
 20
-1480.4046064438203
 42
0.0064120880289191
 10
793.79706478364915
 20
-1480.8120309187379
 10
793.78953009813154
 20
-1480.8280427754605
 42
0.0058857236448271
 10
793.58677470626355
 20
-1481.272418886487
 10
793.57859977996588
 20
-1481.2909090401295
 42
0.0053189741893795
 10
793.36989546729683
 20
-1481.7768725140513
 10
793.361147661617
 20
-1481.7978543922436
 42
0.004750365041839
 10
793.14517393547203
 20
-1482.3300538254387
 10
793.13590568711822
 20
-1482.3535302015612
 42
0.0042071762169708
 10
792.91135830339454
 20
-1482.9366237956203
 10
792.90160890104187
 20
-1482.9625899705006
 42
0.0036680086485431
 10
792.66715425772907
 20
-1483.6012253550336
 10
792.656946477882
 20
-1483.6296738893761
 42
0.0032573142628105
 10
792.41131419191117
 20
-1484.3285265491413
 10
792.34266367107637
 20
-1484.5279896331772
 42
0.0026133366650466
 10
791.99421847231656
 20
-1485.5578529168545
 10
791.93096168480406
 20
-1485.7480837522833
 42
0.0020592950741351
 10
791.71709861584884
 20
-1486.4001874048606
 10
791.71404682467926
 20
-1486.4096238932905
 42
0.0025609928538209
 10
791.51222632319991
 20
-1487.0447691156362
 10
791.50963495606834
 20
-1487.0530714565925
 42
0.003136235624346
 10
791.32014417039625
 20
-1487.6738343127563
 10
791.318013127472
 20
-1487.6809756189566
 42
0.0037229918026003
 10
791.14121274054241
 20
-1488.2899609209417
 10
791.13953415134131
 20
-1488.2959078110971
 42
0.0043077623704302
 10
790.97579334927093
 20
-1488.8957265428849
 42
0.0047654161822714
 10
790.82296462675504
 20
-1489.4984126317872
 10
790.78850001791591
 20
-1489.6399744089372
 42
0.011296936844503
 10
790.59263565977164
 20
-1490.531666569565
 10
790.56462927067571
 20
-1490.6744946156591
 42
0.0130056762571969
 10
790.36379202702904
 20
-1491.861435687304
 10
790.3432522768818
 20
-1492.0055138007822
 42
0.0138721532147198
 10
790.23954927234399
 20
-1492.9123432866068
 10
790.22025378443573
 20
-1493.1358410085368
 42
0.0071254697010132
 10
790.18690713851356
 20
-1493.5990280173792
 10
790.18194616435039
 20
-1493.6850320119374
 42
0.0028881799198104
 10
790.16680787106043
 20
-1493.9767737217817
 42
0.0060297297134778
 10
790.15687567128475
 20
-1494.2687226578998
 10
790.15581338961761
 20
-1494.3171150298342
 42
0.0229523164157609
 10
790.1635444174035
 20
-1494.6398698761132
 10
790.16777019092422
 20
-1494.7002734101341
 42
0.0123673300678571
 10
790.1868488374422
 20
-1494.9013941353041
 42
0.0128577674470311
 10
790.21604422784856
 20
-1495.1012919852312
 10
790.2231701012355
 20
-1495.1426207998279
 42
0.0285717853763164
 10
790.28766410293065
 20
-1495.4207369511396
 10
790.30133262659763
 20
-1495.4673917206185
 42
0.0316283099163446
 10
790.41714320651192
 20
-1495.7864062224444
 10
790.42019189826749
 20
-1495.79339259477
 42
0.0338984824238145
 10
790.56962360923467
 20
-1496.0809585589591
 10
790.57193233860392
 20
-1496.084749588234
 42
0.0350228718351828
 10
790.7542926292781
 20
-1496.3418015729119
 10
790.7551778810539
 20
-1496.3428806506768
 42
0.0347476747528793
 10
790.96960256829323
 20
-1496.5700656978961
 42
0.0331337701911588
 10
791.21284589404024
 20
-1496.7661943599737
 10
791.21394599255575
 20
-1496.7669670631458
 42
0.030523331908194
 10
791.48249068812947
 20
-1496.9320952332375
 10
791.48572073263028
 20
-1496.9338192451
 42
0.0273744481148342
 10
791.77827444420211
 20
-1497.0699573889895
 10
791.78337897934205
 20
-1497.07200097346
 42
0.0240964406193384
 10
792.09885605498653
 20
-1497.1809846997412
 10
792.10543938419778
 20
-1497.1829094394166
 42
0.0209636179810116
 10
792.44283953684908
 20
-1497.2663775873482
 10
792.45047199729913
 20
-1497.26792950035
 42
0.0181388704693808
 10
792.80879438930242
 20
-1497.3273455935646
 10
792.81707523767568
 20
-1497.328411777381
 42
0.0156086547584782
 10
793.19526260186342
 20
-1497.3651479639577
 10
793.23845785418951
 20
-1497.3679864664366
 42
0.0137148329017932
 10
793.56613099949038
 20
-1497.3805067216881
 10
793.61206718942742
 20
-1497.3810011548032
 42
0.0051057823884925
 10
793.84821277600861
 20
-1497.3811314092122
 42
0.0052256693316824
 10
794.08431005979253
 20
-1497.3763825847479
 10
794.15453684353668
 20
-1497.374235618734
 42
0.016150717904856
 10
794.53027392163779
 20
-1497.3505852484075
 10
794.55028688201105
 20
-1497.3486750531199
 42
0.0101216737831691
 10
794.96431410349726
 20
-1497.300682122755
 10
794.99836739292857
 20
-1497.2960344259448
 42
0.0245291776396734
 10
795.47515704848001
 20
-1497.2069593478686
 10
795.55998036400251
 20
-1497.1867634275231
 42
0.0143509212552644
 10
795.9166114679432
 20
-1497.090958793744
 42
0.015655785703506
 10
796.26682753267005
 20
-1496.9739475779254
 10
796.2743287471651
 20
-1496.971177416171
 42
0.0170137333629803
 10
796.63092474285099
 20
-1496.8255198012978
 10
796.63802866525396
 20
-1496.8223319657361
 42
0.0183105364410378
 10
796.9973783334159
 20
-1496.6449969239141
 10
797.00432509805898
 20
-1496.6412464890395
 42
0.0194899958154798
 10
797.3628058390467
 20
-1496.4292675071465
 10
797.36981971837974
 20
-1496.4247421648538
 42
0.0204869852953189
 10
797.72383402047228
 20
-1496.1752221497691
 10
797.73109962906074
 20
-1496.1696420844196
 42
0.0212516938554176
 10
798.07708956016484
 20
-1495.8797380875287
 10
798.12360625424594
 20
-1495.8372707774299
 42
0.0215248918253952
 10
798.38363242313198
 20
-1495.578506498437
 10
798.42866215751474
 20
-1495.5296623770848
 42
0.0114578554955655
 10
798.58345431118994
 20
-1495.3538394436287
 10
798.59464884717033
 20
-1495.3405206800908
 42
0.0061531305131618
 10
798.72112349317104
 20
-1495.1862311467776
 42
0.0006325587119093
 10
798.84550197726833
 20
-1495.0302277711703
 10
798.86854211237426
 20
-1495.0012542504426
 42
0.0041897761561494
 10
799.03699751636975
 20
-1494.7857348743512
 10
799.09545963623907
 20
-1494.7096335273955
 42
0.009299388003835
 10
799.37207156346165
 20
-1494.3353547635134
 10
799.45446605665961
 20
-1494.2194177599461
 42
0.0159321727085659
 10
799.80107253930419
 20
-1493.697243539187
 10
799.84542867469975
 20
-1493.6255639749265
 42
0.008554731702178
 10
800.07994044001896
 20
-1493.2316890257123
 42
0.0084601156890272
 10
800.30091661745678
 20
-1492.8300621766882
 10
800.30903209129133
 20
-1492.8147024944071
 42
0.0081429654285222
 10
800.53228136172947
 20
-1492.3749809818651
 10
800.54114152591285
 20
-1492.3568021398469
 42
0.0076574581328559
 10
800.7675490364835
 20
-1491.8736192645854
 10
800.77702867720325
 20
-1491.852554786291
 42
0.0070682724201749
 10
801.00747358501167
 20
-1491.3205174815055
 10
801.01746386899174
 20
-1491.2965282924979
 42
0.0064559514445931
 10
801.25279707716822
 20
-1490.7102160259926
 10
801.26320643533847
 20
-1490.683281100537
 42
0.0058311413908231
 10
801.50425317210113
 20
-1490.0372490061534
 10
801.5150082494888
 20
-1490.0073646649926
 42
0.0052312425819574
 10
801.76258952753028
 20
-1489.2961622511561
 10
801.77363336390943
 20
-1489.2633355390885
 42
0.0046680544796901
 10
802.02856179164235
 20
-1488.4815092233382
 10
802.07055394168799
 20
-1488.3485259860397
 42
0.0041666856443508
 10
802.2738399540824
 20
-1487.685557211036
 10
802.31150239474823
 20
-1487.5589761033759
 42
0.0015170975154302
 10
802.43268897315932
 20
-1487.1471077518886
 42
-0.0004887993113905
 10
802.55302874632832
 20
-1486.7349893396899
 10
802.62950600377746
 20
-1486.4740319539055
 42
0.0002583378925165
 10
802.90272057374432
 20
-1485.5399752510598
 10
802.98449342341803
 20
-1485.2598759911441
 42
0.0006636169670479
 10
803.17836118342962
 20
-1484.5925230675564
 10
803.18345783778614
 20
-1484.5748914846436
 42
0.0010589131323459
 10
803.36490653869328
 20
-1483.9421601416275
 10
803.36988860916131
 20
-1483.9246472346513
 42
0.001565552446002
 10
803.5381588163566
 20
-1483.3260305554065
 10
803.54298901675918
 20
-1483.3086383965153
 42
0.0021640440479146
 10
803.6972789887576
 20
-1482.7436113784524
 10
803.70191320818969
 20
-1482.7263466484508
 42
0.0028763871852509
 10
803.8414289262405
 20
-1482.1943786976117
 10
803.84581479040969
 20
-1482.1772547194496
 42
0.0037310511948393
 10
803.9697714822446
 20
-1481.6778071254334
 10
803.97384670254007
 20
-1481.6608468541608
 42
0.0047652197770968
 10
804.08147060304202
 20
-1481.1933690858828
 10
804.08516120236106
 20
-1481.1766095307521
 42
0.0060276699296151
 10
804.17569130151912
 20
-1480.7405337355885
 10
804.17890999181043
 20
-1480.7240325212683
 42
0.0075824337762665
 10
804.25159930122379
 20
-1480.3187653568532
 10
804.25424467860455
 20
-1480.3026104093997
 42
0.0095130624605896
 10
804.30835991423521
 20
-1479.927521056331
 10
804.31534613811721
 20
-1479.871587498219
 42
0.0121054653220169
 10
804.34193746869562
 20
-1479.6066916697405
 10
804.34280395845576
 20
-1479.5952882268034
 42
0.0069050827387404
 10
804.35789277649292
 20
-1479.3523469999673
 10
804.35902807616185
 20
-1479.3288207429143
 42
0.0169063976705078
 10
804.36185535514176
 20
-1479.1326280156218
 10
804.36068470361067
 20
-1479.0722922542809
 42
0.0052007732896169
 10
804.35843125501742
 20
-1478.9966988641204
 42
0.0054038123300333
 10
804.33846774317612
 20
-1478.8766805680962
 10
804.33338188730818
 20
-1478.8480220815293
 42
0.0112050460469578
 10
804.29799752525003
 20
-1478.6716956431919
 10
804.28017256320902
 20
-1478.5921540564696
 42
0.0240764468002953
 10
804.18927519706313
 20
-1478.2619170209693
 10
804.17071643424936
 20
-1478.2052968559744
 42
0.0256812331831501
 10
804.02735351405988
 20
-1477.8335726497171
 10
804.02194408823812
 20
-1477.8214413147266
 42
0.0268360501217663
 10
803.85251684738864
 20
-1477.4904481807064
 10
803.84698043975436
 20
-1477.4809285103954
 42
0.0274670231727908
 10
803.65477946334022
 20
-1477.1886411354767
 10
803.64939816337744
 20
-1477.1813619879351
 42
0.0275035967094885
 10
803.43782528381576
 20
-1476.9258460976314
 10
803.43275578284897
 20
-1476.9203670100007
 42
0.0269557673529378
 10
803.20535223940965
 20
-1476.6997247240388
 10
803.20060918162744
 20
-1476.6955947695785
 42
0.0259124802209366
 10
802.96105435019626
 20
-1476.5079042424254
 10
802.95652350501348
 20
-1476.5047187400946
 42
0.0245162153009284
 10
802.70860715191964
 20
-1476.3479857309849
 10
802.70408060559805
 20
-1476.3454255337856
 42
0.022928258884186
 10
802.45166104876807
 20
-1476.2175573412851
 10
802.44688055493009
 20
-1476.2154050415224
 42
0.0212984135700922
 10
802.19384260246954
 20
-1476.1142061242808
 10
802.18853831750334
 20
-1476.1123425615219
 42
0.0197555462342162
 10
801.93875997977705
 20
-1476.035527143556
 42
0.0183511896793568
 10
801.68383125431149
 20
-1475.97794423659
 10
801.5974660575913
 20
-1475.9617414462055
 42
0.0338057877145698
 10
801.31195870833051
 20
-1475.927933041065
 10
801.22095330328523
 20
-1475.9233533858035
 42
0.0091990524497546
 10
801.11510619465457
 20
-1475.9199775298816
 42
0.0028333980780666
 10
801.00919227868258
 20
-1475.9191494223651
 10
801.00827682561237
 20
-1475.919147452541
 42
-0.0023619827799252
 10
800.90053081050723
 20
-1475.9184066114624
 10
800.8641256403306
 20
-1475.9179843049992
 42
0.00088245984691
 10
800.68356965056546
 20
-1475.9162085267617
 10
800.6397082180747
 20
-1475.9158545652353
 42
0.0038132665768329
 10
800.37142532218957
 20
-1475.9157356291689
 10
800.3548916674024
 20
-1475.9158543953124
 42
0.0060665569333658
 10
800.05361117581026
 20
-1475.9216746947332
 10
800.03936084378574
 20
-1475.9221230027008
 42
0.0080356953340548
 10
799.70990212743334
 20
-1475.9377907247685
 10
799.69783211235927
 20
-1475.9385593077081
 42
0.0098996399104059
 10
799.34506902771818
 20
-1475.9680445369054
 10
799.3350233183337
 20
-1475.9690848331045
 42
0.0117740981369308
 10
798.96386645998246
 20
-1476.0163770806348
 10
798.95564376350239
 20
-1476.0176221972051
 42
0.0137435215136081
 10
798.57105494401742
 20
-1476.0867191707669
 10
798.56439790489401
 20
-1476.0881050670005
 42
0.0158359869387607
 10
798.17140081109119
 20
-1476.1829971554812
 10
798.16598762422439
 20
-1476.1844870963516
 42
0.0180554124028615
 10
797.76967257961337
 20
-1476.30912511259
 10
797.7651157915285
 20
-1476.3107411488568
 42
0.0203657431282413
 10
797.37063827371605
 20
-1476.4690014903726
 10
797.36649473470982
 20
-1476.4708631118142
 42
0.0226819684657212
 10
796.97905867850477
 20
-1476.6665056904862
 10
796.97485888748804
 20
-1476.6688712824052
 42
0.0248634984607771
 10
796.599676946307
 20
-1476.9054979283521
 10
796.55148201752502
 20
-1476.9393549701763
 42
0.0267044190882861
 10
796.27718932060634
 20
-1477.1547953460463
 42
0.0139303002202017
 10
796.0210221546638
 20
-1477.3920341869618
 10
796.01616876894661
 20
-1477.3967868498182
 42
0.0283460963442212
 10
795.77209617472045
 20
-1477.6645175102619
 10
795.73242766956287
 20
-1477.7133190877364
 42
0.0070695364826226
 10
795.65499044370313
 20
-1477.8113859037019
 42
0.0070695364826226
  0
LWPOLYLINE
  5
77
100
AcDbEntity
  8
0
370
              15
390
0
  6
Continuous
 62
               7
100
AcDbPolyline
 90
      226
 70
             128
 10
792.12617000645673
 20
-1493.5329747098858
 42
-0.0026277636618465
 10
792.1260921226567
 20
-1493.4662027841352
 10
792.12630948088872
 20
-1493.4130475666998
 42
-0.0088680296730982
 10
792.13008609718179
 20
-1493.2400317842955
 10
792.13243245629417
 20
-1493.1807517588431
 42
-0.0077381705621684
 10
792.14847856705683
 20
-1492.8894912630515
 10
792.14934647823031
 20
-1492.8772030293599
 42
-0.006887253053262
 10
792.17597855797862
 20
-1492.5619812772886
 10
792.17718278216455
 20
-1492.5497402982719
 42
-0.0062130021491464
 10
792.21477649899214
 20
-1492.2108706070358
 10
792.21628040252756
 20
-1492.198696735117
 42
-0.0056726929666561
 10
792.26520226202956
 20
-1491.8365015130057
 10
792.26697570767431
 20
-1491.8244077127583
 42
-0.0052341884493893
 10
792.32758629393663
 20
-1491.4392144572257
 10
792.32960428271087
 20
-1491.4272095272479
 42
-0.004976845016919
 10
792.40234296413576
 20
-1491.0193649598234
 10
792.42659197885894
 20
-1490.8908169768092
 42
-0.0089029805623153
 10
792.56367283065367
 20
-1490.2290415293869
 10
792.59641820597221
 20
-1490.0840100988635
 42
-0.008031825710069
 10
792.82596682031101
 20
-1489.1383004670172
 10
792.83795174676118
 20
-1489.0921698318198
 42
-0.0074265721318001
 10
793.12196328561276
 20
-1488.0621052534336
 10
793.14184282872816
 20
-1487.9939711928487
 42
-0.0069711922702046
 10
793.46914740723457
 20
-1486.9277034525217
 10
793.52909935434184
 20
-1486.7416820941455
 42
-0.0052070422891359
 10
793.75852457959934
 20
-1486.0544100171198
 10
793.77580577173239
 20
-1486.004382736616
 42
-0.0009167004450437
 10
793.97889765906098
 20
-1485.4199268883485
 42
-0.0025162726942635
 10
794.18599528933123
 20
-1484.836885624165
 10
794.22321990111811
 20
-1484.733736078311
 42
-0.0028212681458861
 10
794.47139582009208
 20
-1484.0580054461097
 10
794.48122658284865
 20
-1484.031698001417
 42
-0.0031964916823586
 10
794.71751884050502
 20
-1483.4114932393059
 10
794.72715329449784
 20
-1483.3866832491785
 42
-0.0036281836453514
 10
794.95225925560521
 20
-1482.8192425682696
 10
794.96169766576725
 20
-1482.7959451367556
 42
-0.0041269166830479
 10
795.17631536242186
 20
-1482.2785042407884
 10
795.20894831883504
 20
-1482.2016257944451
 42
-0.004747221306016
 10
795.36599312439625
 20
-1481.8412043265439
 10
795.37288720562492
 20
-1481.8257837291662
 42
-0.0025651659993096
 10
795.52124523945463
 20
-1481.4984556734635
 42
-0.0057144634999225
 10
795.67499493322555
 20
-1481.1736460001018
 10
795.70302563862469
 20
-1481.116137617712
 42
-0.0065388068374253
 10
795.88649266636708
 20
-1480.7519051210418
 10
795.89495112214581
 20
-1480.7356455416718
 42
-0.0074510843022431
 10
796.07113336802342
 20
-1480.4089572605494
 10
796.07931303855594
 20
-1480.3943164832781
 42
-0.0084648979858649
 10
796.24894689165444
 20
-1480.1024074723196
 10
796.25680301813861
 20
-1480.0894004806751
 42
-0.0095638542804194
 10
796.42063846573672
 20
-1479.8295116086902
 10
796.42811340940432
 20
-1479.8181422472412
 42
-0.0107191626810082
 10
796.58691498979601
 20
-1479.5875310126908
 10
796.59393172352532
 20
-1479.5777949203286
 42
-0.0118458573908523
 10
796.7484798220396
 20
-1479.3737227250153
 42
-0.0129184518191892
 10
796.91293244564179
 20
-1479.1775622088442
 10
796.94307721800647
 20
-1479.1434361299428
 42
-0.0217742579627178
 10
797.11968954033966
 20
-1478.9602293596954
 10
797.13043508479507
 20
-1478.9500125264972
 42
-0.0097266568657307
 10
797.29649270365576
 20
-1478.798164952055
 42
-0.0187720905721232
 10
797.47084027954554
 20
-1478.6560960986658
 10
797.50154627021652
 20
-1478.6329370162719
 42
-0.017942820752175
 10
797.73396699021555
 20
-1478.470384839158
 10
797.73761931713477
 20
-1478.4680209042679
 42
-0.0170047877692459
 10
797.9733829546617
 20
-1478.3265603901186
 10
797.97716594340386
 20
-1478.3244620850849
 42
-0.0160190788366169
 10
798.21407449104356
 20
-1478.2028107830943
 42
-0.0151102861490108
 10
798.45810627349283
 20
-1478.0961280070387
 10
798.51049277570201
 20
-1478.0750878741451
 42
-0.0271945441888779
 10
798.86915533475803
 20
-1477.9532230634397
 10
798.93822013524812
 20
-1477.9338735221729
 42
-0.023759659402486
 10
799.35401698227088
 20
-1477.8384228101913
 10
799.42207983599951
 20
-1477.8261681220649
 42
-0.0213715440557582
 10
799.70795476744661
 20
-1477.7872210905546
 10
799.7681019336685
 20
-1477.7816313758533
 42
-0.0101465655819867
 10
799.93559446565871
 20
-1477.7694878325897
 10
799.94493485185637
 20
-1477.7690009175924
 42
-0.0100375910882365
 10
800.0940889524195
 20
-1477.7642250996671
 10
800.10434822209379
 20
-1477.7641026606527
 42
-0.0103625633385293
 10
800.23305621675479
 20
-1477.7652340941793
 10
800.2553218680298
 20
-1477.7658914526444
 42
-0.0115689250227837
 10
800.33937260554967
 20
-1477.7703209588894
 42
-0.0072438037435678
 10
800.42321088499682
 20
-1477.7779101586395
 10
800.44001139446164
 20
-1477.7796767013629
 42
-0.0217917313135925
 10
800.55658115777385
 20
-1477.7970965940835
 10
800.62218124834101
 20
-1477.8098432024981
 42
-0.0332943556756115
 10
800.82657341337028
 20
-1477.8638834938056
 10
800.85674598192554
 20
-1477.8740515709258
 42
-0.0184824084801754
 10
800.99525103838573
 20
-1477.9265025863106
 42
-0.0198002050693172
 10
801.12932537888628
 20
-1477.9893866465104
 10
801.131212016262
 20
-1477.9903644333897
 42
-0.0212242342979524
 10
801.26335095866227
 20
-1478.0661271721815
 10
801.26516625420743
 20
-1478.067272974391
 42
-0.0226090605783592
 10
801.39367015542882
 20
-1478.1567526179554
 10
801.39551459716654
 20
-1478.158164870943
 42
-0.023845705223086
 10
801.51869667845949
 20
-1478.2621607668052
 10
801.5206494070186
 20
-1478.2639756445715
 42
-0.0248160564156235
 10
801.63685091432001
 20
-1478.3832502457813
 10
801.63895454772126
 20
-1478.3856355794846
 42
-0.0254109591440111
 10
801.74655976558699
 20
-1478.5209239654487
 10
801.74880778750128
 20
-1478.5240655138496
 42
-0.0255528488285598
 10
801.84625446629809
 20
-1478.6760925680835
 10
801.84858556621452
 20
-1478.6801741796917
 42
-0.0252146793223693
 10
801.93436659222311
 20
-1478.8496764256874
 10
801.93666883138121
 20
-1478.8548585076014
 42
-0.0244265635952724
 10
802.00932352514246
 20
-1479.0426050796475
 10
802.01856992661158
 20
-1479.0704704979873
 42
-0.023131961289318
 10
802.06449270560313
 20
-1479.2337715447875
 42
-0.0112130424362456
 10
802.09912872814164
 20
-1479.3999751449769
 10
802.1003312532539
 20
-1479.4064717318633
 42
-0.0210527881237726
 10
802.12601772862467
 20
-1479.5875273773031
 10
802.12952832344661
 20
-1479.622932925852
 42
-0.0190029892420447
 10
802.14496979699106
 20
-1479.8764687721241
 10
802.14577977343515
 20
-1479.9119443864934
 42
-0.0137974553662942
 10
802.14423092059974
 20
-1480.2369757932224
 10
802.1433854656442
 20
-1480.2630945378141
 42
-0.0081336634215217
 10
802.12852613042151
 20
-1480.5684420054188
 42
-0.0073526923570006
 10
802.10421759704707
 20
-1480.8731902497022
 10
802.10295617326415
 20
-1480.8865269243699
 42
-0.0066886138696155
 10
802.06722058721914
 20
-1481.2171129678552
 10
802.0655634977478
 20
-1481.2307345868585
 42
-0.0061359187354816
 10
802.0177128956966
 20
-1481.5874985669604
 10
802.01567539462405
 20
-1481.6013933697877
 42
-0.005669861006717
 10
801.9550250638581
 20
-1481.9846719386189
 10
801.95261963053395
 20
-1481.9988310578565
 42
-0.0052721077275707
 10
801.87848742973529
 20
-1482.4089583975297
 10
801.87572428089265
 20
-1482.4233750329204
 42
-0.0049289272177897
 10
801.78743016279054
 20
-1482.8606835440523
 10
801.78431766811002
 20
-1482.8753523968587
 42
-0.0047415956708527
 10
801.68107967657716
 20
-1483.3401491542716
 10
801.64631146621787
 20
-1483.4899562496526
 42
-0.0084404470903536
 10
801.45629502264921
 20
-1484.2501802741717
 10
801.45016833466036
 20
-1484.2730443983371
 42
-0.0039635940256592
 10
801.22871465037213
 20
-1485.0740332625992
 10
801.21533785519682
 20
-1485.1209648791764
 42
-0.007247504083592
 10
800.947890967332
 20
-1486.0101845955719
 10
800.87767864051239
 20
-1486.2319249455197
 42
-0.0051345458828221
 10
800.59091926844746
 20
-1487.1062501333497
 10
800.5693930016788
 20
-1487.1696764004832
 42
-0.0019150016600837
 10
800.31385959481327
 20
-1487.9132255207057
 10
800.30739199042182
 20
-1487.9318129856131
 42
-0.0021524362753365
 10
800.05891393935326
 20
-1488.6361388073351
 10
800.04970351865745
 20
-1488.6618923856349
 42
-0.0024331286821412
 10
799.81344825962083
 20
-1489.312491693755
 10
799.80440030707666
 20
-1489.3370350000921
 42
-0.0027449721786604
 10
799.57978573623484
 20
-1489.9361648790336
 10
799.57089572884354
 20
-1489.9594874688835
 42
-0.0031083229769338
 10
799.35735324223265
 20
-1490.5094115064655
 10
799.34861711054953
 20
-1490.5315012223425
 42
-0.0035311343277648
 10
799.14557592496533
 20
-1491.0344843480534
 10
799.13699058582654
 20
-1491.055327071542
 42
-0.0040245640953515
 10
798.94387878202326
 20
-1491.513636394156
 10
798.93544266842605
 20
-1491.5332157622147
 42
-0.0046015135853136
 10
798.75168637525644
 20
-1491.9491207918704
 10
798.7434001974276
 20
-1491.9674179313238
 42
-0.0052768638272787
 10
798.56842267847253
 20
-1492.3431908155928
 10
798.56029046785068
 20
-1492.3601841541256
 42
-0.0060672675644353
 10
798.39351085507963
 20
-1492.6980997772503
 10
798.38554137459801
 20
-1492.7137650362477
 42
-0.0069904648870829
 10
798.22637298059658
 20
-1493.0161008429113
 10
798.21858158098905
 20
-1493.0304113921327
 42
-0.0080637022767353
 10
798.06642972063992
 20
-1493.2994466952916
 10
798.05884068800367
 20
-1493.3123745609009
 42
-0.0093006455660602
 10
797.91310001147724
 20
-1493.5503889593956
 10
797.90574934472795
 20
-1493.5619069285774
 42
-0.0107060778045499
 10
797.76580080129509
 20
-1493.7711772459477
 10
797.75873903301942
 20
-1493.781262788508
 42
-0.0122723111409943
 10
797.62394531481732
 20
-1493.9640561180026
 10
797.62361909126253
 20
-1493.9644765058133
 42
-0.01418363196285
 10
797.48003748828921
 20
-1494.1390462636418
 10
797.47308973263716
 20
-1494.1470212639067
 42
-0.0175957477202937
 10
797.33318356460256
 20
-1494.2966421523113
 42
-0.0080466359682373
 10
797.18571979957812
 20
-1494.438964680457
 10
797.13968525505493
 20
-1494.4819851185537
 42
-0.0269600260392608
 10
796.88640500907411
 20
-1494.6943083770614
 10
796.81983787277375
 20
-1494.7442597916877
 42
-0.0178362839752894
 10
796.57989338311904
 20
-1494.9112777179391
 10
796.57264841211656
 20
-1494.9159462301454
 42
-0.017465073264849
 10
796.33631221467738
 20
-1495.0568071951031
 42
-0.0169240130168019
 10
796.09084596882201
 20
-1495.1810994548796
 10
796.04485981326184
 20
-1495.2024614104478
 42
-0.0318883036840452
 10
795.69450895764192
 20
-1495.3387997199579
 10
795.62614342247616
 20
-1495.3605003404336
 42
-0.0284435909899571
 10
795.25009329618604
 20
-1495.4567177759081
 10
795.21493513568771
 20
-1495.4636113717365
 42
-0.0243909341012432
 10
794.90149167476852
 20
-1495.5093324027666
 10
794.85121094799877
 20
-1495.5141779496682
 42
-0.0196639292929947
 10
794.63561537047019
 20
-1495.5264262351818
 10
794.58379129929892
 20
-1495.5273294959186
 42
-0.0100501510681059
 10
794.47136801764248
 20
-1495.5270290975654
 10
794.43970815628245
 20
-1495.5263080256798
 42
-0.0019752031127588
 10
794.39061581961698
 20
-1495.5249958654704
 10
794.38785551640171
 20
-1495.5249111736443
 42
0.0065378751976988
 10
794.34427894164014
 20
-1495.5241442824292
 42
-0.0167974694653313
 10
794.30074811871407
 20
-1495.5224843839037
 10
794.29666877944624
 20
-1495.5221913730084
 42
-0.0081283276284835
 10
794.24510898171775
 20
-1495.5176443793714
 10
794.23336940782917
 20
-1495.516416461792
 42
-0.0126703440175965
 10
794.15865111203584
 20
-1495.5066816707206
 10
794.13586324435892
 20
-1495.5031234148053
 42
-0.0117852088434956
 10
794.01632425852722
 20
-1495.4815604196483
 10
793.96094380676345
 20
-1495.4702168794136
 42
-0.0251774592291603
 10
793.7340997677544
 20
-1495.4117188699802
 10
793.68938057790035
 20
-1495.3977520506439
 42
-0.0146525199889491
 10
793.50298759036605
 20
-1495.3334855234471
 42
-0.0166929435862225
 10
793.32100993423899
 20
-1495.2576783903924
 10
793.31635330296626
 20
-1495.2555534897785
 42
-0.0191684358437377
 10
793.13116967171766
 20
-1495.1623174059889
 10
793.1278370859601
 20
-1495.1604761584354
 42
-0.0221181781809976
 10
792.94452678205573
 20
-1495.0483426600631
 10
792.94217697804936
 20
-1495.0467583620734
 42
-0.025498468538682
 10
792.7658868276643
 20
-1494.9143472121041
 10
792.74340467996285
 20
-1494.8955949031683
 42
-0.0292492648804001
 10
792.61863574111908
 20
-1494.7785021035245
 42
-0.0159048957504761
 10
792.50479574366955
 20
-1494.6504821119258
 10
792.50347695308972
 20
-1494.6489004989053
 42
-0.0343813379568994
 10
792.40083969146372
 20
-1494.5070291731361
 10
792.3693481601025
 20
-1494.4565257810414
 42
-0.0369117275700838
 10
792.28345565820541
 20
-1494.2930485400934
 42
-0.0191751379915405
 10
792.21626227264903
 20
-1494.1206439340897
 10
792.21449894888883
 20
-1494.1155505894126
 42
-0.0378178042232519
 10
792.16470423010469
 20
-1493.9266098133314
 10
792.15870893437489
 20
-1493.8940491951371
 42
-0.018484604646659
 10
792.13799173507994
 20
-1493.7522963745894
 42
-0.0179866351332101
 10
792.12765873000637
 20
-1493.6094055615131
 10
792.12760228756042
 20
-1493.6078478748957
 42
-0.0085497186123874
 10
792.12617000645673
 20
-1493.5329747098858
 42
-0.0085497186123874
  0
ENDBLK
  5
78
100
AcDbEntity
  8
template
390
0
100
AcDbBlockEnd
  0
BLOCK
  5
79
100
AcDbEntity
  8
notes
390
0
100
AcDbBlockBegin
  2
*D4
 70
               1
 10
0.0
 20
0.0
 30
0.0
  3
*D4
  1

  0
LINE
  5
7A
100
AcDbEntity
  8
0
370
              -2
390
0
  6
Continuous
 62
               0
100
AcDbLine
 10
-176.89396192799933
 20
306.22768838228365
 30
0.0
 11
-51.257557170615712
 21
306.22768838228365
 31
0.0
  0
LINE
  5
7B
100
AcDbEntity
  8
0
370
              -2
390
0
  6
Continuous
 62
               0
100
AcDbLine
 10
-176.89396192799933
 20
1206.2276883822835
 30
0.0
 11
-51.257557170615712
 21
1206.2276883822835
 31
0.0
  0
LINE
  5
7C
100
AcDbEntity
  8
0
370
              -2
390
0
  6
Continuous
 62
               0
100
AcDbLine
 10
-51.257557170615712
 20
306.22768838228365
 30
0.0
 11
-51.257557170615712
 21
1206.2276883822835
 31
0.0
  0
CIRCLE
  5
7D
102
{ACAD_REACTORS
330
7E
102
}
100
AcDbEntity
  8
0
370
              -2
390
0
  6
Continuous
 62
               0
100
AcDbCircle
 10
-51.257557170615712
 20
306.22768838228365
 30
0.0
 40
1.9998779296875
  0
HATCH
  5
7E
100
AcDbEntity
  8
0
370
              -2
390
0
  6
Continuous
 62
               0
100
AcDbHatch
 10
0.0
 20
0.0
 30
0.0
210
0.0
220
0.0
230
1.0
  2
SOLID
 70
               1
 71
               1
 91
        1
 92
        1
 93
        1
 72
               2
 10
-51.257557170615712
 20
306.22768838228365
 40
1.9998779296875
 50
0.0
 51
360.0
 73
               0
 97
        1
330
7D
 75
               0
 76
               1
 98
        1
 10
0.0
 20
0.0
  0
CIRCLE
  5
7F
102
{ACAD_REACTORS
330
80
102
}
100
AcDbEntity
  8
0
370
              -2
390
0
  6
Continuous
 62
               0
100
AcDbCircle
 10
-51.257557170615712
 20
1206.2276883822835
 30
0.0
 40
1.9998779296875
  0
HATCH
  5
80
100
AcDbEntity
  8
0
370
              -2
390
0
  6
Continuous
 62
               0
100
AcDbHatch
 10
0.0
 20
0.0
 30
0.0
210
0.0
220
0.0
230
1.0
  2
SOLID
 70
               1
 71
               1
 91
        1
 92
        1
 93
        1
 72
               2
 10
-51.257557170615712
 20
1206.2276883822835
 40
1.9998779296875
 50
0.0
 51
360.0
 73
               0
 97
        1
330
7F
 75
               0
 76
               1
 98
        1
 10
0.0
 20
0.0
  0
MTEXT
  5
81
100
AcDbEntity
  8
0
390
0
 62
               0
100
AcDbMText
 10
-85.135174358115705
 20
732.41518670010817
 30
0.0
 40
24.432617187500004
 41
0.0
 71
               1
 72
               1
  1
900
  7
ＭＳ ゴシック
 11
0.0
 21
1.0
 31
0.0
 73
               1
 44
0.7828267384257843
  0
POINT
  5
82
100
AcDbEntity
  8
Defpoints
370
               0
390
0
 62
               0
100
AcDbPoint
 10
-201.89396192799933
 20
1206.2276883822835
 30
0.0
  0
POINT
  5
83
100
AcDbEntity
  8
Defpoints
370
               0
390
0
 62
               0
100
AcDbPoint
 10
-201.89396192799933
 20
306.22768838228365
 30
0.0
  0
POINT
  5
84
100
AcDbEntity
  8
Defpoints
370
               0
390
0
 62
               0
100
AcDbPoint
 10
-51.257557170615712
 20
306.22768838228365
 30
0.0
  0
ENDBLK
  5
85
100
AcDbEntity
  8
notes
390
0
100
AcDbBlockEnd
  0
BLOCK
  5
86
100
AcDbEntity
  8
notes
390
0
100
AcDbBlockBegin
  2
*D5
 70
               1
 10
0.0
 20
0.0
 30
0.0
  3
*D5
  1

  0
LINE
  5
87
100
AcDbEntity
  8
0
370
              -2
390
0
  6
Continuous
 62
               0
100
AcDbLine
 10
-651.38189924298035
 20
1231.739751067302
 30
0.0
 11
-651.38189924298035
 21
1306.739751067302
 31
0.0
  0
LINE
  5
88
100
AcDbEntity
  8
0
370
              -2
390
0
  6
Continuous
 62
               0
100
AcDbLine
 10
-201.38189924298086
 20
1231.739751067302
 30
0.0
 11
-201.38189924298086
 21
1306.739751067302
 31
0.0
  0
LINE
  5
89
100
AcDbEntity
  8
0
370
              -2
390
0
  6
Continuous
 62
               0
100
AcDbLine
 10
-651.38189924298035
 20
1306.739751067302
 30
0.0
 11
-201.38189924298086
 21
1306.739751067302
 31
0.0
  0
CIRCLE
  5
8A
102
{ACAD_REACTORS
330
8B
102
}
100
AcDbEntity
  8
0
370
              -2
390
0
  6
Continuous
 62
               0
100
AcDbCircle
 10
-651.38189924298035
 20
1306.739751067302
 30
0.0
 40
1.9998779296875
  0
HATCH
  5
8B
100
AcDbEntity
  8
0
370
              -2
390
0
  6
Continuous
 62
               0
100
AcDbHatch
 10
0.0
 20
0.0
 30
0.0
210
0.0
220
0.0
230
1.0
  2
SOLID
 70
               1
 71
               1
 91
        1
 92
        1
 93
        1
 72
               2
 10
-651.38189924298035
 20
1306.739751067302
 40
1.9998779296875
 50
0.0
 51
360.0
 73
               0
 97
        1
330
8A
 75
               0
 76
               1
 98
        1
 10
0.0
 20
0.0
  0
CIRCLE
  5
8C
102
{ACAD_REACTORS
330
8D
102
}
100
AcDbEntity
  8
0
370
              -2
390
0
  6
Continuous
 62
               0
100
AcDbCircle
 10
-201.38189924298086
 20
1306.739751067302
 30
0.0
 40
1.9998779296875
  0
HATCH
  5
8D
100
AcDbEntity
  8
0
370
              -2
390
0
  6
Continuous
 62
               0
100
AcDbHatch
 10
0.0
 20
0.0
 30
0.0
210
0.0
220
0.0
230
1.0
  2
SOLID
 70
               1
 71
               1
 91
        1
 92
        1
 93
        1
 72
               2
 10
-201.38189924298086
 20
1306.739751067302
 40
1.9998779296875
 50
0.0
 51
360.0
 73
               0
 97
        1
330
8C
 75
               0
 76
               1
 98
        1
 10
0.0
 20
0.0
  0
MTEXT
  5
8E
100
AcDbEntity
  8
0
390
0
 62
               0
100
AcDbMText
 10
-470.68459700163578
 20
1340.6173682548019
 30
0.0
 40
24.432617187500004
 41
0.0
 71
               1
 72
               1
  1
450
  7
ＭＳ ゴシック
 73
               1
 44
0.7828267384257843
  0
POINT
  5
8F
100
AcDbEntity
  8
Defpoints
370
               0
390
0
 62
               0
100
AcDbPoint
 10
-201.38189924298086
 20
1206.739751067302
 30
0.0
  0
POINT
  5
90
100
AcDbEntity
  8
Defpoints
370
               0
390
0
 62
               0
100
AcDbPoint
 10
-651.38189924298035
 20
1206.739751067302
 30
0.0
  0
POINT
  5
91
100
AcDbEntity
  8
Defpoints
370
               0
390
0
 62
               0
100
AcDbPoint
 10
-651.38189924298035
 20
1306.739751067302
 30
0.0
  0
ENDBLK
  5
92
100
AcDbEntity
  8
notes
390
0
100
AcDbBlockEnd
  0
BLOCK
  5
93
100
AcDbEntity
  8
notes
390
0
100
AcDbBlockBegin
  2
*D6
 70
               1
 10
0.0
 20
0.0
 30
0.0
  3
*D6
  1

  0
LINE
  5
94
100
AcDbEntity
  8
0
370
              -2
390
0
  6
Continuous
 62
               0
100
AcDbLine
 10
-376.39573790703986
 20
1106.2812519704964
 30
0.0
 11
-301.39573790703986
 21
1106.2812519704964
 31
0.0
  0
LINE
  5
95
100
AcDbEntity
  8
0
370
              -2
390
0
  6
Continuous
 62
               0
100
AcDbLine
 10
-376.39573790703986
 20
406.28125197049644
 30
0.0
 11
-301.39573790703986
 21
406.28125197049644
 31
0.0
  0
LINE
  5
96
100
AcDbEntity
  8
0
370
              -2
390
0
  6
Continuous
 62
               0
100
AcDbLine
 10
-301.39573790703986
 20
1106.2812519704964
 30
0.0
 11
-301.39573790703986
 21
406.28125197049644
 31
0.0
  0
CIRCLE
  5
97
102
{ACAD_REACTORS
330
98
102
}
100
AcDbEntity
  8
0
370
              -2
390
0
  6
Continuous
 62
               0
100
AcDbCircle
 10
-301.39573790703986
 20
1106.2812519704964
 30
0.0
 40
1.9998779296875
  0
HATCH
  5
98
100
AcDbEntity
  8
0
370
              -2
390
0
  6
Continuous
 62
               0
100
AcDbHatch
 10
0.0
 20
0.0
 30
0.0
210
0.0
220
0.0
230
1.0
  2
SOLID
 70
               1
 71
               1
 91
        1
 92
        1
 93
        1
 72
               2
 10
-301.39573790703986
 20
1106.2812519704964
 40
1.9998779296875
 50
0.0
 51
360.0
 73
               0
 97
        1
330
97
 75
               0
 76
               1
 98
        1
 10
0.0
 20
0.0
  0
CIRCLE
  5
99
102
{ACAD_REACTORS
330
9A
102
}
100
AcDbEntity
  8
0
370
              -2
390
0
  6
Continuous
 62
               0
100
AcDbCircle
 10
-301.39573790703986
 20
406.28125197049644
 30
0.0
 40
1.9998779296875
  0
HATCH
  5
9A
100
AcDbEntity
  8
0
370
              -2
390
0
  6
Continuous
 62
               0
100
AcDbHatch
 10
0.0
 20
0.0
 30
0.0
210
0.0
220
0.0
230
1.0
  2
SOLID
 70
               1
 71
               1
 91
        1
 92
        1
 93
        1
 72
               2
 10
-301.39573790703986
 20
406.28125197049644
 40
1.9998779296875
 50
0.0
 51
360.0
 73
               0
 97
        1
330
99
 75
               0
 76
               1
 98
        1
 10
0.0
 20
0.0
  0
MTEXT
  5
9B
100
AcDbEntity
  8
0
390
0
 62
               0
100
AcDbMText
 10
-335.27335509453985
 20
732.46875028832108
 30
0.0
 40
24.432617187500004
 41
0.0
 71
               1
 72
               1
  1
700
  7
ＭＳ ゴシック
 11
0.0
 21
1.0
 31
0.0
 73
               1
 44
0.7828267384257843
  0
POINT
  5
9C
100
AcDbEntity
  8
Defpoints
370
               0
390
0
 62
               0
100
AcDbPoint
 10
-401.39573790703986
 20
406.28125197049644
 30
0.0
  0
POINT
  5
9D
100
AcDbEntity
  8
Defpoints
370
               0
390
0
 62
               0
100
AcDbPoint
 10
-401.39573790703986
 20
1106.2812519704964
 30
0.0
  0
POINT
  5
9E
100
AcDbEntity
  8
Defpoints
370
               0
390
0
 62
               0
100
AcDbPoint
 10
-301.39573790703986
 20
1106.2812519704964
 30
0.0
  0
ENDBLK
  5
9F
100
AcDbEntity
  8
notes
390
0
100
AcDbBlockEnd
  0
BLOCK
  5
A0
100
AcDbEntity
  8
notes
390
0
100
AcDbBlockBegin
  2
*D7
 70
               1
 10
0.0
 20
0.0
 30
0.0
  3
*D7
  1

  0
LINE
  5
A1
100
AcDbEntity
  8
0
370
              -2
390
0
  6
Continuous
 62
               0
100
AcDbLine
 10
-401.39573790703986
 20
1131.2812519704964
 30
0.0
 11
-401.39573790703986
 21
1156.2812519704964
 31
0.0
  0
LINE
  5
A2
100
AcDbEntity
  8
0
370
              -2
390
0
  6
Continuous
 62
               0
100
AcDbLine
 10
-651.3957379070398
 20
1131.2812519704964
 30
0.0
 11
-651.3957379070398
 21
1156.2812519704964
 31
0.0
  0
LINE
  5
A3
100
AcDbEntity
  8
0
370
              -2
390
0
  6
Continuous
 62
               0
100
AcDbLine
 10
-401.39573790703986
 20
1156.2812519704964
 30
0.0
 11
-651.3957379070398
 21
1156.2812519704964
 31
0.0
  0
CIRCLE
  5
A4
102
{ACAD_REACTORS
330
A5
102
}
100
AcDbEntity
  8
0
370
              -2
390
0
  6
Continuous
 62
               0
100
AcDbCircle
 10
-401.39573790703986
 20
1156.2812519704964
 30
0.0
 40
1.9998779296875
  0
HATCH
  5
A5
100
AcDbEntity
  8
0
370
              -2
390
0
  6
Continuous
 62
               0
100
AcDbHatch
 10
0.0
 20
0.0
 30
0.0
210
0.0
220
0.0
230
1.0
  2
SOLID
 70
               1
 71
               1
 91
        1
 92
        1
 93
        1
 72
               2
 10
-401.39573790703986
 20
1156.2812519704964
 40
1.9998779296875
 50
0.0
 51
360.0
 73
               0
 97
        1
330
A4
 75
               0
 76
               1
 98
        1
 10
0.0
 20
0.0
  0
CIRCLE
  5
A6
102
{ACAD_REACTORS
330
A7
102
}
100
AcDbEntity
  8
0
370
              -2
390
0
  6
Continuous
 62
               0
100
AcDbCircle
 10
-651.3957379070398
 20
1156.2812519704964
 30
0.0
 40
1.9998779296875
  0
HATCH
  5
A7
100
AcDbEntity
  8
0
370
              -2
390
0
  6
Continuous
 62
               0
100
AcDbHatch
 10
0.0
 20
0.0
 30
0.0
210
0.0
220
0.0
230
1.0
  2
SOLID
 70
               1
 71
               1
 91
        1
 92
        1
 93
        1
 72
               2
 10
-651.3957379070398
 20
1156.2812519704964
 40
1.9998779296875
 50
0.0
 51
360.0
 73
               0
 97
        1
330
A6
 75
               0
 76
               1
 98
        1
 10
0.0
 20
0.0
  0
MTEXT
  5
A8
100
AcDbEntity
  8
0
390
0
 62
               0
100
AcDbMText
 10
-550.20823958921528
 20
1190.1588691579964
 30
0.0
 40
24.432617187500004
 41
0.0
 71
               1
 72
               1
  1
250
  7
ＭＳ ゴシック
 73
               1
 44
0.7828267384257843
  0
POINT
  5
A9
100
AcDbEntity
  8
Defpoints
370
               0
390
0
 62
               0
100
AcDbPoint
 10
-651.3957379070398
 20
1106.2812519704964
 30
0.0
  0
POINT
  5
AA
100
AcDbEntity
  8
Defpoints
370
               0
390
0
 62
               0
100
AcDbPoint
 10
-401.39573790703986
 20
1106.2812519704964
 30
0.0
  0
POINT
  5
AB
100
AcDbEntity
  8
Defpoints
370
               0
390
0
 62
               0
100
AcDbPoint
 10
-401.39573790703986
 20
1156.2812519704964
 30
0.0
  0
ENDBLK
  5
AC
100
AcDbEntity
  8
notes
390
0
100
AcDbBlockEnd
  0
BLOCK
  5
AD
100
AcDbEntity
  8
notes
390
0
100
AcDbBlockBegin
  2
*D8
 70
               1
 10
0.0
 20
0.0
 30
0.0
  3
*D8
  1

  0
LINE
  5
AE
100
AcDbEntity
  8
0
370
              -2
390
0
  6
Continuous
 62
               0
100
AcDbLine
 10
-677.02125826478505
 20
-735.02690546720112
 30
0.0
 11
-751.38189924298024
 21
-735.02690546720112
 31
0.0
  0
LINE
  5
AF
100
AcDbEntity
  8
0
370
              -2
390
0
  6
Continuous
 62
               0
100
AcDbLine
 10
-677.02125826478459
 20
-635.02690546720078
 30
0.0
 11
-751.38189924298024
 21
-635.02690546720078
 31
0.0
  0
LINE
  5
B0
100
AcDbEntity
  8
0
370
              -2
390
0
  6
Continuous
 62
               0
100
AcDbLine
 10
-751.38189924298024
 20
-735.02690546720112
 30
0.0
 11
-751.38189924298024
 21
-635.02690546720078
 31
0.0
  0
CIRCLE
  5
B1
102
{ACAD_REACTORS
330
B2
102
}
100
AcDbEntity
  8
0
370
              -2
390
0
  6
Continuous
 62
               0
100
AcDbCircle
 10
-751.38189924298024
 20
-735.02690546720112
 30
0.0
 40
1.9998779296875
  0
HATCH
  5
B2
100
AcDbEntity
  8
0
370
              -2
390
0
  6
Continuous
 62
               0
100
AcDbHatch
 10
0.0
 20
0.0
 30
0.0
210
0.0
220
0.0
230
1.0
  2
SOLID
 70
               1
 71
               1
 91
        1
 92
        1
 93
        1
 72
               2
 10
-751.38189924298024
 20
-735.02690546720112
 40
1.9998779296875
 50
0.0
 51
360.0
 73
               0
 97
        1
330
B1
 75
               0
 76
               1
 98
        1
 10
0.0
 20
0.0
  0
CIRCLE
  5
B3
102
{ACAD_REACTORS
330
B4
102
}
100
AcDbEntity
  8
0
370
              -2
390
0
  6
Continuous
 62
               0
100
AcDbCircle
 10
-751.38189924298024
 20
-635.02690546720078
 30
0.0
 40
1.9998779296875
  0
HATCH
  5
B4
100
AcDbEntity
  8
0
370
              -2
390
0
  6
Continuous
 62
               0
100
AcDbHatch
 10
0.0
 20
0.0
 30
0.0
210
0.0
220
0.0
230
1.0
  2
SOLID
 70
               1
 71
               1
 91
        1
 92
        1
 93
        1
 72
               2
 10
-751.38189924298024
 20
-635.02690546720078
 40
1.9998779296875
 50
0.0
 51
360.0
 73
               0
 97
        1
330
B3
 75
               0
 76
               1
 98
        1
 10
0.0
 20
0.0
  0
MTEXT
  5
B5
100
AcDbEntity
  8
0
390
0
 62
               0
100
AcDbMText
 10
-785.25951643048029
 20
-708.83940714937637
 30
0.0
 40
24.432617187500004
 41
0.0
 71
               1
 72
               1
  1
100
  7
ＭＳ ゴシック
 11
0.0
 21
1.0
 31
0.0
 73
               1
 44
0.7828267384257843
  0
POINT
  5
B6
100
AcDbEntity
  8
Defpoints
370
               0
390
0
 62
               0
100
AcDbPoint
 10
-652.02125826478459
 20
-635.02690546720078
 30
0.0
  0
POINT
  5
B7
100
AcDbEntity
  8
Defpoints
370
               0
390
0
 62
               0
100
AcDbPoint
 10
-652.02125826478505
 20
-735.02690546720112
 30
0.0
  0
POINT
  5
B8
100
AcDbEntity
  8
Defpoints
370
               0
390
0
 62
               0
100
AcDbPoint
 10
-751.38189924298024
 20
-735.02690546720112
 30
0.0
  0
ENDBLK
  5
B9
100
AcDbEntity
  8
notes
390
0
100
AcDbBlockEnd
  0
BLOCK
  5
BA
100
AcDbEntity
  8
notes
390
0
100
AcDbBlockBegin
  2
*D9
 70
               1
 10
0.0
 20
0.0
 30
0.0
  3
*D9
  1

  0
LINE
  5
BB
100
AcDbEntity
  8
0
370
              -2
390
0
  6
Continuous
 62
               0
100
AcDbLine
 10
-677.02125826478459
 20
-635.02690546720078
 30
0.0
 11
-751.38189924298024
 21
-635.02690546720078
 31
0.0
  0
LINE
  5
BC
100
AcDbEntity
  8
0
370
              -2
390
0
  6
Continuous
 62
               0
100
AcDbLine
 10
-677.02125826478459
 20
-535.02690546720305
 30
0.0
 11
-751.38189924298024
 21
-535.02690546720305
 31
0.0
  0
LINE
  5
BD
100
AcDbEntity
  8
0
370
              -2
390
0
  6
Continuous
 62
               0
100
AcDbLine
 10
-751.38189924298024
 20
-635.02690546720078
 30
0.0
 11
-751.38189924298024
 21
-535.02690546720305
 31
0.0
  0
CIRCLE
  5
BE
102
{ACAD_REACTORS
330
BF
102
}
100
AcDbEntity
  8
0
370
              -2
390
0
  6
Continuous
 62
               0
100
AcDbCircle
 10
-751.38189924298024
 20
-635.02690546720078
 30
0.0
 40
1.9998779296875
  0
HATCH
  5
BF
100
AcDbEntity
  8
0
370
              -2
390
0
  6
Continuous
 62
               0
100
AcDbHatch
 10
0.0
 20
0.0
 30
0.0
210
0.0
220
0.0
230
1.0
  2
SOLID
 70
               1
 71
               1
 91
        1
 92
        1
 93
        1
 72
               2
 10
-751.38189924298024
 20
-635.02690546720078
 40
1.9998779296875
 50
0.0
 51
360.0
 73
               0
 97
        1
330
BE
 75
               0
 76
               1
 98
        1
 10
0.0
 20
0.0
  0
CIRCLE
  5
C0
102
{ACAD_REACTORS
330
C1
102
}
100
AcDbEntity
  8
0
370
              -2
390
0
  6
Continuous
 62
               0
100
AcDbCircle
 10
-751.38189924298024
 20
-535.02690546720305
 30
0.0
 40
1.9998779296875
  0
HATCH
  5
C1
100
AcDbEntity
  8
0
370
              -2
390
0
  6
Continuous
 62
               0
100
AcDbHatch
 10
0.0
 20
0.0
 30
0.0
210
0.0
220
0.0
230
1.0
  2
SOLID
 70
               1
 71
               1
 91
        1
 92
        1
 93
        1
 72
               2
 10
-751.38189924298024
 20
-535.02690546720305
 40
1.9998779296875
 50
0.0
 51
360.0
 73
               0
 97
        1
330
C0
 75
               0
 76
               1
 98
        1
 10
0.0
 20
0.0
  0
MTEXT
  5
C2
100
AcDbEntity
  8
0
390
0
 62
               0
100
AcDbMText
 10
-785.25951643048029
 20
-608.83940714937739
 30
0.0
 40
24.432617187500004
 41
0.0
 71
               1
 72
               1
  1
100
  7
ＭＳ ゴシック
 11
0.0
 21
1.0
 31
0.0
 73
               1
 44
0.7828267384257843
  0
POINT
  5
C3
100
AcDbEntity
  8
Defpoints
370
               0
390
0
 62
               0
100
AcDbPoint
 10
-652.02125826478459
 20
-535.02690546720305
 30
0.0
  0
POINT
  5
C4
100
AcDbEntity
  8
Defpoints
370
               0
390
0
 62
               0
100
AcDbPoint
 10
-652.02125826478459
 20
-635.02690546720078
 30
0.0
  0
POINT
  5
C5
100
AcDbEntity
  8
Defpoints
370
               0
390
0
 62
               0
100
AcDbPoint
 10
-751.38189924298024
 20
-635.02690546720078
 30
0.0
  0
ENDBLK
  5
C6
100
AcDbEntity
  8
notes
390
0
100
AcDbBlockEnd
  0
BLOCK
  5
C7
100
AcDbEntity
  8
notes
390
0
100
AcDbBlockBegin
  2
*D10
 70
               1
 10
0.0
 20
0.0
 30
0.0
  3
*D10
  1

  0
LINE
  5
C8
100
AcDbEntity
  8
0
370
              -2
390
0
  6
Continuous
 62
               0
100
AcDbLine
 10
-677.02125826478459
 20
-535.02690546720305
 30
0.0
 11
-751.38189924298035
 21
-535.02690546720305
 31
0.0
  0
LINE
  5
C9
100
AcDbEntity
  8
0
370
              -2
390
0
  6
Continuous
 62
               0
100
AcDbLine
 10
-677.02125826478482
 20
-435.02690546720362
 30
0.0
 11
-751.38189924298035
 21
-435.02690546720362
 31
0.0
  0
LINE
  5
CA
100
AcDbEntity
  8
0
370
              -2
390
0
  6
Continuous
 62
               0
100
AcDbLine
 10
-751.38189924298035
 20
-535.02690546720305
 30
0.0
 11
-751.38189924298035
 21
-435.02690546720362
 31
0.0
  0
CIRCLE
  5
CB
102
{ACAD_REACTORS
330
CC
102
}
100
AcDbEntity
  8
0
370
              -2
390
0
  6
Continuous
 62
               0
100
AcDbCircle
 10
-751.38189924298035
 20
-535.02690546720305
 30
0.0
 40
1.9998779296875
  0
HATCH
  5
CC
100
AcDbEntity
  8
0
370
              -2
390
0
  6
Continuous
 62
               0
100
AcDbHatch
 10
0.0
 20
0.0
 30
0.0
210
0.0
220
0.0
230
1.0
  2
SOLID
 70
               1
 71
               1
 91
        1
 92
        1
 93
        1
 72
               2
 10
-751.38189924298035
 20
-535.02690546720305
 40
1.9998779296875
 50
0.0
 51
360.0
 73
               0
 97
        1
330
CB
 75
               0
 76
               1
 98
        1
 10
0.0
 20
0.0
  0
CIRCLE
  5
CD
102
{ACAD_REACTORS
330
CE
102
}
100
AcDbEntity
  8
0
370
              -2
390
0
  6
Continuous
 62
               0
100
AcDbCircle
 10
-751.38189924298035
 20
-435.02690546720362
 30
0.0
 40
1.9998779296875
  0
HATCH
  5
CE
100
AcDbEntity
  8
0
370
              -2
390
0
  6
Continuous
 62
               0
100
AcDbHatch
 10
0.0
 20
0.0
 30
0.0
210
0.0
220
0.0
230
1.0
  2
SOLID
 70
               1
 71
               1
 91
        1
 92
        1
 93
        1
 72
               2
 10
-751.38189924298035
 20
-435.02690546720362
 40
1.9998779296875
 50
0.0
 51
360.0
 73
               0
 97
        1
330
CD
 75
               0
 76
               1
 98
        1
 10
0.0
 20
0.0
  0
MTEXT
  5
CF
100
AcDbEntity
  8
0
390
0
 62
               0
100
AcDbMText
 10
-785.2595164304804
 20
-508.83940714937887
 30
0.0
 40
24.432617187500004
 41
0.0
 71
               1
 72
               1
  1
100
  7
ＭＳ ゴシック
 11
0.0
 21
1.0
 31
0.0
 73
               1
 44
0.7828267384257843
  0
POINT
  5
D0
100
AcDbEntity
  8
Defpoints
370
               0
390
0
 62
               0
100
AcDbPoint
 10
-652.02125826478482
 20
-435.02690546720362
 30
0.0
  0
POINT
  5
D1
100
AcDbEntity
  8
Defpoints
370
               0
390
0
 62
               0
100
AcDbPoint
 10
-652.02125826478459
 20
-535.02690546720305
 30
0.0
  0
POINT
  5
D2
100
AcDbEntity
  8
Defpoints
370
               0
390
0
 62
               0
100
AcDbPoint
 10
-751.38189924298035
 20
-535.02690546720305
 30
0.0
  0
ENDBLK
  5
D3
100
AcDbEntity
  8
notes
390
0
100
AcDbBlockEnd
  0
BLOCK
  5
D4
100
AcDbEntity
  8
notes
390
0
100
AcDbBlockBegin
  2
*D11
 70
               1
 10
0.0
 20
0.0
 30
0.0
  3
*D11
  1

  0
LINE
  5
D5
100
AcDbEntity
  8
0
370
              -2
390
0
  6
Continuous
 62
               0
100
AcDbLine
 10
-677.02125826478482
 20
-435.02690546720362
 30
0.0
 11
-751.38189924298035
 21
-435.02690546720362
 31
0.0
  0
LINE
  5
D6
100
AcDbEntity
  8
0
370
              -2
390
0
  6
Continuous
 62
               0
100
AcDbLine
 10
-677.02125826478459
 20
-335.02690546720214
 30
0.0
 11
-751.38189924298035
 21
-335.02690546720214
 31
0.0
  0
LINE
  5
D7
100
AcDbEntity
  8
0
370
              -2
390
0
  6
Continuous
 62
               0
100
AcDbLine
 10
-751.38189924298035
 20
-435.02690546720362
 30
0.0
 11
-751.38189924298035
 21
-335.02690546720214
 31
0.0
  0
CIRCLE
  5
D8
102
{ACAD_REACTORS
330
D9
102
}
100
AcDbEntity
  8
0
370
              -2
390
0
  6
Continuous
 62
               0
100
AcDbCircle
 10
-751.38189924298035
 20
-435.02690546720362
 30
0.0
 40
1.9998779296875
  0
HATCH
  5
D9
100
AcDbEntity
  8
0
370
              -2
390
0
  6
Continuous
 62
               0
100
AcDbHatch
 10
0.0
 20
0.0
 30
0.0
210
0.0
220
0.0
230
1.0
  2
SOLID
 70
               1
 71
               1
 91
        1
 92
        1
 93
        1
 72
               2
 10
-751.38189924298035
 20
-435.02690546720362
 40
1.9998779296875
 50
0.0
 51
360.0
 73
               0
 97
        1
330
D8
 75
               0
 76
               1
 98
        1
 10
0.0
 20
0.0
  0
CIRCLE
  5
DA
102
{ACAD_REACTORS
330
DB
102
}
100
AcDbEntity
  8
0
370
              -2
390
0
  6
Continuous
 62
               0
100
AcDbCircle
 10
-751.38189924298035
 20
-335.02690546720214
 30
0.0
 40
1.9998779296875
  0
HATCH
  5
DB
100
AcDbEntity
  8
0
370
              -2
390
0
  6
Continuous
 62
               0
100
AcDbHatch
 10
0.0
 20
0.0
 30
0.0
210
0.0
220
0.0
230
1.0
  2
SOLID
 70
               1
 71
               1
 91
        1
 92
        1
 93
        1
 72
               2
 10
-751.38189924298035
 20
-335.02690546720214
 40
1.9998779296875
 50
0.0
 51
360.0
 73
               0
 97
        1
330
DA
 75
               0
 76
               1
 98
        1
 10
0.0
 20
0.0
  0
MTEXT
  5
DC
100
AcDbEntity
  8
0
390
0
 62
               0
100
AcDbMText
 10
-785.2595164304804
 20
-408.8394071493783
 30
0.0
 40
24.432617187500004
 41
0.0
 71
               1
 72
               1
  1
100
  7
ＭＳ ゴシック
 11
0.0
 21
1.0
 31
0.0
 73
               1
 44
0.7828267384257843
  0
POINT
  5
DD
100
AcDbEntity
  8
Defpoints
370
               0
390
0
 62
               0
100
AcDbPoint
 10
-652.02125826478459
 20
-335.02690546720214
 30
0.0
  0
POINT
  5
DE
100
AcDbEntity
  8
Defpoints
370
               0
390
0
 62
               0
100
AcDbPoint
 10
-652.02125826478482
 20
-435.02690546720362
 30
0.0
  0
POINT
  5
DF
100
AcDbEntity
  8
Defpoints
370
               0
390
0
 62
               0
100
AcDbPoint
 10
-751.38189924298035
 20
-435.02690546720362
 30
0.0
  0
ENDBLK
  5
E0
100
AcDbEntity
  8
notes
390
0
100
AcDbBlockEnd
  0
BLOCK
  5
E1
100
AcDbEntity
  8
notes
390
0
100
AcDbBlockBegin
  2
*D12
 70
               1
 10
0.0
 20
0.0
 30
0.0
  3
*D12
  1

  0
LINE
  5
E2
100
AcDbEntity
  8
0
370
              -2
390
0
  6
Continuous
 62
               0
100
AcDbLine
 10
-677.02125826478459
 20
-335.02690546720214
 30
0.0
 11
-751.38189924298024
 21
-335.02690546720214
 31
0.0
  0
LINE
  5
E3
100
AcDbEntity
  8
0
370
              -2
390
0
  6
Continuous
 62
               0
100
AcDbLine
 10
-677.02125826478482
 20
-235.02690546720177
 30
0.0
 11
-751.38189924298024
 21
-235.02690546720177
 31
0.0
  0
LINE
  5
E4
100
AcDbEntity
  8
0
370
              -2
390
0
  6
Continuous
 62
               0
100
AcDbLine
 10
-751.38189924298024
 20
-335.02690546720214
 30
0.0
 11
-751.38189924298024
 21
-235.02690546720177
 31
0.0
  0
CIRCLE
  5
E5
102
{ACAD_REACTORS
330
E6
102
}
100
AcDbEntity
  8
0
370
              -2
390
0
  6
Continuous
 62
               0
100
AcDbCircle
 10
-751.38189924298024
 20
-335.02690546720214
 30
0.0
 40
1.9998779296875
  0
HATCH
  5
E6
100
AcDbEntity
  8
0
370
              -2
390
0
  6
Continuous
 62
               0
100
AcDbHatch
 10
0.0
 20
0.0
 30
0.0
210
0.0
220
0.0
230
1.0
  2
SOLID
 70
               1
 71
               1
 91
        1
 92
        1
 93
        1
 72
               2
 10
-751.38189924298024
 20
-335.02690546720214
 40
1.9998779296875
 50
0.0
 51
360.0
 73
               0
 97
        1
330
E5
 75
               0
 76
               1
 98
        1
 10
0.0
 20
0.0
  0
CIRCLE
  5
E7
102
{ACAD_REACTORS
330
E8
102
}
100
AcDbEntity
  8
0
370
              -2
390
0
  6
Continuous
 62
               0
100
AcDbCircle
 10
-751.38189924298024
 20
-235.02690546720177
 30
0.0
 40
1.9998779296875
  0
HATCH
  5
E8
100
AcDbEntity
  8
0
370
              -2
390
0
  6
Continuous
 62
               0
100
AcDbHatch
 10
0.0
 20
0.0
 30
0.0
210
0.0
220
0.0
230
1.0
  2
SOLID
 70
               1
 71
               1
 91
        1
 92
        1
 93
        1
 72
               2
 10
-751.38189924298024
 20
-235.02690546720177
 40
1.9998779296875
 50
0.0
 51
360.0
 73
               0
 97
        1
330
E7
 75
               0
 76
               1
 98
        1
 10
0.0
 20
0.0
  0
MTEXT
  5
E9
100
AcDbEntity
  8
0
390
0
 62
               0
100
AcDbMText
 10
-785.25951643048029
 20
-308.83940714937751
 30
0.0
 40
24.432617187500004
 41
0.0
 71
               1
 72
               1
  1
100
  7
ＭＳ ゴシック
 11
0.0
 21
1.0
 31
0.0
 73
               1
 44
0.7828267384257843
  0
POINT
  5
EA
100
AcDbEntity
  8
Defpoints
370
               0
390
0
 62
               0
100
AcDbPoint
 10
-652.02125826478482
 20
-235.02690546720177
 30
0.0
  0
POINT
  5
EB
100
AcDbEntity
  8
Defpoints
370
               0
390
0
 62
               0
100
AcDbPoint
 10
-652.02125826478459
 20
-335.02690546720214
 30
0.0
  0
POINT
  5
EC
100
AcDbEntity
  8
Defpoints
370
               0
390
0
 62
               0
100
AcDbPoint
 10
-751.38189924298024
 20
-335.02690546720214
 30
0.0
  0
ENDBLK
  5
ED
100
AcDbEntity
  8
notes
390
0
100
AcDbBlockEnd
  0
BLOCK
  5
EE
100
AcDbEntity
  8
notes
390
0
100
AcDbBlockBegin
  2
*D13
 70
               1
 10
0.0
 20
0.0
 30
0.0
  3
*D13
  1

  0
LINE
  5
EF
100
AcDbEntity
  8
0
370
              -2
390
0
  6
Continuous
 62
               0
100
AcDbLine
 10
-677.02125826478482
 20
-235.02690546720177
 30
0.0
 11
-751.38189924298035
 21
-235.02690546720177
 31
0.0
  0
LINE
  5
F0
100
AcDbEntity
  8
0
370
              -2
390
0
  6
Continuous
 62
               0
100
AcDbLine
 10
-677.02125826478482
 20
-135.02690546720166
 30
0.0
 11
-751.38189924298035
 21
-135.02690546720166
 31
0.0
  0
LINE
  5
F1
100
AcDbEntity
  8
0
370
              -2
390
0
  6
Continuous
 62
               0
100
AcDbLine
 10
-751.38189924298035
 20
-235.02690546720177
 30
0.0
 11
-751.38189924298035
 21
-135.02690546720166
 31
0.0
  0
CIRCLE
  5
F2
102
{ACAD_REACTORS
330
F3
102
}
100
AcDbEntity
  8
0
370
              -2
390
0
  6
Continuous
 62
               0
100
AcDbCircle
 10
-751.38189924298035
 20
-235.02690546720177
 30
0.0
 40
1.9998779296875
  0
HATCH
  5
F3
100
AcDbEntity
  8
0
370
              -2
390
0
  6
Continuous
 62
               0
100
AcDbHatch
 10
0.0
 20
0.0
 30
0.0
210
0.0
220
0.0
230
1.0
  2
SOLID
 70
               1
 71
               1
 91
        1
 92
        1
 93
        1
 72
               2
 10
-751.38189924298035
 20
-235.02690546720177
 40
1.9998779296875
 50
0.0
 51
360.0
 73
               0
 97
        1
330
F2
 75
               0
 76
               1
 98
        1
 10
0.0
 20
0.0
  0
CIRCLE
  5
F4
102
{ACAD_REACTORS
330
F5
102
}
100
AcDbEntity
  8
0
370
              -2
390
0
  6
Continuous
 62
               0
100
AcDbCircle
 10
-751.38189924298035
 20
-135.02690546720166
 30
0.0
 40
1.9998779296875
  0
HATCH
  5
F5
100
AcDbEntity
  8
0
370
              -2
390
0
  6
Continuous
 62
               0
100
AcDbHatch
 10
0.0
 20
0.0
 30
0.0
210
0.0
220
0.0
230
1.0
  2
SOLID
 70
               1
 71
               1
 91
        1
 92
        1
 93
        1
 72
               2
 10
-751.38189924298035
 20
-135.02690546720166
 40
1.9998779296875
 50
0.0
 51
360.0
 73
               0
 97
        1
330
F4
 75
               0
 76
               1
 98
        1
 10
0.0
 20
0.0
  0
MTEXT
  5
F6
100
AcDbEntity
  8
0
390
0
 62
               0
100
AcDbMText
 10
-785.2595164304804
 20
-208.83940714937725
 30
0.0
 40
24.432617187500004
 41
0.0
 71
               1
 72
               1
  1
100
  7
ＭＳ ゴシック
 11
0.0
 21
1.0
 31
0.0
 73
               1
 44
0.7828267384257843
  0
POINT
  5
F7
100
AcDbEntity
  8
Defpoints
370
               0
390
0
 62
               0
100
AcDbPoint
 10
-652.02125826478482
 20
-135.02690546720166
 30
0.0
  0
POINT
  5
F8
100
AcDbEntity
  8
Defpoints
370
               0
390
0
 62
               0
100
AcDbPoint
 10
-652.02125826478482
 20
-235.02690546720177
 30
0.0
  0
POINT
  5
F9
100
AcDbEntity
  8
Defpoints
370
               0
390
0
 62
               0
100
AcDbPoint
 10
-751.38189924298035
 20
-235.02690546720177
 30
0.0
  0
ENDBLK
  5
FA
100
AcDbEntity
  8
notes
390
0
100
AcDbBlockEnd
  0
BLOCK
  5
FB
100
AcDbEntity
  8
notes
390
0
100
AcDbBlockBegin
  2
*D14
 70
               1
 10
0.0
 20
0.0
 30
0.0
  3
*D14
  1

  0
LINE
  5
FC
100
AcDbEntity
  8
0
370
              -2
390
0
  6
Continuous
 62
               0
100
AcDbLine
 10
-671.38189924298035
 20
-935.02711546506259
 30
0.0
 11
-801.38189924298035
 21
-935.02711546506259
 31
0.0
  0
LINE
  5
FD
100
AcDbEntity
  8
0
370
              -2
390
0
  6
Continuous
 62
               0
100
AcDbLine
 10
-671.38189924298035
 20
64.972884534937293
 30
0.0
 11
-801.38189924298035
 21
64.972884534937293
 31
0.0
  0
LINE
  5
FE
100
AcDbEntity
  8
0
370
              -2
390
0
  6
Continuous
 62
               0
100
AcDbLine
 10
-801.38189924298035
 20
-935.02711546506259
 30
0.0
 11
-801.38189924298035
 21
64.972884534937293
 31
0.0
  0
CIRCLE
  5
FF
102
{ACAD_REACTORS
330
100
102
}
100
AcDbEntity
  8
0
370
              -2
390
0
  6
Continuous
 62
               0
100
AcDbCircle
 10
-801.38189924298035
 20
-935.02711546506259
 30
0.0
 40
1.9998779296875
  0
HATCH
  5
100
100
AcDbEntity
  8
0
370
              -2
390
0
  6
Continuous
 62
               0
100
AcDbHatch
 10
0.0
 20
0.0
 30
0.0
210
0.0
220
0.0
230
1.0
  2
SOLID
 70
               1
 71
               1
 91
        1
 92
        1
 93
        1
 72
               2
 10
-801.38189924298035
 20
-935.02711546506259
 40
1.9998779296875
 50
0.0
 51
360.0
 73
               0
 97
        1
330
FF
 75
               0
 76
               1
 98
        1
 10
0.0
 20
0.0
  0
CIRCLE
  5
101
102
{ACAD_REACTORS
330
102
102
}
100
AcDbEntity
  8
0
370
              -2
390
0
  6
Continuous
 62
               0
100
AcDbCircle
 10
-801.38189924298035
 20
64.972884534937293
 30
0.0
 40
1.9998779296875
  0
HATCH
  5
102
100
AcDbEntity
  8
0
370
              -2
390
0
  6
Continuous
 62
               0
100
AcDbHatch
 10
0.0
 20
0.0
 30
0.0
210
0.0
220
0.0
230
1.0
  2
SOLID
 70
               1
 71
               1
 91
        1
 92
        1
 93
        1
 72
               2
 10
-801.38189924298035
 20
64.972884534937293
 40
1.9998779296875
 50
0.0
 51
360.0
 73
               0
 97
        1
330
101
 75
               0
 76
               1
 98
        1
 10
0.0
 20
0.0
  0
MTEXT
  5
103
100
AcDbEntity
  8
0
390
0
 62
               0
100
AcDbMText
 10
-835.2595164304804
 20
-466.77711546506259
 30
0.0
 40
24.432617187500004
 41
0.0
 71
               1
 72
               1
  1
1000
  7
ＭＳ ゴシック
 11
0.0
 21
1.0
 31
0.0
 73
               1
 44
0.7828267384257843
  0
POINT
  5
104
100
AcDbEntity
  8
Defpoints
370
               0
390
0
 62
               0
100
AcDbPoint
 10
-646.38189924298035
 20
64.972884534937293
 30
0.0
  0
POINT
  5
105
100
AcDbEntity
  8
Defpoints
370
               0
390
0
 62
               0
100
AcDbPoint
 10
-646.38189924298035
 20
-935.02711546506259
 30
0.0
  0
POINT
  5
106
100
AcDbEntity
  8
Defpoints
370
               0
390
0
 62
               0
100
AcDbPoint
 10
-801.38189924298035
 20
-935.02711546506259
 30
0.0
  0
ENDBLK
  5
107
100
AcDbEntity
  8
notes
390
0
100
AcDbBlockEnd
  0
BLOCK
  5
108
100
AcDbEntity
  8
notes
390
0
100
AcDbBlockBegin
  2
*D15
 70
               1
 10
0.0
 20
0.0
 30
0.0
  3
*D15
  1

  0
LINE
  5
109
100
AcDbEntity
  8
0
370
              -2
390
0
  6
Continuous
 62
               0
100
AcDbLine
 10
448.10922391580868
 20
85.000000000002814
 30
0.0
 11
448.10922391580868
 21
164.97288453493729
 31
0.0
  0
LINE
  5
10A
100
AcDbEntity
  8
0
370
              -2
390
0
  6
Continuous
 62
               0
100
AcDbLine
 10
638.10922391580766
 20
-14.999999999998835
 30
0.0
 11
638.10922391580766
 21
164.97288453493729
 31
0.0
  0
LINE
  5
10B
100
AcDbEntity
  8
0
370
              -2
390
0
  6
Continuous
 62
               0
100
AcDbLine
 10
448.10922391580868
 20
164.97288453493729
 30
0.0
 11
638.10922391580766
 21
164.97288453493729
 31
0.0
  0
CIRCLE
  5
10C
102
{ACAD_REACTORS
330
10D
102
}
100
AcDbEntity
  8
0
370
              -2
390
0
  6
Continuous
 62
               0
100
AcDbCircle
 10
448.10922391580868
 20
164.97288453493729
 30
0.0
 40
1.9998779296875
  0
HATCH
  5
10D
100
AcDbEntity
  8
0
370
              -2
390
0
  6
Continuous
 62
               0
100
AcDbHatch
 10
0.0
 20
0.0
 30
0.0
210
0.0
220
0.0
230
1.0
  2
SOLID
 70
               1
 71
               1
 91
        1
 92
        1
 93
        1
 72
               2
 10
448.10922391580868
 20
164.97288453493729
 40
1.9998779296875
 50
0.0
 51
360.0
 73
               0
 97
        1
330
10C
 75
               0
 76
               1
 98
        1
 10
0.0
 20
0.0
  0
CIRCLE
  5
10E
102
{ACAD_REACTORS
330
10F
102
}
100
AcDbEntity
  8
0
370
              -2
390
0
  6
Continuous
 62
               0
100
AcDbCircle
 10
638.10922391580766
 20
164.97288453493729
 30
0.0
 40
1.9998779296875
  0
HATCH
  5
10F
100
AcDbEntity
  8
0
370
              -2
390
0
  6
Continuous
 62
               0
100
AcDbHatch
 10
0.0
 20
0.0
 30
0.0
210
0.0
220
0.0
230
1.0
  2
SOLID
 70
               1
 71
               1
 91
        1
 92
        1
 93
        1
 72
               2
 10
638.10922391580766
 20
164.97288453493729
 40
1.9998779296875
 50
0.0
 51
360.0
 73
               0
 97
        1
330
10E
 75
               0
 76
               1
 98
        1
 10
0.0
 20
0.0
  0
MTEXT
  5
110
100
AcDbEntity
  8
0
390
0
 62
               0
100
AcDbMText
 10
519.29672223363264
 20
198.85050172243729
 30
0.0
 40
24.432617187500004
 41
0.0
 71
               1
 72
               1
  1
190
  7
ＭＳ ゴシック
 73
               1
 44
0.7828267384257843
  0
POINT
  5
111
100
AcDbEntity
  8
Defpoints
370
               0
390
0
 62
               0
100
AcDbPoint
 10
638.10922391580766
 20
-39.999999999998835
 30
0.0
  0
POINT
  5
112
100
AcDbEntity
  8
Defpoints
370
               0
390
0
 62
               0
100
AcDbPoint
 10
448.10922391580868
 20
60.000000000002814
 30
0.0
  0
POINT
  5
113
100
AcDbEntity
  8
Defpoints
370
               0
390
0
 62
               0
100
AcDbPoint
 10
448.10922391580868
 20
164.97288453493729
 30
0.0
  0
ENDBLK
  5
114
100
AcDbEntity
  8
notes
390
0
100
AcDbBlockEnd
  0
BLOCK
  5
115
100
AcDbEntity
  8
notes
390
0
100
AcDbBlockBegin
  2
*D16
 70
               1
 10
0.0
 20
0.0
 30
0.0
  3
*D16
  1

  0
LINE
  5
116
100
AcDbEntity
  8
0
370
              -2
390
0
  6
Continuous
 62
               0
100
AcDbLine
 10
-651.38189924298035
 20
84.972884534937293
 30
0.0
 11
-651.38189924298035
 21
164.97288453493729
 31
0.0
  0
LINE
  5
117
100
AcDbEntity
  8
0
370
              -2
390
0
  6
Continuous
 62
               0
100
AcDbLine
 10
-151.38189924298075
 20
84.972884534937208
 30
0.0
 11
-151.38189924298075
 21
164.97288453493729
 31
0.0
  0
LINE
  5
118
100
AcDbEntity
  8
0
370
              -2
390
0
  6
Continuous
 62
               0
100
AcDbLine
 10
-651.38189924298035
 20
164.97288453493729
 30
0.0
 11
-151.38189924298075
 21
164.97288453493729
 31
0.0
  0
CIRCLE
  5
119
102
{ACAD_REACTORS
330
11A
102
}
100
AcDbEntity
  8
0
370
              -2
390
0
  6
Continuous
 62
               0
100
AcDbCircle
 10
-651.38189924298035
 20
164.97288453493729
 30
0.0
 40
1.9998779296875
  0
HATCH
  5
11A
100
AcDbEntity
  8
0
370
              -2
390
0
  6
Continuous
 62
               0
100
AcDbHatch
 10
0.0
 20
0.0
 30
0.0
210
0.0
220
0.0
230
1.0
  2
SOLID
 70
               1
 71
               1
 91
        1
 92
        1
 93
        1
 72
               2
 10
-651.38189924298035
 20
164.97288453493729
 40
1.9998779296875
 50
0.0
 51
360.0
 73
               0
 97
        1
330
119
 75
               0
 76
               1
 98
        1
 10
0.0
 20
0.0
  0
CIRCLE
  5
11B
102
{ACAD_REACTORS
330
11C
102
}
100
AcDbEntity
  8
0
370
              -2
390
0
  6
Continuous
 62
               0
100
AcDbCircle
 10
-151.38189924298075
 20
164.97288453493729
 30
0.0
 40
1.9998779296875
  0
HATCH
  5
11C
100
AcDbEntity
  8
0
370
              -2
390
0
  6
Continuous
 62
               0
100
AcDbHatch
 10
0.0
 20
0.0
 30
0.0
210
0.0
220
0.0
230
1.0
  2
SOLID
 70
               1
 71
               1
 91
        1
 92
        1
 93
        1
 72
               2
 10
-151.38189924298075
 20
164.97288453493729
 40
1.9998779296875
 50
0.0
 51
360.0
 73
               0
 97
        1
330
11B
 75
               0
 76
               1
 98
        1
 10
0.0
 20
0.0
  0
MTEXT
  5
11D
100
AcDbEntity
  8
0
390
0
 62
               0
100
AcDbMText
 10
-425.19440092515606
 20
198.85050172243729
 30
0.0
 40
24.432617187500004
 41
0.0
 71
               1
 72
               1
  1
500
  7
ＭＳ ゴシック
 73
               1
 44
0.7828267384257843
  0
POINT
  5
11E
100
AcDbEntity
  8
Defpoints
370
               0
390
0
 62
               0
100
AcDbPoint
 10
-151.38189924298075
 20
59.972884534937208
 30
0.0
  0
POINT
  5
11F
100
AcDbEntity
  8
Defpoints
370
               0
390
0
 62
               0
100
AcDbPoint
 10
-651.38189924298035
 20
59.972884534937293
 30
0.0
  0
POINT
  5
120
100
AcDbEntity
  8
Defpoints
370
               0
390
0
 62
               0
100
AcDbPoint
 10
-651.38189924298035
 20
164.97288453493729
 30
0.0
  0
ENDBLK
  5
121
100
AcDbEntity
  8
notes
390
0
100
AcDbBlockEnd
  0
BLOCK
  5
122
100
AcDbEntity
  8
notes
390
0
100
AcDbBlockBegin
  2
*D17
 70
               1
 10
0.0
 20
0.0
 30
0.0
  3
*D17
  1

  0
LINE
  5
123
100
AcDbEntity
  8
0
370
              -2
390
0
  6
Continuous
 62
               0
100
AcDbLine
 10
463.14030384676522
 20
-685.02690546720055
 30
0.0
 11
347.84030384676527
 21
-685.02690546720055
 31
0.0
  0
LINE
  5
124
100
AcDbEntity
  8
0
370
              -2
390
0
  6
Continuous
 62
               0
100
AcDbLine
 10
463.14030384676522
 20
-575.02690546720055
 30
0.0
 11
347.84030384676527
 21
-575.02690546720055
 31
0.0
  0
LINE
  5
125
100
AcDbEntity
  8
0
370
              -2
390
0
  6
Continuous
 62
               0
100
AcDbLine
 10
347.84030384676527
 20
-685.02690546720055
 30
0.0
 11
347.84030384676527
 21
-575.02690546720055
 31
0.0
  0
CIRCLE
  5
126
102
{ACAD_REACTORS
330
127
102
}
100
AcDbEntity
  8
0
370
              -2
390
0
  6
Continuous
 62
               0
100
AcDbCircle
 10
347.84030384676527
 20
-685.02690546720055
 30
0.0
 40
1.9998779296875
  0
HATCH
  5
127
100
AcDbEntity
  8
0
370
              -2
390
0
  6
Continuous
 62
               0
100
AcDbHatch
 10
0.0
 20
0.0
 30
0.0
210
0.0
220
0.0
230
1.0
  2
SOLID
 70
               1
 71
               1
 91
        1
 92
        1
 93
        1
 72
               2
 10
347.84030384676527
 20
-685.02690546720055
 40
1.9998779296875
 50
0.0
 51
360.0
 73
               0
 97
        1
330
126
 75
               0
 76
               1
 98
        1
 10
0.0
 20
0.0
  0
CIRCLE
  5
128
102
{ACAD_REACTORS
330
129
102
}
100
AcDbEntity
  8
0
370
              -2
390
0
  6
Continuous
 62
               0
100
AcDbCircle
 10
347.84030384676527
 20
-575.02690546720055
 30
0.0
 40
1.9998779296875
  0
HATCH
  5
129
100
AcDbEntity
  8
0
370
              -2
390
0
  6
Continuous
 62
               0
100
AcDbHatch
 10
0.0
 20
0.0
 30
0.0
210
0.0
220
0.0
230
1.0
  2
SOLID
 70
               1
 71
               1
 91
        1
 92
        1
 93
        1
 72
               2
 10
347.84030384676527
 20
-575.02690546720055
 40
1.9998779296875
 50
0.0
 51
360.0
 73
               0
 97
        1
330
128
 75
               0
 76
               1
 98
        1
 10
0.0
 20
0.0
  0
MTEXT
  5
12A
100
AcDbEntity
  8
0
390
0
 62
               0
100
AcDbMText
 10
313.96268665926527
 20
-653.83940714937603
 30
0.0
 40
24.432617187500004
 41
0.0
 71
               1
 72
               1
  1
110
  7
ＭＳ ゴシック
 11
0.0
 21
1.0
 31
0.0
 73
               1
 44
0.7828267384257843
  0
POINT
  5
12B
100
AcDbEntity
  8
Defpoints
370
               0
390
0
 62
               0
100
AcDbPoint
 10
488.14030384676522
 20
-575.02690546720055
 30
0.0
  0
POINT
  5
12C
100
AcDbEntity
  8
Defpoints
370
               0
390
0
 62
               0
100
AcDbPoint
 10
488.14030384676522
 20
-685.02690546720055
 30
0.0
  0
POINT
  5
12D
100
AcDbEntity
  8
Defpoints
370
               0
390
0
 62
               0
100
AcDbPoint
 10
347.84030384676527
 20
-685.02690546720055
 30
0.0
  0
ENDBLK
  5
12E
100
AcDbEntity
  8
notes
390
0
100
AcDbBlockEnd
  0
BLOCK
  5
12F
100
AcDbEntity
  8
notes
390
0
100
AcDbBlockBegin
  2
*D18
 70
               1
 10
0.0
 20
0.0
 30
0.0
  3
*D18
  1

  0
LINE
  5
130
100
AcDbEntity
  8
0
370
              -2
390
0
  6
Continuous
 62
               0
100
AcDbLine
 10
463.14030384676522
 20
-575.02690546720055
 30
0.0
 11
347.84030384676527
 21
-575.02690546720055
 31
0.0
  0
LINE
  5
131
100
AcDbEntity
  8
0
370
              -2
390
0
  6
Continuous
 62
               0
100
AcDbLine
 10
463.14030384676522
 20
-295.0269054671985
 30
0.0
 11
347.84030384676527
 21
-295.0269054671985
 31
0.0
  0
LINE
  5
132
100
AcDbEntity
  8
0
370
              -2
390
0
  6
Continuous
 62
               0
100
AcDbLine
 10
347.84030384676527
 20
-575.02690546720055
 30
0.0
 11
347.84030384676527
 21
-295.0269054671985
 31
0.0
  0
CIRCLE
  5
133
102
{ACAD_REACTORS
330
134
102
}
100
AcDbEntity
  8
0
370
              -2
390
0
  6
Continuous
 62
               0
100
AcDbCircle
 10
347.84030384676527
 20
-575.02690546720055
 30
0.0
 40
1.9998779296875
  0
HATCH
  5
134
100
AcDbEntity
  8
0
370
              -2
390
0
  6
Continuous
 62
               0
100
AcDbHatch
 10
0.0
 20
0.0
 30
0.0
210
0.0
220
0.0
230
1.0
  2
SOLID
 70
               1
 71
               1
 91
        1
 92
        1
 93
        1
 72
               2
 10
347.84030384676527
 20
-575.02690546720055
 40
1.9998779296875
 50
0.0
 51
360.0
 73
               0
 97
        1
330
133
 75
               0
 76
               1
 98
        1
 10
0.0
 20
0.0
  0
CIRCLE
  5
135
102
{ACAD_REACTORS
330
136
102
}
100
AcDbEntity
  8
0
370
              -2
390
0
  6
Continuous
 62
               0
100
AcDbCircle
 10
347.84030384676527
 20
-295.0269054671985
 30
0.0
 40
1.9998779296875
  0
HATCH
  5
136
100
AcDbEntity
  8
0
370
              -2
390
0
  6
Continuous
 62
               0
100
AcDbHatch
 10
0.0
 20
0.0
 30
0.0
210
0.0
220
0.0
230
1.0
  2
SOLID
 70
               1
 71
               1
 91
        1
 92
        1
 93
        1
 72
               2
 10
347.84030384676527
 20
-295.0269054671985
 40
1.9998779296875
 50
0.0
 51
360.0
 73
               0
 97
        1
330
135
 75
               0
 76
               1
 98
        1
 10
0.0
 20
0.0
  0
MTEXT
  5
137
100
AcDbEntity
  8
0
390
0
 62
               0
100
AcDbMText
 10
313.96268665926527
 20
-458.83940714937501
 30
0.0
 40
24.432617187500004
 41
0.0
 71
               1
 72
               1
  1
280
  7
ＭＳ ゴシック
 11
0.0
 21
1.0
 31
0.0
 73
               1
 44
0.7828267384257843
  0
POINT
  5
138
100
AcDbEntity
  8
Defpoints
370
               0
390
0
 62
               0
100
AcDbPoint
 10
488.14030384676522
 20
-295.0269054671985
 30
0.0
  0
POINT
  5
139
100
AcDbEntity
  8
Defpoints
370
               0
390
0
 62
               0
100
AcDbPoint
 10
488.14030384676522
 20
-575.02690546720055
 30
0.0
  0
POINT
  5
13A
100
AcDbEntity
  8
Defpoints
370
               0
390
0
 62
               0
100
AcDbPoint
 10
347.84030384676527
 20
-575.02690546720055
 30
0.0
  0
ENDBLK
  5
13B
100
AcDbEntity
  8
notes
390
0
100
AcDbBlockEnd
  0
BLOCK
  5
13C
100
AcDbEntity
  8
notes
390
0
100
AcDbBlockBegin
  2
*D19
 70
               1
 10
0.0
 20
0.0
 30
0.0
  3
*D19
  1

  0
LINE
  5
13D
100
AcDbEntity
  8
0
370
              -2
390
0
  6
Continuous
 62
               0
100
AcDbLine
 10
463.14030384676522
 20
-295.0269054671985
 30
0.0
 11
347.84030384676527
 21
-295.0269054671985
 31
0.0
  0
LINE
  5
13E
100
AcDbEntity
  8
0
370
              -2
390
0
  6
Continuous
 62
               0
100
AcDbLine
 10
463.14030384676522
 20
-185.02690546719847
 30
0.0
 11
347.84030384676527
 21
-185.02690546719847
 31
0.0
  0
LINE
  5
13F
100
AcDbEntity
  8
0
370
              -2
390
0
  6
Continuous
 62
               0
100
AcDbLine
 10
347.84030384676527
 20
-295.0269054671985
 30
0.0
 11
347.84030384676527
 21
-185.02690546719847
 31
0.0
  0
CIRCLE
  5
140
102
{ACAD_REACTORS
330
141
102
}
100
AcDbEntity
  8
0
370
              -2
390
0
  6
Continuous
 62
               0
100
AcDbCircle
 10
347.84030384676527
 20
-295.0269054671985
 30
0.0
 40
1.9998779296875
  0
HATCH
  5
141
100
AcDbEntity
  8
0
370
              -2
390
0
  6
Continuous
 62
               0
100
AcDbHatch
 10
0.0
 20
0.0
 30
0.0
210
0.0
220
0.0
230
1.0
  2
SOLID
 70
               1
 71
               1
 91
        1
 92
        1
 93
        1
 72
               2
 10
347.84030384676527
 20
-295.0269054671985
 40
1.9998779296875
 50
0.0
 51
360.0
 73
               0
 97
        1
330
140
 75
               0
 76
               1
 98
        1
 10
0.0
 20
0.0
  0
CIRCLE
  5
142
102
{ACAD_REACTORS
330
143
102
}
100
AcDbEntity
  8
0
370
              -2
390
0
  6
Continuous
 62
               0
100
AcDbCircle
 10
347.84030384676527
 20
-185.02690546719847
 30
0.0
 40
1.9998779296875
  0
HATCH
  5
143
100
AcDbEntity
  8
0
370
              -2
390
0
  6
Continuous
 62
               0
100
AcDbHatch
 10
0.0
 20
0.0
 30
0.0
210
0.0
220
0.0
230
1.0
  2
SOLID
 70
               1
 71
               1
 91
        1
 92
        1
 93
        1
 72
               2
 10
347.84030384676527
 20
-185.02690546719847
 40
1.9998779296875
 50
0.0
 51
360.0
 73
               0
 97
        1
330
142
 75
               0
 76
               1
 98
        1
 10
0.0
 20
0.0
  0
MTEXT
  5
144
100
AcDbEntity
  8
0
390
0
 62
               0
100
AcDbMText
 10
313.96268665926527
 20
-263.83940714937398
 30
0.0
 40
24.432617187500004
 41
0.0
 71
               1
 72
               1
  1
110
  7
ＭＳ ゴシック
 11
0.0
 21
1.0
 31
0.0
 73
               1
 44
0.7828267384257843
  0
POINT
  5
145
100
AcDbEntity
  8
Defpoints
370
               0
390
0
 62
               0
100
AcDbPoint
 10
488.14030384676522
 20
-185.02690546719847
 30
0.0
  0
POINT
  5
146
100
AcDbEntity
  8
Defpoints
370
               0
390
0
 62
               0
100
AcDbPoint
 10
488.14030384676522
 20
-295.0269054671985
 30
0.0
  0
POINT
  5
147
100
AcDbEntity
  8
Defpoints
370
               0
390
0
 62
               0
100
AcDbPoint
 10
347.84030384676527
 20
-295.0269054671985
 30
0.0
  0
ENDBLK
  5
148
100
AcDbEntity
  8
notes
390
0
100
AcDbBlockEnd
  0
BLOCK
  5
149
100
AcDbEntity
  8
notes
390
0
100
AcDbBlockBegin
  2
*D20
 70
               1
 10
0.0
 20
0.0
 30
0.0
  3
*D20
  1

  0
LINE
  5
14A
100
AcDbEntity
  8
0
370
              -2
390
0
  6
Continuous
 62
               0
100
AcDbLine
 10
-126.37152247850895
 20
-910.02711546506373
 30
0.0
 11
-51.381899242980779
 21
-910.02711546506373
 31
0.0
  0
LINE
  5
14B
100
AcDbEntity
  8
0
370
              -2
390
0
  6
Continuous
 62
               0
100
AcDbLine
 10
-126.37152247850895
 20
39.972884534937236
 30
0.0
 11
-51.381899242980779
 21
39.972884534937236
 31
0.0
  0
LINE
  5
14C
100
AcDbEntity
  8
0
370
              -2
390
0
  6
Continuous
 62
               0
100
AcDbLine
 10
-51.381899242980779
 20
-910.02711546506373
 30
0.0
 11
-51.381899242980779
 21
39.972884534937236
 31
0.0
  0
CIRCLE
  5
14D
102
{ACAD_REACTORS
330
14E
102
}
100
AcDbEntity
  8
0
370
              -2
390
0
  6
Continuous
 62
               0
100
AcDbCircle
 10
-51.381899242980779
 20
-910.02711546506373
 30
0.0
 40
1.9998779296875
  0
HATCH
  5
14E
100
AcDbEntity
  8
0
370
              -2
390
0
  6
Continuous
 62
               0
100
AcDbHatch
 10
0.0
 20
0.0
 30
0.0
210
0.0
220
0.0
230
1.0
  2
SOLID
 70
               1
 71
               1
 91
        1
 92
        1
 93
        1
 72
               2
 10
-51.381899242980779
 20
-910.02711546506373
 40
1.9998779296875
 50
0.0
 51
360.0
 73
               0
 97
        1
330
14D
 75
               0
 76
               1
 98
        1
 10
0.0
 20
0.0
  0
CIRCLE
  5
14F
102
{ACAD_REACTORS
330
150
102
}
100
AcDbEntity
  8
0
370
              -2
390
0
  6
Continuous
 62
               0
100
AcDbCircle
 10
-51.381899242980779
 20
39.972884534937236
 30
0.0
 40
1.9998779296875
  0
HATCH
  5
150
100
AcDbEntity
  8
0
370
              -2
390
0
  6
Continuous
 62
               0
100
AcDbHatch
 10
0.0
 20
0.0
 30
0.0
210
0.0
220
0.0
230
1.0
  2
SOLID
 70
               1
 71
               1
 91
        1
 92
        1
 93
        1
 72
               2
 10
-51.381899242980779
 20
39.972884534937236
 40
1.9998779296875
 50
0.0
 51
360.0
 73
               0
 97
        1
330
14F
 75
               0
 76
               1
 98
        1
 10
0.0
 20
0.0
  0
MTEXT
  5
151
100
AcDbEntity
  8
0
390
0
 62
               0
100
AcDbMText
 10
-85.259516430480801
 20
-458.83961714723876
 30
0.0
 40
24.432617187500004
 41
0.0
 71
               1
 72
               1
  1
950
  7
ＭＳ ゴシック
 11
0.0
 21
1.0
 31
0.0
 73
               1
 44
0.7828267384257843
  0
POINT
  5
152
100
AcDbEntity
  8
Defpoints
370
               0
390
0
 62
               0
100
AcDbPoint
 10
-151.37152247850895
 20
39.972884534937236
 30
0.0
  0
POINT
  5
153
100
AcDbEntity
  8
Defpoints
370
               0
390
0
 62
               0
100
AcDbPoint
 10
-151.37152247850895
 20
-910.02711546506373
 30
0.0
  0
POINT
  5
154
100
AcDbEntity
  8
Defpoints
370
               0
390
0
 62
               0
100
AcDbPoint
 10
-51.381899242980779
 20
-910.02711546506373
 30
0.0
  0
ENDBLK
  5
155
100
AcDbEntity
  8
notes
390
0
100
AcDbBlockEnd
  0
BLOCK
  5
156
100
AcDbEntity
  8
notes
390
0
100
AcDbBlockBegin
  2
*D21
 70
               1
 10
0.0
 20
0.0
 30
0.0
  3
*D21
  1

  0
LINE
  5
157
100
AcDbEntity
  8
0
370
              -2
390
0
  6
Continuous
 62
               0
100
AcDbLine
 10
448.10922391580857
 20
-954.99999999999739
 30
0.0
 11
448.10922391580857
 21
-1034.9999999999975
 31
0.0
  0
LINE
  5
158
100
AcDbEntity
  8
0
370
              -2
390
0
  6
Continuous
 62
               0
100
AcDbLine
 10
488.10922391580897
 20
-954.99999999999739
 30
0.0
 11
488.10922391580897
 21
-1034.9999999999975
 31
0.0
  0
LINE
  5
159
100
AcDbEntity
  8
0
370
              -2
390
0
  6
Continuous
 62
               0
100
AcDbLine
 10
448.10922391580857
 20
-1034.9999999999975
 30
0.0
 11
488.10922391580897
 21
-1034.9999999999975
 31
0.0
  0
CIRCLE
  5
15A
102
{ACAD_REACTORS
330
15B
102
}
100
AcDbEntity
  8
0
370
              -2
390
0
  6
Continuous
 62
               0
100
AcDbCircle
 10
448.10922391580857
 20
-1034.9999999999975
 30
0.0
 40
1.9998779296875
  0
HATCH
  5
15B
100
AcDbEntity
  8
0
370
              -2
390
0
  6
Continuous
 62
               0
100
AcDbHatch
 10
0.0
 20
0.0
 30
0.0
210
0.0
220
0.0
230
1.0
  2
SOLID
 70
               1
 71
               1
 91
        1
 92
        1
 93
        1
 72
               2
 10
448.10922391580857
 20
-1034.9999999999975
 40
1.9998779296875
 50
0.0
 51
360.0
 73
               0
 97
        1
330
15A
 75
               0
 76
               1
 98
        1
 10
0.0
 20
0.0
  0
CIRCLE
  5
15C
102
{ACAD_REACTORS
330
15D
102
}
100
AcDbEntity
  8
0
370
              -2
390
0
  6
Continuous
 62
               0
100
AcDbCircle
 10
488.10922391580897
 20
-1034.9999999999975
 30
0.0
 40
1.9998779296875
  0
HATCH
  5
15D
100
AcDbEntity
  8
0
370
              -2
390
0
  6
Continuous
 62
               0
100
AcDbHatch
 10
0.0
 20
0.0
 30
0.0
210
0.0
220
0.0
230
1.0
  2
SOLID
 70
               1
 71
               1
 91
        1
 92
        1
 93
        1
 72
               2
 10
488.10922391580897
 20
-1034.9999999999975
 40
1.9998779296875
 50
0.0
 51
360.0
 73
               0
 97
        1
330
15C
 75
               0
 76
               1
 98
        1
 10
0.0
 20
0.0
  0
MTEXT
  5
15E
100
AcDbEntity
  8
0
390
0
 62
               0
100
AcDbMText
 10
452.2342239158088
 20
-1001.1223828124974
 30
0.0
 40
24.432617187500004
 41
0.0
 71
               1
 72
               1
  1
40
  7
ＭＳ ゴシック
 73
               1
 44
0.7828267384257843
  0
POINT
  5
15F
100
AcDbEntity
  8
Defpoints
370
               0
390
0
 62
               0
100
AcDbPoint
 10
488.10922391580897
 20
-929.99999999999739
 30
0.0
  0
POINT
  5
160
100
AcDbEntity
  8
Defpoints
370
               0
390
0
 62
               0
100
AcDbPoint
 10
448.10922391580857
 20
-929.99999999999739
 30
0.0
  0
POINT
  5
161
100
AcDbEntity
  8
Defpoints
370
               0
390
0
 62
               0
100
AcDbPoint
 10
448.10922391580857
 20
-1034.9999999999975
 30
0.0
  0
ENDBLK
  5
162
100
AcDbEntity
  8
notes
390
0
100
AcDbBlockEnd
  0
BLOCK
  5
163
100
AcDbEntity
  8
notes
390
0
100
AcDbBlockBegin
  2
*D22
 70
               1
 10
0.0
 20
0.0
 30
0.0
  3
*D22
  1

  0
LINE
  5
164
100
AcDbEntity
  8
0
370
              -2
390
0
  6
Continuous
 62
               0
100
AcDbLine
 10
-651.38189924298035
 20
-955.02711546506282
 30
0.0
 11
-651.38189924298035
 21
-1034.9999999999975
 31
0.0
  0
LINE
  5
165
100
AcDbEntity
  8
0
370
              -2
390
0
  6
Continuous
 62
               0
100
AcDbLine
 10
-521.38189924298081
 20
-960.02711546506259
 30
0.0
 11
-521.38189924298081
 21
-1034.9999999999975
 31
0.0
  0
LINE
  5
166
100
AcDbEntity
  8
0
370
              -2
390
0
  6
Continuous
 62
               0
100
AcDbLine
 10
-651.38189924298035
 20
-1034.9999999999975
 30
0.0
 11
-521.38189924298081
 21
-1034.9999999999975
 31
0.0
  0
CIRCLE
  5
167
102
{ACAD_REACTORS
330
168
102
}
100
AcDbEntity
  8
0
370
              -2
390
0
  6
Continuous
 62
               0
100
AcDbCircle
 10
-651.38189924298035
 20
-1034.9999999999975
 30
0.0
 40
1.9998779296875
  0
HATCH
  5
168
100
AcDbEntity
  8
0
370
              -2
390
0
  6
Continuous
 62
               0
100
AcDbHatch
 10
0.0
 20
0.0
 30
0.0
210
0.0
220
0.0
230
1.0
  2
SOLID
 70
               1
 71
               1
 91
        1
 92
        1
 93
        1
 72
               2
 10
-651.38189924298035
 20
-1034.9999999999975
 40
1.9998779296875
 50
0.0
 51
360.0
 73
               0
 97
        1
330
167
 75
               0
 76
               1
 98
        1
 10
0.0
 20
0.0
  0
CIRCLE
  5
169
102
{ACAD_REACTORS
330
16A
102
}
100
AcDbEntity
  8
0
370
              -2
390
0
  6
Continuous
 62
               0
100
AcDbCircle
 10
-521.38189924298081
 20
-1034.9999999999975
 30
0.0
 40
1.9998779296875
  0
HATCH
  5
16A
100
AcDbEntity
  8
0
370
              -2
390
0
  6
Continuous
 62
               0
100
AcDbHatch
 10
0.0
 20
0.0
 30
0.0
210
0.0
220
0.0
230
1.0
  2
SOLID
 70
               1
 71
               1
 91
        1
 92
        1
 93
        1
 72
               2
 10
-521.38189924298081
 20
-1034.9999999999975
 40
1.9998779296875
 50
0.0
 51
360.0
 73
               0
 97
        1
330
169
 75
               0
 76
               1
 98
        1
 10
0.0
 20
0.0
  0
MTEXT
  5
16B
100
AcDbEntity
  8
0
390
0
 62
               0
100
AcDbMText
 10
-610.19440092515606
 20
-1001.1223828124974
 30
0.0
 40
24.432617187500004
 41
0.0
 71
               1
 72
               1
  1
130
  7
ＭＳ ゴシック
 73
               1
 44
0.7828267384257843
  0
POINT
  5
16C
100
AcDbEntity
  8
Defpoints
370
               0
390
0
 62
               0
100
AcDbPoint
 10
-521.38189924298081
 20
-935.02711546506259
 30
0.0
  0
POINT
  5
16D
100
AcDbEntity
  8
Defpoints
370
               0
390
0
 62
               0
100
AcDbPoint
 10
-651.38189924298035
 20
-930.02711546506282
 30
0.0
  0
POINT
  5
16E
100
AcDbEntity
  8
Defpoints
370
               0
390
0
 62
               0
100
AcDbPoint
 10
-651.38189924298035
 20
-1034.9999999999975
 30
0.0
  0
ENDBLK
  5
16F
100
AcDbEntity
  8
notes
390
0
100
AcDbBlockEnd
  0
BLOCK
  5
170
100
AcDbEntity
  8
notes
390
0
100
AcDbBlockBegin
  2
*D23
 70
               1
 10
0.0
 20
0.0
 30
0.0
  3
*D23
  1

  0
LINE
  5
171
100
AcDbEntity
  8
0
370
              -2
390
0
  6
Continuous
 62
               0
100
AcDbLine
 10
-521.38189924298069
 20
-960.23586844589511
 30
0.0
 11
-521.38189924298069
 21
-1035.0271154650627
 31
0.0
  0
LINE
  5
172
100
AcDbEntity
  8
0
370
              -2
390
0
  6
Continuous
 62
               0
100
AcDbLine
 10
-176.38189924298075
 20
-960.23586844589511
 30
0.0
 11
-176.38189924298075
 21
-1035.0271154650627
 31
0.0
  0
LINE
  5
173
100
AcDbEntity
  8
0
370
              -2
390
0
  6
Continuous
 62
               0
100
AcDbLine
 10
-521.38189924298069
 20
-1035.0271154650627
 30
0.0
 11
-176.38189924298075
 21
-1035.0271154650627
 31
0.0
  0
CIRCLE
  5
174
102
{ACAD_REACTORS
330
175
102
}
100
AcDbEntity
  8
0
370
              -2
390
0
  6
Continuous
 62
               0
100
AcDbCircle
 10
-521.38189924298069
 20
-1035.0271154650627
 30
0.0
 40
1.9998779296875
  0
HATCH
  5
175
100
AcDbEntity
  8
0
370
              -2
390
0
  6
Continuous
 62
               0
100
AcDbHatch
 10
0.0
 20
0.0
 30
0.0
210
0.0
220
0.0
230
1.0
  2
SOLID
 70
               1
 71
               1
 91
        1
 92
        1
 93
        1
 72
               2
 10
-521.38189924298069
 20
-1035.0271154650627
 40
1.9998779296875
 50
0.0
 51
360.0
 73
               0
 97
        1
330
174
 75
               0
 76
               1
 98
        1
 10
0.0
 20
0.0
  0
CIRCLE
  5
176
102
{ACAD_REACTORS
330
177
102
}
100
AcDbEntity
  8
0
370
              -2
390
0
  6
Continuous
 62
               0
100
AcDbCircle
 10
-176.38189924298075
 20
-1035.0271154650627
 30
0.0
 40
1.9998779296875
  0
HATCH
  5
177
100
AcDbEntity
  8
0
370
              -2
390
0
  6
Continuous
 62
               0
100
AcDbHatch
 10
0.0
 20
0.0
 30
0.0
210
0.0
220
0.0
230
1.0
  2
SOLID
 70
               1
 71
               1
 91
        1
 92
        1
 93
        1
 72
               2
 10
-176.38189924298075
 20
-1035.0271154650627
 40
1.9998779296875
 50
0.0
 51
360.0
 73
               0
 97
        1
330
176
 75
               0
 76
               1
 98
        1
 10
0.0
 20
0.0
  0
MTEXT
  5
178
100
AcDbEntity
  8
0
390
0
 62
               0
100
AcDbMText
 10
-372.69440092515623
 20
-1001.1494982775627
 30
0.0
 40
24.432617187500004
 41
0.0
 71
               1
 72
               1
  1
345
  7
ＭＳ ゴシック
 73
               1
 44
0.7828267384257843
  0
POINT
  5
179
100
AcDbEntity
  8
Defpoints
370
               0
390
0
 62
               0
100
AcDbPoint
 10
-176.38189924298075
 20
-935.23586844589511
 30
0.0
  0
POINT
  5
17A
100
AcDbEntity
  8
Defpoints
370
               0
390
0
 62
               0
100
AcDbPoint
 10
-521.38189924298069
 20
-935.23586844589511
 30
0.0
  0
POINT
  5
17B
100
AcDbEntity
  8
Defpoints
370
               0
390
0
 62
               0
100
AcDbPoint
 10
-521.38189924298069
 20
-1035.0271154650627
 30
0.0
  0
ENDBLK
  5
17C
100
AcDbEntity
  8
notes
390
0
100
AcDbBlockEnd
  0
BLOCK
  5
17D
100
AcDbEntity
  8
notes
390
0
100
AcDbBlockBegin
  2
*D24
 70
               1
 10
0.0
 20
0.0
 30
0.0
  3
*D24
  1

  0
LINE
  5
17E
100
AcDbEntity
  8
0
370
              -2
390
0
  6
Continuous
 62
               0
100
AcDbLine
 10
658.10922391580766
 20
-34.999999999998778
 30
0.0
 11
737.86871140928747
 21
-34.999999999998778
 31
0.0
  0
LINE
  5
17F
100
AcDbEntity
  8
0
370
              -2
390
0
  6
Continuous
 62
               0
100
AcDbLine
 10
658.10922391580721
 20
-835.0
 30
0.0
 11
737.86871140928747
 21
-835.0
 31
0.0
  0
LINE
  5
180
100
AcDbEntity
  8
0
370
              -2
390
0
  6
Continuous
 62
               0
100
AcDbLine
 10
737.86871140928747
 20
-34.999999999998778
 30
0.0
 11
737.86871140928747
 21
-835.0
 31
0.0
  0
CIRCLE
  5
181
102
{ACAD_REACTORS
330
182
102
}
100
AcDbEntity
  8
0
370
              -2
390
0
  6
Continuous
 62
               0
100
AcDbCircle
 10
737.86871140928747
 20
-34.999999999998778
 30
0.0
 40
1.9998779296875
  0
HATCH
  5
182
100
AcDbEntity
  8
0
370
              -2
390
0
  6
Continuous
 62
               0
100
AcDbHatch
 10
0.0
 20
0.0
 30
0.0
210
0.0
220
0.0
230
1.0
  2
SOLID
 70
               1
 71
               1
 91
        1
 92
        1
 93
        1
 72
               2
 10
737.86871140928747
 20
-34.999999999998778
 40
1.9998779296875
 50
0.0
 51
360.0
 73
               0
 97
        1
330
181
 75
               0
 76
               1
 98
        1
 10
0.0
 20
0.0
  0
CIRCLE
  5
183
102
{ACAD_REACTORS
330
184
102
}
100
AcDbEntity
  8
0
370
              -2
390
0
  6
Continuous
 62
               0
100
AcDbCircle
 10
737.86871140928747
 20
-835.0
 30
0.0
 40
1.9998779296875
  0
HATCH
  5
184
100
AcDbEntity
  8
0
370
              -2
390
0
  6
Continuous
 62
               0
100
AcDbHatch
 10
0.0
 20
0.0
 30
0.0
210
0.0
220
0.0
230
1.0
  2
SOLID
 70
               1
 71
               1
 91
        1
 92
        1
 93
        1
 72
               2
 10
737.86871140928747
 20
-835.0
 40
1.9998779296875
 50
0.0
 51
360.0
 73
               0
 97
        1
330
183
 75
               0
 76
               1
 98
        1
 10
0.0
 20
0.0
  0
MTEXT
  5
185
100
AcDbEntity
  8
0
390
0
 62
               0
100
AcDbMText
 10
703.99109422178742
 20
-458.81250168217491
 30
0.0
 40
24.432617187500004
 41
0.0
 71
               1
 72
               1
  1
800
  7
ＭＳ ゴシック
 11
0.0
 21
1.0
 31
0.0
 73
               1
 44
0.7828267384257843
  0
POINT
  5
186
100
AcDbEntity
  8
Defpoints
370
               0
390
0
 62
               0
100
AcDbPoint
 10
633.10922391580721
 20
-835.0
 30
0.0
  0
POINT
  5
187
100
AcDbEntity
  8
Defpoints
370
               0
390
0
 62
               0
100
AcDbPoint
 10
633.10922391580766
 20
-34.999999999998778
 30
0.0
  0
POINT
  5
188
100
AcDbEntity
  8
Defpoints
370
               0
390
0
 62
               0
100
AcDbPoint
 10
737.86871140928747
 20
-34.999999999998778
 30
0.0
  0
ENDBLK
  5
189
100
AcDbEntity
  8
notes
390
0
100
AcDbBlockEnd
  0
BLOCK
  5
18A
100
AcDbEntity
  8
notes
390
0
100
AcDbBlockBegin
  2
*D25
 70
               1
 10
0.0
 20
0.0
 30
0.0
  3
*D25
  1

  0
LINE
  5
18B
100
AcDbEntity
  8
0
370
              -2
390
0
  6
Continuous
 62
               0
100
AcDbLine
 10
448.19350624253991
 20
501.01350058849391
 30
0.0
 11
448.19350624253991
 21
423.51350058849391
 31
0.0
  0
LINE
  5
18C
100
AcDbEntity
  8
0
370
              -2
390
0
  6
Continuous
 62
               0
100
AcDbLine
 10
543.19350624253991
 20
501.01350058849391
 30
0.0
 11
543.19350624253991
 21
423.51350058849391
 31
0.0
  0
LINE
  5
18D
100
AcDbEntity
  8
0
370
              -2
390
0
  6
Continuous
 62
               0
100
AcDbLine
 10
448.19350624253991
 20
423.51350058849391
 30
0.0
 11
543.19350624253991
 21
423.51350058849391
 31
0.0
  0
CIRCLE
  5
18E
102
{ACAD_REACTORS
330
18F
102
}
100
AcDbEntity
  8
0
370
              -2
390
0
  6
Continuous
 62
               0
100
AcDbCircle
 10
448.19350624253991
 20
423.51350058849391
 30
0.0
 40
1.9998779296875
  0
HATCH
  5
18F
100
AcDbEntity
  8
0
370
              -2
390
0
  6
Continuous
 62
               0
100
AcDbHatch
 10
0.0
 20
0.0
 30
0.0
210
0.0
220
0.0
230
1.0
  2
SOLID
 70
               1
 71
               1
 91
        1
 92
        1
 93
        1
 72
               2
 10
448.19350624253991
 20
423.51350058849391
 40
1.9998779296875
 50
0.0
 51
360.0
 73
               0
 97
        1
330
18E
 75
               0
 76
               1
 98
        1
 10
0.0
 20
0.0
  0
CIRCLE
  5
190
102
{ACAD_REACTORS
330
191
102
}
100
AcDbEntity
  8
0
370
              -2
390
0
  6
Continuous
 62
               0
100
AcDbCircle
 10
543.19350624253991
 20
423.51350058849391
 30
0.0
 40
1.9998779296875
  0
HATCH
  5
191
100
AcDbEntity
  8
0
370
              -2
390
0
  6
Continuous
 62
               0
100
AcDbHatch
 10
0.0
 20
0.0
 30
0.0
210
0.0
220
0.0
230
1.0
  2
SOLID
 70
               1
 71
               1
 91
        1
 92
        1
 93
        1
 72
               2
 10
543.19350624253991
 20
423.51350058849391
 40
1.9998779296875
 50
0.0
 51
360.0
 73
               0
 97
        1
330
190
 75
               0
 76
               1
 98
        1
 10
0.0
 20
0.0
  0
MTEXT
  5
192
100
AcDbEntity
  8
0
390
0
 62
               0
100
AcDbMText
 10
479.81850624253991
 20
457.39111777599385
 30
0.0
 40
24.432617187500004
 41
0.0
 71
               1
 72
               1
  1
95
  7
ＭＳ ゴシック
 73
               1
 44
0.7828267384257843
  0
POINT
  5
193
100
AcDbEntity
  8
Defpoints
370
               0
390
0
 62
               0
100
AcDbPoint
 10
543.19350624253991
 20
526.01350058849391
 30
0.0
  0
POINT
  5
194
100
AcDbEntity
  8
Defpoints
370
               0
390
0
 62
               0
100
AcDbPoint
 10
448.19350624253991
 20
526.01350058849391
 30
0.0
  0
POINT
  5
195
100
AcDbEntity
  8
Defpoints
370
               0
390
0
 62
               0
100
AcDbPoint
 10
448.19350624253991
 20
423.51350058849391
 30
0.0
  0
ENDBLK
  5
196
100
AcDbEntity
  8
notes
390
0
100
AcDbBlockEnd
  0
BLOCK
  5
197
100
AcDbEntity
  8
notes
390
0
100
AcDbBlockBegin
  2
*D26
 70
               1
 10
0.0
 20
0.0
 30
0.0
  3
*D26
  1

  0
LINE
  5
198
100
AcDbEntity
  8
0
370
              -2
390
0
  6
Continuous
 62
               0
100
AcDbLine
 10
543.19350624253991
 20
501.01350058849391
 30
0.0
 11
543.19350624253991
 21
423.51350058849391
 31
0.0
  0
LINE
  5
199
100
AcDbEntity
  8
0
370
              -2
390
0
  6
Continuous
 62
               0
100
AcDbLine
 10
638.19350624253991
 20
588.36039429252503
 30
0.0
 11
638.19350624253991
 21
423.51350058849391
 31
0.0
  0
LINE
  5
19A
100
AcDbEntity
  8
0
370
              -2
390
0
  6
Continuous
 62
               0
100
AcDbLine
 10
543.19350624253991
 20
423.51350058849391
 30
0.0
 11
638.19350624253991
 21
423.51350058849391
 31
0.0
  0
CIRCLE
  5
19B
102
{ACAD_REACTORS
330
19C
102
}
100
AcDbEntity
  8
0
370
              -2
390
0
  6
Continuous
 62
               0
100
AcDbCircle
 10
543.19350624253991
 20
423.51350058849391
 30
0.0
 40
1.9998779296875
  0
HATCH
  5
19C
100
AcDbEntity
  8
0
370
              -2
390
0
  6
Continuous
 62
               0
100
AcDbHatch
 10
0.0
 20
0.0
 30
0.0
210
0.0
220
0.0
230
1.0
  2
SOLID
 70
               1
 71
               1
 91
        1
 92
        1
 93
        1
 72
               2
 10
543.19350624253991
 20
423.51350058849391
 40
1.9998779296875
 50
0.0
 51
360.0
 73
               0
 97
        1
330
19B
 75
               0
 76
               1
 98
        1
 10
0.0
 20
0.0
  0
CIRCLE
  5
19D
102
{ACAD_REACTORS
330
19E
102
}
100
AcDbEntity
  8
0
370
              -2
390
0
  6
Continuous
 62
               0
100
AcDbCircle
 10
638.19350624253991
 20
423.51350058849391
 30
0.0
 40
1.9998779296875
  0
HATCH
  5
19E
100
AcDbEntity
  8
0
370
              -2
390
0
  6
Continuous
 62
               0
100
AcDbHatch
 10
0.0
 20
0.0
 30
0.0
210
0.0
220
0.0
230
1.0
  2
SOLID
 70
               1
 71
               1
 91
        1
 92
        1
 93
        1
 72
               2
 10
638.19350624253991
 20
423.51350058849391
 40
1.9998779296875
 50
0.0
 51
360.0
 73
               0
 97
        1
330
19D
 75
               0
 76
               1
 98
        1
 10
0.0
 20
0.0
  0
MTEXT
  5
19F
100
AcDbEntity
  8
0
390
0
 62
               0
100
AcDbMText
 10
574.81850624253991
 20
457.39111777599385
 30
0.0
 40
24.432617187500004
 41
0.0
 71
               1
 72
               1
  1
95
  7
ＭＳ ゴシック
 73
               1
 44
0.7828267384257843
  0
POINT
  5
1A0
100
AcDbEntity
  8
Defpoints
370
               0
390
0
 62
               0
100
AcDbPoint
 10
638.19350624253991
 20
613.36039429252503
 30
0.0
  0
POINT
  5
1A1
100
AcDbEntity
  8
Defpoints
370
               0
390
0
 62
               0
100
AcDbPoint
 10
543.19350624253991
 20
526.01350058849391
 30
0.0
  0
POINT
  5
1A2
100
AcDbEntity
  8
Defpoints
370
               0
390
0
 62
               0
100
AcDbPoint
 10
543.19350624253991
 20
423.51350058849391
 30
0.0
  0
ENDBLK
  5
1A3
100
AcDbEntity
  8
notes
390
0
100
AcDbBlockEnd
  0
BLOCK
  5
1A4
100
AcDbEntity
  8
notes
390
0
100
AcDbBlockBegin
  2
*D27
 70
               1
 10
0.0
 20
0.0
 30
0.0
  3
*D27
  1

  0
LINE
  5
1A5
100
AcDbEntity
  8
0
370
              -2
390
0
  6
Continuous
 62
               0
100
AcDbLine
 10
426.19350624253991
 20
1023.5135005884935
 30
0.0
 11
348.19350624253991
 21
1023.5135005884935
 31
0.0
  0
LINE
  5
1A6
100
AcDbEntity
  8
0
370
              -2
390
0
  6
Continuous
 62
               0
100
AcDbLine
 10
423.24450865350207
 20
958.55441174232817
 30
0.0
 11
348.19350624253991
 21
958.55441174232817
 31
0.0
  0
LINE
  5
1A7
100
AcDbEntity
  8
0
370
              -2
390
0
  6
Continuous
 62
               0
100
AcDbLine
 10
348.19350624253991
 20
1023.5135005884935
 30
0.0
 11
348.19350624253991
 21
958.55441174232817
 31
0.0
  0
CIRCLE
  5
1A8
102
{ACAD_REACTORS
330
1A9
102
}
100
AcDbEntity
  8
0
370
              -2
390
0
  6
Continuous
 62
               0
100
AcDbCircle
 10
348.19350624253991
 20
1023.5135005884935
 30
0.0
 40
1.9998779296875
  0
HATCH
  5
1A9
100
AcDbEntity
  8
0
370
              -2
390
0
  6
Continuous
 62
               0
100
AcDbHatch
 10
0.0
 20
0.0
 30
0.0
210
0.0
220
0.0
230
1.0
  2
SOLID
 70
               1
 71
               1
 91
        1
 92
        1
 93
        1
 72
               2
 10
348.19350624253991
 20
1023.5135005884935
 40
1.9998779296875
 50
0.0
 51
360.0
 73
               0
 97
        1
330
1A8
 75
               0
 76
               1
 98
        1
 10
0.0
 20
0.0
  0
CIRCLE
  5
1AA
102
{ACAD_REACTORS
330
1AB
102
}
100
AcDbEntity
  8
0
370
              -2
390
0
  6
Continuous
 62
               0
100
AcDbCircle
 10
348.19350624253991
 20
958.55441174232817
 30
0.0
 40
1.9998779296875
  0
HATCH
  5
1AB
100
AcDbEntity
  8
0
370
              -2
390
0
  6
Continuous
 62
               0
100
AcDbHatch
 10
0.0
 20
0.0
 30
0.0
210
0.0
220
0.0
230
1.0
  2
SOLID
 70
               1
 71
               1
 91
        1
 92
        1
 93
        1
 72
               2
 10
348.19350624253991
 20
958.55441174232817
 40
1.9998779296875
 50
0.0
 51
360.0
 73
               0
 97
        1
330
1AA
 75
               0
 76
               1
 98
        1
 10
0.0
 20
0.0
  0
MTEXT
  5
1AC
100
AcDbEntity
  8
0
390
0
 62
               0
100
AcDbMText
 10
314.31588905503992
 20
975.15895616541081
 30
0.0
 40
24.432617187500004
 41
0.0
 71
               1
 72
               1
  1
65
  7
ＭＳ ゴシック
 11
0.0
 21
1.0
 31
0.0
 73
               1
 44
0.7828267384257843
  0
POINT
  5
1AD
100
AcDbEntity
  8
Defpoints
370
               0
390
0
 62
               0
100
AcDbPoint
 10
448.24450865350207
 20
958.55441174232817
 30
0.0
  0
POINT
  5
1AE
100
AcDbEntity
  8
Defpoints
370
               0
390
0
 62
               0
100
AcDbPoint
 10
451.19350624253991
 20
1023.5135005884935
 30
0.0
  0
POINT
  5
1AF
100
AcDbEntity
  8
Defpoints
370
               0
390
0
 62
               0
100
AcDbPoint
 10
348.19350624253991
 20
1023.5135005884935
 30
0.0
  0
ENDBLK
  5
1B0
100
AcDbEntity
  8
notes
390
0
100
AcDbBlockEnd
  0
BLOCK
  5
1B1
100
AcDbEntity
  8
notes
390
0
100
AcDbBlockBegin
  2
*D28
 70
               1
 10
0.0
 20
0.0
 30
0.0
  3
*D28
  1

  0
LINE
  5
1B2
100
AcDbEntity
  8
0
370
              -2
390
0
  6
Continuous
 62
               0
100
AcDbLine
 10
659.19350624253991
 20
1023.5135005884935
 30
0.0
 11
738.19350623959133
 21
1023.5135005884935
 31
0.0
  0
LINE
  5
1B3
100
AcDbEntity
  8
0
370
              -2
390
0
  6
Continuous
 62
               0
100
AcDbLine
 10
663.10922391580868
 20
823.51350058849346
 30
0.0
 11
738.19350623959133
 21
823.51350058849346
 31
0.0
  0
LINE
  5
1B4
100
AcDbEntity
  8
0
370
              -2
390
0
  6
Continuous
 62
               0
100
AcDbLine
 10
738.19350623959133
 20
1023.5135005884935
 30
0.0
 11
738.19350623959133
 21
823.51350058849346
 31
0.0
  0
CIRCLE
  5
1B5
102
{ACAD_REACTORS
330
1B6
102
}
100
AcDbEntity
  8
0
370
              -2
390
0
  6
Continuous
 62
               0
100
AcDbCircle
 10
738.19350623959133
 20
1023.5135005884935
 30
0.0
 40
1.9998779296875
  0
HATCH
  5
1B6
100
AcDbEntity
  8
0
370
              -2
390
0
  6
Continuous
 62
               0
100
AcDbHatch
 10
0.0
 20
0.0
 30
0.0
210
0.0
220
0.0
230
1.0
  2
SOLID
 70
               1
 71
               1
 91
        1
 92
        1
 93
        1
 72
               2
 10
738.19350623959133
 20
1023.5135005884935
 40
1.9998779296875
 50
0.0
 51
360.0
 73
               0
 97
        1
330
1B5
 75
               0
 76
               1
 98
        1
 10
0.0
 20
0.0
  0
CIRCLE
  5
1B7
102
{ACAD_REACTORS
330
1B8
102
}
100
AcDbEntity
  8
0
370
              -2
390
0
  6
Continuous
 62
               0
100
AcDbCircle
 10
738.19350623959133
 20
823.51350058849346
 30
0.0
 40
1.9998779296875
  0
HATCH
  5
1B8
100
AcDbEntity
  8
0
370
              -2
390
0
  6
Continuous
 62
               0
100
AcDbHatch
 10
0.0
 20
0.0
 30
0.0
210
0.0
220
0.0
230
1.0
  2
SOLID
 70
               1
 71
               1
 91
        1
 92
        1
 93
        1
 72
               2
 10
738.19350623959133
 20
823.51350058849346
 40
1.9998779296875
 50
0.0
 51
360.0
 73
               0
 97
        1
330
1B7
 75
               0
 76
               1
 98
        1
 10
0.0
 20
0.0
  0
MTEXT
  5
1B9
100
AcDbEntity
  8
0
390
0
 62
               0
100
AcDbMText
 10
704.31588905209128
 20
899.70099890631798
 30
0.0
 40
24.432617187500004
 41
0.0
 71
               1
 72
               1
  1
200
  7
ＭＳ ゴシック
 11
0.0
 21
1.0
 31
0.0
 73
               1
 44
0.7828267384257843
  0
POINT
  5
1BA
100
AcDbEntity
  8
Defpoints
370
               0
390
0
 62
               0
100
AcDbPoint
 10
638.10922391580868
 20
823.51350058849346
 30
0.0
  0
POINT
  5
1BB
100
AcDbEntity
  8
Defpoints
370
               0
390
0
 62
               0
100
AcDbPoint
 10
634.19350624253991
 20
1023.5135005884935
 30
0.0
  0
POINT
  5
1BC
100
AcDbEntity
  8
Defpoints
370
               0
390
0
 62
               0
100
AcDbPoint
 10
738.19350623959133
 20
1023.5135005884935
 30
0.0
  0
ENDBLK
  5
1BD
100
AcDbEntity
  8
notes
390
0
100
AcDbBlockEnd
  0
BLOCK
  5
1BE
100
AcDbEntity
  8
notes
390
0
100
AcDbBlockBegin
  2
*D29
 70
               1
 10
0.0
 20
0.0
 30
0.0
  3
*D29
  1

  0
LINE
  5
1BF
100
AcDbEntity
  8
0
370
              -2
390
0
  6
Continuous
 62
               0
100
AcDbLine
 10
448.2618012616748
 20
786.9467956765892
 30
0.0
 11
448.2618012616748
 21
806.03732124449391
 31
0.0
  0
LINE
  5
1C0
100
AcDbEntity
  8
0
370
              -2
390
0
  6
Continuous
 62
               0
100
AcDbLine
 10
588.2618012616748
 20
786.90922206198627
 30
0.0
 11
588.2618012616748
 21
806.03732124449391
 31
0.0
  0
LINE
  5
1C1
100
AcDbEntity
  8
0
370
              -2
390
0
  6
Continuous
 62
               0
100
AcDbLine
 10
448.2618012616748
 20
806.03732124449391
 30
0.0
 11
295.92875712261855
 21
806.03732124449391
 31
0.0
  0
LINE
  5
1C2
100
AcDbEntity
  8
0
370
              -2
390
0
  6
Continuous
 62
               0
100
AcDbLine
 10
448.2618012616748
 20
806.03732124449391
 30
0.0
 11
588.2618012616748
 21
806.03732124449391
 31
0.0
  0
CIRCLE
  5
1C3
102
{ACAD_REACTORS
330
1C4
102
}
100
AcDbEntity
  8
0
370
              -2
390
0
  6
Continuous
 62
               0
100
AcDbCircle
 10
448.2618012616748
 20
806.03732124449391
 30
0.0
 40
1.9998779296875
  0
HATCH
  5
1C4
100
AcDbEntity
  8
0
370
              -2
390
0
  6
Continuous
 62
               0
100
AcDbHatch
 10
0.0
 20
0.0
 30
0.0
210
0.0
220
0.0
230
1.0
  2
SOLID
 70
               1
 71
               1
 91
        1
 92
        1
 93
        1
 72
               2
 10
448.2618012616748
 20
806.03732124449391
 40
1.9998779296875
 50
0.0
 51
360.0
 73
               0
 97
        1
330
1C3
 75
               0
 76
               1
 98
        1
 10
0.0
 20
0.0
  0
CIRCLE
  5
1C5
102
{ACAD_REACTORS
330
1C6
102
}
100
AcDbEntity
  8
0
370
              -2
390
0
  6
Continuous
 62
               0
100
AcDbCircle
 10
588.2618012616748
 20
806.03732124449391
 30
0.0
 40
1.9998779296875
  0
HATCH
  5
1C6
100
AcDbEntity
  8
0
370
              -2
390
0
  6
Continuous
 62
               0
100
AcDbHatch
 10
0.0
 20
0.0
 30
0.0
210
0.0
220
0.0
230
1.0
  2
SOLID
 70
               1
 71
               1
 91
        1
 92
        1
 93
        1
 72
               2
 10
588.2618012616748
 20
806.03732124449391
 40
1.9998779296875
 50
0.0
 51
360.0
 73
               0
 97
        1
330
1C5
 75
               0
 76
               1
 98
        1
 10
0.0
 20
0.0
  0
MTEXT
  5
1C7
100
AcDbEntity
  8
0
390
0
 62
               0
100
AcDbMText
 10
295.92875712261855
 20
839.91493843199396
 30
0.0
 40
24.432617187500004
 41
0.0
 71
               1
 72
               1
  1
140(深さ)
  7
ＭＳ ゴシック
 73
               1
 44
0.7828267384257843
  0
POINT
  5
1C8
100
AcDbEntity
  8
Defpoints
370
               0
390
0
 62
               0
100
AcDbPoint
 10
588.2618012616748
 20
811.90922206198627
 30
0.0
  0
POINT
  5
1C9
100
AcDbEntity
  8
Defpoints
370
               0
390
0
 62
               0
100
AcDbPoint
 10
448.2618012616748
 20
811.9467956765892
 30
0.0
  0
POINT
  5
1CA
100
AcDbEntity
  8
Defpoints
370
               0
390
0
 62
               0
100
AcDbPoint
 10
448.2618012616748
 20
806.03732124449391
 30
0.0
  0
ENDBLK
  5
1CB
100
AcDbEntity
  8
notes
390
0
100
AcDbBlockEnd
  0
BLOCK
  5
1CC
100
AcDbEntity
  8
notes
390
0
100
AcDbBlockBegin
  2
*D30
 70
               1
 10
0.0
 20
0.0
 30
0.0
  3
*D30
  1

  0
LINE
  5
1CD
100
AcDbEntity
  8
0
370
              -2
390
0
  6
Continuous
 62
               0
100
AcDbLine
 10
659.19350624253946
 20
1023.5135005884937
 30
0.0
 11
788.19350623959133
 21
1023.5135005884937
 31
0.0
  0
LINE
  5
1CE
100
AcDbEntity
  8
0
370
              -2
390
0
  6
Continuous
 62
               0
100
AcDbLine
 10
659.19350624253946
 20
608.51350058849368
 30
0.0
 11
788.19350623959133
 21
608.51350058849368
 31
0.0
  0
LINE
  5
1CF
100
AcDbEntity
  8
0
370
              -2
390
0
  6
Continuous
 62
               0
100
AcDbLine
 10
788.19350623959133
 20
1023.5135005884937
 30
0.0
 11
788.19350623959133
 21
608.51350058849368
 31
0.0
  0
CIRCLE
  5
1D0
102
{ACAD_REACTORS
330
1D1
102
}
100
AcDbEntity
  8
0
370
              -2
390
0
  6
Continuous
 62
               0
100
AcDbCircle
 10
788.19350623959133
 20
1023.5135005884937
 30
0.0
 40
1.9998779296875
  0
HATCH
  5
1D1
100
AcDbEntity
  8
0
370
              -2
390
0
  6
Continuous
 62
               0
100
AcDbHatch
 10
0.0
 20
0.0
 30
0.0
210
0.0
220
0.0
230
1.0
  2
SOLID
 70
               1
 71
               1
 91
        1
 92
        1
 93
        1
 72
               2
 10
788.19350623959133
 20
1023.5135005884937
 40
1.9998779296875
 50
0.0
 51
360.0
 73
               0
 97
        1
330
1D0
 75
               0
 76
               1
 98
        1
 10
0.0
 20
0.0
  0
CIRCLE
  5
1D2
102
{ACAD_REACTORS
330
1D3
102
}
100
AcDbEntity
  8
0
370
              -2
390
0
  6
Continuous
 62
               0
100
AcDbCircle
 10
788.19350623959133
 20
608.51350058849368
 30
0.0
 40
1.9998779296875
  0
HATCH
  5
1D3
100
AcDbEntity
  8
0
370
              -2
390
0
  6
Continuous
 62
               0
100
AcDbHatch
 10
0.0
 20
0.0
 30
0.0
210
0.0
220
0.0
230
1.0
  2
SOLID
 70
               1
 71
               1
 91
        1
 92
        1
 93
        1
 72
               2
 10
788.19350623959133
 20
608.51350058849368
 40
1.9998779296875
 50
0.0
 51
360.0
 73
               0
 97
        1
330
1D2
 75
               0
 76
               1
 98
        1
 10
0.0
 20
0.0
  0
MTEXT
  5
1D4
100
AcDbEntity
  8
0
390
0
 62
               0
100
AcDbMText
 10
754.31588905209128
 20
792.2009989063182
 30
0.0
 40
24.432617187500004
 41
0.0
 71
               1
 72
               1
  1
415
  7
ＭＳ ゴシック
 11
0.0
 21
1.0
 31
0.0
 73
               1
 44
0.7828267384257843
  0
POINT
  5
1D5
100
AcDbEntity
  8
Defpoints
370
               0
390
0
 62
               0
100
AcDbPoint
 10
634.19350624253946
 20
608.51350058849368
 30
0.0
  0
POINT
  5
1D6
100
AcDbEntity
  8
Defpoints
370
               0
390
0
 62
               0
100
AcDbPoint
 10
634.19350624253946
 20
1023.5135005884937
 30
0.0
  0
POINT
  5
1D7
100
AcDbEntity
  8
Defpoints
370
               0
390
0
 62
               0
100
AcDbPoint
 10
788.19350623959133
 20
1023.5135005884937
 30
0.0
  0
ENDBLK
  5
1D8
100
AcDbEntity
  8
notes
390
0
100
AcDbBlockEnd
  0
BLOCK
  5
1D9
100
AcDbEntity
  8
ADF70-0001
390
0
100
AcDbBlockBegin
  2
グループ-1
 70
               0
 10
0.0
 20
0.0
 30
0.0
  3
グループ-1
  1

  0
LINE
  5
1DA
100
AcDbEntity
  8
0
370
              15
390
0
  6
STYLE_23
 62
               7
100
AcDbLine
 10
364.19896841548422
 20
-830.23463506314692
 30
0.0
 11
394.19896841548376
 21
-830.23463506314692
 31
0.0
  0
LINE
  5
1DB
100
AcDbEntity
  8
0
370
              15
390
0
  6
STYLE_23
 62
               7
100
AcDbLine
 10
364.19896841548422
 20
-720.23463506314692
 30
0.0
 11
394.19896841548376
 21
-720.23463506314692
 31
0.0
  0
LINE
  5
1DC
100
AcDbEntity
  8
0
370
              15
390
0
  6
STYLE_23
 62
               7
100
AcDbLine
 10
364.19896841548422
 20
-440.23463506314471
 30
0.0
 11
394.19896841548376
 21
-440.23463506314471
 31
0.0
  0
LINE
  5
1DD
100
AcDbEntity
  8
0
370
              15
390
0
  6
STYLE_23
 62
               7
100
AcDbLine
 10
364.19896841548422
 20
-330.23463506314471
 30
0.0
 11
394.19896841548376
 21
-330.23463506314471
 31
0.0
  0
ENDBLK
  5
1DE
100
AcDbEntity
  8
ADF70-0001
390
0
100
AcDbBlockEnd
  0
ENDSEC
  0
SECTION
  2
ENTITIES
  0
MTEXT
  5
1DF
100
AcDbEntity
  8
template
390
0
 62
               7
100
AcDbMText
 10
-967.99999999975921
 20
-1134.6535143187937
 30
0.0
 40
16.288411458333332
 41
0.0
 71
               1
 72
               1
  1
品名
  7
ＭＳ ゴシック
 73
               1
 44
0.7828267384257843
  0
MTEXT
  5
1E0
100
AcDbEntity
  8
template
390
0
 62
               7
100
AcDbMText
 10
-967.99999999975921
 20
-1219.6535143187937
 30
0.0
 40
16.288411458333332
 41
0.0
 71
               1
 72
               1
  1
仕様
  7
ＭＳ ゴシック
 73
               1
 44
0.7828267384257843
  0
MTEXT
  5
1E1
100
AcDbEntity
  8
template
390
0
 62
               7
100
AcDbMText
 10
-914.99999999975921
 20
-1163.2359752562938
 30
0.0
 40
24.432617187500004
 41
0.0
 71
               1
 72
               1
  1
洗面器 -CATALANO,Zero-
  7
ＭＳ ゴシック
 73
               1
 44
0.7828267384257843
  0
LINE
  5
1E2
100
AcDbEntity
  8
template
370
               5
390
0
  6
Continuous
 62
               7
100
AcDbLine
 10
974.99999999975876
 20
-1211.2385924437938
 30
0.0
 11
-975.00000000024124
 21
-1211.2385924437938
 31
0.0
  0
LWPOLYLINE
  5
1E3
100
AcDbEntity
  8
template
370
               5
390
0
  6
Continuous
 62
               7
100
AcDbPolyline
 90
        5
 70
             128
 10
975.00000000024124
 20
1418.7614075562062
 10
-974.99999999975921
 20
1418.7614075562062
 10
-974.99999999975921
 20
-1381.2385924437938
 10
975.00000000024124
 20
-1381.2385924437938
 10
975.00000000024124
 20
1418.7614075562062
  0
LINE
  5
1E4
100
AcDbEntity
  8
template
370
               5
390
0
  6
Continuous
 62
               7
100
AcDbLine
 10
974.99999999975876
 20
-1126.2385924437938
 30
0.0
 11
-975.00000000024124
 21
-1126.2385924437938
 31
0.0
  0
LINE
  5
1E5
100
AcDbEntity
  8
template
370
               5
390
0
  6
Continuous
 62
               7
100
AcDbLine
 10
975.00000000024124
 20
-1296.2385924437938
 30
0.0
 11
222.0000000002413
 21
-1296.2385924437938
 31
0.0
  0
MTEXT
  5
1E6
100
AcDbEntity
  8
template
390
0
 62
               7
100
AcDbMText
 10
-914.99999999975921
 20
-1248.2359752562938
 30
0.0
 40
24.432617187500004
 41
0.0
 71
               1
 72
               1
  1
壁掛け,カウンタ ー置き,半埋め込み/オーバーフロー付き/壁取付ボルト付属/\P陶器/ホワイト
  7
ＭＳ ゴシック
 73
               1
 44
1.1307497332816883
  0
MTEXT
  5
1E7
100
AcDbEntity
  8
template
390
0
 62
               7
100
AcDbMText
 10
-974.99999999955594
 20
-1393.0924145006506
 30
0.0
 40
21.717881944444446
 41
0.0
 71
               1
 72
               1
  1
100701HS
  7
ＭＳ ゴシック
 73
               1
 44
0.7828267384257843
  0
MTEXT
  5
1E8
100
AcDbEntity
  8
template
390
0
 62
               7
100
AcDbMText
 10
251.87140625250095
 20
-1326.1489869171014
 30
0.0
 40
24.432617187500004
 41
0.0
 71
               1
 72
               1
  1
大洋金物株式会社 ティーフォルム事業部
  7
ＭＳ ゴシック
 73
               1
 44
0.7828267384257843
  0
INSERT
  5
1E9
100
AcDbEntity
  8
template
390
0
 62
               7
100
AcDbBlockReference
  2
グループ
 10
108.94133543128123
 20
145.20772959594623
 30
0.0
  0
MTEXT
  5
1EA
100
AcDbEntity
  8
template
390
0
 62
               7
100
AcDbMText
 10
784.00000000049999
 20
-1248.2359752562938
 30
0.0
 40
24.432617187500004
 41
0.0
 71
               1
 72
               1
  1
1:10
  7
ＭＳ ゴシック
 73
               1
 44
0.7828267384257843
  0
MTEXT
  5
1EB
100
AcDbEntity
  8
template
390
0
 62
               7
100
AcDbMText
 10
731.00000000049999
 20
-1219.6535143187937
 30
0.0
 40
16.288411458333332
 41
0.0
 71
               1
 72
               1
  1
縮尺
  7
ＭＳ ゴシック
 73
               1
 44
0.7828267384257843
  0
LINE
  5
1EC
100
AcDbEntity
  8
template
370
               5
390
0
  6
Continuous
 62
               7
100
AcDbLine
 10
724.00000000049999
 20
-1296.2385924437938
 30
0.0
 11
724.00000000049999
 21
-1211.2385924437938
 31
0.0
  0
MTEXT
  5
1ED
100
AcDbEntity
  8
template
390
0
 62
               7
100
AcDbMText
 10
480.00000000049999
 20
-1219.6535143187937
 30
0.0
 40
16.288411458333332
 41
0.0
 71
               1
 72
               1
  1
容量
  7
ＭＳ ゴシック
 73
               1
 44
0.7828267384257843
  0
MTEXT
  5
1EE
100
AcDbEntity
  8
template
390
0
 62
               7
100
AcDbMText
 10
533.00000000049999
 20
-1248.2359752562938
 30
0.0
 40
24.432617187500004
 41
0.0
 71
               1
 72
               1
  1
21L
  7
ＭＳ ゴシック
 73
               1
 44
0.7828267384257843
  0
LINE
  5
1EF
100
AcDbEntity
  8
template
370
               5
390
0
  6
Continuous
 62
               7
100
AcDbLine
 10
473.00000000049999
 20
-1296.2385924437938
 30
0.0
 11
473.00000000049999
 21
-1211.2385924437938
 31
0.0
  0
MTEXT
  5
1F0
100
AcDbEntity
  8
template
390
0
 62
               7
100
AcDbMText
 10
229.00000000050005
 20
-1134.6535143187937
 30
0.0
 40
16.288411458333332
 41
0.0
 71
               1
 72
               1
  1
品番
  7
ＭＳ ゴシック
 73
               1
 44
0.7828267384257843
  0
MTEXT
  5
1F1
100
AcDbEntity
  8
template
390
0
 62
               7
100
AcDbMText
 10
229.00000000050005
 20
-1219.6535143187937
 30
0.0
 40
16.288411458333332
 41
0.0
 71
               1
 72
               1
  1
重量
  7
ＭＳ ゴシック
 73
               1
 44
0.7828267384257843
  0
MTEXT
  5
1F2
100
AcDbEntity
  8
template
390
0
 62
               7
100
AcDbMText
 10
282.00000000050005
 20
-1163.2359752562938
 30
0.0
 40
24.432617187500004
 41
0.0
 71
               1
 72
               1
  1
ADF70-0001
  7
ＭＳ ゴシック
 73
               1
 44
0.7828267384257843
  0
MTEXT
  5
1F3
100
AcDbEntity
  8
template
390
0
 62
               7
100
AcDbMText
 10
282.00000000050005
 20
-1248.2359752562938
 30
0.0
 40
24.432617187500004
 41
0.0
 71
               1
 72
               1
  1
35kg
  7
ＭＳ ゴシック
 73
               1
 44
0.7828267384257843
  0
LINE
  5
1F4
100
AcDbEntity
  8
template
370
               5
390
0
  6
Continuous
 62
               7
100
AcDbLine
 10
222.00000000050005
 20
-1381.2385924437938
 30
0.0
 11
222.00000000050005
 21
-1126.2385924437938
 31
0.0
  0
LWPOLYLINE
  5
1F5
100
AcDbEntity
  8
template
370
               5
390
0
  6
Continuous
 62
               7
100
AcDbPolyline
 90
        5
 70
             128
 10
975.00000000024124
 20
1418.7614075562062
 10
-974.99999999975921
 20
1418.7614075562062
 10
-974.99999999975921
 20
-1381.2385924437938
 10
975.00000000024124
 20
-1381.2385924437938
 10
975.00000000024124
 20
1418.7614075562062
  0
MTEXT
  5
1F6
100
AcDbEntity
  8
notes
390
0
 62
               7
100
AcDbMText
 10
12.482200461015736
 20
-845.6585129525356
 30
0.0
 40
24.432617187500004
 41
842.88315656391467
 71
               1
 72
               1
  1
＝φ30もしくはφ35の水栓取付用穴あけ加工を承ります。\P   必要な場合、ご注文の際にご指示ください。
  7
ＭＳ ゴシック
 11
0.0
 21
1.0
 31
0.0
 73
               1
 44
1.0437689845677123
  0
MTEXT
  5
1F7
100
AcDbEntity
  8
notes
390
0
 62
               7
100
AcDbMText
 10
12.482200461015736
 20
388.50953650948554
 30
0.0
 40
24.432617187500004
 41
764.7717154610109
 71
               1
 72
               1
  1
※陶器製品には寸法公差があります。\P  洗面器の収め方をご確認の上、必ず現物を合わせて\P  カウンターに切込を行ってください。
  7
ＭＳ ゴシック
 11
0.0
 21
1.0
 31
0.0
 73
               1
 44
1.0437689845677123
  0
MTEXT
  5
1F8
100
AcDbEntity
  8
notes
390
0
 62
               7
100
AcDbMText
 10
358.70083698492056
 20
-103.55874802950368
 30
0.0
 40
24.432617187500004
 41
0.0
 71
               1
 72
               1
  1
壁取付ボルト穴(4ヶ所）
  7
ＭＳ ゴシック
 11
0.0
 21
1.0
 31
0.0
 73
               1
 44
0.7828267384257843
  0
MTEXT
  5
1F9
100
AcDbEntity
  8
notes
390
0
 62
               7
100
AcDbMText
 10
-863.55798783837997
 20
617.01772173158042
 30
0.0
 40
24.432617187500004
 41
0.0
 71
               1
 72
               1
  1
カウンター切込寸法
  7
ＭＳ ゴシック
 11
0.0
 21
1.0
 31
0.0
 73
               1
 44
0.7828267384257843
  0
MTEXT
  5
1FA
100
AcDbEntity
  8
notes
390
0
 62
               7
100
AcDbMText
 10
-786.04513814240988
 20
297.14798426804919
 30
0.0
 40
24.432617187500004
 41
0.0
 71
               1
 72
               1
  1
半埋め込み
  7
ＭＳ ゴシック
 11
0.0
 21
1.0
 31
0.0
 73
               1
 44
0.7828267384257843
  0
MTEXT
  5
1FB
100
AcDbEntity
  8
notes
390
0
 62
               7
100
AcDbMText
 10
-721.04513814240988
 20
405.42305960925046
 30
0.0
 40
24.432617187500004
 41
0.0
 71
               1
 72
               1
  1
カウンター置き
  7
ＭＳ ゴシック
 11
0.0
 21
1.0
 31
0.0
 73
               1
 44
0.7828267384257843
  0
MTEXT
  5
1FC
100
AcDbEntity
  8
notes
390
0
 62
               7
100
AcDbMText
 10
818.82739202322398
 20
-1011.4604146961702
 30
0.0
 40
24.432617187500004
 41
0.0
 71
               1
 72
               1
  1
半埋め込み
  7
ＭＳ ゴシック
 11
0.0
 21
1.0
 31
0.0
 73
               1
 44
0.7828267384257843
  0
MTEXT
  5
1FD
100
AcDbEntity
  8
notes
390
0
 62
               7
100
AcDbMText
 10
774.45892943706406
 20
-964.46041469617023
 30
0.0
 40
24.432617187500004
 41
0.0
 71
               1
 72
               1
  1
カウンター置き
  7
ＭＳ ゴシック
 11
0.0
 21
1.0
 31
0.0
 73
               1
 44
0.7828267384257843
  0
LINE
  5
1FE
100
AcDbEntity
  8
notes
370
               5
390
0
  6
Continuous
 62
               7
100
AcDbLine
 10
638.10922391580766
 20
-840.01874802950351
 30
0.0
 11
638.10922391580766
 21
-966.71874802950344
 31
0.0
  0
LINE
  5
1FF
100
AcDbEntity
  8
notes
370
               5
390
0
  6
Continuous
 62
               7
100
AcDbLine
 10
543.10922391580903
 20
-940.0187480295034
 30
0.0
 11
543.10922391580903
 21
-1016.7187480295034
 31
0.0
  0
LINE
  5
200
100
AcDbEntity
  8
notes
370
               5
390
0
  6
Continuous
 62
               7
100
AcDbLine
 10
543.10922391580903
 20
-991.71874802950344
 30
0.0
 11
808.80426209296024
 21
-991.71874802950344
 31
0.0
  0
LINE
  5
201
100
AcDbEntity
  8
notes
370
               5
390
0
  6
Continuous
 62
               7
100
AcDbLine
 10
638.10922391580766
 20
-941.71874802950367
 30
0.0
 11
770.80426209296024
 21
-941.71874802950367
 31
0.0
  0
DIMENSION
  5
202
100
AcDbEntity
  8
notes
370
               5
390
0
  6
Continuous
 62
               7
100
AcDbDimension
  2
*D4
 10
-51.257557170615712
 20
306.22768838228365
 30
0.0
 11
-51.257557170615712
 21
756.22768838228365
 31
0.0
 71
               5
 72
               1
 41
1.0
 42
0.0
  3
TformSENN
100
AcDbAlignedDimension
 13
-201.89396192799933
 23
1206.2276883822835
 33
0.0
 14
-201.89396192799933
 24
306.22768838228365
 34
0.0
 50
90.0
100
AcDbRotatedDimension
1001
ACAD
1000
DSTYLE
1002
{
1070
             279
1070
               2
1070
             340
1005
40
1070
             147
1040
5.0
1002
}
  0
DIMENSION
  5
203
100
AcDbEntity
  8
notes
370
               5
390
0
  6
Continuous
 62
               7
100
AcDbDimension
  2
*D5
 10
-651.38189924298035
 20
1306.739751067302
 30
0.0
 11
-446.8720953194603
 21
1311.739751067302
 31
0.0
 70
             128
 71
               5
 72
               1
 41
1.0
 42
0.0
  3
TformSENN
100
AcDbAlignedDimension
 13
-201.38189924298086
 23
1206.739751067302
 33
0.0
 14
-651.38189924298035
 24
1206.739751067302
 34
0.0
100
AcDbRotatedDimension
1001
ACAD
1000
DSTYLE
1002
{
1070
             279
1070
               2
1070
             340
1005
40
1070
             147
1040
5.0
1002
}
  0
DIMENSION
  5
204
100
AcDbEntity
  8
notes
370
               5
390
0
  6
Continuous
 62
               7
100
AcDbDimension
  2
*D6
 10
-301.39573790703986
 20
1106.2812519704964
 30
0.0
 11
-301.39573790703986
 21
756.28125197049656
 31
0.0
 71
               5
 72
               1
 41
1.0
 42
0.0
  3
TformSENN
100
AcDbAlignedDimension
 13
-401.39573790703986
 23
406.28125197049644
 33
0.0
 14
-401.39573790703986
 24
1106.2812519704964
 34
0.0
 50
90.0
100
AcDbRotatedDimension
1001
ACAD
1000
DSTYLE
1002
{
1070
             279
1070
               2
1070
             340
1005
40
1070
             147
1040
5.0
1002
}
  0
DIMENSION
  5
205
100
AcDbEntity
  8
notes
370
               5
390
0
  6
Continuous
 62
               7
100
AcDbDimension
  2
*D7
 10
-401.39573790703986
 20
1156.2812519704964
 30
0.0
 11
-526.3957379070398
 21
1156.2812519704964
 31
0.0
 71
               5
 72
               1
 41
1.0
 42
0.0
  3
TformSENN
100
AcDbAlignedDimension
 13
-651.3957379070398
 23
1106.2812519704964
 33
0.0
 14
-401.39573790703986
 24
1106.2812519704964
 34
0.0
100
AcDbRotatedDimension
1001
ACAD
1000
DSTYLE
1002
{
1070
             279
1070
               2
1070
             340
1005
40
1070
             147
1040
5.0
1002
}
  0
LINE
  5
206
100
AcDbEntity
  8
notes
370
               5
390
0
  6
Continuous
 62
               7
100
AcDbLine
 10
-651.89396192799927
 20
316.22768838228353
 30
0.0
 11
-745.19573790703976
 21
316.22768838228353
 31
0.0
  0
LINE
  5
207
100
AcDbEntity
  8
notes
370
               5
390
0
  6
Continuous
 62
               7
100
AcDbLine
 10
-651.3957379070398
 20
416.28125197049644
 30
0.0
 11
-685.19573790703976
 21
416.28125197049644
 31
0.0
  0
DIMENSION
  5
208
100
AcDbEntity
  8
notes
370
               5
390
0
  6
Continuous
 62
               7
100
AcDbDimension
  2
*D8
 10
-751.38189924298024
 20
-735.02690546720112
 30
0.0
 11
-751.38189924298024
 21
-685.02690546720089
 31
0.0
 71
               5
 72
               1
 41
1.0
 42
0.0
  3
TformSENN
100
AcDbAlignedDimension
 13
-652.02125826478459
 23
-635.02690546720078
 33
0.0
 14
-652.02125826478505
 24
-735.02690546720112
 34
0.0
 50
90.0
100
AcDbRotatedDimension
1001
ACAD
1000
DSTYLE
1002
{
1070
             279
1070
               2
1070
             340
1005
40
1070
             147
1040
5.0
1002
}
  0
DIMENSION
  5
209
100
AcDbEntity
  8
notes
370
               5
390
0
  6
Continuous
 62
               7
100
AcDbDimension
  2
*D9
 10
-751.38189924298024
 20
-635.02690546720078
 30
0.0
 11
-751.38189924298024
 21
-585.02690546720191
 31
0.0
 71
               5
 72
               1
 41
1.0
 42
0.0
  3
TformSENN
100
AcDbAlignedDimension
 13
-652.02125826478459
 23
-535.02690546720305
 33
0.0
 14
-652.02125826478459
 24
-635.02690546720078
 34
0.0
 50
90.0
100
AcDbRotatedDimension
1001
ACAD
1000
DSTYLE
1002
{
1070
             279
1070
               2
1070
             340
1005
40
1070
             147
1040
5.0
1002
}
  0
DIMENSION
  5
20A
100
AcDbEntity
  8
notes
370
               5
390
0
  6
Continuous
 62
               7
100
AcDbDimension
  2
*D10
 10
-751.38189924298035
 20
-535.02690546720305
 30
0.0
 11
-751.38189924298035
 21
-485.02690546720339
 31
0.0
 71
               5
 72
               1
 41
1.0
 42
0.0
  3
TformSENN
100
AcDbAlignedDimension
 13
-652.02125826478482
 23
-435.02690546720362
 33
0.0
 14
-652.02125826478459
 24
-535.02690546720305
 34
0.0
 50
90.0
100
AcDbRotatedDimension
1001
ACAD
1000
DSTYLE
1002
{
1070
             279
1070
               2
1070
             340
1005
40
1070
             147
1040
5.0
1002
}
  0
DIMENSION
  5
20B
100
AcDbEntity
  8
notes
370
               5
390
0
  6
Continuous
 62
               7
100
AcDbDimension
  2
*D11
 10
-751.38189924298035
 20
-435.02690546720362
 30
0.0
 11
-751.38189924298035
 21
-385.02690546720282
 31
0.0
 71
               5
 72
               1
 41
1.0
 42
0.0
  3
TformSENN
100
AcDbAlignedDimension
 13
-652.02125826478459
 23
-335.02690546720214
 33
0.0
 14
-652.02125826478482
 24
-435.02690546720362
 34
0.0
 50
90.0
100
AcDbRotatedDimension
1001
ACAD
1000
DSTYLE
1002
{
1070
             279
1070
               2
1070
             340
1005
40
1070
             147
1040
5.0
1002
}
  0
DIMENSION
  5
20C
100
AcDbEntity
  8
notes
370
               5
390
0
  6
Continuous
 62
               7
100
AcDbDimension
  2
*D12
 10
-751.38189924298024
 20
-335.02690546720214
 30
0.0
 11
-751.38189924298024
 21
-285.02690546720191
 31
0.0
 71
               5
 72
               1
 41
1.0
 42
0.0
  3
TformSENN
100
AcDbAlignedDimension
 13
-652.02125826478482
 23
-235.02690546720177
 33
0.0
 14
-652.02125826478459
 24
-335.02690546720214
 34
0.0
 50
90.0
100
AcDbRotatedDimension
1001
ACAD
1000
DSTYLE
1002
{
1070
             279
1070
               2
1070
             340
1005
40
1070
             147
1040
5.0
1002
}
  0
DIMENSION
  5
20D
100
AcDbEntity
  8
notes
370
               5
390
0
  6
Continuous
 62
               7
100
AcDbDimension
  2
*D13
 10
-751.38189924298035
 20
-235.02690546720177
 30
0.0
 11
-751.38189924298035
 21
-185.02690546720171
 31
0.0
 71
               5
 72
               1
 41
1.0
 42
0.0
  3
TformSENN
100
AcDbAlignedDimension
 13
-652.02125826478482
 23
-135.02690546720166
 33
0.0
 14
-652.02125826478482
 24
-235.02690546720177
 34
0.0
 50
90.0
100
AcDbRotatedDimension
1001
ACAD
1000
DSTYLE
1002
{
1070
             279
1070
               2
1070
             340
1005
40
1070
             147
1040
5.0
1002
}
  0
DIMENSION
  5
20E
100
AcDbEntity
  8
notes
370
               5
390
0
  6
Continuous
 62
               7
100
AcDbDimension
  2
*D14
 10
-801.38189924298035
 20
-935.02711546506259
 30
0.0
 11
-801.38189924298035
 21
-435.02711546506259
 31
0.0
 71
               5
 72
               1
 41
1.0
 42
0.0
  3
TformSENN
100
AcDbAlignedDimension
 13
-646.38189924298035
 23
64.972884534937293
 33
0.0
 14
-646.38189924298035
 24
-935.02711546506259
 34
0.0
 50
90.0
100
AcDbRotatedDimension
1001
ACAD
1000
DSTYLE
1002
{
1070
             279
1070
               2
1070
             340
1005
40
1070
             147
1040
5.0
1002
}
  0
DIMENSION
  5
20F
100
AcDbEntity
  8
notes
370
               5
390
0
  6
Continuous
 62
               7
100
AcDbDimension
  2
*D15
 10
448.10922391580868
 20
164.97288453493729
 30
0.0
 11
543.10922391580812
 21
164.97288453493729
 31
0.0
 71
               5
 72
               1
 41
1.0
 42
0.0
  3
TformSENN
100
AcDbAlignedDimension
 13
638.10922391580766
 23
-39.999999999998835
 33
0.0
 14
448.10922391580868
 24
60.000000000002814
 34
0.0
100
AcDbRotatedDimension
1001
ACAD
1000
DSTYLE
1002
{
1070
             279
1070
               2
1070
             340
1005
40
1070
             147
1040
5.0
1002
}
  0
DIMENSION
  5
210
100
AcDbEntity
  8
notes
370
               5
390
0
  6
Continuous
 62
               7
100
AcDbDimension
  2
*D16
 10
-651.38189924298035
 20
164.97288453493729
 30
0.0
 11
-401.38189924298058
 21
164.97288453493729
 31
0.0
 71
               5
 72
               1
 41
1.0
 42
0.0
  3
TformSENN
100
AcDbAlignedDimension
 13
-151.38189924298075
 23
59.972884534937208
 33
0.0
 14
-651.38189924298035
 24
59.972884534937293
 34
0.0
100
AcDbRotatedDimension
1001
ACAD
1000
DSTYLE
1002
{
1070
             279
1070
               2
1070
             340
1005
40
1070
             147
1040
5.0
1002
}
  0
DIMENSION
  5
211
100
AcDbEntity
  8
notes
370
               5
390
0
  6
Continuous
 62
               7
100
AcDbDimension
  2
*D17
 10
347.84030384676527
 20
-685.02690546720055
 30
0.0
 11
347.84030384676527
 21
-630.02690546720055
 31
0.0
 71
               5
 72
               1
 41
1.0
 42
0.0
  3
TformSENN
100
AcDbAlignedDimension
 13
488.14030384676522
 23
-575.02690546720055
 33
0.0
 14
488.14030384676522
 24
-685.02690546720055
 34
0.0
 50
90.0
100
AcDbRotatedDimension
1001
ACAD
1000
DSTYLE
1002
{
1070
             279
1070
               2
1070
             340
1005
40
1070
             147
1040
5.0
1002
}
  0
DIMENSION
  5
212
100
AcDbEntity
  8
notes
370
               5
390
0
  6
Continuous
 62
               7
100
AcDbDimension
  2
*D18
 10
347.84030384676527
 20
-575.02690546720055
 30
0.0
 11
347.84030384676527
 21
-435.02690546719953
 31
0.0
 71
               5
 72
               1
 41
1.0
 42
0.0
  3
TformSENN
100
AcDbAlignedDimension
 13
488.14030384676522
 23
-295.0269054671985
 33
0.0
 14
488.14030384676522
 24
-575.02690546720055
 34
0.0
 50
90.0
100
AcDbRotatedDimension
1001
ACAD
1000
DSTYLE
1002
{
1070
             279
1070
               2
1070
             340
1005
40
1070
             147
1040
5.0
1002
}
  0
DIMENSION
  5
213
100
AcDbEntity
  8
notes
370
               5
390
0
  6
Continuous
 62
               7
100
AcDbDimension
  2
*D19
 10
347.84030384676527
 20
-295.0269054671985
 30
0.0
 11
347.84030384676527
 21
-240.02690546719847
 31
0.0
 71
               5
 72
               1
 41
1.0
 42
0.0
  3
TformSENN
100
AcDbAlignedDimension
 13
488.14030384676522
 23
-185.02690546719847
 33
0.0
 14
488.14030384676522
 24
-295.0269054671985
 34
0.0
 50
90.0
100
AcDbRotatedDimension
1001
ACAD
1000
DSTYLE
1002
{
1070
             279
1070
               2
1070
             340
1005
40
1070
             147
1040
5.0
1002
}
  0
DIMENSION
  5
214
100
AcDbEntity
  8
notes
370
               5
390
0
  6
Continuous
 62
               7
100
AcDbDimension
  2
*D20
 10
-51.381899242980779
 20
-910.02711546506373
 30
0.0
 11
-51.381899242980779
 21
-435.02711546506328
 31
0.0
 71
               5
 72
               1
 41
1.0
 42
0.0
  3
TformSENN
100
AcDbAlignedDimension
 13
-151.37152247850895
 23
39.972884534937236
 33
0.0
 14
-151.37152247850895
 24
-910.02711546506373
 34
0.0
 50
90.0
100
AcDbRotatedDimension
1001
ACAD
1000
DSTYLE
1002
{
1070
             279
1070
               2
1070
             340
1005
40
1070
             147
1040
5.0
1002
}
  0
CIRCLE
  5
215
100
AcDbEntity
  8
notes
370
              15
390
0
  6
STYLE_23
 62
               7
100
AcDbCircle
 10
25.026544562912875
 20
-870.12098213108038
 30
0.0
 40
17.500000000000114
  0
DIMENSION
  5
216
100
AcDbEntity
  8
notes
370
               5
390
0
  6
Continuous
 62
               7
100
AcDbDimension
  2
*D21
 10
448.10922391580857
 20
-1034.9999999999975
 30
0.0
 11
468.1092239158088
 21
-1034.9999999999975
 31
0.0
 71
               5
 72
               1
 41
1.0
 42
0.0
  3
TformSENN
100
AcDbAlignedDimension
 13
488.10922391580897
 23
-929.99999999999739
 33
0.0
 14
448.10922391580857
 24
-929.99999999999739
 34
0.0
100
AcDbRotatedDimension
1001
ACAD
1000
DSTYLE
1002
{
1070
             279
1070
               2
1070
             340
1005
40
1070
             147
1040
5.0
1002
}
  0
DIMENSION
  5
217
100
AcDbEntity
  8
notes
370
               5
390
0
  6
Continuous
 62
               7
100
AcDbDimension
  2
*D22
 10
-651.38189924298035
 20
-1034.9999999999975
 30
0.0
 11
-586.38189924298058
 21
-1034.9999999999975
 31
0.0
 71
               5
 72
               1
 41
1.0
 42
0.0
  3
TformSENN
100
AcDbAlignedDimension
 13
-521.38189924298081
 23
-935.02711546506259
 33
0.0
 14
-651.38189924298035
 24
-930.02711546506282
 34
0.0
100
AcDbRotatedDimension
1001
ACAD
1000
DSTYLE
1002
{
1070
             279
1070
               2
1070
             340
1005
40
1070
             147
1040
5.0
1002
}
  0
DIMENSION
  5
218
100
AcDbEntity
  8
notes
370
               5
390
0
  6
Continuous
 62
               7
100
AcDbDimension
  2
*D23
 10
-521.38189924298069
 20
-1035.0271154650627
 30
0.0
 11
-348.88189924298069
 21
-1035.0271154650627
 31
0.0
 71
               5
 72
               1
 41
1.0
 42
0.0
  3
TformSENN
100
AcDbAlignedDimension
 13
-176.38189924298075
 23
-935.23586844589511
 33
0.0
 14
-521.38189924298069
 24
-935.23586844589511
 34
0.0
100
AcDbRotatedDimension
1001
ACAD
1000
DSTYLE
1002
{
1070
             279
1070
               2
1070
             340
1005
40
1070
             147
1040
5.0
1002
}
  0
LINE
  5
219
100
AcDbEntity
  8
notes
370
               5
390
0
  6
Continuous
 62
               7
100
AcDbLine
 10
543.10922391580903
 20
-940.0187480295034
 30
0.0
 11
543.10922391580903
 21
-1016.7187480295034
 31
0.0
  0
DIMENSION
  5
21A
100
AcDbEntity
  8
notes
370
               5
390
0
  6
Continuous
 62
               7
100
AcDbDimension
  2
*D24
 10
737.86871140928747
 20
-34.999999999998778
 30
0.0
 11
737.86871140928747
 21
-434.99999999999943
 31
0.0
 71
               5
 72
               1
 41
1.0
 42
0.0
  3
TformSENN
100
AcDbAlignedDimension
 13
633.10922391580721
 23
-835.0
 33
0.0
 14
633.10922391580766
 24
-34.999999999998778
 34
0.0
 50
90.0
100
AcDbRotatedDimension
1001
ACAD
1000
DSTYLE
1002
{
1070
             279
1070
               2
1070
             340
1005
40
1070
             147
1040
5.0
1002
}
  0
MTEXT
  5
21B
100
AcDbEntity
  8
notes
390
0
 62
               7
100
AcDbMText
 10
157.50830915394874
 20
388.50953650948554
 30
0.0
 40
24.432617187500004
 41
0.0
 71
               1
 72
               1
  1
※カウンター置きの場合も壁固定が必要です。
  7
ＭＳ ゴシック
 11
0.0
 21
1.0
 31
0.0
 73
               1
 44
0.7828267384257843
  0
LINE
  5
21C
100
AcDbEntity
  8
notes
370
               5
390
0
  6
Continuous
 62
               7
100
AcDbLine
 10
488.14030384676522
 20
-185.02690546720058
 30
0.0
 11
390.80426209296019
 21
-87.690863713395544
 31
0.0
  0
DIMENSION
  5
21D
100
AcDbEntity
  8
notes
370
               5
390
0
  6
Continuous
 62
               7
100
AcDbDimension
  2
*D25
 10
448.19350624253991
 20
423.51350058849391
 30
0.0
 11
495.69350624253991
 21
423.51350058849391
 31
0.0
 71
               5
 72
               1
 41
1.0
 42
0.0
  3
tfrom線あり
100
AcDbAlignedDimension
 13
543.19350624253991
 23
526.01350058849391
 33
0.0
 14
448.19350624253991
 24
526.01350058849391
 34
0.0
100
AcDbRotatedDimension
1001
ACAD
1000
DSTYLE
1002
{
1070
             279
1070
               2
1070
             340
1005
40
1070
             147
1040
5.0
1002
}
  0
DIMENSION
  5
21E
100
AcDbEntity
  8
notes
370
               5
390
0
  6
Continuous
 62
               7
100
AcDbDimension
  2
*D26
 10
543.19350624253991
 20
423.51350058849391
 30
0.0
 11
590.69350624253991
 21
423.51350058849391
 31
0.0
 71
               5
 72
               1
 41
1.0
 42
0.0
  3
tfrom線あり
100
AcDbAlignedDimension
 13
638.19350624253991
 23
613.36039429252503
 33
0.0
 14
543.19350624253991
 24
526.01350058849391
 34
0.0
100
AcDbRotatedDimension
1001
ACAD
1000
DSTYLE
1002
{
1070
             279
1070
               2
1070
             340
1005
40
1070
             147
1040
5.0
1002
}
  0
DIMENSION
  5
21F
100
AcDbEntity
  8
notes
370
               5
390
0
  6
Continuous
 62
               7
100
AcDbDimension
  2
*D27
 10
348.19350624253991
 20
1023.5135005884935
 30
0.0
 11
348.19350624253991
 21
991.03395616541081
 31
0.0
 71
               5
 72
               1
 41
1.0
 42
0.0
  3
tfrom線あり
100
AcDbAlignedDimension
 13
448.24450865350207
 23
958.55441174232817
 33
0.0
 14
451.19350624253991
 24
1023.5135005884935
 34
0.0
 50
90.0
100
AcDbRotatedDimension
1001
ACAD
1000
DSTYLE
1002
{
1070
             279
1070
               2
1070
             340
1005
40
1070
             147
1040
5.0
1002
}
  0
DIMENSION
  5
220
100
AcDbEntity
  8
notes
370
               5
390
0
  6
Continuous
 62
               7
100
AcDbDimension
  2
*D28
 10
738.19350623959133
 20
1023.5135005884935
 30
0.0
 11
738.19350623959133
 21
923.51350058849346
 31
0.0
 71
               5
 72
               1
 41
1.0
 42
0.0
  3
tfrom線あり
100
AcDbAlignedDimension
 13
638.10922391580868
 23
823.51350058849346
 33
0.0
 14
634.19350624253991
 24
1023.5135005884935
 34
0.0
 50
90.0
100
AcDbRotatedDimension
1001
ACAD
1000
DSTYLE
1002
{
1070
             279
1070
               2
1070
             340
1005
40
1070
             147
1040
5.0
1002
}
  0
DIMENSION
  5
221
100
AcDbEntity
  8
notes
370
               5
390
0
  6
Continuous
 62
               7
100
AcDbDimension
  2
*D29
 10
448.2618012616748
 20
806.03732124449391
 30
0.0
 11
438.80375712261855
 21
811.03732124449391
 31
0.0
 70
             128
 71
               5
 72
               1
 41
1.0
 42
0.0
  3
tfrom線あり
100
AcDbAlignedDimension
 13
588.2618012616748
 23
811.90922206198627
 33
0.0
 14
448.2618012616748
 24
811.9467956765892
 34
0.0
100
AcDbRotatedDimension
1001
ACAD
1000
DSTYLE
1002
{
1070
             279
1070
               2
1070
             340
1005
40
1070
               3
1000
<>(深さ)
1070
             174
1070
               0
1070
             147
1040
5.0
1002
}
  0
DIMENSION
  5
222
100
AcDbEntity
  8
notes
370
               5
390
0
  6
Continuous
 62
               7
100
AcDbDimension
  2
*D30
 10
788.19350623959133
 20
1023.5135005884937
 30
0.0
 11
788.19350623959133
 21
816.01350058849368
 31
0.0
 71
               5
 72
               1
 41
1.0
 42
0.0
  3
tfrom線あり
100
AcDbAlignedDimension
 13
634.19350624253946
 23
608.51350058849368
 33
0.0
 14
634.19350624253946
 24
1023.5135005884937
 34
0.0
 50
90.0
100
AcDbRotatedDimension
1001
ACAD
1000
DSTYLE
1002
{
1070
             279
1070
               2
1070
             340
1005
40
1070
             147
1040
5.0
1002
}
  0
ARC
  5
223
100
AcDbEntity
  8
ADF70-0001
370
              15
390
0
  6
Continuous
 62
               7
100
AcDbCircle
 10
-646.38189924298058
 20
-930.02711546506282
 30
0.0
 40
5.0
100
AcDbArc
 50
180.0
 51
270.0
  0
LINE
  5
224
100
AcDbEntity
  8
ADF70-0001
370
              15
390
0
  6
Continuous
 62
               7
100
AcDbLine
 10
-646.38189924298035
 20
-935.02711546506259
 30
0.0
 11
-156.38189924298075
 21
-935.02711546506259
 31
0.0
  0
ARC
  5
225
100
AcDbEntity
  8
ADF70-0001
370
              15
390
0
  6
Continuous
 62
               7
100
AcDbCircle
 10
-156.38189924298121
 20
-930.02711546506282
 30
0.0
 40
4.9999999999997726
100
AcDbArc
 50
270.0
 51
0.0
  0
LINE
  5
226
100
AcDbEntity
  8
ADF70-0001
370
              15
390
0
  6
Continuous
 62
               7
100
AcDbLine
 10
-151.38189924298075
 20
-930.02711546506282
 30
0.0
 11
-151.38189924298075
 21
59.972884534937293
 31
0.0
  0
ARC
  5
227
100
AcDbEntity
  8
ADF70-0001
370
              15
390
0
  6
Continuous
 62
               7
100
AcDbCircle
 10
-156.38189924298075
 20
59.97288453493718
 30
0.0
 40
5.0
100
AcDbArc
 50
0.0
 51
90.0
  0
LINE
  5
228
100
AcDbEntity
  8
ADF70-0001
370
              15
390
0
  6
Continuous
 62
               7
100
AcDbLine
 10
-156.38189924298075
 20
64.972884534937293
 30
0.0
 11
-646.38189924298035
 21
64.972884534937293
 31
0.0
  0
LINE
  5
229
100
AcDbEntity
  8
ADF70-0001
370
              15
390
0
  6
Continuous
 62
               7
100
AcDbLine
 10
-651.38189924298035
 20
59.972884534937293
 30
0.0
 11
-651.38189924298035
 21
-930.02711546506282
 31
0.0
  0
ARC
  5
22A
100
AcDbEntity
  8
ADF70-0001
370
              15
390
0
  6
Continuous
 62
               7
100
AcDbCircle
 10
-646.38189924298035
 20
59.972884534937293
 30
0.0
 40
5.0
100
AcDbArc
 50
90.0
 51
180.0
  0
LINE
  5
22B
100
AcDbEntity
  8
ADF70-0001
370
              15
390
0
  6
Continuous
 62
               7
100
AcDbLine
 10
-176.38189924298075
 20
-905.02711546506396
 30
0.0
 11
-176.38189924298075
 21
34.972884534937322
 31
0.0
  0
LINE
  5
22C
100
AcDbEntity
  8
ADF70-0001
370
              15
390
0
  6
Continuous
 62
               7
100
AcDbLine
 10
-181.38189924298064
 20
39.972884534937322
 30
0.0
 11
-516.38189924298081
 21
39.972884534937322
 31
0.0
  0
LINE
  5
22D
100
AcDbEntity
  8
ADF70-0001
370
              15
390
0
  6
Continuous
 62
               7
100
AcDbLine
 10
-516.38189924298081
 20
-910.02711546506373
 30
0.0
 11
-181.38189924298064
 21
-910.02711546506373
 31
0.0
  0
LINE
  5
22E
100
AcDbEntity
  8
ADF70-0001
370
              15
390
0
  6
Continuous
 62
               7
100
AcDbLine
 10
-521.38189924298081
 20
34.972884534937322
 30
0.0
 11
-521.38189924298081
 21
-905.02711546506396
 31
0.0
  0
ARC
  5
22F
100
AcDbEntity
  8
ADF70-0001
370
              15
390
0
  6
Continuous
 62
               7
100
AcDbCircle
 10
-516.38189924298104
 20
-905.02711546506396
 30
0.0
 40
5.0
100
AcDbArc
 50
180.0
 51
270.0
  0
ARC
  5
230
100
AcDbEntity
  8
ADF70-0001
370
              15
390
0
  6
Continuous
 62
               7
100
AcDbCircle
 10
-516.38189924298081
 20
34.972884534937322
 30
0.0
 40
4.9999999999999432
100
AcDbArc
 50
90.0
 51
180.0
  0
ARC
  5
231
100
AcDbEntity
  8
ADF70-0001
370
              15
390
0
  6
Continuous
 62
               7
100
AcDbCircle
 10
-181.38189924298064
 20
34.972884534937208
 30
0.0
 40
5.0
100
AcDbArc
 50
0.0
 51
90.0
  0
ARC
  5
232
100
AcDbEntity
  8
ADF70-0001
370
              15
390
0
  6
Continuous
 62
               7
100
AcDbCircle
 10
-181.38189924298086
 20
-905.02711546506396
 30
0.0
 40
4.9999999999997726
100
AcDbArc
 50
270.0
 51
0.0
  0
CIRCLE
  5
233
100
AcDbEntity
  8
ADF70-0001
370
              15
390
0
  6
STYLE_23
 62
               7
100
AcDbCircle
 10
-586.42125826478491
 20
-435.02690546720362
 30
0.0
 40
17.500000000000227
  0
CIRCLE
  5
234
100
AcDbEntity
  8
ADF70-0001
370
              15
390
0
  6
STYLE_23
 62
               7
100
AcDbCircle
 10
-586.42125826478491
 20
-335.02690546720214
 30
0.0
 40
17.500000000000171
  0
CIRCLE
  5
235
100
AcDbEntity
  8
ADF70-0001
370
              15
390
0
  6
STYLE_23
 62
               7
100
AcDbCircle
 10
-586.42125826478491
 20
-235.02690546720177
 30
0.0
 40
17.500000000000057
  0
CIRCLE
  5
236
100
AcDbEntity
  8
ADF70-0001
370
              15
390
0
  6
STYLE_23
 62
               7
100
AcDbCircle
 10
-586.42125826478491
 20
-135.02690546720166
 30
0.0
 40
17.500000000000057
  0
CIRCLE
  5
237
100
AcDbEntity
  8
ADF70-0001
370
              15
390
0
  6
STYLE_23
 62
               7
100
AcDbCircle
 10
-586.42125826478491
 20
-535.02690546720305
 30
0.0
 40
17.499999999999773
  0
CIRCLE
  5
238
100
AcDbEntity
  8
ADF70-0001
370
              15
390
0
  6
STYLE_23
 62
               7
100
AcDbCircle
 10
-586.42125826478491
 20
-635.02690546720078
 30
0.0
 40
17.499999999999773
  0
CIRCLE
  5
239
100
AcDbEntity
  8
ADF70-0001
370
              15
390
0
  6
STYLE_23
 62
               7
100
AcDbCircle
 10
-586.42125826478514
 20
-735.02690546720112
 30
0.0
 40
17.500000000000114
  0
CIRCLE
  5
23A
100
AcDbEntity
  8
ADF70-0001
370
              15
390
0
  6
Continuous
 62
               7
100
AcDbCircle
 10
-451.38189924298081
 20
-435.02711546506737
 30
0.0
 40
23.000000000000455
  0
CIRCLE
  5
23B
100
AcDbEntity
  8
ADF70-0001
370
              15
390
0
  6
Continuous
 62
               7
100
AcDbCircle
 10
-451.38189924298081
 20
-435.02711546506737
 30
0.0
 40
37.500000000000682
  0
LINE
  5
23C
100
AcDbEntity
  8
ADF70-0001
370
              15
390
0
  6
Continuous
 62
               7
100
AcDbLine
 10
-181.38189924298064
 20
-905.02711546506396
 30
0.0
 11
-263.25204011642052
 21
-823.15697459162629
 31
0.0
  0
LINE
  5
23D
100
AcDbEntity
  8
ADF70-0001
370
              15
390
0
  6
Continuous
 62
               7
100
AcDbLine
 10
-181.38189924298064
 20
34.972884534937322
 30
0.0
 11
-263.68639791542557
 21
-47.33161413750932
 31
0.0
  0
LINE
  5
23E
100
AcDbEntity
  8
ADF70-0001
370
              15
390
0
  6
Continuous
 62
               7
100
AcDbLine
 10
-271.38170645755633
 20
-820.02730825049048
 30
0.0
 11
-496.33370645755645
 21
-820.02730825049048
 31
0.0
  0
LINE
  5
23F
100
AcDbEntity
  8
ADF70-0001
370
              15
390
0
  6
Continuous
 62
               7
100
AcDbLine
 10
-271.38170645755633
 20
-50.026922679639966
 30
0.0
 11
-496.33370645755645
 21
-50.026922679639966
 31
0.0
  0
LINE
  5
240
100
AcDbEntity
  8
ADF70-0001
370
              15
390
0
  6
Continuous
 62
               7
100
AcDbLine
 10
-501.33370645755645
 20
-815.02730825049059
 30
0.0
 11
-501.33370645755645
 21
-55.02692267964008
 31
0.0
  0
ARC
  5
241
100
AcDbEntity
  8
ADF70-0001
370
              15
390
0
  6
Continuous
 62
               7
100
AcDbCircle
 10
-496.33370645755667
 20
-815.02730825049059
 30
0.0
 40
5.0
100
AcDbArc
 50
180.0
 51
270.0
  0
ARC
  5
242
100
AcDbEntity
  8
ADF70-0001
370
              15
390
0
  6
Continuous
 62
               7
100
AcDbCircle
 10
-496.33370645755645
 20
-55.026922679640137
 30
0.0
 40
5.0000000000001137
100
AcDbArc
 50
90.0
 51
180.0
  0
SPLINE
  5
243
100
AcDbEntity
  8
ADF70-0001
370
              15
390
0
  6
Continuous
 62
               7
100
AcDbSpline
210
0.0
220
0.0
230
1.0
 70
               8
 71
               2
 72
              30
 73
              27
 74
               0
 42
0.000001
 43
0.000001
 40
0.0
 40
0.0
 40
0.0
 40
1.0
 40
1.0
 40
2.0
 40
3.0
 40
4.0
 40
5.0
 40
6.0
 40
7.0
 40
8.0
 40
9.0
 40
10.0
 40
11.0
 40
12.0
 40
13.0
 40
14.0
 40
15.0
 40
16.0
 40
17.0
 40
18.0
 40
19.0
 40
20.0
 40
21.0
 40
22.0
 40
22.0
 40
23.0
 40
23.0
 40
23.0
 10
-514.54437467729917
 20
-422.52711546506714
 30
0.0
 10
-514.62013602345223
 20
-422.52711546506714
 30
0.0
 10
-514.69589736960518
 20
-422.52711546506714
 30
0.0
 10
-515.50064551247169
 20
-422.84551652503239
 30
0.0
 10
-516.41271833830115
 20
-425.13555449926059
 30
0.0
 10
-516.91833945958092
 20
-427.24245126746507
 30
0.0
 10
-517.28575643375007
 20
-429.74850433719712
 30
0.0
 10
-517.59538889526493
 20
-433.74366587795123
 30
0.0
 10
-517.49690108794402
 20
-437.62290260140583
 30
0.0
 10
-517.28576187927729
 20
-440.30566948888293
 30
0.0
 10
-516.91835397907346
 20
-442.81173021189136
 30
0.0
 10
-516.41270001882219
 20
-444.91863751308324
 30
0.0
 10
-515.48942990980379
 20
-447.20326003231207
 30
0.0
 10
-514.54438975428195
 20
-447.59305316230916
 30
0.0
 10
-513.58880248674495
 20
-447.20915236303131
 30
0.0
 10
-512.67607307214973
 20
-444.91871534841789
 30
0.0
 10
-512.17041405606449
 20
-442.81182911325243
 30
0.0
 10
-511.8030001421879
 20
-440.30578369685793
 30
0.0
 10
-511.49336172799815
 20
-436.31062860593931
 30
0.0
 10
-511.59184530016807
 20
-432.43138983098254
 30
0.0
 10
-511.80298025411867
 20
-429.74861854547225
 30
0.0
 10
-512.17039121459652
 20
-427.24255016900031
 30
0.0
 10
-512.67600728001707
 20
-425.13563233634648
 30
0.0
 10
-513.59526197807054
 20
-422.85025915976382
 30
0.0
 10
-514.39282198926298
 20
-422.52712177824048
 30
0.0
 10
-514.46858333541218
 20
-422.52711862196622
 30
0.0
 10
-514.54434468156148
 20
-422.52711546569196
 30
0.0
  0
LINE
  5
244
100
AcDbEntity
  8
ADF70-0001
370
              15
390
0
  6
Continuous
 62
               7
100
AcDbLine
 10
-516.38189924298081
 20
-905.02711546506396
 30
0.0
 11
-500.35039858683285
 21
-825.00921278859266
 31
0.0
  0
LINE
  5
245
100
AcDbEntity
  8
ADF70-0001
370
              15
390
0
  6
Continuous
 62
               7
100
AcDbLine
 10
-516.38189924298081
 20
34.972884534937322
 30
0.0
 11
-500.90468387385931
 21
-44.69777735049766
 31
0.0
  0
LINE
  5
246
100
AcDbEntity
  8
ADF70-0001
370
              15
390
0
  6
Continuous
 62
               7
100
AcDbLine
 10
-266.38170645755633
 20
-815.02730825049059
 30
0.0
 11
-266.38170645755633
 21
-55.02692267964008
 31
0.0
  0
ARC
  5
247
100
AcDbEntity
  8
ADF70-0001
370
              15
390
0
  6
Continuous
 62
               7
100
AcDbCircle
 10
-271.38170645755656
 20
-815.02730825049059
 30
0.0
 40
4.9999999999998863
100
AcDbArc
 50
270.0
 51
0.0
  0
ARC
  5
248
100
AcDbEntity
  8
ADF70-0001
370
              15
390
0
  6
Continuous
 62
               7
100
AcDbCircle
 10
-271.38170645755628
 20
-55.026922679640137
 30
0.0
 40
5.0
100
AcDbArc
 50
0.0
 51
90.0
  0
LINE
  5
249
100
AcDbEntity
  8
ADF70-0001
370
              15
390
0
  6
Continuous
 62
               7
100
AcDbLine
 10
448.10922391580868
 20
60.000000000002728
 30
0.0
 11
448.10922391580868
 21
-929.99999999999739
 31
0.0
  0
LINE
  5
24A
100
AcDbEntity
  8
ADF70-0001
370
              15
390
0
  6
Continuous
 62
               7
100
AcDbLine
 10
453.10922391580868
 20
-934.99999999999716
 30
0.0
 11
538.10922391580903
 21
-934.99999999999716
 31
0.0
  0
LINE
  5
24B
100
AcDbEntity
  8
ADF70-0001
370
              15
390
0
  6
Continuous
 62
               7
100
AcDbLine
 10
543.10922391580903
 20
-929.99999999999739
 30
0.0
 11
543.10922391580903
 21
60.000000000002728
 31
0.0
  0
LINE
  5
24C
100
AcDbEntity
  8
ADF70-0001
370
              15
390
0
  6
Continuous
 62
               7
100
AcDbLine
 10
453.10922391580868
 20
65.000000000002728
 30
0.0
 11
538.10922391580903
 21
65.000000000002728
 31
0.0
  0
LINE
  5
24D
100
AcDbEntity
  8
ADF70-0001
370
              15
390
0
  6
Continuous
 62
               7
100
AcDbLine
 10
638.10922391580766
 20
-39.999990234373882
 30
0.0
 11
638.10922391580766
 21
-830.00000000000023
 31
0.0
  0
POLYLINE
  5
24E
100
AcDbEntity
  8
ADF70-0001
370
              15
390
0
  6
Continuous
 62
               7
100
AcDb2dPolyline
 66
               1
 10
0.0
 20
0.0
 30
0.0
 75
               5
  0
VERTEX
  5
24F
100
AcDbEntity
  8
ADF70-0001
370
              15
390
0
  6
Continuous
 62
               7
100
AcDbVertex
100
AcDb2dVertex
 10
633.10922391580766
 20
-835.0
 30
0.0
  0
VERTEX
  5
250
100
AcDbEntity
  8
ADF70-0001
370
              15
390
0
  6
Continuous
 62
               7
100
AcDbVertex
100
AcDb2dVertex
 10
543.10922391580903
 20
-835.0
 30
0.0
  0
VERTEX
  5
251
100
AcDbEntity
  8
ADF70-0001
370
              15
390
0
  6
Continuous
 62
               7
100
AcDbVertex
100
AcDb2dVertex
 10
543.10922391580903
 20
-34.999999999998778
 30
0.0
  0
VERTEX
  5
252
100
AcDbEntity
  8
ADF70-0001
370
              15
390
0
  6
Continuous
 62
               7
100
AcDbVertex
100
AcDb2dVertex
 10
633.10922391580766
 20
-34.999999999998778
 30
0.0
  0
SEQEND
  5
253
100
AcDbEntity
  8
ADF70-0001
370
              15
390
0
  6
Continuous
 62
               7
  0
ARC
  5
254
100
AcDbEntity
  8
ADF70-0001
370
              15
390
0
  6
Continuous
 62
               7
100
AcDbCircle
 10
453.10922391580846
 20
-929.99999999999739
 30
0.0
 40
5.0
100
AcDbArc
 50
180.0
 51
270.0
  0
ARC
  5
255
100
AcDbEntity
  8
ADF70-0001
370
              15
390
0
  6
Continuous
 62
               7
100
AcDbCircle
 10
538.10922391580857
 20
-929.99999999999739
 30
0.0
 40
4.9999999999997726
100
AcDbArc
 50
270.0
 51
0.0
  0
ARC
  5
256
100
AcDbEntity
  8
ADF70-0001
370
              15
390
0
  6
Continuous
 62
               7
100
AcDbCircle
 10
453.10922391580868
 20
60.000000000002757
 30
0.0
 40
5.0
100
AcDbArc
 50
90.0
 51
180.0
  0
ARC
  5
257
100
AcDbEntity
  8
ADF70-0001
370
              15
390
0
  6
Continuous
 62
               7
100
AcDbCircle
 10
538.10922391580903
 20
60.000000000002757
 30
0.0
 40
4.9999999999998863
100
AcDbArc
 50
0.0
 51
90.0
  0
ARC
  5
258
100
AcDbEntity
  8
ADF70-0001
370
              15
390
0
  6
Continuous
 62
               7
100
AcDbCircle
 10
633.10922391580721
 20
-830.00000000000023
 30
0.0
 40
4.9999999999997726
100
AcDbArc
 50
270.0
 51
0.0
  0
ARC
  5
259
100
AcDbEntity
  8
ADF70-0001
370
              15
390
0
  6
Continuous
 62
               7
100
AcDbCircle
 10
633.10922391580766
 20
-39.999999999998892
 30
0.0
 40
5.0
100
AcDbArc
 50
0.0
 51
90.0
  0
LINE
  5
25A
100
AcDbEntity
  8
ADF70-0001
370
              15
390
0
  6
STYLE_23
 62
               7
100
AcDbLine
 10
605.28007880029531
 20
-458.04192267964322
 30
0.0
 11
605.30496182284855
 21
-412.04196268940848
 31
0.0
  0
LINE
  5
25B
100
AcDbEntity
  8
ADF70-0001
370
              15
390
0
  6
STYLE_23
 62
               7
100
AcDbLine
 10
593.12555885644952
 20
-397.52711546506669
 30
0.0
 11
593.12555885644952
 21
-472.52711546506748
 31
0.0
  0
POLYLINE
  5
25C
100
AcDbEntity
  8
ADF70-0001
370
              15
390
0
  6
STYLE_23
 62
               7
100
AcDb2dPolyline
 66
               1
 10
0.0
 20
0.0
 30
0.0
 70
               1
 75
               5
  0
VERTEX
  5
25D
100
AcDbEntity
  8
ADF70-0001
370
              15
390
0
  6
STYLE_23
 62
               7
100
AcDbVertex
100
AcDb2dVertex
 10
638.10922391580766
 20
-412.04196268940848
 30
0.0
  0
VERTEX
  5
25E
100
AcDbEntity
  8
ADF70-0001
370
              15
390
0
  6
STYLE_23
 62
               7
100
AcDbVertex
100
AcDb2dVertex
 10
605.30496182284855
 20
-412.04196268940848
 30
0.0
  0
VERTEX
  5
25F
100
AcDbEntity
  8
ADF70-0001
370
              15
390
0
  6
STYLE_23
 62
               7
100
AcDbVertex
100
AcDb2dVertex
 10
593.12555885644952
 20
-397.52711546506669
 30
0.0
  0
VERTEX
  5
260
100
AcDbEntity
  8
ADF70-0001
370
              15
390
0
  6
STYLE_23
 62
               7
100
AcDbVertex
100
AcDb2dVertex
 10
605.30496182284855
 20
-412.04196268940848
 30
0.0
  0
VERTEX
  5
261
100
AcDbEntity
  8
ADF70-0001
370
              15
390
0
  6
STYLE_23
 62
               7
100
AcDbVertex
100
AcDb2dVertex
 10
638.10922391580766
 20
-412.04196268940848
 30
0.0
  0
SEQEND
  5
262
100
AcDbEntity
  8
ADF70-0001
370
              15
390
0
  6
STYLE_23
 62
               7
  0
POLYLINE
  5
263
100
AcDbEntity
  8
ADF70-0001
370
              15
390
0
  6
STYLE_23
 62
               7
100
AcDb2dPolyline
 66
               1
 10
0.0
 20
0.0
 30
0.0
 70
               1
 75
               5
  0
VERTEX
  5
264
100
AcDbEntity
  8
ADF70-0001
370
              15
390
0
  6
STYLE_23
 62
               7
100
AcDbVertex
100
AcDb2dVertex
 10
638.10922391580766
 20
-458.00000000000205
 30
0.0
  0
VERTEX
  5
265
100
AcDbEntity
  8
ADF70-0001
370
              15
390
0
  6
STYLE_23
 62
               7
100
AcDbVertex
100
AcDb2dVertex
 10
605.30496182284855
 20
-458.00000000000205
 30
0.0
  0
VERTEX
  5
266
100
AcDbEntity
  8
ADF70-0001
370
              15
390
0
  6
STYLE_23
 62
               7
100
AcDbVertex
100
AcDb2dVertex
 10
593.12555885644952
 20
-472.51484722434361
 30
0.0
  0
VERTEX
  5
267
100
AcDbEntity
  8
ADF70-0001
370
              15
390
0
  6
STYLE_23
 62
               7
100
AcDbVertex
100
AcDb2dVertex
 10
605.30496182284855
 20
-458.00000000000205
 30
0.0
  0
VERTEX
  5
268
100
AcDbEntity
  8
ADF70-0001
370
              15
390
0
  6
STYLE_23
 62
               7
100
AcDbVertex
100
AcDb2dVertex
 10
638.10922391580766
 20
-458.00000000000205
 30
0.0
  0
SEQEND
  5
269
100
AcDbEntity
  8
ADF70-0001
370
              15
390
0
  6
STYLE_23
 62
               7
  0
ARC
  5
26A
100
AcDbEntity
  8
ADF70-0001
370
              15
390
0
  6
STYLE_23
 62
               7
100
AcDbCircle
 10
454.10922393268299
 20
40.233808436470269
 30
0.0
 40
6.0000000168743099
100
AcDbArc
 50
180.00000006642665
 51
235.00000010805113
  0
LINE
  5
26B
100
AcDbEntity
  8
ADF70-0001
370
              15
390
0
  6
STYLE_23
 62
               7
100
AcDbLine
 10
559.00943639887964
 20
-66.440903331960129
 30
0.0
 11
450.66776530127333
 21
35.31889615256236
 31
0.0
  0
LINE
  5
26C
100
AcDbEntity
  8
ADF70-0001
370
              15
390
0
  6
STYLE_23
 62
               7
100
AcDbLine
 10
589.25324689674244
 20
-391.4409033319555
 30
0.0
 11
584.84030384676362
 21
-118.44090333196013
 31
0.0
  0
ARC
  5
26D
100
AcDbEntity
  8
ADF70-0001
370
              15
390
0
  6
STYLE_23
 62
               7
100
AcDbCircle
 10
507.74801441285814
 20
-124.32059281400066
 30
0.0
 40
77.316180962113492
100
AcDbArc
 50
4.3614020313514823
 51
48.470140829899314
  0
ARC
  5
26E
100
AcDbEntity
  8
ADF70-0001
370
              15
390
0
  6
STYLE_23
 62
               7
100
AcDbCircle
 10
599.82549486577568
 20
-388.98935335244926
 30
0.0
 40
10.852765749831201
100
AcDbArc
 50
193.05532034871592
 51
231.87725238320456
  0
ARC
  5
26F
100
AcDbEntity
  8
ADF70-0001
370
              15
390
0
  6
STYLE_23
 62
               7
100
AcDbCircle
 10
454.13609861840939
 20
-910.2593486126483
 30
0.0
 40
6.000000016874008
100
AcDbArc
 50
124.99999989195092
 51
179.99999993357252
  0
LINE
  5
270
100
AcDbEntity
  8
ADF70-0001
370
              15
390
0
  6
STYLE_23
 62
               7
100
AcDbLine
 10
559.03631108460604
 20
-803.58463684422065
 30
0.0
 11
450.69463998699985
 21
-905.3444363287407
 31
0.0
  0
LINE
  5
271
100
AcDbEntity
  8
ADF70-0001
370
              15
390
0
  6
STYLE_23
 62
               7
100
AcDbLine
 10
589.28012158246884
 20
-478.58463684422668
 30
0.0
 11
584.86717853249024
 21
-751.58463684422065
 31
0.0
  0
ARC
  5
272
100
AcDbEntity
  8
ADF70-0001
370
              15
390
0
  6
STYLE_23
 62
               7
100
AcDbCircle
 10
507.77488909858454
 20
-745.70494736218018
 30
0.0
 40
77.316180962114203
100
AcDbArc
 50
311.52985917010068
 51
355.63859796864853
  0
ARC
  5
273
100
AcDbEntity
  8
ADF70-0001
370
              15
390
0
  6
STYLE_23
 62
               7
100
AcDbCircle
 10
599.85236955150231
 20
-481.03618682373292
 30
0.0
 40
10.852765749831496
100
AcDbArc
 50
128.12274761679686
 51
166.94467965128564
  0
INSERT
  5
274
100
AcDbEntity
  8
ADF70-0001
390
0
 62
               7
100
AcDbBlockReference
  2
グループ-1
 10
108.94133543128123
 20
145.20772959594623
 30
0.0
  0
ARC
  5
275
100
AcDbEntity
  8
ADF70-0001
370
               5
390
0
  6
STYLE_01
 62
               7
100
AcDbCircle
 10
-646.38189924298035
 20
261.24147624917964
 30
0.0
 40
5.0
100
AcDbArc
 50
180.0
 51
270.0
  0
LINE
  5
276
100
AcDbEntity
  8
ADF70-0001
370
               5
390
0
  6
STYLE_23
 62
               7
100
AcDbLine
 10
-646.38189924298035
 20
256.24147624917964
 30
0.0
 11
-156.38189924298075
 21
256.24147624917964
 31
0.0
  0
ARC
  5
277
100
AcDbEntity
  8
ADF70-0001
370
               5
390
0
  6
STYLE_23
 62
               7
100
AcDbCircle
 10
-156.38189924298109
 20
261.24147624917958
 30
0.0
 40
5.0
100
AcDbArc
 50
270.0
 51
0.0
  0
LINE
  5
278
100
AcDbEntity
  8
ADF70-0001
370
               5
390
0
  6
STYLE_23
 62
               7
100
AcDbLine
 10
-151.38189924298075
 20
261.24147624917964
 30
0.0
 11
-151.38189924298075
 21
1251.2414762491806
 31
0.0
  0
ARC
  5
279
100
AcDbEntity
  8
ADF70-0001
370
               5
390
0
  6
STYLE_23
 62
               7
100
AcDbCircle
 10
-156.38189924298075
 20
1251.2414762491806
 30
0.0
 40
5.0
100
AcDbArc
 50
0.0
 51
90.0
  0
LINE
  5
27A
100
AcDbEntity
  8
ADF70-0001
370
               5
390
0
  6
STYLE_23
 62
               7
100
AcDbLine
 10
-156.38189924298075
 20
1256.2414762491806
 30
0.0
 11
-646.38189924298035
 21
1256.2414762491806
 31
0.0
  0
ARC
  5
27B
100
AcDbEntity
  8
ADF70-0001
370
              15
390
0
  6
STYLE_01
 62
               7
100
AcDbCircle
 10
-646.38189924298013
 20
1251.2414762491806
 30
0.0
 40
5.0
100
AcDbArc
 50
90.0
 51
180.0
  0
CIRCLE
  5
27C
100
AcDbEntity
  8
ADF70-0001
370
               5
390
0
  6
STYLE_23
 62
               7
100
AcDbCircle
 10
-586.42125826478491
 20
756.24168624704237
 30
0.0
 40
17.5
  0
CIRCLE
  5
27D
100
AcDbEntity
  8
ADF70-0001
370
               5
390
0
  6
STYLE_23
 62
               7
100
AcDbCircle
 10
-586.42125826478491
 20
856.24168624704237
 30
0.0
 40
17.499999999999886
  0
CIRCLE
  5
27E
100
AcDbEntity
  8
ADF70-0001
370
               5
390
0
  6
STYLE_23
 62
               7
100
AcDbCircle
 10
-586.42125826478468
 20
956.24168624704225
 30
0.0
 40
17.5
  0
CIRCLE
  5
27F
100
AcDbEntity
  8
ADF70-0001
370
               5
390
0
  6
STYLE_23
 62
               7
100
AcDbCircle
 10
-586.42125826478468
 20
1056.2416862470423
 30
0.0
 40
17.500000000000227
  0
CIRCLE
  5
280
100
AcDbEntity
  8
ADF70-0001
370
               5
390
0
  6
STYLE_23
 62
               7
100
AcDbCircle
 10
-586.42125826478491
 20
656.24168624704305
 30
0.0
 40
17.499999999999773
  0
CIRCLE
  5
281
100
AcDbEntity
  8
ADF70-0001
370
               5
390
0
  6
STYLE_23
 62
               7
100
AcDbCircle
 10
-586.42125826478491
 20
556.2416862470451
 30
0.0
 40
17.499999999999943
  0
CIRCLE
  5
282
100
AcDbEntity
  8
ADF70-0001
370
               5
390
0
  6
STYLE_23
 62
               7
100
AcDbCircle
 10
-586.42125826478491
 20
456.24168624704464
 30
0.0
 40
17.500000000000227
  0
CIRCLE
  5
283
100
AcDbEntity
  8
ADF70-0001
370
               5
390
0
  6
STYLE_23
 62
               7
100
AcDbCircle
 10
-451.38189924298081
 20
756.24147624917862
 30
0.0
 40
23.0
  0
LINE
  5
284
100
AcDbEntity
  8
ADF70-0001
370
               5
390
0
  6
Continuous
 62
               7
100
AcDbLine
 10
-651.38189924298035
 20
206.27924640762123
 30
0.0
 11
-651.38189924298035
 21
1306.2792464076213
 31
0.0
  0
LINE
  5
285
100
AcDbEntity
  8
ADF70-0001
370
              15
390
0
  6
Continuous
 62
               7
100
AcDbLine
 10
-651.38189924298035
 20
1214.9792464076211
 30
0.0
 11
-688.38189924298035
 21
1251.9792464076211
 31
0.0
  0
LINE
  5
286
100
AcDbEntity
  8
ADF70-0001
370
              15
390
0
  6
Continuous
 62
               7
100
AcDbLine
 10
-651.38189924298035
 20
1234.9792464076211
 30
0.0
 11
-688.38189924298035
 21
1271.9792464076211
 31
0.0
  0
LINE
  5
287
100
AcDbEntity
  8
ADF70-0001
370
              15
390
0
  6
Continuous
 62
               7
100
AcDbLine
 10
-651.38189924298035
 20
1254.9792464076211
 30
0.0
 11
-688.38189924298035
 21
1291.9792464076211
 31
0.0
  0
POLYLINE
  5
288
100
AcDbEntity
  8
ADF70-0001
370
              15
390
0
  6
Continuous
 62
               7
100
AcDb2dPolyline
 66
               1
 10
0.0
 20
0.0
 30
0.0
 70
               1
 75
               5
  0
VERTEX
  5
289
100
AcDbEntity
  8
ADF70-0001
370
              15
390
0
  6
Continuous
 62
               7
100
AcDbVertex
100
AcDb2dVertex
 10
-651.3957379070398
 20
1206.2276883822835
 30
0.0
  0
VERTEX
  5
28A
100
AcDbEntity
  8
ADF70-0001
370
              15
390
0
  6
Continuous
 62
               7
100
AcDbVertex
100
AcDb2dVertex
 10
-201.3957379070398
 20
1206.2276883822835
 30
0.0
  0
VERTEX
  5
28B
100
AcDbEntity
  8
ADF70-0001
370
              15
390
0
  6
Continuous
 62
               7
100
AcDbVertex
100
AcDb2dVertex
 10
-201.3957379070398
 20
306.22768838228353
 30
0.0
  0
VERTEX
  5
28C
100
AcDbEntity
  8
ADF70-0001
370
              15
390
0
  6
Continuous
 62
               7
100
AcDbVertex
100
AcDb2dVertex
 10
-651.3957379070398
 20
306.22768838228353
 30
0.0
  0
SEQEND
  5
28D
100
AcDbEntity
  8
ADF70-0001
370
              15
390
0
  6
Continuous
 62
               7
  0
POLYLINE
  5
28E
100
AcDbEntity
  8
ADF70-0001
370
              15
390
0
  6
Continuous
 62
               7
100
AcDb2dPolyline
 66
               1
 10
0.0
 20
0.0
 30
0.0
 70
               1
 75
               5
  0
VERTEX
  5
28F
100
AcDbEntity
  8
ADF70-0001
370
              15
390
0
  6
Continuous
 62
               7
100
AcDbVertex
100
AcDb2dVertex
 10
-651.3957379070398
 20
1106.2812519704964
 30
0.0
  0
VERTEX
  5
290
100
AcDbEntity
  8
ADF70-0001
370
              15
390
0
  6
Continuous
 62
               7
100
AcDbVertex
100
AcDb2dVertex
 10
-401.39573790703986
 20
1106.2812519704964
 30
0.0
  0
VERTEX
  5
291
100
AcDbEntity
  8
ADF70-0001
370
              15
390
0
  6
Continuous
 62
               7
100
AcDbVertex
100
AcDb2dVertex
 10
-401.39573790703986
 20
406.28125197049633
 30
0.0
  0
VERTEX
  5
292
100
AcDbEntity
  8
ADF70-0001
370
              15
390
0
  6
Continuous
 62
               7
100
AcDbVertex
100
AcDb2dVertex
 10
-651.3957379070398
 20
406.28125197049633
 30
0.0
  0
SEQEND
  5
293
100
AcDbEntity
  8
ADF70-0001
370
              15
390
0
  6
Continuous
 62
               7
  0
LINE
  5
294
100
AcDbEntity
  8
ADF70-0001
370
              15
390
0
  6
STYLE_23
 62
               7
100
AcDbLine
 10
488.14030384676522
 20
-700.02690546720032
 30
0.0
 11
488.14030384676522
 21
-670.02690546720078
 31
0.0
  0
CIRCLE
  5
295
100
AcDbEntity
  8
ADF70-0001
370
              15
390
0
  6
STYLE_23
 62
               7
100
AcDbCircle
 10
488.10922391580897
 20
-684.80306064702359
 30
0.0
 40
10.0
  0
LINE
  5
296
100
AcDbEntity
  8
ADF70-0001
370
              15
390
0
  6
STYLE_23
 62
               7
100
AcDbLine
 10
488.14030384676522
 20
-590.02690546720032
 30
0.0
 11
488.14030384676522
 21
-560.02690546720078
 31
0.0
  0
CIRCLE
  5
297
100
AcDbEntity
  8
ADF70-0001
370
              15
390
0
  6
STYLE_23
 62
               7
100
AcDbCircle
 10
488.10922391580897
 20
-574.80306064702359
 30
0.0
 40
10.0
  0
LINE
  5
298
100
AcDbEntity
  8
ADF70-0001
370
              15
390
0
  6
STYLE_23
 62
               7
100
AcDbLine
 10
488.14030384676522
 20
-310.02690546720032
 30
0.0
 11
488.14030384676522
 21
-280.02690546720078
 31
0.0
  0
CIRCLE
  5
299
100
AcDbEntity
  8
ADF70-0001
370
              15
390
0
  6
STYLE_23
 62
               7
100
AcDbCircle
 10
488.10922391580897
 20
-294.80306064702359
 30
0.0
 40
10.0
  0
LINE
  5
29A
100
AcDbEntity
  8
ADF70-0001
370
              15
390
0
  6
STYLE_23
 62
               7
100
AcDbLine
 10
488.14030384676522
 20
-200.02690546720035
 30
0.0
 11
488.14030384676522
 21
-170.02690546720081
 31
0.0
  0
CIRCLE
  5
29B
100
AcDbEntity
  8
ADF70-0001
370
              15
390
0
  6
STYLE_23
 62
               7
100
AcDbCircle
 10
488.10922391580897
 20
-184.80306064702361
 30
0.0
 40
10.0
  0
LINE
  5
29C
100
AcDbEntity
  8
ADF70-0001
370
              15
390
0
  6
Continuous
 62
               7
100
AcDbLine
 10
448.10922391580868
 20
60.000000000002728
 30
0.0
 11
448.10922391580868
 21
-929.99999999999739
 31
0.0
  0
ARC
  5
29D
100
AcDbEntity
  8
ADF70-0001
370
              15
390
0
  6
Continuous
 62
               7
100
AcDbCircle
 10
634.25160929359902
 20
1019.6537737623754
 30
0.0
 40
3.8601641334013896
100
AcDbArc
 50
357.91748992096706
 51
90.862446571307984
  0
LINE
  5
29E
100
AcDbEntity
  8
ADF70-0001
370
              15
390
0
  6
STYLE_23
 62
               7
100
AcDbLine
 10
593.19350624253991
 20
786.01350058849391
 30
0.0
 11
593.19350624253991
 21
861.01350058849346
 31
0.0
  0
LINE
  5
29F
100
AcDbEntity
  8
ADF70-0001
370
              15
390
0
  6
STYLE_23
 62
               7
100
AcDbLine
 10
605.34802618638594
 20
846.52830780306874
 30
0.0
 11
605.37290920893872
 21
800.5283478128348
 31
0.0
  0
POLYLINE
  5
2A0
100
AcDbEntity
  8
ADF70-0001
370
              15
390
0
  6
STYLE_23
 62
               7
100
AcDb2dPolyline
 66
               1
 10
0.0
 20
0.0
 30
0.0
 70
               1
 75
               5
  0
VERTEX
  5
2A1
100
AcDbEntity
  8
ADF70-0001
370
              15
390
0
  6
STYLE_23
 62
               7
100
AcDbVertex
100
AcDb2dVertex
 10
638.17717130189828
 20
800.5283478128348
 30
0.0
  0
VERTEX
  5
2A2
100
AcDbEntity
  8
ADF70-0001
370
              15
390
0
  6
STYLE_23
 62
               7
100
AcDbVertex
100
AcDb2dVertex
 10
605.37290920893872
 20
800.5283478128348
 30
0.0
  0
VERTEX
  5
2A3
100
AcDbEntity
  8
ADF70-0001
370
              15
390
0
  6
STYLE_23
 62
               7
100
AcDbVertex
100
AcDb2dVertex
 10
605.37290920893872
 20
800.5283478128348
 30
0.0
  0
VERTEX
  5
2A4
100
AcDbEntity
  8
ADF70-0001
370
              15
390
0
  6
STYLE_23
 62
               7
100
AcDbVertex
100
AcDb2dVertex
 10
605.37290920893872
 20
800.5283478128348
 30
0.0
  0
VERTEX
  5
2A5
100
AcDbEntity
  8
ADF70-0001
370
              15
390
0
  6
STYLE_23
 62
               7
100
AcDbVertex
100
AcDb2dVertex
 10
638.17717130189828
 20
800.5283478128348
 30
0.0
  0
SEQEND
  5
2A6
100
AcDbEntity
  8
ADF70-0001
370
              15
390
0
  6
STYLE_23
 62
               7
  0
LINE
  5
2A7
100
AcDbEntity
  8
ADF70-0001
370
              15
390
0
  6
STYLE_23
 62
               7
100
AcDbLine
 10
605.34802618638594
 20
846.52830780306897
 30
0.0
 11
638.10922391580868
 21
846.52830780306897
 31
0.0
  0
LINE
  5
2A8
100
AcDbEntity
  8
ADF70-0001
370
              15
390
0
  6
STYLE_23
 62
               7
100
AcDbLine
 10
593.28651066772352
 20
860.90266224503819
 30
0.0
 11
605.34802618638594
 21
846.52830780306897
 31
0.0
  0
ARC
  5
2A9
100
AcDbEntity
  8
ADF70-0001
370
              15
390
0
  6
STYLE_23
 62
               7
100
AcDbCircle
 10
597.11673287095562
 20
864.11660029435222
 30
0.0
 40
4.9999999910959714
100
AcDbArc
 50
184.58365973569136
 51
220.00000009880748
  0
LINE
  5
2AA
100
AcDbEntity
  8
ADF70-0001
370
              15
390
0
  6
STYLE_23
 62
               7
100
AcDbLine
 10
591.74069860070529
 20
868.60689305652511
 30
0.0
 11
592.13272433000873
 21
863.71702705359132
 31
0.0
  0
ARC
  5
2AB
100
AcDbEntity
  8
ADF70-0001
370
              15
390
0
  6
STYLE_23
 62
               7
100
AcDbCircle
 10
571.80466439257691
 20
867.00860015499541
 30
0.0
 40
20.000000003668852
100
AcDbArc
 50
4.5836595498710402
 51
86.50986487526572
  0
LINE
  5
2AC
100
AcDbEntity
  8
ADF70-0001
370
              15
390
0
  6
STYLE_23
 62
               7
100
AcDbLine
 10
453.87949050675786
 20
893.21551078176378
 30
0.0
 11
573.02219809714813
 21
886.97150605130662
 31
0.0
  0
LINE
  5
2AD
100
AcDbEntity
  8
ADF70-0001
370
              15
390
0
  6
Continuous
 62
               7
100
AcDbLine
 10
638.10922391580868
 20
1019.5135005884935
 30
0.0
 11
638.10922391580868
 21
613.36039429252503
 31
0.0
  0
LINE
  5
2AE
100
AcDbEntity
  8
ADF70-0001
370
              15
390
0
  6
Continuous
 62
               7
100
AcDbLine
 10
638.19350624253991
 20
613.36039429252503
 30
0.0
 11
638.19350624253991
 21
646.03139020502101
 31
0.0
  0
ARC
  5
2AF
100
AcDbEntity
  8
ADF70-0001
370
              15
390
0
  6
Continuous
 62
               7
100
AcDbCircle
 10
635.19350624493461
 20
613.36039429479808
 30
0.0
 40
2.9999999976051375
100
AcDbArc
 50
272.99999997270254
 51
359.99999995658777
  0
LINE
  5
2B0
100
AcDbEntity
  8
ADF70-0001
370
              15
390
0
  6
Continuous
 62
               7
100
AcDbLine
 10
562.44382445903818
 20
606.54362797275223
 30
0.0
 11
635.35051411211077
 21
610.36450569285114
 31
0.0
  0
ARC
  5
2B1
100
AcDbEntity
  8
ADF70-0001
370
              15
390
0
  6
Continuous
 62
               7
100
AcDbCircle
 10
563.49054358304636
 20
586.57103729178505
 30
0.0
 40
19.999999985850984
100
AcDbArc
 50
92.99999999968324
 51
180.00000000052566
  0
LINE
  5
2B2
100
AcDbEntity
  8
ADF70-0001
370
              15
390
0
  6
Continuous
 62
               7
100
AcDbLine
 10
543.49054359719537
 20
528.51350058849391
 30
0.0
 11
543.49054359719537
 21
1023.5135005884937
 31
0.0
  0
ARC
  5
2B3
100
AcDbEntity
  8
ADF70-0001
370
              15
390
0
  6
Continuous
 62
               7
100
AcDbCircle
 10
538.49054359719537
 20
528.51350058849391
 30
0.0
 40
5.0
100
AcDbArc
 50
270.0
 51
0.0
  0
LINE
  5
2B4
100
AcDbEntity
  8
ADF70-0001
370
              15
390
0
  6
Continuous
 62
               7
100
AcDbLine
 10
453.10922391580868
 20
523.51350058849391
 30
0.0
 11
538.49054359719537
 21
523.51350058849391
 31
0.0
  0
LWPOLYLINE
  5
2B5
100
AcDbEntity
  8
ADF70-0001
370
              15
390
0
  6
STYLE_23
 62
               7
100
AcDbPolyline
 90
        8
 70
             128
 10
605.37290920893872
 20
800.5283478128348
 10
593.19350624253991
 20
786.01350058849391
 10
593.28651066783357
 20
786.12433894604362
 42
0.1557749061972103
 10
592.13272432780866
 20
783.30997414420551
 10
582.51080109497832
 20
661.11154913754842
 42
-0.2239746283263849
 10
567.69397461010465
 20
635.18862922401138
 10
450.75204762800456
 20
553.30501055064849
 42
0.2446984434215711
 10
448.19350624253991
 20
548.39009829350209
 42
0.2446984434215711
  0
LINE
  5
2B6
100
AcDbEntity
  8
ADF70-0001
370
              15
390
0
  6
Continuous
 62
               7
100
AcDbLine
 10
448.29551106446468
 20
942.0359940727916
 30
0.0
 11
458.19350624253991
 21
942.0359940727916
 31
0.0
  0
ARC
  5
2B7
100
AcDbEntity
  8
ADF70-0001
370
              15
390
0
  6
STYLE_23
 62
               7
100
AcDbCircle
 10
454.19350624579499
 20
899.20728799346773
 30
0.0
 40
6.0000000032548542
100
AcDbArc
 50
179.99999997050779
 51
266.99999998652754
  0
LINE
  5
2B8
100
AcDbEntity
  8
ADF70-0001
370
              15
390
0
  6
Continuous
 62
               7
100
AcDbLine
 10
448.19350624253991
 20
977.03630780306901
 30
0.0
 11
458.19350624253991
 21
977.03630780306901
 31
0.0
  0
LINE
  5
2B9
100
AcDbEntity
  8
ADF70-0001
370
              15
390
0
  6
Continuous
 62
               7
100
AcDbLine
 10
634.19350624253968
 20
1023.5135005884937
 30
0.0
 11
451.10922391580868
 21
1023.5135005884935
 31
0.0
  0
LINE
  5
2BA
100
AcDbEntity
  8
ADF70-0001
370
              15
390
0
  6
Continuous
 62
               7
100
AcDbLine
 10
448.10922391580868
 20
1020.5135005884935
 30
0.0
 11
448.10922391580868
 21
528.51350058849391
 31
0.0
  0
ARC
  5
2BB
100
AcDbEntity
  8
ADF70-0001
370
              15
390
0
  6
Continuous
 62
               7
100
AcDbCircle
 10
451.10922391580891
 20
1020.5135005884935
 30
0.0
 40
3.0
100
AcDbArc
 50
90.0
 51
180.0
  0
ARC
  5
2BC
100
AcDbEntity
  8
ADF70-0001
370
              15
390
0
  6
Continuous
 62
               7
100
AcDbCircle
 10
453.10922391580868
 20
528.51350058849391
 30
0.0
 40
5.0
100
AcDbArc
 50
180.0
 51
270.0
  0
ENDSEC
  0
SECTION
  2
OBJECTS
  0
DICTIONARY
  5
19
100
AcDbDictionary
280
               0
281
               1
  3
ACAD_GROUP
350
1A
  3
ACAD_MLINESTYLE
350
1B
  3
ACAD_LAYOUT
350
1E
  3
ACAD_PLOTSETTINGS
350
22
  3
ACAD_PLOTSTYLENAME
350
1F
  0
DICTIONARY
  5
1A
102
{ACAD_REACTORS
330
19
102
}
100
AcDbDictionary
280
               0
281
               1
  0
DICTIONARY
  5
1B
102
{ACAD_REACTORS
330
19
102
}
100
AcDbDictionary
280
               0
281
               1
  3
Standard
350
1C
  0
MLINESTYLE
  5
1C
102
{ACAD_REACTORS
330
1B
102
}
100
AcDbMlineStyle
  2
Standard
 70
               0
  3

 62
               0
 51
90.0
 52
90.0
 71
               2
 49
0.5
 62
             256
  6
ByLayer
 49
-0.5
 62
             256
  6
ByLayer
  0
ACDBDICTIONARYWDFLT
  5
1F
102
{ACAD_REACTORS
330
19
102
}
100
AcDbDictionary
281
               1
  3
Normal
350
1D
100
AcDbDictionaryWithDefault
340
1D
  0
ACDBPLACEHOLDER
  5
1D
102
{ACAD_REACTORS
330
1F
102
}
  0
LAYOUT
  5
20
102
{ACAD_REACTORS
330
1E
102
}
100
AcDbPlotSettings
  1

  2

  4

  6

 40
0.0
 41
0.0
 42
0.0
 43
0.0
 44
0.0
 45
0.0
 46
0.0
 47
0.0
 48
0.0
 49
0.0
140
0.0
141
0.0
142
1.0
143
1.0
 70
            1024
 72
               0
 73
               0
 74
               0
  7

 75
               0
147
1.0
148
0.0
149
0.0
100
AcDbLayout
  1
Model
 70
               0
 71
               0
 10
0.0
 20
0.0
 11
0.0
 21
0.0
 12
0.0
 22
0.0
 32
0.0
 14
0.0
 24
0.0
 34
0.0
 15
0.0
 25
0.0
 35
0.0
146
0.0
 13
0.0
 23
0.0
 33
0.0
 16
0.0
 26
0.0
 36
0.0
 17
0.0
 27
0.0
 37
0.0
 76
               0
330
A
331
0
345
0
346
0
  0
LAYOUT
  5
21
102
{ACAD_REACTORS
330
1E
102
}
100
AcDbPlotSettings
  1

  2

  4

  6

 40
0.0
 41
0.0
 42
0.0
 43
0.0
 44
0.0
 45
0.0
 46
0.0
 47
0.0
 48
0.0
 49
0.0
140
0.0
141
0.0
142
1.0
143
1.0
 70
               0
 72
               0
 73
               0
 74
               0
  7

 75
               0
147
1.0
148
0.0
149
0.0
100
AcDbLayout
  1
Layout1
 70
               0
 71
               0
 10
0.0
 20
0.0
 11
0.0
 21
0.0
 12
0.0
 22
0.0
 32
0.0
 14
0.0
 24
0.0
 34
0.0
 15
0.0
 25
0.0
 35
0.0
146
0.0
 13
0.0
 23
0.0
 33
0.0
 16
0.0
 26
0.0
 36
0.0
 17
0.0
 27
0.0
 37
0.0
 76
               0
330
B
331
0
345
0
346
0
  0
DICTIONARY
  5
1E
102
{ACAD_REACTORS
330
19
102
}
100
AcDbDictionary
280
               0
281
               1
  3
Layout1
350
21
  3
Model
350
20
  0
DICTIONARY
  5
22
102
{ACAD_REACTORS
330
19
102
}
100
AcDbDictionary
280
               0
281
               1
  0
ENDSEC
  0
EOF
