  0
SECTION
  2
HEADER
  9
$ACADVER
  1
AC1015
  9
$ACADMAINTVER
 70
               6
  9
$DWGCODEPAGE
  3
ANSI_932
  9
$INSBASE
 10
0.0
 20
0.0
 30
0.0
  9
$EXTMIN
 10
-975.00000000024011
 20
-1431.5255224711127
 30
0.0
  9
$EXTMAX
 10
975.00000000024011
 20
1405.9972926412995
 30
0.0
  9
$LIMMIN
 10
0.0
 20
0.0
  9
$LIMMAX
 10
0.0
 20
0.0
  9
$ORTHOMODE
 70
               0
  9
$REGENMODE
 70
               1
  9
$FILLMODE
 70
               1
  9
$QTEXTMODE
 70
               0
  9
$MIRRTEXT
 70
               1
  9
$LTSCALE
 40
50.799999999999997
  9
$ATTMODE
 70
               1
  9
$TEXTSIZE
 40
0.2
  9
$TRACEWID
 40
1.0
  9
$TEXTSTYLE
  7
Standard
  9
$CLAYER
  8
ADF70-0009
  9
$CELTYPE
  6
Continuous
  9
$CECOLOR
 62
             256
  9
$CELTSCALE
 40
1.0
  9
$DISPSILH
 70
               0
  9
$DIMSCALE
 40
1.0
  9
$DIMASZ
 40
31.75
  9
$DIMEXO
 40
0.0
  9
$DIMDLI
 40
6.9999999999999396
  9
$DIMRND
 40
0.0
  9
$DIMDLE
 40
0.0
  9
$DIMEXE
 40
19.999999999996199
  9
$DIMTP
 40
0.0
  9
$DIMTM
 40
0.0
  9
$DIMTXT
 40
24.432617187500004
  9
$DIMCEN
 40
0.0
  9
$DIMTSZ
 40
0.0
  9
$DIMTOL
 70
               0
  9
$DIMLIM
 70
               0
  9
$DIMTIH
 70
               0
  9
$DIMTOH
 70
               0
  9
$DIMSE1
 70
               0
  9
$DIMSE2
 70
               0
  9
$DIMTAD
 70
               1
  9
$DIMZIN
 70
              11
  9
$DIMBLK
  1
VW_FILLEDARROW
  9
$DIMASO
 70
               1
  9
$DIMSHO
 70
               1
  9
$DIMPOST
  1
<>
  9
$DIMAPOST
  1
[]
  9
$DIMALT
 70
               0
  9
$DIMALTD
 70
               1
  9
$DIMALTF
 40
1.0
  9
$DIMLFAC
 40
1.0
  9
$DIMTOFL
 70
               0
  9
$DIMTVP
 40
0.0
  9
$DIMTIX
 70
               1
  9
$DIMSOXD
 70
               0
  9
$DIMSAH
 70
               0
  9
$DIMBLK1
  1

  9
$DIMBLK2
  1

  9
$DIMSTYLE
  2
JIS
  9
$DIMCLRD
 70
               0
  9
$DIMCLRE
 70
               0
  9
$DIMCLRT
 70
               0
  9
$DIMTFAC
 40
1.0
  9
$DIMGAP
 40
1.00000000000108
  9
$DIMJUST
 70
               0
  9
$DIMSD1
 70
               0
  9
$DIMSD2
 70
               0
  9
$DIMTOLJ
 70
               1
  9
$DIMTZIN
 70
              11
  9
$DIMALTZ
 70
              11
  9
$DIMALTTZ
 70
              11
  9
$DIMUPT
 70
               0
  9
$DIMDEC
 70
               1
  9
$DIMTDEC
 70
               1
  9
$DIMALTU
 70
               2
  9
$DIMALTTD
 70
               2
  9
$DIMTXSTY
  7
ＭＳ ゴシック
  9
$DIMAUNIT
 70
               0
  9
$DIMADEC
 70
               2
  9
$DIMALTRND
 40
0.0
  9
$DIMAZIN
 70
               0
  9
$DIMDSEP
 70
              46
  9
$DIMATFIT
 70
               0
  9
$DIMFRAC
 70
               2
  9
$DIMLDRBLK
  1

  9
$DIMLUNIT
 70
               2
  9
$DIMLWD
 70
              -2
  9
$DIMLWE
 70
              -2
  9
$DIMTMOVE
 70
               0
  9
$LUNITS
 70
               2
  9
$LUPREC
 70
               4
  9
$SKETCHINC
 40
0.1
  9
$FILLETRAD
 40
0.0
  9
$AUNITS
 70
               0
  9
$AUPREC
 70
               0
  9
$MENU
  1
acad
  9
$ELEVATION
 40
0.0
  9
$PELEVATION
 40
0.0
  9
$THICKNESS
 40
0.0
  9
$LIMCHECK
 70
               0
  9
$CHAMFERA
 40
0.0
  9
$CHAMFERB
 40
0.0
  9
$CHAMFERC
 40
0.0
  9
$CHAMFERD
 40
0.0
  9
$SKPOLY
 70
               0
  9
$TDCREATE
 40
2455839.588043982
  9
$TDUCREATE
 40
0.000000000
  9
$TDUPDATE
 40
2455839.588043982
  9
$TDUUPDATE
 40
0.000000000
  9
$TDINDWG
 40
0.0000000000
  9
$TDUSRTIMER
 40
0.0000000000
  9
$USRTIMER
 70
               1
  9
$ANGBASE
 50
0.0
  9
$ANGDIR
 70
               0
  9
$PDMODE
 70
               1
  9
$PDSIZE
 40
-2.0
  9
$PLINEWID
 40
0.0
  9
$SPLFRAME
 70
               0
  9
$SPLINETYPE
 70
               6
  9
$SPLINESEGS
 70
               8
  9
$HANDSEED
  5
229
  9
$SURFTAB1
 70
               6
  9
$SURFTAB2
 70
               6
  9
$SURFTYPE
 70
               6
  9
$SURFU
 70
               6
  9
$SURFV
 70
               6
  9
$UCSBASE
  2

  9
$UCSNAME
  2

  9
$UCSORG
 10
0.0
 20
0.0
 30
0.0
  9
$UCSXDIR
 10
1.0
 20
0.0
 30
0.0
  9
$UCSYDIR
 10
0.0
 20
1.0
 30
0.0
  9
$UCSORTHOREF
  2

  9
$UCSORTHOVIEW
 70
               0
  9
$UCSORGTOP
 10
0.0
 20
0.0
 30
0.0
  9
$UCSORGBOTTOM
 10
0.0
 20
0.0
 30
0.0
  9
$UCSORGLEFT
 10
0.0
 20
0.0
 30
0.0
  9
$UCSORGRIGHT
 10
0.0
 20
0.0
 30
0.0
  9
$UCSORGFRONT
 10
0.0
 20
0.0
 30
0.0
  9
$UCSORGBACK
 10
0.0
 20
0.0
 30
0.0
  9
$PUCSBASE
  2

  9
$PUCSNAME
  2

  9
$PUCSORG
 10
0.0
 20
0.0
 30
0.0
  9
$PUCSXDIR
 10
1.0
 20
0.0
 30
0.0
  9
$PUCSYDIR
 10
0.0
 20
1.0
 30
0.0
  9
$PUCSORTHOREF
  2

  9
$PUCSORTHOVIEW
 70
               0
  9
$PUCSORGTOP
 10
0.0
 20
0.0
 30
0.0
  9
$PUCSORGBOTTOM
 10
0.0
 20
0.0
 30
0.0
  9
$PUCSORGLEFT
 10
0.0
 20
0.0
 30
0.0
  9
$PUCSORGRIGHT
 10
0.0
 20
0.0
 30
0.0
  9
$PUCSORGFRONT
 10
0.0
 20
0.0
 30
0.0
  9
$PUCSORGBACK
 10
0.0
 20
0.0
 30
0.0
  9
$USERI1
 70
               0
  9
$USERI2
 70
               0
  9
$USERI3
 70
               0
  9
$USERI4
 70
               0
  9
$USERI5
 70
               0
  9
$USERR1
 40
0.0
  9
$USERR2
 40
0.0
  9
$USERR3
 40
0.0
  9
$USERR4
 40
0.0
  9
$USERR5
 40
0.0
  9
$WORLDVIEW
 70
               1
  9
$SHADEDGE
 70
               3
  9
$SHADEDIF
 70
              70
  9
$TILEMODE
 70
               1
  9
$MAXACTVP
 70
              64
  9
$PINSBASE
 10
0.0
 20
0.0
 30
0.0
  9
$PLIMCHECK
 70
               0
  9
$PEXTMIN
 10
1.0000000000000000E+20
 20
1.0000000000000000E+20
 30
1.0000000000000000E+20
  9
$PEXTMAX
 10
-1.0000000000000000E+20
 20
-1.0000000000000000E+20
 30
-1.0000000000000000E+20
  9
$PLIMMIN
 10
0.0
 20
0.0
  9
$PLIMMAX
 10
12.0
 20
9.0
  9
$UNITMODE
 70
               0
  9
$VISRETAIN
 70
               0
  9
$PLINEGEN
 70
               1
  9
$PSLTSCALE
 70
               0
  9
$TREEDEPTH
 70
            3020
  9
$CMLSTYLE
  2
Standard
  9
$CMLJUST
 70
               0
  9
$CMLSCALE
 40
1.0
  9
$PROXYGRAPHICS
 70
               0
  9
$MEASUREMENT
 70
               1
  9
$CELWEIGHT
370
               0
  9
$ENDCAPS
280
               0
  9
$JOINSTYLE
280
               0
  9
$LWDISPLAY
290
               1
  9
$INSUNITS
 70
               4
  9
$HYPERLINKBASE
  1

  9
$STYLESHEET
  1

  9
$XEDIT
290
               1
  9
$CEPSNTYPE
380
               0
  9
$PSTYLEMODE
290
               1
  9
$FINGERPRINTGUID
  2

  9
$VERSIONGUID
  2

  9
$EXTNAMES
290
               1
  9
$PSVPSCALE
 40
0.0
  0
ENDSEC
  0
SECTION
  2
CLASSES
  0
CLASS
  1
LWPOLYLINE
  2
AcDbPolyline
  3
AutoCAD 2000
 90
        0
280
               0
281
               1
  0
CLASS
  1
IMAGE
  2
AcDbRasterImage
  3
ISM
 90
      127
280
               0
281
               1
  0
CLASS
  1
OLE2FRAME
  2
AcDbOle2Frame
  3
AutoCAD 2000
 90
        0
280
               0
281
               1
  0
CLASS
  1
HATCH
  2
AcDbHatch
  3
AutoCAD 2000
 90
        0
280
               0
281
               1
  0
CLASS
  1
DICTIONARYVAR
  2
AcDbDictionaryVar
  3
AutoCAD 2000
 90
        0
280
               0
281
               0
  0
CLASS
  1
RASTERVARIABLES
  2
AcDbRasterVariables
  3
ISM
 90
        0
280
               0
281
               0
  0
CLASS
  1
IMAGEDEF
  2
AcDbRasterImageDef
  3
ISM
 90
        0
280
               0
281
               0
  0
CLASS
  1
IMAGEDEF_REACTOR
  2
AcDbRasterImageDefReactor
  3
ISM
 90
        1
280
               0
281
               0
  0
CLASS
  1
IDBUFFER
  2
AcDbIdBuffer
  3
AutoCAD 2000
 90
        0
280
               0
281
               0
  0
CLASS
  1
SPATIAL_FILTER
  2
AcDbSpatialFilter
  3
AutoCAD 2000
 90
        0
280
               0
281
               0
  0
CLASS
  1
XRECORD
  2
AcDbXrecord
  3
AutoCAD 2000
 90
        0
280
               0
281
               0
  0
CLASS
  1
SORTENTSTABLE
  2
AcDbSortentsTable
  3
AutoCAD 2000
 90
        0
280
               0
281
               0
  0
CLASS
  1
LAYER_INDEX
  2
AcDbLayerIndex
  3
AutoCAD 2000
 90
        0
280
               0
281
               0
  0
CLASS
  1
SPATIAL_INDEX
  2
AcDbSpatialIndex
  3
AutoCAD 2000
 90
        0
280
               0
281
               0
  0
CLASS
  1
OBJECT_PTR
  2
CAseDLPNTableRecord
  3
"ASE-LPNTableRecord"
 90
        1
280
               0
281
               0
  0
CLASS
  1
LAYOUT
  2
AcDbLayout
  3
AutoCAD 2000
 90
        0
280
               0
281
               0
  0
CLASS
  1
PLOTSETTINGS
  2
AcDbPlotSettings
  3
AutoCAD 2000
 90
        0
280
               0
281
               0
  0
CLASS
  1
ACDBDICTIONARYWDFLT
  2
AcDbDictionaryWithDefault
  3
AutoCAD 2000
 90
        0
280
               0
281
               0
  0
CLASS
  1
ACDBPLACEHOLDER
  2
AcDbPlaceHolder
  3
AutoCAD 2000
 90
        0
280
               0
281
               0
  0
ENDSEC
  0
SECTION
  2
TABLES
  0
TABLE
  2
VPORT
  5
7
100
AcDbSymbolTable
 70
               1
  0
VPORT
  5
15
100
AcDbSymbolTableRecord
100
AcDbViewportTableRecord
  2
*ACTIVE
 70
               0
 10
0.0
 20
0.0
 11
1.0
 21
1.0
 12
0.0
 22
-12.764114914906713
 13
0.0
 23
0.0
 14
1.0
 24
1.0
 15
0.0
 25
0.0
 16
0.0
 26
0.0
 36
1.0
 17
0.0
 27
0.0
 37
0.0
 40
2837.522815112412
 41
0.688564
 42
50.0
 43
0.0
 44
0.0
 50
0.0
 51
0.0
 71
               0
 72
            2000
 73
               1
 74
               1
 75
               0
 76
               0
 77
               0
 78
               0
281
               0
 65
               0
110
0.0
120
0.0
130
0.0
111
1.0
121
0.0
131
0.0
112
0.0
122
1.0
132
0.0
345
0
346
0
 79
               0
146
0.0
  0
ENDTAB
  0
TABLE
  2
LTYPE
  5
4
100
AcDbSymbolTable
 70
              14
  0
LTYPE
  5
11
100
AcDbSymbolTableRecord
100
AcDbLinetypeTableRecord
  2
ByBlock
 70
              64
  3

 72
              65
 73
               0
 40
0.0
  0
LTYPE
  5
12
100
AcDbSymbolTableRecord
100
AcDbLinetypeTableRecord
  2
ByLayer
 70
              64
  3

 72
              65
 73
               0
 40
0.0
  0
LTYPE
  5
13
100
AcDbSymbolTableRecord
100
AcDbLinetypeTableRecord
  2
Continuous
 70
              64
  3
Solid line
 72
              65
 73
               0
 40
0.0
  0
LTYPE
  5
38
100
AcDbSymbolTableRecord
100
AcDbLinetypeTableRecord
  2
STYLE_01
 70
               0
  3

 72
              65
 73
               2
 40
0.3690944881889764
 49
0.2460629921259843
 74
               0
 49
-0.1230314960629922
 74
               0
  0
LTYPE
  5
39
100
AcDbSymbolTableRecord
100
AcDbLinetypeTableRecord
  2
STYLE_02
 70
               0
  3

 72
              65
 73
               2
 40
0.6944250000000001
 49
0.48607
 74
               0
 49
-0.2083550000000001
 74
               0
  0
LTYPE
  5
3A
100
AcDbSymbolTableRecord
100
AcDbLinetypeTableRecord
  2
STYLE_03
 70
               0
  3

 72
              65
 73
               2
 40
1.25
 49
1.0416400000000001
 74
               0
 49
-0.2083599999999999
 74
               0
  0
LTYPE
  5
3B
100
AcDbSymbolTableRecord
100
AcDbLinetypeTableRecord
  2
STYLE_04
 70
               0
  3

 72
              65
 73
               2
 40
1.5277099999999999
 49
1.3194249999999998
 74
               0
 49
-0.208285
 74
               0
  0
LTYPE
  5
3C
100
AcDbSymbolTableRecord
100
AcDbLinetypeTableRecord
  2
STYLE_05
 70
               0
  3

 72
              65
 73
               2
 40
0.20828
 49
0.069425
 74
               0
 49
-0.138855
 74
               0
  0
LTYPE
  5
3D
100
AcDbSymbolTableRecord
100
AcDbLinetypeTableRecord
  2
STYLE_06
 70
               0
  3

 72
              65
 73
               4
 40
1.0416400000000001
 49
0.625
 74
               0
 49
-0.20828
 74
               0
 49
0.06943
 74
               0
 49
-0.13893
 74
               0
  0
LTYPE
  5
3E
100
AcDbSymbolTableRecord
100
AcDbLinetypeTableRecord
  2
STYLE_07
 70
               0
  3

 72
              65
 73
               6
 40
1.875
 49
0.625
 74
               0
 49
-0.20828
 74
               0
 49
0.6250000000000001
 74
               0
 49
-0.2083599999999999
 74
               0
 49
0.06943
 74
               0
 49
-0.1389299999999999
 74
               0
  0
LTYPE
  5
3F
100
AcDbSymbolTableRecord
100
AcDbLinetypeTableRecord
  2
STYLE_08
 70
               0
  3

 72
              65
 73
               6
 40
1.25
 49
0.625
 74
               0
 49
-0.20828
 74
               0
 49
0.06943
 74
               0
 49
-0.13893
 74
               0
 49
0.0694299999999999
 74
               0
 49
-0.13893
 74
               0
  0
LTYPE
  5
40
100
AcDbSymbolTableRecord
100
AcDbLinetypeTableRecord
  2
STYLE_09
 70
               0
  3

 72
              65
 73
               4
 40
5.0
 49
3.75
 74
               0
 49
-0.2777849999999998
 74
               0
 49
0.6944300000000003
 74
               0
 49
-0.2777849999999998
 74
               0
  0
LTYPE
  5
41
100
AcDbSymbolTableRecord
100
AcDbLinetypeTableRecord
  2
STYLE_10
 70
               0
  3

 72
              65
 73
               6
 40
5.9375
 49
3.75
 74
               0
 49
-0.2777849999999998
 74
               0
 49
0.6944300000000003
 74
               0
 49
-0.2777849999999998
 74
               0
 49
0.625
 74
               0
 49
-0.3125
 74
               0
  0
LTYPE
  5
42
100
AcDbSymbolTableRecord
100
AcDbLinetypeTableRecord
  2
STYLE_11
 70
               0
  3

 72
              65
 73
               2
 40
0.3937007874015748
 49
0.1968503937007874
 74
               0
 49
-0.1968503937007874
 74
               0
  0
ENDTAB
  0
TABLE
  2
LAYER
  5
2
100
AcDbSymbolTable
 70
               5
  0
LAYER
  5
14
100
AcDbSymbolTableRecord
100
AcDbLayerTableRecord
  2
0
 70
               0
 62
               7
  6
Continuous
290
               1
370
              -3
390
1D
  0
LAYER
  5
43
100
AcDbSymbolTableRecord
100
AcDbLayerTableRecord
  2
Defpoints
 70
               0
 62
               7
  6
Continuous
290
               0
370
              -3
390
1D
  0
LAYER
  5
44
100
AcDbSymbolTableRecord
100
AcDbLayerTableRecord
  2
template
 70
               0
 62
               7
  6
Continuous
290
               1
370
              -3
390
1D
  0
LAYER
  5
45
100
AcDbSymbolTableRecord
100
AcDbLayerTableRecord
  2
notes
 70
               0
 62
               7
  6
Continuous
290
               1
370
              -3
390
1D
  0
LAYER
  5
46
100
AcDbSymbolTableRecord
100
AcDbLayerTableRecord
  2
ADF70-0009
 70
               0
 62
               7
  6
Continuous
290
               1
370
              -3
390
1D
  0
ENDTAB
  0
TABLE
  2
STYLE
  5
3
100
AcDbSymbolTable
 70
               2
  0
STYLE
  5
17
100
AcDbSymbolTableRecord
100
AcDbTextStyleTableRecord
  2
Standard
 70
               0
 40
0.0
 41
1.0
 50
0.0
 71
               0
 42
0.0
  3
txt
  4
BIGFONT.SHX
  0
STYLE
  5
37
100
AcDbSymbolTableRecord
100
AcDbTextStyleTableRecord
  2
ＭＳ ゴシック
 70
               0
 40
0.0
 41
1.0
 50
0.0
 71
               0
 42
0.0
  3

  4
ＭＳ ゴシック
1001
ACAD
1000
ＭＳ ゴシック
1071
        0
  0
ENDTAB
  0
TABLE
  2
VIEW
  5
5
100
AcDbSymbolTable
 70
               0
  0
ENDTAB
  0
TABLE
  2
UCS
  5
6
100
AcDbSymbolTable
 70
               0
  0
ENDTAB
  0
TABLE
  2
APPID
  5
8
100
AcDbSymbolTable
 70
               1
  0
APPID
  5
16
100
AcDbSymbolTableRecord
100
AcDbRegAppTableRecord
  2
ACAD
 70
               0
  0
ENDTAB
  0
TABLE
  2
DIMSTYLE
  5
9
100
AcDbSymbolTable
 70
               3
100
AcDbDimStyleTable
 71
               0
  0
DIMSTYLE
105
18
100
AcDbSymbolTableRecord
100
AcDbDimStyleTableRecord
  2
Standard
 70
               0
  3

  4

 40
1.0
 41
0.18
 42
0.0625
 43
0.38
 44
0.18
 45
0.0
 46
0.0
 47
0.0
 48
0.0
 71
               0
 72
               0
 73
               1
 74
               1
 75
               0
 76
               0
 77
               0
 78
               0
 79
               0
140
0.18
141
0.09
142
0.0
143
25.399999999999999
144
1.0
145
0.0
146
1.0
147
0.09
148
0.0
170
               0
171
               2
172
               0
173
               0
174
               0
175
               0
176
               0
177
               0
178
               0
179
               0
271
               4
272
               4
273
               2
274
               2
275
               0
276
               0
277
               2
278
              46
279
               0
280
               0
281
               0
282
               0
283
               1
284
               0
285
               0
286
               0
288
               0
289
               3
340
17
341
0
342
0
343
0
344
0
371
              -2
372
              -2
  0
DIMSTYLE
105
4F
100
AcDbSymbolTableRecord
100
AcDbDimStyleTableRecord
  2
tform線あり
 70
               0
  3
<>
  4
[]
 40
1.0
 41
3.999755859375
 42
24.999999999999996
 43
0.9999999999999999
 44
0.0
 45
0.0
 46
0.0
 47
0.0
 48
0.0
 71
               0
 72
               0
 73
               0
 74
               0
 75
               0
 76
               0
 77
               1
 78
              11
 79
               0
140
24.432617187500004
141
0.0
142
0.0
143
1.0
144
1.0
145
0.0
146
1.0
147
0.4999999999999999
148
0.0
170
               0
171
               1
172
               0
173
               0
174
               1
175
               0
176
               0
177
               0
178
               0
179
               2
271
               1
272
               1
273
               2
274
               2
275
               0
276
               2
277
               2
278
              46
279
               0
280
               0
281
               0
282
               0
283
               1
284
              11
285
              11
286
              11
288
               0
289
               0
340
37
341
47
342
47
343
0
344
0
371
              -2
372
              -2
  0
DIMSTYLE
105
54
100
AcDbSymbolTableRecord
100
AcDbDimStyleTableRecord
  2
JIS
 70
               0
  3
<>
  4
[]
 40
1.0
 41
31.75
 42
0.0
 43
6.9999999999999396
 44
19.999999999996199
 45
0.0
 46
0.0
 47
0.0
 48
0.0
 71
               0
 72
               0
 73
               0
 74
               0
 75
               0
 76
               0
 77
               1
 78
              11
 79
               0
140
24.432617187500004
141
0.0
142
0.0
143
1.0
144
1.0
145
0.0
146
1.0
147
1.00000000000108
148
0.0
170
               0
171
               1
172
               0
173
               0
174
               1
175
               0
176
               0
177
               0
178
               0
179
               2
271
               1
272
               1
273
               2
274
               2
275
               0
276
               2
277
               2
278
              46
279
               0
280
               0
281
               0
282
               0
283
               1
284
              11
285
              11
286
              11
288
               0
289
               0
340
37
341
50
342
50
343
0
344
0
371
              -2
372
              -2
  0
ENDTAB
  0
TABLE
  2
BLOCK_RECORD
  5
1
100
AcDbSymbolTable
 70
              22
  0
BLOCK_RECORD
  5
A
100
AcDbSymbolTableRecord
100
AcDbBlockTableRecord
  2
*MODEL_SPACE
340
20
  0
BLOCK_RECORD
  5
B
100
AcDbSymbolTableRecord
100
AcDbBlockTableRecord
  2
*PAPER_SPACE
340
21
  0
BLOCK_RECORD
  5
47
100
AcDbSymbolTableRecord
100
AcDbBlockTableRecord
  2
_DOT
340
0
  0
BLOCK_RECORD
  5
50
100
AcDbSymbolTableRecord
100
AcDbBlockTableRecord
  2
VW_FILLEDARROW
340
0
  0
BLOCK_RECORD
  5
23
100
AcDbSymbolTableRecord
100
AcDbBlockTableRecord
  2
*D2
340
0
  0
BLOCK_RECORD
  5
24
100
AcDbSymbolTableRecord
100
AcDbBlockTableRecord
  2
*D3
340
0
  0
BLOCK_RECORD
  5
25
100
AcDbSymbolTableRecord
100
AcDbBlockTableRecord
  2
*D4
340
0
  0
BLOCK_RECORD
  5
26
100
AcDbSymbolTableRecord
100
AcDbBlockTableRecord
  2
*D5
340
0
  0
BLOCK_RECORD
  5
27
100
AcDbSymbolTableRecord
100
AcDbBlockTableRecord
  2
*D6
340
0
  0
BLOCK_RECORD
  5
28
100
AcDbSymbolTableRecord
100
AcDbBlockTableRecord
  2
*D7
340
0
  0
BLOCK_RECORD
  5
29
100
AcDbSymbolTableRecord
100
AcDbBlockTableRecord
  2
*D8
340
0
  0
BLOCK_RECORD
  5
2A
100
AcDbSymbolTableRecord
100
AcDbBlockTableRecord
  2
*D9
340
0
  0
BLOCK_RECORD
  5
2B
100
AcDbSymbolTableRecord
100
AcDbBlockTableRecord
  2
*D10
340
0
  0
BLOCK_RECORD
  5
2C
100
AcDbSymbolTableRecord
100
AcDbBlockTableRecord
  2
*D11
340
0
  0
BLOCK_RECORD
  5
2D
100
AcDbSymbolTableRecord
100
AcDbBlockTableRecord
  2
*D12
340
0
  0
BLOCK_RECORD
  5
2E
100
AcDbSymbolTableRecord
100
AcDbBlockTableRecord
  2
*D13
340
0
  0
BLOCK_RECORD
  5
2F
100
AcDbSymbolTableRecord
100
AcDbBlockTableRecord
  2
*D14
340
0
  0
BLOCK_RECORD
  5
30
100
AcDbSymbolTableRecord
100
AcDbBlockTableRecord
  2
*D15
340
0
  0
BLOCK_RECORD
  5
31
100
AcDbSymbolTableRecord
100
AcDbBlockTableRecord
  2
*D16
340
0
  0
BLOCK_RECORD
  5
32
100
AcDbSymbolTableRecord
100
AcDbBlockTableRecord
  2
*D17
340
0
  0
BLOCK_RECORD
  5
33
100
AcDbSymbolTableRecord
100
AcDbBlockTableRecord
  2
*D18
340
0
  0
BLOCK_RECORD
  5
34
100
AcDbSymbolTableRecord
100
AcDbBlockTableRecord
  2
*D19
340
0
  0
BLOCK_RECORD
  5
35
100
AcDbSymbolTableRecord
100
AcDbBlockTableRecord
  2
*D20
340
0
  0
BLOCK_RECORD
  5
36
100
AcDbSymbolTableRecord
100
AcDbBlockTableRecord
  2
*D21
340
0
  0
ENDTAB
  0
ENDSEC
  0
SECTION
  2
BLOCKS
  0
BLOCK
  5
D
100
AcDbEntity
  8
0
390
0
100
AcDbBlockBegin
  2
*MODEL_SPACE
 70
               0
 10
0.0
 20
0.0
 30
0.0
  3
*MODEL_SPACE
  1

  0
ENDBLK
  5
E
100
AcDbEntity
  8
0
390
0
100
AcDbBlockEnd
  0
BLOCK
  5
F
100
AcDbEntity
 67
               1
  8
0
390
0
100
AcDbBlockBegin
  2
*PAPER_SPACE
 70
               0
 10
0.0
 20
0.0
 30
0.0
  3
*PAPER_SPACE
  1

  0
ENDBLK
  5
10
100
AcDbEntity
 67
               1
  8
0
390
0
100
AcDbBlockEnd
  0
BLOCK
  5
48
100
AcDbEntity
  8
0
390
0
100
AcDbBlockBegin
  2
_DOT
 70
               0
 10
0.0
 20
0.0
 30
0.0
  3
_DOT
  1

  0
POLYLINE
  5
49
100
AcDbEntity
  8
0
370
              -2
390
0
  6
ByBlock
 62
               0
100
AcDb2dPolyline
 66
               1
 10
0.0
 20
0.0
 30
0.0
 70
               1
 40
0.5
 41
0.5
  0
VERTEX
  5
4A
100
AcDbEntity
  8
0
370
              -2
390
0
  6
ByBlock
 62
               0
100
AcDbVertex
100
AcDb2dVertex
 10
-0.25
 20
0.0
 30
0.0
 42
1.0
  0
VERTEX
  5
4B
100
AcDbEntity
  8
0
370
              -2
390
0
  6
ByBlock
 62
               0
100
AcDbVertex
100
AcDb2dVertex
 10
0.25
 20
0.0
 30
0.0
 42
1.0
  0
SEQEND
  5
4C
100
AcDbEntity
  8
0
390
0
  0
LINE
  5
4D
100
AcDbEntity
  8
0
370
              -2
390
0
  6
ByBlock
 62
               0
100
AcDbLine
 10
-0.5
 20
0.0
 30
0.0
 11
-1.0
 21
0.0
 31
0.0
  0
ENDBLK
  5
4E
100
AcDbEntity
  8
0
390
0
100
AcDbBlockEnd
  0
BLOCK
  5
51
100
AcDbEntity
  8
0
370
              -2
390
0
  6
ByBlock
 62
               0
100
AcDbBlockBegin
  2
VW_FILLEDARROW
 70
               0
 10
0.0
 20
0.0
 30
0.0
  3
VW_FILLEDARROW
  1

  0
SOLID
  5
52
100
AcDbEntity
  8
0
370
              -2
390
0
 62
               0
100
AcDbTrace
 10
0.0
 20
0.0
 30
0.0
 11
-0.9921874999999999
 21
-0.2658558393652545
 31
0.0
 12
-0.9921874999999999
 22
0.2658558393652548
 32
0.0
 13
-0.9921874999999999
 23
0.2658558393652548
 33
0.0
  0
ENDBLK
  5
53
100
AcDbEntity
  8
0
390
0
100
AcDbBlockEnd
  0
BLOCK
  5
55
100
AcDbEntity
  8
notes
390
0
100
AcDbBlockBegin
  2
*D2
 70
               1
 10
0.0
 20
0.0
 30
0.0
  3
*D2
  1

  0
LINE
  5
56
100
AcDbEntity
  8
0
370
              -2
390
0
  6
Continuous
 62
               0
100
AcDbLine
 10
-713.45201063653803
 20
647.03027936577473
 30
0.0
 11
-713.45201063653803
 21
980.06978301174695
 31
0.0
  0
LINE
  5
57
100
AcDbEntity
  8
0
370
              -2
390
0
  6
Continuous
 62
               0
100
AcDbLine
 10
-213.4889663319118
 20
647.03027936577473
 30
0.0
 11
-213.4889663319118
 21
980.06978301174695
 31
0.0
  0
LINE
  5
58
100
AcDbEntity
  8
0
370
              -2
390
0
  6
Continuous
 62
               0
100
AcDbLine
 10
-713.45201063653803
 20
980.06978301174695
 30
0.0
 11
-213.4889663319118
 21
980.06978301174695
 31
0.0
  0
CIRCLE
  5
59
102
{ACAD_REACTORS
330
5A
102
}
100
AcDbEntity
  8
0
370
              -2
390
0
  6
Continuous
 62
               0
100
AcDbCircle
 10
-713.45201063653803
 20
980.06978301174695
 30
0.0
 40
1.9998779296875
  0
HATCH
  5
5A
100
AcDbEntity
  8
0
370
              -2
390
0
  6
Continuous
 62
               0
100
AcDbHatch
 10
0.0
 20
0.0
 30
0.0
210
0.0
220
0.0
230
1.0
  2
SOLID
 70
               1
 71
               1
 91
        1
 92
        1
 93
        1
 72
               2
 10
-713.45201063653803
 20
980.06978301174695
 40
1.9998779296875
 50
0.0
 51
360.0
 73
               0
 97
        1
330
59
 75
               0
 76
               1
 98
        1
 10
0.0
 20
0.0
  0
CIRCLE
  5
5B
102
{ACAD_REACTORS
330
5C
102
}
100
AcDbEntity
  8
0
370
              -2
390
0
  6
Continuous
 62
               0
100
AcDbCircle
 10
-213.4889663319118
 20
980.06978301174695
 30
0.0
 40
1.9998779296875
  0
HATCH
  5
5C
100
AcDbEntity
  8
0
370
              -2
390
0
  6
Continuous
 62
               0
100
AcDbHatch
 10
0.0
 20
0.0
 30
0.0
210
0.0
220
0.0
230
1.0
  2
SOLID
 70
               1
 71
               1
 91
        1
 92
        1
 93
        1
 72
               2
 10
-213.4889663319118
 20
980.06978301174695
 40
1.9998779296875
 50
0.0
 51
360.0
 73
               0
 97
        1
330
5B
 75
               0
 76
               1
 98
        1
 10
0.0
 20
0.0
  0
MTEXT
  5
5D
100
AcDbEntity
  8
0
390
0
 62
               0
100
AcDbMText
 10
-487.28299016639357
 20
1013.947400199247
 30
0.0
 40
24.432617187500004
 41
0.0
 71
               1
 72
               1
  1
500
  7
ＭＳ ゴシック
 73
               1
 44
0.7828267384257843
  0
POINT
  5
5E
100
AcDbEntity
  8
Defpoints
370
               0
390
0
 62
               0
100
AcDbPoint
 10
-213.4889663319118
 20
622.03027936577473
 30
0.0
  0
POINT
  5
5F
100
AcDbEntity
  8
Defpoints
370
               0
390
0
 62
               0
100
AcDbPoint
 10
-713.45201063653803
 20
622.03027936577473
 30
0.0
  0
POINT
  5
60
100
AcDbEntity
  8
Defpoints
370
               0
390
0
 62
               0
100
AcDbPoint
 10
-713.45201063653803
 20
980.06978301174695
 30
0.0
  0
ENDBLK
  5
61
100
AcDbEntity
  8
notes
390
0
100
AcDbBlockEnd
  0
BLOCK
  5
62
100
AcDbEntity
  8
notes
390
0
100
AcDbBlockBegin
  2
*D3
 70
               1
 10
0.0
 20
0.0
 30
0.0
  3
*D3
  1

  0
LINE
  5
63
100
AcDbEntity
  8
0
370
              -2
390
0
  6
Continuous
 62
               0
100
AcDbLine
 10
-645.93617989593622
 20
855.06978301174695
 30
0.0
 11
-645.93617989593622
 21
930.06978301174695
 31
0.0
  0
LINE
  5
64
100
AcDbEntity
  8
0
370
              -2
390
0
  6
Continuous
 62
               0
100
AcDbLine
 10
-280.93617989593622
 20
855.06978301174695
 30
0.0
 11
-280.93617989593622
 21
930.06978301174695
 31
0.0
  0
LINE
  5
65
100
AcDbEntity
  8
0
370
              -2
390
0
  6
Continuous
 62
               0
100
AcDbLine
 10
-645.93617989593622
 20
930.06978301174695
 30
0.0
 11
-280.93617989593622
 21
930.06978301174695
 31
0.0
  0
CIRCLE
  5
66
102
{ACAD_REACTORS
330
67
102
}
100
AcDbEntity
  8
0
370
              -2
390
0
  6
Continuous
 62
               0
100
AcDbCircle
 10
-645.93617989593622
 20
930.06978301174695
 30
0.0
 40
1.9998779296875
  0
HATCH
  5
67
100
AcDbEntity
  8
0
370
              -2
390
0
  6
Continuous
 62
               0
100
AcDbHatch
 10
0.0
 20
0.0
 30
0.0
210
0.0
220
0.0
230
1.0
  2
SOLID
 70
               1
 71
               1
 91
        1
 92
        1
 93
        1
 72
               2
 10
-645.93617989593622
 20
930.06978301174695
 40
1.9998779296875
 50
0.0
 51
360.0
 73
               0
 97
        1
330
66
 75
               0
 76
               1
 98
        1
 10
0.0
 20
0.0
  0
CIRCLE
  5
68
102
{ACAD_REACTORS
330
69
102
}
100
AcDbEntity
  8
0
370
              -2
390
0
  6
Continuous
 62
               0
100
AcDbCircle
 10
-280.93617989593622
 20
930.06978301174695
 30
0.0
 40
1.9998779296875
  0
HATCH
  5
69
100
AcDbEntity
  8
0
370
              -2
390
0
  6
Continuous
 62
               0
100
AcDbHatch
 10
0.0
 20
0.0
 30
0.0
210
0.0
220
0.0
230
1.0
  2
SOLID
 70
               1
 71
               1
 91
        1
 92
        1
 93
        1
 72
               2
 10
-280.93617989593622
 20
930.06978301174695
 40
1.9998779296875
 50
0.0
 51
360.0
 73
               0
 97
        1
330
68
 75
               0
 76
               1
 98
        1
 10
0.0
 20
0.0
  0
MTEXT
  5
6A
100
AcDbEntity
  8
0
390
0
 62
               0
100
AcDbMText
 10
-487.24868157810852
 20
963.947400199247
 30
0.0
 40
24.432617187500004
 41
0.0
 71
               1
 72
               1
  1
365
  7
ＭＳ ゴシック
 73
               1
 44
0.7828267384257843
  0
POINT
  5
6B
100
AcDbEntity
  8
Defpoints
370
               0
390
0
 62
               0
100
AcDbPoint
 10
-280.93617989593622
 20
830.06978301174695
 30
0.0
  0
POINT
  5
6C
100
AcDbEntity
  8
Defpoints
370
               0
390
0
 62
               0
100
AcDbPoint
 10
-645.93617989593622
 20
830.06978301174695
 30
0.0
  0
POINT
  5
6D
100
AcDbEntity
  8
Defpoints
370
               0
390
0
 62
               0
100
AcDbPoint
 10
-645.93617989593622
 20
930.06978301174695
 30
0.0
  0
ENDBLK
  5
6E
100
AcDbEntity
  8
notes
390
0
100
AcDbBlockEnd
  0
BLOCK
  5
6F
100
AcDbEntity
  8
notes
390
0
100
AcDbBlockBegin
  2
*D4
 70
               1
 10
0.0
 20
0.0
 30
0.0
  3
*D4
  1

  0
LINE
  5
70
100
AcDbEntity
  8
0
370
              -2
390
0
  6
Continuous
 62
               0
100
AcDbLine
 10
-670.93617989593622
 20
830.06978301174695
 30
0.0
 11
-813.45201063654531
 21
830.06978301174695
 31
0.0
  0
LINE
  5
71
100
AcDbEntity
  8
0
370
              -2
390
0
  6
Continuous
 62
               0
100
AcDbLine
 10
-702.01205352463876
 20
710.06978301174695
 30
0.0
 11
-813.45201063654531
 21
710.06978301174695
 31
0.0
  0
LINE
  5
72
100
AcDbEntity
  8
0
370
              -2
390
0
  6
Continuous
 62
               0
100
AcDbLine
 10
-813.45201063654531
 20
830.06978301174695
 30
0.0
 11
-813.45201063654531
 21
710.06978301174695
 31
0.0
  0
CIRCLE
  5
73
102
{ACAD_REACTORS
330
74
102
}
100
AcDbEntity
  8
0
370
              -2
390
0
  6
Continuous
 62
               0
100
AcDbCircle
 10
-813.45201063654531
 20
830.06978301174695
 30
0.0
 40
1.9998779296875
  0
HATCH
  5
74
100
AcDbEntity
  8
0
370
              -2
390
0
  6
Continuous
 62
               0
100
AcDbHatch
 10
0.0
 20
0.0
 30
0.0
210
0.0
220
0.0
230
1.0
  2
SOLID
 70
               1
 71
               1
 91
        1
 92
        1
 93
        1
 72
               2
 10
-813.45201063654531
 20
830.06978301174695
 40
1.9998779296875
 50
0.0
 51
360.0
 73
               0
 97
        1
330
73
 75
               0
 76
               1
 98
        1
 10
0.0
 20
0.0
  0
CIRCLE
  5
75
102
{ACAD_REACTORS
330
76
102
}
100
AcDbEntity
  8
0
370
              -2
390
0
  6
Continuous
 62
               0
100
AcDbCircle
 10
-813.45201063654531
 20
710.06978301174695
 30
0.0
 40
1.9998779296875
  0
HATCH
  5
76
100
AcDbEntity
  8
0
370
              -2
390
0
  6
Continuous
 62
               0
100
AcDbHatch
 10
0.0
 20
0.0
 30
0.0
210
0.0
220
0.0
230
1.0
  2
SOLID
 70
               1
 71
               1
 91
        1
 92
        1
 93
        1
 72
               2
 10
-813.45201063654531
 20
710.06978301174695
 40
1.9998779296875
 50
0.0
 51
360.0
 73
               0
 97
        1
330
75
 75
               0
 76
               1
 98
        1
 10
0.0
 20
0.0
  0
MTEXT
  5
77
100
AcDbEntity
  8
0
390
0
 62
               0
100
AcDbMText
 10
-847.32962782404502
 20
746.25728132957147
 30
0.0
 40
24.432617187500004
 41
0.0
 71
               1
 72
               1
  1
120
  7
ＭＳ ゴシック
 11
0.0
 21
1.0
 31
0.0
 73
               1
 44
0.7828267384257843
  0
POINT
  5
78
100
AcDbEntity
  8
Defpoints
370
               0
390
0
 62
               0
100
AcDbPoint
 10
-677.01205352463876
 20
710.06978301174695
 30
0.0
  0
POINT
  5
79
100
AcDbEntity
  8
Defpoints
370
               0
390
0
 62
               0
100
AcDbPoint
 10
-645.93617989593622
 20
830.06978301174695
 30
0.0
  0
POINT
  5
7A
100
AcDbEntity
  8
Defpoints
370
               0
390
0
 62
               0
100
AcDbPoint
 10
-813.45201063654531
 20
830.06978301174695
 30
0.0
  0
ENDBLK
  5
7B
100
AcDbEntity
  8
notes
390
0
100
AcDbBlockEnd
  0
BLOCK
  5
7C
100
AcDbEntity
  8
notes
390
0
100
AcDbBlockBegin
  2
*D5
 70
               1
 10
0.0
 20
0.0
 30
0.0
  3
*D5
  1

  0
LINE
  5
7D
100
AcDbEntity
  8
0
370
              -2
390
0
  6
Continuous
 62
               0
100
AcDbLine
 10
-702.01205352463876
 20
710.06978301174695
 30
0.0
 11
-813.45201063653803
 21
710.06978301174695
 31
0.0
  0
LINE
  5
7E
100
AcDbEntity
  8
0
370
              -2
390
0
  6
Continuous
 62
               0
100
AcDbLine
 10
-624.09159546647425
 20
370.05331855941472
 30
0.0
 11
-813.45201063653803
 21
370.05331855941472
 31
0.0
  0
LINE
  5
7F
100
AcDbEntity
  8
0
370
              -2
390
0
  6
Continuous
 62
               0
100
AcDbLine
 10
-813.45201063653803
 20
710.06978301174695
 30
0.0
 11
-813.45201063653803
 21
370.05331855941472
 31
0.0
  0
CIRCLE
  5
80
102
{ACAD_REACTORS
330
81
102
}
100
AcDbEntity
  8
0
370
              -2
390
0
  6
Continuous
 62
               0
100
AcDbCircle
 10
-813.45201063653803
 20
710.06978301174695
 30
0.0
 40
1.9998779296875
  0
HATCH
  5
81
100
AcDbEntity
  8
0
370
              -2
390
0
  6
Continuous
 62
               0
100
AcDbHatch
 10
0.0
 20
0.0
 30
0.0
210
0.0
220
0.0
230
1.0
  2
SOLID
 70
               1
 71
               1
 91
        1
 92
        1
 93
        1
 72
               2
 10
-813.45201063653803
 20
710.06978301174695
 40
1.9998779296875
 50
0.0
 51
360.0
 73
               0
 97
        1
330
80
 75
               0
 76
               1
 98
        1
 10
0.0
 20
0.0
  0
CIRCLE
  5
82
102
{ACAD_REACTORS
330
83
102
}
100
AcDbEntity
  8
0
370
              -2
390
0
  6
Continuous
 62
               0
100
AcDbCircle
 10
-813.45201063653803
 20
370.05331855941472
 30
0.0
 40
1.9998779296875
  0
HATCH
  5
83
100
AcDbEntity
  8
0
370
              -2
390
0
  6
Continuous
 62
               0
100
AcDbHatch
 10
0.0
 20
0.0
 30
0.0
210
0.0
220
0.0
230
1.0
  2
SOLID
 70
               1
 71
               1
 91
        1
 92
        1
 93
        1
 72
               2
 10
-813.45201063653803
 20
370.05331855941472
 40
1.9998779296875
 50
0.0
 51
360.0
 73
               0
 97
        1
330
82
 75
               0
 76
               1
 98
        1
 10
0.0
 20
0.0
  0
MTEXT
  5
84
100
AcDbEntity
  8
0
390
0
 62
               0
100
AcDbMText
 10
-847.32962782403774
 20
516.24904910340547
 30
0.0
 40
24.432617187500004
 41
0.0
 71
               1
 72
               1
  1
340
  7
ＭＳ ゴシック
 11
0.0
 21
1.0
 31
0.0
 73
               1
 44
0.7828267384257843
  0
POINT
  5
85
100
AcDbEntity
  8
Defpoints
370
               0
390
0
 62
               0
100
AcDbPoint
 10
-599.09159546647425
 20
370.05331855941472
 30
0.0
  0
POINT
  5
86
100
AcDbEntity
  8
Defpoints
370
               0
390
0
 62
               0
100
AcDbPoint
 10
-677.01205352463876
 20
710.06978301174695
 30
0.0
  0
POINT
  5
87
100
AcDbEntity
  8
Defpoints
370
               0
390
0
 62
               0
100
AcDbPoint
 10
-813.45201063653803
 20
710.06978301174695
 30
0.0
  0
ENDBLK
  5
88
100
AcDbEntity
  8
notes
390
0
100
AcDbBlockEnd
  0
BLOCK
  5
89
100
AcDbEntity
  8
notes
390
0
100
AcDbBlockBegin
  2
*D6
 70
               1
 10
0.0
 20
0.0
 30
0.0
  3
*D6
  1

  0
LINE
  5
8A
100
AcDbEntity
  8
0
370
              -2
390
0
  6
Continuous
 62
               0
100
AcDbLine
 10
719.65882702336239
 20
-363.82776251786618
 30
0.0
 11
719.65882702336239
 21
-285.77189659607302
 31
0.0
  0
LINE
  5
8B
100
AcDbEntity
  8
0
370
              -2
390
0
  6
Continuous
 62
               0
100
AcDbLine
 10
659.65066688817751
 20
-360.82776251786618
 30
0.0
 11
659.65066688817751
 21
-285.77189659607302
 31
0.0
  0
LINE
  5
8C
100
AcDbEntity
  8
0
370
              -2
390
0
  6
Continuous
 62
               0
100
AcDbLine
 10
719.65882702336239
 20
-285.77189659607302
 30
0.0
 11
659.65066688817751
 21
-285.77189659607302
 31
0.0
  0
CIRCLE
  5
8D
102
{ACAD_REACTORS
330
8E
102
}
100
AcDbEntity
  8
0
370
              -2
390
0
  6
Continuous
 62
               0
100
AcDbCircle
 10
719.65882702336239
 20
-285.77189659607302
 30
0.0
 40
1.9998779296875
  0
HATCH
  5
8E
100
AcDbEntity
  8
0
370
              -2
390
0
  6
Continuous
 62
               0
100
AcDbHatch
 10
0.0
 20
0.0
 30
0.0
210
0.0
220
0.0
230
1.0
  2
SOLID
 70
               1
 71
               1
 91
        1
 92
        1
 93
        1
 72
               2
 10
719.65882702336239
 20
-285.77189659607302
 40
1.9998779296875
 50
0.0
 51
360.0
 73
               0
 97
        1
330
8D
 75
               0
 76
               1
 98
        1
 10
0.0
 20
0.0
  0
CIRCLE
  5
8F
102
{ACAD_REACTORS
330
90
102
}
100
AcDbEntity
  8
0
370
              -2
390
0
  6
Continuous
 62
               0
100
AcDbCircle
 10
659.65066688817751
 20
-285.77189659607302
 30
0.0
 40
1.9998779296875
  0
HATCH
  5
90
100
AcDbEntity
  8
0
370
              -2
390
0
  6
Continuous
 62
               0
100
AcDbHatch
 10
0.0
 20
0.0
 30
0.0
210
0.0
220
0.0
230
1.0
  2
SOLID
 70
               1
 71
               1
 91
        1
 92
        1
 93
        1
 72
               2
 10
659.65066688817751
 20
-285.77189659607302
 40
1.9998779296875
 50
0.0
 51
360.0
 73
               0
 97
        1
330
8F
 75
               0
 76
               1
 98
        1
 10
0.0
 20
0.0
  0
MTEXT
  5
91
100
AcDbEntity
  8
0
390
0
 62
               0
100
AcDbMText
 10
673.77974695576995
 20
-251.89427940857286
 30
0.0
 40
24.432617187500004
 41
0.0
 71
               1
 72
               1
  1
60
  7
ＭＳ ゴシック
 73
               1
 44
0.7828267384257843
  0
POINT
  5
92
100
AcDbEntity
  8
Defpoints
370
               0
390
0
 62
               0
100
AcDbPoint
 10
659.65066688817751
 20
-385.82776251786618
 30
0.0
  0
POINT
  5
93
100
AcDbEntity
  8
Defpoints
370
               0
390
0
 62
               0
100
AcDbPoint
 10
719.65882702336239
 20
-388.82776251786618
 30
0.0
  0
POINT
  5
94
100
AcDbEntity
  8
Defpoints
370
               0
390
0
 62
               0
100
AcDbPoint
 10
719.65882702336239
 20
-285.77189659607302
 30
0.0
  0
ENDBLK
  5
95
100
AcDbEntity
  8
notes
390
0
100
AcDbBlockEnd
  0
BLOCK
  5
96
100
AcDbEntity
  8
notes
390
0
100
AcDbBlockBegin
  2
*D7
 70
               1
 10
0.0
 20
0.0
 30
0.0
  3
*D7
  1

  0
LINE
  5
97
100
AcDbEntity
  8
0
370
              -2
390
0
  6
Continuous
 62
               0
100
AcDbLine
 10
-533.43617989593622
 20
-380.90000000000009
 30
0.0
 11
-533.43617989593622
 21
-287.39999999999873
 31
0.0
  0
LINE
  5
98
100
AcDbEntity
  8
0
370
              -2
390
0
  6
Continuous
 62
               0
100
AcDbLine
 10
-393.43617989593622
 20
-379.35241487180701
 30
0.0
 11
-393.43617989593622
 21
-287.39999999999873
 31
0.0
  0
LINE
  5
99
100
AcDbEntity
  8
0
370
              -2
390
0
  6
Continuous
 62
               0
100
AcDbLine
 10
-533.43617989593622
 20
-287.39999999999873
 30
0.0
 11
-393.43617989593622
 21
-287.39999999999873
 31
0.0
  0
CIRCLE
  5
9A
102
{ACAD_REACTORS
330
9B
102
}
100
AcDbEntity
  8
0
370
              -2
390
0
  6
Continuous
 62
               0
100
AcDbCircle
 10
-533.43617989593622
 20
-287.39999999999873
 30
0.0
 40
1.9998779296875
  0
HATCH
  5
9B
100
AcDbEntity
  8
0
370
              -2
390
0
  6
Continuous
 62
               0
100
AcDbHatch
 10
0.0
 20
0.0
 30
0.0
210
0.0
220
0.0
230
1.0
  2
SOLID
 70
               1
 71
               1
 91
        1
 92
        1
 93
        1
 72
               2
 10
-533.43617989593622
 20
-287.39999999999873
 40
1.9998779296875
 50
0.0
 51
360.0
 73
               0
 97
        1
330
9A
 75
               0
 76
               1
 98
        1
 10
0.0
 20
0.0
  0
CIRCLE
  5
9C
102
{ACAD_REACTORS
330
9D
102
}
100
AcDbEntity
  8
0
370
              -2
390
0
  6
Continuous
 62
               0
100
AcDbCircle
 10
-393.43617989593622
 20
-287.39999999999873
 30
0.0
 40
1.9998779296875
  0
HATCH
  5
9D
100
AcDbEntity
  8
0
370
              -2
390
0
  6
Continuous
 62
               0
100
AcDbHatch
 10
0.0
 20
0.0
 30
0.0
210
0.0
220
0.0
230
1.0
  2
SOLID
 70
               1
 71
               1
 91
        1
 92
        1
 93
        1
 72
               2
 10
-393.43617989593622
 20
-287.39999999999873
 40
1.9998779296875
 50
0.0
 51
360.0
 73
               0
 97
        1
330
9C
 75
               0
 76
               1
 98
        1
 10
0.0
 20
0.0
  0
MTEXT
  5
9E
100
AcDbEntity
  8
0
390
0
 62
               0
100
AcDbMText
 10
-487.24868157810852
 20
-253.52238281249856
 30
0.0
 40
24.432617187500004
 41
0.0
 71
               1
 72
               1
  1
140
  7
ＭＳ ゴシック
 73
               1
 44
0.7828267384257843
  0
POINT
  5
9F
100
AcDbEntity
  8
Defpoints
370
               0
390
0
 62
               0
100
AcDbPoint
 10
-393.43617989593622
 20
-404.35241487180701
 30
0.0
  0
POINT
  5
A0
100
AcDbEntity
  8
Defpoints
370
               0
390
0
 62
               0
100
AcDbPoint
 10
-533.43617989593622
 20
-405.90000000000009
 30
0.0
  0
POINT
  5
A1
100
AcDbEntity
  8
Defpoints
370
               0
390
0
 62
               0
100
AcDbPoint
 10
-533.43617989593622
 20
-287.39999999999873
 30
0.0
  0
ENDBLK
  5
A2
100
AcDbEntity
  8
notes
390
0
100
AcDbBlockEnd
  0
BLOCK
  5
A3
100
AcDbEntity
  8
notes
390
0
100
AcDbBlockBegin
  2
*D8
 70
               1
 10
0.0
 20
0.0
 30
0.0
  3
*D8
  1

  0
LINE
  5
A4
100
AcDbEntity
  8
0
370
              -2
390
0
  6
Continuous
 62
               0
100
AcDbLine
 10
-663.43617989593622
 20
405.02404912256384
 30
0.0
 11
-663.43617989593622
 21
229.76377924187773
 31
0.0
  0
LINE
  5
A5
100
AcDbEntity
  8
0
370
              -2
390
0
  6
Continuous
 62
               0
100
AcDbLine
 10
-263.43617989593622
 20
405.11553869799263
 30
0.0
 11
-263.43617989593622
 21
229.76377924187773
 31
0.0
  0
LINE
  5
A6
100
AcDbEntity
  8
0
370
              -2
390
0
  6
Continuous
 62
               0
100
AcDbLine
 10
-663.43617989593622
 20
229.76377924187773
 30
0.0
 11
-263.43617989593622
 21
229.76377924187773
 31
0.0
  0
CIRCLE
  5
A7
102
{ACAD_REACTORS
330
A8
102
}
100
AcDbEntity
  8
0
370
              -2
390
0
  6
Continuous
 62
               0
100
AcDbCircle
 10
-663.43617989593622
 20
229.76377924187773
 30
0.0
 40
1.9998779296875
  0
HATCH
  5
A8
100
AcDbEntity
  8
0
370
              -2
390
0
  6
Continuous
 62
               0
100
AcDbHatch
 10
0.0
 20
0.0
 30
0.0
210
0.0
220
0.0
230
1.0
  2
SOLID
 70
               1
 71
               1
 91
        1
 92
        1
 93
        1
 72
               2
 10
-663.43617989593622
 20
229.76377924187773
 40
1.9998779296875
 50
0.0
 51
360.0
 73
               0
 97
        1
330
A7
 75
               0
 76
               1
 98
        1
 10
0.0
 20
0.0
  0
CIRCLE
  5
A9
102
{ACAD_REACTORS
330
AA
102
}
100
AcDbEntity
  8
0
370
              -2
390
0
  6
Continuous
 62
               0
100
AcDbCircle
 10
-263.43617989593622
 20
229.76377924187773
 30
0.0
 40
1.9998779296875
  0
HATCH
  5
AA
100
AcDbEntity
  8
0
370
              -2
390
0
  6
Continuous
 62
               0
100
AcDbHatch
 10
0.0
 20
0.0
 30
0.0
210
0.0
220
0.0
230
1.0
  2
SOLID
 70
               1
 71
               1
 91
        1
 92
        1
 93
        1
 72
               2
 10
-263.43617989593622
 20
229.76377924187773
 40
1.9998779296875
 50
0.0
 51
360.0
 73
               0
 97
        1
330
A9
 75
               0
 76
               1
 98
        1
 10
0.0
 20
0.0
  0
MTEXT
  5
AB
100
AcDbEntity
  8
0
390
0
 62
               0
100
AcDbMText
 10
-487.28299016640085
 20
263.64139642937766
 30
0.0
 40
24.432617187500004
 41
0.0
 71
               1
 72
               1
  1
400
  7
ＭＳ ゴシック
 73
               1
 44
0.7828267384257843
  0
POINT
  5
AC
100
AcDbEntity
  8
Defpoints
370
               0
390
0
 62
               0
100
AcDbPoint
 10
-263.43617989593622
 20
430.11553869799263
 30
0.0
  0
POINT
  5
AD
100
AcDbEntity
  8
Defpoints
370
               0
390
0
 62
               0
100
AcDbPoint
 10
-663.43617989593622
 20
430.02404912256384
 30
0.0
  0
POINT
  5
AE
100
AcDbEntity
  8
Defpoints
370
               0
390
0
 62
               0
100
AcDbPoint
 10
-663.43617989593622
 20
229.76377924187773
 30
0.0
  0
ENDBLK
  5
AF
100
AcDbEntity
  8
notes
390
0
100
AcDbBlockEnd
  0
BLOCK
  5
B0
100
AcDbEntity
  8
notes
390
0
100
AcDbBlockBegin
  2
*D9
 70
               1
 10
0.0
 20
0.0
 30
0.0
  3
*D9
  1

  0
LINE
  5
B1
100
AcDbEntity
  8
0
370
              -2
390
0
  6
Continuous
 62
               0
100
AcDbLine
 10
-255.93617989593622
 20
830.06978301174695
 30
0.0
 11
-113.4889663319118
 21
830.06978301174695
 31
0.0
  0
LINE
  5
B2
100
AcDbEntity
  8
0
370
              -2
390
0
  6
Continuous
 62
               0
100
AcDbLine
 10
-396.43617989593622
 20
330.06978301174695
 30
0.0
 11
-113.4889663319118
 21
330.06978301174695
 31
0.0
  0
LINE
  5
B3
100
AcDbEntity
  8
0
370
              -2
390
0
  6
Continuous
 62
               0
100
AcDbLine
 10
-113.4889663319118
 20
830.06978301174695
 30
0.0
 11
-113.4889663319118
 21
330.06978301174695
 31
0.0
  0
CIRCLE
  5
B4
102
{ACAD_REACTORS
330
B5
102
}
100
AcDbEntity
  8
0
370
              -2
390
0
  6
Continuous
 62
               0
100
AcDbCircle
 10
-113.4889663319118
 20
830.06978301174695
 30
0.0
 40
1.9998779296875
  0
HATCH
  5
B5
100
AcDbEntity
  8
0
370
              -2
390
0
  6
Continuous
 62
               0
100
AcDbHatch
 10
0.0
 20
0.0
 30
0.0
210
0.0
220
0.0
230
1.0
  2
SOLID
 70
               1
 71
               1
 91
        1
 92
        1
 93
        1
 72
               2
 10
-113.4889663319118
 20
830.06978301174695
 40
1.9998779296875
 50
0.0
 51
360.0
 73
               0
 97
        1
330
B4
 75
               0
 76
               1
 98
        1
 10
0.0
 20
0.0
  0
CIRCLE
  5
B6
102
{ACAD_REACTORS
330
B7
102
}
100
AcDbEntity
  8
0
370
              -2
390
0
  6
Continuous
 62
               0
100
AcDbCircle
 10
-113.4889663319118
 20
330.06978301174695
 30
0.0
 40
1.9998779296875
  0
HATCH
  5
B7
100
AcDbEntity
  8
0
370
              -2
390
0
  6
Continuous
 62
               0
100
AcDbHatch
 10
0.0
 20
0.0
 30
0.0
210
0.0
220
0.0
230
1.0
  2
SOLID
 70
               1
 71
               1
 91
        1
 92
        1
 93
        1
 72
               2
 10
-113.4889663319118
 20
330.06978301174695
 40
1.9998779296875
 50
0.0
 51
360.0
 73
               0
 97
        1
330
B6
 75
               0
 76
               1
 98
        1
 10
0.0
 20
0.0
  0
MTEXT
  5
B8
100
AcDbEntity
  8
0
390
0
 62
               0
100
AcDbMText
 10
-147.36658351941151
 20
556.25728132957147
 30
0.0
 40
24.432617187500004
 41
0.0
 71
               1
 72
               1
  1
500
  7
ＭＳ ゴシック
 11
0.0
 21
1.0
 31
0.0
 73
               1
 44
0.7828267384257843
  0
POINT
  5
B9
100
AcDbEntity
  8
Defpoints
370
               0
390
0
 62
               0
100
AcDbPoint
 10
-421.43617989593622
 20
330.06978301174695
 30
0.0
  0
POINT
  5
BA
100
AcDbEntity
  8
Defpoints
370
               0
390
0
 62
               0
100
AcDbPoint
 10
-280.93617989593622
 20
830.06978301174695
 30
0.0
  0
POINT
  5
BB
100
AcDbEntity
  8
Defpoints
370
               0
390
0
 62
               0
100
AcDbPoint
 10
-113.4889663319118
 20
830.06978301174695
 30
0.0
  0
ENDBLK
  5
BC
100
AcDbEntity
  8
notes
390
0
100
AcDbBlockEnd
  0
BLOCK
  5
BD
100
AcDbEntity
  8
notes
390
0
100
AcDbBlockBegin
  2
*D10
 70
               1
 10
0.0
 20
0.0
 30
0.0
  3
*D10
  1

  0
LINE
  5
BE
100
AcDbEntity
  8
0
370
              -2
390
0
  6
Continuous
 62
               0
100
AcDbLine
 10
194.65882702336239
 20
-385.82776251786618
 30
0.0
 11
119.65882702336239
 21
-385.82776251786618
 31
0.0
  0
LINE
  5
BF
100
AcDbEntity
  8
0
370
              -2
390
0
  6
Continuous
 62
               0
100
AcDbLine
 10
194.65882702336239
 20
-470.82776251786572
 30
0.0
 11
119.65882702336239
 21
-470.82776251786572
 31
0.0
  0
LINE
  5
C0
100
AcDbEntity
  8
0
370
              -2
390
0
  6
Continuous
 62
               0
100
AcDbLine
 10
119.65882702336239
 20
-385.82776251786618
 30
0.0
 11
119.65882702336239
 21
-470.82776251786572
 31
0.0
  0
CIRCLE
  5
C1
102
{ACAD_REACTORS
330
C2
102
}
100
AcDbEntity
  8
0
370
              -2
390
0
  6
Continuous
 62
               0
100
AcDbCircle
 10
119.65882702336239
 20
-385.82776251786618
 30
0.0
 40
1.9998779296875
  0
HATCH
  5
C2
100
AcDbEntity
  8
0
370
              -2
390
0
  6
Continuous
 62
               0
100
AcDbHatch
 10
0.0
 20
0.0
 30
0.0
210
0.0
220
0.0
230
1.0
  2
SOLID
 70
               1
 71
               1
 91
        1
 92
        1
 93
        1
 72
               2
 10
119.65882702336239
 20
-385.82776251786618
 40
1.9998779296875
 50
0.0
 51
360.0
 73
               0
 97
        1
330
C1
 75
               0
 76
               1
 98
        1
 10
0.0
 20
0.0
  0
CIRCLE
  5
C3
102
{ACAD_REACTORS
330
C4
102
}
100
AcDbEntity
  8
0
370
              -2
390
0
  6
Continuous
 62
               0
100
AcDbCircle
 10
119.65882702336239
 20
-470.82776251786572
 30
0.0
 40
1.9998779296875
  0
HATCH
  5
C4
100
AcDbEntity
  8
0
370
              -2
390
0
  6
Continuous
 62
               0
100
AcDbHatch
 10
0.0
 20
0.0
 30
0.0
210
0.0
220
0.0
230
1.0
  2
SOLID
 70
               1
 71
               1
 91
        1
 92
        1
 93
        1
 72
               2
 10
119.65882702336239
 20
-470.82776251786572
 40
1.9998779296875
 50
0.0
 51
360.0
 73
               0
 97
        1
330
C3
 75
               0
 76
               1
 98
        1
 10
0.0
 20
0.0
  0
MTEXT
  5
C5
100
AcDbEntity
  8
0
390
0
 62
               0
100
AcDbMText
 10
85.781209835862683
 20
-444.20276251786572
 30
0.0
 40
24.432617187500004
 41
0.0
 71
               1
 72
               1
  1
85
  7
ＭＳ ゴシック
 11
0.0
 21
1.0
 31
0.0
 73
               1
 44
0.7828267384257843
  0
POINT
  5
C6
100
AcDbEntity
  8
Defpoints
370
               0
390
0
 62
               0
100
AcDbPoint
 10
219.65882702336239
 20
-470.82776251786572
 30
0.0
  0
POINT
  5
C7
100
AcDbEntity
  8
Defpoints
370
               0
390
0
 62
               0
100
AcDbPoint
 10
219.65882702336239
 20
-385.82776251786618
 30
0.0
  0
POINT
  5
C8
100
AcDbEntity
  8
Defpoints
370
               0
390
0
 62
               0
100
AcDbPoint
 10
119.65882702336239
 20
-385.82776251786618
 30
0.0
  0
ENDBLK
  5
C9
100
AcDbEntity
  8
notes
390
0
100
AcDbBlockEnd
  0
BLOCK
  5
CA
100
AcDbEntity
  8
notes
390
0
100
AcDbBlockBegin
  2
*D11
 70
               1
 10
0.0
 20
0.0
 30
0.0
  3
*D11
  1

  0
LINE
  5
CB
100
AcDbEntity
  8
0
370
              -2
390
0
  6
Continuous
 62
               0
100
AcDbLine
 10
194.65882702336239
 20
-470.82776251786572
 30
0.0
 11
119.65882702336239
 21
-470.82776251786572
 31
0.0
  0
LINE
  5
CC
100
AcDbEntity
  8
0
370
              -2
390
0
  6
Continuous
 62
               0
100
AcDbLine
 10
374.27527739297511
 20
-575.82776251786618
 30
0.0
 11
119.65882702336239
 21
-575.82776251786618
 31
0.0
  0
LINE
  5
CD
100
AcDbEntity
  8
0
370
              -2
390
0
  6
Continuous
 62
               0
100
AcDbLine
 10
119.65882702336239
 20
-470.82776251786572
 30
0.0
 11
119.65882702336239
 21
-575.82776251786618
 31
0.0
  0
CIRCLE
  5
CE
102
{ACAD_REACTORS
330
CF
102
}
100
AcDbEntity
  8
0
370
              -2
390
0
  6
Continuous
 62
               0
100
AcDbCircle
 10
119.65882702336239
 20
-470.82776251786572
 30
0.0
 40
1.9998779296875
  0
HATCH
  5
CF
100
AcDbEntity
  8
0
370
              -2
390
0
  6
Continuous
 62
               0
100
AcDbHatch
 10
0.0
 20
0.0
 30
0.0
210
0.0
220
0.0
230
1.0
  2
SOLID
 70
               1
 71
               1
 91
        1
 92
        1
 93
        1
 72
               2
 10
119.65882702336239
 20
-470.82776251786572
 40
1.9998779296875
 50
0.0
 51
360.0
 73
               0
 97
        1
330
CE
 75
               0
 76
               1
 98
        1
 10
0.0
 20
0.0
  0
CIRCLE
  5
D0
102
{ACAD_REACTORS
330
D1
102
}
100
AcDbEntity
  8
0
370
              -2
390
0
  6
Continuous
 62
               0
100
AcDbCircle
 10
119.65882702336239
 20
-575.82776251786618
 30
0.0
 40
1.9998779296875
  0
HATCH
  5
D1
100
AcDbEntity
  8
0
370
              -2
390
0
  6
Continuous
 62
               0
100
AcDbHatch
 10
0.0
 20
0.0
 30
0.0
210
0.0
220
0.0
230
1.0
  2
SOLID
 70
               1
 71
               1
 91
        1
 92
        1
 93
        1
 72
               2
 10
119.65882702336239
 20
-575.82776251786618
 40
1.9998779296875
 50
0.0
 51
360.0
 73
               0
 97
        1
330
D0
 75
               0
 76
               1
 98
        1
 10
0.0
 20
0.0
  0
MTEXT
  5
D2
100
AcDbEntity
  8
0
390
0
 62
               0
100
AcDbMText
 10
85.781209835862683
 20
-547.1402642000412
 30
0.0
 40
24.432617187500004
 41
0.0
 71
               1
 72
               1
  1
105
  7
ＭＳ ゴシック
 11
0.0
 21
1.0
 31
0.0
 73
               1
 44
0.7828267384257843
  0
POINT
  5
D3
100
AcDbEntity
  8
Defpoints
370
               0
390
0
 62
               0
100
AcDbPoint
 10
399.27527739297511
 20
-575.82776251786618
 30
0.0
  0
POINT
  5
D4
100
AcDbEntity
  8
Defpoints
370
               0
390
0
 62
               0
100
AcDbPoint
 10
219.65882702336239
 20
-470.82776251786572
 30
0.0
  0
POINT
  5
D5
100
AcDbEntity
  8
Defpoints
370
               0
390
0
 62
               0
100
AcDbPoint
 10
119.65882702336239
 20
-470.82776251786572
 30
0.0
  0
ENDBLK
  5
D6
100
AcDbEntity
  8
notes
390
0
100
AcDbBlockEnd
  0
BLOCK
  5
D7
100
AcDbEntity
  8
notes
390
0
100
AcDbBlockBegin
  2
*D12
 70
               1
 10
0.0
 20
0.0
 30
0.0
  3
*D12
  1

  0
LINE
  5
D8
100
AcDbEntity
  8
0
370
              -2
390
0
  6
Continuous
 62
               0
100
AcDbLine
 10
511.05066688817897
 20
-385.77448738901057
 30
0.0
 11
496.17566688817897
 21
-385.77448738901057
 31
0.0
  0
LINE
  5
D9
100
AcDbEntity
  8
0
370
              -2
390
0
  6
Continuous
 62
               0
100
AcDbLine
 10
511.08233392281545
 20
-555.77448738901057
 30
0.0
 11
496.17566688817897
 21
-555.77448738901057
 31
0.0
  0
LINE
  5
DA
100
AcDbEntity
  8
0
370
              -2
390
0
  6
Continuous
 62
               0
100
AcDbLine
 10
496.17566688817897
 20
-385.77448738901057
 30
0.0
 11
496.17566688817897
 21
-210.06269082885046
 31
0.0
  0
LINE
  5
DB
100
AcDbEntity
  8
0
370
              -2
390
0
  6
Continuous
 62
               0
100
AcDbLine
 10
496.17566688817897
 20
-385.77448738901057
 30
0.0
 11
496.17566688817897
 21
-555.77448738901057
 31
0.0
  0
CIRCLE
  5
DC
102
{ACAD_REACTORS
330
DD
102
}
100
AcDbEntity
  8
0
370
              -2
390
0
  6
Continuous
 62
               0
100
AcDbCircle
 10
496.17566688817897
 20
-385.77448738901057
 30
0.0
 40
1.9998779296875
  0
HATCH
  5
DD
100
AcDbEntity
  8
0
370
              -2
390
0
  6
Continuous
 62
               0
100
AcDbHatch
 10
0.0
 20
0.0
 30
0.0
210
0.0
220
0.0
230
1.0
  2
SOLID
 70
               1
 71
               1
 91
        1
 92
        1
 93
        1
 72
               2
 10
496.17566688817897
 20
-385.77448738901057
 40
1.9998779296875
 50
0.0
 51
360.0
 73
               0
 97
        1
330
DC
 75
               0
 76
               1
 98
        1
 10
0.0
 20
0.0
  0
CIRCLE
  5
DE
102
{ACAD_REACTORS
330
DF
102
}
100
AcDbEntity
  8
0
370
              -2
390
0
  6
Continuous
 62
               0
100
AcDbCircle
 10
496.17566688817897
 20
-555.77448738901057
 30
0.0
 40
1.9998779296875
  0
HATCH
  5
DF
100
AcDbEntity
  8
0
370
              -2
390
0
  6
Continuous
 62
               0
100
AcDbHatch
 10
0.0
 20
0.0
 30
0.0
210
0.0
220
0.0
230
1.0
  2
SOLID
 70
               1
 71
               1
 91
        1
 92
        1
 93
        1
 72
               2
 10
496.17566688817897
 20
-555.77448738901057
 40
1.9998779296875
 50
0.0
 51
360.0
 73
               0
 97
        1
330
DE
 75
               0
 76
               1
 98
        1
 10
0.0
 20
0.0
  0
MTEXT
  5
E0
100
AcDbEntity
  8
0
390
0
 62
               0
100
AcDbMText
 10
462.29804970067926
 20
-352.93769082885046
 30
0.0
 40
24.432617187500004
 41
0.0
 71
               1
 72
               1
  1
170(深さ)
  7
ＭＳ ゴシック
 11
0.0
 21
1.0
 31
0.0
 73
               1
 44
0.7828267384257843
  0
POINT
  5
E1
100
AcDbEntity
  8
Defpoints
370
               0
390
0
 62
               0
100
AcDbPoint
 10
536.08233392281545
 20
-555.77448738901057
 30
0.0
  0
POINT
  5
E2
100
AcDbEntity
  8
Defpoints
370
               0
390
0
 62
               0
100
AcDbPoint
 10
536.05066688817897
 20
-385.77448738901057
 30
0.0
  0
POINT
  5
E3
100
AcDbEntity
  8
Defpoints
370
               0
390
0
 62
               0
100
AcDbPoint
 10
496.17566688817897
 20
-385.77448738901057
 30
0.0
  0
ENDBLK
  5
E4
100
AcDbEntity
  8
notes
390
0
100
AcDbBlockEnd
  0
BLOCK
  5
E5
100
AcDbEntity
  8
notes
390
0
100
AcDbBlockBegin
  2
*D13
 70
               1
 10
0.0
 20
0.0
 30
0.0
  3
*D13
  1

  0
LINE
  5
E6
100
AcDbEntity
  8
0
370
              -2
390
0
  6
Continuous
 62
               0
100
AcDbLine
 10
719.26328120815015
 20
-597.89480162400923
 30
0.0
 11
719.26328120815015
 21
-700.80887727509116
 31
0.0
  0
LINE
  5
E7
100
AcDbEntity
  8
0
370
              -2
390
0
  6
Continuous
 62
               0
100
AcDbLine
 10
519.26328120815015
 20
-625.82776251786618
 30
0.0
 11
519.26328120815015
 21
-700.80887727509116
 31
0.0
  0
LINE
  5
E8
100
AcDbEntity
  8
0
370
              -2
390
0
  6
Continuous
 62
               0
100
AcDbLine
 10
719.26328120815015
 20
-700.80887727509116
 30
0.0
 11
519.26328120815015
 21
-700.80887727509116
 31
0.0
  0
CIRCLE
  5
E9
102
{ACAD_REACTORS
330
EA
102
}
100
AcDbEntity
  8
0
370
              -2
390
0
  6
Continuous
 62
               0
100
AcDbCircle
 10
719.26328120815015
 20
-700.80887727509116
 30
0.0
 40
1.9998779296875
  0
HATCH
  5
EA
100
AcDbEntity
  8
0
370
              -2
390
0
  6
Continuous
 62
               0
100
AcDbHatch
 10
0.0
 20
0.0
 30
0.0
210
0.0
220
0.0
230
1.0
  2
SOLID
 70
               1
 71
               1
 91
        1
 92
        1
 93
        1
 72
               2
 10
719.26328120815015
 20
-700.80887727509116
 40
1.9998779296875
 50
0.0
 51
360.0
 73
               0
 97
        1
330
E9
 75
               0
 76
               1
 98
        1
 10
0.0
 20
0.0
  0
CIRCLE
  5
EB
102
{ACAD_REACTORS
330
EC
102
}
100
AcDbEntity
  8
0
370
              -2
390
0
  6
Continuous
 62
               0
100
AcDbCircle
 10
519.26328120815015
 20
-700.80887727509116
 30
0.0
 40
1.9998779296875
  0
HATCH
  5
EC
100
AcDbEntity
  8
0
370
              -2
390
0
  6
Continuous
 62
               0
100
AcDbHatch
 10
0.0
 20
0.0
 30
0.0
210
0.0
220
0.0
230
1.0
  2
SOLID
 70
               1
 71
               1
 91
        1
 92
        1
 93
        1
 72
               2
 10
519.26328120815015
 20
-700.80887727509116
 40
1.9998779296875
 50
0.0
 51
360.0
 73
               0
 97
        1
330
EB
 75
               0
 76
               1
 98
        1
 10
0.0
 20
0.0
  0
MTEXT
  5
ED
100
AcDbEntity
  8
0
390
0
 62
               0
100
AcDbMText
 10
595.45077952597785
 20
-666.931260087591
 30
0.0
 40
24.432617187500004
 41
0.0
 71
               1
 72
               1
  1
200
  7
ＭＳ ゴシック
 73
               1
 44
0.7828267384257843
  0
POINT
  5
EE
100
AcDbEntity
  8
Defpoints
370
               0
390
0
 62
               0
100
AcDbPoint
 10
519.26328120815015
 20
-600.82776251786618
 30
0.0
  0
POINT
  5
EF
100
AcDbEntity
  8
Defpoints
370
               0
390
0
 62
               0
100
AcDbPoint
 10
719.26328120815015
 20
-572.89480162400923
 30
0.0
  0
POINT
  5
F0
100
AcDbEntity
  8
Defpoints
370
               0
390
0
 62
               0
100
AcDbPoint
 10
719.26328120815015
 20
-700.80887727509116
 30
0.0
  0
ENDBLK
  5
F1
100
AcDbEntity
  8
notes
390
0
100
AcDbBlockEnd
  0
BLOCK
  5
F2
100
AcDbEntity
  8
notes
390
0
100
AcDbBlockBegin
  2
*D14
 70
               1
 10
0.0
 20
0.0
 30
0.0
  3
*D14
  1

  0
LINE
  5
F3
100
AcDbEntity
  8
0
370
              -2
390
0
  6
Continuous
 62
               0
100
AcDbLine
 10
-738.43617989593622
 20
-385.85241487180565
 30
0.0
 11
-796.43617989593622
 21
-385.85241487180565
 31
0.0
  0
LINE
  5
F4
100
AcDbEntity
  8
0
370
              -2
390
0
  6
Continuous
 62
               0
100
AcDbLine
 10
-598.43617989593622
 20
-425.85241487180701
 30
0.0
 11
-796.43617989593622
 21
-425.85241487180701
 31
0.0
  0
LINE
  5
F5
100
AcDbEntity
  8
0
370
              -2
390
0
  6
Continuous
 62
               0
100
AcDbLine
 10
-796.43617989593622
 20
-385.85241487180565
 30
0.0
 11
-796.43617989593622
 21
-425.85241487180701
 31
0.0
  0
CIRCLE
  5
F6
102
{ACAD_REACTORS
330
F7
102
}
100
AcDbEntity
  8
0
370
              -2
390
0
  6
Continuous
 62
               0
100
AcDbCircle
 10
-796.43617989593622
 20
-385.85241487180565
 30
0.0
 40
1.9998779296875
  0
HATCH
  5
F7
100
AcDbEntity
  8
0
370
              -2
390
0
  6
Continuous
 62
               0
100
AcDbHatch
 10
0.0
 20
0.0
 30
0.0
210
0.0
220
0.0
230
1.0
  2
SOLID
 70
               1
 71
               1
 91
        1
 92
        1
 93
        1
 72
               2
 10
-796.43617989593622
 20
-385.85241487180565
 40
1.9998779296875
 50
0.0
 51
360.0
 73
               0
 97
        1
330
F6
 75
               0
 76
               1
 98
        1
 10
0.0
 20
0.0
  0
CIRCLE
  5
F8
102
{ACAD_REACTORS
330
F9
102
}
100
AcDbEntity
  8
0
370
              -2
390
0
  6
Continuous
 62
               0
100
AcDbCircle
 10
-796.43617989593622
 20
-425.85241487180701
 30
0.0
 40
1.9998779296875
  0
HATCH
  5
F9
100
AcDbEntity
  8
0
370
              -2
390
0
  6
Continuous
 62
               0
100
AcDbHatch
 10
0.0
 20
0.0
 30
0.0
210
0.0
220
0.0
230
1.0
  2
SOLID
 70
               1
 71
               1
 91
        1
 92
        1
 93
        1
 72
               2
 10
-796.43617989593622
 20
-425.85241487180701
 40
1.9998779296875
 50
0.0
 51
360.0
 73
               0
 97
        1
330
F8
 75
               0
 76
               1
 98
        1
 10
0.0
 20
0.0
  0
MTEXT
  5
FA
100
AcDbEntity
  8
0
390
0
 62
               0
100
AcDbMText
 10
-830.31379708343593
 20
-421.72741487180656
 30
0.0
 40
24.432617187500004
 41
0.0
 71
               1
 72
               1
  1
40
  7
ＭＳ ゴシック
 11
0.0
 21
1.0
 31
0.0
 73
               1
 44
0.7828267384257843
  0
POINT
  5
FB
100
AcDbEntity
  8
Defpoints
370
               0
390
0
 62
               0
100
AcDbPoint
 10
-573.43617989593622
 20
-425.85241487180701
 30
0.0
  0
POINT
  5
FC
100
AcDbEntity
  8
Defpoints
370
               0
390
0
 62
               0
100
AcDbPoint
 10
-713.43617989593622
 20
-385.85241487180565
 30
0.0
  0
POINT
  5
FD
100
AcDbEntity
  8
Defpoints
370
               0
390
0
 62
               0
100
AcDbPoint
 10
-796.43617989593622
 20
-385.85241487180565
 30
0.0
  0
ENDBLK
  5
FE
100
AcDbEntity
  8
notes
390
0
100
AcDbBlockEnd
  0
BLOCK
  5
FF
100
AcDbEntity
  8
notes
390
0
100
AcDbBlockBegin
  2
*D15
 70
               1
 10
0.0
 20
0.0
 30
0.0
  3
*D15
  1

  0
LINE
  5
100
100
AcDbEntity
  8
0
370
              -2
390
0
  6
Continuous
 62
               0
100
AcDbLine
 10
-188.43617989593622
 20
-385.85241487180565
 30
0.0
 11
-113.43617989593622
 21
-385.85241487180565
 31
0.0
  0
LINE
  5
101
100
AcDbEntity
  8
0
370
              -2
390
0
  6
Continuous
 62
               0
100
AcDbLine
 10
-399.48602615224081
 20
-600.81109873297191
 30
0.0
 11
-113.43617989593622
 21
-600.81109873297191
 31
0.0
  0
LINE
  5
102
100
AcDbEntity
  8
0
370
              -2
390
0
  6
Continuous
 62
               0
100
AcDbLine
 10
-113.43617989593622
 20
-385.85241487180565
 30
0.0
 11
-113.43617989593622
 21
-600.81109873297191
 31
0.0
  0
CIRCLE
  5
103
102
{ACAD_REACTORS
330
104
102
}
100
AcDbEntity
  8
0
370
              -2
390
0
  6
Continuous
 62
               0
100
AcDbCircle
 10
-113.43617989593622
 20
-385.85241487180565
 30
0.0
 40
1.9998779296875
  0
HATCH
  5
104
100
AcDbEntity
  8
0
370
              -2
390
0
  6
Continuous
 62
               0
100
AcDbHatch
 10
0.0
 20
0.0
 30
0.0
210
0.0
220
0.0
230
1.0
  2
SOLID
 70
               1
 71
               1
 91
        1
 92
        1
 93
        1
 72
               2
 10
-113.43617989593622
 20
-385.85241487180565
 40
1.9998779296875
 50
0.0
 51
360.0
 73
               0
 97
        1
330
103
 75
               0
 76
               1
 98
        1
 10
0.0
 20
0.0
  0
CIRCLE
  5
105
102
{ACAD_REACTORS
330
106
102
}
100
AcDbEntity
  8
0
370
              -2
390
0
  6
Continuous
 62
               0
100
AcDbCircle
 10
-113.43617989593622
 20
-600.81109873297191
 30
0.0
 40
1.9998779296875
  0
HATCH
  5
106
100
AcDbEntity
  8
0
370
              -2
390
0
  6
Continuous
 62
               0
100
AcDbHatch
 10
0.0
 20
0.0
 30
0.0
210
0.0
220
0.0
230
1.0
  2
SOLID
 70
               1
 71
               1
 91
        1
 92
        1
 93
        1
 72
               2
 10
-113.43617989593622
 20
-600.81109873297191
 40
1.9998779296875
 50
0.0
 51
360.0
 73
               0
 97
        1
330
105
 75
               0
 76
               1
 98
        1
 10
0.0
 20
0.0
  0
MTEXT
  5
107
100
AcDbEntity
  8
0
390
0
 62
               0
100
AcDbMText
 10
-147.31379708343593
 20
-517.14425848456449
 30
0.0
 40
24.432617187500004
 41
0.0
 71
               1
 72
               1
  1
215
  7
ＭＳ ゴシック
 11
0.0
 21
1.0
 31
0.0
 73
               1
 44
0.7828267384257843
  0
POINT
  5
108
100
AcDbEntity
  8
Defpoints
370
               0
390
0
 62
               0
100
AcDbPoint
 10
-424.48602615224081
 20
-600.81109873297191
 30
0.0
  0
POINT
  5
109
100
AcDbEntity
  8
Defpoints
370
               0
390
0
 62
               0
100
AcDbPoint
 10
-213.43617989593622
 20
-385.85241487180565
 30
0.0
  0
POINT
  5
10A
100
AcDbEntity
  8
Defpoints
370
               0
390
0
 62
               0
100
AcDbPoint
 10
-113.43617989593622
 20
-385.85241487180565
 30
0.0
  0
ENDBLK
  5
10B
100
AcDbEntity
  8
notes
390
0
100
AcDbBlockEnd
  0
BLOCK
  5
10C
100
AcDbEntity
  8
notes
390
0
100
AcDbBlockBegin
  2
*D16
 70
               1
 10
0.0
 20
0.0
 30
0.0
  3
*D16
  1

  0
LINE
  5
10D
100
AcDbEntity
  8
0
370
              -2
390
0
  6
Continuous
 62
               0
100
AcDbLine
 10
374.27527739297511
 20
-575.82776251786618
 30
0.0
 11
119.65882702336239
 21
-575.82776251786618
 31
0.0
  0
LINE
  5
10E
100
AcDbEntity
  8
0
370
              -2
390
0
  6
Continuous
 62
               0
100
AcDbLine
 10
460.26328120815015
 20
-600.82776251786618
 30
0.0
 11
119.65882702336239
 21
-600.82776251786618
 31
0.0
  0
LINE
  5
10F
100
AcDbEntity
  8
0
370
              -2
390
0
  6
Continuous
 62
               0
100
AcDbLine
 10
119.65882702336239
 20
-600.82776251786618
 30
0.0
 11
119.65882702336239
 21
-651.52189659607302
 31
0.0
  0
LINE
  5
110
100
AcDbEntity
  8
0
370
              -2
390
0
  6
Continuous
 62
               0
100
AcDbLine
 10
119.65882702336239
 20
-575.82776251786618
 30
0.0
 11
119.65882702336239
 21
-600.82776251786618
 31
0.0
  0
CIRCLE
  5
111
102
{ACAD_REACTORS
330
112
102
}
100
AcDbEntity
  8
0
370
              -2
390
0
  6
Continuous
 62
               0
100
AcDbCircle
 10
119.65882702336239
 20
-575.82776251786618
 30
0.0
 40
1.9998779296875
  0
HATCH
  5
112
100
AcDbEntity
  8
0
370
              -2
390
0
  6
Continuous
 62
               0
100
AcDbHatch
 10
0.0
 20
0.0
 30
0.0
210
0.0
220
0.0
230
1.0
  2
SOLID
 70
               1
 71
               1
 91
        1
 92
        1
 93
        1
 72
               2
 10
119.65882702336239
 20
-575.82776251786618
 40
1.9998779296875
 50
0.0
 51
360.0
 73
               0
 97
        1
330
111
 75
               0
 76
               1
 98
        1
 10
0.0
 20
0.0
  0
CIRCLE
  5
113
102
{ACAD_REACTORS
330
114
102
}
100
AcDbEntity
  8
0
370
              -2
390
0
  6
Continuous
 62
               0
100
AcDbCircle
 10
119.65882702336239
 20
-600.82776251786618
 30
0.0
 40
1.9998779296875
  0
HATCH
  5
114
100
AcDbEntity
  8
0
370
              -2
390
0
  6
Continuous
 62
               0
100
AcDbHatch
 10
0.0
 20
0.0
 30
0.0
210
0.0
220
0.0
230
1.0
  2
SOLID
 70
               1
 71
               1
 91
        1
 92
        1
 93
        1
 72
               2
 10
119.65882702336239
 20
-600.82776251786618
 40
1.9998779296875
 50
0.0
 51
360.0
 73
               0
 97
        1
330
113
 75
               0
 76
               1
 98
        1
 10
0.0
 20
0.0
  0
MTEXT
  5
115
100
AcDbEntity
  8
0
390
0
 62
               0
100
AcDbMText
 10
85.781209835862683
 20
-651.52189659607302
 30
0.0
 40
24.432617187500004
 41
0.0
 71
               1
 72
               1
  1
25
  7
ＭＳ ゴシック
 11
0.0
 21
1.0
 31
0.0
 73
               1
 44
0.7828267384257843
  0
POINT
  5
116
100
AcDbEntity
  8
Defpoints
370
               0
390
0
 62
               0
100
AcDbPoint
 10
485.26328120815015
 20
-600.82776251786618
 30
0.0
  0
POINT
  5
117
100
AcDbEntity
  8
Defpoints
370
               0
390
0
 62
               0
100
AcDbPoint
 10
399.27527739297511
 20
-575.82776251786618
 30
0.0
  0
POINT
  5
118
100
AcDbEntity
  8
Defpoints
370
               0
390
0
 62
               0
100
AcDbPoint
 10
119.65882702336239
 20
-575.82776251786618
 30
0.0
  0
ENDBLK
  5
119
100
AcDbEntity
  8
notes
390
0
100
AcDbBlockEnd
  0
BLOCK
  5
11A
100
AcDbEntity
  8
notes
390
0
100
AcDbBlockBegin
  2
*D17
 70
               1
 10
0.0
 20
0.0
 30
0.0
  3
*D17
  1

  0
LINE
  5
11B
100
AcDbEntity
  8
0
370
              -2
390
0
  6
Continuous
 62
               0
100
AcDbLine
 10
580.97117818242259
 20
580.06978301174695
 30
0.0
 11
753.0
 21
580.06978301174695
 31
0.0
  0
LINE
  5
11C
100
AcDbEntity
  8
0
370
              -2
390
0
  6
Continuous
 62
               0
100
AcDbLine
 10
601.96569141169311
 20
830.06978301174695
 30
0.0
 11
753.0
 21
830.06978301174695
 31
0.0
  0
LINE
  5
11D
100
AcDbEntity
  8
0
370
              -2
390
0
  6
Continuous
 62
               0
100
AcDbLine
 10
753.0
 20
580.06978301174695
 30
0.0
 11
753.0
 21
830.06978301174695
 31
0.0
  0
CIRCLE
  5
11E
102
{ACAD_REACTORS
330
11F
102
}
100
AcDbEntity
  8
0
370
              -2
390
0
  6
Continuous
 62
               0
100
AcDbCircle
 10
753.0
 20
580.06978301174695
 30
0.0
 40
1.9998779296875
  0
HATCH
  5
11F
100
AcDbEntity
  8
0
370
              -2
390
0
  6
Continuous
 62
               0
100
AcDbHatch
 10
0.0
 20
0.0
 30
0.0
210
0.0
220
0.0
230
1.0
  2
SOLID
 70
               1
 71
               1
 91
        1
 92
        1
 93
        1
 72
               2
 10
753.0
 20
580.06978301174695
 40
1.9998779296875
 50
0.0
 51
360.0
 73
               0
 97
        1
330
11E
 75
               0
 76
               1
 98
        1
 10
0.0
 20
0.0
  0
CIRCLE
  5
120
102
{ACAD_REACTORS
330
121
102
}
100
AcDbEntity
  8
0
370
              -2
390
0
  6
Continuous
 62
               0
100
AcDbCircle
 10
753.0
 20
830.06978301174695
 30
0.0
 40
1.9998779296875
  0
HATCH
  5
121
100
AcDbEntity
  8
0
370
              -2
390
0
  6
Continuous
 62
               0
100
AcDbHatch
 10
0.0
 20
0.0
 30
0.0
210
0.0
220
0.0
230
1.0
  2
SOLID
 70
               1
 71
               1
 91
        1
 92
        1
 93
        1
 72
               2
 10
753.0
 20
830.06978301174695
 40
1.9998779296875
 50
0.0
 51
360.0
 73
               0
 97
        1
330
120
 75
               0
 76
               1
 98
        1
 10
0.0
 20
0.0
  0
MTEXT
  5
122
100
AcDbEntity
  8
0
390
0
 62
               0
100
AcDbMText
 10
719.12238281250029
 20
681.25728132957147
 30
0.0
 40
24.432617187500004
 41
0.0
 71
               1
 72
               1
  1
250
  7
ＭＳ ゴシック
 11
0.0
 21
1.0
 31
0.0
 73
               1
 44
0.7828267384257843
  0
POINT
  5
123
100
AcDbEntity
  8
Defpoints
370
               0
390
0
 62
               0
100
AcDbPoint
 10
576.96569141169311
 20
830.06978301174695
 30
0.0
  0
POINT
  5
124
100
AcDbEntity
  8
Defpoints
370
               0
390
0
 62
               0
100
AcDbPoint
 10
555.97117818242259
 20
580.06978301174695
 30
0.0
  0
POINT
  5
125
100
AcDbEntity
  8
Defpoints
370
               0
390
0
 62
               0
100
AcDbPoint
 10
753.0
 20
580.06978301174695
 30
0.0
  0
ENDBLK
  5
126
100
AcDbEntity
  8
notes
390
0
100
AcDbBlockEnd
  0
BLOCK
  5
127
100
AcDbEntity
  8
notes
390
0
100
AcDbBlockBegin
  2
*D18
 70
               1
 10
0.0
 20
0.0
 30
0.0
  3
*D18
  1

  0
LINE
  5
128
100
AcDbEntity
  8
0
370
              -2
390
0
  6
Continuous
 62
               0
100
AcDbLine
 10
719.26328120815015
 20
-600.87189659607293
 30
0.0
 11
719.26328120815015
 21
-748.0
 31
0.0
  0
LINE
  5
129
100
AcDbEntity
  8
0
370
              -2
390
0
  6
Continuous
 62
               0
100
AcDbLine
 10
399.26328120814287
 20
-600.87189659607293
 30
0.0
 11
399.26328120814287
 21
-748.0
 31
0.0
  0
LINE
  5
12A
100
AcDbEntity
  8
0
370
              -2
390
0
  6
Continuous
 62
               0
100
AcDbLine
 10
719.26328120815015
 20
-748.0
 30
0.0
 11
399.26328120814287
 21
-748.0
 31
0.0
  0
CIRCLE
  5
12B
102
{ACAD_REACTORS
330
12C
102
}
100
AcDbEntity
  8
0
370
              -2
390
0
  6
Continuous
 62
               0
100
AcDbCircle
 10
719.26328120815015
 20
-748.0
 30
0.0
 40
1.9998779296875
  0
HATCH
  5
12C
100
AcDbEntity
  8
0
370
              -2
390
0
  6
Continuous
 62
               0
100
AcDbHatch
 10
0.0
 20
0.0
 30
0.0
210
0.0
220
0.0
230
1.0
  2
SOLID
 70
               1
 71
               1
 91
        1
 92
        1
 93
        1
 72
               2
 10
719.26328120815015
 20
-748.0
 40
1.9998779296875
 50
0.0
 51
360.0
 73
               0
 97
        1
330
12B
 75
               0
 76
               1
 98
        1
 10
0.0
 20
0.0
  0
CIRCLE
  5
12D
102
{ACAD_REACTORS
330
12E
102
}
100
AcDbEntity
  8
0
370
              -2
390
0
  6
Continuous
 62
               0
100
AcDbCircle
 10
399.26328120814287
 20
-748.0
 30
0.0
 40
1.9998779296875
  0
HATCH
  5
12E
100
AcDbEntity
  8
0
370
              -2
390
0
  6
Continuous
 62
               0
100
AcDbHatch
 10
0.0
 20
0.0
 30
0.0
210
0.0
220
0.0
230
1.0
  2
SOLID
 70
               1
 71
               1
 91
        1
 92
        1
 93
        1
 72
               2
 10
399.26328120814287
 20
-748.0
 40
1.9998779296875
 50
0.0
 51
360.0
 73
               0
 97
        1
330
12D
 75
               0
 76
               1
 98
        1
 10
0.0
 20
0.0
  0
MTEXT
  5
12F
100
AcDbEntity
  8
0
390
0
 62
               0
100
AcDbMText
 10
535.45077952597057
 20
-714.12238281249984
 30
0.0
 40
24.432617187500004
 41
0.0
 71
               1
 72
               1
  1
320
  7
ＭＳ ゴシック
 73
               1
 44
0.7828267384257843
  0
POINT
  5
130
100
AcDbEntity
  8
Defpoints
370
               0
390
0
 62
               0
100
AcDbPoint
 10
399.26328120814287
 20
-575.87189659607293
 30
0.0
  0
POINT
  5
131
100
AcDbEntity
  8
Defpoints
370
               0
390
0
 62
               0
100
AcDbPoint
 10
719.26328120815015
 20
-575.87189659607293
 30
0.0
  0
POINT
  5
132
100
AcDbEntity
  8
Defpoints
370
               0
390
0
 62
               0
100
AcDbPoint
 10
719.26328120815015
 20
-748.0
 30
0.0
  0
ENDBLK
  5
133
100
AcDbEntity
  8
notes
390
0
100
AcDbBlockEnd
  0
BLOCK
  5
134
100
AcDbEntity
  8
notes
390
0
100
AcDbBlockBegin
  2
*D19
 70
               1
 10
0.0
 20
0.0
 30
0.0
  3
*D19
  1

  0
LINE
  5
135
100
AcDbEntity
  8
0
370
              -2
390
0
  6
Continuous
 62
               0
100
AcDbLine
 10
-318.48602615224081
 20
-600.81109873297191
 30
0.0
 11
-318.48602615224081
 21
-700.0
 31
0.0
  0
LINE
  5
136
100
AcDbEntity
  8
0
370
              -2
390
0
  6
Continuous
 62
               0
100
AcDbLine
 10
-608.48602615224081
 20
-600.81109873297191
 30
0.0
 11
-608.48602615224081
 21
-700.0
 31
0.0
  0
LINE
  5
137
100
AcDbEntity
  8
0
370
              -2
390
0
  6
Continuous
 62
               0
100
AcDbLine
 10
-318.48602615224081
 20
-700.0
 30
0.0
 11
-608.48602615224081
 21
-700.0
 31
0.0
  0
CIRCLE
  5
138
102
{ACAD_REACTORS
330
139
102
}
100
AcDbEntity
  8
0
370
              -2
390
0
  6
Continuous
 62
               0
100
AcDbCircle
 10
-318.48602615224081
 20
-700.0
 30
0.0
 40
1.9998779296875
  0
HATCH
  5
139
100
AcDbEntity
  8
0
370
              -2
390
0
  6
Continuous
 62
               0
100
AcDbHatch
 10
0.0
 20
0.0
 30
0.0
210
0.0
220
0.0
230
1.0
  2
SOLID
 70
               1
 71
               1
 91
        1
 92
        1
 93
        1
 72
               2
 10
-318.48602615224081
 20
-700.0
 40
1.9998779296875
 50
0.0
 51
360.0
 73
               0
 97
        1
330
138
 75
               0
 76
               1
 98
        1
 10
0.0
 20
0.0
  0
CIRCLE
  5
13A
102
{ACAD_REACTORS
330
13B
102
}
100
AcDbEntity
  8
0
370
              -2
390
0
  6
Continuous
 62
               0
100
AcDbCircle
 10
-608.48602615224081
 20
-700.0
 30
0.0
 40
1.9998779296875
  0
HATCH
  5
13B
100
AcDbEntity
  8
0
370
              -2
390
0
  6
Continuous
 62
               0
100
AcDbHatch
 10
0.0
 20
0.0
 30
0.0
210
0.0
220
0.0
230
1.0
  2
SOLID
 70
               1
 71
               1
 91
        1
 92
        1
 93
        1
 72
               2
 10
-608.48602615224081
 20
-700.0
 40
1.9998779296875
 50
0.0
 51
360.0
 73
               0
 97
        1
330
13A
 75
               0
 76
               1
 98
        1
 10
0.0
 20
0.0
  0
MTEXT
  5
13C
100
AcDbEntity
  8
0
390
0
 62
               0
100
AcDbMText
 10
-487.29852783441311
 20
-666.12238281249984
 30
0.0
 40
24.432617187500004
 41
0.0
 71
               1
 72
               1
  1
290
  7
ＭＳ ゴシック
 73
               1
 44
0.7828267384257843
  0
POINT
  5
13D
100
AcDbEntity
  8
Defpoints
370
               0
390
0
 62
               0
100
AcDbPoint
 10
-608.48602615224081
 20
-575.81109873297191
 30
0.0
  0
POINT
  5
13E
100
AcDbEntity
  8
Defpoints
370
               0
390
0
 62
               0
100
AcDbPoint
 10
-318.48602615224081
 20
-575.81109873297191
 30
0.0
  0
POINT
  5
13F
100
AcDbEntity
  8
Defpoints
370
               0
390
0
 62
               0
100
AcDbPoint
 10
-318.48602615224081
 20
-700.0
 30
0.0
  0
ENDBLK
  5
140
100
AcDbEntity
  8
notes
390
0
100
AcDbBlockEnd
  0
BLOCK
  5
141
100
AcDbEntity
  8
notes
390
0
100
AcDbBlockBegin
  2
*D20
 70
               1
 10
0.0
 20
0.0
 30
0.0
  3
*D20
  1

  0
LINE
  5
142
100
AcDbEntity
  8
0
370
              -2
390
0
  6
Continuous
 62
               0
100
AcDbLine
 10
345.97117818242259
 20
855.06978301174695
 30
0.0
 11
345.97117818242259
 21
930.06978301174695
 31
0.0
  0
LINE
  5
143
100
AcDbEntity
  8
0
370
              -2
390
0
  6
Continuous
 62
               0
100
AcDbLine
 10
555.97117818242259
 20
855.06978301174695
 30
0.0
 11
555.97117818242259
 21
930.06978301174695
 31
0.0
  0
LINE
  5
144
100
AcDbEntity
  8
0
370
              -2
390
0
  6
Continuous
 62
               0
100
AcDbLine
 10
345.97117818242259
 20
930.06978301174695
 30
0.0
 11
555.97117818242259
 21
930.06978301174695
 31
0.0
  0
CIRCLE
  5
145
102
{ACAD_REACTORS
330
146
102
}
100
AcDbEntity
  8
0
370
              -2
390
0
  6
Continuous
 62
               0
100
AcDbCircle
 10
345.97117818242259
 20
930.06978301174695
 30
0.0
 40
1.9998779296875
  0
HATCH
  5
146
100
AcDbEntity
  8
0
370
              -2
390
0
  6
Continuous
 62
               0
100
AcDbHatch
 10
0.0
 20
0.0
 30
0.0
210
0.0
220
0.0
230
1.0
  2
SOLID
 70
               1
 71
               1
 91
        1
 92
        1
 93
        1
 72
               2
 10
345.97117818242259
 20
930.06978301174695
 40
1.9998779296875
 50
0.0
 51
360.0
 73
               0
 97
        1
330
145
 75
               0
 76
               1
 98
        1
 10
0.0
 20
0.0
  0
CIRCLE
  5
147
102
{ACAD_REACTORS
330
148
102
}
100
AcDbEntity
  8
0
370
              -2
390
0
  6
Continuous
 62
               0
100
AcDbCircle
 10
555.97117818242259
 20
930.06978301174695
 30
0.0
 40
1.9998779296875
  0
HATCH
  5
148
100
AcDbEntity
  8
0
370
              -2
390
0
  6
Continuous
 62
               0
100
AcDbHatch
 10
0.0
 20
0.0
 30
0.0
210
0.0
220
0.0
230
1.0
  2
SOLID
 70
               1
 71
               1
 91
        1
 92
        1
 93
        1
 72
               2
 10
555.97117818242259
 20
930.06978301174695
 40
1.9998779296875
 50
0.0
 51
360.0
 73
               0
 97
        1
330
147
 75
               0
 76
               1
 98
        1
 10
0.0
 20
0.0
  0
MTEXT
  5
149
100
AcDbEntity
  8
0
390
0
 62
               0
100
AcDbMText
 10
427.15867650025029
 20
963.947400199247
 30
0.0
 40
24.432617187500004
 41
0.0
 71
               1
 72
               1
  1
210
  7
ＭＳ ゴシック
 73
               1
 44
0.7828267384257843
  0
POINT
  5
14A
100
AcDbEntity
  8
Defpoints
370
               0
390
0
 62
               0
100
AcDbPoint
 10
555.97117818242259
 20
830.06978301174695
 30
0.0
  0
POINT
  5
14B
100
AcDbEntity
  8
Defpoints
370
               0
390
0
 62
               0
100
AcDbPoint
 10
345.97117818242259
 20
830.06978301174695
 30
0.0
  0
POINT
  5
14C
100
AcDbEntity
  8
Defpoints
370
               0
390
0
 62
               0
100
AcDbPoint
 10
345.97117818242259
 20
930.06978301174695
 30
0.0
  0
ENDBLK
  5
14D
100
AcDbEntity
  8
notes
390
0
100
AcDbBlockEnd
  0
BLOCK
  5
14E
100
AcDbEntity
  8
notes
390
0
100
AcDbBlockBegin
  2
*D21
 70
               1
 10
0.0
 20
0.0
 30
0.0
  3
*D21
  1

  0
LINE
  5
14F
100
AcDbEntity
  8
0
370
              -2
390
0
  6
Continuous
 62
               0
100
AcDbLine
 10
-453.20446852835448
 20
784.2422504844717
 30
0.0
 11
-391.0846739623812
 21
870.0
 31
0.0
  0
LINE
  5
150
100
AcDbEntity
  8
0
370
              -2
390
0
  6
Continuous
 62
               0
100
AcDbLine
 10
-391.0846739623812
 20
870.0
 30
0.0
 11
-464.5846739623812
 21
870.0
 31
0.0
  0
LINE
  5
151
100
AcDbEntity
  8
0
370
              -2
390
0
  6
Continuous
 62
               0
100
AcDbLine
 10
-473.73650844013173
 20
755.8973155390222
 30
0.0
 11
-453.20446852835448
 21
784.2422504844717
 31
0.0
  0
CIRCLE
  5
152
102
{ACAD_REACTORS
330
153
102
}
100
AcDbEntity
  8
0
370
              -2
390
0
  6
Continuous
 62
               0
100
AcDbCircle
 10
-473.73650844013173
 20
755.8973155390222
 30
0.0
 40
1.9998779296875
  0
HATCH
  5
153
100
AcDbEntity
  8
0
370
              -2
390
0
  6
Continuous
 62
               0
100
AcDbHatch
 10
0.0
 20
0.0
 30
0.0
210
0.0
220
0.0
230
1.0
  2
SOLID
 70
               1
 71
               1
 91
        1
 92
        1
 93
        1
 72
               2
 10
-473.73650844013173
 20
755.8973155390222
 40
1.9998779296875
 50
0.0
 51
360.0
 73
               0
 97
        1
330
152
 75
               0
 76
               1
 98
        1
 10
0.0
 20
0.0
  0
CIRCLE
  5
154
102
{ACAD_REACTORS
330
155
102
}
100
AcDbEntity
  8
0
370
              -2
390
0
  6
Continuous
 62
               0
100
AcDbCircle
 10
-453.20446852835448
 20
784.2422504844717
 30
0.0
 40
1.9998779296875
  0
HATCH
  5
155
100
AcDbEntity
  8
0
370
              -2
390
0
  6
Continuous
 62
               0
100
AcDbHatch
 10
0.0
 20
0.0
 30
0.0
210
0.0
220
0.0
230
1.0
  2
SOLID
 70
               1
 71
               1
 91
        1
 92
        1
 93
        1
 72
               2
 10
-453.20446852835448
 20
784.2422504844717
 40
1.9998779296875
 50
0.0
 51
360.0
 73
               0
 97
        1
330
154
 75
               0
 76
               1
 98
        1
 10
0.0
 20
0.0
  0
MTEXT
  5
156
100
AcDbEntity
  8
0
390
0
 62
               0
100
AcDbMText
 10
-464.5846739623812
 20
903.87761718749994
 30
0.0
 40
24.432617187500004
 41
0.0
 71
               1
 72
               1
  1
φ35
  7
ＭＳ ゴシック
 73
               1
 44
0.7828267384257843
  0
POINT
  5
157
100
AcDbEntity
  8
Defpoints
370
               0
390
0
 62
               0
100
AcDbPoint
 10
-473.73650844013173
 20
755.8973155390222
 30
0.0
  0
POINT
  5
158
100
AcDbEntity
  8
Defpoints
370
               0
390
0
 62
               0
100
AcDbPoint
 10
-453.20446852835448
 20
784.2422504844717
 30
0.0
  0
ENDBLK
  5
159
100
AcDbEntity
  8
notes
390
0
100
AcDbBlockEnd
  0
ENDSEC
  0
SECTION
  2
ENTITIES
  0
MTEXT
  5
15A
100
AcDbEntity
  8
template
390
0
 62
               7
100
AcDbMText
 10
-967.99999999975989
 20
-1147.4176292337002
 30
0.0
 40
16.288411458333332
 41
0.0
 71
               1
 72
               1
  1
品名
  7
ＭＳ ゴシック
 73
               1
 44
0.7828267384257843
  0
MTEXT
  5
15B
100
AcDbEntity
  8
template
390
0
 62
               7
100
AcDbMText
 10
-967.99999999975989
 20
-1232.4176292337002
 30
0.0
 40
16.288411458333332
 41
0.0
 71
               1
 72
               1
  1
仕様
  7
ＭＳ ゴシック
 73
               1
 44
0.7828267384257843
  0
LINE
  5
15C
100
AcDbEntity
  8
template
370
               5
390
0
  6
Continuous
 62
               7
100
AcDbLine
 10
974.99999999975989
 20
-1224.0027073587003
 30
0.0
 11
-975.00000000024011
 21
-1224.0027073587003
 31
0.0
  0
LWPOLYLINE
  5
15D
100
AcDbEntity
  8
template
370
               5
390
0
  6
Continuous
 62
               7
100
AcDbPolyline
 90
        5
 70
             128
 10
975.00000000024011
 20
1405.9972926412995
 10
-974.99999999975989
 20
1405.9972926412995
 10
-974.99999999975989
 20
-1394.0027073587003
 10
975.00000000024011
 20
-1394.0027073587003
 10
975.00000000024011
 20
1405.9972926412995
  0
LINE
  5
15E
100
AcDbEntity
  8
template
370
               5
390
0
  6
Continuous
 62
               7
100
AcDbLine
 10
974.99999999975989
 20
-1139.0027073587003
 30
0.0
 11
-975.00000000024011
 21
-1139.0027073587003
 31
0.0
  0
LINE
  5
15F
100
AcDbEntity
  8
template
370
               5
390
0
  6
Continuous
 62
               7
100
AcDbLine
 10
975.00000000024011
 20
-1309.0027073587003
 30
0.0
 11
222.00000000024011
 21
-1309.0027073587003
 31
0.0
  0
MTEXT
  5
160
100
AcDbEntity
  8
template
390
0
 62
               7
100
AcDbMText
 10
-974.99999999955617
 20
-1405.8565294155574
 30
0.0
 40
21.717881944444446
 41
0.0
 71
               1
 72
               1
  1
100707SH
  7
ＭＳ ゴシック
 73
               1
 44
0.7828267384257843
  0
MTEXT
  5
161
100
AcDbEntity
  8
template
390
0
 62
               7
100
AcDbMText
 10
251.87140625250322
 20
-1338.9131018320077
 30
0.0
 40
24.432617187500004
 41
0.0
 71
               1
 72
               1
  1
大洋金物株式会社 ティーフォルム事業部
  7
ＭＳ ゴシック
 73
               1
 44
0.7828267384257843
  0
LWPOLYLINE
  5
162
100
AcDbEntity
  8
template
370
              15
390
0
  6
Continuous
 62
               7
100
AcDbPolyline
 90
        8
 70
             129
 10
887.42850780307344
 20
-1334.4897210236859
 10
887.42850780307344
 20
-1340.4871097172618
 10
877.92731088506844
 20
-1340.4871097172618
 10
877.92731088506844
 20
-1364.9380729807704
 10
869.5719336232869
 20
-1364.9380729807704
 10
869.5719336232869
 20
-1340.4871097172618
 10
860.23897667697747
 20
-1340.4871097172618
 10
860.23897667697747
 20
-1334.4897210236859
  0
LWPOLYLINE
  5
163
100
AcDbEntity
  8
template
370
              15
390
0
  6
Continuous
 62
               7
100
AcDbPolyline
 90
      101
 70
             128
 10
900.15679963363073
 20
-1335.2179695166224
 10
900.17214966243046
 20
-1335.2136087599324
 42
-0.0222221607715335
 10
900.4621542390887
 20
-1335.1449842946927
 10
900.47794800304837
 20
-1335.1419808716018
 42
-0.0146883565750623
 10
900.74065070830693
 20
-1335.0999776846461
 42
-0.0127458844306419
 10
901.0052896754496
 20
-1335.0724407165749
 10
901.0677447537746
 20
-1335.0675472939856
 42
-0.0198099018584326
 10
901.45859386323718
 20
-1335.0524621365889
 10
901.51040533269406
 20
-1335.052515912254
 42
-0.0147617382798014
 10
902.00502879366832
 20
-1335.0676359374993
 10
902.07772024854785
 20
-1335.0720085443872
 42
-0.016262454904341
 10
902.46787387800578
 20
-1335.108241419659
 10
902.58940626927506
 20
-1335.1235279786561
 42
-0.0080020874493732
 10
902.73498530035431
 20
-1335.1442108259239
 10
902.7733047709844
 20
-1335.1502821037398
 42
-0.0053821929036335
 10
902.84178887626331
 20
-1335.1618896275563
 10
902.11538317706436
 20
-1337.3428180832702
 42
0.010866775692915
 10
902.04806610693777
 20
-1337.32963096805
 10
902.01059808374703
 20
-1337.3231332254559
 42
0.0170663203374456
 10
901.86738129687728
 20
-1337.3033036281695
 10
901.79950596415438
 20
-1337.2962564575769
 42
0.022016237518052
 10
901.5191265562753
 20
-1337.2795740968068
 10
901.44127098924218
 20
-1337.2783747295402
 42
0.0282606915764599
 10
901.10563466566236
 20
-1337.2921780065094
 10
901.06172139188857
 20
-1337.2964779965132
 42
0.0169677213658988
 10
900.81579689693172
 20
-1337.3290150460648
 42
0.0190576269911179
 10
900.5728889343809
 20
-1337.3791619181643
 10
900.56662974624487
 20
-1337.3807048922804
 42
0.0213685642716565
 10
900.31624526176893
 20
-1337.4539051773822
 10
900.31075536684511
 20
-1337.4557681734445
 42
0.023759529754719
 10
900.05726048196084
 20
-1337.5554526953351
 10
900.05215840791789
 20
-1337.5577444708183
 42
0.0261857468827503
 10
899.79998763171898
 20
-1337.6872808081748
 10
899.78956144252879
 20
-1337.6933462827037
 42
0.0272553062017347
 10
899.55313166735868
 20
-1337.8487184886058
 10
899.51836865385121
 20
-1337.8743796366948
 42
0.0325996892930387
 10
899.36821331019746
 20
-1338.001127509669
 10
899.34450388103869
 20
-1338.0239455382139
 42
0.0138050960802147
 10
899.25262072487385
 20
-1338.1173951997334
 42
0.0125280103754082
 10
899.16577819193481
 20
-1338.2155585264572
 10
899.14209774712799
 20
-1338.2437170245207
 42
0.0205218024801366
 10
899.0169976715988
 20
-1338.40551033877
 10
898.99453133112547
 20
-1338.437170068577
 42
0.0163110129629504
 10
898.83882095190347
 20
-1338.6725005036069
 10
898.83609705582785
 20
-1338.6769242656324
 42
0.0131897341863437
 10
898.68929653499799
 20
-1338.930056357854
 10
898.68759643955127
 20
-1338.9331745971326
 42
0.0107895576226097
 10
898.54981973724352
 20
-1339.1993898069636
 10
898.54908684781549
 20
-1339.2008840394142
 42
0.009137150719515
 10
898.42060689932259
 20
-1339.4754092368344
 10
898.39086126776238
 20
-1339.5421157443329
 42
0.0135418326351611
 10
898.21914732876758
 20
-1339.9570535294019
 10
898.18554252033209
 20
-1340.0449196716772
 42
0.0092834542287649
 10
898.01431346032768
 20
-1340.5188181701883
 10
897.98869633268623
 20
-1340.5940592397637
 42
0.0054261043591148
 10
897.88105818432086
 20
-1340.9218232130465
 10
897.86353219851298
 20
-1340.9772113741051
 42
0.0008225090716117
 10
897.7948621463147
 20
-1341.1954801334255
 10
896.8101730143826
 20
-1344.220371426682
 10
900.04279685445363
 20
-1344.220371426682
 10
899.538604424597
 20
-1346.1248497250349
 10
896.28254814261891
 20
-1346.1248497250349
 10
890.45339911026531
 20
-1364.9380727910398
 10
888.62830149994988
 20
-1364.9380727910398
 10
894.46297953545582
 20
-1346.1248497250349
 10
892.05786316641024
 20
-1346.1248497250349
 10
892.56205559626687
 20
-1344.220371426682
 10
894.99060440721951
 20
-1344.220371426682
 10
895.85075932540349
 20
-1341.5839584259834
 42
-0.0005863560142704
 10
895.88749400583038
 20
-1341.467131998646
 10
895.96358183726988
 20
-1341.2261397063062
 42
-0.0087522378951357
 10
896.16304998072155
 20
-1340.6308636191802
 10
896.25531425626832
 20
-1340.3707234502876
 42
-0.0077400953772887
 10
896.51324791526713
 20
-1339.6777187730981
 10
896.52901288685825
 20
-1339.637287889675
 42
-0.0082369946278308
 10
896.77609735746228
 20
-1339.0332088235168
 42
-0.0085725238387248
 10
897.04334345340612
 20
-1338.4377827843591
 10
897.14497305444092
 20
-1338.221361682316
 42
-0.0168109410712554
 10
897.43191748320532
 20
-1337.6601541561399
 10
897.55776087349659
 20
-1337.4331901234414
 42
-0.0007817726854654
 10
897.61204522372282
 20
-1337.3356458781113
 10
897.61217353022948
 20
-1337.3354161684942
 42
-0.0036626141957525
 10
897.66706139376038
 20
-1337.2388182894065
 42
-0.0080221150775283
 10
897.72418564907275
 20
-1337.143539054794
 10
897.75488560052327
 20
-1337.0941481055315
 42
-0.0202139325707966
 10
897.88254134029557
 20
-1336.9061665048948
 10
897.93660880551761
 20
-1336.8330876406094
 42
-0.0249323791890423
 10
898.19577159919572
 20
-1336.5170423985032
 10
898.21991141336912
 20
-1336.4904281255426
 42
-0.0242132121649756
 10
898.55959215491021
 20
-1336.150544639343
 10
898.60750372766051
 20
-1336.1070355031529
 42
-0.0251017527957184
 10
898.89148542829935
 20
-1335.8740427573875
 10
898.89293090507999
 20
-1335.8729734998319
 42
-0.013086806909468
 10
899.1911915550736
 20
-1335.6641930312662
 10
899.19275337420549
 20
-1335.6631595909989
 42
-0.0290329526342672
 10
899.50386451560189
 20
-1335.4823340893622
 10
899.5337100775796
 20
-1335.4672317065279
 42
-0.0160250190044576
 10
899.7996144913559
 20
-1335.3432155963087
 42
-0.0267600374795488
 10
900.07489056882332
 20
-1335.2424672757593
 10
900.10162648834375
 20
-1335.2342747169346
 42
-0.0049981587852049
 10
900.15679963363073
 20
-1335.2179695166224
 42
-0.0049981587852049
  0
LWPOLYLINE
  5
164
100
AcDbEntity
  8
template
370
              15
390
0
  6
Continuous
 62
               7
100
AcDbPolyline
 90
      118
 70
             128
 10
919.97116719807673
 20
-1344.2943547545096
 10
921.84628912257904
 20
-1344.2943547545096
 10
921.00825021697528
 20
-1346.9759212809099
 42
-0.0010587228642072
 10
921.03970603211928
 20
-1346.9390167480515
 10
921.09790012318263
 20
-1346.8710344913784
 42
-0.0071874740361646
 10
921.24827534126234
 20
-1346.7003937993682
 10
921.38999811454414
 20
-1346.5441576580365
 42
-0.0148118053448961
 10
921.84012740735488
 20
-1346.0765438119215
 10
921.92734974186897
 20
-1345.9911464914512
 42
-0.0086273358706894
 10
922.26289854316565
 20
-1345.6737708571532
 10
922.30673225930514
 20
-1345.6337212128983
 42
-0.0103138323057432
 10
922.56475596161908
 20
-1345.407558075482
 10
922.61053036788508
 20
-1345.3690760282761
 42
-0.0060206748594382
 10
922.78337843206828
 20
-1345.2272813774675
 10
922.78540956261713
 20
-1345.225655672104
 42
-0.0067069027432533
 10
922.95770237761462
 20
-1345.0915050380413
 10
922.96025114346412
 20
-1345.0895748682265
 42
-0.007618435191065
 10
923.13115640940669
 20
-1344.9641999929222
 42
-0.0089652861725411
 10
923.30611737219442
 20
-1344.8445667325591
 10
923.34246909229114
 20
-1344.8206555191082
 42
-0.0156916246032159
 10
923.53842858945427
 20
-1344.7003930326323
 42
-0.002329901107288
 10
923.73869063330494
 20
-1344.5872150931591
 10
923.75407476580585
 20
-1344.5786150980266
 42
-0.0107669341446689
 10
923.98831159088877
 20
-1344.4542149646891
 10
924.01057639198552
 20
-1344.4429982147271
 42
-0.0078058045965226
 10
924.29416650990606
 20
-1344.3056367591039
 10
924.30407359764649
 20
-1344.3010276312202
 42
-0.0181829330482618
 10
924.61438300219015
 20
-1344.1701638901523
 10
924.66843844484538
 20
-1344.1496487701752
 42
-0.0208411535994391
 10
925.01752341227984
 20
-1344.0335583076881
 10
925.03187951237487
 20
-1344.0294398627439
 42
-0.0222799817172589
 10
925.36059930632473
 20
-1343.9507982965938
 10
925.36948826954904
 20
-1343.9490862860116
 42
-0.0215509523832956
 10
925.68595923784596
 20
-1343.9021705974747
 10
925.72844119890215
 20
-1343.897733070683
 42
-0.0182545924971468
 10
925.96254997819779
 20
-1343.8818892452932
 10
926.00195099453413
 20
-1343.8806647002143
 42
-0.0072962856580496
 10
926.15787387423188
 20
-1343.8780953716919
 10
926.18697354481992
 20
-1343.8780405362882
 42
-0.0059227516356253
 10
926.28472304395109
 20
-1343.8790142480784
 10
926.31396526136086
 20
-1343.8796520146802
 42
-0.0011833113107902
 10
926.35321654515428
 20
-1343.8806010189915
 10
925.55782994954643
 20
-1346.4193349640905
 42
0.0143932051400461
 10
925.53142856719933
 20
-1346.4091359940458
 10
925.52415659477992
 20
-1346.4065647751881
 42
0.0234388603731887
 10
925.48232572884444
 20
-1346.393945539473
 10
925.4736440659326
 20
-1346.3917645774677
 42
0.0199162743003989
 10
925.41335523185262
 20
-1346.3791478421331
 10
925.39254129404435
 20
-1346.3756506427044
 42
0.0293643550312166
 10
925.28946643530071
 20
-1346.3645005970516
 10
925.26478125456924
 20
-1346.3632889800324
 42
0.0214606686605337
 10
925.11164033861132
 20
-1346.3623504196148
 10
925.10226842779957
 20
-1346.3626953311591
 42
0.0167564053905298
 10
924.93074823667848
 20
-1346.3747723735278
 10
924.92228844392957
 20
-1346.3756537139543
 42
0.0137677553158451
 10
924.73493513065478
 20
-1346.4004030224996
 10
924.72758339115535
 20
-1346.4015809424659
 42
0.0118497261621347
 10
924.52708562702901
 20
-1346.4385982926601
 10
924.52093561981019
 20
-1346.4398851553751
 42
0.0106421143982256
 10
924.31005473253754
 20
-1346.4887175309482
 10
924.30514592413965
 20
-1346.489964873635
 42
0.0099746379864172
 10
924.08668745495379
 20
-1346.5501394019557
 10
924.0251394148072
 20
-1346.5684212805804
 42
0.0191613675897732
 10
923.6891549522843
 20
-1346.6823986608697
 10
923.60109517952515
 20
-1346.7160855711995
 42
0.0205274080075158
 10
923.21578840764414
 20
-1346.881913979018
 10
923.15813912566227
 20
-1346.9095819435888
 42
0.0181256912140206
 10
922.89986218498962
 20
-1347.0452657625683
 10
922.84690680167841
 20
-1347.0755833757812
 42
0.0140709242377999
 10
922.7019518670495
 20
-1347.1640780492176
 10
922.67570299821091
 20
-1347.1811348680776
 42
0.0086667884778812
 10
922.58677683689166
 20
-1347.2411375358156
 42
0.0036408192444941
 10
922.49934359826875
 20
-1347.3033183940288
 10
922.46411672438262
 20
-1347.3287593395207
 42
0.0052260781351689
 10
922.30788802704046
 20
-1347.4440917261254
 10
922.29168117074005
 20
-1347.4563198367732
 42
0.0050024435821089
 10
922.10567782769795
 20
-1347.5996024050205
 10
922.09035967116506
 20
-1347.6116484274812
 42
0.0136138710105922
 10
921.87991840287577
 20
-1347.7866149323595
 10
921.84625052704359
 20
-1347.8161939051088
 42
0.0172815186960128
 10
921.58184698537661
 20
-1348.0651905777331
 10
921.57928463953431
 20
-1348.0677763948793
 42
0.0189403857932585
 10
921.32870284097589
 20
-1348.3405816596642
 10
921.29607134745311
 20
-1348.3789255911506
 42
0.0185044199483174
 10
921.10411490844126
 20
-1348.6221741723034
 42
0.0088565244028704
 10
920.92565480173653
 20
-1348.8756905925648
 10
920.91647682216717
 20
-1348.8892319722136
 42
0.0157195347205622
 10
920.73325621580443
 20
-1349.1787541815625
 10
920.68717327390914
 20
-1349.256906378529
 42
0.0095451879752864
 10
920.52208772375889
 20
-1349.5495010209065
 10
920.51093980463338
 20
-1349.5701716934045
 42
0.0100351706288634
 10
920.37889605567034
 20
-1349.8272272535291
 42
0.0086935915391608
 10
920.2565649037715
 20
-1350.0890603991675
 10
920.2532441624644
 20
-1350.0965027219058
 42
0.0072580174737348
 10
920.13289771060954
 20
-1350.3770947132662
 10
920.12963607721031
 20
-1350.3850147395065
 42
0.0060005122569852
 10
920.01043540887622
 20
-1350.6846244101116
 10
920.00722443053382
 20
-1350.6929859380166
 42
0.0049017787093402
 10
919.88832427163288
 20
-1351.0119149187326
 10
919.88515846528026
 20
-1351.0206678558511
 42
0.003941516771422
 10
919.76572218693036
 20
-1351.3592099191101
 10
919.76259108456725
 20
-1351.3683131191406
 42
0.003103583862699
 10
919.64178629918024
 20
-1351.7267529799956
 10
919.63867625434796
 20
-1351.736173602289
 42
0.0025070747184288
 10
919.51577490297495
 20
-1352.1148208194104
 10
919.47848100660485
 20
-1352.2317124844858
 42
0.0029081910203112
 10
919.28646270929312
 20
-1352.8458761411766
 10
919.24565954028367
 20
-1352.9790993850534
 42
0.0009266453736534
 10
918.97724216577626
 20
-1353.8613238456142
 10
918.95635469430272
 20
-1353.9304357209867
 42
-0.0005809993681237
 10
918.67901801273547
 20
-1354.8442438308516
 10
918.61273621404689
 20
-1355.0617287643745
 42
-0.0012018708096384
 10
918.46575190503791
 20
-1355.5398914275324
 10
918.41343205609155
 20
-1355.7086505599723
 42
-0.0002691059632694
 10
918.36986257229728
 20
-1355.8489181887398
 10
915.53690667400951
 20
-1364.9380727910398
 10
913.7189177820328
 20
-1364.9380727910398
 10
919.97116719807673
 20
-1344.2943547545096
  0
SPLINE
  5
165
100
AcDbEntity
  8
template
370
              15
390
0
  6
Continuous
 62
               7
100
AcDbSpline
210
0.0
220
0.0
230
1.0
 70
              13
 71
               2
 72
             782
 73
             779
 74
               0
 42
0.000001
 43
0.000001
 40
0.0
 40
0.0
 40
0.0
 40
1.0
 40
1.0
 40
2.0
 40
2.0
 40
3.0
 40
3.0
 40
4.0
 40
4.0
 40
5.0
 40
5.0
 40
6.0
 40
6.0
 40
7.0
 40
7.0
 40
8.0
 40
8.0
 40
9.0
 40
9.0
 40
10.0
 40
10.0
 40
11.0
 40
11.0
 40
12.0
 40
12.0
 40
13.0
 40
13.0
 40
14.0
 40
14.0
 40
15.0
 40
15.0
 40
16.0
 40
16.0
 40
17.0
 40
17.0
 40
18.0
 40
18.0
 40
19.0
 40
19.0
 40
20.0
 40
20.0
 40
21.0
 40
21.0
 40
22.0
 40
22.0
 40
23.0
 40
23.0
 40
24.0
 40
24.0
 40
25.0
 40
25.0
 40
26.0
 40
26.0
 40
27.0
 40
27.0
 40
28.0
 40
28.0
 40
29.0
 40
29.0
 40
30.0
 40
30.0
 40
31.0
 40
31.0
 40
32.0
 40
32.0
 40
33.0
 40
33.0
 40
34.0
 40
34.0
 40
35.0
 40
35.0
 40
36.0
 40
36.0
 40
37.0
 40
37.0
 40
38.0
 40
38.0
 40
39.0
 40
39.0
 40
40.0
 40
40.0
 40
41.0
 40
41.0
 40
42.0
 40
42.0
 40
43.0
 40
43.0
 40
44.0
 40
44.0
 40
45.0
 40
45.0
 40
46.0
 40
46.0
 40
47.0
 40
47.0
 40
48.0
 40
48.0
 40
49.0
 40
49.0
 40
50.0
 40
50.0
 40
51.0
 40
51.0
 40
52.0
 40
52.0
 40
53.0
 40
53.0
 40
54.0
 40
54.0
 40
55.0
 40
55.0
 40
56.0
 40
56.0
 40
57.0
 40
57.0
 40
58.0
 40
58.0
 40
59.0
 40
59.0
 40
60.0
 40
60.0
 40
61.0
 40
61.0
 40
62.0
 40
62.0
 40
63.0
 40
63.0
 40
64.0
 40
64.0
 40
65.0
 40
65.0
 40
66.0
 40
66.0
 40
67.0
 40
67.0
 40
68.0
 40
68.0
 40
69.0
 40
69.0
 40
70.0
 40
70.0
 40
71.0
 40
71.0
 40
72.0
 40
72.0
 40
73.0
 40
73.0
 40
74.0
 40
74.0
 40
75.0
 40
75.0
 40
76.0
 40
76.0
 40
77.0
 40
77.0
 40
78.0
 40
78.0
 40
79.0
 40
79.0
 40
80.0
 40
80.0
 40
81.0
 40
81.0
 40
82.0
 40
82.0
 40
83.0
 40
83.0
 40
84.0
 40
84.0
 40
85.0
 40
85.0
 40
86.0
 40
86.0
 40
87.0
 40
87.0
 40
88.0
 40
88.0
 40
89.0
 40
89.0
 40
90.0
 40
90.0
 40
91.0
 40
91.0
 40
92.0
 40
92.0
 40
93.0
 40
93.0
 40
94.0
 40
94.0
 40
95.0
 40
95.0
 40
96.0
 40
96.0
 40
97.0
 40
97.0
 40
98.0
 40
98.0
 40
99.0
 40
99.0
 40
100.0
 40
100.0
 40
101.0
 40
101.0
 40
102.0
 40
102.0
 40
103.0
 40
103.0
 40
104.0
 40
104.0
 40
105.0
 40
105.0
 40
106.0
 40
106.0
 40
107.0
 40
107.0
 40
108.0
 40
108.0
 40
109.0
 40
109.0
 40
110.0
 40
110.0
 40
111.0
 40
111.0
 40
112.0
 40
112.0
 40
113.0
 40
113.0
 40
114.0
 40
114.0
 40
115.0
 40
115.0
 40
116.0
 40
116.0
 40
117.0
 40
117.0
 40
118.0
 40
118.0
 40
119.0
 40
119.0
 40
120.0
 40
120.0
 40
121.0
 40
121.0
 40
122.0
 40
122.0
 40
123.0
 40
123.0
 40
124.0
 40
124.0
 40
125.0
 40
125.0
 40
126.0
 40
126.0
 40
127.0
 40
127.0
 40
128.0
 40
128.0
 40
129.0
 40
129.0
 40
130.0
 40
130.0
 40
131.0
 40
131.0
 40
132.0
 40
132.0
 40
133.0
 40
133.0
 40
134.0
 40
134.0
 40
135.0
 40
135.0
 40
136.0
 40
136.0
 40
137.0
 40
137.0
 40
138.0
 40
138.0
 40
139.0
 40
139.0
 40
140.0
 40
140.0
 40
141.0
 40
141.0
 40
142.0
 40
142.0
 40
143.0
 40
143.0
 40
144.0
 40
144.0
 40
145.0
 40
145.0
 40
146.0
 40
146.0
 40
147.0
 40
147.0
 40
148.0
 40
148.0
 40
149.0
 40
149.0
 40
150.0
 40
150.0
 40
151.0
 40
151.0
 40
152.0
 40
152.0
 40
153.0
 40
153.0
 40
154.0
 40
154.0
 40
155.0
 40
155.0
 40
156.0
 40
156.0
 40
157.0
 40
157.0
 40
158.0
 40
158.0
 40
159.0
 40
159.0
 40
160.0
 40
160.0
 40
161.0
 40
161.0
 40
162.0
 40
162.0
 40
163.0
 40
163.0
 40
164.0
 40
164.0
 40
165.0
 40
165.0
 40
166.0
 40
166.0
 40
167.0
 40
167.0
 40
168.0
 40
168.0
 40
169.0
 40
169.0
 40
170.0
 40
170.0
 40
171.0
 40
171.0
 40
172.0
 40
172.0
 40
173.0
 40
173.0
 40
174.0
 40
174.0
 40
175.0
 40
175.0
 40
176.0
 40
176.0
 40
177.0
 40
177.0
 40
178.0
 40
178.0
 40
179.0
 40
179.0
 40
180.0
 40
180.0
 40
181.0
 40
181.0
 40
182.0
 40
182.0
 40
183.0
 40
183.0
 40
184.0
 40
184.0
 40
185.0
 40
185.0
 40
186.0
 40
186.0
 40
187.0
 40
187.0
 40
188.0
 40
188.0
 40
189.0
 40
189.0
 40
190.0
 40
190.0
 40
191.0
 40
191.0
 40
192.0
 40
192.0
 40
193.0
 40
193.0
 40
194.0
 40
194.0
 40
195.0
 40
195.0
 40
196.0
 40
196.0
 40
197.0
 40
197.0
 40
198.0
 40
198.0
 40
199.0
 40
199.0
 40
200.0
 40
200.0
 40
201.0
 40
201.0
 40
202.0
 40
202.0
 40
203.0
 40
203.0
 40
204.0
 40
204.0
 40
205.0
 40
205.0
 40
206.0
 40
206.0
 40
207.0
 40
207.0
 40
208.0
 40
208.0
 40
209.0
 40
209.0
 40
210.0
 40
210.0
 40
211.0
 40
211.0
 40
212.0
 40
212.0
 40
213.0
 40
213.0
 40
214.0
 40
214.0
 40
215.0
 40
215.0
 40
216.0
 40
216.0
 40
217.0
 40
217.0
 40
218.0
 40
218.0
 40
219.0
 40
219.0
 40
220.0
 40
220.0
 40
221.0
 40
221.0
 40
222.0
 40
222.0
 40
223.0
 40
223.0
 40
224.0
 40
224.0
 40
225.0
 40
225.0
 40
226.0
 40
226.0
 40
227.0
 40
227.0
 40
228.0
 40
228.0
 40
229.0
 40
229.0
 40
230.0
 40
230.0
 40
231.0
 40
231.0
 40
232.0
 40
232.0
 40
233.0
 40
233.0
 40
234.0
 40
234.0
 40
235.0
 40
235.0
 40
236.0
 40
236.0
 40
237.0
 40
237.0
 40
238.0
 40
238.0
 40
239.0
 40
239.0
 40
240.0
 40
240.0
 40
241.0
 40
241.0
 40
242.0
 40
242.0
 40
243.0
 40
243.0
 40
244.0
 40
244.0
 40
245.0
 40
245.0
 40
246.0
 40
246.0
 40
247.0
 40
247.0
 40
248.0
 40
248.0
 40
249.0
 40
249.0
 40
250.0
 40
250.0
 40
251.0
 40
251.0
 40
252.0
 40
252.0
 40
253.0
 40
253.0
 40
254.0
 40
254.0
 40
255.0
 40
255.0
 40
256.0
 40
256.0
 40
257.0
 40
257.0
 40
258.0
 40
258.0
 40
259.0
 40
259.0
 40
260.0
 40
260.0
 40
261.0
 40
261.0
 40
262.0
 40
262.0
 40
263.0
 40
263.0
 40
264.0
 40
264.0
 40
265.0
 40
265.0
 40
266.0
 40
266.0
 40
267.0
 40
267.0
 40
268.0
 40
268.0
 40
269.0
 40
269.0
 40
270.0
 40
270.0
 40
271.0
 40
271.0
 40
272.0
 40
272.0
 40
273.0
 40
273.0
 40
274.0
 40
274.0
 40
275.0
 40
275.0
 40
276.0
 40
276.0
 40
277.0
 40
277.0
 40
278.0
 40
278.0
 40
279.0
 40
279.0
 40
280.0
 40
280.0
 40
281.0
 40
281.0
 40
282.0
 40
282.0
 40
283.0
 40
283.0
 40
284.0
 40
284.0
 40
285.0
 40
285.0
 40
286.0
 40
286.0
 40
287.0
 40
287.0
 40
288.0
 40
288.0
 40
289.0
 40
289.0
 40
290.0
 40
290.0
 40
291.0
 40
291.0
 40
292.0
 40
292.0
 40
293.0
 40
293.0
 40
294.0
 40
294.0
 40
295.0
 40
295.0
 40
296.0
 40
296.0
 40
297.0
 40
297.0
 40
298.0
 40
298.0
 40
299.0
 40
299.0
 40
300.0
 40
300.0
 40
301.0
 40
301.0
 40
302.0
 40
302.0
 40
303.0
 40
303.0
 40
304.0
 40
304.0
 40
305.0
 40
305.0
 40
306.0
 40
306.0
 40
307.0
 40
307.0
 40
308.0
 40
308.0
 40
309.0
 40
309.0
 40
310.0
 40
310.0
 40
311.0
 40
311.0
 40
312.0
 40
312.0
 40
313.0
 40
313.0
 40
314.0
 40
314.0
 40
315.0
 40
315.0
 40
316.0
 40
316.0
 40
317.0
 40
317.0
 40
318.0
 40
318.0
 40
319.0
 40
319.0
 40
320.0
 40
320.0
 40
321.0
 40
321.0
 40
322.0
 40
322.0
 40
323.0
 40
323.0
 40
324.0
 40
324.0
 40
325.0
 40
325.0
 40
326.0
 40
326.0
 40
327.0
 40
327.0
 40
328.0
 40
328.0
 40
329.0
 40
329.0
 40
330.0
 40
330.0
 40
331.0
 40
331.0
 40
332.0
 40
332.0
 40
333.0
 40
333.0
 40
334.0
 40
334.0
 40
335.0
 40
335.0
 40
336.0
 40
336.0
 40
337.0
 40
337.0
 40
338.0
 40
338.0
 40
339.0
 40
339.0
 40
340.0
 40
340.0
 40
341.0
 40
341.0
 40
342.0
 40
342.0
 40
343.0
 40
343.0
 40
344.0
 40
344.0
 40
345.0
 40
345.0
 40
346.0
 40
346.0
 40
347.0
 40
347.0
 40
348.0
 40
348.0
 40
349.0
 40
349.0
 40
350.0
 40
350.0
 40
351.0
 40
351.0
 40
352.0
 40
352.0
 40
353.0
 40
353.0
 40
354.0
 40
354.0
 40
355.0
 40
355.0
 40
356.0
 40
356.0
 40
357.0
 40
357.0
 40
358.0
 40
358.0
 40
359.0
 40
359.0
 40
360.0
 40
360.0
 40
361.0
 40
361.0
 40
362.0
 40
362.0
 40
363.0
 40
363.0
 40
364.0
 40
364.0
 40
365.0
 40
365.0
 40
366.0
 40
366.0
 40
367.0
 40
367.0
 40
368.0
 40
368.0
 40
369.0
 40
369.0
 40
370.0
 40
370.0
 40
371.0
 40
371.0
 40
372.0
 40
372.0
 40
373.0
 40
373.0
 40
374.0
 40
374.0
 40
375.0
 40
375.0
 40
376.0
 40
376.0
 40
377.0
 40
377.0
 40
378.0
 40
378.0
 40
379.0
 40
379.0
 40
380.0
 40
380.0
 40
381.0
 40
381.0
 40
382.0
 40
382.0
 40
383.0
 40
383.0
 40
384.0
 40
384.0
 40
385.0
 40
385.0
 40
386.0
 40
386.0
 40
387.0
 40
387.0
 40
388.0
 40
388.0
 40
389.0
 40
389.0
 40
389.0
 10
930.29987164881459
 20
-1344.2834283911475
 30
0.0
 41
1.0
 10
931.11829575753654
 20
-1344.2834283911475
 30
0.0
 41
1.0
 10
931.93671986625122
 20
-1344.2834283911475
 30
0.0
 41
1.0
 10
931.5229661307385
 20
-1345.6260546553972
 30
0.0
 41
1.0
 10
931.10921239521849
 20
-1346.9686809196469
 30
0.0
 41
1.0
 10
931.12755189061863
 20
-1346.939980146381
 30
0.0
 41
0.999995726443707
 10
931.14605888786173
 20
-1346.9113870955903
 30
0.0
 41
1.0
 10
931.17648821167677
 20
-1346.8643742177114
 30
0.0
 41
1.0
 10
931.20691753549181
 20
-1346.8173613398326
 30
0.0
 41
1.0
 10
931.28628318065603
 20
-1346.6947425328576
 30
0.0
 41
0.9995394069087237
 10
931.37294157222641
 20
-1346.5771644710885
 30
0.0
 41
1.0
 10
931.40869843445398
 20
-1346.5286495785363
 30
0.0
 41
1.0
 10
931.44445529668155
 20
-1346.4801346859836
 30
0.0
 41
1.0
 10
931.5781819644908
 20
-1346.2986944108734
 30
0.0
 41
0.999446061714402
 10
931.72368244577956
 20
-1346.1265520132242
 30
0.0
 41
1.0
 10
931.72807062674838
 20
-1346.1213603328447
 30
0.0
 41
1.0
 10
931.73245880772447
 20
-1346.1161686524647
 30
0.0
 41
1.0
 10
931.8691829270756
 20
-1345.9544096155591
 30
0.0
 41
0.9994359394934909
 10
932.01645715741324
 20
-1345.8021934144099
 30
0.0
 41
1.0
 10
932.01884051137313
 20
-1345.7997300840293
 30
0.0
 41
1.0
 10
932.02122386533301
 20
-1345.7972667536492
 30
0.0
 41
1.0
 10
932.16373138774361
 20
-1345.6499772132661
 30
0.0
 41
0.9995293688566896
 10
932.31500306874659
 20
-1345.5117040010814
 30
0.0
 41
1.0
 10
932.33429682807764
 20
-1345.4940681153671
 30
0.0
 41
1.0
 10
932.35359058741597
 20
-1345.4764322296523
 30
0.0
 41
1.0
 10
932.46627474984416
 20
-1345.373430788824
 30
0.0
 41
0.9997087614808443
 10
932.58379763868288
 20
-1345.2759865081193
 30
0.0
 41
1.0
 10
932.60296371189906
 20
-1345.2600949295761
 30
0.0
 41
1.0
 10
932.62212978511525
 20
-1345.2442033510329
 30
0.0
 41
1.0
 10
932.70132052764529
 20
-1345.1785422273115
 30
0.0
 41
0.9999595338695413
 10
932.78167979849968
 20
-1345.1143164966666
 30
0.0
 41
1.0
 10
932.86203906926676
 20
-1345.0500907660826
 30
0.0
 41
0.9999749417498955
 10
932.94329960351024
 20
-1344.9870092122105
 30
0.0
 41
1.0
 10
932.96428575018945
 20
-1344.970717924507
 30
0.0
 41
1.0
 10
932.98527189686865
 20
-1344.9544266368034
 30
0.0
 41
1.0
 10
933.06983978174685
 20
-1344.8887776272963
 30
0.0
 41
0.9999792037118759
 10
933.15524738109525
 20
-1344.8242248459724
 30
0.0
 41
1.0
 10
933.17607220665377
 20
-1344.8084850239807
 30
0.0
 41
1.0
 10
933.19689703221957
 20
-1344.792745201989
 30
0.0
 41
1.0
 10
933.24065498088748
 20
-1344.759672064311
 30
0.0
 41
0.9999993373857534
 10
933.28433666701312
 20
-1344.7264982689048
 30
0.0
 41
1.0
 10
933.32801835313148
 20
-1344.6933244734996
 30
0.0
 41
0.9999160953818489
 10
933.37254476416274
 20
-1344.6612934082141
 30
0.0
 41
1.0
 10
933.40536665153923
 20
-1344.6376822526631
 30
0.0
 41
1.0
 10
933.43818853891571
 20
-1344.6140710971126
 30
0.0
 41
1.0
 10
933.54835872467811
 20
-1344.5348177207402
 30
0.0
 41
0.9980964527221271
 10
933.66744771815866
 20
-1344.4697302478985
 30
0.0
 41
1.0
 10
933.70448032510467
 20
-1344.449490268295
 30
0.0
 41
1.0
 10
933.74151293205068
 20
-1344.429250288691
 30
0.0
 41
1.0
 10
933.92083994529094
 20
-1344.3312400380032
 30
0.0
 41
0.9984572810562498
 10
934.10992851165793
 20
-1344.2537177766549
 30
0.0
 41
1.0
 10
934.11357478105492
 20
-1344.2522228843172
 30
0.0
 41
1.0
 10
934.11722105045192
 20
-1344.2507279919796
 30
0.0
 41
1.0
 10
934.29901707803947
 20
-1344.1761955153042
 30
0.0
 41
0.9987838528036863
 10
934.48726973657904
 20
-1344.1199298751426
 30
0.0
 41
1.0
 10
934.49150768577238
 20
-1344.1186632214553
 30
0.0
 41
1.0
 10
934.49574563495844
 20
-1344.1173965677681
 30
0.0
 41
1.0
 10
934.67552239509678
 20
-1344.0636642349823
 30
0.0
 41
0.9990652816195602
 10
934.85926832685072
 20
-1344.025660555435
 30
0.0
 41
1.0
 10
934.86445672786795
 20
-1344.0245874523312
 30
0.0
 41
1.0
 10
934.86964512888517
 20
-1344.0235143492273
 30
0.0
 41
1.0
 10
935.04301425858284
 20
-1343.9876568758909
 30
0.0
 41
0.9992909934271659
 10
935.21859002502606
 20
-1343.9649464434265
 30
0.0
 41
1.0
 10
935.39416579152748
 20
-1343.9422360109556
 30
0.0
 41
0.9994553539447368
 10
935.5708572245785
 20
-1343.9311567067539
 30
0.0
 41
1.0
 10
935.60629163235717
 20
-1343.9289348187071
 30
0.0
 41
1.0
 10
935.64172604014311
 20
-1343.92671293066
 30
0.0
 41
1.0
 10
935.80795180676068
 20
-1343.9162898682453
 30
0.0
 41
0.9990928098290061
 10
935.97446159864194
 20
-1343.920049509481
 30
0.0
 41
1.0
 10
936.01302343393036
 20
-1343.9209202010147
 30
0.0
 41
1.0
 10
936.0515852692115
 20
-1343.921790892548
 30
0.0
 41
1.0
 10
936.14097139058867
 20
-1343.9238091507214
 30
0.0
 41
0.9998382089213773
 10
936.23022707333439
 20
-1343.9290412772434
 30
0.0
 41
1.0
 10
936.23065697955462
 20
-1343.9290664781456
 30
0.0
 41
1.0
 10
936.23108688577486
 20
-1343.9290916790478
 30
0.0
 41
1.0
 10
936.31948275610193
 20
-1343.9342734037696
 30
0.0
 41
0.9997558016754959
 10
936.40756333331228
 20
-1343.943355919138
 30
0.0
 41
1.0
 10
936.40803947176028
 20
-1343.9434050166224
 30
0.0
 41
1.0
 10
936.40851561020099
 20
-1343.9434541141063
 30
0.0
 41
1.0
 10
936.49564391047898
 20
-1343.9524384345
 30
0.0
 41
0.9996565144181862
 10
936.58218176385708
 20
-1343.9659757411937
 30
0.0
 41
1.0
 10
936.58264768922527
 20
-1343.9660486269236
 30
0.0
 41
1.0
 10
936.58311361459346
 20
-1343.9661215126534
 30
0.0
 41
1.0
 10
936.66871961717698
 20
-1343.9795130478769
 30
0.0
 41
0.9995321806860938
 10
936.7533466975292
 20
-1343.9981135363118
 30
0.0
 41
1.0
 10
936.75373589211085
 20
-1343.9981990787796
 30
0.0
 41
1.0
 10
936.75412508669251
 20
-1343.9982846212474
 30
0.0
 41
1.0
 10
936.83797377789597
 20
-1344.016714024754
 30
0.0
 41
0.9993819199237629
 10
936.92032031205599
 20
-1344.0409894080017
 30
0.0
 41
1.0
 10
936.92055874555081
 20
-1344.0410596971115
 30
0.0
 41
1.0
 10
936.9207971790529
 20
-1344.0411299862212
 30
0.0
 41
1.0
 10
937.00266684622329
 20
-1344.0652647912539
 30
0.0
 41
0.9992088568504578
 10
937.08235936523852
 20
-1344.0958300270568
 30
0.0
 41
1.0
 10
937.16204035610281
 20
-1344.1263896277842
 30
0.0
 41
0.9990226101773876
 10
937.23871102602425
 20
-1344.1638670594043
 30
0.0
 41
1.0
 10
937.31537016780931
 20
-1344.2013388559503
 30
0.0
 41
0.9988424273958715
 10
937.38807379503123
 20
-1344.2460036312132
 30
0.0
 41
1.0
 10
937.38834150340699
 20
-1344.2461680952842
 30
0.0
 41
1.0
 10
937.38860921179003
 20
-1344.2463325593558
 30
0.0
 41
1.0
 10
937.46184825577075
 20
-1344.2913262627621
 30
0.0
 41
0.9986928844506271
 10
937.53011112250533
 20
-1344.3435619970551
 30
0.0
 41
1.0
 10
937.5306924147153
 20
-1344.3440068102714
 30
0.0
 41
1.0
 10
937.531273706918
 20
-1344.3444516234881
 30
0.0
 41
1.0
 10
937.60069915806525
 20
-1344.3975769842104
 30
0.0
 41
0.9986007262274179
 10
937.66412532781396
 20
-1344.4577377538872
 30
0.0
 41
1.0
 10
937.66501974329003
 20
-1344.458586121737
 30
0.0
 41
1.0
 10
937.66591415875882
 20
-1344.4594344895872
 30
0.0
 41
1.0
 10
937.73112915942329
 20
-1344.5212919949317
 30
0.0
 41
0.9985581491385752
 10
937.78933677110035
 20
-1344.5897844851766
 30
0.0
 41
1.0
 10
937.79859522471088
 20
-1344.6006788429013
 30
0.0
 41
1.0
 10
937.80785367832868
 20
-1344.611573200626
 30
0.0
 41
1.0
 10
937.88457819724863
 20
-1344.7018544063308
 30
0.0
 41
0.9970460233511423
 10
937.94657009842194
 20
-1344.8028214905462
 30
0.0
 41
1.0
 10
937.96103946345102
 20
-1344.826387949543
 30
0.0
 41
1.0
 10
937.97550882848009
 20
-1344.8499544085398
 30
0.0
 41
1.0
 10
938.01524552853516
 20
-1344.9146741326285
 30
0.0
 41
0.9988468816626044
 10
938.04859189930721
 20
-1344.9829065851045
 30
0.0
 41
1.0
 10
938.055627921829
 20
-1344.9973035063099
 30
0.0
 41
1.0
 10
938.06266394435079
 20
-1345.0117004275157
 30
0.0
 41
1.0
 10
938.08193827007926
 20
-1345.0511390375791
 30
0.0
 41
0.9998431189990857
 10
938.09980359754991
 20
-1345.0912355919731
 30
0.0
 41
1.0
 10
938.11766892510059
 20
-1345.1313321465345
 30
0.0
 41
0.9999989990040559
 10
938.13564764831244
 20
-1345.1713779836464
 30
0.0
 41
1.0
 10
938.14181995998661
 20
-1345.1851262006344
 30
0.0
 41
1.0
 10
938.14799227166077
 20
-1345.1988744176228
 30
0.0
 41
1.0
 10
938.17831561819185
 20
-1345.2664166886339
 30
0.0
 41
0.9998790356316701
 10
938.20652349825832
 20
-1345.3348694404021
 30
0.0
 41
1.0
 10
938.21335867962625
 20
-1345.3514565420433
 30
0.0
 41
1.0
 10
938.22019386100146
 20
-1345.3680436436844
 30
0.0
 41
1.0
 10
938.24375152335415
 20
-1345.4252115985196
 30
0.0
 41
0.9998227574569046
 10
938.26514027174562
 20
-1345.4832259067871
 30
0.0
 41
1.0
 10
938.28652902007161
 20
-1345.5412402148663
 30
0.0
 41
0.9996797971004166
 10
938.30495530497137
 20
-1345.6002623338027
 30
0.0
 41
1.0
 10
938.30885910775396
 20
-1345.6127667921614
 30
0.0
 41
1.0
 10
938.31276291054382
 20
-1345.6252712505207
 30
0.0
 41
1.0
 10
938.33899680095783
 20
-1345.7093022859849
 30
0.0
 41
0.997927493873387
 10
938.35422132444364
 20
-1345.796006644659
 30
0.0
 41
1.0
 10
938.35644501168281
 20
-1345.8086706453764
 30
0.0
 41
1.0
 10
938.35866869892925
 20
-1345.8213346460939
 30
0.0
 41
1.0
 10
938.36959863864467
 20
-1345.8835811534827
 30
0.0
 41
0.9994985982133233
 10
938.37656680382497
 20
-1345.9463946547116
 30
0.0
 41
1.0
 10
938.38353496900527
 20
-1346.0092081558669
 30
0.0
 41
0.9996372611194717
 10
938.38711083477392
 20
-1346.072305734559
 30
0.0
 41
1.0
 10
938.38727941225807
 20
-1346.0752803516293
 30
0.0
 41
1.0
 10
938.38744798974949
 20
-1346.0782549687001
 30
0.0
 41
1.0
 10
938.39136101050099
 20
-1346.1473017814064
 30
0.0
 41
0.999773063072088
 10
938.3923293239859
 20
-1346.2164526053061
 30
0.0
 41
1.0
 10
938.39238643040881
 20
-1346.2205307845848
 30
0.0
 41
1.0
 10
938.39244353682443
 20
-1346.2246089638638
 30
0.0
 41
1.0
 10
938.39352606314787
 20
-1346.3019161461375
 30
0.0
 41
0.9998772614070741
 10
938.39218597641593
 20
-1346.3792192926576
 30
0.0
 41
1.0
 10
938.39209671321441
 20
-1346.3843684565368
 30
0.0
 41
1.0
 10
938.39200745002017
 20
-1346.389517620416
 30
0.0
 41
1.0
 10
938.39048883689247
 20
-1346.4771190946421
 30
0.0
 41
0.9999415567322653
 10
938.38707652664743
 20
-1346.5646672563134
 30
0.0
 41
1.0
 10
938.3868352059726
 20
-1346.5708587160566
 30
0.0
 41
1.0
 10
938.38659388529777
 20
-1346.5770501758002
 30
0.0
 41
1.0
 10
938.38269893367396
 20
-1346.6769812573457
 30
0.0
 41
0.9999716810436854
 10
938.37730035054119
 20
-1346.7768423959637
 30
0.0
 41
1.0
 10
938.37408755173237
 20
-1346.8362716459828
 30
0.0
 41
1.0
 10
938.37087475292356
 20
-1346.8957008960015
 30
0.0
 41
1.0
 10
938.36280084379541
 20
-1347.0450492965183
 30
0.0
 41
0.999981912989487
 10
938.35293105222809
 20
-1347.1942897734853
 30
0.0
 41
1.0
 10
938.34306126061711
 20
-1347.3435302511966
 30
0.0
 41
1.0
 10
938.34062194004946
 20
-1347.3807232970462
 30
0.0
 41
1.0
 10
938.3633201743869
 20
-1347.3419822988662
 30
0.0
 41
0.9999982128277363
 10
938.38616473359434
 20
-1347.3033274041472
 30
0.0
 41
1.0
 10
938.41307429299923
 20
-1347.2577941908976
 30
0.0
 41
1.0
 10
938.43998385241139
 20
-1347.2122609776479
 30
0.0
 41
1.0
 10
938.51664753096702
 20
-1347.0825396555288
 30
0.0
 41
0.9998609190061041
 10
938.59759484384995
 20
-1346.9554472735672
 30
0.0
 41
1.0
 10
938.62724316520325
 20
-1346.9088975408167
 30
0.0
 41
1.0
 10
938.65689148654928
 20
-1346.8623478080663
 30
0.0
 41
1.0
 10
938.73916370685765
 20
-1346.7331752379446
 30
0.0
 41
0.9999067609730638
 10
938.82493271645944
 20
-1346.6062975482987
 30
0.0
 41
1.0
 10
938.8273374196724
 20
-1346.6027402822278
 30
0.0
 41
1.0
 10
938.82974212288536
 20
-1346.599183016157
 30
0.0
 41
1.0
 10
938.91070172591571
 20
-1346.4794198588652
 30
0.0
 41
0.999878495214871
 10
938.99535533560265
 20
-1346.3622386421484
 30
0.0
 41
1.0
 10
939.08000894526776
 20
-1346.2450574254626
 30
0.0
 41
0.9998532968285783
 10
939.16862656601734
 20
-1346.1308445170844
 30
0.0
 41
1.0
 10
939.18858835504216
 20
-1346.1051171960257
 30
0.0
 41
1.0
 10
939.2085501440597
 20
-1346.0793898749671
 30
0.0
 41
1.0
 10
939.32703419382597
 20
-1345.926684263984
 30
0.0
 41
0.9991551975794978
 10
939.4576586434705
 20
-1345.7842247018766
 30
0.0
 41
1.0
 10
939.46116825938225
 20
-1345.7803971003277
 30
0.0
 41
1.0
 10
939.464677875294
 20
-1345.7765694987788
 30
0.0
 41
1.0
 10
939.58828309303499
 20
-1345.6417651398569
 30
0.0
 41
0.9997418144182586
 10
939.71788523279974
 20
-1345.5127157291809
 30
0.0
 41
1.0
 10
939.84748737251357
 20
-1345.3836663185571
 30
0.0
 41
0.9989238204635577
 10
939.98848992075364
 20
-1345.2671813565312
 30
0.0
 41
1.0
 10
940.03373759887472
 20
-1345.2298013649374
 30
0.0
 41
1.0
 10
940.07898527699581
 20
-1345.1924213733437
 30
0.0
 41
1.0
 10
940.21922533422912
 20
-1345.0765663200377
 30
0.0
 41
0.9990825084096294
 10
940.36886526684975
 20
-1344.973137322188
 30
0.0
 41
1.0
 10
940.37891063088318
 20
-1344.9661941091231
 30
0.0
 41
1.0
 10
940.38895599492389
 20
-1344.9592508960586
 30
0.0
 41
1.0
 10
940.51850519938307
 20
-1344.8697083243978
 30
0.0
 41
0.9998164899821229
 10
940.65138940283214
 20
-1344.7851940828391
 30
0.0
 41
1.0
 10
940.66323496334371
 20
-1344.7776603163197
 30
0.0
 41
1.0
 10
940.67508052386256
 20
-1344.7701265498004
 30
0.0
 41
1.0
 10
940.78427360618662
 20
-1344.700679841339
 30
0.0
 41
0.9997473449133528
 10
940.89647756345948
 20
-1344.6362108835069
 30
0.0
 41
1.0
 10
941.00868152058683
 20
-1344.5717419257594
 30
0.0
 41
0.999932786114439
 10
941.12235013134341
 20
-1344.5098919340812
 30
0.0
 41
1.0
 10
941.12290213396773
 20
-1344.5095915753664
 30
0.0
 41
1.0
 10
941.12345413659932
 20
-1344.5092912166515
 30
0.0
 41
1.0
 10
941.23822675256088
 20
-1344.4468405075709
 30
0.0
 41
0.9996956420481366
 10
941.35594007839245
 20
-1344.3901270406036
 30
0.0
 41
1.0
 10
941.38638048321445
 20
-1344.3754610639066
 30
0.0
 41
1.0
 10
941.41682088803645
 20
-1344.3607950872097
 30
0.0
 41
1.0
 10
941.51979799474066
 20
-1344.3111814287827
 30
0.0
 41
0.9998070570178932
 10
941.62464438378811
 20
-1344.2656508418327
 30
0.0
 41
1.0
 10
941.72949077278463
 20
-1344.2201202549136
 30
0.0
 41
0.9997827436153808
 10
941.8361437092899
 20
-1344.1789990836401
 30
0.0
 41
1.0
 10
941.85536655894248
 20
-1344.1715875099976
 30
0.0
 41
1.0
 10
941.87458940860233
 20
-1344.1641759363547
 30
0.0
 41
1.0
 10
942.01968804447824
 20
-1344.1082316177794
 30
0.0
 41
0.9988031841981002
 10
942.16955840709852
 20
-1344.0667315536052
 30
0.0
 41
1.0
 10
942.19447565545852
 20
-1344.0598318077987
 30
0.0
 41
1.0
 10
942.21939290382579
 20
-1344.0529320619926
 30
0.0
 41
1.0
 10
942.38666292945709
 20
-1344.0066139195869
 30
0.0
 41
0.998474804053993
 10
942.5580198381067
 20
-1343.979019687325
 30
0.0
 41
1.0
 10
942.56275897435262
 20
-1343.9782565268119
 30
0.0
 41
1.0
 10
942.56749811060581
 20
-1343.9774933662984
 30
0.0
 41
1.0
 10
942.72937674676359
 20
-1343.9514254550568
 30
0.0
 41
0.9984436495471102
 10
942.89315149048343
 20
-1343.943547501241
 30
0.0
 41
1.0
 10
942.91484869860869
 20
-1343.9425038140421
 30
0.0
 41
1.0
 10
942.93654590672668
 20
-1343.9414601268427
 30
0.0
 41
1.0
 10
943.056926234196
 20
-1343.9356695474185
 30
0.0
 41
0.998795478931934
 10
943.17729447911552
 20
-1343.9417060751648
 30
0.0
 41
1.0
 10
943.19725927159743
 20
-1343.9427073195025
 30
0.0
 41
1.0
 10
943.21722406407935
 20
-1343.9437085638406
 30
0.0
 41
1.0
 10
943.29766272396228
 20
-1343.9477426028998
 30
0.0
 41
0.9997941595870384
 10
943.37787150211807
 20
-1343.9550366688281
 30
0.0
 41
1.0
 10
943.458080280172
 20
-1343.9623307347483
 30
0.0
 41
0.9998589466243174
 10
943.53799882707244
 20
-1343.9723145892008
 30
0.0
 41
1.0
 10
943.57040502887685
 20
-1343.976362946119
 30
0.0
 41
1.0
 10
943.60281123068125
 20
-1343.9804113030377
 30
0.0
 41
1.0
 10
943.7475421811323
 20
-1343.9984918713253
 30
0.0
 41
0.9993495063253708
 10
943.89059342490509
 20
-1344.0269575810653
 30
0.0
 41
1.0
 10
943.92352712203865
 20
-1344.0335110442766
 30
0.0
 41
1.0
 10
943.95646081917221
 20
-1344.0400645074878
 30
0.0
 41
1.0
 10
944.06575464239722
 20
-1344.0618128416286
 30
0.0
 41
0.9996788715566259
 10
944.17380621438497
 20
-1344.0890706409959
 30
0.0
 41
1.0
 10
944.17586921695329
 20
-1344.0895910675767
 30
0.0
 41
1.0
 10
944.17793221952161
 20
-1344.0901114941576
 30
0.0
 41
1.0
 10
944.28185778632906
 20
-1344.1163284403569
 30
0.0
 41
0.9995480654494076
 10
944.3840200215709
 20
-1344.1487433969833
 30
0.0
 41
1.0
 10
944.38570966373663
 20
-1344.1492795019103
 30
0.0
 41
1.0
 10
944.38739930590964
 20
-1344.1498156068374
 30
0.0
 41
1.0
 10
944.4861822567982
 20
-1344.181158353611
 30
0.0
 41
0.9993867959468713
 10
944.58252941524552
 20
-1344.2193377228973
 30
0.0
 41
1.0
 10
944.58377236434171
 20
-1344.2198302647989
 30
0.0
 41
1.0
 10
944.58501531343791
 20
-1344.2203228067001
 30
0.0
 41
1.0
 10
944.67887657370738
 20
-1344.2575170922
 30
0.0
 41
0.9992050256539612
 10
944.76947624872264
 20
-1344.3020709914258
 30
0.0
 41
1.0
 10
944.77021093143412
 20
-1344.3024322838869
 30
0.0
 41
1.0
 10
944.7709456141456
 20
-1344.3027935763475
 30
0.0
 41
1.0
 10
944.86007592371607
 20
-1344.3466248906461
 30
0.0
 41
0.9990222350746946
 10
944.94498598514474
 20
-1344.398158158363
 30
0.0
 41
1.0
 10
944.9451698703997
 20
-1344.39826976125
 30
0.0
 41
1.0
 10
944.94535375565465
 20
-1344.3983813641371
 30
0.0
 41
1.0
 10
945.02989604652248
 20
-1344.4496914260512
 30
0.0
 41
0.9988642743815551
 10
945.10917058115592
 20
-1344.5088156135866
 30
0.0
 41
1.0
 10
945.18844511579664
 20
-1344.567939801133
 30
0.0
 41
0.9987681233345133
 10
945.26146890009113
 20
-1344.6346304925423
 30
0.0
 41
1.0
 10
945.26179782803956
 20
-1344.634930893742
 30
0.0
 41
1.0
 10
945.26212675598799
 20
-1344.6352312949411
 30
0.0
 41
1.0
 10
945.33580839623028
 20
-1344.7025227888134
 30
0.0
 41
0.9987496570925536
 10
945.40240220157284
 20
-1344.7768356029123
 30
0.0
 41
1.0
 10
945.40317437131307
 20
-1344.7776972762426
 30
0.0
 41
1.0
 10
945.40394654104603
 20
-1344.7785589495729
 30
0.0
 41
1.0
 10
945.47208468591998
 20
-1344.8545951104138
 30
0.0
 41
0.9988147669840982
 10
945.53250694019516
 20
-1344.9368961173241
 30
0.0
 41
1.0
 10
945.53362626623129
 20
-1344.9384207486232
 30
0.0
 41
1.0
 10
945.5347455922747
 20
-1344.9399453799228
 30
0.0
 41
1.0
 10
945.59740649865125
 20
-1345.025295649476
 30
0.0
 41
0.998945263623279
 10
945.65197341160092
 20
-1345.1160343386077
 30
0.0
 41
1.0
 10
945.65332213768852
 20
-1345.1182771196441
 30
0.0
 41
1.0
 10
945.65467086378339
 20
-1345.1205199006804
 30
0.0
 41
1.0
 10
945.71193522890826
 20
-1345.2157441518743
 30
0.0
 41
0.9991046436079041
 10
945.76094444221235
 20
-1345.315468584854
 30
0.0
 41
1.0
 10
945.76240830381721
 20
-1345.3184472649577
 30
0.0
 41
1.0
 10
945.76387216542207
 20
-1345.321425945061
 30
0.0
 41
1.0
 10
945.81580910194316
 20
-1345.4271077382923
 30
0.0
 41
0.9992763831109933
 10
945.85956223052926
 20
-1345.5364318003199
 30
0.0
 41
1.0
 10
945.86104150016763
 20
-1345.5401279877874
 30
0.0
 41
1.0
 10
945.862520769806
 20
-1345.5438241752545
 30
0.0
 41
1.0
 10
945.90923243769794
 20
-1345.6605406123158
 30
0.0
 41
0.9994163472885784
 10
945.94786546888645
 20
-1345.780174200806
 30
0.0
 41
1.0
 10
945.94910362120572
 20
-1345.7840083448073
 30
0.0
 41
1.0
 10
945.950341773525
 20
-1345.7878424888086
 30
0.0
 41
1.0
 10
945.99022533444804
 20
-1345.9113485500197
 30
0.0
 41
0.9997268055898597
 10
946.02429339029186
 20
-1346.0365835817361
 30
0.0
 41
1.0
 10
946.02522357056296
 20
-1346.040002947846
 30
0.0
 41
1.0
 10
946.02615375083406
 20
-1346.0434223139559
 30
0.0
 41
1.0
 10
946.05836144620844
 20
-1346.1618186136843
 30
0.0
 41
0.9996701319001634
 10
946.08444706298178
 20
-1346.2817125669503
 30
0.0
 41
1.0
 10
946.11053267974057
 20
-1346.4016065201458
 30
0.0
 41
0.9995785451106335
 10
946.12961625706521
 20
-1346.5228122811236
 30
0.0
 41
1.0
 10
946.13383603925467
 20
-1346.5496134359832
 30
0.0
 41
1.0
 10
946.13805582144414
 20
-1346.5764145908433
 30
0.0
 41
1.0
 10
946.1646307973715
 20
-1346.7452005645118
 30
0.0
 41
0.9979925101221503
 10
946.16965638329566
 20
-1346.9159918925702
 30
0.0
 41
1.0
 10
946.170481195717
 20
-1346.9440226158681
 30
0.0
 41
1.0
 10
946.17130600813834
 20
-1346.9720533391665
 30
0.0
 41
1.0
 10
946.17468196923437
 20
-1347.0867832204776
 30
0.0
 41
0.9995314902251818
 10
946.17103177709214
 20
-1347.2015047044138
 30
0.0
 41
1.0
 10
946.16738158494991
 20
-1347.3162261881639
 30
0.0
 41
0.9996245486945984
 10
946.15745248981693
 20
-1347.4305754592833
 30
0.0
 41
1.0
 10
946.15728944182047
 20
-1347.4324532154219
 30
0.0
 41
1.0
 10
946.15712639383128
 20
-1347.43433097156
 30
0.0
 41
1.0
 10
946.14687120268354
 20
-1347.5524357551562
 30
0.0
 41
0.9997286095011116
 10
946.13112587908836
 20
-1347.6699346642536
 30
0.0
 41
1.0
 10
946.13073238646029
 20
-1347.6728710887533
 30
0.0
 41
1.0
 10
946.13033889383951
 20
-1347.6758075132534
 30
0.0
 41
1.0
 10
946.11380658494454
 20
-1347.7991792716857
 30
0.0
 41
0.9998265533972001
 10
946.09269112618495
 20
-1347.9218497466136
 30
0.0
 41
1.0
 10
946.09201458407188
 20
-1347.9257801249846
 30
0.0
 41
1.0
 10
946.09133804195881
 20
-1347.9297105033552
 30
0.0
 41
1.0
 10
946.06886949888576
 20
-1348.0602417354867
 30
0.0
 41
0.9999022530861138
 10
946.04276003420819
 20
-1348.1900937044625
 30
0.0
 41
1.0
 10
946.04178139311261
 20
-1348.194960846517
 30
0.0
 41
1.0
 10
946.04080275200977
 20
-1348.1998279885715
 30
0.0
 41
1.0
 10
946.01273600510467
 20
-1348.3394142418197
 30
0.0
 41
0.9999524761932774
 10
945.98195303632383
 20
-1348.4784267347645
 30
0.0
 41
1.0
 10
945.98067692910263
 20
-1348.4841894942592
 30
0.0
 41
1.0
 10
945.9794008218887
 20
-1348.4899522537539
 30
0.0
 41
1.0
 10
945.94606563868001
 20
-1348.6404902656127
 30
0.0
 41
0.9999813588735032
 10
945.9108946378401
 20
-1348.7906099784582
 30
0.0
 41
1.0
 10
945.90934071241645
 20
-1348.7972425687408
 30
0.0
 41
1.0
 10
945.9077867869928
 20
-1348.8038751590238
 30
0.0
 41
1.0
 10
945.86950793525466
 20
-1348.9672600526346
 30
0.0
 41
0.9999955237640081
 10
945.83025205729064
 20
-1349.1304129561809
 30
0.0
 41
1.0
 10
945.81797042165999
 20
-1349.1814571466789
 30
0.0
 41
1.0
 10
945.80568878602935
 20
-1349.2325013371769
 30
0.0
 41
1.0
 10
945.74186963636021
 20
-1349.4977426235578
 30
0.0
 41
0.9999993604333837
 10
945.67745068889053
 20
-1349.7628388754879
 30
0.0
 41
1.0
 10
945.67273185370141
 20
-1349.7822577820411
 30
0.0
 41
1.0
 10
945.66801301851956
 20
-1349.8016766885944
 30
0.0
 41
1.0
 10
945.59415640018415
 20
-1350.1056107556333
 30
0.0
 41
0.9999659914729761
 10
945.51529680421663
 20
-1350.4082853025252
 30
0.0
 41
1.0
 10
945.51034411536239
 20
-1350.4272944394015
 30
0.0
 41
1.0
 10
945.50539142651542
 20
-1350.4463035762778
 30
0.0
 41
1.0
 10
945.41662645273755
 20
-1350.7869963973026
 30
0.0
 41
0.9999441976028736
 10
945.32068341976992
 20
-1351.1257378226214
 30
0.0
 41
1.0
 10
945.30398290135781
 20
-1351.1847015350863
 30
0.0
 41
1.0
 10
945.28728238295298
 20
-1351.2436652475512
 30
0.0
 41
1.0
 10
945.15793831316842
 20
-1351.7003340978154
 30
0.0
 41
0.9999625120736957
 10
945.02070554590318
 20
-1352.1546946316184
 30
0.0
 41
1.0
 10
944.98491560283583
 20
-1352.2731906581917
 30
0.0
 41
1.0
 10
944.94912565977575
 20
-1352.3916866847649
 30
0.0
 41
1.0
 10
944.87460545566864
 20
-1352.6384137630694
 30
0.0
 41
0.9999793386306761
 10
944.79691943246871
 20
-1352.884162402494
 30
0.0
 41
1.0
 10
944.71923340933427
 20
-1353.1299110417299
 30
0.0
 41
1.0
 10
944.70845385046414
 20
-1353.1639289461045
 30
0.0
 41
1.0
 10
942.85808079719573
 20
-1359.0510008685719
 30
0.0
 41
1.0
 10
941.00770774392731
 20
-1364.9380727910398
 30
0.0
 41
1.0
 10
940.04645105390227
 20
-1364.9380727910398
 30
0.0
 41
1.0
 10
939.08519436387724
 20
-1364.9380727910398
 30
0.0
 41
1.0
 10
940.70413914255914
 20
-1359.7900442892501
 30
0.0
 41
1.0
 10
942.32308392123377
 20
-1354.6420157874604
 30
0.0
 41
1.0
 10
942.36824974430783
 20
-1354.4979845655166
 30
0.0
 41
1.0
 10
942.41341556738189
 20
-1354.3539533435728
 30
0.0
 41
1.0
 10
942.58371998483926
 20
-1353.8108623141138
 30
0.0
 41
0.9999911657908203
 10
942.74945279662643
 20
-1353.2663587823949
 30
0.0
 41
1.0
 10
942.77914874014095
 20
-1353.1687948422964
 30
0.0
 41
1.0
 10
942.80884468365548
 20
-1353.0712309021978
 30
0.0
 41
1.0
 10
942.91518560835539
 20
-1352.7218552508621
 30
0.0
 41
0.999995242817847
 10
943.01936919763102
 20
-1352.3718302266811
 30
0.0
 41
1.0
 10
943.02442866798083
 20
-1352.3548319523584
 30
0.0
 41
1.0
 10
943.02948813832336
 20
-1352.3378336780361
 30
0.0
 41
1.0
 10
943.12355278699397
 20
-1352.0218052021942
 30
0.0
 41
0.9999931687514481
 10
943.21527862483345
 20
-1351.7050899890614
 30
0.0
 41
1.0
 10
943.22021388929716
 20
-1351.6880492797754
 30
0.0
 41
1.0
 10
943.22514915376087
 20
-1351.6710085704894
 30
0.0
 41
1.0
 10
943.30700446272385
 20
-1351.3883747757254
 30
0.0
 41
0.9999893840795611
 10
943.38625168916042
 20
-1351.1049986465446
 30
0.0
 41
1.0
 10
943.46549891566247
 20
-1350.8216225171341
 30
0.0
 41
0.9999833980072684
 10
943.54147515646764
 20
-1350.5373519338518
 30
0.0
 41
1.0
 10
943.55047909307177
 20
-1350.5036630558293
 30
0.0
 41
1.0
 10
943.55948302966863
 20
-1350.4699741778068
 30
0.0
 41
1.0
 10
943.6284475785942
 20
-1350.211938345285
 30
0.0
 41
0.9999233658064524
 10
943.69100254988734
 20
-1349.9522741862916
 30
0.0
 41
1.0
 10
943.75355752110772
 20
-1349.6926100275691
 30
0.0
 41
1.0
 10
943.79304093997052
 20
-1349.5288033631427
 30
0.0
 41
1.0
 10
943.79801954407594
 20
-1349.5081484007596
 30
0.0
 41
1.0
 10
943.80299814817408
 20
-1349.4874934383765
 30
0.0
 41
1.0
 10
943.83252435895702
 20
-1349.3649966981807
 30
0.0
 41
0.9999868670838599
 10
943.86079344282189
 20
-1349.242203753071
 30
0.0
 41
1.0
 10
943.86469093002961
 20
-1349.2252741654452
 30
0.0
 41
1.0
 10
943.86858841723006
 20
-1349.2083445778198
 30
0.0
 41
1.0
 10
943.88906252687593
 20
-1349.1194108071768
 30
0.0
 41
0.9999778173346141
 10
943.90835012493335
 20
-1349.030212190195
 30
0.0
 41
1.0
 10
943.92763772299077
 20
-1348.9410135732455
 30
0.0
 41
0.9999602692864698
 10
943.94533208155917
 20
-1348.8514852851499
 30
0.0
 41
1.0
 10
943.94853591370338
 20
-1348.8352748299585
 30
0.0
 41
1.0
 10
943.95173974584031
 20
-1348.8190643747671
 30
0.0
 41
1.0
 10
943.97584176863893
 20
-1348.6971151765115
 30
0.0
 41
0.9995617985311618
 10
943.99268511585251
 20
-1348.5739534287518
 30
0.0
 41
1.0
 10
943.99514960574015
 20
-1348.5559326115194
 30
0.0
 41
1.0
 10
943.9976140956278
 20
-1348.5379117942866
 30
0.0
 41
1.0
 10
944.01789735669445
 20
-1348.3895967445119
 30
0.0
 41
0.9991121410648843
 10
944.02562271029456
 20
-1348.2401006456248
 30
0.0
 41
1.0
 10
944.02654150031594
 20
-1348.2223208091277
 30
0.0
 41
1.0
 10
944.02746029033733
 20
-1348.2045409726306
 30
0.0
 41
1.0
 10
944.03334806387284
 20
-1348.0906045468973
 30
0.0
 41
0.9989792494927134
 10
944.02892897176207
 20
-1347.97660171092
 30
0.0
 41
1.0
 10
944.02828099988983
 20
-1347.9598854648789
 30
0.0
 41
1.0
 10
944.02763302801759
 20
-1347.9431692188373
 30
0.0
 41
1.0
 10
944.02450987963675
 20
-1347.8625988749054
 30
0.0
 41
0.9997820295386881
 10
944.01802588226565
 20
-1347.782229153278
 30
0.0
 41
1.0
 10
944.01154188488727
 20
-1347.7018594314159
 30
0.0
 41
0.9998335105964288
 10
944.00212968935375
 20
-1347.6217798148364
 30
0.0
 41
1.0
 10
944.00053476469475
 20
-1347.6082100844769
 30
0.0
 41
1.0
 10
943.99893984002847
 20
-1347.5946403541175
 30
0.0
 41
1.0
 10
943.9863377951624
 20
-1347.4874212767045
 30
0.0
 41
0.9996876457876186
 10
943.96839388235821
 20
-1347.3809658489804
 30
0.0
 41
1.0
 10
943.96616221922159
 20
-1347.3677261137968
 30
0.0
 41
1.0
 10
943.96393055609224
 20
-1347.3544863786128
 30
0.0
 41
1.0
 10
943.95013473465951
 20
-1347.2726402345997
 30
0.0
 41
0.9995547496495695
 10
943.93148141275742
 20
-1347.1917627373523
 30
0.0
 41
1.0
 10
943.93110745589365
 20
-1347.1901413266642
 30
0.0
 41
1.0
 10
943.93073349902261
 20
-1347.188519915976
 30
0.0
 41
1.0
 10
943.91282809087716
 20
-1347.110885240179
 30
0.0
 41
0.9994899427167866
 10
943.89000318219041
 20
-1347.0345519573266
 30
0.0
 41
1.0
 10
943.88954465543793
 20
-1347.033018507509
 30
0.0
 41
1.0
 10
943.88908612869272
 20
-1347.0314850576915
 30
0.0
 41
1.0
 10
943.86717827349639
 20
-1346.9582186744519
 30
0.0
 41
0.9993784877574531
 10
943.84016263840022
 20
-1346.886677969333
 30
0.0
 41
1.0
 10
943.83963094743376
 20
-1346.8852699866379
 30
0.0
 41
1.0
 10
943.83909925646731
 20
-1346.8838620039428
 30
0.0
 41
1.0
 10
943.81314700329676
 20
-1346.815137264181
 30
0.0
 41
0.9992430832246106
 10
943.78193046813249
 20
-1346.7486381121057
 30
0.0
 41
1.0
 10
943.78134835205856
 20
-1346.7473980569407
 30
0.0
 41
1.0
 10
943.78076623597735
 20
-1346.7461580017762
 30
0.0
 41
1.0
 10
943.75071393294638
 20
-1346.6821389599781
 30
0.0
 41
0.9990789632780381
 10
943.71528330619913
 20
-1346.6209323482881
 30
0.0
 41
1.0
 10
943.71468760002608
 20
-1346.619903262444
 30
0.0
 41
1.0
 10
943.71409189385304
 20
-1346.6188741766
 30
0.0
 41
1.0
 10
943.67985267943732
 20
-1346.5597257365584
 30
0.0
 41
0.9988874801124175
 10
943.64019340339291
 20
-1346.5040660241207
 30
0.0
 41
1.0
 10
943.63963787729881
 20
-1346.5032863724059
 30
0.0
 41
1.0
 10
943.63908235120471
 20
-1346.5025067206911
 30
0.0
 41
1.0
 10
943.60053412733396
 20
-1346.4484063116706
 30
0.0
 41
0.998676206067865
 10
943.55663165607984
 20
-1346.3985525972635
 30
0.0
 41
1.0
 10
943.5561876957654
 20
-1346.39804845547
 30
0.0
 41
1.0
 10
943.55574373545824
 20
-1346.3975443136769
 30
0.0
 41
1.0
 10
943.51272918484028
 20
-1346.348698882864
 30
0.0
 41
0.9984621642534403
 10
943.46457162802835
 20
-1346.3049155823533
 30
0.0
 41
1.0
 10
943.4643249935325
 20
-1346.304691350208
 30
0.0
 41
1.0
 10
943.46407835903665
 20
-1346.3044671180623
 30
0.0
 41
1.0
 10
943.41641407126735
 20
-1346.2611322818984
 30
0.0
 41
0.9982724693878595
 10
943.36399543940934
 20
-1346.2236879313646
 30
0.0
 41
1.0
 10
943.31157680754404
 20
-1346.1862435808266
 30
0.0
 41
0.9981399180131259
 10
943.25499074415711
 20
-1346.1554570613935
 30
0.0
 41
1.0
 10
943.25494508208794
 20
-1346.1554322182415
 30
0.0
 41
1.0
 10
943.25489942001877
 20
-1346.155407375089
 30
0.0
 41
1.0
 10
943.19822203247895
 20
-1346.1245711693405
 30
0.0
 41
0.9980927086876974
 10
943.13817668140837
 20
-1346.1009543604832
 30
0.0
 41
1.0
 10
943.13773651169322
 20
-1346.1007812346061
 30
0.0
 41
1.0
 10
943.13729634197807
 20
-1346.1006081087289
 30
0.0
 41
1.0
 10
943.07637065146264
 20
-1346.0766450481169
 30
0.0
 41
0.9981411356554555
 10
943.01298213006521
 20
-1346.0602724066139
 30
0.0
 41
1.0
 10
943.0121000133804
 20
-1346.0600445644118
 30
0.0
 41
1.0
 10
943.01121789668832
 20
-1346.0598167222097
 30
0.0
 41
1.0
 10
942.94606514187035
 20
-1346.0429883962875
 30
0.0
 41
0.9983031812910806
 10
942.87939771288802
 20
-1346.0338490351164
 30
0.0
 41
1.0
 10
942.87052668747492
 20
-1346.0326329164441
 30
0.0
 41
1.0
 10
942.86165566206182
 20
-1346.0314167977713
 30
0.0
 41
1.0
 10
942.80730601958203
 20
-1346.0239660677853
 30
0.0
 41
0.9983887708284963
 10
942.75246217028325
 20
-1346.0227213941498
 30
0.0
 41
1.0
 10
942.74439876507677
 20
-1346.0225383962752
 30
0.0
 41
1.0
 10
942.73633535986301
 20
-1346.0223553984006
 30
0.0
 41
1.0
 10
942.69761832095537
 20
-1346.0214767205143
 30
0.0
 41
0.9998869563072367
 10
942.65889236779185
 20
-1346.0217625898763
 30
0.0
 41
1.0
 10
942.62016641451919
 20
-1346.0220484592392
 30
0.0
 41
0.9999972320112568
 10
942.58144223543059
 20
-1346.0225165587644
 30
0.0
 41
1.0
 10
942.56208921882353
 20
-1346.0227504988538
 30
0.0
 41
1.0
 10
942.54273620221647
 20
-1346.0229844389437
 30
0.0
 41
1.0
 10
942.46530598979734
 20
-1346.0239204186555
 30
0.0
 41
0.9997304945095265
 10
942.38800268359773
 20
-1346.0284495124379
 30
0.0
 41
1.0
 10
942.3789530419017
 20
-1346.0289797184273
 30
0.0
 41
1.0
 10
942.36990340019838
 20
-1346.0295099244172
 30
0.0
 41
1.0
 10
942.27450081056304
 20
-1346.0350994301834
 30
0.0
 41
0.9997888306417251
 10
942.17940847471618
 20
-1346.0446043946722
 30
0.0
 41
1.0
 10
942.17068741314142
 20
-1346.0454761093047
 30
0.0
 41
1.0
 10
942.16196635156666
 20
-1346.0463478239367
 30
0.0
 41
1.0
 10
942.04943189257756
 20
-1346.0575962176918
 30
0.0
 41
0.9984170238203201
 10
941.93887274520966
 20
-1346.0814122996289
 30
0.0
 41
1.0
 10
941.90249161422253
 20
-1346.0892493354354
 30
0.0
 41
1.0
 10
941.86611048323539
 20
-1346.0970863712423
 30
0.0
 41
1.0
 10
941.75091941480059
 20
-1346.1219002377529
 30
0.0
 41
0.9976592854176893
 10
941.64019124842889
 20
-1346.1621989148948
 30
0.0
 41
1.0
 10
941.52946308200626
 20
-1346.202497592044
 30
0.0
 41
0.9993255074339384
 10
941.42199128325592
 20
-1346.2508144905232
 30
0.0
 41
1.0
 10
941.4173661043169
 20
-1346.2528938667288
 30
0.0
 41
1.0
 10
941.41274092538515
 20
-1346.2549732429338
 30
0.0
 41
1.0
 10
941.29601876876404
 20
-1346.3074488938164
 30
0.0
 41
0.9976475078274074
 10
941.18757142445247
 20
-1346.3753968834744
 30
0.0
 41
1.0
 10
941.16922903032537
 20
-1346.3868893622862
 30
0.0
 41
1.0
 10
941.15088663619827
 20
-1346.3983818410975
 30
0.0
 41
1.0
 10
941.06668444464594
 20
-1346.4511389618656
 30
0.0
 41
0.9995131336410454
 10
940.98593672965944
 20
-1346.5090451738347
 30
0.0
 41
1.0
 10
940.90518901469477
 20
-1346.5669513857843
 30
0.0
 41
0.9995810107591359
 10
940.82792736691772
 20
-1346.6294330682949
 30
0.0
 41
1.0
 10
940.8249573357316
 20
-1346.6318349397393
 30
0.0
 41
1.0
 10
940.82198730454547
 20
-1346.6342368111832
 30
0.0
 41
1.0
 10
940.738785594418
 20
-1346.7015222365662
 30
0.0
 41
0.999661783796116
 10
940.659194907239
 20
-1346.7730426921607
 30
0.0
 41
1.0
 10
940.64706415630644
 20
-1346.7839434252014
 30
0.0
 41
1.0
 10
940.63493340538116
 20
-1346.7948441582421
 30
0.0
 41
1.0
 10
940.56665787805832
 20
-1346.8561967736496
 30
0.0
 41
0.9997267750049589
 10
940.50132436983404
 20
-1346.9206733101178
 30
0.0
 41
1.0
 10
940.43599086128233
 20
-1346.9851498469066
 30
0.0
 41
0.9999667288969723
 10
940.37171791803121
 20
-1347.0506836539048
 30
0.0
 41
1.0
 10
940.30289047044062
 20
-1347.1208613124795
 30
0.0
 41
1.0
 10
940.23406302285002
 20
-1347.1910389710542
 30
0.0
 41
1.0
 10
940.03213518413395
 20
-1347.3969280954857
 30
0.0
 41
0.9988205335174423
 10
939.85112956713419
 20
-1347.6214323275726
 30
0.0
 41
1.0
 10
939.82048960225075
 20
-1347.6594355779789
 30
0.0
 41
1.0
 10
939.7898496373673
 20
-1347.6974388283852
 30
0.0
 41
1.0
 10
939.54756409052789
 20
-1347.9979495613716
 30
0.0
 41
0.9997077826756524
 10
939.32008613938524
 20
-1348.3098193556357
 30
0.0
 41
1.0
 10
939.31836272429791
 20
-1348.3121821389582
 30
0.0
 41
1.0
 10
939.31663930921059
 20
-1348.3145449222811
 30
0.0
 41
1.0
 10
939.08571452784236
 20
-1348.6311402832566
 30
0.0
 41
0.9989147567082189
 10
938.88525102497806
 20
-1348.9678497444024
 30
0.0
 41
1.0
 10
938.86050987958151
 20
-1349.0094063251122
 30
0.0
 41
1.0
 10
938.83576873417769
 20
-1349.0509629058224
 30
0.0
 41
1.0
 10
938.68055743564037
 20
-1349.3116642901109
 30
0.0
 41
0.9997476598180283
 10
938.53721244819462
 20
-1349.5790740385819
 30
0.0
 41
1.0
 10
938.3938674607125
 20
-1349.8464837871215
 30
0.0
 41
0.9996258967113801
 10
938.26535920878086
 20
-1350.121331723733
 30
0.0
 41
1.0
 10
938.25215929935075
 20
-1350.149563123789
 30
0.0
 41
1.0
 10
938.23895938992064
 20
-1350.1777945238455
 30
0.0
 41
1.0
 10
938.09875066886889
 20
-1350.4776669218923
 30
0.0
 41
0.9998735413943174
 10
937.96814932213601
 20
-1350.7818465214004
 30
0.0
 41
1.0
 10
937.96470649409457
 20
-1350.7898651068244
 30
0.0
 41
1.0
 10
937.96126366605313
 20
-1350.7978836922484
 30
0.0
 41
1.0
 10
937.83754797545407
 20
-1351.0860261207768
 30
0.0
 41
0.9999377418858163
 10
937.72029317324632
 20
-1351.3768575885433
 30
0.0
 41
1.0
 10
937.60303837105312
 20
-1351.6676890562608
 30
0.0
 41
0.999950829950263
 10
937.49157442765136
 20
-1351.9607887331549
 30
0.0
 41
1.0
 10
937.48849365900969
 20
-1351.9688897590618
 30
0.0
 41
1.0
 10
937.48541289036802
 20
-1351.9769907849682
 30
0.0
 41
1.0
 10
937.36778740965383
 20
-1352.2862925137374
 30
0.0
 41
0.999960922842399
 10
937.25564880677121
 20
-1352.5976255297851
 30
0.0
 41
1.0
 10
937.25269279643544
 20
-1352.6058323701686
 30
0.0
 41
1.0
 10
937.2497367860924
 20
-1352.6140392105522
 30
0.0
 41
1.0
 10
937.13168616245093
 20
-1352.9417859075725
 30
0.0
 41
0.9999674607395377
 10
937.01893863632722
 20
-1353.2713945277278
 30
0.0
 41
1.0
 10
936.96754024588881
 20
-1353.4216537230559
 30
0.0
 41
1.0
 10
936.91614185545041
 20
-1353.571912918384
 30
0.0
 41
1.0
 10
936.8001312486158
 20
-1353.9110609011154
 30
0.0
 41
0.9999287532310052
 10
936.69224984459288
 20
-1354.2528816402441
 30
0.0
 41
1.0
 10
936.6457725864675
 20
-1354.4001441909045
 30
0.0
 41
1.0
 10
936.59929532834212
 20
-1354.5474067415653
 30
0.0
 41
1.0
 10
936.58436843853269
 20
-1354.5947023858475
 30
0.0
 41
0.9999998223628182
 10
936.56949793189415
 20
-1354.6420157874604
 30
0.0
 41
1.0
 10
934.94884179509972
 20
-1359.7900442892501
 30
0.0
 41
1.0
 10
933.3281856583053
 20
-1364.9380727910398
 30
0.0
 41
1.0
 10
932.42287721441244
 20
-1364.9380727910398
 30
0.0
 41
1.0
 10
931.51756877051957
 20
-1364.9380727910398
 30
0.0
 41
1.0
 10
933.36965318190778
 20
-1359.0510008685719
 30
0.0
 41
1.0
 10
935.22173759329598
 20
-1353.1639289461045
 30
0.0
 41
1.0
 10
935.23185935159563
 20
-1353.1318857326546
 30
0.0
 41
1.0
 10
935.30446702043992
 20
-1352.9015861908288
 30
0.0
 41
1.0
 10
935.37707468933513
 20
-1352.6712866488506
 30
0.0
 41
0.9999825681974074
 10
935.44695772854902
 20
-1352.4401457538029
 30
0.0
 41
1.0
 10
935.49524879081582
 20
-1352.2804211699513
 30
0.0
 41
1.0
 10
935.54353985308262
 20
-1352.1206965860997
 30
0.0
 41
1.0
 10
935.6406922062597
 20
-1351.7993613647805
 30
0.0
 41
0.9999672528963464
 10
935.73263101176417
 20
-1351.4764958195879
 30
0.0
 41
1.0
 10
935.73541989555815
 20
-1351.4667019737703
 30
0.0
 41
1.0
 10
935.73820877934486
 20
-1351.4569081279524
 30
0.0
 41
1.0
 10
935.82456981753785
 20
-1351.1536302735044
 30
0.0
 41
0.999989974912543
 10
935.90821142692585
 20
-1350.8495911855493
 30
0.0
 41
1.0
 10
935.91831734591688
 20
-1350.8128559479551
 30
0.0
 41
1.0
 10
935.92842326491518
 20
-1350.7761207103613
 30
0.0
 41
1.0
 10
935.99185303643753
 20
-1350.5455520971805
 30
0.0
 41
0.9999214200502826
 10
936.049482464834
 20
-1350.3134657548876
 30
0.0
 41
1.0
 10
936.06224831708823
 20
-1350.2620548692034
 30
0.0
 41
1.0
 10
936.07501416934247
 20
-1350.2106439835197
 30
0.0
 41
1.0
 10
936.10711189327412
 20
-1350.0813794124374
 30
0.0
 41
0.9999828681665268
 10
936.13769414521084
 20
-1349.9517479382107
 30
0.0
 41
1.0
 10
936.16827639717667
 20
-1349.822116463873
 30
0.0
 41
0.9999389844479643
 10
936.19598738594505
 20
-1349.6918410080812
 30
0.0
 41
1.0
 10
936.20312512968667
 20
-1349.6582849041247
 30
0.0
 41
1.0
 10
936.21026287343557
 20
-1349.6247288001682
 30
0.0
 41
1.0
 10
936.25224934967991
 20
-1349.4273411365316
 30
0.0
 41
0.9998933699439094
 10
936.28845361408457
 20
-1349.2288115287233
 30
0.0
 41
1.0
 10
936.28982643928612
 20
-1349.2212835080827
 30
0.0
 41
1.0
 10
936.29119926449494
 20
-1349.2137554874421
 30
0.0
 41
1.0
 10
936.33014917930268
 20
-1349.0001698384635
 30
0.0
 41
0.9996850305199604
 10
936.35833285554691
 20
-1348.784898833213
 30
0.0
 41
1.0
 10
936.36032788894954
 20
-1348.7696604788357
 30
0.0
 41
1.0
 10
936.36232292235218
 20
-1348.7544221244589
 30
0.0
 41
1.0
 10
936.38973078480194
 20
-1348.5450768973797
 30
0.0
 41
0.9994697936700947
 10
936.40345534401422
 20
-1348.3343917021243
 30
0.0
 41
1.0
 10
936.40393241326819
 20
-1348.3270682298703
 30
0.0
 41
1.0
 10
936.40440948252217
 20
-1348.3197447576158
 30
0.0
 41
1.0
 10
936.41717990323377
 20
-1348.1237065067494
 30
0.0
 41
0.9991804893134323
 10
936.41405158695852
 20
-1347.92727765682
 30
0.0
 41
1.0
 10
936.41396770814026
 20
-1347.9220108554814
 30
0.0
 41
1.0
 10
936.41388382931473
 20
-1347.9167440541432
 30
0.0
 41
1.0
 10
936.41092327068327
 20
-1347.730848806922
 30
0.0
 41
0.9988448329327939
 10
936.39013172505656
 20
-1347.5460962170132
 30
0.0
 41
1.0
 10
936.38853765135718
 20
-1347.5319313612576
 30
0.0
 41
1.0
 10
936.3869435776578
 20
-1347.5177665055025
 30
0.0
 41
1.0
 10
936.36934017943713
 20
-1347.3613436271953
 30
0.0
 41
0.9985503209458447
 10
936.33502390713693
 20
-1347.2077194430908
 30
0.0
 41
1.0
 10
936.327437915068
 20
-1347.1737591157225
 30
0.0
 41
1.0
 10
936.31985192300635
 20
-1347.1397987883543
 30
0.0
 41
1.0
 10
936.300707634844
 20
-1347.054095259035
 30
0.0
 41
0.9991036781384733
 10
936.27438277319015
 20
-1346.9703181716764
 30
0.0
 41
1.0
 10
936.27040054766985
 20
-1346.9576450089776
 30
0.0
 41
1.0
 10
936.26641832215682
 20
-1346.9449718462793
 30
0.0
 41
1.0
 10
936.2480579114781
 20
-1346.8865410841595
 30
0.0
 41
0.9998874504365961
 10
936.22795270386268
 20
-1346.8286874821283
 30
0.0
 41
1.0
 10
936.20784749624727
 20
-1346.7708338800876
 30
0.0
 41
0.9994041637591711
 10
936.18379888338677
 20
-1346.7145051763396
 30
0.0
 41
1.0
 10
936.17960209908779
 20
-1346.7046751116773
 30
0.0
 41
1.0
 10
936.17540531478153
 20
-1346.6948450470145
 30
0.0
 41
1.0
 10
936.14752648378635
 20
-1346.6295448810497
 30
0.0
 41
0.9991846840707986
 10
936.11447012711142
 20
-1346.5667068498037
 30
0.0
 41
1.0
 10
936.11333352071233
 20
-1346.5645462333355
 30
0.0
 41
1.0
 10
936.11219691430597
 20
-1346.5623856168672
 30
0.0
 41
1.0
 10
936.08141377041466
 20
-1346.5038688185255
 30
0.0
 41
0.9989253167938835
 10
936.04534434636298
 20
-1346.4484538901334
 30
0.0
 41
1.0
 10
936.0442902217037
 20
-1346.4468343953981
 30
0.0
 41
1.0
 10
936.0432360970517
 20
-1346.4452149006629
 30
0.0
 41
1.0
 10
936.00927492232586
 20
-1346.3930389617703
 30
0.0
 41
0.9986467172870447
 10
935.97007776967075
 20
-1346.3446729281136
 30
0.0
 41
1.0
 10
935.96920364093967
 20
-1346.3435943258041
 30
0.0
 41
1.0
 10
935.96832951221586
 20
-1346.3425157234942
 30
0.0
 41
1.0
 10
935.93088061699382
 20
-1346.29630689444
 30
0.0
 41
0.998400110423866
 10
935.88845388650952
 20
-1346.2546217871154
 30
0.0
 41
1.0
 10
935.8878667484023
 20
-1346.2540449122371
 30
0.0
 41
1.0
 10
935.88727961029508
 20
-1346.2534680373587
 30
0.0
 41
1.0
 10
935.84602715601068
 20
-1346.2129366797635
 30
0.0
 41
0.9982442159070473
 10
935.80027105465706
 20
-1346.1775681184859
 30
0.0
 41
1.0
 10
935.80005625923513
 20
-1346.1774020858702
 30
0.0
 41
1.0
 10
935.79984146380593
 20
-1346.1772360532545
 30
0.0
 41
1.0
 10
935.75451495333982
 20
-1346.14219955724
 30
0.0
 41
0.9982450060863324
 10
935.70536397425167
 20
-1346.1127677741924
 30
0.0
 41
1.0
 10
935.65621299517079
 20
-1346.0833359911521
 30
0.0
 41
0.998392263961417
 10
935.60404668899719
 20
-1346.0596563564936
 30
0.0
 41
1.0
 10
935.60381981168757
 20
-1346.059553371018
 30
0.0
 41
1.0
 10
935.60359293437068
 20
-1346.0594503855418
 30
0.0
 41
1.0
 10
935.5509728735633
 20
-1346.0355647799274
 30
0.0
 41
0.9986517147150772
 10
935.4961599007147
 20
-1346.0172636608131
 30
0.0
 41
1.0
 10
935.49548197927652
 20
-1346.0170373143769
 30
0.0
 41
1.0
 10
935.49480405783106
 20
-1346.0168109679403
 30
0.0
 41
1.0
 10
935.43863524209155
 20
-1345.9980571559481
 30
0.0
 41
0.9989435598940345
 10
935.38098185495619
 20
-1345.984539453721
 30
0.0
 41
1.0
 10
935.37990173537401
 20
-1345.9842862034679
 30
0.0
 41
1.0
 10
935.37882161579182
 20
-1345.9840329532153
 30
0.0
 41
1.0
 10
935.31900798941933
 20
-1345.9700087504611
 30
0.0
 41
0.9992249241221343
 10
935.25827648054837
 20
-1345.960733407755
 30
0.0
 41
1.0
 10
935.25686279227375
 20
-1345.9605174993494
 30
0.0
 41
1.0
 10
935.25544910399913
 20
-1345.9603015909438
 30
0.0
 41
1.0
 10
935.19189021855709
 20
-1345.9505944314192
 30
0.0
 41
0.9994396597842205
 10
935.12782428198261
 20
-1345.945161509067
 30
0.0
 41
1.0
 10
935.10868361450412
 20
-1345.9435383413484
 30
0.0
 41
1.0
 10
935.08954294702562
 20
-1345.9419151736297
 30
0.0
 41
1.0
 10
934.98719567554508
 20
-1345.9332359158452
 30
0.0
 41
0.9987693403112085
 10
934.88449205194047
 20
-1345.9347389792993
 30
0.0
 41
1.0
 10
934.87423771771137
 20
-1345.9348890510732
 30
0.0
 41
1.0
 10
934.86398338348954
 20
-1345.9350391228477
 30
0.0
 41
1.0
 10
934.7544276173503
 20
-1345.9366424671352
 30
0.0
 41
0.9989753644974817
 10
934.64546561730094
 20
-1345.9481454740603
 30
0.0
 41
1.0
 10
934.53650361725886
 20
-1345.9596484809908
 30
0.0
 41
0.9983190067312788
 10
934.42960480631154
 20
-1345.983683472773
 30
0.0
 41
1.0
 10
934.42070385470288
 20
-1345.9856847513352
 30
0.0
 41
1.0
 10
934.41180290310149
 20
-1345.9876860298978
 30
0.0
 41
1.0
 10
934.28710218895139
 20
-1346.0157235788006
 30
0.0
 41
0.9985539388298389
 10
934.16613243524625
 20
-1346.0569872548544
 30
0.0
 41
1.0
 10
934.16378700428322
 20
-1346.057787298671
 30
0.0
 41
1.0
 10
934.16144157332019
 20
-1346.058587342487
 30
0.0
 41
1.0
 10
934.03578095773992
 20
-1346.1014511061626
 30
0.0
 41
0.9988468746502466
 10
933.91481061540253
 20
-1346.1561691912393
 30
0.0
 41
1.0
 10
933.91162779342267
 20
-1346.157608865793
 30
0.0
 41
1.0
 10
933.90844497145008
 20
-1346.1590485403467
 30
0.0
 41
1.0
 10
933.78110898521845
 20
-1346.2166459745099
 30
0.0
 41
0.9991322885932622
 10
933.65900840119139
 20
-1346.2846413066695
 30
0.0
 41
1.0
 10
933.64140639014659
 20
-1346.2944435086588
 30
0.0
 41
1.0
 10
933.62380437910178
 20
-1346.3042457106476
 30
0.0
 41
1.0
 10
933.52162769799179
 20
-1346.3611458264568
 30
0.0
 41
0.9993860037850453
 10
933.42368669389543
 20
-1346.4250618420597
 30
0.0
 41
1.0
 10
933.41806838105549
 20
-1346.4287283367444
 30
0.0
 41
1.0
 10
933.41245006822282
 20
-1346.4323948314286
 30
0.0
 41
1.0
 10
933.32574568985729
 20
-1346.4889778576271
 30
0.0
 41
0.9998821494954544
 10
933.24081931400724
 20
-1346.548196087725
 30
0.0
 41
1.0
 10
933.15589293812081
 20
-1346.6074143178521
 30
0.0
 41
0.9997976482738158
 10
933.07341730776534
 20
-1346.6700007258614
 30
0.0
 41
1.0
 10
933.05878104297153
 20
-1346.6811074156326
 30
0.0
 41
1.0
 10
933.04414477817772
 20
-1346.6922141054033
 30
0.0
 41
1.0
 10
932.93239661819098
 20
-1346.7770138929905
 30
0.0
 41
0.9998091630807453
 10
932.82404634014529
 20
-1346.8661142437004
 30
0.0
 41
1.0
 10
932.81104058766505
 20
-1346.876809344149
 30
0.0
 41
1.0
 10
932.79803483518481
 20
-1346.8875044445981
 30
0.0
 41
1.0
 10
932.66367305217864
 20
-1346.9979949962199
 30
0.0
 41
0.999503511232413
 10
932.536537174361
 20
-1347.116728813282
 30
0.0
 41
1.0
 10
932.52688986399153
 20
-1347.1257385594213
 30
0.0
 41
1.0
 10
932.51724255362205
 20
-1347.1347483055606
 30
0.0
 41
1.0
 10
932.3938194908842
 20
-1347.25001467729
 30
0.0
 41
0.9994630424297279
 10
932.27821108511125
 20
-1347.3731174205132
 30
0.0
 41
1.0
 10
932.27452824637294
 20
-1347.3770389999936
 30
0.0
 41
1.0
 10
932.27084540762735
 20
-1347.380960579474
 30
0.0
 41
1.0
 10
932.16260267934558
 20
-1347.496220163729
 30
0.0
 41
0.9995160693749176
 10
932.06173664980452
 20
-1347.617987581621
 30
0.0
 41
1.0
 10
932.05980292973254
 20
-1347.6203220058183
 30
0.0
 41
1.0
 10
932.05786920966057
 20
-1347.622656430015
 30
0.0
 41
1.0
 10
931.96087062027073
 20
-1347.7397549994889
 30
0.0
 41
0.9996561470513142
 10
931.87014440160419
 20
-1347.8617777619424
 30
0.0
 41
1.0
 10
931.86398673569784
 20
-1347.8700595509913
 30
0.0
 41
1.0
 10
931.85782906979148
 20
-1347.8783413400406
 30
0.0
 41
1.0
 10
931.77941818294494
 20
-1347.9838005243769
 30
0.0
 41
0.9998349055171778
 10
931.70489090100455
 20
-1348.0920391080549
 30
0.0
 41
1.0
 10
931.6303636190205
 20
-1348.2002776917884
 30
0.0
 41
0.9999728109570669
 10
931.55744072314701
 20
-1348.309603617296
 30
0.0
 41
1.0
 10
931.55612550774094
 20
-1348.3115753867874
 30
0.0
 41
1.0
 10
931.55481029233488
 20
-1348.3135471562787
 30
0.0
 41
1.0
 10
931.4792569663623
 20
-1348.4268166197126
 30
0.0
 41
0.9999972147326823
 10
931.40423915678548
 20
-1348.5404414613222
 30
0.0
 41
1.0
 10
931.39926761338575
 20
-1348.5479715509709
 30
0.0
 41
1.0
 10
931.39429606998601
 20
-1348.5555016406197
 30
0.0
 41
1.0
 10
931.3093351743446
 20
-1348.6841866604304
 30
0.0
 41
0.9999371979001758
 10
931.2272798248523
 20
-1348.8147435743531
 30
0.0
 41
1.0
 10
931.22377094054536
 20
-1348.8203265023308
 30
0.0
 41
1.0
 10
931.22026205623843
 20
-1348.8259094303085
 30
0.0
 41
1.0
 10
931.1311889381177
 20
-1348.9676322001997
 30
0.0
 41
0.9998272025610303
 10
931.04744554729405
 20
-1349.1125680768441
 30
0.0
 41
1.0
 10
931.03223037523276
 20
-1349.1389011913584
 30
0.0
 41
1.0
 10
931.01701520317874
 20
-1349.1652343058727
 30
0.0
 41
1.0
 10
930.90284146824706
 20
-1349.3628364115357
 30
0.0
 41
0.9995217214843256
 10
930.80110177869938
 20
-1349.5671187393791
 30
0.0
 41
1.0
 10
930.79345821605239
 20
-1349.582466189107
 30
0.0
 41
1.0
 10
930.7858146534054
 20
-1349.5978136388349
 30
0.0
 41
1.0
 10
930.69890936083539
 20
-1349.7723100968819
 30
0.0
 41
0.9998269762606867
 10
930.61855489456502
 20
-1349.949918383601
 30
0.0
 41
1.0
 10
930.53820042828011
 20
-1350.1275266703628
 30
0.0
 41
0.9998944747388932
 10
930.46303963371611
 20
-1350.3073943959876
 30
0.0
 41
1.0
 10
930.45808596417191
 20
-1350.3192490507995
 30
0.0
 41
1.0
 10
930.45313229462772
 20
-1350.331103705611
 30
0.0
 41
1.0
 10
930.37248523403832
 20
-1350.5241006457109
 30
0.0
 41
0.999950673440722
 10
930.29568770508922
 20
-1350.7186614506641
 30
0.0
 41
1.0
 10
930.28108773972781
 20
-1350.755649372707
 30
0.0
 41
1.0
 10
930.26648777435912
 20
-1350.79263729475
 30
0.0
 41
1.0
 10
930.21889017610374
 20
-1350.913222255725
 30
0.0
 41
0.9999912393953044
 10
930.17230373216444
 20
-1351.0342014582161
 30
0.0
 41
1.0
 10
930.12571728807234
 20
-1351.1551806610814
 30
0.0
 41
0.9999927113991933
 10
930.080055993727
 20
-1351.276512068478
 30
0.0
 41
1.0
 10
930.06608756234345
 20
-1351.3136290504449
 30
0.0
 41
1.0
 10
930.05211913095263
 20
-1351.3507460324117
 30
0.0
 41
1.0
 10
929.97852097390569
 20
-1351.5463114035233
 30
0.0
 41
0.9999487550947497
 10
929.90889734905068
 20
-1351.7433267683614
 30
0.0
 41
1.0
 10
929.8853037392546
 20
-1351.8100900782488
 30
0.0
 41
1.0
 10
929.86171012945852
 20
-1351.8768533881357
 30
0.0
 41
1.0
 10
929.76702449480945
 20
-1352.1447872237636
 30
0.0
 41
0.9999808436928375
 10
929.67566290590912
 20
-1352.413872655769
 30
0.0
 41
1.0
 10
929.58430131693603
 20
-1352.6829580880071
 30
0.0
 41
0.9999873932931446
 10
929.49564660791657
 20
-1352.9529474439437
 30
0.0
 41
1.0
 10
929.47555425135943
 20
-1353.0141367757483
 30
0.0
 41
1.0
 10
929.45546189480228
 20
-1353.0753261075524
 30
0.0
 41
1.0
 10
929.32662247226835
 20
-1353.4676941283242
 30
0.0
 41
0.9999794883033983
 10
929.20281968722702
 20
-1353.8616803348568
 30
0.0
 41
1.0
 10
929.19166742787638
 20
-1353.8971709448329
 30
0.0
 41
1.0
 10
929.18051516851847
 20
-1353.9326615548093
 30
0.0
 41
1.0
 10
929.03795700463525
 20
-1354.3863343068597
 30
0.0
 41
0.9999982761718357
 10
928.89708456460357
 20
-1354.840533329033
 30
0.0
 41
1.0
 10
927.30894423203426
 20
-1359.8893030600361
 30
0.0
 41
1.0
 10
925.72080389945768
 20
-1364.9380727910398
 30
0.0
 41
1.0
 10
924.772053287983
 20
-1364.9380727910398
 30
0.0
 41
1.0
 10
923.82330267650832
 20
-1364.9380727910398
 30
0.0
 41
1.0
 10
927.06158716266509
 20
-1354.6107505910936
 30
0.0
 41
1.0
 10
930.29987164881459
 20
-1344.2834283911475
 30
0.0
 41
1.0
  0
LWPOLYLINE
  5
166
100
AcDbEntity
  8
template
370
              15
390
0
  6
Continuous
 62
               7
100
AcDbPolyline
 90
      232
 70
             128
 10
904.59632587498345
 20
-1345.3677712226622
 42
0.0004370800201879
 10
904.54344870011846
 20
-1345.436437862948
 10
904.50416446978488
 20
-1345.4875449748156
 42
0.0030481992353213
 10
904.37382575230731
 20
-1345.6592666676343
 10
904.33531408091221
 20
-1345.7106534509476
 42
0.0042058245740059
 10
904.13132903047517
 20
-1345.9876591957036
 10
904.07892390774214
 20
-1346.0600920428019
 42
0.0120948898770563
 10
903.78287999097665
 20
-1346.4908416473568
 10
903.68668749184144
 20
-1346.6383223826087
 42
0.0141601264002014
 10
903.38304344493372
 20
-1347.1339917193113
 10
903.34350617770542
 20
-1347.202835686403
 42
0.0071131081261326
 10
903.13823385427531
 20
-1347.5723384855814
 42
0.0068458790948886
 10
902.94335432736989
 20
-1347.947430049177
 10
902.93654246497317
 20
-1347.9609917627808
 42
0.0064120880228028
 10
902.73840021515207
 20
-1348.3684162372397
 10
902.73086552941822
 20
-1348.3844280944213
 42
0.0058857236453589
 10
902.52811013752216
 20
-1348.8288042054992
 10
902.51993521124677
 20
-1348.84729435909
 42
0.0053189741894696
 10
902.31123089858011
 20
-1349.333257833001
 10
902.30248309289891
 20
-1349.3542397112037
 42
0.0047503650421911
 10
902.08650936673075
 20
-1349.8864391444654
 10
902.07724111840071
 20
-1349.9099155205217
 42
0.0042071762163423
 10
901.85269373487245
 20
-1350.4930091140554
 10
901.84294433232571
 20
-1350.5189752894607
 42
0.0036680086474988
 10
901.60848968894425
 20
-1351.1576106741604
 10
901.59828190915869
 20
-1351.1860592083372
 42
0.0032573142606738
 10
901.35264962328074
 20
-1351.8849118678618
 10
901.2839991023211
 20
-1352.0843749522619
 42
0.0026133366675399
 10
900.93555390360416
 20
-1353.1142382358153
 10
900.87229711613327
 20
-1353.3044690711113
 42
0.0020592950738284
 10
900.65843404713087
 20
-1353.956572723821
 10
900.65538225620548
 20
-1353.9660092114977
 42
0.0025609928496861
 10
900.45356175447523
 20
-1354.601154434597
 10
900.45097038732638
 20
-1354.6094567756181
 42
0.0031362356227618
 10
900.26147960167145
 20
-1355.2302196317169
 10
900.25934855850937
 20
-1355.2373609387141
 42
0.0037229918031688
 10
900.08254817182024
 20
-1355.8463462399022
 10
900.08086958256899
 20
-1355.8522931302232
 42
0.0043077623620648
 10
899.91712878055114
 20
-1356.4521118618454
 42
0.0047654161867799
 10
899.76430005805014
 20
-1357.0547979506814
 10
899.72983544919407
 20
-1357.1963597278977
 42
0.0112969368448121
 10
899.53397109104117
 20
-1358.088051888561
 10
899.5059647019516
 20
-1358.2308799346197
 42
0.0130056762565167
 10
899.3051274583122
 20
-1359.4178210062646
 10
899.28458770815632
 20
-1359.5618991197866
 42
0.0138721532163457
 10
899.18088470362272
 20
-1360.4687286055673
 10
899.16158921569877
 20
-1360.6922263277379
 42
0.0071254697110358
 10
899.12824256979366
 20
-1361.1554133363397
 10
899.12328159569006
 20
-1361.2414173298221
 42
0.0028881799038307
 10
899.1081433023428
 20
-1361.5331590407422
 42
0.0060297297143387
 10
899.09821110258054
 20
-1361.82510797653
 10
899.09714882090339
 20
-1361.8735003487118
 42
0.0229523164195254
 10
899.10487984868814
 20
-1362.1962551950737
 10
899.10910562221397
 20
-1362.2566587291994
 42
0.0123673300803131
 10
899.128184268724
 20
-1362.4577794542647
 42
0.0128577674438795
 10
899.15737965912558
 20
-1362.6576773041506
 10
899.16450553252071
 20
-1362.6990061187885
 42
0.0285717853901268
 10
899.22899953422893
 20
-1362.9771222701606
 10
899.24266805784282
 20
-1363.023777039476
 42
0.0316283098910656
 10
899.35847863779054
 20
-1363.3427915414049
 10
899.36152732955816
 20
-1363.3497779137651
 42
0.0338984824190371
 10
899.51095904051908
 20
-1363.6373438779196
 10
899.51326776987844
 20
-1363.6411349071782
 42
0.0350228718471592
 10
899.6956280605591
 20
-1363.8981868918722
 10
899.69651331233763
 20
-1363.8992659696369
 42
0.0347476747635337
 10
899.91093799957889
 20
-1364.1264510168567
 42
0.0331337702054753
 10
900.15418132533523
 20
-1364.3225796789447
 10
900.15528142383846
 20
-1364.3233523821068
 42
0.0305233319088567
 10
900.42382611943322
 20
-1364.4884805522097
 10
900.42705616391322
 20
-1364.4902045640606
 42
0.0273744481139016
 10
900.71960987547936
 20
-1364.6263427079498
 10
900.72471441062225
 20
-1364.6283862924206
 42
0.0240964406207738
 10
901.0401914862523
 20
-1364.7373700186981
 10
901.04677481547697
 20
-1364.7392947583771
 42
0.0209636179734573
 10
901.38417496815964
 20
-1364.8227629063158
 10
901.3918074285757
 20
-1364.8243148193105
 42
0.0181388704614073
 10
901.75012982059707
 20
-1364.8837309125265
 10
901.75841066896101
 20
-1364.8847970963416
 42
0.015608654757845
 10
902.13659803313203
 20
-1364.9215332829167
 10
902.17979328546789
 20
-1364.9243717853969
 42
0.0137148329105171
 10
902.50746643076855
 20
-1364.9368920406482
 10
902.55340262070968
 20
-1364.9373864737636
 42
0.0051057823697714
 10
902.78954820729268
 20
-1364.9375167281728
 42
0.005225669331057
 10
903.02564549105591
 20
-1364.9327679037092
 10
903.09587227481825
 20
-1364.9306209376946
 42
0.0161507179053515
 10
903.47160935290594
 20
-1364.9069705673687
 10
903.49162231328955
 20
-1364.9050603720802
 42
0.0101216737913565
 10
903.90564953479043
 20
-1364.8570674417142
 10
903.93970282420923
 20
-1364.8524197449055
 42
0.0245291776380591
 10
904.41649247974419
 20
-1364.7633446668333
 10
904.50131579527078
 20
-1364.7431487464869
 42
0.0143509212568599
 10
904.85794689922477
 20
-1364.6473441127046
 42
0.0156557857013729
 10
905.20816296395788
 20
-1364.5303328968844
 10
905.21566417844588
 20
-1364.5275627351316
 42
0.0170137333709783
 10
905.57226017415087
 20
-1364.381905120249
 10
905.57936409653485
 20
-1364.3787172846969
 42
0.0183105364343441
 10
905.9387137646554
 20
-1364.2013822428939
 10
905.94566052933806
 20
-1364.1976318080001
 42
0.0194899958108798
 10
906.30414127032418
 20
-1363.985652826108
 10
906.31115514966223
 20
-1363.9811274838144
 42
0.0204869852879168
 10
906.66516945176409
 20
-1363.7316074687278
 10
906.6724350603472
 20
-1363.7260274033802
 42
0.0212516938553352
 10
907.01842499146733
 20
-1363.4361234064686
 10
907.06494168547943
 20
-1363.3936560964344
 42
0.0215248918153897
 10
907.3249678544089
 20
-1363.1348918173976
 10
907.36999758880847
 20
-1363.0860476960329
 42
0.0114578554930988
 10
907.5247897424706
 20
-1362.9102247625892
 10
907.53598427850375
 20
-1362.8969059989918
 42
0.0061531305112072
 10
907.66245892444567
 20
-1362.7426164657386
 42
0.0006325587225718
 10
907.78683740967972
 20
-1362.5866130887061
 10
907.80987754365196
 20
-1362.5576395694034
 42
0.0041897761527623
 10
907.97833294738666
 20
-1362.3421201936594
 10
908.03679506752087
 20
-1362.2660188463565
 42
0.0092993879900351
 10
908.3134069945736
 20
-1361.8917400827104
 10
908.39580148793175
 20
-1361.7758030789164
 42
0.0159321727077027
 10
908.74240797058155
 20
-1361.2536288581473
 10
908.78676410607295
 20
-1361.1819492937307
 42
0.008554731712023
 10
909.02127587130235
 20
-1360.7880743446726
 42
0.0084601156851302
 10
909.24225204870891
 20
-1360.3864474957118
 10
909.25036752257438
 20
-1360.3710878133675
 42
0.0081429654286399
 10
909.47361679292953
 20
-1359.9313663009925
 10
909.48247695719328
 20
-1359.9131874588074
 42
0.0076574581344729
 10
909.70888446789468
 20
-1359.430004583251
 10
909.71836410848482
 20
-1359.4089401052511
 42
0.0070682724187934
 10
909.94880901644501
 20
-1358.876902800097
 10
909.95879930027149
 20
-1358.8529136114589
 42
0.0064559514399191
 10
910.19413250841171
 20
-1358.2666013450612
 10
910.20454186662391
 20
-1358.2396664194976
 42
0.0058311413886083
 10
910.44558860334655
 20
-1357.5936343252088
 10
910.45634368076571
 20
-1357.5637499839531
 42
0.0052312425847061
 10
910.70392495887791
 20
-1356.8525475699071
 10
910.71496879518963
 20
-1356.8197208580491
 42
0.0046680544781872
 10
910.96989722276339
 20
-1356.0378945428015
 10
911.01188937317056
 20
-1355.9049113043552
 42
0.0041666856495886
 10
911.21517538536136
 20
-1355.2419425299963
 10
911.25283782659972
 20
-1355.1153614203881
 42
0.0015170975259271
 10
911.37402440443839
 20
-1354.7034930708492
 42
-0.000488799321214
 10
911.49436417681136
 20
-1354.2913746613904
 10
911.57084143505926
 20
-1354.0304172728661
 42
0.0002583378985062
 10
911.84405601012259
 20
-1353.0963605525599
 10
911.92582885404408
 20
-1352.8162613123513
 42
0.0006636169663264
 10
912.11969661471085
 20
-1352.1489083865167
 10
912.12479326966422
 20
-1352.1312768015327
 42
0.0010589131367822
 10
912.30624196997087
 20
-1351.498545460588
 10
912.31122404032067
 20
-1351.4810325540207
 42
0.0015655524449782
 10
912.47949424764374
 20
-1350.8824158743669
 10
912.48432444776699
 20
-1350.8650237164802
 42
0.0021640440468468
 10
912.6386144200369
 20
-1350.299996697413
 10
912.64324863962247
 20
-1350.2827319668422
 42
0.0028763871904232
 10
912.78276435752196
 20
-1349.7507640165722
 10
912.787150221724
 20
-1349.733640038271
 42
0.0037310511985646
 10
912.91110691352515
 20
-1349.234192444394
 10
912.91518213371455
 20
-1349.2172321735493
 42
0.0047652197766017
 10
913.02280603432155
 20
-1348.7497544048433
 10
913.02649663374177
 20
-1348.7329948492579
 42
0.0060276699334755
 10
913.11702673279797
 20
-1348.2969190545491
 10
913.12024542313156
 20
-1348.2804178399929
 42
0.0075824337795123
 10
913.19293473250582
 20
-1347.875150675814
 10
913.19558010988112
 20
-1347.8589957284134
 42
0.0095130624539204
 10
913.24969534551201
 20
-1347.4839063752911
 10
913.256681569379
 20
-1347.4279728173233
 42
0.0121054653216206
 10
913.28327289997833
 20
-1347.1630769887011
 10
913.28413938975427
 20
-1347.1516735455939
 42
0.0069050827381393
 10
913.29922820777574
 20
-1346.9087323189278
 10
913.30036350746377
 20
-1346.8852060615309
 42
0.0169063977048787
 10
913.3031907864206
 20
-1346.6890133345823
 10
913.30202013491362
 20
-1346.6286775742865
 42
0.0052007732018968
 10
913.29976668630115
 20
-1346.553084183081
 42
0.0054038123069571
 10
913.27980317446782
 20
-1346.4330658870854
 10
913.27471731859259
 20
-1346.4044074004901
 42
0.0112050460212807
 10
913.23933295653842
 20
-1346.2280809621816
 10
913.22150799448718
 20
-1346.1485393754301
 42
0.0240764468025898
 10
913.13061062835186
 20
-1345.8183023399256
 10
913.11205186558072
 20
-1345.7616821750603
 42
0.0256812331675096
 10
912.96868894534418
 20
-1345.3899579686777
 10
912.96327951952117
 20
-1345.3778266336817
 42
0.0268360501124245
 10
912.79385227867169
 20
-1345.0468334996672
 10
912.78831587104651
 20
-1345.0373138293776
 42
0.027467023170916
 10
912.59611489462259
 20
-1344.7450264544373
 10
912.59073359460308
 20
-1344.7377473068177
 42
0.0275035967195077
 10
912.37916071509972
 20
-1344.4822314165917
 10
912.37409121415112
 20
-1344.4767523289775
 42
0.0269557673475427
 10
912.14668767069088
 20
-1344.2561100429994
 10
912.14194461286388
 20
-1344.2519800885025
 42
0.0259124802158518
 10
911.90238978147681
 20
-1344.064289561386
 10
911.89785893632506
 20
-1344.0611040590766
 42
0.024516215303286
 10
911.64994258320075
 20
-1343.904371049945
 10
911.64541603684484
 20
-1343.9018108527275
 42
0.022928258895801
 10
911.39299648004817
 20
-1343.7739426602452
 10
911.38821598619688
 20
-1343.7717903604766
 42
0.0212984135828238
 10
911.13517803374998
 20
-1343.6705914432409
 10
911.12987374872318
 20
-1343.6687278804598
 42
0.0197555462223769
 10
910.88009541106294
 20
-1343.5919124625166
 42
0.0183511896659122
 10
910.62516668564058
 20
-1343.534329555559
 10
910.53880148887401
 20
-1343.5181267651665
 42
0.03380578772672
 10
910.25329413960571
 20
-1343.4843183600256
 10
910.16228873459477
 20
-1343.4797387047656
 42
0.0091990524302334
 10
910.05644162592944
 20
-1343.4763628488422
 42
0.0028333981050844
 10
909.95052770991606
 20
-1343.4755347413256
 10
909.94961225689622
 20
-1343.4755327715015
 42
-0.0023619827410668
 10
909.84186624178983
 20
-1343.4747919304227
 10
909.80546107161354
 20
-1343.4743696239598
 42
0.0008824598576275
 10
909.62490508164046
 20
-1343.4725938457209
 10
909.58104364935571
 20
-1343.4722398841964
 42
0.0038132665801594
 10
909.31276075346977
 20
-1343.472120948129
 10
909.29622709868272
 20
-1343.4722397142727
 42
0.0060665569206769
 10
908.99494660710479
 20
-1343.4780600136937
 10
908.98069627506629
 20
-1343.4785083216616
 42
0.0080356953213485
 10
908.65123755870445
 20
-1343.4941760437296
 10
908.63916754363891
 20
-1343.4949446266687
 42
0.0098996399034451
 10
908.28640445899509
 20
-1343.5244298558664
 10
908.27635874961561
 20
-1343.5254701520648
 42
0.0117740981405071
 10
907.90520189126983
 20
-1343.5727623995954
 10
907.89697919478931
 20
-1343.5740075161657
 42
0.0137435215161945
 10
907.51239037531195
 20
-1343.6431044897254
 10
907.50573333617649
 20
-1343.644490385961
 42
0.0158359869445622
 10
907.1127362424013
 20
-1343.7393824744345
 10
907.10732305550482
 20
-1343.7408724153124
 42
0.0180554124065884
 10
906.71100801091961
 20
-1343.8655104315417
 10
906.70645122280985
 20
-1343.8671264678173
 42
0.0203657431344232
 10
906.31197370501468
 20
-1344.0253868093255
 10
906.30783016599162
 20
-1344.0272484307748
 42
0.0226819684665225
 10
905.92039410980942
 20
-1344.2228910094295
 10
905.91619431876461
 20
-1344.2252566013653
 42
0.0248634984609299
 10
905.54101237753639
 20
-1344.4618832473511
 10
905.49281744886684
 20
-1344.495740289095
 42
0.0267044190851231
 10
905.21852475189371
 20
-1344.7111806650069
 42
0.0139303002172954
 10
904.96235758584226
 20
-1344.9484195060172
 10
904.95750420022523
 20
-1344.9531721687786
 42
0.0283460963380854
 10
904.71343160597462
 20
-1345.220902829255
 10
904.67376310084364
 20
-1345.2697044066967
 42
0.0070695364521835
 10
904.59632587498345
 20
-1345.3677712226622
 42
0.0070695364521835
  0
LWPOLYLINE
  5
167
100
AcDbEntity
  8
template
370
              15
390
0
  6
Continuous
 62
               7
100
AcDbPolyline
 90
      226
 70
             128
 10
901.06750543773524
 20
-1361.0893600288464
 42
-0.002627763568163
 10
901.06742755394225
 20
-1361.0225881021693
 10
901.06764491216745
 20
-1360.9694328856604
 42
-0.0088680296764161
 10
901.07142152845336
 20
-1360.7964171034714
 10
901.07376788757392
 20
-1360.7371370778037
 42
-0.0077381705770753
 10
901.08981399832555
 20
-1360.4458765822201
 10
901.09068190951075
 20
-1360.4335883483204
 42
-0.0068872530512043
 10
901.11731398926349
 20
-1360.1183665962321
 10
901.11851821345044
 20
-1360.1061256172325
 42
-0.0062130021699562
 10
901.15611193024961
 20
-1359.7672559262578
 10
901.15761583381391
 20
-1359.7550820540773
 42
-0.005672692966157
 10
901.20653769331693
 20
-1359.3928868319185
 10
901.2083111389511
 20
-1359.3807930317184
 42
-0.0052341884469551
 10
901.26892172526277
 20
-1358.9955997759103
 10
901.27093971399154
 20
-1358.9835948462082
 42
-0.0049768450102177
 10
901.34367839547485
 20
-1358.5757502784845
 10
901.36792741014506
 20
-1358.4472022957698
 42
-0.0089029805675545
 10
901.50500826190546
 20
-1357.7854268484839
 10
901.53775363725435
 20
-1357.640395417824
 42
-0.008031825708854
 10
901.76730225158826
 20
-1356.6946857859925
 10
901.77928717804025
 20
-1356.6485551507803
 42
-0.0074265721333758
 10
902.06329871684284
 20
-1355.6184905725827
 10
902.08317826006532
 20
-1355.5503565116192
 42
-0.006971192267421
 10
902.41048283851705
 20
-1354.4840887714822
 10
902.4704347857114
 20
-1354.2980674128225
 42
-0.0052070422853029
 10
902.69986001087818
 20
-1353.6107953360802
 10
902.71714120432443
 20
-1353.5607680517664
 42
-0.0009167004297685
 10
902.92023309034266
 20
-1352.9763122073091
 42
-0.0025162726898071
 10
903.12733072089759
 20
-1352.3932709423248
 10
903.16455533236876
 20
-1352.2901213973587
 42
-0.0028212681499026
 10
903.41273125137377
 20
-1351.6143907650703
 10
903.42256201396231
 20
-1351.5880833208334
 42
-0.0031964916841647
 10
903.65885427178728
 20
-1350.9678785582664
 10
903.66848872564879
 20
-1350.9430685684747
 42
-0.0036281836472411
 10
903.89359468688781
 20
-1350.3756278872302
 10
903.90303309714363
 20
-1350.3523304554865
 42
-0.0041269166791552
 10
904.11765079370525
 20
-1349.8348895597492
 10
904.15028375022666
 20
-1349.7580111131588
 42
-0.0047472212977919
 10
904.30732855567476
 20
-1349.3975896455045
 10
904.31422263696732
 20
-1349.3821690479895
 42
-0.002565165992958
 10
904.46258067073359
 20
-1349.054840992424
 42
-0.0057144634909844
 10
904.61633036454441
 20
-1348.7300313189871
 10
904.64436106986977
 20
-1348.6725229367503
 42
-0.0065388068529499
 10
904.82782809765195
 20
-1348.3082904400021
 10
904.83628655360371
 20
-1348.2920308603002
 42
-0.0074510842908903
 10
905.01246879930841
 20
-1347.96534257951
 10
905.02064846980647
 20
-1347.9507018023023
 42
-0.0084648979949255
 10
905.19028232293203
 20
-1347.6587927912801
 10
905.19813844940654
 20
-1347.6457857996484
 42
-0.0095638542634132
 10
905.36197389701556
 20
-1347.3858969276507
 10
905.36944884048717
 20
-1347.3745275664969
 42
-0.0107191626956784
 10
905.52825042107725
 20
-1347.1439163316513
 10
905.53526715473708
 20
-1347.1341802393813
 42
-0.011845857398945
 10
905.68981525332492
 20
-1346.9301080439759
 42
-0.0129184518305539
 10
905.85426787685719
 20
-1346.7339475278732
 10
905.88441264926951
 20
-1346.6998214489181
 42
-0.0217742579606754
 10
906.06102497161919
 20
-1346.516614678656
 10
906.07177051610779
 20
-1346.5063978454227
 42
-0.0097266568688679
 10
906.23782813493744
 20
-1346.3545502710158
 42
-0.0187720905670146
 10
906.41217571079324
 20
-1346.2124814176532
 10
906.44288170137588
 20
-1346.1893223353286
 42
-0.0179428207762377
 10
906.67530242149951
 20
-1346.0267701581188
 10
906.67895474828401
 20
-1346.0244062233173
 42
-0.0170047877897352
 10
906.91471838594589
 20
-1345.8829457090792
 10
906.91850137461734
 20
-1345.8808474040861
 42
-0.0160190788482537
 10
907.15540992232854
 20
-1345.7591961020548
 42
-0.0151102861531779
 10
907.39944170473609
 20
-1345.6525133260138
 10
907.45182820698392
 20
-1345.6314731931056
 42
-0.0271945441822461
 10
907.8104907660454
 20
-1345.5096083823996
 10
907.87955556653469
 20
-1345.4902588411323
 42
-0.0237596594057869
 10
908.29535241355188
 20
-1345.3948081291519
 10
908.36341526728211
 20
-1345.3825534410253
 42
-0.0213715440540886
 10
908.64929019872216
 20
-1345.3436064095154
 10
908.70943736493064
 20
-1345.3380166948155
 42
-0.0101465655732584
 10
908.87692989694187
 20
-1345.3258731515502
 10
908.88627028311748
 20
-1345.3253862365541
 42
-0.0100375910744854
 10
909.03542438369914
 20
-1345.3206104186274
 10
909.04568365341402
 20
-1345.3204879796126
 42
-0.0103625633123899
 10
909.17439164803363
 20
-1345.3216194131396
 10
909.19665729930421
 20
-1345.3222767716047
 42
-0.011568925025822
 10
909.28070803683659
 20
-1345.32670627785
 42
-0.0072438037294654
 10
909.36454631631204
 20
-1345.3342954776035
 10
909.38134682574309
 20
-1345.3360620203234
 42
-0.0217917312900045
 10
909.49791658905451
 20
-1345.3534819130446
 10
909.56351667964191
 20
-1345.3662285214627
 42
-0.0332943556688123
 10
909.76790884465299
 20
-1345.4202688127662
 10
909.79808141324611
 20
-1345.4304368899002
 42
-0.0184824084756076
 10
909.93658646966651
 20
-1345.4828879052711
 42
-0.0198002050693252
 10
910.07066081020457
 20
-1345.5457719654919
 10
910.07254744754027
 20
-1345.5467497523505
 42
-0.0212242342584823
 10
910.20468639001047
 20
-1345.6225124911848
 10
910.20650168549037
 20
-1345.623658293352
 42
-0.0226090605753361
 10
910.33500558669766
 20
-1345.7131379369034
 10
910.33685002844868
 20
-1345.7145501899035
 42
-0.0238457052474254
 10
910.46003210972412
 20
-1345.8185460857526
 10
910.46198483830085
 20
-1345.8203609635325
 42
-0.0248160564177014
 10
910.57818634565047
 20
-1345.9396355648009
 10
910.58028997899964
 20
-1345.9420208984452
 42
-0.0254109591273372
 10
910.68789519690472
 20
-1346.0773092844529
 10
910.69014321878785
 20
-1346.0804508328106
 42
-0.0255528488151787
 10
910.78758989757625
 20
-1346.232477887032
 10
910.7899209975003
 20
-1346.2365594986518
 42
-0.0252146793155552
 10
910.87570202352072
 20
-1346.4060617446844
 10
910.8780042626604
 20
-1346.411243826562
 42
-0.024426563590746
 10
910.95065895646258
 20
-1346.5989903987211
 10
910.95990535782767
 20
-1346.6268558167421
 42
-0.0231319613003611
 10
911.00582813688379
 20
-1346.7901568637481
 42
-0.0112130424073611
 10
911.04046415946505
 20
-1346.9563604641176
 10
911.04166668454127
 20
-1346.9628570508239
 42
-0.0210527881163957
 10
911.06735315990954
 20
-1347.1439126962878
 10
911.07086375472863
 20
-1347.1793182448123
 42
-0.0190029892140201
 10
911.08630522828025
 20
-1347.4328540912352
 10
911.08711520471843
 20
-1347.4683297054539
 42
-0.0137974553607384
 10
911.08556635187415
 20
-1347.7933611122676
 10
911.08472089693532
 20
-1347.8194798565028
 42
-0.0081336634228333
 10
911.06986156170024
 20
-1348.1248273243791
 42
-0.0073526923546427
 10
911.04555302832887
 20
-1348.4295755686494
 10
911.0442916045431
 20
-1348.4429122433303
 42
-0.0066886138682926
 10
911.00855601850344
 20
-1348.7734982867887
 10
911.00689892903029
 20
-1348.7871199058191
 42
-0.0061359187244619
 10
910.95904832700762
 20
-1349.143883885748
 10
910.95701082590676
 20
-1349.1577786887483
 42
-0.0056698610043327
 10
910.89636049512774
 20
-1349.5410572576329
 10
910.89395506181609
 20
-1349.555216376817
 42
-0.0052721077336967
 10
910.81982286101993
 20
-1349.9653437164789
 10
910.81705971217889
 20
-1349.9797603518809
 42
-0.0049289272162621
 10
910.72876559421275
 20
-1350.4170688623622
 10
910.72565309939091
 20
-1350.4317377158191
 42
-0.0047415956708381
 10
910.62241510796594
 20
-1350.8965344727876
 10
910.58764689750387
 20
-1351.0463415686131
 42
-0.0084404470877229
 10
910.39763045394648
 20
-1351.8065655930914
 10
910.39150376594625
 20
-1351.8294297172979
 42
-0.0039635940335079
 10
910.17005008203705
 20
-1352.6304185801905
 10
910.15667328647396
 20
-1352.677350198137
 42
-0.007247504090891
 10
909.8892263987218
 20
-1353.5665699141805
 10
909.819014071727
 20
-1353.7883102646856
 42
-0.005134545880119
 10
909.53225469972676
 20
-1354.66263545231
 10
909.51072843295697
 20
-1354.7260617194393
 42
-0.0019150016599968
 10
909.25519502609677
 20
-1355.4696108396661
 10
909.24872742217121
 20
-1355.4881983032342
 42
-0.002152436277735
 10
909.00024937063426
 20
-1356.1925241262957
 10
908.99103894980362
 20
-1356.2182777049652
 42
-0.0024331286807723
 10
908.75478369090706
 20
-1356.8688770127155
 10
908.74573573813541
 20
-1356.893420319665
 42
-0.0027449721741911
 10
908.5211211675196
 20
-1357.4925501979942
 10
908.51223116009351
 20
-1357.5158727879343
 42
-0.0031083229702833
 10
908.29868867351615
 20
-1358.0657968254259
 10
908.28995254181064
 20
-1358.0878865413674
 42
-0.0035311343185384
 10
908.08691135625122
 20
-1358.590869667014
 10
908.07832601715199
 20
-1358.6117123903987
 42
-0.0040245640955033
 10
907.88521421331097
 20
-1359.0700217131166
 10
907.87677809991146
 20
-1359.0896010807128
 42
-0.0046015135893266
 10
907.69302180653904
 20
-1359.505506110831
 10
907.68473562865256
 20
-1359.5238032504162
 42
-0.0052768638249905
 10
907.50975810975069
 20
-1359.8995761345536
 10
907.50162589889806
 20
-1359.9165694735748
 42
-0.0060672675534179
 10
907.33484628636506
 20
-1360.2544850962108
 10
907.32687680578238
 20
-1360.2701503553999
 42
-0.006990464877398
 10
907.16770841187827
 20
-1360.5724861618719
 10
907.15991701224993
 20
-1360.586796711128
 42
-0.0080637022779507
 10
907.0077651519241
 20
-1360.8558320142524
 10
907.00017611931253
 20
-1360.868759879816
 42
-0.0093006455633839
 10
906.85443544275768
 20
-1361.1067742783562
 10
906.84708477601089
 20
-1361.1182922475346
 42
-0.0107060777987141
 10
906.70713623258052
 20
-1361.327562564908
 10
906.70007446417003
 20
-1361.3376481076566
 42
-0.0122723111191699
 10
906.56528074610105
 20
-1361.5204414369632
 10
906.56495452245872
 20
-1361.520861824883
 42
-0.0141836319520609
 10
906.42137291956897
 20
-1361.6954315826019
 10
906.41442516397365
 20
-1361.7034065828029
 42
-0.0175957477402552
 10
906.2745189958805
 20
-1361.8530274712716
 42
-0.0080466359782119
 10
906.12705523087061
 20
-1361.9953499994049
 10
906.08102068633889
 20
-1362.038370437514
 42
-0.0269600260363541
 10
905.82774044034886
 20
-1362.2506936960276
 10
905.76117330401757
 20
-1362.3006451106735
 42
-0.0178362839765593
 10
905.52122881439573
 20
-1362.4676630368999
 10
905.5139838434261
 20
-1362.4723315490855
 42
-0.0174650732776319
 10
905.27764764595486
 20
-1362.6131925140639
 42
-0.0169240130170343
 10
905.03218140009267
 20
-1362.7374847738452
 10
904.98619524454261
 20
-1362.7588467294086
 42
-0.0318883036888311
 10
904.63584438890393
 20
-1362.8951850389235
 10
904.5674788537508
 20
-1362.9168856593947
 42
-0.0284435909866582
 10
904.19142872747034
 20
-1363.0131030948683
 10
904.15627056697849
 20
-1363.0199966906953
 42
-0.0243909341001322
 10
903.84282710605476
 20
-1363.0657177217272
 10
903.79254637927806
 20
-1363.070563268629
 42
-0.0196639293026742
 10
903.57695080175472
 20
-1363.0828115541426
 10
903.52512673055753
 20
-1363.0837148148798
 42
-0.0100501510737766
 10
903.41270344892109
 20
-1363.083414416526
 10
903.38104358754936
 20
-1363.0826933446401
 42
-0.0019752030750391
 10
903.33195125089696
 20
-1363.0813811844309
 10
903.32919094764657
 20
-1363.0812964926035
 42
0.0065378751766468
 10
903.28561437292228
 20
-1363.08052960139
 42
-0.0167974694256021
 10
903.24208355000883
 20
-1363.0788697028647
 10
903.23800421072519
 20
-1363.0785766919685
 42
-0.0081283276562035
 10
903.18644441292417
 20
-1363.074029698324
 10
903.17470483911166
 20
-1363.0728017807523
 42
-0.0126703439863999
 10
903.0999865432459
 20
-1363.06306698967
 10
903.07719867564447
 20
-1363.0595087337656
 42
-0.0117852088857228
 10
902.95765968987689
 20
-1363.0379457386216
 10
902.90227923804196
 20
-1363.0266021983739
 42
-0.0251774592340436
 10
902.6754351990603
 20
-1362.9681041889467
 10
902.63071600924741
 20
-1362.9541373696229
 42
-0.0146525199777084
 10
902.44432302164932
 20
-1362.8898708424076
 42
-0.0166929435890551
 10
902.26234536551055
 20
-1362.8140637093488
 10
902.25768873424386
 20
-1362.8119388087389
 42
-0.0191684358334999
 10
902.07250510296581
 20
-1362.7187027249356
 10
902.06917251723644
 20
-1362.7168614773959
 42
-0.022118178209602
 10
901.88586221342848
 20
-1362.6047279790828
 10
901.88351240933116
 20
-1362.603143681034
 42
-0.0254984685554545
 10
901.70722225899226
 20
-1362.4707325310992
 10
901.68474011119542
 20
-1362.4519802220866
 42
-0.029249264868733
 10
901.55997117240622
 20
-1362.3348874224848
 42
-0.0159048957468008
 10
901.44613117489644
 20
-1362.2068674308148
 10
901.44481238437584
 20
-1362.2052858178658
 42
-0.0343813379654517
 10
901.34217512275791
 20
-1362.0634144921146
 10
901.31068359139317
 20
-1362.0129111000188
 42
-0.0369117275693363
 10
901.22479108948755
 20
-1361.849433859054
 42
-0.0191751379886431
 10
901.15759770390287
 20
-1361.6770292529545
 10
901.15583438017347
 20
-1361.6719359083731
 42
-0.0378178042267236
 10
901.10603966136841
 20
-1361.4829951322163
 10
901.10004436565941
 20
-1361.4504345141268
 42
-0.0184846046194272
 10
901.07932716635696
 20
-1361.3086816935502
 42
-0.0179866351368148
 10
901.06899416128726
 20
-1361.1657908805505
 10
901.06893771883915
 20
-1361.164233193856
 42
-0.0085497186018539
 10
901.06750543773524
 20
-1361.0893600288464
 42
-0.0085497186018539
  0
MTEXT
  5
168
100
AcDbEntity
  8
template
390
0
 62
               7
100
AcDbMText
 10
784.00000000050204
 20
-1261.0000901712001
 30
0.0
 40
24.432617187500004
 41
0.0
 71
               1
 72
               1
  1
1:10
  7
ＭＳ ゴシック
 73
               1
 44
0.7828267384257843
  0
MTEXT
  5
169
100
AcDbEntity
  8
template
390
0
 62
               7
100
AcDbMText
 10
731.00000000050204
 20
-1232.4176292337002
 30
0.0
 40
16.288411458333332
 41
0.0
 71
               1
 72
               1
  1
縮尺
  7
ＭＳ ゴシック
 73
               1
 44
0.7828267384257843
  0
LINE
  5
16A
100
AcDbEntity
  8
template
370
               5
390
0
  6
Continuous
 62
               7
100
AcDbLine
 10
724.00000000050204
 20
-1309.0027073587003
 30
0.0
 11
724.00000000050204
 21
-1224.0027073587003
 31
0.0
  0
MTEXT
  5
16B
100
AcDbEntity
  8
template
390
0
 62
               7
100
AcDbMText
 10
480.00000000050204
 20
-1232.4176292337002
 30
0.0
 40
16.288411458333332
 41
0.0
 71
               1
 72
               1
  1
容量
  7
ＭＳ ゴシック
 73
               1
 44
0.7828267384257843
  0
MTEXT
  5
16C
100
AcDbEntity
  8
template
390
0
 62
               7
100
AcDbMText
 10
533.00000000050204
 20
-1261.0000901712001
 30
0.0
 40
24.432617187500004
 41
0.0
 71
               1
 72
               1
  1
9L
  7
ＭＳ ゴシック
 73
               1
 44
0.7828267384257843
  0
LINE
  5
16D
100
AcDbEntity
  8
template
370
               5
390
0
  6
Continuous
 62
               7
100
AcDbLine
 10
473.00000000050204
 20
-1309.0027073587003
 30
0.0
 11
473.00000000050204
 21
-1224.0027073587003
 31
0.0
  0
MTEXT
  5
16E
100
AcDbEntity
  8
template
390
0
 62
               7
100
AcDbMText
 10
229.00000000050204
 20
-1147.4176292337002
 30
0.0
 40
16.288411458333332
 41
0.0
 71
               1
 72
               1
  1
品番
  7
ＭＳ ゴシック
 73
               1
 44
0.7828267384257843
  0
MTEXT
  5
16F
100
AcDbEntity
  8
template
390
0
 62
               7
100
AcDbMText
 10
229.00000000050204
 20
-1232.4176292337002
 30
0.0
 40
16.288411458333332
 41
0.0
 71
               1
 72
               1
  1
重量
  7
ＭＳ ゴシック
 73
               1
 44
0.7828267384257843
  0
MTEXT
  5
170
100
AcDbEntity
  8
template
390
0
 62
               7
100
AcDbMText
 10
282.00000000050204
 20
-1176.0000901712001
 30
0.0
 40
24.432617187500004
 41
0.0
 71
               1
 72
               1
  1
ADF70-0009
  7
ＭＳ ゴシック
 73
               1
 44
0.7828267384257843
  0
MTEXT
  5
171
100
AcDbEntity
  8
template
390
0
 62
               7
100
AcDbMText
 10
282.00000000050204
 20
-1261.0000901712001
 30
0.0
 40
24.432617187500004
 41
0.0
 71
               1
 72
               1
  1
15kg
  7
ＭＳ ゴシック
 73
               1
 44
0.7828267384257843
  0
LINE
  5
172
100
AcDbEntity
  8
template
370
               5
390
0
  6
Continuous
 62
               7
100
AcDbLine
 10
222.00000000050204
 20
-1394.0027073587003
 30
0.0
 11
222.00000000050204
 21
-1139.0027073587003
 31
0.0
  0
MTEXT
  5
173
100
AcDbEntity
  8
template
390
0
 62
               7
100
AcDbMText
 10
-914.99999999975989
 20
-1176.0000901712001
 30
0.0
 40
24.432617187500004
 41
0.0
 71
               1
 72
               1
  1
洗面器 -CATALANO,Zero-
  7
ＭＳ ゴシック
 73
               1
 44
0.7828267384257843
  0
MTEXT
  5
174
100
AcDbEntity
  8
template
390
0
 62
               7
100
AcDbMText
 10
-914.99999999975989
 20
-1261.0000901712001
 30
0.0
 40
24.432617187500004
 41
0.0
 71
               1
 72
               1
  1
壁掛け,カウンタ ートップ/オーバーフロー付き/壁取付ボルト付属/
  7
ＭＳ ゴシック
 73
               1
 44
1.3047112307096407
  0
MTEXT
  5
175
100
AcDbEntity
  8
template
390
0
 62
               7
100
AcDbMText
 10
-914.99999999975989
 20
-1313.9167568378666
 30
0.0
 40
24.432617187500004
 41
0.0
 71
               1
 72
               1
  1
陶器/ホワイト
  7
ＭＳ ゴシック
 73
               1
 44
1.3047112307096407
  0
MTEXT
  5
176
100
AcDbEntity
  8
notes
390
0
 62
               7
100
AcDbMText
 10
-321.44979316751414
 20
-305.71893011637667
 30
0.0
 40
24.432617187500004
 41
0.0
 71
               1
 72
               1
  1
壁取付ボルト穴(2ヶ所)
  7
ＭＳ ゴシック
 73
               1
 44
0.7828267384257843
  0
MTEXT
  5
177
100
AcDbEntity
  8
notes
390
0
 62
               7
100
AcDbMText
 10
314.91949270428449
 20
1078.8751901463602
 30
0.0
 40
24.432617187500004
 41
0.0
 71
               1
 72
               1
  1
カウンター切込寸法
  7
ＭＳ ゴシック
 73
               1
 44
0.7828267384257843
  0
LINE
  5
178
100
AcDbEntity
  8
notes
370
               5
390
0
  6
Continuous
 62
               7
100
AcDbLine
 10
-393.43617989593622
 20
-425.90000000000009
 30
0.0
 11
-307.94253776161349
 21
-340.40635786568282
 31
0.0
  0
MTEXT
  5
179
100
AcDbEntity
  8
notes
390
0
 62
               7
100
AcDbMText
 10
78.328361382707953
 20
70.101508494567042
 30
0.0
 40
24.432617187500004
 41
0.0
 71
               1
 72
               1
  1
※カウンタートップ置きの場合も壁固定が必要です。\P
  7
ＭＳ ゴシック
 73
               1
 44
0.7828267384257843
  0
MTEXT
  5
17A
100
AcDbEntity
  8
notes
390
0
 62
               7
100
AcDbMText
 10
78.328361382707953
 20
215.12761718749994
 30
0.0
 40
24.432617187500004
 41
0.0
 71
               1
 72
               1
  1
※陶器製品には寸法公差があります。
  7
ＭＳ ゴシック
 73
               1
 44
1.0437689845677123
  0
MTEXT
  5
17B
100
AcDbEntity
  8
notes
390
0
 62
               7
100
AcDbMText
 10
78.328361382707953
 20
172.79428385416668
 30
0.0
 40
24.432617187500004
 41
0.0
 71
               1
 72
               1
  1
  洗面器の収め方をご確認の上、必ず現物を合わせて
  7
ＭＳ ゴシック
 73
               1
 44
1.0437689845677123
  0
MTEXT
  5
17C
100
AcDbEntity
  8
notes
390
0
 62
               7
100
AcDbMText
 10
78.328361382707953
 20
130.46095052083342
 30
0.0
 40
24.432617187500004
 41
0.0
 71
               1
 72
               1
  1
  カウンターに切込を行ってください。
  7
ＭＳ ゴシック
 73
               1
 44
1.0437689845677123
  0
DIMENSION
  5
17D
100
AcDbEntity
  8
notes
370
               5
390
0
  6
Continuous
 62
               7
100
AcDbDimension
  2
*D2
 10
-713.45201063653803
 20
980.06978301174695
 30
0.0
 11
-463.47048848422128
 21
980.06978301174695
 31
0.0
 71
               5
 72
               1
 41
1.0
 42
0.0
  3
tform線あり
100
AcDbAlignedDimension
 13
-213.4889663319118
 23
622.03027936577473
 33
0.0
 14
-713.45201063653803
 24
622.03027936577473
 34
0.0
100
AcDbRotatedDimension
1001
ACAD
1000
DSTYLE
1002
{
1070
             279
1070
               2
1070
             340
1005
37
1070
             147
1040
5.0
1002
}
  0
DIMENSION
  5
17E
100
AcDbEntity
  8
notes
370
               5
390
0
  6
Continuous
 62
               7
100
AcDbDimension
  2
*D3
 10
-645.93617989593622
 20
930.06978301174695
 30
0.0
 11
-463.43617989593622
 21
930.06978301174695
 31
0.0
 71
               5
 72
               1
 41
1.0
 42
0.0
  3
tform線あり
100
AcDbAlignedDimension
 13
-280.93617989593622
 23
830.06978301174695
 33
0.0
 14
-645.93617989593622
 24
830.06978301174695
 34
0.0
100
AcDbRotatedDimension
1001
ACAD
1000
DSTYLE
1002
{
1070
             279
1070
               2
1070
             340
1005
37
1070
             147
1040
5.0
1002
}
  0
DIMENSION
  5
17F
100
AcDbEntity
  8
notes
370
               5
390
0
  6
Continuous
 62
               7
100
AcDbDimension
  2
*D4
 10
-813.45201063654531
 20
830.06978301174695
 30
0.0
 11
-818.45201063654531
 21
770.06978301174695
 31
0.0
 70
             128
 71
               5
 72
               1
 41
1.0
 42
0.0
  3
tform線あり
100
AcDbAlignedDimension
 13
-677.01205352463876
 23
710.06978301174695
 33
0.0
 14
-645.93617989593622
 24
830.06978301174695
 34
0.0
 50
90.0
100
AcDbRotatedDimension
1001
ACAD
1000
DSTYLE
1002
{
1070
             279
1070
               2
1070
             340
1005
37
1070
             147
1040
5.0
1002
}
  0
DIMENSION
  5
180
100
AcDbEntity
  8
notes
370
               5
390
0
  6
Continuous
 62
               7
100
AcDbDimension
  2
*D5
 10
-813.45201063653803
 20
710.06978301174695
 30
0.0
 11
-813.45201063653803
 21
540.06155078558095
 31
0.0
 71
               5
 72
               1
 41
1.0
 42
0.0
  3
tform線あり
100
AcDbAlignedDimension
 13
-599.09159546647425
 23
370.05331855941472
 33
0.0
 14
-677.01205352463876
 24
710.06978301174695
 34
0.0
 50
90.0
100
AcDbRotatedDimension
1001
ACAD
1000
DSTYLE
1002
{
1070
             279
1070
               2
1070
             340
1005
37
1070
             147
1040
5.0
1002
}
  0
DIMENSION
  5
181
100
AcDbEntity
  8
notes
370
               5
390
0
  6
Continuous
 62
               7
100
AcDbDimension
  2
*D6
 10
719.65882702336239
 20
-285.77189659607302
 30
0.0
 11
689.65474695576995
 21
-285.77189659607302
 31
0.0
 71
               5
 72
               1
 41
1.0
 42
0.0
  3
tform線あり
100
AcDbAlignedDimension
 13
659.65066688817751
 23
-385.82776251786618
 33
0.0
 14
719.65882702336239
 24
-388.82776251786618
 34
0.0
100
AcDbRotatedDimension
1001
ACAD
1000
DSTYLE
1002
{
1070
             279
1070
               2
1070
             340
1005
37
1070
             147
1040
5.0
1002
}
  0
DIMENSION
  5
182
100
AcDbEntity
  8
notes
370
               5
390
0
  6
Continuous
 62
               7
100
AcDbDimension
  2
*D7
 10
-533.43617989593622
 20
-287.39999999999873
 30
0.0
 11
-463.43617989593622
 21
-287.39999999999873
 31
0.0
 71
               5
 72
               1
 41
1.0
 42
0.0
  3
tform線あり
100
AcDbAlignedDimension
 13
-393.43617989593622
 23
-404.35241487180701
 33
0.0
 14
-533.43617989593622
 24
-405.90000000000009
 34
0.0
100
AcDbRotatedDimension
1001
ACAD
1000
DSTYLE
1002
{
1070
             279
1070
               2
1070
             340
1005
37
1070
             147
1040
5.0
1002
}
  0
DIMENSION
  5
183
100
AcDbEntity
  8
notes
370
               5
390
0
  6
Continuous
 62
               7
100
AcDbDimension
  2
*D8
 10
-663.43617989593622
 20
229.76377924187773
 30
0.0
 11
-463.47048848422855
 21
234.76377924187773
 31
0.0
 70
             128
 71
               5
 72
               1
 41
1.0
 42
0.0
  3
tform線あり
100
AcDbAlignedDimension
 13
-263.43617989593622
 23
430.11553869799263
 33
0.0
 14
-663.43617989593622
 24
430.02404912256384
 34
0.0
100
AcDbRotatedDimension
1001
ACAD
1000
DSTYLE
1002
{
1070
             279
1070
               2
1070
             340
1005
37
1070
             147
1040
5.0
1002
}
  0
DIMENSION
  5
184
100
AcDbEntity
  8
notes
370
               5
390
0
  6
Continuous
 62
               7
100
AcDbDimension
  2
*D9
 10
-113.4889663319118
 20
830.06978301174695
 30
0.0
 11
-113.4889663319118
 21
580.06978301174695
 31
0.0
 71
               5
 72
               1
 41
1.0
 42
0.0
  3
tform線あり
100
AcDbAlignedDimension
 13
-421.43617989593622
 23
330.06978301174695
 33
0.0
 14
-280.93617989593622
 24
830.06978301174695
 34
0.0
 50
90.0
100
AcDbRotatedDimension
1001
ACAD
1000
DSTYLE
1002
{
1070
             279
1070
               2
1070
             340
1005
37
1070
             147
1040
5.0
1002
}
  0
DIMENSION
  5
185
100
AcDbEntity
  8
notes
370
               5
390
0
  6
Continuous
 62
               7
100
AcDbDimension
  2
*D10
 10
119.65882702336239
 20
-385.82776251786618
 30
0.0
 11
119.65882702336239
 21
-428.32776251786572
 31
0.0
 71
               5
 72
               1
 41
1.0
 42
0.0
  3
tform線あり
100
AcDbAlignedDimension
 13
219.65882702336239
 23
-470.82776251786572
 33
0.0
 14
219.65882702336239
 24
-385.82776251786618
 34
0.0
 50
90.0
100
AcDbRotatedDimension
1001
ACAD
1000
DSTYLE
1002
{
1070
             279
1070
               2
1070
             340
1005
37
1070
             147
1040
5.0
1002
}
  0
DIMENSION
  5
186
100
AcDbEntity
  8
notes
370
               5
390
0
  6
Continuous
 62
               7
100
AcDbDimension
  2
*D11
 10
119.65882702336239
 20
-470.82776251786572
 30
0.0
 11
119.65882702336239
 21
-523.32776251786572
 31
0.0
 71
               5
 72
               1
 41
1.0
 42
0.0
  3
tform線あり
100
AcDbAlignedDimension
 13
399.27527739297511
 23
-575.82776251786618
 33
0.0
 14
219.65882702336239
 24
-470.82776251786572
 34
0.0
 50
90.0
100
AcDbRotatedDimension
1001
ACAD
1000
DSTYLE
1002
{
1070
             279
1070
               2
1070
             340
1005
37
1070
             147
1040
5.0
1002
}
  0
DIMENSION
  5
187
100
AcDbEntity
  8
notes
370
               5
390
0
  6
Continuous
 62
               7
100
AcDbDimension
  2
*D12
 10
496.17566688817897
 20
-385.77448738901057
 30
0.0
 11
491.17566688817897
 21
-352.93769082885046
 31
0.0
 70
             128
 71
               5
 72
               1
 41
1.0
 42
0.0
  3
tform線あり
100
AcDbAlignedDimension
 13
536.08233392281545
 23
-555.77448738901057
 33
0.0
 14
536.05066688817897
 24
-385.77448738901057
 34
0.0
 50
90.0
100
AcDbRotatedDimension
1001
ACAD
1000
DSTYLE
1002
{
1070
             279
1070
               2
1070
             340
1005
37
1070
               3
1000
<>(深さ)
1070
             174
1070
               0
1070
             147
1040
5.0
1002
}
  0
DIMENSION
  5
188
100
AcDbEntity
  8
notes
370
               5
390
0
  6
Continuous
 62
               7
100
AcDbDimension
  2
*D13
 10
719.26328120815015
 20
-700.80887727509116
 30
0.0
 11
619.26328120815015
 21
-700.80887727509116
 31
0.0
 71
               5
 72
               1
 41
1.0
 42
0.0
  3
tform線あり
100
AcDbAlignedDimension
 13
519.26328120815015
 23
-600.82776251786618
 33
0.0
 14
719.26328120815015
 24
-572.89480162400923
 34
0.0
100
AcDbRotatedDimension
1001
ACAD
1000
DSTYLE
1002
{
1070
             279
1070
               2
1070
             340
1005
37
1070
             147
1040
5.0
1002
}
  0
DIMENSION
  5
189
100
AcDbEntity
  8
notes
370
               5
390
0
  6
Continuous
 62
               7
100
AcDbDimension
  2
*D14
 10
-796.43617989593622
 20
-385.85241487180565
 30
0.0
 11
-796.43617989593622
 21
-405.85241487180656
 31
0.0
 71
               5
 72
               1
 41
1.0
 42
0.0
  3
tform線あり
100
AcDbAlignedDimension
 13
-573.43617989593622
 23
-425.85241487180701
 33
0.0
 14
-713.43617989593622
 24
-385.85241487180565
 34
0.0
 50
90.0
100
AcDbRotatedDimension
1001
ACAD
1000
DSTYLE
1002
{
1070
             279
1070
               2
1070
             340
1005
37
1070
             147
1040
5.0
1002
}
  0
DIMENSION
  5
18A
100
AcDbEntity
  8
notes
370
               5
390
0
  6
Continuous
 62
               7
100
AcDbDimension
  2
*D15
 10
-113.43617989593622
 20
-385.85241487180565
 30
0.0
 11
-113.43617989593622
 21
-493.33175680238901
 31
0.0
 71
               5
 72
               1
 41
1.0
 42
0.0
  3
tform線あり
100
AcDbAlignedDimension
 13
-424.48602615224081
 23
-600.81109873297191
 33
0.0
 14
-213.43617989593622
 24
-385.85241487180565
 34
0.0
 50
90.0
100
AcDbRotatedDimension
1001
ACAD
1000
DSTYLE
1002
{
1070
             279
1070
               2
1070
             340
1005
37
1070
             147
1040
5.0
1002
}
  0
DIMENSION
  5
18B
100
AcDbEntity
  8
notes
370
               5
390
0
  6
Continuous
 62
               7
100
AcDbDimension
  2
*D16
 10
119.65882702336239
 20
-575.82776251786618
 30
0.0
 11
114.65882702336239
 21
-619.77189659607302
 31
0.0
 70
             128
 71
               5
 72
               1
 41
1.0
 42
0.0
  3
tform線あり
100
AcDbAlignedDimension
 13
485.26328120815015
 23
-600.82776251786618
 33
0.0
 14
399.27527739297511
 24
-575.82776251786618
 34
0.0
 50
90.0
100
AcDbRotatedDimension
1001
ACAD
1000
DSTYLE
1002
{
1070
             279
1070
               2
1070
             340
1005
37
1070
             174
1070
               0
1070
             147
1040
5.0
1002
}
  0
DIMENSION
  5
18C
100
AcDbEntity
  8
notes
370
               5
390
0
  6
Continuous
 62
               7
100
AcDbDimension
  2
*D17
 10
753.0
 20
580.06978301174695
 30
0.0
 11
758.0
 21
705.06978301174695
 31
0.0
 70
             128
 71
               5
 72
               1
 41
1.0
 42
0.0
  3
tform線あり
100
AcDbAlignedDimension
 13
576.96569141169311
 23
830.06978301174695
 33
0.0
 14
555.97117818242259
 24
580.06978301174695
 34
0.0
 50
90.0
100
AcDbRotatedDimension
1001
ACAD
1000
DSTYLE
1002
{
1070
             279
1070
               2
1070
             340
1005
37
1070
             147
1040
5.0
1002
}
  0
DIMENSION
  5
18D
100
AcDbEntity
  8
notes
370
               5
390
0
  6
Continuous
 62
               7
100
AcDbDimension
  2
*D18
 10
719.26328120815015
 20
-748.0
 30
0.0
 11
559.26328120814287
 21
-743.0
 31
0.0
 70
             128
 71
               5
 72
               1
 41
1.0
 42
0.0
  3
tform線あり
100
AcDbAlignedDimension
 13
399.26328120814287
 23
-575.87189659607293
 33
0.0
 14
719.26328120815015
 24
-575.87189659607293
 34
0.0
100
AcDbRotatedDimension
1001
ACAD
1000
DSTYLE
1002
{
1070
             279
1070
               2
1070
             340
1005
37
1070
             147
1040
5.0
1002
}
  0
DIMENSION
  5
18E
100
AcDbEntity
  8
notes
370
               5
390
0
  6
Continuous
 62
               7
100
AcDbDimension
  2
*D19
 10
-318.48602615224081
 20
-700.0
 30
0.0
 11
-463.48602615224081
 21
-700.0
 31
0.0
 71
               5
 72
               1
 41
1.0
 42
0.0
  3
tform線あり
100
AcDbAlignedDimension
 13
-608.48602615224081
 23
-575.81109873297191
 33
0.0
 14
-318.48602615224081
 24
-575.81109873297191
 34
0.0
100
AcDbRotatedDimension
1001
ACAD
1000
DSTYLE
1002
{
1070
             279
1070
               2
1070
             340
1005
37
1070
             147
1040
5.0
1002
}
  0
DIMENSION
  5
18F
100
AcDbEntity
  8
notes
370
               5
390
0
  6
Continuous
 62
               7
100
AcDbDimension
  2
*D20
 10
345.97117818242259
 20
930.06978301174695
 30
0.0
 11
450.97117818242259
 21
930.06978301174695
 31
0.0
 71
               5
 72
               1
 41
1.0
 42
0.0
  3
tform線あり
100
AcDbAlignedDimension
 13
555.97117818242259
 23
830.06978301174695
 33
0.0
 14
345.97117818242259
 24
830.06978301174695
 34
0.0
100
AcDbRotatedDimension
1001
ACAD
1000
DSTYLE
1002
{
1070
             279
1070
               2
1070
             340
1005
37
1070
             147
1040
5.0
1002
}
  0
DIMENSION
  5
190
100
AcDbEntity
  8
notes
370
               5
390
0
  6
Continuous
 62
               7
100
AcDbDimension
  2
*D21
 10
-473.73650844013173
 20
755.8973155390222
 30
0.0
 11
-401.08467396238848
 21
870.00000000000227
 31
0.0
 70
               3
 71
               5
 72
               1
 41
1.0
 42
0.0
  3
tform線あり
100
AcDbDiametricDimension
 15
-453.20446852835448
 25
784.2422504844717
 35
0.0
 40
105.8926837835677
1001
ACAD
1000
DSTYLE
1002
{
1070
             172
1070
               1
1070
             289
1070
               0
1070
             342
1005
47
1070
             340
1005
37
1070
              73
1070
               1
1070
              74
1070
               1
1070
              75
1070
               1
1070
              76
1070
               1
1070
               3
1000

1070
             174
1070
               0
1070
             147
1040
5.0
1002
}
  0
POLYLINE
  5
191
100
AcDbEntity
  8
ADF70-0009
370
              15
390
0
  6
Continuous
 62
               7
100
AcDb2dPolyline
 66
               1
 10
0.0
 20
0.0
 30
0.0
 75
               5
  0
VERTEX
  5
192
100
AcDbEntity
  8
ADF70-0009
370
              15
390
0
  6
Continuous
 62
               7
100
AcDbVertex
100
AcDb2dVertex
 10
602.10542557739973
 20
-575.87189659607293
 30
0.0
  0
VERTEX
  5
193
100
AcDbEntity
  8
ADF70-0009
370
              15
390
0
  6
Continuous
 62
               7
100
AcDbVertex
100
AcDb2dVertex
 10
719.7105644003459
 20
-575.87189659607293
 30
0.0
  0
VERTEX
  5
194
100
AcDbEntity
  8
ADF70-0009
370
              15
390
0
  6
Continuous
 62
               7
100
AcDbVertex
100
AcDb2dVertex
 10
719.7105644003459
 20
-469.72664519942964
 30
0.0
  0
SEQEND
  5
195
100
AcDbEntity
  8
ADF70-0009
370
              15
390
0
  6
Continuous
 62
               7
  0
LINE
  5
196
100
AcDbEntity
  8
ADF70-0009
370
              15
390
0
  6
Continuous
 62
               7
100
AcDbLine
 10
553.17420938611031
 20
-600.78999203231569
 30
0.0
 11
485.26328120815015
 21
-600.78999203231569
 31
0.0
  0
LINE
  5
197
100
AcDbEntity
  8
ADF70-0009
370
              15
390
0
  6
Continuous
 62
               7
100
AcDbLine
 10
543.95758824629593
 20
-567.3082094452393
 30
0.0
 11
495.21363682145602
 21
-567.3082094452393
 31
0.0
  0
LINE
  5
198
100
AcDbEntity
  8
ADF70-0009
370
              15
390
0
  6
Continuous
 62
               7
100
AcDbLine
 10
559.59293110821454
 20
-555.01770665194499
 30
0.0
 11
486.22500915578712
 21
-555.01770665194499
 31
0.0
  0
LINE
  5
199
100
AcDbEntity
  8
ADF70-0009
370
              15
390
0
  6
Continuous
 62
               7
100
AcDbLine
 10
404.33851573982975
 20
-565.86929327613234
 30
0.0
 11
382.60591982269398
 21
-536.57753356172407
 31
0.0
  0
LINE
  5
19A
100
AcDbEntity
  8
ADF70-0009
370
              15
390
0
  6
Continuous
 62
               7
100
AcDbLine
 10
420.4692391814533
 20
-565.82776251786572
 30
0.0
 11
404.30770259660494
 21
-565.82776251786572
 31
0.0
  0
LINE
  5
19B
100
AcDbEntity
  8
ADF70-0009
370
              15
390
0
  6
Continuous
 62
               7
100
AcDbLine
 10
428.19261115205154
 20
-550.38101857668107
 30
0.0
 11
420.4692391814533
 21
-565.82776251786572
 31
0.0
  0
LINE
  5
19C
100
AcDbEntity
  8
ADF70-0009
370
              15
390
0
  6
Continuous
 62
               7
100
AcDbLine
 10
485.26328120815015
 20
-575.82776251786618
 30
0.0
 11
426.64957906895143
 21
-575.82776251786618
 31
0.0
  0
ARC
  5
19D
100
AcDbEntity
  8
ADF70-0009
370
              15
390
0
  6
Continuous
 62
               7
100
AcDbCircle
 10
-463.47048848422855
 20
580.0697830113952
 30
0.0
 40
250.00000000000054
100
AcDbArc
 50
136.87489044869346
 51
43.114361579423935
  0
LINE
  5
19E
100
AcDbEntity
  8
ADF70-0009
370
              15
390
0
  6
Continuous
 62
               7
100
AcDbLine
 10
-645.93617989593622
 20
830.06978301174695
 30
0.0
 11
-280.93617989593622
 21
830.06978301174695
 31
0.0
  0
LINE
  5
19F
100
AcDbEntity
  8
ADF70-0009
370
              15
390
0
  6
Continuous
 62
               7
100
AcDbLine
 10
248.13024400220456
 20
-395.82776251786618
 30
0.0
 11
229.65882702336239
 21
-395.82776251786618
 31
0.0
  0
LINE
  5
1A0
100
AcDbEntity
  8
ADF70-0009
370
              15
390
0
  6
Continuous
 62
               7
100
AcDbLine
 10
399.27527739297511
 20
-575.82776251786618
 30
0.0
 11
365.77432348113507
 21
-530.67430289754839
 31
0.0
  0
LINE
  5
1A1
100
AcDbEntity
  8
ADF70-0009
370
              15
390
0
  6
Continuous
 62
               7
100
AcDbLine
 10
426.64957906895143
 20
-575.82776251786618
 30
0.0
 11
399.27527739297511
 21
-575.82776251786618
 31
0.0
  0
LINE
  5
1A2
100
AcDbEntity
  8
ADF70-0009
370
              15
390
0
  6
Continuous
 62
               7
100
AcDbLine
 10
437.98056921772513
 20
-553.16578222033195
 30
0.0
 11
426.64957906895143
 21
-575.82776251786618
 31
0.0
  0
LINE
  5
1A3
100
AcDbEntity
  8
ADF70-0009
370
              15
390
0
  6
Continuous
 62
               7
100
AcDbLine
 10
219.65882702336239
 20
-385.83901828618036
 30
0.0
 11
219.65882702336239
 21
-470.82776251786572
 31
0.0
  0
LINE
  5
1A4
100
AcDbEntity
  8
ADF70-0009
370
              15
390
0
  6
Continuous
 62
               7
100
AcDbLine
 10
250.05066688817169
 20
-385.82776251786618
 30
0.0
 11
219.65882702336239
 21
-385.82776251786618
 31
0.0
  0
ARC
  5
1A5
100
AcDbEntity
  8
ADF70-0009
370
              15
390
0
  6
Continuous
 62
               7
100
AcDbCircle
 10
249.68694527699699
 20
-393.60585260970538
 30
0.0
 40
7.7793415296233839
100
AcDbArc
 50
19.97765906551831
 51
90.0
  0
ARC
  5
1A6
100
AcDbEntity
  8
ADF70-0009
370
              15
390
0
  6
Continuous
 62
               7
100
AcDbCircle
 10
521.07407290650735
 20
-294.91856440858328
 30
0.0
 40
280.98384801923231
100
AcDbArc
 50
199.97765906545135
 51
219.47417186513405
  0
ARC
  5
1A7
100
AcDbEntity
  8
ADF70-0009
370
              15
390
0
  6
Continuous
 62
               7
100
AcDbCircle
 10
430.96357028668717
 20
-369.13173234438409
 30
0.0
 40
164.24697733363885
100
AcDbArc
 50
219.47417186514338
 51
252.18598722167877
  0
ARC
  5
1A8
100
AcDbEntity
  8
ADF70-0009
370
              15
390
0
  6
Continuous
 62
               7
100
AcDbCircle
 10
902.91301926555752
 20
1099.5844792809403
 30
0.0
 40
1706.9276288887536
100
AcDbArc
 50
252.18598722167823
 51
255.11766968361258
  0
ARC
  5
1A9
100
AcDbEntity
  8
ADF70-0009
370
              15
390
0
  6
Continuous
 62
               7
100
AcDbCircle
 10
483.25601102682413
 20
-566.54066747340767
 30
0.0
 40
11.982234154063917
100
AcDbArc
 50
0.0
 51
72.503917802368107
  0
LINE
  5
1AA
100
AcDbEntity
  8
ADF70-0009
370
              15
390
0
  6
Continuous
 62
               7
100
AcDbLine
 10
229.65882702336239
 20
-395.82776251786618
 30
0.0
 11
229.65882702336239
 21
-442.77189659607302
 31
0.0
  0
LINE
  5
1AB
100
AcDbEntity
  8
ADF70-0009
370
              15
390
0
  6
Continuous
 62
               7
100
AcDbLine
 10
289.26174790943332
 20
-470.82776251786572
 30
0.0
 11
219.65882702336239
 21
-470.82776251786572
 31
0.0
  0
ARC
  5
1AC
100
AcDbEntity
  8
ADF70-0009
370
              15
390
0
  6
Continuous
 62
               7
100
AcDbCircle
 10
521.07407290650735
 20
-294.91856440858328
 30
0.0
 40
290.9999999999975
100
AcDbArc
 50
212.85066678945208
 51
219.47417186513491
  0
ARC
  5
1AD
100
AcDbEntity
  8
ADF70-0009
370
              15
390
0
  6
Continuous
 62
               7
100
AcDbCircle
 10
430.96357028668717
 20
-369.13173234438409
 30
0.0
 40
174.19999999999803
100
AcDbArc
 50
219.47417186514284
 51
252.18598722167843
  0
ARC
  5
1AE
100
AcDbEntity
  8
ADF70-0009
370
              15
390
0
  6
Continuous
 62
               7
100
AcDbCircle
 10
902.91301926555752
 20
1099.5844792809403
 30
0.0
 40
1716.9000000000005
100
AcDbArc
 50
252.18598722167812
 51
255.11766968361255
  0
ARC
  5
1AF
100
AcDbEntity
  8
ADF70-0009
370
              15
390
0
  6
Continuous
 62
               7
100
AcDbCircle
 10
483.26291682632291
 20
-566.60450019559903
 30
0.0
 40
2.0
100
AcDbArc
 50
0.0
 51
72.503917802421157
  0
LINE
  5
1B0
100
AcDbEntity
  8
ADF70-0009
370
              15
390
0
  6
Continuous
 62
               7
100
AcDbLine
 10
485.26328120815015
 20
-600.82776251786618
 30
0.0
 11
485.26328120815015
 21
-566.54066747340767
 31
0.0
  0
POLYLINE
  5
1B1
100
AcDbEntity
  8
ADF70-0009
370
              15
390
0
  6
Continuous
 62
               7
100
AcDb2dPolyline
 66
               1
 10
0.0
 20
0.0
 30
0.0
 70
               1
 75
               5
  0
VERTEX
  5
1B2
100
AcDbEntity
  8
ADF70-0009
370
              15
390
0
  6
Continuous
 62
               7
100
AcDbVertex
100
AcDb2dVertex
 10
642.15066688817751
 20
-385.82776251786618
 30
0.0
  0
VERTEX
  5
1B3
100
AcDbEntity
  8
ADF70-0009
370
              15
390
0
  6
Continuous
 62
               7
100
AcDbVertex
100
AcDb2dVertex
 10
677.15066688817751
 20
-385.82776251786618
 30
0.0
  0
VERTEX
  5
1B4
100
AcDbEntity
  8
ADF70-0009
370
              15
390
0
  6
Continuous
 62
               7
100
AcDbVertex
100
AcDb2dVertex
 10
677.15066688817751
 20
-395.82776251786618
 30
0.0
  0
VERTEX
  5
1B5
100
AcDbEntity
  8
ADF70-0009
370
              15
390
0
  6
Continuous
 62
               7
100
AcDbVertex
100
AcDb2dVertex
 10
642.15066688817751
 20
-395.82776251786618
 30
0.0
  0
SEQEND
  5
1B6
100
AcDbEntity
  8
ADF70-0009
370
              15
390
0
  6
Continuous
 62
               7
  0
LINE
  5
1B7
100
AcDbEntity
  8
ADF70-0009
370
              15
390
0
  6
Continuous
 62
               7
100
AcDbLine
 10
642.15066688817751
 20
-385.82776251786618
 30
0.0
 11
604.05066688817897
 21
-385.82776251786618
 31
0.0
  0
LWPOLYLINE
  5
1B8
100
AcDbEntity
  8
ADF70-0009
370
              15
390
0
  6
Continuous
 62
               7
100
AcDbPolyline
 90
       12
 70
             128
 10
687.3117176755477
 20
-398.59238521753332
 10
691.65882703340321
 20
-453.82764689037595
 10
698.59822002750298
 20
-477.24819857241255
 42
0.3321503720253707
 10
703.39221225850633
 20
-480.82776251786618
 10
714.65882702336239
 20
-480.82776251786572
 42
0.4142135623729352
 10
719.65882702336239
 20
-475.82776251786572
 10
719.65882702336239
 20
-388.82776251786618
 42
0.414213562373095
 10
716.65882702336239
 20
-385.82776251786618
 10
677.15066688817751
 20
-385.87189659607293
 10
677.15066688817751
 20
-395.87189659607293
 10
684.32096566787368
 20
-395.82776251786618
 42
-0.3913924555266961
 10
687.31171766912303
 20
-398.59238523134172
  0
ARC
  5
1B9
100
AcDbEntity
  8
ADF70-0009
370
              15
390
0
  6
Continuous
 62
               7
100
AcDbCircle
 10
538.30139657973632
 20
-583.49805641515786
 30
0.0
 40
8.4991703163018428
100
AcDbArc
 50
90.0
 51
270.0
  0
ARC
  5
1BA
100
AcDbEntity
  8
ADF70-0009
370
              15
390
0
  6
Continuous
 62
               7
100
AcDbCircle
 10
605.35040317093808
 20
-451.68774663191152
 30
0.0
 40
1.0000000000037947
100
AcDbArc
 50
357.1316645591213
 51
86.999999938628548
  0
LINE
  5
1BB
100
AcDbEntity
  8
ADF70-0009
370
              15
390
0
  6
Continuous
 62
               7
100
AcDbLine
 10
601.69196169936185
 20
-523.62209882427805
 30
0.0
 11
606.39073077172361
 21
-451.74050565873131
 31
0.0
  0
LINE
  5
1BC
100
AcDbEntity
  8
ADF70-0009
370
              15
390
0
  6
Continuous
 62
               7
100
AcDbLine
 10
551.76605099858716
 20
-573.16510781954048
 30
0.0
 11
565.36597021990747
 21
-565.64386478582355
 31
0.0
  0
ARC
  5
1BD
100
AcDbEntity
  8
ADF70-0009
370
              15
390
0
  6
Continuous
 62
               7
100
AcDbCircle
 10
546.62375012008124
 20
-567.03675229025703
 30
0.0
 40
7.9999999886481419
100
AcDbArc
 50
270.00000010422042
 51
310.00000007769239
  0
LINE
  5
1BE
100
AcDbEntity
  8
ADF70-0009
370
              15
390
0
  6
Continuous
 62
               7
100
AcDbLine
 10
537.50000505289063
 20
-575.03675227890517
 30
0.0
 11
546.62375013463316
 21
-575.03675227890517
 31
0.0
  0
ARC
  5
1BF
100
AcDbEntity
  8
ADF70-0009
370
              15
390
0
  6
Continuous
 62
               7
100
AcDbCircle
 10
560.67807146305859
 20
-559.80509457247263
 30
0.0
 40
4.9999999910964776
100
AcDbArc
 50
94.583659735633404
 51
130.00000009875589
  0
ARC
  5
1C0
100
AcDbEntity
  8
ADF70-0009
370
              15
390
0
  6
Continuous
 62
               7
100
AcDbCircle
 10
599.25852795800893
 20
-453.37122972685029
 30
0.0
 40
3.000000043610799
100
AcDbArc
 50
86.999999300716553
 51
177.13166387241569
  0
LINE
  5
1C1
100
AcDbEntity
  8
ADF70-0009
370
              15
390
0
  6
Continuous
 62
               7
100
AcDbLine
 10
605.40273913313285
 20
-450.68911709710846
 30
0.0
 11
599.41553586558439
 21
-450.37534108095178
 31
0.0
  0
ARC
  5
1C2
100
AcDbEntity
  8
ADF70-0009
370
              15
390
0
  6
Continuous
 62
               7
100
AcDbCircle
 10
599.25852792122896
 20
-453.37122968125186
 30
0.0
 40
2.9999999999997788
100
AcDbArc
 50
86.999998553656027
 51
177.13166312533349
  0
LINE
  5
1C3
100
AcDbEntity
  8
ADF70-0009
370
              15
390
0
  6
Continuous
 62
               7
100
AcDbLine
 10
605.40273913313285
 20
-450.68911709710846
 30
0.0
 11
599.41553586558439
 21
-450.37534108095178
 31
0.0
  0
ARC
  5
1C4
100
AcDbEntity
  8
ADF70-0009
370
              15
390
0
  6
Continuous
 62
               7
100
AcDbCircle
 10
605.35040317333187
 20
-451.68774662941087
 30
0.0
 40
0.9999999977381391
100
AcDbArc
 50
357.13166440916052
 51
86.999999789065484
  0
LINE
  5
1C5
100
AcDbEntity
  8
ADF70-0009
370
              15
390
0
  6
Continuous
 62
               7
100
AcDbLine
 10
543.25066688817606
 20
-568.03638788790204
 30
0.0
 11
543.25066688817606
 21
-575.03675227890517
 31
0.0
  0
LINE
  5
1C6
100
AcDbEntity
  8
ADF70-0009
370
              15
390
0
  6
Continuous
 62
               7
100
AcDbLine
 10
557.46413341374864
 20
-555.97487236923962
 30
0.0
 11
543.08977897177829
 21
-568.03638788790204
 31
0.0
  0
LINE
  5
1C7
100
AcDbEntity
  8
ADF70-0009
370
              15
390
0
  6
Continuous
 62
               7
100
AcDbLine
 10
540.45936811327556
 20
-591.9297522789052
 30
0.0
 11
547.05642420629738
 21
-591.9297522789052
 31
0.0
  0
LINE
  5
1C8
100
AcDbEntity
  8
ADF70-0009
370
              15
390
0
  6
Continuous
 62
               7
100
AcDbLine
 10
540.45936811327556
 20
-591.9297522789052
 30
0.0
 11
538.30139658704138
 21
-591.9297522789052
 31
0.0
  0
LINE
  5
1C9
100
AcDbEntity
  8
ADF70-0009
370
              15
390
0
  6
Continuous
 62
               7
100
AcDbLine
 10
608.53707908435172
 20
-417.11468774827426
 30
0.0
 11
608.80967057609087
 21
-408.14150280460854
 31
0.0
  0
LINE
  5
1CA
100
AcDbEntity
  8
ADF70-0009
370
              15
390
0
  6
Continuous
 62
               7
100
AcDbLine
 10
597.52577992145234
 20
-433.57112263930367
 30
0.0
 11
598.96432733441907
 21
-405.62508051999293
 31
0.0
  0
LINE
  5
1CB
100
AcDbEntity
  8
ADF70-0009
370
              15
390
0
  6
Continuous
 62
               7
100
AcDbLine
 10
545.55149500758125
 20
-591.9297522789052
 30
0.0
 11
545.64972932869568
 21
-591.9297522789052
 31
0.0
  0
LINE
  5
1CC
100
AcDbEntity
  8
ADF70-0009
370
              15
390
0
  6
Continuous
 62
               7
100
AcDbLine
 10
553.30596307122323
 20
-599.28404073985666
 30
0.0
 11
553.17420938611031
 21
-600.78999203231569
 31
0.0
  0
ARC
  5
1CD
100
AcDbEntity
  8
ADF70-0009
370
              15
390
0
  6
Continuous
 62
               7
100
AcDbCircle
 10
558.30156684247049
 20
-599.71981944484469
 30
0.0
 40
4.9999999642182145
100
AcDbArc
 50
100.00000027740994
 51
175.00000006478049
  0
LINE
  5
1CE
100
AcDbEntity
  8
ADF70-0009
370
              15
390
0
  6
Continuous
 62
               7
100
AcDbLine
 10
593.01593356647936
 20
-584.02511604300571
 30
0.0
 11
557.43332593650848
 21
-594.7957807192256
 31
0.0
  0
LINE
  5
1CF
100
AcDbEntity
  8
ADF70-0009
370
              15
390
0
  6
Continuous
 62
               7
100
AcDbLine
 10
633.56709042037255
 20
-398.55224531994372
 30
0.0
 11
617.65065240313561
 21
-544.82776251786572
 31
0.0
  0
ARC
  5
1D0
100
AcDbEntity
  8
ADF70-0009
370
              15
390
0
  6
Continuous
 62
               7
100
AcDbCircle
 10
636.55978256650269
 20
-398.76151473207028
 30
0.0
 40
2.999999994724476
100
AcDbArc
 50
90.000000164390343
 51
176.00000016729058
  0
LINE
  5
1D1
100
AcDbEntity
  8
ADF70-0009
370
              15
390
0
  6
Continuous
 62
               7
100
AcDbLine
 10
642.12960514967563
 20
-395.76151473734535
 30
0.0
 11
636.55978255789523
 21
-395.76151473734535
 31
0.0
  0
ARC
  5
1D2
100
AcDbEntity
  8
ADF70-0009
370
              15
390
0
  6
Continuous
 62
               7
100
AcDbCircle
 10
605.69251395201718
 20
-391.76151474060043
 30
0.0
 40
6.0000000032546268
100
AcDbArc
 50
89.999999970540387
 51
176.99999998652549
  0
LINE
  5
1D3
100
AcDbEntity
  8
ADF70-0009
370
              15
390
0
  6
Continuous
 62
               7
100
AcDbLine
 10
598.95773896807077
 20
-405.62474136779701
 30
0.0
 11
599.700736740313
 21
-391.4474990015633
 31
0.0
  0
ARC
  5
1D4
100
AcDbEntity
  8
ADF70-0009
370
              15
390
0
  6
Continuous
 62
               7
100
AcDbCircle
 10
601.53282620220853
 20
-413.99313936102635
 30
0.0
 40
3.0000000053347855
100
AcDbArc
 50
176.99999993388863
 51
266.99999969293725
  0
LINE
  5
1D5
100
AcDbEntity
  8
ADF70-0009
370
              15
390
0
  6
Continuous
 62
               7
100
AcDbLine
 10
607.33778606839769
 20
-417.30148147482805
 30
0.0
 11
601.37581831714488
 21
-416.98902796977382
 31
0.0
  0
ARC
  5
1D6
100
AcDbEntity
  8
ADF70-0009
370
              15
390
0
  6
Continuous
 62
               7
100
AcDbCircle
 10
607.39012203087623
 20
-416.30285193803456
 30
0.0
 40
1.0000000023624649
100
AcDbArc
 50
266.99999964933039
 51
357.13166455388915
  0
LINE
  5
1D7
100
AcDbEntity
  8
ADF70-0009
370
              15
390
0
  6
Continuous
 62
               7
100
AcDbLine
 10
609.28515209713805
 20
-398.65156564221934
 30
0.0
 11
608.80967057340604
 21
-408.1415028067936
 31
0.0
  0
ARC
  5
1D8
100
AcDbEntity
  8
ADF70-0009
370
              15
390
0
  6
Continuous
 62
               7
100
AcDbCircle
 10
612.28139364089293
 20
-398.80168865241467
 30
0.0
 40
3.0000000511204234
100
AcDbArc
 50
89.999999175686014
 51
177.13166380005305
  0
LINE
  5
1D9
100
AcDbEntity
  8
ADF70-0009
370
              15
390
0
  6
Continuous
 62
               7
100
AcDbLine
 10
620.51792766516155
 20
-395.80168860129379
 30
0.0
 11
611.45960139417002
 21
-395.80168860129379
 31
0.0
  0
ARC
  5
1DA
100
AcDbEntity
  8
ADF70-0009
370
              15
390
0
  6
Continuous
 62
               7
100
AcDbCircle
 10
620.517927668021
 20
-398.8016886039627
 30
0.0
 40
3.0000000026729663
100
AcDbArc
 50
356.00000004686507
 51
90.000000054611462
  0
LINE
  5
1DB
100
AcDbEntity
  8
ADF70-0009
370
              15
390
0
  6
Continuous
 62
               7
100
AcDbLine
 10
607.87070603120083
 20
-542.82776251786572
 30
0.0
 11
623.5106198216381
 21
-399.01095802293366
 31
0.0
  0
LINE
  5
1DC
100
AcDbEntity
  8
ADF70-0009
370
              15
390
0
  6
Continuous
 62
               7
100
AcDbLine
 10
563.97037800127146
 20
-584.14809442191472
 30
0.0
 11
585.90018325495475
 21
-576.82776251786618
 31
0.0
  0
LINE
  5
1DD
100
AcDbEntity
  8
ADF70-0009
370
              15
390
0
  6
Continuous
 62
               7
100
AcDbLine
 10
551.55753922889562
 20
-590.75997448417274
 30
0.0
 11
555.52659162581404
 21
-587.42954408517471
 31
0.0
  0
ARC
  5
1DE
100
AcDbEntity
  8
ADF70-0009
370
              15
390
0
  6
Continuous
 62
               7
100
AcDbCircle
 10
548.34360116865719
 20
-586.92975228027854
 30
0.0
 40
4.999999998626663
100
AcDbArc
 50
270.00000012889979
 51
310.00000018981831
  0
LINE
  5
1DF
100
AcDbEntity
  8
ADF70-0009
370
              15
390
0
  6
Continuous
 62
               7
100
AcDbLine
 10
545.64972932869568
 20
-591.9297522789052
 30
0.0
 11
548.34360117990582
 21
-591.9297522789052
 31
0.0
  0
LINE
  5
1E0
100
AcDbEntity
  8
ADF70-0009
370
              15
390
0
  6
Continuous
 62
               7
100
AcDbLine
 10
545.55149500758125
 20
-591.9297522789052
 30
0.0
 11
545.64972932869568
 21
-591.9297522789052
 31
0.0
  0
LINE
  5
1E1
100
AcDbEntity
  8
ADF70-0009
370
              15
390
0
  6
Continuous
 62
               7
100
AcDbLine
 10
543.25066688817606
 20
-600.86553300341438
 30
0.0
 11
543.25066688817606
 21
-591.9297522789052
 31
0.0
  0
ARC
  5
1E2
100
AcDbEntity
  8
ADF70-0009
370
              15
390
0
  6
Continuous
 62
               7
100
AcDbCircle
 10
555.55766584574303
 20
-533.12208883085032
 30
0.0
 40
53.205772949598121
100
AcDbArc
 50
304.77018489027574
 51
349.48938536854922
  0
ARC
  5
1E3
100
AcDbEntity
  8
ADF70-0009
370
              15
390
0
  6
Continuous
 62
               7
100
AcDbCircle
 10
555.55766584574303
 20
-533.12208883085032
 30
0.0
 40
63.199999999998333
100
AcDbArc
 50
306.34842437676355
 51
349.48938536854877
  0
LINE
  5
1E4
100
AcDbEntity
  8
ADF70-0009
370
              15
390
0
  6
Continuous
 62
               7
100
AcDbLine
 10
591.74887097330065
 20
-522.83041997081591
 30
0.0
 11
597.52577992145234
 21
-433.57112263930367
 31
0.0
  0
ARC
  5
1E5
100
AcDbEntity
  8
ADF70-0009
370
              15
390
0
  6
Continuous
 62
               7
100
AcDbCircle
 10
556.03644971755421
 20
-519.98696118189173
 30
0.0
 40
45.80000000000063
100
AcDbArc
 50
288.89846424635363
 51
355.44765624349867
  0
ARC
  5
1E6
100
AcDbEntity
  8
ADF70-0009
370
              15
390
0
  6
Continuous
 62
               7
100
AcDbCircle
 10
575.32086982800683
 20
-581.528044178036
 30
0.0
 40
18.745857707006767
100
AcDbArc
 50
103.73281338299518
 51
122.07610869847782
  0
LWPOLYLINE
  5
1E7
100
AcDbEntity
  8
ADF70-0009
370
              15
390
0
  6
Continuous
 62
               7
100
AcDbPolyline
 90
       10
 70
             128
 10
701.60967822615203
 20
-451.72121991740914
 10
697.46887087959476
 20
-399.1072738908083
 42
-0.4374089726085513
 10
700.45962289609452
 20
-395.87189660431977
 10
706.74854247982148
 20
-395.87189660431977
 42
-0.414213562373095
 10
709.74854247982148
 20
-398.87189660431977
 10
709.74854247982148
 20
-458.7357525428838
 42
-0.3726311977788962
 10
707.17913160407625
 20
-461.704690561799
 42
-0.3726311977796593
 10
703.87214714304719
 20
-459.58801416161805
 10
701.72403489302815
 20
-452.33810427298977
 42
-0.0524265695234965
 10
701.60967822295788
 20
-451.72121992335906
  0
POLYLINE
  5
1E8
100
AcDbEntity
  8
ADF70-0009
370
              15
390
0
  6
Continuous
 62
               7
100
AcDb2dPolyline
 66
               1
 10
0.0
 20
0.0
 30
0.0
 70
               1
 75
               5
  0
VERTEX
  5
1E9
100
AcDbEntity
  8
ADF70-0009
370
              15
390
0
  6
Continuous
 62
               7
100
AcDbVertex
100
AcDb2dVertex
 10
-713.43617989593622
 20
-385.85241487180565
 30
0.0
  0
VERTEX
  5
1EA
100
AcDbEntity
  8
ADF70-0009
370
              15
390
0
  6
Continuous
 62
               7
100
AcDbVertex
100
AcDb2dVertex
 10
-213.43617989593622
 20
-385.85241487180565
 30
0.0
  0
VERTEX
  5
1EB
100
AcDbEntity
  8
ADF70-0009
370
              15
390
0
  6
Continuous
 62
               7
100
AcDbVertex
100
AcDb2dVertex
 10
-213.43617989593622
 20
-470.85241487180565
 30
0.0
  0
VERTEX
  5
1EC
100
AcDbEntity
  8
ADF70-0009
370
              15
390
0
  6
Continuous
 62
               7
100
AcDbVertex
100
AcDb2dVertex
 10
-713.43617989593622
 20
-470.85241487180565
 30
0.0
  0
SEQEND
  5
1ED
100
AcDbEntity
  8
ADF70-0009
370
              15
390
0
  6
Continuous
 62
               7
  0
ARC
  5
1EE
100
AcDbEntity
  8
ADF70-0009
370
              15
390
0
  6
Continuous
 62
               7
100
AcDbCircle
 10
-463.48602615224081
 20
-252.50772289010411
 30
0.0
 40
294.04367623932677
100
AcDbArc
 50
227.98479097830923
 51
312.01520902169182
  0
LINE
  5
1EF
100
AcDbEntity
  8
ADF70-0009
370
              15
390
0
  6
Continuous
 62
               7
100
AcDbLine
 10
-631.61095926963753
 20
-493.74555242894166
 30
0.0
 11
-608.31836792304239
 21
-575.81109873297191
 31
0.0
  0
LINE
  5
1F0
100
AcDbEntity
  8
ADF70-0009
370
              15
390
0
  6
Continuous
 62
               7
100
AcDbLine
 10
-295.15204529015318
 20
-493.59972695382794
 30
0.0
 11
-318.48602615224081
 21
-575.81109873297191
 31
0.0
  0
LINE
  5
1F1
100
AcDbEntity
  8
ADF70-0009
370
              15
390
0
  6
Continuous
 62
               7
100
AcDbLine
 10
-608.48602615224081
 20
-575.81109873297191
 30
0.0
 11
-318.48602615224081
 21
-575.81109873297191
 31
0.0
  0
POLYLINE
  5
1F2
100
AcDbEntity
  8
ADF70-0009
370
              15
390
0
  6
Continuous
 62
               7
100
AcDb2dPolyline
 66
               1
 10
0.0
 20
0.0
 30
0.0
 70
               1
 75
               5
  0
VERTEX
  5
1F3
100
AcDbEntity
  8
ADF70-0009
370
              15
390
0
  6
Continuous
 62
               7
100
AcDbVertex
100
AcDb2dVertex
 10
-492.48602615224081
 20
-575.81109873297191
 30
0.0
  0
VERTEX
  5
1F4
100
AcDbEntity
  8
ADF70-0009
370
              15
390
0
  6
Continuous
 62
               7
100
AcDbVertex
100
AcDb2dVertex
 10
-424.48602615224081
 20
-575.81109873297191
 30
0.0
  0
VERTEX
  5
1F5
100
AcDbEntity
  8
ADF70-0009
370
              15
390
0
  6
Continuous
 62
               7
100
AcDbVertex
100
AcDb2dVertex
 10
-424.48602615224081
 20
-600.81109873297191
 30
0.0
  0
VERTEX
  5
1F6
100
AcDbEntity
  8
ADF70-0009
370
              15
390
0
  6
Continuous
 62
               7
100
AcDbVertex
100
AcDb2dVertex
 10
-492.48602615224081
 20
-600.81109873297191
 30
0.0
  0
SEQEND
  5
1F7
100
AcDbEntity
  8
ADF70-0009
370
              15
390
0
  6
Continuous
 62
               7
  0
LINE
  5
1F8
100
AcDbEntity
  8
ADF70-0009
370
              15
390
0
  6
Continuous
 62
               7
100
AcDbLine
 10
250.05066688817169
 20
-385.82776251786618
 30
0.0
 11
605.69251395510219
 21
-385.76151473734535
 31
0.0
  0
LINE
  5
1F9
100
AcDbEntity
  8
ADF70-0009
370
              15
390
0
  6
Continuous
 62
               7
100
AcDbLine
 10
229.65882702336239
 20
-442.77189659607302
 30
0.0
 11
270.43410769534239
 21
-442.77189659607302
 31
0.0
  0
LINE
  5
1FA
100
AcDbEntity
  8
ADF70-0009
370
              15
390
0
  6
Continuous
 62
               7
100
AcDbLine
 10
229.65882702336239
 20
-452.77189659607302
 30
0.0
 11
276.6086857505652
 21
-452.77189659607302
 31
0.0
  0
LINE
  5
1FB
100
AcDbEntity
  8
ADF70-0009
370
              15
390
0
  6
Continuous
 62
               7
100
AcDbLine
 10
229.65882702336239
 20
-452.77189659607302
 30
0.0
 11
229.65882702336239
 21
-470.82776251786572
 31
0.0
  0
ARC
  5
1FC
100
AcDbEntity
  8
ADF70-0009
370
              15
390
0
  6
Continuous
 62
               7
100
AcDbCircle
 10
521.07407290650735
 20
-294.91856440858328
 30
0.0
 40
290.99999999999955
100
AcDbArc
 50
200.28969762484979
 51
210.53649305193517
  0
LINE
  5
1FD
100
AcDbEntity
  8
ADF70-0009
370
              15
390
0
  6
Continuous
 62
               7
100
AcDbLine
 10
495.26328120815015
 20
-600.82776251786618
 30
0.0
 11
495.26328120815015
 21
-566.54066747340767
 31
0.0
  0
ARC
  5
1FE
100
AcDbEntity
  8
ADF70-0009
370
              15
390
0
  6
Continuous
 62
               7
100
AcDbCircle
 10
388.62757330849126
 20
-939.11200564118235
 30
0.0
 40
386.33740730027392
100
AcDbArc
 50
75.72882204430293
 51
79.061872062458633
  0
ARC
  5
1FF
100
AcDbEntity
  8
ADF70-0009
370
              15
390
0
  6
Continuous
 62
               7
100
AcDbCircle
 10
388.62757330849126
 20
-939.11200564118235
 30
0.0
 40
396.30000000000115
100
AcDbArc
 50
75.728822044302788
 51
79.061872062458292
  0
ARC
  5
200
100
AcDbEntity
  8
ADF70-0009
370
              15
390
0
  6
Continuous
 62
               7
100
AcDbCircle
 10
547.18703926204762
 20
-510.46794162721244
 30
0.0
 40
46.244866917938609
100
AcDbArc
 50
286.44471192961078
 51
344.49476033272214
  0
ARC
  5
201
100
AcDbEntity
  8
ADF70-0009
370
              15
390
0
  6
Continuous
 62
               7
100
AcDbCircle
 10
571.22347226471902
 20
-615.31611744240945
 30
0.0
 40
32.000828667403994
100
AcDbArc
 50
103.10011876604473
 51
119.37442466268548
  0
LINE
  5
202
100
AcDbEntity
  8
ADF70-0009
370
              15
390
0
  6
STYLE_11
 62
               7
100
AcDbLine
 10
-533.43617989593622
 20
-405.90000000000009
 30
0.0
 11
-533.43617989593622
 21
-445.90000000000009
 31
0.0
  0
LINE
  5
203
100
AcDbEntity
  8
ADF70-0009
370
              15
390
0
  6
STYLE_11
 62
               7
100
AcDbLine
 10
-482.48602615224081
 20
-563.11690616363603
 30
0.0
 11
-482.48602615224081
 21
-598.85241487180701
 31
0.0
  0
LINE
  5
204
100
AcDbEntity
  8
ADF70-0009
370
              15
390
0
  6
STYLE_11
 62
               7
100
AcDbLine
 10
-496.6994926778134
 20
-551.05539064497407
 30
0.0
 11
-482.32513823584304
 21
-563.11690616363603
 31
0.0
  0
ARC
  5
205
100
AcDbEntity
  8
ADF70-0009
370
              15
390
0
  6
STYLE_11
 62
               7
100
AcDbCircle
 10
-471.6677768002628
 20
-359.0474787611538
 30
0.0
 40
193.63270649805139
100
AcDbArc
 50
189.239931890566
 51
262.5723460736931
  0
ARC
  5
206
100
AcDbEntity
  8
ADF70-0009
370
              15
390
0
  6
STYLE_11
 62
               7
100
AcDbCircle
 10
-667.77707742847269
 20
-390.85241487180565
 30
0.0
 40
5.000000000002581
100
AcDbArc
 50
8.1301023541478727
 51
90.0
  0
LINE
  5
207
100
AcDbEntity
  8
ADF70-0009
370
              15
390
0
  6
STYLE_11
 62
               7
100
AcDbLine
 10
-434.48602615224081
 20
-563.11690616363603
 30
0.0
 11
-434.48602615224081
 21
-598.85241487180701
 31
0.0
  0
LINE
  5
208
100
AcDbEntity
  8
ADF70-0009
370
              15
390
0
  6
STYLE_11
 62
               7
100
AcDbLine
 10
-420.27255962666095
 20
-551.05539064497407
 30
0.0
 11
-434.6469140686313
 21
-563.11690616363603
 31
0.0
  0
ARC
  5
209
100
AcDbEntity
  8
ADF70-0009
370
              15
390
0
  6
STYLE_11
 62
               7
100
AcDbCircle
 10
-445.30427550421155
 20
-359.0474787611538
 30
0.0
 40
193.63270649804829
100
AcDbArc
 50
277.42765392630685
 51
350.76006810943369
  0
ARC
  5
20A
100
AcDbEntity
  8
ADF70-0009
370
              15
390
0
  6
STYLE_11
 62
               7
100
AcDbCircle
 10
-249.19497487600893
 20
-390.85241487180565
 30
0.0
 40
5.0
100
AcDbArc
 50
90.0
 51
171.86989764584035
  0
ARC
  5
20B
100
AcDbEntity
  8
ADF70-0009
370
              15
390
0
  6
Continuous
 62
               7
100
AcDbCircle
 10
-463.3270075277178
 20
569.76377924194276
 30
0.0
 40
200.00000000000074
100
AcDbArc
 50
135.45011311570019
 51
44.549886884299816
  0
LINE
  5
20C
100
AcDbEntity
  8
ADF70-0009
370
              15
390
0
  6
Continuous
 62
               7
100
AcDbLine
 10
-605.85498831095902
 20
710.06978301174695
 30
0.0
 11
-320.79902674447658
 21
710.06978301174695
 31
0.0
  0
CIRCLE
  5
20D
100
AcDbEntity
  8
ADF70-0009
370
              15
390
0
  6
Continuous
 62
               7
100
AcDbCircle
 10
-463.47048848424311
 20
770.06978301174695
 30
0.0
 40
17.5
  0
LWPOLYLINE
  5
20E
100
AcDbEntity
  8
ADF70-0009
370
              15
390
0
  6
Continuous
 62
               7
100
AcDbPolyline
 90
        5
 70
             128
 10
-485.17027644097834
 20
630.03027936577473
 42
-0.4142135623731625
 10
-463.43617989593622
 20
651.76437591082367
 42
-0.414213562372997
 10
-441.70208335088682
 20
630.03027936577473
 42
-0.4142135623731257
 10
-463.43617989593622
 20
608.29618282072579
 42
-0.414213562373095
 10
-485.17027644097834
 20
630.03027936577473
  0
SPLINE
  5
20F
100
AcDbEntity
  8
ADF70-0009
370
              15
390
0
  6
Continuous
 62
               7
100
AcDbSpline
210
0.0
220
0.0
230
1.0
 70
               9
 71
               2
 72
              16
 73
              13
 74
               0
 42
0.000001
 43
0.000001
 40
0.0
 40
0.0
 40
0.0
 40
1.0
 40
2.0
 40
3.0
 40
4.0
 40
5.0
 40
6.0
 40
7.0
 40
8.0
 40
9.0
 40
10.0
 40
11.0
 40
11.0
 40
11.0
 10
-424.79778603807063
 20
640.38340579682517
 30
0.0
 10
-435.15091246912198
 20
658.31554679258898
 30
0.0
 10
-453.08305346488487
 20
668.66867322363942
 30
0.0
 10
-473.7893063269803
 20
668.66867322363942
 30
0.0
 10
-491.72144732275046
 20
658.31554679258898
 30
0.0
 10
-502.07457375379454
 20
640.38340579682517
 30
0.0
 10
-502.07457375379454
 20
619.67715293472429
 30
0.0
 10
-491.72144732275046
 20
601.74501193896072
 30
0.0
 10
-473.78930632698757
 20
591.39188550791027
 30
0.0
 10
-453.08305346488487
 20
591.39188550791005
 30
0.0
 10
-435.15091246912198
 20
601.74501193896049
 30
0.0
 10
-424.79778603807063
 20
619.67715293472406
 30
0.0
 10
-424.79778603807063
 20
640.38340579682517
 30
0.0
  0
LINE
  5
210
100
AcDbEntity
  8
ADF70-0009
370
               5
390
0
  6
STYLE_11
 62
               7
100
AcDbLine
 10
636.00548677072948
 20
748.18374627813978
 30
0.0
 11
636.00548677072948
 21
830.06978301174695
 31
0.0
  0
ARC
  5
211
100
AcDbEntity
  8
ADF70-0009
370
               5
390
0
  6
STYLE_11
 62
               7
100
AcDbCircle
 10
450.97117818243714
 20
580.0697830113952
 30
0.0
 40
250.00000000000051
100
AcDbArc
 50
137.71972662205079
 51
42.257739363640752
  0
LINE
  5
212
100
AcDbEntity
  8
ADF70-0009
370
               5
390
0
  6
STYLE_11
 62
               7
100
AcDbLine
 10
266.00548677072948
 20
830.06978301174695
 30
0.0
 11
266.00548677072948
 21
748.25923868739528
 31
0.0
  0
LINE
  5
213
100
AcDbEntity
  8
ADF70-0009
370
               5
390
0
  6
STYLE_11
 62
               7
100
AcDbLine
 10
265.97117818242259
 20
830.06978301174695
 30
0.0
 11
635.97117818242259
 21
830.06978301174695
 31
0.0
  0
ARC
  5
214
100
AcDbEntity
  8
ADF70-0009
370
               5
390
0
  6
STYLE_11
 62
               7
100
AcDbCircle
 10
451.1146591389479
 20
569.76377924194276
 30
0.0
 40
200.00000000000074
100
AcDbArc
 50
135.45011311570019
 51
44.549886884299724
  0
LINE
  5
215
100
AcDbEntity
  8
ADF70-0009
370
               5
390
0
  6
STYLE_11
 62
               7
100
AcDbLine
 10
308.58667835570668
 20
710.06978301174695
 30
0.0
 11
593.64263992218912
 21
710.06978301174695
 31
0.0
  0
CIRCLE
  5
216
100
AcDbEntity
  8
ADF70-0009
370
               5
390
0
  6
STYLE_11
 62
               7
100
AcDbCircle
 10
450.97117818242259
 20
770.06978301174695
 30
0.0
 40
18.0
  0
LWPOLYLINE
  5
217
100
AcDbEntity
  8
ADF70-0009
370
               5
390
0
  6
STYLE_11
 62
               7
100
AcDbPolyline
 90
        5
 70
             128
 10
429.27139022568008
 20
630.03027936577473
 42
-0.4142135623731625
 10
451.00548677072948
 20
651.76437591082367
 42
-0.414213562372997
 10
472.73958331577887
 20
630.03027936577473
 42
-0.4142135623731257
 10
451.00548677072948
 20
608.29618282072579
 42
-0.414213562373095
 10
429.27139022568008
 20
630.03027936577473
  0
LINE
  5
218
100
AcDbEntity
  8
ADF70-0009
370
              15
390
0
  6
Continuous
 62
               7
100
AcDbLine
 10
742.14268115360028
 20
830.06978301174695
 30
0.0
 11
142.14268115360028
 21
830.06978301174695
 31
0.0
  0
LINE
  5
219
100
AcDbEntity
  8
ADF70-0009
370
              15
390
0
  6
Continuous
 62
               7
100
AcDbLine
 10
636.9153260376188
 20
830.06978301174695
 30
0.0
 11
672.9153260376188
 21
866.06978301174695
 31
0.0
  0
LINE
  5
21A
100
AcDbEntity
  8
ADF70-0009
370
              15
390
0
  6
Continuous
 62
               7
100
AcDbLine
 10
656.9153260376188
 20
830.06978301174695
 30
0.0
 11
692.9153260376188
 21
866.06978301174695
 31
0.0
  0
LINE
  5
21B
100
AcDbEntity
  8
ADF70-0009
370
              15
390
0
  6
Continuous
 62
               7
100
AcDbLine
 10
676.9153260376188
 20
830.06978301174695
 30
0.0
 11
712.9153260376188
 21
866.06978301174695
 31
0.0
  0
LINE
  5
21C
100
AcDbEntity
  8
ADF70-0009
370
              15
390
0
  6
Continuous
 62
               7
100
AcDbLine
 10
-280.93617989593622
 20
750.96820739748409
 30
0.0
 11
-280.93617989593622
 21
830.06978301174695
 31
0.0
  0
LINE
  5
21D
100
AcDbEntity
  8
ADF70-0009
370
              15
390
0
  6
Continuous
 62
               7
100
AcDbLine
 10
-645.93617989593622
 20
830.06978301174695
 30
0.0
 11
-645.93617989593622
 21
751.04113275517898
 31
0.0
  0
LINE
  5
21E
100
AcDbEntity
  8
ADF70-0009
370
              15
390
0
  6
STYLE_11
 62
               7
100
AcDbLine
 10
-553.43617989593622
 20
-425.90000000000009
 30
0.0
 11
-513.43617989593622
 21
-425.90000000000009
 31
0.0
  0
CIRCLE
  5
21F
100
AcDbEntity
  8
ADF70-0009
370
              15
390
0
  6
STYLE_11
 62
               7
100
AcDbCircle
 10
-533.43617989593622
 20
-425.85241487180701
 30
0.0
 40
10.00000000000454
  0
LINE
  5
220
100
AcDbEntity
  8
ADF70-0009
370
              15
390
0
  6
STYLE_11
 62
               7
100
AcDbLine
 10
-393.43617989593622
 20
-405.90000000000009
 30
0.0
 11
-393.43617989593622
 21
-445.90000000000009
 31
0.0
  0
LINE
  5
221
100
AcDbEntity
  8
ADF70-0009
370
              15
390
0
  6
STYLE_11
 62
               7
100
AcDbLine
 10
-413.43617989593622
 20
-425.90000000000009
 30
0.0
 11
-373.43617989593622
 21
-425.90000000000009
 31
0.0
  0
CIRCLE
  5
222
100
AcDbEntity
  8
ADF70-0009
370
              15
390
0
  6
STYLE_11
 62
               7
100
AcDbCircle
 10
-393.43617989593622
 20
-425.85241487180701
 30
0.0
 40
10.00000000000454
  0
POLYLINE
  5
223
100
AcDbEntity
  8
ADF70-0009
370
               5
390
0
  6
Continuous
 62
               7
100
AcDb2dPolyline
 66
               1
 10
0.0
 20
0.0
 30
0.0
 70
               1
 75
               5
  0
VERTEX
  5
224
100
AcDbEntity
  8
ADF70-0009
370
               5
390
0
  6
Continuous
 62
               7
100
AcDbVertex
100
AcDb2dVertex
 10
345.97117818242259
 20
830.06978301174695
 30
0.0
  0
VERTEX
  5
225
100
AcDbEntity
  8
ADF70-0009
370
               5
390
0
  6
Continuous
 62
               7
100
AcDbVertex
100
AcDb2dVertex
 10
555.97117818242259
 20
830.06978301174695
 30
0.0
  0
VERTEX
  5
226
100
AcDbEntity
  8
ADF70-0009
370
               5
390
0
  6
Continuous
 62
               7
100
AcDbVertex
100
AcDb2dVertex
 10
555.97117818242259
 20
580.06978301174695
 30
0.0
  0
VERTEX
  5
227
100
AcDbEntity
  8
ADF70-0009
370
               5
390
0
  6
Continuous
 62
               7
100
AcDbVertex
100
AcDb2dVertex
 10
345.97117818242259
 20
580.06978301174695
 30
0.0
  0
SEQEND
  5
228
100
AcDbEntity
  8
ADF70-0009
370
               5
390
0
  6
Continuous
 62
               7
  0
ENDSEC
  0
SECTION
  2
OBJECTS
  0
DICTIONARY
  5
19
100
AcDbDictionary
280
               0
281
               1
  3
ACAD_GROUP
350
1A
  3
ACAD_MLINESTYLE
350
1B
  3
ACAD_LAYOUT
350
1E
  3
ACAD_PLOTSETTINGS
350
22
  3
ACAD_PLOTSTYLENAME
350
1F
  0
DICTIONARY
  5
1A
102
{ACAD_REACTORS
330
19
102
}
100
AcDbDictionary
280
               0
281
               1
  0
DICTIONARY
  5
1B
102
{ACAD_REACTORS
330
19
102
}
100
AcDbDictionary
280
               0
281
               1
  3
Standard
350
1C
  0
MLINESTYLE
  5
1C
102
{ACAD_REACTORS
330
1B
102
}
100
AcDbMlineStyle
  2
Standard
 70
               0
  3

 62
               0
 51
90.0
 52
90.0
 71
               2
 49
0.5
 62
             256
  6
ByLayer
 49
-0.5
 62
             256
  6
ByLayer
  0
ACDBDICTIONARYWDFLT
  5
1F
102
{ACAD_REACTORS
330
19
102
}
100
AcDbDictionary
281
               1
  3
Normal
350
1D
100
AcDbDictionaryWithDefault
340
1D
  0
ACDBPLACEHOLDER
  5
1D
102
{ACAD_REACTORS
330
1F
102
}
  0
LAYOUT
  5
20
102
{ACAD_REACTORS
330
1E
102
}
100
AcDbPlotSettings
  1

  2

  4

  6

 40
0.0
 41
0.0
 42
0.0
 43
0.0
 44
0.0
 45
0.0
 46
0.0
 47
0.0
 48
0.0
 49
0.0
140
0.0
141
0.0
142
1.0
143
1.0
 70
            1024
 72
               0
 73
               0
 74
               0
  7

 75
               0
147
1.0
148
0.0
149
0.0
100
AcDbLayout
  1
Model
 70
               0
 71
               0
 10
0.0
 20
0.0
 11
0.0
 21
0.0
 12
0.0
 22
0.0
 32
0.0
 14
0.0
 24
0.0
 34
0.0
 15
0.0
 25
0.0
 35
0.0
146
0.0
 13
0.0
 23
0.0
 33
0.0
 16
0.0
 26
0.0
 36
0.0
 17
0.0
 27
0.0
 37
0.0
 76
               0
330
A
331
0
345
0
346
0
  0
LAYOUT
  5
21
102
{ACAD_REACTORS
330
1E
102
}
100
AcDbPlotSettings
  1

  2

  4

  6

 40
0.0
 41
0.0
 42
0.0
 43
0.0
 44
0.0
 45
0.0
 46
0.0
 47
0.0
 48
0.0
 49
0.0
140
0.0
141
0.0
142
1.0
143
1.0
 70
               0
 72
               0
 73
               0
 74
               0
  7

 75
               0
147
1.0
148
0.0
149
0.0
100
AcDbLayout
  1
Layout1
 70
               0
 71
               0
 10
0.0
 20
0.0
 11
0.0
 21
0.0
 12
0.0
 22
0.0
 32
0.0
 14
0.0
 24
0.0
 34
0.0
 15
0.0
 25
0.0
 35
0.0
146
0.0
 13
0.0
 23
0.0
 33
0.0
 16
0.0
 26
0.0
 36
0.0
 17
0.0
 27
0.0
 37
0.0
 76
               0
330
B
331
0
345
0
346
0
  0
DICTIONARY
  5
1E
102
{ACAD_REACTORS
330
19
102
}
100
AcDbDictionary
280
               0
281
               1
  3
Layout1
350
21
  3
Model
350
20
  0
DICTIONARY
  5
22
102
{ACAD_REACTORS
330
19
102
}
100
AcDbDictionary
280
               0
281
               1
  0
ENDSEC
  0
EOF
