  0
SECTION
  2
HEADER
  9
$ACADVER
  1
AC1015
  9
$ACADMAINTVER
 70
               6
  9
$DWGCODEPAGE
  3
ANSI_932
  9
$INSBASE
 10
0.0
 20
0.0
 30
0.0
  9
$EXTMIN
 10
-975.00000000024136
 20
-1431.5255224711129
 30
-14.834305555555554
  9
$EXTMAX
 10
975.00000000024124
 20
1405.9972926412995
 30
14.834305555555554
  9
$LIMMIN
 10
0.0
 20
0.0
  9
$LIMMAX
 10
0.0
 20
0.0
  9
$ORTHOMODE
 70
               0
  9
$REGENMODE
 70
               1
  9
$FILLMODE
 70
               1
  9
$QTEXTMODE
 70
               0
  9
$MIRRTEXT
 70
               1
  9
$LTSCALE
 40
50.799999999999997
  9
$ATTMODE
 70
               1
  9
$TEXTSIZE
 40
0.2
  9
$TRACEWID
 40
1.0
  9
$TEXTSTYLE
  7
Standard
  9
$CLAYER
  8
template
  9
$CELTYPE
  6
Continuous
  9
$CECOLOR
 62
             256
  9
$CELTSCALE
 40
1.0
  9
$DISPSILH
 70
               0
  9
$DIMSCALE
 40
1.0
  9
$DIMASZ
 40
31.75
  9
$DIMEXO
 40
0.0
  9
$DIMDLI
 40
6.9999999999999396
  9
$DIMRND
 40
0.0
  9
$DIMDLE
 40
0.0
  9
$DIMEXE
 40
19.999999999996199
  9
$DIMTP
 40
0.0
  9
$DIMTM
 40
0.0
  9
$DIMTXT
 40
24.432617187500004
  9
$DIMCEN
 40
0.0
  9
$DIMTSZ
 40
0.0
  9
$DIMTOL
 70
               0
  9
$DIMLIM
 70
               0
  9
$DIMTIH
 70
               0
  9
$DIMTOH
 70
               0
  9
$DIMSE1
 70
               0
  9
$DIMSE2
 70
               0
  9
$DIMTAD
 70
               1
  9
$DIMZIN
 70
              11
  9
$DIMBLK
  1
VW_FILLEDARROW
  9
$DIMASO
 70
               1
  9
$DIMSHO
 70
               1
  9
$DIMPOST
  1
<>
  9
$DIMAPOST
  1
[]
  9
$DIMALT
 70
               0
  9
$DIMALTD
 70
               1
  9
$DIMALTF
 40
1.0
  9
$DIMLFAC
 40
1.0
  9
$DIMTOFL
 70
               0
  9
$DIMTVP
 40
0.0
  9
$DIMTIX
 70
               1
  9
$DIMSOXD
 70
               0
  9
$DIMSAH
 70
               0
  9
$DIMBLK1
  1

  9
$DIMBLK2
  1

  9
$DIMSTYLE
  2
JIS
  9
$DIMCLRD
 70
               0
  9
$DIMCLRE
 70
               0
  9
$DIMCLRT
 70
               0
  9
$DIMTFAC
 40
1.0
  9
$DIMGAP
 40
1.00000000000108
  9
$DIMJUST
 70
               0
  9
$DIMSD1
 70
               0
  9
$DIMSD2
 70
               0
  9
$DIMTOLJ
 70
               1
  9
$DIMTZIN
 70
              11
  9
$DIMALTZ
 70
              11
  9
$DIMALTTZ
 70
              11
  9
$DIMUPT
 70
               0
  9
$DIMDEC
 70
               1
  9
$DIMTDEC
 70
               1
  9
$DIMALTU
 70
               2
  9
$DIMALTTD
 70
               2
  9
$DIMTXSTY
  7
ＭＳ ゴシック
  9
$DIMAUNIT
 70
               0
  9
$DIMADEC
 70
               2
  9
$DIMALTRND
 40
0.0
  9
$DIMAZIN
 70
               0
  9
$DIMDSEP
 70
              46
  9
$DIMATFIT
 70
               0
  9
$DIMFRAC
 70
               2
  9
$DIMLDRBLK
  1

  9
$DIMLUNIT
 70
               2
  9
$DIMLWD
 70
              -2
  9
$DIMLWE
 70
              -2
  9
$DIMTMOVE
 70
               0
  9
$LUNITS
 70
               2
  9
$LUPREC
 70
               4
  9
$SKETCHINC
 40
0.1
  9
$FILLETRAD
 40
0.0
  9
$AUNITS
 70
               0
  9
$AUPREC
 70
               0
  9
$MENU
  1
acad
  9
$ELEVATION
 40
0.0
  9
$PELEVATION
 40
0.0
  9
$THICKNESS
 40
0.0
  9
$LIMCHECK
 70
               0
  9
$CHAMFERA
 40
0.0
  9
$CHAMFERB
 40
0.0
  9
$CHAMFERC
 40
0.0
  9
$CHAMFERD
 40
0.0
  9
$SKPOLY
 70
               0
  9
$TDCREATE
 40
2455995.587476852
  9
$TDUCREATE
 40
0.000000000
  9
$TDUPDATE
 40
2455995.587476852
  9
$TDUUPDATE
 40
0.000000000
  9
$TDINDWG
 40
0.0000000000
  9
$TDUSRTIMER
 40
0.0000000000
  9
$USRTIMER
 70
               1
  9
$ANGBASE
 50
0.0
  9
$ANGDIR
 70
               0
  9
$PDMODE
 70
               1
  9
$PDSIZE
 40
-2.0
  9
$PLINEWID
 40
0.0
  9
$SPLFRAME
 70
               0
  9
$SPLINETYPE
 70
               6
  9
$SPLINESEGS
 70
               8
  9
$HANDSEED
  5
24D
  9
$SURFTAB1
 70
               6
  9
$SURFTAB2
 70
               6
  9
$SURFTYPE
 70
               6
  9
$SURFU
 70
               6
  9
$SURFV
 70
               6
  9
$UCSBASE
  2

  9
$UCSNAME
  2

  9
$UCSORG
 10
0.0
 20
0.0
 30
0.0
  9
$UCSXDIR
 10
1.0
 20
0.0
 30
0.0
  9
$UCSYDIR
 10
0.0
 20
1.0
 30
0.0
  9
$UCSORTHOREF
  2

  9
$UCSORTHOVIEW
 70
               0
  9
$UCSORGTOP
 10
0.0
 20
0.0
 30
0.0
  9
$UCSORGBOTTOM
 10
0.0
 20
0.0
 30
0.0
  9
$UCSORGLEFT
 10
0.0
 20
0.0
 30
0.0
  9
$UCSORGRIGHT
 10
0.0
 20
0.0
 30
0.0
  9
$UCSORGFRONT
 10
0.0
 20
0.0
 30
0.0
  9
$UCSORGBACK
 10
0.0
 20
0.0
 30
0.0
  9
$PUCSBASE
  2

  9
$PUCSNAME
  2

  9
$PUCSORG
 10
0.0
 20
0.0
 30
0.0
  9
$PUCSXDIR
 10
1.0
 20
0.0
 30
0.0
  9
$PUCSYDIR
 10
0.0
 20
1.0
 30
0.0
  9
$PUCSORTHOREF
  2

  9
$PUCSORTHOVIEW
 70
               0
  9
$PUCSORGTOP
 10
0.0
 20
0.0
 30
0.0
  9
$PUCSORGBOTTOM
 10
0.0
 20
0.0
 30
0.0
  9
$PUCSORGLEFT
 10
0.0
 20
0.0
 30
0.0
  9
$PUCSORGRIGHT
 10
0.0
 20
0.0
 30
0.0
  9
$PUCSORGFRONT
 10
0.0
 20
0.0
 30
0.0
  9
$PUCSORGBACK
 10
0.0
 20
0.0
 30
0.0
  9
$USERI1
 70
               0
  9
$USERI2
 70
               0
  9
$USERI3
 70
               0
  9
$USERI4
 70
               0
  9
$USERI5
 70
               0
  9
$USERR1
 40
0.0
  9
$USERR2
 40
0.0
  9
$USERR3
 40
0.0
  9
$USERR4
 40
0.0
  9
$USERR5
 40
0.0
  9
$WORLDVIEW
 70
               1
  9
$SHADEDGE
 70
               3
  9
$SHADEDIF
 70
              70
  9
$TILEMODE
 70
               1
  9
$MAXACTVP
 70
              64
  9
$PINSBASE
 10
0.0
 20
0.0
 30
0.0
  9
$PLIMCHECK
 70
               0
  9
$PEXTMIN
 10
1.0000000000000000E+20
 20
1.0000000000000000E+20
 30
1.0000000000000000E+20
  9
$PEXTMAX
 10
-1.0000000000000000E+20
 20
-1.0000000000000000E+20
 30
-1.0000000000000000E+20
  9
$PLIMMIN
 10
0.0
 20
0.0
  9
$PLIMMAX
 10
12.0
 20
9.0
  9
$UNITMODE
 70
               0
  9
$VISRETAIN
 70
               0
  9
$PLINEGEN
 70
               1
  9
$PSLTSCALE
 70
               0
  9
$TREEDEPTH
 70
            3020
  9
$CMLSTYLE
  2
Standard
  9
$CMLJUST
 70
               0
  9
$CMLSCALE
 40
1.0
  9
$PROXYGRAPHICS
 70
               0
  9
$MEASUREMENT
 70
               1
  9
$CELWEIGHT
370
               0
  9
$ENDCAPS
280
               0
  9
$JOINSTYLE
280
               0
  9
$LWDISPLAY
290
               1
  9
$INSUNITS
 70
               4
  9
$HYPERLINKBASE
  1

  9
$STYLESHEET
  1

  9
$XEDIT
290
               1
  9
$CEPSNTYPE
380
               0
  9
$PSTYLEMODE
290
               1
  9
$FINGERPRINTGUID
  2

  9
$VERSIONGUID
  2

  9
$EXTNAMES
290
               1
  9
$PSVPSCALE
 40
0.0
  0
ENDSEC
  0
SECTION
  2
CLASSES
  0
CLASS
  1
LWPOLYLINE
  2
AcDbPolyline
  3
AutoCAD 2000
 90
        0
280
               0
281
               1
  0
CLASS
  1
IMAGE
  2
AcDbRasterImage
  3
ISM
 90
      127
280
               0
281
               1
  0
CLASS
  1
OLE2FRAME
  2
AcDbOle2Frame
  3
AutoCAD 2000
 90
        0
280
               0
281
               1
  0
CLASS
  1
HATCH
  2
AcDbHatch
  3
AutoCAD 2000
 90
        0
280
               0
281
               1
  0
CLASS
  1
DICTIONARYVAR
  2
AcDbDictionaryVar
  3
AutoCAD 2000
 90
        0
280
               0
281
               0
  0
CLASS
  1
RASTERVARIABLES
  2
AcDbRasterVariables
  3
ISM
 90
        0
280
               0
281
               0
  0
CLASS
  1
IMAGEDEF
  2
AcDbRasterImageDef
  3
ISM
 90
        0
280
               0
281
               0
  0
CLASS
  1
IMAGEDEF_REACTOR
  2
AcDbRasterImageDefReactor
  3
ISM
 90
        1
280
               0
281
               0
  0
CLASS
  1
IDBUFFER
  2
AcDbIdBuffer
  3
AutoCAD 2000
 90
        0
280
               0
281
               0
  0
CLASS
  1
SPATIAL_FILTER
  2
AcDbSpatialFilter
  3
AutoCAD 2000
 90
        0
280
               0
281
               0
  0
CLASS
  1
XRECORD
  2
AcDbXrecord
  3
AutoCAD 2000
 90
        0
280
               0
281
               0
  0
CLASS
  1
SORTENTSTABLE
  2
AcDbSortentsTable
  3
AutoCAD 2000
 90
        0
280
               0
281
               0
  0
CLASS
  1
LAYER_INDEX
  2
AcDbLayerIndex
  3
AutoCAD 2000
 90
        0
280
               0
281
               0
  0
CLASS
  1
SPATIAL_INDEX
  2
AcDbSpatialIndex
  3
AutoCAD 2000
 90
        0
280
               0
281
               0
  0
CLASS
  1
OBJECT_PTR
  2
CAseDLPNTableRecord
  3
"ASE-LPNTableRecord"
 90
        1
280
               0
281
               0
  0
CLASS
  1
LAYOUT
  2
AcDbLayout
  3
AutoCAD 2000
 90
        0
280
               0
281
               0
  0
CLASS
  1
PLOTSETTINGS
  2
AcDbPlotSettings
  3
AutoCAD 2000
 90
        0
280
               0
281
               0
  0
CLASS
  1
ACDBDICTIONARYWDFLT
  2
AcDbDictionaryWithDefault
  3
AutoCAD 2000
 90
        0
280
               0
281
               0
  0
CLASS
  1
ACDBPLACEHOLDER
  2
AcDbPlaceHolder
  3
AutoCAD 2000
 90
        0
280
               0
281
               0
  0
ENDSEC
  0
SECTION
  2
TABLES
  0
TABLE
  2
VPORT
  5
7
100
AcDbSymbolTable
 70
               1
  0
VPORT
  5
15
100
AcDbSymbolTableRecord
100
AcDbViewportTableRecord
  2
*ACTIVE
 70
               0
 10
0.0
 20
0.0
 11
1.0
 21
1.0
 12
-0.0000000000001137
 22
-12.764114914906713
 13
0.0
 23
0.0
 14
1.0
 24
1.0
 15
0.0
 25
0.0
 16
0.0
 26
0.0
 36
1.0
 17
0.0
 27
0.0
 37
0.0
 40
2837.5228151124124
 41
0.688564
 42
50.0
 43
0.0
 44
0.0
 50
0.0
 51
0.0
 71
               0
 72
            2000
 73
               1
 74
               1
 75
               0
 76
               0
 77
               0
 78
               0
281
               0
 65
               0
110
0.0
120
0.0
130
0.0
111
1.0
121
0.0
131
0.0
112
0.0
122
1.0
132
0.0
345
0
346
0
 79
               0
146
0.0
  0
ENDTAB
  0
TABLE
  2
LTYPE
  5
4
100
AcDbSymbolTable
 70
              16
  0
LTYPE
  5
11
100
AcDbSymbolTableRecord
100
AcDbLinetypeTableRecord
  2
ByBlock
 70
              64
  3

 72
              65
 73
               0
 40
0.0
  0
LTYPE
  5
12
100
AcDbSymbolTableRecord
100
AcDbLinetypeTableRecord
  2
ByLayer
 70
              64
  3

 72
              65
 73
               0
 40
0.0
  0
LTYPE
  5
13
100
AcDbSymbolTableRecord
100
AcDbLinetypeTableRecord
  2
Continuous
 70
              64
  3
Solid line
 72
              65
 73
               0
 40
0.0
  0
LTYPE
  5
3E
100
AcDbSymbolTableRecord
100
AcDbLinetypeTableRecord
  2
STYLE_01
 70
               0
  3

 72
              65
 73
               2
 40
0.3690944881889764
 49
0.2460629921259843
 74
               0
 49
-0.1230314960629922
 74
               0
  0
LTYPE
  5
3F
100
AcDbSymbolTableRecord
100
AcDbLinetypeTableRecord
  2
STYLE_02
 70
               0
  3

 72
              65
 73
               2
 40
0.6944250000000001
 49
0.48607
 74
               0
 49
-0.2083550000000001
 74
               0
  0
LTYPE
  5
40
100
AcDbSymbolTableRecord
100
AcDbLinetypeTableRecord
  2
STYLE_03
 70
               0
  3

 72
              65
 73
               2
 40
1.25
 49
1.0416400000000001
 74
               0
 49
-0.2083599999999999
 74
               0
  0
LTYPE
  5
41
100
AcDbSymbolTableRecord
100
AcDbLinetypeTableRecord
  2
STYLE_04
 70
               0
  3

 72
              65
 73
               2
 40
1.5277099999999999
 49
1.3194249999999998
 74
               0
 49
-0.208285
 74
               0
  0
LTYPE
  5
42
100
AcDbSymbolTableRecord
100
AcDbLinetypeTableRecord
  2
STYLE_05
 70
               0
  3

 72
              65
 73
               2
 40
0.20828
 49
0.069425
 74
               0
 49
-0.138855
 74
               0
  0
LTYPE
  5
43
100
AcDbSymbolTableRecord
100
AcDbLinetypeTableRecord
  2
STYLE_06
 70
               0
  3

 72
              65
 73
               4
 40
1.0416400000000001
 49
0.625
 74
               0
 49
-0.20828
 74
               0
 49
0.06943
 74
               0
 49
-0.13893
 74
               0
  0
LTYPE
  5
44
100
AcDbSymbolTableRecord
100
AcDbLinetypeTableRecord
  2
STYLE_07
 70
               0
  3

 72
              65
 73
               6
 40
1.875
 49
0.625
 74
               0
 49
-0.20828
 74
               0
 49
0.6250000000000001
 74
               0
 49
-0.2083599999999999
 74
               0
 49
0.06943
 74
               0
 49
-0.1389299999999999
 74
               0
  0
LTYPE
  5
45
100
AcDbSymbolTableRecord
100
AcDbLinetypeTableRecord
  2
STYLE_08
 70
               0
  3

 72
              65
 73
               6
 40
1.25
 49
0.625
 74
               0
 49
-0.20828
 74
               0
 49
0.06943
 74
               0
 49
-0.13893
 74
               0
 49
0.0694299999999999
 74
               0
 49
-0.13893
 74
               0
  0
LTYPE
  5
46
100
AcDbSymbolTableRecord
100
AcDbLinetypeTableRecord
  2
STYLE_09
 70
               0
  3

 72
              65
 73
               4
 40
5.0
 49
3.75
 74
               0
 49
-0.2777849999999998
 74
               0
 49
0.6944300000000003
 74
               0
 49
-0.2777849999999998
 74
               0
  0
LTYPE
  5
47
100
AcDbSymbolTableRecord
100
AcDbLinetypeTableRecord
  2
STYLE_10
 70
               0
  3

 72
              65
 73
               6
 40
5.9375
 49
3.75
 74
               0
 49
-0.2777849999999998
 74
               0
 49
0.6944300000000003
 74
               0
 49
-0.2777849999999998
 74
               0
 49
0.625
 74
               0
 49
-0.3125
 74
               0
  0
LTYPE
  5
48
100
AcDbSymbolTableRecord
100
AcDbLinetypeTableRecord
  2
STYLE_11
 70
               0
  3

 72
              65
 73
               2
 40
0.516732283464567
 49
0.344488188976378
 74
               0
 49
-0.172244094488189
 74
               0
  0
LTYPE
  5
49
100
AcDbSymbolTableRecord
100
AcDbLinetypeTableRecord
  2
STYLE_12
 70
               0
  3

 72
              65
 73
               2
 40
0.0694444881889764
 49
0.0347222440944882
 74
               0
 49
-0.0347222440944882
 74
               0
  0
LTYPE
  5
4A
100
AcDbSymbolTableRecord
100
AcDbLinetypeTableRecord
  2
STYLE_13
 70
               0
  3

 72
              65
 73
               2
 40
0.3937007874015748
 49
0.1968503937007874
 74
               0
 49
-0.1968503937007874
 74
               0
  0
ENDTAB
  0
TABLE
  2
LAYER
  5
2
100
AcDbSymbolTable
 70
               5
  0
LAYER
  5
14
100
AcDbSymbolTableRecord
100
AcDbLayerTableRecord
  2
0
 70
               0
 62
               7
  6
Continuous
290
               1
370
              -3
390
1D
  0
LAYER
  5
4B
100
AcDbSymbolTableRecord
100
AcDbLayerTableRecord
  2
Defpoints
 70
               0
 62
               7
  6
Continuous
290
               0
370
              -3
390
1D
  0
LAYER
  5
4C
100
AcDbSymbolTableRecord
100
AcDbLayerTableRecord
  2
template
 70
               0
 62
               7
  6
Continuous
290
               1
370
              -3
390
1D
  0
LAYER
  5
4D
100
AcDbSymbolTableRecord
100
AcDbLayerTableRecord
  2
notes
 70
               0
 62
               7
  6
Continuous
290
               1
370
              -3
390
1D
  0
LAYER
  5
4E
100
AcDbSymbolTableRecord
100
AcDbLayerTableRecord
  2
ADF70-0010
 70
               0
 62
               7
  6
Continuous
290
               1
370
              -3
390
1D
  0
ENDTAB
  0
TABLE
  2
STYLE
  5
3
100
AcDbSymbolTable
 70
               2
  0
STYLE
  5
17
100
AcDbSymbolTableRecord
100
AcDbTextStyleTableRecord
  2
Standard
 70
               0
 40
0.0
 41
1.0
 50
0.0
 71
               0
 42
0.0
  3
txt
  4
BIGFONT.SHX
  0
STYLE
  5
3D
100
AcDbSymbolTableRecord
100
AcDbTextStyleTableRecord
  2
ＭＳ ゴシック
 70
               0
 40
0.0
 41
1.0
 50
0.0
 71
               0
 42
0.0
  3

  4
ＭＳ ゴシック
1001
ACAD
1000
ＭＳ ゴシック
1071
        0
  0
ENDTAB
  0
TABLE
  2
VIEW
  5
5
100
AcDbSymbolTable
 70
               0
  0
ENDTAB
  0
TABLE
  2
UCS
  5
6
100
AcDbSymbolTable
 70
               0
  0
ENDTAB
  0
TABLE
  2
APPID
  5
8
100
AcDbSymbolTable
 70
               1
  0
APPID
  5
16
100
AcDbSymbolTableRecord
100
AcDbRegAppTableRecord
  2
ACAD
 70
               0
  0
ENDTAB
  0
TABLE
  2
DIMSTYLE
  5
9
100
AcDbSymbolTable
 70
               4
100
AcDbDimStyleTable
 71
               0
  0
DIMSTYLE
105
18
100
AcDbSymbolTableRecord
100
AcDbDimStyleTableRecord
  2
Standard
 70
               0
  3

  4

 40
1.0
 41
0.18
 42
0.0625
 43
0.38
 44
0.18
 45
0.0
 46
0.0
 47
0.0
 48
0.0
 71
               0
 72
               0
 73
               1
 74
               1
 75
               0
 76
               0
 77
               0
 78
               0
 79
               0
140
0.18
141
0.09
142
0.0
143
25.399999999999999
144
1.0
145
0.0
146
1.0
147
0.09
148
0.0
170
               0
171
               2
172
               0
173
               0
174
               0
175
               0
176
               0
177
               0
178
               0
179
               0
271
               4
272
               4
273
               2
274
               2
275
               0
276
               0
277
               2
278
              46
279
               0
280
               0
281
               0
282
               0
283
               1
284
               0
285
               0
286
               0
288
               0
289
               3
340
17
341
0
342
0
343
0
344
0
371
              -2
372
              -2
  0
DIMSTYLE
105
57
100
AcDbSymbolTableRecord
100
AcDbDimStyleTableRecord
  2
tfrom線あり
 70
               0
  3
<>
  4
[]
 40
1.0
 41
3.999755859375
 42
24.999999999999996
 43
0.9999999999999999
 44
0.0
 45
0.0
 46
0.0
 47
0.0
 48
0.0
 71
               0
 72
               0
 73
               0
 74
               0
 75
               0
 76
               0
 77
               1
 78
              11
 79
               0
140
24.432617187500004
141
0.0
142
0.0
143
1.0
144
1.0
145
0.0
146
1.0
147
0.4999999999999999
148
0.0
170
               0
171
               1
172
               0
173
               0
174
               1
175
               0
176
               0
177
               0
178
               0
179
               2
271
               1
272
               1
273
               2
274
               2
275
               0
276
               2
277
               2
278
              46
279
               0
280
               0
281
               0
282
               0
283
               1
284
              11
285
              11
286
              11
288
               0
289
               0
340
3D
341
4F
342
4F
343
0
344
0
371
              -2
372
              -2
  0
DIMSTYLE
105
58
100
AcDbSymbolTableRecord
100
AcDbDimStyleTableRecord
  2
tform線あり
 70
               0
  3
<>
  4
[]
 40
1.0
 41
3.999755859375
 42
24.999999999999996
 43
0.9999999999999999
 44
0.0
 45
0.0
 46
0.0
 47
0.0
 48
0.0
 71
               0
 72
               0
 73
               0
 74
               0
 75
               0
 76
               0
 77
               1
 78
              11
 79
               0
140
24.432617187500004
141
0.0
142
0.0
143
1.0
144
1.0
145
0.0
146
1.0
147
0.4999999999999999
148
0.0
170
               0
171
               1
172
               0
173
               0
174
               1
175
               0
176
               0
177
               0
178
               0
179
               2
271
               1
272
               1
273
               2
274
               2
275
               0
276
               2
277
               2
278
              46
279
               0
280
               0
281
               0
282
               0
283
               1
284
              11
285
              11
286
              11
288
               0
289
               0
340
3D
341
4F
342
4F
343
0
344
0
371
              -2
372
              -2
  0
DIMSTYLE
105
5D
100
AcDbSymbolTableRecord
100
AcDbDimStyleTableRecord
  2
JIS
 70
               0
  3
<>
  4
[]
 40
1.0
 41
31.75
 42
0.0
 43
6.9999999999999396
 44
19.999999999996199
 45
0.0
 46
0.0
 47
0.0
 48
0.0
 71
               0
 72
               0
 73
               0
 74
               0
 75
               0
 76
               0
 77
               1
 78
              11
 79
               0
140
24.432617187500004
141
0.0
142
0.0
143
1.0
144
1.0
145
0.0
146
1.0
147
1.00000000000108
148
0.0
170
               0
171
               1
172
               0
173
               0
174
               1
175
               0
176
               0
177
               0
178
               0
179
               2
271
               1
272
               1
273
               2
274
               2
275
               0
276
               2
277
               2
278
              46
279
               0
280
               0
281
               0
282
               0
283
               1
284
              11
285
              11
286
              11
288
               0
289
               0
340
3D
341
59
342
59
343
0
344
0
371
              -2
372
              -2
  0
ENDTAB
  0
TABLE
  2
BLOCK_RECORD
  5
1
100
AcDbSymbolTable
 70
              28
  0
BLOCK_RECORD
  5
A
100
AcDbSymbolTableRecord
100
AcDbBlockTableRecord
  2
*MODEL_SPACE
340
20
  0
BLOCK_RECORD
  5
B
100
AcDbSymbolTableRecord
100
AcDbBlockTableRecord
  2
*PAPER_SPACE
340
21
  0
BLOCK_RECORD
  5
4F
100
AcDbSymbolTableRecord
100
AcDbBlockTableRecord
  2
_DOT
340
0
  0
BLOCK_RECORD
  5
59
100
AcDbSymbolTableRecord
100
AcDbBlockTableRecord
  2
VW_FILLEDARROW
340
0
  0
BLOCK_RECORD
  5
23
100
AcDbSymbolTableRecord
100
AcDbBlockTableRecord
  2
グループ
340
0
102
{BLKREFS
331
1A5
102
}
  0
BLOCK_RECORD
  5
24
100
AcDbSymbolTableRecord
100
AcDbBlockTableRecord
  2
*D3
340
0
  0
BLOCK_RECORD
  5
25
100
AcDbSymbolTableRecord
100
AcDbBlockTableRecord
  2
*D4
340
0
  0
BLOCK_RECORD
  5
26
100
AcDbSymbolTableRecord
100
AcDbBlockTableRecord
  2
*D5
340
0
  0
BLOCK_RECORD
  5
27
100
AcDbSymbolTableRecord
100
AcDbBlockTableRecord
  2
*D6
340
0
  0
BLOCK_RECORD
  5
28
100
AcDbSymbolTableRecord
100
AcDbBlockTableRecord
  2
*D7
340
0
  0
BLOCK_RECORD
  5
29
100
AcDbSymbolTableRecord
100
AcDbBlockTableRecord
  2
*D8
340
0
  0
BLOCK_RECORD
  5
2A
100
AcDbSymbolTableRecord
100
AcDbBlockTableRecord
  2
*D9
340
0
  0
BLOCK_RECORD
  5
2B
100
AcDbSymbolTableRecord
100
AcDbBlockTableRecord
  2
*D10
340
0
  0
BLOCK_RECORD
  5
2C
100
AcDbSymbolTableRecord
100
AcDbBlockTableRecord
  2
*D11
340
0
  0
BLOCK_RECORD
  5
2D
100
AcDbSymbolTableRecord
100
AcDbBlockTableRecord
  2
*D12
340
0
  0
BLOCK_RECORD
  5
2E
100
AcDbSymbolTableRecord
100
AcDbBlockTableRecord
  2
*D13
340
0
  0
BLOCK_RECORD
  5
2F
100
AcDbSymbolTableRecord
100
AcDbBlockTableRecord
  2
*D14
340
0
  0
BLOCK_RECORD
  5
30
100
AcDbSymbolTableRecord
100
AcDbBlockTableRecord
  2
*D15
340
0
  0
BLOCK_RECORD
  5
31
100
AcDbSymbolTableRecord
100
AcDbBlockTableRecord
  2
*D16
340
0
  0
BLOCK_RECORD
  5
32
100
AcDbSymbolTableRecord
100
AcDbBlockTableRecord
  2
*D17
340
0
  0
BLOCK_RECORD
  5
33
100
AcDbSymbolTableRecord
100
AcDbBlockTableRecord
  2
*D18
340
0
  0
BLOCK_RECORD
  5
34
100
AcDbSymbolTableRecord
100
AcDbBlockTableRecord
  2
*D19
340
0
  0
BLOCK_RECORD
  5
35
100
AcDbSymbolTableRecord
100
AcDbBlockTableRecord
  2
*D20
340
0
  0
BLOCK_RECORD
  5
36
100
AcDbSymbolTableRecord
100
AcDbBlockTableRecord
  2
*D21
340
0
  0
BLOCK_RECORD
  5
37
100
AcDbSymbolTableRecord
100
AcDbBlockTableRecord
  2
*D22
340
0
  0
BLOCK_RECORD
  5
38
100
AcDbSymbolTableRecord
100
AcDbBlockTableRecord
  2
*D23
340
0
  0
BLOCK_RECORD
  5
39
100
AcDbSymbolTableRecord
100
AcDbBlockTableRecord
  2
*D24
340
0
  0
BLOCK_RECORD
  5
3A
100
AcDbSymbolTableRecord
100
AcDbBlockTableRecord
  2
*D25
340
0
  0
BLOCK_RECORD
  5
3B
100
AcDbSymbolTableRecord
100
AcDbBlockTableRecord
  2
グループ-1
340
0
102
{BLKREFS
331
1F9
102
}
  0
BLOCK_RECORD
  5
3C
100
AcDbSymbolTableRecord
100
AcDbBlockTableRecord
  2
グループ-2
340
0
102
{BLKREFS
331
1FA
102
}
  0
ENDTAB
  0
ENDSEC
  0
SECTION
  2
BLOCKS
  0
BLOCK
  5
D
100
AcDbEntity
  8
0
390
0
100
AcDbBlockBegin
  2
*MODEL_SPACE
 70
               0
 10
0.0
 20
0.0
 30
0.0
  3
*MODEL_SPACE
  1

  0
ENDBLK
  5
E
100
AcDbEntity
  8
0
390
0
100
AcDbBlockEnd
  0
BLOCK
  5
F
100
AcDbEntity
 67
               1
  8
0
390
0
100
AcDbBlockBegin
  2
*PAPER_SPACE
 70
               0
 10
0.0
 20
0.0
 30
0.0
  3
*PAPER_SPACE
  1

  0
ENDBLK
  5
10
100
AcDbEntity
 67
               1
  8
0
390
0
100
AcDbBlockEnd
  0
BLOCK
  5
50
100
AcDbEntity
  8
0
390
0
100
AcDbBlockBegin
  2
_DOT
 70
               0
 10
0.0
 20
0.0
 30
0.0
  3
_DOT
  1

  0
POLYLINE
  5
51
100
AcDbEntity
  8
0
370
              -2
390
0
  6
ByBlock
 62
               0
100
AcDb2dPolyline
 66
               1
 10
0.0
 20
0.0
 30
0.0
 70
               1
 40
0.5
 41
0.5
  0
VERTEX
  5
52
100
AcDbEntity
  8
0
370
              -2
390
0
  6
ByBlock
 62
               0
100
AcDbVertex
100
AcDb2dVertex
 10
-0.25
 20
0.0
 30
0.0
 42
1.0
  0
VERTEX
  5
53
100
AcDbEntity
  8
0
370
              -2
390
0
  6
ByBlock
 62
               0
100
AcDbVertex
100
AcDb2dVertex
 10
0.25
 20
0.0
 30
0.0
 42
1.0
  0
SEQEND
  5
54
100
AcDbEntity
  8
0
390
0
  0
LINE
  5
55
100
AcDbEntity
  8
0
370
              -2
390
0
  6
ByBlock
 62
               0
100
AcDbLine
 10
-0.5
 20
0.0
 30
0.0
 11
-1.0
 21
0.0
 31
0.0
  0
ENDBLK
  5
56
100
AcDbEntity
  8
0
390
0
100
AcDbBlockEnd
  0
BLOCK
  5
5A
100
AcDbEntity
  8
0
370
              -2
390
0
  6
ByBlock
 62
               0
100
AcDbBlockBegin
  2
VW_FILLEDARROW
 70
               0
 10
0.0
 20
0.0
 30
0.0
  3
VW_FILLEDARROW
  1

  0
SOLID
  5
5B
100
AcDbEntity
  8
0
370
              -2
390
0
 62
               0
100
AcDbTrace
 10
0.0
 20
0.0
 30
0.0
 11
-0.9921874999999999
 21
-0.2658558393652545
 31
0.0
 12
-0.9921874999999999
 22
0.2658558393652548
 32
0.0
 13
-0.9921874999999999
 23
0.2658558393652548
 33
0.0
  0
ENDBLK
  5
5C
100
AcDbEntity
  8
0
390
0
100
AcDbBlockEnd
  0
BLOCK
  5
5E
100
AcDbEntity
  8
template
390
0
100
AcDbBlockBegin
  2
グループ
 70
               0
 10
0.0
 20
0.0
 30
0.0
  3
グループ
  1

  0
LWPOLYLINE
  5
5F
100
AcDbEntity
  8
0
370
              15
390
0
  6
Continuous
 62
               7
100
AcDbPolyline
 90
        8
 70
             129
 10
71.96803804998433
 20
-3308.2055847861629
 10
71.96803804998433
 20
-3314.2029734797388
 10
62.466841131981028
 20
-3314.2029734797388
 10
62.466841131981028
 20
-3338.6539367432474
 10
54.111463870198236
 20
-3338.6539367432474
 10
54.111463870198236
 20
-3314.2029734797388
 10
44.778506923888813
 20
-3314.2029734797388
 10
44.778506923888813
 20
-3308.2055847861629
  0
LWPOLYLINE
  5
60
100
AcDbEntity
  8
0
370
              15
390
0
  6
Continuous
 62
               7
100
AcDbPolyline
 90
      101
 70
             128
 10
84.696329880541271
 20
-3308.9338332790994
 10
84.711679909325497
 20
-3308.9294725224145
 42
-0.0222221607819908
 10
85.001684485997373
 20
-3308.8608480571693
 10
85.017478249978822
 20
-3308.8578446340748
 42
-0.0146883565601918
 10
85.280180955215144
 20
-3308.8158414471231
 42
-0.0127458844177579
 10
85.544819922370493
 20
-3308.7883044790506
 10
85.607275000680943
 20
-3308.7834110564627
 42
-0.0198099018566287
 10
85.998124110153583
 20
-3308.768325899066
 10
86.049935579601595
 20
-3308.768379674731
 42
-0.0147617382757417
 10
86.544559040588766
 20
-3308.7834996999763
 10
86.61725049546213
 20
-3308.7878723068638
 42
-0.0162624548998215
 10
87.007404124915297
 20
-3308.824105182136
 10
87.128936516181554
 20
-3308.8393917411336
 42
-0.0080020874669632
 10
87.274515547266049
 20
-3308.8600745884005
 10
87.312835017866632
 20
-3308.8661458662123
 42
-0.0053821929647424
 10
87.381319123175899
 20
-3308.8777533900334
 10
86.654913423977291
 20
-3311.0586818457473
 42
0.0108667757382787
 10
86.587596353845569
 20
-3311.045494730527
 10
86.550128330656946
 20
-3311.0389969879329
 42
0.0170663203308501
 10
86.406911543731539
 20
-3311.0191673906397
 10
86.339036211058442
 20
-3311.0121202200535
 42
0.0220162375268886
 10
86.058656803202481
 20
-3310.9954378592834
 10
85.98080123614865
 20
-3310.9942384920168
 42
0.028260691578293
 10
85.645164912573136
 20
-3311.008041768986
 10
85.601251638805451
 20
-3311.0123417589894
 42
0.0169677213686219
 10
85.355327143841862
 20
-3311.0448788085414
 42
0.0190576269853983
 10
85.112419181268876
 20
-3311.0950256806464
 10
85.106159993150982
 20
-3311.0965686547574
 42
0.0213685642851737
 10
84.855775508665985
 20
-3311.1697689398648
 10
84.850285613757023
 20
-3311.1716319359211
 42
0.0237595297578416
 10
84.596790728864505
 20
-3311.271316457814
 10
84.591688654828658
 20
-3311.2736082332949
 42
0.026185746881351
 10
84.339517878600674
 20
-3311.4031445706687
 10
84.329091689510562
 20
-3311.4092100451389
 42
0.0272553062018539
 10
84.092661914273265
 20
-3311.5645822510824
 10
84.057898900762325
 20
-3311.5902433991755
 42
0.0325996893175426
 10
83.907743557112269
 20
-3311.7169912721456
 10
83.884034127991015
 20
-3311.7398093006568
 42
0.0138050960640201
 10
83.792150971779051
 20
-3311.8332589622105
 42
0.0125280103816171
 10
83.705308438950041
 20
-3311.9314222888052
 10
83.681627994037171
 20
-3311.9595807869978
 42
0.0205218024725779
 10
83.55652791852313
 20
-3312.1213741012275
 10
83.534061578036358
 20
-3312.153033831054
 42
0.0163110129584239
 10
83.378351198783903
 20
-3312.3883642661258
 10
83.375627302734074
 20
-3312.3927880281094
 42
0.0131897341888791
 10
83.228826781826641
 20
-3312.6459201204761
 10
83.227126686461702
 20
-3312.6490383596092
 42
0.0107895576067161
 10
83.089349984252934
 20
-3312.9152535692401
 10
83.088617094725862
 20
-3312.9167478018908
 42
0.0091371507220455
 10
82.960137146076164
 20
-3313.1912729996511
 10
82.930391514667178
 20
-3313.2579795068095
 42
0.0135418326350919
 10
82.758677575595286
 20
-3313.6729172920786
 10
82.725072767160526
 20
-3313.7607834343612
 42
0.0092834542413855
 10
82.553843707240333
 20
-3314.2346819326649
 10
82.52822657952224
 20
-3314.3099230024595
 42
0.0054261043583935
 10
82.42058843122976
 20
-3314.6376869755231
 10
82.403062445022456
 20
-3314.6930751378477
 42
0.0008225090819967
 10
82.334392393222288
 20
-3314.9113438959025
 10
81.349703261288823
 20
-3317.9362351891591
 10
84.582327101362694
 20
-3317.9362351891591
 10
84.078134671509247
 20
-3319.8407134875115
 10
80.822078389525927
 20
-3319.8407134875115
 10
74.992929357172102
 20
-3338.6539365535164
 10
73.167831746861793
 20
-3338.6539365535164
 10
79.002509782362722
 20
-3319.8407134875115
 10
76.597393413322379
 20
-3319.8407134875115
 10
77.101585843175826
 20
-3317.9362351891591
 10
79.530134654125845
 20
-3317.9362351891591
 10
80.390289572314487
 20
-3315.29982218846
 42
-0.0005863560652037
 10
80.427024250498704
 20
-3315.1829957682298
 10
80.503112084178383
 20
-3314.9420034687828
 42
-0.008752237892421
 10
80.702580227635806
 20
-3314.346727381635
 10
80.794844503048864
 20
-3314.086587213123
 42
-0.0077400953826267
 10
81.052778162179834
 20
-3313.3935825355757
 10
81.06854313375905
 20
-3313.3531516521889
 42
-0.008236994633045
 10
81.315627604370661
 20
-3312.7490725859934
 42
-0.0085725238363719
 10
81.582873700372971
 20
-3312.1536465467075
 10
81.684503301382165
 20
-3311.9372254447189
 42
-0.0168109410596755
 10
81.971447730110924
 20
-3311.376017918617
 10
82.097291120579598
 20
-3311.1490538856024
 42
-0.0007817726862553
 10
82.151575470626597
 20
-3311.0515096405888
 10
82.151703776636396
 20
-3311.0512799318658
 42
-0.0036626142163243
 10
82.206591640665124
 20
-3310.9546820518835
 42
-0.0080221150672654
 10
82.263715896069968
 20
-3310.8594028171337
 10
82.294415847433015
 20
-3310.8100118680086
 42
-0.020213932557417
 10
82.422071587240495
 20
-3310.622030267326
 10
82.476139052427357
 20
-3310.548951403086
 42
-0.024932379179852
 10
82.735301846147848
 20
-3310.2329061609303
 10
82.759441660273524
 20
-3310.2062918880192
 42
-0.0242132121542667
 10
83.099122401811357
 20
-3309.8664084018192
 10
83.147033974566284
 20
-3309.8228992656291
 42
-0.0251017527866812
 10
83.431015675206879
 20
-3309.5899065198646
 10
83.432461152022341
 20
-3309.5888372622844
 42
-0.0130868069040284
 10
83.73072180197795
 20
-3309.3800567937433
 10
83.732283621120871
 20
-3309.3790233534683
 42
-0.029032952639695
 10
84.043394762513969
 20
-3309.1981978518388
 10
84.07324032451001
 20
-3309.183095468994
 42
-0.0160250190041182
 10
84.339144738264679
 20
-3309.0590793587862
 42
-0.0267600374787237
 10
84.614420815730526
 20
-3308.9583310382382
 10
84.641156735254299
 20
-3308.9501384794116
 42
-0.0049981587689047
 10
84.696329880541271
 20
-3308.9338332790994
 42
-0.0049981587689047
  0
LWPOLYLINE
  5
61
100
AcDbEntity
  8
0
370
              15
390
0
  6
Continuous
 62
               7
100
AcDbPolyline
 90
      118
 70
             128
 10
104.51069744498818
 20
-3318.0102185169862
 10
106.38581936948765
 20
-3318.0102185169862
 10
105.54778046388776
 20
-3320.6917850433865
 42
-0.0010587229246814
 10
105.57923627945375
 20
-3320.6548805100383
 10
105.63743037009164
 20
-3320.5868982538555
 42
-0.007187474042051
 10
105.78780558818134
 20
-3320.4162575618357
 10
105.92952836145196
 20
-3320.2600214205131
 42
-0.0148118053507487
 10
106.37965765416659
 20
-3319.7924075744982
 10
106.46687998906147
 20
-3319.7070102536513
 42
-0.0086273358693522
 10
106.80242879007488
 20
-3319.3896346196302
 10
106.84626250630127
 20
-3319.3495849752967
 42
-0.0103138323112582
 10
107.10428620853429
 20
-3319.1234218379591
 10
107.15006061487942
 20
-3319.0849397906836
 42
-0.0060206748560458
 10
107.32290867897359
 20
-3318.9431451399441
 10
107.3249398098544
 20
-3318.9415194343169
 42
-0.0067069027285967
 10
107.49723262452204
 20
-3318.8073688005179
 10
107.49978139045393
 20
-3318.805438630638
 42
-0.0076184352027241
 10
107.67068665631939
 20
-3318.6800637553988
 42
-0.0089652861664355
 10
107.8456476190626
 20
-3318.5604304950602
 10
107.88199933919627
 20
-3318.5365192815848
 42
-0.0156916245936938
 10
108.07795883635896
 20
-3318.4162567951089
 42
-0.0023299011066149
 10
108.27822088034834
 20
-3318.3030788555629
 10
108.29360501271867
 20
-3318.2944788605037
 42
-0.0107669341474427
 10
108.52784183783284
 20
-3318.170078727147
 10
108.55010663889487
 20
-3318.1588619772037
 42
-0.0078058045893338
 10
108.83369675684347
 20
-3318.0215005215673
 10
108.84360384455675
 20
-3318.0168913936968
 42
-0.0181829330468793
 10
109.15391324917171
 20
-3317.8860276526016
 10
109.20796869173864
 20
-3317.8655125326582
 42
-0.0208411536028621
 10
109.55705365918936
 20
-3317.7494220701647
 10
109.57140975931109
 20
-3317.7453036252127
 42
-0.0222799817136737
 10
109.90012955323408
 20
-3317.6666620590713
 10
109.90901851646881
 20
-3317.6649500484868
 42
-0.0215509523895074
 10
110.22548948475088
 20
-3317.6180343599517
 10
110.26797144579676
 20
-3317.613596833161
 42
-0.0182545924881602
 10
110.50208022510509
 20
-3317.5977530077698
 10
110.5414812414715
 20
-3317.59652846269
 42
-0.0072962856508594
 10
110.69740412114203
 20
-3317.5939591341685
 10
110.72650379170329
 20
-3317.5939042987648
 42
-0.0059227516338032
 10
110.82425329085902
 20
-3317.594878010555
 10
110.85349550831863
 20
-3317.5955157771582
 42
-0.001183311191669
 10
110.89274679206335
 20
-3317.5964647814685
 10
110.09736019645618
 20
-3320.1351987265675
 42
0.014393205143425
 10
110.0709588141136
 20
-3320.1249997565251
 10
110.06368684168831
 20
-3320.1224285376647
 42
0.0234388603481543
 10
110.02185597575512
 20
-3320.1098093019491
 10
110.01317431284349
 20
-3320.1076283399443
 42
0.0199162742975357
 10
109.95288547876207
 20
-3320.0950116046092
 10
109.93207154095728
 20
-3320.091514405181
 42
0.0293643550669498
 10
109.82899668220125
 20
-3320.0803643595282
 10
109.8043115014778
 20
-3320.079152742509
 42
0.0214606686849254
 10
109.65117058552221
 20
-3320.0782141820914
 10
109.64179867470739
 20
-3320.0785590936357
 42
0.0167564054191724
 10
109.4702784835987
 20
-3320.0906361360044
 10
109.46181869083995
 20
-3320.0915174764314
 42
0.0137677553229987
 10
109.27446537758297
 20
-3320.116266784973
 10
109.26711363806743
 20
-3320.1174447049425
 42
0.0118497261486191
 10
109.06661587396316
 20
-3320.1544620551326
 10
109.06046586671886
 20
-3320.1557489178522
 42
0.0106421143889339
 10
108.84958497942988
 20
-3320.2045812934275
 10
108.84467617104474
 20
-3320.2058286361116
 42
0.0099746379697177
 10
108.62621770188576
 20
-3320.2660031644255
 10
108.564669661712
 20
-3320.284285043057
 42
0.0191613675859406
 10
108.22868519919214
 20
-3320.3982624233458
 10
108.14062542645662
 20
-3320.4319493336661
 42
0.0205274080143265
 10
107.75531865455031
 20
-3320.5977777414946
 10
107.6976693725646
 20
-3320.6254457060686
 42
0.0181256912197267
 10
107.4393924319013
 20
-3320.7611295250449
 10
107.38643704859237
 20
-3320.7914471382569
 42
0.0140709242400682
 10
107.24148211395897
 20
-3320.8799418116942
 10
107.21523324532996
 20
-3320.8969986304164
 42
0.0086667884409378
 10
107.12630708379794
 20
-3320.9570012982922
 42
0.003640819200676
 10
107.03887384577631
 20
-3321.0191821560766
 10
107.00364697129595
 20
-3321.0446231019978
 42
0.0052260781284764
 10
106.84741827388136
 20
-3321.1599554886493
 10
106.83121141764531
 20
-3321.1721835992498
 42
0.0050024435903491
 10
106.64520807459047
 20
-3321.3154661675089
 10
106.62988991807129
 20
-3321.3275121899578
 42
0.0136138710266717
 10
106.41944864975491
 20
-3321.5024786948634
 10
106.38578077395238
 20
-3321.5320576675854
 42
0.0172815186918231
 10
106.12137723228898
 20
-3321.7810543402097
 10
106.1188148864473
 20
-3321.7836401573559
 42
0.0189403857995454
 10
105.86823308786616
 20
-3322.0564454221626
 10
105.83560159433397
 20
-3322.0947893536554
 42
0.0185044199500206
 10
105.64364515535215
 20
-3322.3380379347805
 42
0.0088565243901757
 10
105.46518504872348
 20
-3322.5915543549308
 10
105.45600706907521
 20
-3322.6050957346906
 42
0.0157195347233246
 10
105.27278646273965
 20
-3322.8946179440086
 10
105.22670352080731
 20
-3322.972770141032
 42
0.0095451879790091
 10
105.06161797067261
 20
-3323.2653647833836
 10
105.05047005174313
 20
-3323.286035455515
 42
0.0100351706246473
 10
104.91842630258367
 20
-3323.5430910160062
 42
0.0086935915435249
 10
104.79609515078927
 20
-3323.8049241614117
 10
104.79277440937517
 20
-3323.8123664843824
 42
0.0072580174862663
 10
104.67242795743078
 20
-3324.0929584759642
 10
104.66916632412386
 20
-3324.1008785019835
 42
0.0060005122615212
 10
104.54996565578111
 20
-3324.4004881725887
 10
104.54675467743959
 20
-3324.4088497004932
 42
0.0049017786979578
 10
104.42785451858221
 20
-3324.7277786810973
 10
104.42468871219171
 20
-3324.7365316183277
 42
0.0039415167597512
 10
104.30525243413611
 20
-3325.0750736807381
 10
104.30212133148285
 20
-3325.0841768816172
 42
0.0031035838768363
 10
104.18131654579415
 20
-3325.4426167433776
 10
104.17820650125941
 20
-3325.4520373647656
 42
0.0025070747146148
 10
104.05530514994705
 20
-3325.8306845817001
 10
104.01801125351864
 20
-3325.9475762469624
 42
0.002908191028097
 10
103.82599295570311
 20
-3326.561739905269
 10
103.7851897871908
 20
-3326.69496314753
 42
0.0009266453731966
 10
103.51677241288084
 20
-3327.5771876074377
 10
103.49588494023688
 20
-3327.6462994866847
 42
-0.0005809993665233
 10
103.21854825964431
 20
-3328.5601075933287
 10
103.15226646136495
 20
-3328.7775925255096
 42
-0.0012018708165376
 10
103.00528215194214
 20
-3329.255755190009
 10
102.95296230036864
 20
-3329.4245143309004
 42
-0.0002691059603557
 10
102.90939281920805
 20
-3329.5647819512169
 10
100.07643692091881
 20
-3338.6539365535164
 10
98.258448028940279
 20
-3338.6539365535164
 10
104.51069744498818
 20
-3318.0102185169862
  0
SPLINE
  5
62
100
AcDbEntity
  8
0
370
              15
390
0
  6
Continuous
 62
               7
100
AcDbSpline
210
0.0
220
0.0
230
1.0
 70
              13
 71
               2
 72
             782
 73
             779
 74
               0
 42
0.000001
 43
0.000001
 40
0.0
 40
0.0
 40
0.0
 40
1.0
 40
1.0
 40
2.0
 40
2.0
 40
3.0
 40
3.0
 40
4.0
 40
4.0
 40
5.0
 40
5.0
 40
6.0
 40
6.0
 40
7.0
 40
7.0
 40
8.0
 40
8.0
 40
9.0
 40
9.0
 40
10.0
 40
10.0
 40
11.0
 40
11.0
 40
12.0
 40
12.0
 40
13.0
 40
13.0
 40
14.0
 40
14.0
 40
15.0
 40
15.0
 40
16.0
 40
16.0
 40
17.0
 40
17.0
 40
18.0
 40
18.0
 40
19.0
 40
19.0
 40
20.0
 40
20.0
 40
21.0
 40
21.0
 40
22.0
 40
22.0
 40
23.0
 40
23.0
 40
24.0
 40
24.0
 40
25.0
 40
25.0
 40
26.0
 40
26.0
 40
27.0
 40
27.0
 40
28.0
 40
28.0
 40
29.0
 40
29.0
 40
30.0
 40
30.0
 40
31.0
 40
31.0
 40
32.0
 40
32.0
 40
33.0
 40
33.0
 40
34.0
 40
34.0
 40
35.0
 40
35.0
 40
36.0
 40
36.0
 40
37.0
 40
37.0
 40
38.0
 40
38.0
 40
39.0
 40
39.0
 40
40.0
 40
40.0
 40
41.0
 40
41.0
 40
42.0
 40
42.0
 40
43.0
 40
43.0
 40
44.0
 40
44.0
 40
45.0
 40
45.0
 40
46.0
 40
46.0
 40
47.0
 40
47.0
 40
48.0
 40
48.0
 40
49.0
 40
49.0
 40
50.0
 40
50.0
 40
51.0
 40
51.0
 40
52.0
 40
52.0
 40
53.0
 40
53.0
 40
54.0
 40
54.0
 40
55.0
 40
55.0
 40
56.0
 40
56.0
 40
57.0
 40
57.0
 40
58.0
 40
58.0
 40
59.0
 40
59.0
 40
60.0
 40
60.0
 40
61.0
 40
61.0
 40
62.0
 40
62.0
 40
63.0
 40
63.0
 40
64.0
 40
64.0
 40
65.0
 40
65.0
 40
66.0
 40
66.0
 40
67.0
 40
67.0
 40
68.0
 40
68.0
 40
69.0
 40
69.0
 40
70.0
 40
70.0
 40
71.0
 40
71.0
 40
72.0
 40
72.0
 40
73.0
 40
73.0
 40
74.0
 40
74.0
 40
75.0
 40
75.0
 40
76.0
 40
76.0
 40
77.0
 40
77.0
 40
78.0
 40
78.0
 40
79.0
 40
79.0
 40
80.0
 40
80.0
 40
81.0
 40
81.0
 40
82.0
 40
82.0
 40
83.0
 40
83.0
 40
84.0
 40
84.0
 40
85.0
 40
85.0
 40
86.0
 40
86.0
 40
87.0
 40
87.0
 40
88.0
 40
88.0
 40
89.0
 40
89.0
 40
90.0
 40
90.0
 40
91.0
 40
91.0
 40
92.0
 40
92.0
 40
93.0
 40
93.0
 40
94.0
 40
94.0
 40
95.0
 40
95.0
 40
96.0
 40
96.0
 40
97.0
 40
97.0
 40
98.0
 40
98.0
 40
99.0
 40
99.0
 40
100.0
 40
100.0
 40
101.0
 40
101.0
 40
102.0
 40
102.0
 40
103.0
 40
103.0
 40
104.0
 40
104.0
 40
105.0
 40
105.0
 40
106.0
 40
106.0
 40
107.0
 40
107.0
 40
108.0
 40
108.0
 40
109.0
 40
109.0
 40
110.0
 40
110.0
 40
111.0
 40
111.0
 40
112.0
 40
112.0
 40
113.0
 40
113.0
 40
114.0
 40
114.0
 40
115.0
 40
115.0
 40
116.0
 40
116.0
 40
117.0
 40
117.0
 40
118.0
 40
118.0
 40
119.0
 40
119.0
 40
120.0
 40
120.0
 40
121.0
 40
121.0
 40
122.0
 40
122.0
 40
123.0
 40
123.0
 40
124.0
 40
124.0
 40
125.0
 40
125.0
 40
126.0
 40
126.0
 40
127.0
 40
127.0
 40
128.0
 40
128.0
 40
129.0
 40
129.0
 40
130.0
 40
130.0
 40
131.0
 40
131.0
 40
132.0
 40
132.0
 40
133.0
 40
133.0
 40
134.0
 40
134.0
 40
135.0
 40
135.0
 40
136.0
 40
136.0
 40
137.0
 40
137.0
 40
138.0
 40
138.0
 40
139.0
 40
139.0
 40
140.0
 40
140.0
 40
141.0
 40
141.0
 40
142.0
 40
142.0
 40
143.0
 40
143.0
 40
144.0
 40
144.0
 40
145.0
 40
145.0
 40
146.0
 40
146.0
 40
147.0
 40
147.0
 40
148.0
 40
148.0
 40
149.0
 40
149.0
 40
150.0
 40
150.0
 40
151.0
 40
151.0
 40
152.0
 40
152.0
 40
153.0
 40
153.0
 40
154.0
 40
154.0
 40
155.0
 40
155.0
 40
156.0
 40
156.0
 40
157.0
 40
157.0
 40
158.0
 40
158.0
 40
159.0
 40
159.0
 40
160.0
 40
160.0
 40
161.0
 40
161.0
 40
162.0
 40
162.0
 40
163.0
 40
163.0
 40
164.0
 40
164.0
 40
165.0
 40
165.0
 40
166.0
 40
166.0
 40
167.0
 40
167.0
 40
168.0
 40
168.0
 40
169.0
 40
169.0
 40
170.0
 40
170.0
 40
171.0
 40
171.0
 40
172.0
 40
172.0
 40
173.0
 40
173.0
 40
174.0
 40
174.0
 40
175.0
 40
175.0
 40
176.0
 40
176.0
 40
177.0
 40
177.0
 40
178.0
 40
178.0
 40
179.0
 40
179.0
 40
180.0
 40
180.0
 40
181.0
 40
181.0
 40
182.0
 40
182.0
 40
183.0
 40
183.0
 40
184.0
 40
184.0
 40
185.0
 40
185.0
 40
186.0
 40
186.0
 40
187.0
 40
187.0
 40
188.0
 40
188.0
 40
189.0
 40
189.0
 40
190.0
 40
190.0
 40
191.0
 40
191.0
 40
192.0
 40
192.0
 40
193.0
 40
193.0
 40
194.0
 40
194.0
 40
195.0
 40
195.0
 40
196.0
 40
196.0
 40
197.0
 40
197.0
 40
198.0
 40
198.0
 40
199.0
 40
199.0
 40
200.0
 40
200.0
 40
201.0
 40
201.0
 40
202.0
 40
202.0
 40
203.0
 40
203.0
 40
204.0
 40
204.0
 40
205.0
 40
205.0
 40
206.0
 40
206.0
 40
207.0
 40
207.0
 40
208.0
 40
208.0
 40
209.0
 40
209.0
 40
210.0
 40
210.0
 40
211.0
 40
211.0
 40
212.0
 40
212.0
 40
213.0
 40
213.0
 40
214.0
 40
214.0
 40
215.0
 40
215.0
 40
216.0
 40
216.0
 40
217.0
 40
217.0
 40
218.0
 40
218.0
 40
219.0
 40
219.0
 40
220.0
 40
220.0
 40
221.0
 40
221.0
 40
222.0
 40
222.0
 40
223.0
 40
223.0
 40
224.0
 40
224.0
 40
225.0
 40
225.0
 40
226.0
 40
226.0
 40
227.0
 40
227.0
 40
228.0
 40
228.0
 40
229.0
 40
229.0
 40
230.0
 40
230.0
 40
231.0
 40
231.0
 40
232.0
 40
232.0
 40
233.0
 40
233.0
 40
234.0
 40
234.0
 40
235.0
 40
235.0
 40
236.0
 40
236.0
 40
237.0
 40
237.0
 40
238.0
 40
238.0
 40
239.0
 40
239.0
 40
240.0
 40
240.0
 40
241.0
 40
241.0
 40
242.0
 40
242.0
 40
243.0
 40
243.0
 40
244.0
 40
244.0
 40
245.0
 40
245.0
 40
246.0
 40
246.0
 40
247.0
 40
247.0
 40
248.0
 40
248.0
 40
249.0
 40
249.0
 40
250.0
 40
250.0
 40
251.0
 40
251.0
 40
252.0
 40
252.0
 40
253.0
 40
253.0
 40
254.0
 40
254.0
 40
255.0
 40
255.0
 40
256.0
 40
256.0
 40
257.0
 40
257.0
 40
258.0
 40
258.0
 40
259.0
 40
259.0
 40
260.0
 40
260.0
 40
261.0
 40
261.0
 40
262.0
 40
262.0
 40
263.0
 40
263.0
 40
264.0
 40
264.0
 40
265.0
 40
265.0
 40
266.0
 40
266.0
 40
267.0
 40
267.0
 40
268.0
 40
268.0
 40
269.0
 40
269.0
 40
270.0
 40
270.0
 40
271.0
 40
271.0
 40
272.0
 40
272.0
 40
273.0
 40
273.0
 40
274.0
 40
274.0
 40
275.0
 40
275.0
 40
276.0
 40
276.0
 40
277.0
 40
277.0
 40
278.0
 40
278.0
 40
279.0
 40
279.0
 40
280.0
 40
280.0
 40
281.0
 40
281.0
 40
282.0
 40
282.0
 40
283.0
 40
283.0
 40
284.0
 40
284.0
 40
285.0
 40
285.0
 40
286.0
 40
286.0
 40
287.0
 40
287.0
 40
288.0
 40
288.0
 40
289.0
 40
289.0
 40
290.0
 40
290.0
 40
291.0
 40
291.0
 40
292.0
 40
292.0
 40
293.0
 40
293.0
 40
294.0
 40
294.0
 40
295.0
 40
295.0
 40
296.0
 40
296.0
 40
297.0
 40
297.0
 40
298.0
 40
298.0
 40
299.0
 40
299.0
 40
300.0
 40
300.0
 40
301.0
 40
301.0
 40
302.0
 40
302.0
 40
303.0
 40
303.0
 40
304.0
 40
304.0
 40
305.0
 40
305.0
 40
306.0
 40
306.0
 40
307.0
 40
307.0
 40
308.0
 40
308.0
 40
309.0
 40
309.0
 40
310.0
 40
310.0
 40
311.0
 40
311.0
 40
312.0
 40
312.0
 40
313.0
 40
313.0
 40
314.0
 40
314.0
 40
315.0
 40
315.0
 40
316.0
 40
316.0
 40
317.0
 40
317.0
 40
318.0
 40
318.0
 40
319.0
 40
319.0
 40
320.0
 40
320.0
 40
321.0
 40
321.0
 40
322.0
 40
322.0
 40
323.0
 40
323.0
 40
324.0
 40
324.0
 40
325.0
 40
325.0
 40
326.0
 40
326.0
 40
327.0
 40
327.0
 40
328.0
 40
328.0
 40
329.0
 40
329.0
 40
330.0
 40
330.0
 40
331.0
 40
331.0
 40
332.0
 40
332.0
 40
333.0
 40
333.0
 40
334.0
 40
334.0
 40
335.0
 40
335.0
 40
336.0
 40
336.0
 40
337.0
 40
337.0
 40
338.0
 40
338.0
 40
339.0
 40
339.0
 40
340.0
 40
340.0
 40
341.0
 40
341.0
 40
342.0
 40
342.0
 40
343.0
 40
343.0
 40
344.0
 40
344.0
 40
345.0
 40
345.0
 40
346.0
 40
346.0
 40
347.0
 40
347.0
 40
348.0
 40
348.0
 40
349.0
 40
349.0
 40
350.0
 40
350.0
 40
351.0
 40
351.0
 40
352.0
 40
352.0
 40
353.0
 40
353.0
 40
354.0
 40
354.0
 40
355.0
 40
355.0
 40
356.0
 40
356.0
 40
357.0
 40
357.0
 40
358.0
 40
358.0
 40
359.0
 40
359.0
 40
360.0
 40
360.0
 40
361.0
 40
361.0
 40
362.0
 40
362.0
 40
363.0
 40
363.0
 40
364.0
 40
364.0
 40
365.0
 40
365.0
 40
366.0
 40
366.0
 40
367.0
 40
367.0
 40
368.0
 40
368.0
 40
369.0
 40
369.0
 40
370.0
 40
370.0
 40
371.0
 40
371.0
 40
372.0
 40
372.0
 40
373.0
 40
373.0
 40
374.0
 40
374.0
 40
375.0
 40
375.0
 40
376.0
 40
376.0
 40
377.0
 40
377.0
 40
378.0
 40
378.0
 40
379.0
 40
379.0
 40
380.0
 40
380.0
 40
381.0
 40
381.0
 40
382.0
 40
382.0
 40
383.0
 40
383.0
 40
384.0
 40
384.0
 40
385.0
 40
385.0
 40
386.0
 40
386.0
 40
387.0
 40
387.0
 40
388.0
 40
388.0
 40
389.0
 40
389.0
 40
389.0
 10
114.83940189572081
 20
-3317.9992921536241
 30
0.0
 41
1.0
 10
115.65782600444129
 20
-3317.9992921536241
 30
0.0
 41
1.0
 10
116.47625011316177
 20
-3317.9992921536241
 30
0.0
 41
1.0
 10
116.062496377645
 20
-3319.3419184178738
 30
0.0
 41
1.0
 10
115.64874264212824
 20
-3320.6845446821235
 30
0.0
 41
1.0
 10
115.66708213731873
 20
-3320.6558439091768
 30
0.0
 41
0.9999957264403089
 10
115.68558913414877
 20
-3320.6272508590273
 30
0.0
 41
1.0
 10
115.71601845827513
 20
-3320.5802379806682
 30
0.0
 41
1.0
 10
115.7464477824015
 20
-3320.5332251023096
 30
0.0
 41
1.0
 10
115.82581342750571
 20
-3320.4106062954093
 30
0.0
 41
0.9995394069081424
 10
115.91247181905901
 20
-3320.2930282336652
 30
0.0
 41
1.0
 10
115.9482286813186
 20
-3320.244513341072
 30
0.0
 41
1.0
 10
115.98398554357817
 20
-3320.1959984484788
 30
0.0
 41
1.0
 10
116.11771221139712
 20
-3320.0145581733509
 30
0.0
 41
0.9994460617143183
 10
116.26321269268522
 20
-3319.8424157757008
 30
0.0
 41
1.0
 10
116.26760087366041
 20
-3319.8372240953181
 30
0.0
 41
1.0
 10
116.27198905463561
 20
-3319.8320324149354
 30
0.0
 41
1.0
 10
116.40871317397253
 20
-3319.6702733780526
 30
0.0
 41
0.9994359394934714
 10
116.55598740432453
 20
-3319.5180571768869
 30
0.0
 41
1.0
 10
116.5583707582779
 20
-3319.5155938465136
 30
0.0
 41
1.0
 10
116.56075411223129
 20
-3319.5131305161403
 30
0.0
 41
1.0
 10
116.70326163467477
 20
-3319.3658409757236
 30
0.0
 41
0.9995293688568188
 10
116.85453331565816
 20
-3319.227567763558
 30
0.0
 41
1.0
 10
116.87382707492367
 20
-3319.2099318779046
 30
0.0
 41
1.0
 10
116.89312083418919
 20
-3319.1922959922517
 30
0.0
 41
1.0
 10
117.00580499664304
 20
-3319.089294551392
 30
0.0
 41
0.9997087614803145
 10
117.1233278855953
 20
-3318.9918502705964
 30
0.0
 41
1.0
 10
117.14249395876567
 20
-3318.9759586920927
 30
0.0
 41
1.0
 10
117.16166003193604
 20
-3318.960067113589
 30
0.0
 41
1.0
 10
117.24085077454524
 20
-3318.8944059898026
 30
0.0
 41
0.9999595338692664
 10
117.32121004540551
 20
-3318.8301802591432
 30
0.0
 41
1.0
 10
117.40156931625872
 20
-3318.7659545284896
 30
0.0
 41
0.9999749417505778
 10
117.48282985061498
 20
-3318.7028729745334
 30
0.0
 41
1.0
 10
117.50381599676602
 20
-3318.6865816872405
 30
0.0
 41
1.0
 10
117.52480214291707
 20
-3318.670290399948
 30
0.0
 41
1.0
 10
117.60937002821734
 20
-3318.6046413901076
 30
0.0
 41
0.9999792037127793
 10
117.69477762800653
 20
-3318.540088608449
 30
0.0
 41
1.0
 10
117.71560245387133
 20
-3318.5243487862263
 30
0.0
 41
1.0
 10
117.73642727973613
 20
-3318.508608964004
 30
0.0
 41
1.0
 10
117.78018522768872
 20
-3318.4755358268712
 30
0.0
 41
0.9999993373779398
 10
117.82386691391923
 20
-3318.4423620313814
 30
0.0
 41
1.0
 10
117.86754860006403
 20
-3318.4091882359562
 30
0.0
 41
0.9999160953816777
 10
117.91207501099076
 20
-3318.377157170753
 30
0.0
 41
1.0
 10
117.94489689840589
 20
-3318.3535460151711
 30
0.0
 41
1.0
 10
117.97771878582103
 20
-3318.3299348595892
 30
0.0
 41
1.0
 10
118.08788897157888
 20
-3318.2506814832223
 30
0.0
 41
0.9980964527233669
 10
118.20697796507859
 20
-3318.185594010366
 30
0.0
 41
1.0
 10
118.2440105720063
 20
-3318.1653540307734
 30
0.0
 41
1.0
 10
118.28104317893401
 20
-3318.1451140511804
 30
0.0
 41
1.0
 10
118.46037019220735
 20
-3318.0471038004789
 30
0.0
 41
0.9984572810572772
 10
118.6494587585683
 20
-3317.9695815391315
 30
0.0
 41
1.0
 10
118.65310502796251
 20
-3317.9680866467943
 30
0.0
 41
1.0
 10
118.65675129735673
 20
-3317.9665917544571
 30
0.0
 41
1.0
 10
118.83854732492594
 20
-3317.8920592777858
 30
0.0
 41
0.9987838528034075
 10
119.02679998348646
 20
-3317.8357936376196
 30
0.0
 41
1.0
 10
119.031037932686
 20
-3317.8345269839292
 30
0.0
 41
1.0
 10
119.03527588188555
 20
-3317.8332603302388
 30
0.0
 41
1.0
 10
119.2150526420463
 20
-3317.7795279974539
 30
0.0
 41
0.9990652816207104
 10
119.39879857376155
 20
-3317.7415243179121
 30
0.0
 41
1.0
 10
119.40398697479567
 20
-3317.740451214805
 30
0.0
 41
1.0
 10
119.40917537582979
 20
-3317.739378111698
 30
0.0
 41
1.0
 10
119.58254450548003
 20
-3317.7035206383694
 30
0.0
 41
0.9992909934270224
 10
119.75812027193575
 20
-3317.6808102059031
 30
0.0
 41
1.0
 10
119.93369603839128
 20
-3317.6580997734368
 30
0.0
 41
0.9994553539448504
 10
120.11038747148189
 20
-3317.6470204692309
 30
0.0
 41
1.0
 10
120.14582187928488
 20
-3317.6447985811828
 30
0.0
 41
1.0
 10
120.18125628708786
 20
-3317.6425766931347
 30
0.0
 41
1.0
 10
120.34748205365258
 20
-3317.6321536307232
 30
0.0
 41
0.999092809829305
 10
120.51399184555049
 20
-3317.6359132719576
 30
0.0
 41
1.0
 10
120.55255368081427
 20
-3317.6367839634904
 30
0.0
 41
1.0
 10
120.59111551607806
 20
-3317.6376546550232
 30
0.0
 41
1.0
 10
120.68050163744533
 20
-3317.6396729131916
 30
0.0
 41
0.9998382089206246
 10
120.76975732023936
 20
-3317.6449050397205
 30
0.0
 41
1.0
 10
120.77018722646136
 20
-3317.6449302406227
 30
0.0
 41
1.0
 10
120.77061713268337
 20
-3317.6449554415253
 30
0.0
 41
1.0
 10
120.85901300302781
 20
-3317.6501371662489
 30
0.0
 41
0.9997558016758776
 10
120.94709358022635
 20
-3317.6592196816146
 30
0.0
 41
1.0
 10
120.94756971866016
 20
-3317.6592687790976
 30
0.0
 41
1.0
 10
120.94804585709396
 20
-3317.6593178765806
 30
0.0
 41
1.0
 10
121.03517415743154
 20
-3317.668302196982
 30
0.0
 41
0.9996565144181515
 10
121.12171201076927
 20
-3317.6818395036703
 30
0.0
 41
1.0
 10
121.12217793614184
 20
-3317.6819123894011
 30
0.0
 41
1.0
 10
121.12264386151439
 20
-3317.6819852751314
 30
0.0
 41
1.0
 10
121.20824986410655
 20
-3317.6953768103585
 30
0.0
 41
0.9995321806867565
 10
121.29287694443929
 20
-3317.7139772987884
 30
0.0
 41
1.0
 10
121.29326613900767
 20
-3317.7140628412535
 30
0.0
 41
1.0
 10
121.29365533357607
 20
-3317.7141483837186
 30
0.0
 41
1.0
 10
121.37750402476313
 20
-3317.7325777872165
 30
0.0
 41
0.9993819199220195
 10
121.45985055896347
 20
-3317.7568531704783
 30
0.0
 41
1.0
 10
121.46008899246058
 20
-3317.7569234595876
 30
0.0
 41
1.0
 10
121.4603274259577
 20
-3317.7569937486965
 30
0.0
 41
1.0
 10
121.54219709315905
 20
-3317.7811285537387
 30
0.0
 41
0.9992088568504726
 10
121.62188961214792
 20
-3317.8116937895338
 30
0.0
 41
1.0
 10
121.70157060302708
 20
-3317.8422533902672
 30
0.0
 41
0.9990226101772304
 10
121.77824127293411
 20
-3317.8797308218818
 30
0.0
 41
1.0
 10
121.85490041473156
 20
-3317.9172026184347
 30
0.0
 41
0.9988424273972497
 10
121.92760404194452
 20
-3317.961867393688
 30
0.0
 41
1.0
 10
121.92787175032385
 20
-3317.9620318577599
 30
0.0
 41
1.0
 10
121.92813945870319
 20
-3317.9621963218324
 30
0.0
 41
1.0
 10
122.00137850267306
 20
-3318.0071900252287
 30
0.0
 41
0.9986928844489148
 10
122.06964136938247
 20
-3318.0594257595085
 30
0.0
 41
1.0
 10
122.07022266160592
 20
-3318.0598705727371
 30
0.0
 41
1.0
 10
122.0708039538294
 20
-3318.0603153859652
 30
0.0
 41
1.0
 10
122.14022940498624
 20
-3318.1134407467021
 30
0.0
 41
0.9986007262278923
 10
122.20365557475527
 20
-3318.1736015163979
 30
0.0
 41
1.0
 10
122.20454999021055
 20
-3318.1744498842309
 30
0.0
 41
1.0
 10
122.20544440566584
 20
-3318.1752982520643
 30
0.0
 41
1.0
 10
122.27065940634496
 20
-3318.2371557574256
 30
0.0
 41
0.9985581491380211
 10
122.32886701804631
 20
-3318.3056482476968
 30
0.0
 41
1.0
 10
122.33812547164331
 20
-3318.3165426054002
 30
0.0
 41
1.0
 10
122.34738392524031
 20
-3318.3274369631031
 30
0.0
 41
1.0
 10
122.42410844413361
 20
-3318.4177181687787
 30
0.0
 41
0.997046023352179
 10
122.48610034529315
 20
-3318.51868525296
 30
0.0
 41
1.0
 10
122.50056971037279
 20
-3318.5422517120414
 30
0.0
 41
1.0
 10
122.51503907545241
 20
-3318.5658181711228
 30
0.0
 41
1.0
 10
122.55477577546442
 20
-3318.6305378951538
 30
0.0
 41
0.9988468816635044
 10
122.58812214621582
 20
-3318.6987703475816
 30
0.0
 41
1.0
 10
122.59515816870781
 20
-3318.7131672687201
 30
0.0
 41
1.0
 10
122.6021941911998
 20
-3318.7275641898586
 30
0.0
 41
1.0
 10
122.62146851696951
 20
-3318.7670028000143
 30
0.0
 41
0.9998431189998357
 10
122.63933384446233
 20
-3318.8070993544497
 30
0.0
 41
1.0
 10
122.65719917196003
 20
-3318.8471959088965
 30
0.0
 41
0.9999989989882596
 10
122.67517789538081
 20
-3318.8872417464781
 30
0.0
 41
1.0
 10
122.6813502069743
 20
-3318.9009899632892
 30
0.0
 41
1.0
 10
122.68752251856779
 20
-3318.9147381800999
 30
0.0
 41
1.0
 10
122.71784586517731
 20
-3318.9822804513074
 30
0.0
 41
0.9998790356322159
 10
122.74605374531626
 20
-3319.0507332032462
 30
0.0
 41
1.0
 10
122.75288892660095
 20
-3319.0673203046745
 30
0.0
 41
1.0
 10
122.75972410788563
 20
-3319.0839074061028
 30
0.0
 41
1.0
 10
122.78328177026656
 20
-3319.1410753609898
 30
0.0
 41
0.9998227574560306
 10
122.80467051865446
 20
-3319.1990896692637
 30
0.0
 41
1.0
 10
122.82605926704373
 20
-3319.2571039775412
 30
0.0
 41
0.9996797971041792
 10
122.84448555200174
 20
-3319.3161260966554
 30
0.0
 41
1.0
 10
122.84838935472791
 20
-3319.3286305548263
 30
0.0
 41
1.0
 10
122.85229315745408
 20
-3319.3411350129973
 30
0.0
 41
1.0
 10
122.87852704786476
 20
-3319.4251660484542
 30
0.0
 41
0.9979274938733558
 10
122.89375157134356
 20
-3319.5118704071137
 30
0.0
 41
1.0
 10
122.89597525860489
 20
-3319.5245344079358
 30
0.0
 41
1.0
 10
122.89819894586621
 20
-3319.5371984087578
 30
0.0
 41
1.0
 10
122.90912888556431
 20
-3319.5994449160489
 30
0.0
 41
0.9994985982138991
 10
122.91609705074114
 20
-3319.6622584171882
 30
0.0
 41
1.0
 10
122.92306521591802
 20
-3319.725071918328
 30
0.0
 41
0.9996372611200948
 10
122.92664108168589
 20
-3319.7881694970133
 30
0.0
 41
1.0
 10
122.92680965917518
 20
-3319.791144114095
 30
0.0
 41
1.0
 10
122.92697823666447
 20
-3319.7941187311767
 30
0.0
 41
1.0
 10
122.93089125741078
 20
-3319.8631655440199
 30
0.0
 41
0.9997730630736686
 10
122.93185957089892
 20
-3319.9323163680574
 30
0.0
 41
1.0
 10
122.93191667731703
 20
-3319.9363945471991
 30
0.0
 41
1.0
 10
122.93197378373515
 20
-3319.9404727263409
 30
0.0
 41
1.0
 10
122.93305631005958
 20
-3320.0177799086632
 30
0.0
 41
0.9998772614071431
 10
122.93171622332773
 20
-3320.095083055221
 30
0.0
 41
1.0
 10
122.93162696012897
 20
-3320.100232219057
 30
0.0
 41
1.0
 10
122.93153769693021
 20
-3320.105381382893
 30
0.0
 41
1.0
 10
122.93001908380127
 20
-3320.1929828571192
 30
0.0
 41
0.9999415567325157
 10
122.92660677355501
 20
-3320.2805310188032
 30
0.0
 41
1.0
 10
122.92636545287971
 20
-3320.28672247854
 30
0.0
 41
1.0
 10
122.92612413220439
 20
-3320.2929139382768
 30
0.0
 41
1.0
 10
122.92222918060838
 20
-3320.3928450194135
 30
0.0
 41
0.9999716810432796
 10
122.91683059748947
 20
-3320.4927061576514
 30
0.0
 41
1.0
 10
122.91361779870076
 20
-3320.5521354073071
 30
0.0
 41
1.0
 10
122.91040499991205
 20
-3320.6115646569629
 30
0.0
 41
1.0
 10
122.90233109075922
 20
-3320.7609130582455
 30
0.0
 41
0.9999819129894524
 10
122.89246129914244
 20
-3320.9101535359623
 30
0.0
 41
1.0
 10
122.88259150752583
 20
-3321.0593940136737
 30
0.0
 41
1.0
 10
122.88015218696194
 20
-3321.0965870595228
 30
0.0
 41
1.0
 10
122.90285042080234
 20
-3321.0578460621773
 30
0.0
 41
0.9999982128178448
 10
122.92569497955311
 20
-3321.0191911682273
 30
0.0
 41
1.0
 10
122.95260453943558
 20
-3320.9736579541759
 30
0.0
 41
1.0
 10
122.97951409931807
 20
-3320.928124740125
 30
0.0
 41
1.0
 10
123.05617777784207
 20
-3320.7984034180586
 30
0.0
 41
0.9998609190060128
 10
123.13712509070723
 20
-3320.6713110361234
 30
0.0
 41
1.0
 10
123.16677341219003
 20
-3320.6247613031646
 30
0.0
 41
1.0
 10
123.19642173367284
 20
-3320.5782115702059
 30
0.0
 41
1.0
 10
123.27869395390681
 20
-3320.4490390002156
 30
0.0
 41
0.9999067609732305
 10
123.36446296337027
 20
-3320.3221613107753
 30
0.0
 41
1.0
 10
123.36686766656911
 20
-3320.3186040447235
 30
0.0
 41
1.0
 10
123.36927236976793
 20
-3320.3150467786718
 30
0.0
 41
1.0
 10
123.45023197283163
 20
-3320.1952836213377
 30
0.0
 41
0.9998784952148341
 10
123.5348855825157
 20
-3320.078102404625
 30
0.0
 41
1.0
 10
123.619539192198
 20
-3319.9609211879151
 30
0.0
 41
0.9998532968283594
 10
123.70815681302319
 20
-3319.8467082794414
 30
0.0
 41
1.0
 10
123.72811860201121
 20
-3319.820980958425
 30
0.0
 41
1.0
 10
123.74808039099922
 20
-3319.7952536374091
 30
0.0
 41
1.0
 10
123.86656444075797
 20
-3319.6425480264397
 30
0.0
 41
0.9991551975794658
 10
123.99718889038428
 20
-3319.5000884643537
 30
0.0
 41
1.0
 10
124.00069850636687
 20
-3319.4962608627266
 30
0.0
 41
1.0
 10
124.00420812234947
 20
-3319.492433261099
 30
0.0
 41
1.0
 10
124.1278133400096
 20
-3319.3576289022685
 30
0.0
 41
0.9997418144181233
 10
124.25741547970841
 20
-3319.2285794916579
 30
0.0
 41
1.0
 10
124.38701761940752
 20
-3319.0995300810464
 30
0.0
 41
0.9989238204632918
 10
124.52802016765884
 20
-3318.9830451190073
 30
0.0
 41
1.0
 10
124.57326784580017
 20
-3318.9456651273972
 30
0.0
 41
1.0
 10
124.61851552394151
 20
-3318.9082851357871
 30
0.0
 41
1.0
 10
124.75875558116191
 20
-3318.792430082497
 30
0.0
 41
0.9990825084096809
 10
124.9083955137645
 20
-3318.6890010846651
 30
0.0
 41
1.0
 10
124.9184408778207
 20
-3318.682057871586
 30
0.0
 41
1.0
 10
124.9284862418769
 20
-3318.675114658507
 30
0.0
 41
1.0
 10
125.05803544636721
 20
-3318.5855720868331
 30
0.0
 41
0.9998164899827025
 10
125.19091964974473
 20
-3318.5010578453157
 30
0.0
 41
1.0
 10
125.20276521026861
 20
-3318.4935240787913
 30
0.0
 41
1.0
 10
125.2146107707925
 20
-3318.4859903122669
 30
0.0
 41
1.0
 10
125.32380385311812
 20
-3318.4165436038006
 30
0.0
 41
0.9997473449130295
 10
125.43600781037043
 20
-3318.3520746459835
 30
0.0
 41
1.0
 10
125.54821176761851
 20
-3318.2876056881682
 30
0.0
 41
0.9999327861140861
 10
125.66188037838494
 20
-3318.2257556964855
 30
0.0
 41
1.0
 10
125.66243238094484
 20
-3318.225455337807
 30
0.0
 41
1.0
 10
125.66298438350475
 20
-3318.2251549791281
 30
0.0
 41
1.0
 10
125.77775699939076
 20
-3318.1627042700879
 30
0.0
 41
0.9996956420483278
 10
125.8954703252324
 20
-3318.1059908031125
 30
0.0
 41
1.0
 10
125.92591073011761
 20
-3318.091324826386
 30
0.0
 41
1.0
 10
125.95635113500281
 20
-3318.0766588496599
 30
0.0
 41
1.0
 10
126.05932824175173
 20
-3318.0270451912138
 30
0.0
 41
0.9998070570177552
 10
126.16417463070002
 20
-3317.9815146043093
 30
0.0
 41
1.0
 10
126.26902101964657
 20
-3317.9359840174061
 30
0.0
 41
0.9997827436147088
 10
126.37567395626375
 20
-3317.8948628460917
 30
0.0
 41
1.0
 10
126.39489680588869
 20
-3317.8874512724615
 30
0.0
 41
1.0
 10
126.41411965551362
 20
-3317.8800396988318
 30
0.0
 41
1.0
 10
126.55921829138991
 20
-3317.8240953802538
 30
0.0
 41
0.9988031841976222
 10
126.70908865399851
 20
-3317.7825953160855
 30
0.0
 41
1.0
 10
126.73400590235639
 20
-3317.7756955702798
 30
0.0
 41
1.0
 10
126.75892315071428
 20
-3317.7687958244746
 30
0.0
 41
1.0
 10
126.92619317636256
 20
-3317.7224776820672
 30
0.0
 41
0.998474804054967
 10
127.09755008501361
 20
-3317.6948834498016
 30
0.0
 41
1.0
 10
127.10228922126325
 20
-3317.6941202892881
 30
0.0
 41
1.0
 10
127.1070283575129
 20
-3317.6933571287746
 30
0.0
 41
1.0
 10
127.26890699366341
 20
-3317.6672892175366
 30
0.0
 41
0.9984436495479127
 10
127.43268173738733
 20
-3317.6594112637181
 30
0.0
 41
1.0
 10
127.45437894552106
 20
-3317.6583675765187
 30
0.0
 41
1.0
 10
127.47607615365479
 20
-3317.6573238893188
 30
0.0
 41
1.0
 10
127.59645648111439
 20
-3317.6515333098996
 30
0.0
 41
0.9987954789335639
 10
127.71682472602185
 20
-3317.6575698376419
 30
0.0
 41
1.0
 10
127.73678951851642
 20
-3317.6585710819804
 30
0.0
 41
1.0
 10
127.75675431101098
 20
-3317.659572326319
 30
0.0
 41
1.0
 10
127.83719297093197
 20
-3317.6636063653841
 30
0.0
 41
0.9997941595877451
 10
127.91740174902611
 20
-3317.6709004313052
 30
0.0
 41
1.0
 10
127.99761052712168
 20
-3317.6781944972263
 30
0.0
 41
0.9998589466237576
 10
128.07752907397892
 20
-3317.6881783516765
 30
0.0
 41
1.0
 10
128.10993527578546
 20
-3317.6922267085956
 30
0.0
 41
1.0
 10
128.14234147759203
 20
-3317.6962750655148
 30
0.0
 41
1.0
 10
128.2870724280593
 20
-3317.7143556338024
 30
0.0
 41
0.9993495063248991
 10
128.43012367182126
 20
-3317.7428213435433
 30
0.0
 41
1.0
 10
128.46305736898256
 20
-3317.74937480676
 30
0.0
 41
1.0
 10
128.49599106614389
 20
-3317.7559282699767
 30
0.0
 41
1.0
 10
128.60528488934224
 20
-3317.7776766041106
 30
0.0
 41
0.999678871556106
 10
128.71333646129415
 20
-3317.8049344034725
 30
0.0
 41
1.0
 10
128.71539946383285
 20
-3317.8054548300452
 30
0.0
 41
1.0
 10
128.71746246637153
 20
-3317.8059752566182
 30
0.0
 41
1.0
 10
128.82138803325051
 20
-3317.8321922028358
 30
0.0
 41
0.9995480654492842
 10
128.92355026847997
 20
-3317.8646071594603
 30
0.0
 41
1.0
 10
128.92523991060949
 20
-3317.8651432643746
 30
0.0
 41
1.0
 10
128.92692955273898
 20
-3317.8656793692885
 30
0.0
 41
1.0
 10
129.025712503709
 20
-3317.8970221160839
 30
0.0
 41
0.9993867959455005
 10
129.12205966215197
 20
-3317.9352014853744
 30
0.0
 41
1.0
 10
129.12330261123768
 20
-3317.935694027271
 30
0.0
 41
1.0
 10
129.12454556032338
 20
-3317.9361865691676
 30
0.0
 41
1.0
 10
129.21840682059582
 20
-3317.9733808546653
 30
0.0
 41
0.9992050256523116
 10
129.30900649562784
 20
-3318.0179347539029
 30
0.0
 41
1.0
 10
129.30974117834091
 20
-3318.018296046364
 30
0.0
 41
1.0
 10
129.31047586105396
 20
-3318.0186573388251
 30
0.0
 41
1.0
 10
129.39960617066163
 20
-3318.0624886531418
 30
0.0
 41
0.99902223507408
 10
129.48451623205489
 20
-3318.1140219208401
 30
0.0
 41
1.0
 10
129.48470011733528
 20
-3318.1141335237435
 30
0.0
 41
1.0
 10
129.48488400261567
 20
-3318.1142451266469
 30
0.0
 41
1.0
 10
129.56942629344732
 20
-3318.1655551885374
 30
0.0
 41
0.9988642743804824
 10
129.64870082806755
 20
-3318.2246793760632
 30
0.0
 41
1.0
 10
129.72797536268558
 20
-3318.2838035635878
 30
0.0
 41
0.9987681233311536
 10
129.80099914696183
 20
-3318.3504942549885
 30
0.0
 41
1.0
 10
129.80132807492805
 20
-3318.3507946562031
 30
0.0
 41
1.0
 10
129.80165700289427
 20
-3318.3510950574178
 30
0.0
 41
1.0
 10
129.87533864310018
 20
-3318.418386551245
 30
0.0
 41
0.9987496570898308
 10
129.94193244842671
 20
-3318.4926993653307
 30
0.0
 41
1.0
 10
129.94270461818843
 20
-3318.4935610386901
 30
0.0
 41
1.0
 10
129.94347678795015
 20
-3318.4944227120495
 30
0.0
 41
1.0
 10
130.01161493279895
 20
-3318.5704588728527
 30
0.0
 41
0.9988147669826921
 10
130.07203718702633
 20
-3318.6527598796988
 30
0.0
 41
1.0
 10
130.0731565131025
 20
-3318.6542845110489
 30
0.0
 41
1.0
 10
130.07427583917865
 20
-3318.6558091423994
 30
0.0
 41
1.0
 10
130.13693674555759
 20
-3318.741159411944
 30
0.0
 41
0.9989452636214971
 10
130.19150365851925
 20
-3318.8318981011025
 30
0.0
 41
1.0
 10
130.19285238460552
 20
-3318.8341408821298
 30
0.0
 41
1.0
 10
130.19420111069178
 20
-3318.836383663157
 30
0.0
 41
1.0
 10
130.25146547582457
 20
-3318.9316079143678
 30
0.0
 41
0.9991046436071756
 10
130.30047468914705
 20
-3319.0313323473943
 30
0.0
 41
1.0
 10
130.30193855073659
 20
-3319.0343110274662
 30
0.0
 41
1.0
 10
130.30340241232614
 20
-3319.0372897075376
 30
0.0
 41
1.0
 10
130.35533934882665
 20
-3319.1429715007048
 30
0.0
 41
0.999276383110002
 10
130.39909247738137
 20
-3319.25229556266
 30
0.0
 41
1.0
 10
130.40057174704546
 20
-3319.2559917501958
 30
0.0
 41
1.0
 10
130.40205101670955
 20
-3319.2596879377311
 30
0.0
 41
1.0
 10
130.4487626845918
 20
-3319.3764043747565
 30
0.0
 41
0.9994163472884187
 10
130.48739571578187
 20
-3319.4960379632207
 30
0.0
 41
1.0
 10
130.48863386802788
 20
-3319.4998721070015
 30
0.0
 41
1.0
 10
130.48987202027385
 20
-3319.5037062507818
 30
0.0
 41
1.0
 10
130.52975558129106
 20
-3319.6272123122594
 30
0.0
 41
0.9997268055890478
 10
130.56382363720388
 20
-3319.7524473442131
 30
0.0
 41
1.0
 10
130.56475381747347
 20
-3319.7558667103222
 30
0.0
 41
1.0
 10
130.56568399774306
 20
-3319.7592860764312
 30
0.0
 41
1.0
 10
130.59789169311603
 20
-3319.877682376165
 30
0.0
 41
0.9996701319000426
 10
130.62397730988636
 20
-3319.9975763294269
 30
0.0
 41
1.0
 10
130.6500629266568
 20
-3320.1174702826897
 30
0.0
 41
0.9995785451109089
 10
130.66914650399659
 20
-3320.2386760437221
 30
0.0
 41
1.0
 10
130.67336628617022
 20
-3320.2654771984862
 30
0.0
 41
1.0
 10
130.67758606834383
 20
-3320.2922783532508
 30
0.0
 41
1.0
 10
130.70416104428244
 20
-3320.4610643269543
 30
0.0
 41
0.9979925101216923
 10
130.70918663020893
 20
-3320.6318556550468
 30
0.0
 41
1.0
 10
130.71001144263357
 20
-3320.6598863785275
 30
0.0
 41
1.0
 10
130.71083625505821
 20
-3320.6879171020082
 30
0.0
 41
1.0
 10
130.71421221613554
 20
-3320.8026469831339
 30
0.0
 41
0.9995314902262716
 10
130.71056202399677
 20
-3320.9173684668904
 30
0.0
 41
1.0
 10
130.70691183185824
 20
-3321.0320899506405
 30
0.0
 41
0.9996245486944606
 10
130.69698273672736
 20
-3321.1464392217672
 30
0.0
 41
1.0
 10
130.69681968873314
 20
-3321.1483169779021
 30
0.0
 41
1.0
 10
130.69665664073892
 20
-3321.1501947340371
 30
0.0
 41
1.0
 10
130.68640144961924
 20
-3321.2682995174341
 30
0.0
 41
0.9997286095001277
 10
130.67065612604844
 20
-3321.3857984263241
 30
0.0
 41
1.0
 10
130.67026263339795
 20
-3321.388734851027
 30
0.0
 41
1.0
 10
130.66986914074744
 20
-3321.39167127573
 30
0.0
 41
1.0
 10
130.65333683187424
 20
-3321.5150430340345
 30
0.0
 41
0.9998265533969206
 10
130.63222137314216
 20
-3321.6377135088201
 30
0.0
 41
1.0
 10
130.63154483100527
 20
-3321.6416438873257
 30
0.0
 41
1.0
 10
130.63086828886838
 20
-3321.6455742658318
 30
0.0
 41
1.0
 10
130.60839974586168
 20
-3321.7761054976331
 30
0.0
 41
0.9999022530854531
 10
130.58229028125234
 20
-3321.9059574662692
 30
0.0
 41
1.0
 10
130.58131164008654
 20
-3321.9108246086589
 30
0.0
 41
1.0
 10
130.58033299892077
 20
-3321.9156917510481
 30
0.0
 41
1.0
 10
130.55226625198026
 20
-3322.0552780044609
 30
0.0
 41
0.9999524761938353
 10
130.52148328314473
 20
-3322.1942904976281
 30
0.0
 41
1.0
 10
130.52020717596955
 20
-3322.2000532569291
 30
0.0
 41
1.0
 10
130.51893106879436
 20
-3322.2058160162305
 30
0.0
 41
1.0
 10
130.4855958856038
 20
-3322.3563540280206
 30
0.0
 41
0.99998135887207
 10
130.45042488481101
 20
-3322.5064737406638
 30
0.0
 41
1.0
 10
130.44887095935542
 20
-3322.5131063310819
 30
0.0
 41
1.0
 10
130.44731703389982
 20
-3322.5197389215004
 30
0.0
 41
1.0
 10
130.40903818218936
 20
-3322.6831238150071
 30
0.0
 41
0.9999955237733422
 10
130.36978230421505
 20
-3322.8462767185883
 30
0.0
 41
1.0
 10
130.35750066857833
 20
-3322.8973209091209
 30
0.0
 41
1.0
 10
130.3452190329416
 20
-3322.948365099654
 30
0.0
 41
1.0
 10
130.28139988370461
 20
-3323.2136063842554
 30
0.0
 41
0.9999993604490409
 10
130.21698093651247
 20
-3323.47870263504
 30
0.0
 41
1.0
 10
130.2122621009714
 20
-3323.4981215430557
 30
0.0
 41
1.0
 10
130.20754326543033
 20
-3323.5175404510715
 30
0.0
 41
1.0
 10
130.13368664716825
 20
-3323.821474517837
 30
0.0
 41
0.999965991472742
 10
130.05482705128156
 20
-3324.1241490644011
 30
0.0
 41
1.0
 10
130.04987436235243
 20
-3324.1431582015775
 30
0.0
 41
1.0
 10
130.04492167342329
 20
-3324.1621673387544
 30
0.0
 41
1.0
 10
129.95615669967583
 20
-3324.5028601596805
 30
0.0
 41
0.9999441976023122
 10
129.86021366671434
 20
-3324.841601584973
 30
0.0
 41
1.0
 10
129.84351314828885
 20
-3324.9005652975002
 30
0.0
 41
1.0
 10
129.82681262986335
 20
-3324.9595290100278
 30
0.0
 41
1.0
 10
129.69746856004801
 20
-3325.4161978603838
 30
0.0
 41
0.9999625120737675
 10
129.5602357927263
 20
-3325.8705583943752
 30
0.0
 41
1.0
 10
129.52444584964024
 20
-3325.9890544210125
 30
0.0
 41
1.0
 10
129.48865590655419
 20
-3326.1075504476498
 30
0.0
 41
1.0
 10
129.41413570251746
 20
-3326.3542775257379
 30
0.0
 41
0.9999793386310204
 10
129.33644967938079
 20
-3326.6000261649706
 30
0.0
 41
1.0
 10
129.25876365624322
 20
-3326.8457748042065
 30
0.0
 41
1.0
 10
129.24798409737252
 20
-3326.8797927085816
 30
0.0
 41
1.0
 10
127.39761104410337
 20
-3332.766864631049
 30
0.0
 41
1.0
 10
125.54723799083422
 20
-3338.6539365535164
 30
0.0
 41
1.0
 10
124.58598130081066
 20
-3338.6539365535164
 30
0.0
 41
1.0
 10
123.6247246107871
 20
-3338.6539365535164
 30
0.0
 41
1.0
 10
125.24366938946554
 20
-3333.5059080517267
 30
0.0
 41
1.0
 10
126.86261416814398
 20
-3328.3578795499375
 30
0.0
 41
1.0
 10
126.90777999132033
 20
-3328.2138483276613
 30
0.0
 41
1.0
 10
126.95294581449666
 20
-3328.0698171053846
 30
0.0
 41
1.0
 10
127.12325023185423
 20
-3327.5267260762384
 30
0.0
 41
0.9999911657871052
 10
127.28898304353555
 20
-3326.9822225448715
 30
0.0
 41
1.0
 10
127.31867898703399
 20
-3326.8846586048276
 30
0.0
 41
1.0
 10
127.34837493053243
 20
-3326.787094664784
 30
0.0
 41
1.0
 10
127.45471585521364
 20
-3326.4377190135156
 30
0.0
 41
0.9999952428144936
 10
127.55889944454071
 20
-3326.0876939891587
 30
0.0
 41
1.0
 10
127.56395891487064
 20
-3326.0706957148923
 30
0.0
 41
1.0
 10
127.56901838520056
 20
-3326.0536974406255
 30
0.0
 41
1.0
 10
127.66308303386646
 20
-3325.7376689648063
 30
0.0
 41
0.9999931687513307
 10
127.75480887173933
 20
-3325.420953751538
 30
0.0
 41
1.0
 10
127.75974413619966
 20
-3325.4039130422643
 30
0.0
 41
1.0
 10
127.76467940065999
 20
-3325.3868723329906
 30
0.0
 41
1.0
 10
127.84653470960875
 20
-3325.1042385382821
 30
0.0
 41
0.9999893840779959
 10
127.92578193606982
 20
-3324.8208624090212
 30
0.0
 41
1.0
 10
128.00502916252555
 20
-3324.537486279778
 30
0.0
 41
0.9999833980057935
 10
128.08100540326694
 20
-3324.2532156967518
 30
0.0
 41
1.0
 10
128.09000933999022
 20
-3324.2195268182695
 30
0.0
 41
1.0
 10
128.09901327671352
 20
-3324.1858379397872
 30
0.0
 41
1.0
 10
128.16797782557794
 20
-3323.9278021074983
 30
0.0
 41
0.9999233658067565
 10
128.23053279680016
 20
-3323.6681379487682
 30
0.0
 41
1.0
 10
128.29308776802043
 20
-3323.4084737900457
 30
0.0
 41
1.0
 10
128.332571186878
 20
-3323.2446671256193
 30
0.0
 41
1.0
 10
128.33754979085558
 20
-3323.2240121637478
 30
0.0
 41
1.0
 10
128.34252839483315
 20
-3323.2033572018763
 30
0.0
 41
1.0
 10
128.37205460573159
 20
-3323.0808604612102
 30
0.0
 41
0.9999868670879646
 10
128.40032368973175
 20
-3322.958067515548
 30
0.0
 41
1.0
 10
128.40422117689002
 20
-3322.9411379281287
 30
0.0
 41
1.0
 10
128.40811866404829
 20
-3322.9242083407094
 30
0.0
 41
1.0
 10
128.42859277372673
 20
-3322.8352745699076
 30
0.0
 41
0.9999778173340015
 10
128.44788037184338
 20
-3322.7460759526721
 30
0.0
 41
1.0
 10
128.46716796995904
 20
-3322.6568773354415
 30
0.0
 41
0.9999602692859474
 10
128.48486232859062
 20
-3322.5673490470099
 30
0.0
 41
1.0
 10
128.48806616066773
 20
-3322.5511385921268
 30
0.0
 41
1.0
 10
128.49126999274483
 20
-3322.5349281372437
 30
0.0
 41
1.0
 10
128.51537201552978
 20
-3322.4129789390513
 30
0.0
 41
0.9995617985320989
 10
128.5322153627491
 20
-3322.2898171913439
 30
0.0
 41
1.0
 10
128.5346798526557
 20
-3322.2717963739751
 30
0.0
 41
1.0
 10
128.53714434256233
 20
-3322.2537755566068
 30
0.0
 41
1.0
 10
128.55742760361039
 20
-3322.1054605069071
 30
0.0
 41
0.9991121410639764
 10
128.56515295719862
 20
-3321.9559644081014
 30
0.0
 41
1.0
 10
128.56607174722319
 20
-3321.9381845715252
 30
0.0
 41
1.0
 10
128.56699053724773
 20
-3321.920404734949
 30
0.0
 41
1.0
 10
128.57287831078676
 20
-3321.8064683092975
 30
0.0
 41
0.9989792494905895
 10
128.56845921866955
 20
-3321.6924654733971
 30
0.0
 41
1.0
 10
128.56781124680094
 20
-3321.6757492274705
 30
0.0
 41
1.0
 10
128.56716327493231
 20
-3321.659032981544
 30
0.0
 41
1.0
 10
128.56404012655258
 20
-3321.5784626375043
 30
0.0
 41
0.9997820295393389
 10
128.55755612917653
 20
-3321.4980929157546
 30
0.0
 41
1.0
 10
128.55107213180057
 20
-3321.4177231940066
 30
0.0
 41
0.9998335105972956
 10
128.54165993628882
 20
-3321.3376435775576
 30
0.0
 41
1.0
 10
128.54006501161263
 20
-3321.3240738470759
 30
0.0
 41
1.0
 10
128.53847008693646
 20
-3321.3105041165945
 30
0.0
 41
1.0
 10
128.52586804207189
 20
-3321.2032850391756
 30
0.0
 41
0.9996876457878582
 10
128.50792412927359
 20
-3321.0968296114611
 30
0.0
 41
1.0
 10
128.50569246612844
 20
-3321.0835898762207
 30
0.0
 41
1.0
 10
128.50346080298328
 20
-3321.0703501409798
 30
0.0
 41
1.0
 10
128.48966498156184
 20
-3320.98850399702
 30
0.0
 41
0.9995547496495336
 10
128.47101165966944
 20
-3320.9076264998293
 30
0.0
 41
1.0
 10
128.47063770279806
 20
-3320.9060050891235
 30
0.0
 41
1.0
 10
128.47026374592664
 20
-3320.9043836784176
 30
0.0
 41
1.0
 10
128.45235833777707
 20
-3320.8267490026396
 30
0.0
 41
0.9994899427175932
 10
128.42953342909749
 20
-3320.7504157198036
 30
0.0
 41
1.0
 10
128.42907490235632
 20
-3320.7488822700134
 30
0.0
 41
1.0
 10
128.42861637561518
 20
-3320.7473488202236
 30
0.0
 41
1.0
 10
128.40670852041887
 20
-3320.6740824369704
 30
0.0
 41
0.9993784877590025
 10
128.37969288531156
 20
-3320.6025417318101
 30
0.0
 41
1.0
 10
128.3791611943347
 20
-3320.60113374909
 30
0.0
 41
1.0
 10
128.37862950335784
 20
-3320.5997257663694
 30
0.0
 41
1.0
 10
128.35267725020549
 20
-3320.5310010266526
 30
0.0
 41
0.9992430832254585
 10
128.32146071504559
 20
-3320.4645018745828
 30
0.0
 41
1.0
 10
128.3208785989894
 20
-3320.4632618194664
 30
0.0
 41
1.0
 10
128.32029648293317
 20
-3320.4620217643496
 30
0.0
 41
1.0
 10
128.2902441798862
 20
-3320.3980027225143
 30
0.0
 41
0.9990789632798176
 10
128.25481355310956
 20
-3320.3367961107647
 30
0.0
 41
1.0
 10
128.25421784692691
 20
-3320.3357670249043
 30
0.0
 41
1.0
 10
128.25362214074428
 20
-3320.3347379390439
 30
0.0
 41
1.0
 10
128.21938292633286
 20
-3320.2755894990155
 30
0.0
 41
0.9988874801122334
 10
128.17972365030079
 20
-3320.2199297865973
 30
0.0
 41
1.0
 10
128.17916812423726
 20
-3320.2191501349234
 30
0.0
 41
1.0
 10
128.17861259817377
 20
-3320.2183704832501
 30
0.0
 41
1.0
 10
128.14006437426923
 20
-3320.16427007418
 30
0.0
 41
0.9986762060691919
 10
128.09616190299261
 20
-3320.1144163597405
 30
0.0
 41
1.0
 10
128.09571794266137
 20
-3320.1139122179247
 30
0.0
 41
1.0
 10
128.09527398233013
 20
-3320.1134080761094
 30
0.0
 41
1.0
 10
128.05225943171689
 20
-3320.0645626453015
 30
0.0
 41
0.9984621642487199
 10
128.00410187493861
 20
-3320.0207793448303
 30
0.0
 41
1.0
 10
128.00385524042127
 20
-3320.0205551126664
 30
0.0
 41
1.0
 10
128.00360860590393
 20
-3320.0203308805021
 30
0.0
 41
1.0
 10
127.95594431815999
 20
-3319.9769960443587
 30
0.0
 41
0.9982724693852582
 10
127.90352568631937
 20
-3319.9395516938412
 30
0.0
 41
1.0
 10
127.85110705447838
 20
-3319.9021073433237
 30
0.0
 41
0.9981399180159143
 10
127.79452099108379
 20
-3319.8713208238796
 30
0.0
 41
1.0
 10
127.79447532900573
 20
-3319.8712959807226
 30
0.0
 41
1.0
 10
127.79442966692767
 20
-3319.8712711375656
 30
0.0
 41
1.0
 10
127.73775227937571
 20
-3319.8404349318071
 30
0.0
 41
0.9980927086836956
 10
127.6777069283072
 20
-3319.8168181229539
 30
0.0
 41
1.0
 10
127.67726675859743
 20
-3319.8166449970795
 30
0.0
 41
1.0
 10
127.67682658888765
 20
-3319.8164718712055
 30
0.0
 41
1.0
 10
127.6159008984002
 20
-3319.792508810604
 30
0.0
 41
0.9981411356561917
 10
127.55251237700234
 20
-3319.7761361690987
 30
0.0
 41
1.0
 10
127.55163026029899
 20
-3319.7759083268929
 30
0.0
 41
1.0
 10
127.55074814359563
 20
-3319.7756804846867
 30
0.0
 41
1.0
 10
127.4855953887928
 20
-3319.75885215877
 30
0.0
 41
0.9983031812934916
 10
127.41892795979764
 20
-3319.7497127975935
 30
0.0
 41
1.0
 10
127.41005693439425
 20
-3319.7484966789225
 30
0.0
 41
1.0
 10
127.40118590899085
 20
-3319.7472805602511
 30
0.0
 41
1.0
 10
127.34683626648663
 20
-3319.7398298302601
 30
0.0
 41
0.9983887708263179
 10
127.2919924171938
 20
-3319.7385851566269
 30
0.0
 41
1.0
 10
127.28392901197915
 20
-3319.7384021587523
 30
0.0
 41
1.0
 10
127.27586560676451
 20
-3319.7382191608772
 30
0.0
 41
1.0
 10
127.2371485679038
 20
-3319.7373404829932
 30
0.0
 41
0.9998869563077945
 10
127.1984226146983
 20
-3319.7376263523529
 30
0.0
 41
1.0
 10
127.15969666152432
 20
-3319.7379122217126
 30
0.0
 41
0.9999972320099688
 10
127.12097248233997
 20
-3319.738380321241
 30
0.0
 41
1.0
 10
127.10161946573241
 20
-3319.7386142613304
 30
0.0
 41
1.0
 10
127.08226644912486
 20
-3319.7388482014203
 30
0.0
 41
1.0
 10
127.0048362367565
 20
-3319.7397841811285
 30
0.0
 41
0.9997304945087403
 10
126.9275329305209
 20
-3319.7443132749145
 30
0.0
 41
1.0
 10
126.91848328881446
 20
-3319.7448434809048
 30
0.0
 41
1.0
 10
126.90943364710802
 20
-3319.7453736868947
 30
0.0
 41
1.0
 10
126.81403105745295
 20
-3319.7509631926609
 30
0.0
 41
0.999788830641567
 10
126.71893872160243
 20
-3319.7604681571511
 30
0.0
 41
1.0
 10
126.71021766003811
 20
-3319.7613398717822
 30
0.0
 41
1.0
 10
126.7014965984738
 20
-3319.7622115864137
 30
0.0
 41
1.0
 10
126.58896213948718
 20
-3319.773459980167
 30
0.0
 41
0.9984170238191483
 10
126.47840299213699
 20
-3319.7972760621019
 30
0.0
 41
1.0
 10
126.44202186114845
 20
-3319.8051130979084
 30
0.0
 41
1.0
 10
126.4056407301599
 20
-3319.8129501337153
 30
0.0
 41
1.0
 10
126.29044966173878
 20
-3319.837764000225
 30
0.0
 41
0.9976592854198093
 10
126.179721495335
 20
-3319.8780626773719
 30
0.0
 41
1.0
 10
126.06899332893356
 20
-3319.9183613545179
 30
0.0
 41
0.9993255074352994
 10
125.96152153014489
 20
-3319.9666782530089
 30
0.0
 41
1.0
 10
125.95689635121876
 20
-3319.9687576292099
 30
0.0
 41
1.0
 10
125.95227117229263
 20
-3319.9708370054109
 30
0.0
 41
1.0
 10
125.83554901565523
 20
-3320.0233126563026
 30
0.0
 41
0.9976475078275339
 10
125.72710167134608
 20
-3320.0912606459601
 30
0.0
 41
1.0
 10
125.7087592772091
 20
-3320.102753124776
 30
0.0
 41
1.0
 10
125.69041688307212
 20
-3320.1142456035918
 30
0.0
 41
1.0
 10
125.60621469152281
 20
-3320.1670027243586
 30
0.0
 41
0.9995131336406573
 10
125.52546697656567
 20
-3320.2249089363117
 30
0.0
 41
1.0
 10
125.44471926161027
 20
-3320.2828151482636
 30
0.0
 41
0.9995810107606512
 10
125.36745761388048
 20
-3320.3452968307301
 30
0.0
 41
1.0
 10
125.3644875826699
 20
-3320.347698702195
 30
0.0
 41
1.0
 10
125.36151755145931
 20
-3320.3501005736598
 30
0.0
 41
1.0
 10
125.27831584131218
 20
-3320.4173859990537
 30
0.0
 41
0.9996617837955223
 10
125.19872515417526
 20
-3320.4889064546151
 30
0.0
 41
1.0
 10
125.18659440329654
 20
-3320.4998071876071
 30
0.0
 41
1.0
 10
125.17446365241781
 20
-3320.5107079205991
 30
0.0
 41
1.0
 10
125.1061881250229
 20
-3320.5720605360698
 30
0.0
 41
0.9997267750052307
 10
125.04085461673986
 20
-3320.6365370725948
 30
0.0
 41
1.0
 10
124.97552110845649
 20
-3320.7010136091199
 30
0.0
 41
0.9999667288959521
 10
124.91124816531887
 20
-3320.7665474160053
 30
0.0
 41
1.0
 10
124.84242071753906
 20
-3320.8367250747679
 30
0.0
 41
1.0
 10
124.77359326975926
 20
-3320.9069027335308
 30
0.0
 41
1.0
 10
124.57166543106209
 20
-3321.1127918579418
 30
0.0
 41
0.9988205335174933
 10
124.39065981408294
 20
-3321.3372960900024
 30
0.0
 41
1.0
 10
124.36001984917826
 20
-3321.3752993404323
 30
0.0
 41
1.0
 10
124.32937988427358
 20
-3321.4133025908623
 30
0.0
 41
1.0
 10
124.08709433748525
 20
-3321.7138133237818
 30
0.0
 41
0.9997077826755502
 10
123.85961638637851
 20
-3322.0256831180004
 30
0.0
 41
1.0
 10
123.8578929712485
 20
-3322.0280459013793
 30
0.0
 41
1.0
 10
123.85616955611852
 20
-3322.0304086847582
 30
0.0
 41
1.0
 10
123.62524477475225
 20
-3322.3470040457337
 30
0.0
 41
0.9989147567078781
 10
123.42478127186789
 20
-3322.68371350692
 30
0.0
 41
1.0
 10
123.40004012656169
 20
-3322.725270087471
 30
0.0
 41
1.0
 10
123.37529898125548
 20
-3322.7668266680221
 30
0.0
 41
1.0
 10
123.22008768261972
 20
-3323.027528052472
 30
0.0
 41
0.9997476598181978
 10
123.07674269510801
 20
-3323.2949378010585
 30
0.0
 41
1.0
 10
122.93339770759945
 20
-3323.5623475496391
 30
0.0
 41
0.9996258967110616
 10
122.8048894556679
 20
-3323.8371954862623
 30
0.0
 41
1.0
 10
122.79168954621585
 20
-3323.8654268863629
 30
0.0
 41
1.0
 10
122.77848963676379
 20
-3323.8936582864635
 30
0.0
 41
1.0
 10
122.63828091576573
 20
-3324.193530684413
 30
0.0
 41
0.9998735413946437
 10
122.5076795690469
 20
-3324.4977102838775
 30
0.0
 41
1.0
 10
122.50423674098742
 20
-3324.5057288693397
 30
0.0
 41
1.0
 10
122.50079391292795
 20
-3324.5137474548019
 30
0.0
 41
1.0
 10
122.37707822233105
 20
-3324.8018898833338
 30
0.0
 41
0.9999377418861123
 10
122.2598234201518
 20
-3325.0927213510199
 30
0.0
 41
1.0
 10
122.14256861797998
 20
-3325.3835528186873
 30
0.0
 41
0.99995082995047
 10
122.03110467460024
 20
-3325.6766524955151
 30
0.0
 41
1.0
 10
122.02802390593727
 20
-3325.6847535214802
 30
0.0
 41
1.0
 10
122.02494313727431
 20
-3325.6928545474452
 30
0.0
 41
1.0
 10
121.90731765657382
 20
-3326.0021562761899
 30
0.0
 41
0.9999609228434117
 10
121.79517905369535
 20
-3326.3134892922171
 30
0.0
 41
1.0
 10
121.79222304334704
 20
-3326.3216961326229
 30
0.0
 41
1.0
 10
121.78926703299874
 20
-3326.3299029730288
 30
0.0
 41
1.0
 10
121.67121640942827
 20
-3326.6576496698549
 30
0.0
 41
0.9999674607400102
 10
121.55846888335782
 20
-3326.9872582898565
 30
0.0
 41
1.0
 10
121.50707049279663
 20
-3327.1375174855448
 30
0.0
 41
1.0
 10
121.45567210223545
 20
-3327.287776681233
 30
0.0
 41
1.0
 10
121.33966149547348
 20
-3327.6269246637485
 30
0.0
 41
0.9999287532306446
 10
121.23178009150371
 20
-3327.9687454027207
 30
0.0
 41
1.0
 10
121.18530283535759
 20
-3328.1160079471138
 30
0.0
 41
1.0
 10
121.13882557921148
 20
-3328.2632704915068
 30
0.0
 41
1.0
 10
121.12389868749108
 20
-3328.310566141829
 30
0.0
 41
0.9999998223605422
 10
121.10902817880253
 20
-3328.3578795499375
 30
0.0
 41
1.0
 10
119.48837204200709
 20
-3333.5059080517267
 30
0.0
 41
1.0
 10
117.86771590521164
 20
-3338.6539365535164
 30
0.0
 41
1.0
 10
116.96240746132071
 20
-3338.6539365535164
 30
0.0
 41
1.0
 10
116.05709901742978
 20
-3338.6539365535164
 30
0.0
 41
1.0
 10
117.90918342881582
 20
-3332.766864631049
 30
0.0
 41
1.0
 10
119.76126784020187
 20
-3326.8797927085816
 30
0.0
 41
1.0
 10
119.77138959850458
 20
-3326.8477494951317
 30
0.0
 41
1.0
 10
119.84399726735433
 20
-3326.6174499533058
 30
0.0
 41
1.0
 10
119.91660493620736
 20
-3326.3871504114695
 30
0.0
 41
0.9999825681973038
 10
119.98648797541539
 20
-3326.1560095164159
 30
0.0
 41
1.0
 10
120.03477903757647
 20
-3325.996284932919
 30
0.0
 41
1.0
 10
120.08307009973755
 20
-3325.8365603494221
 30
0.0
 41
1.0
 10
120.18022245305218
 20
-3325.515225127655
 30
0.0
 41
0.9999672528955358
 10
120.27216125867642
 20
-3325.1923595820654
 30
0.0
 41
1.0
 10
120.27495014234361
 20
-3325.1825657366844
 30
0.0
 41
1.0
 10
120.27773902601082
 20
-3325.1727718913035
 30
0.0
 41
1.0
 10
120.36410006429244
 20
-3324.8694940365049
 30
0.0
 41
0.999989974913892
 10
120.44774167383446
 20
-3324.5654549480259
 30
0.0
 41
1.0
 10
120.45784759285333
 20
-3324.5287197103426
 30
0.0
 41
1.0
 10
120.4679535118722
 20
-3324.4919844726592
 30
0.0
 41
1.0
 10
120.53138328336956
 20
-3324.2614158595716
 30
0.0
 41
0.9999214200505726
 10
120.58901271174688
 20
-3324.0293295173642
 30
0.0
 41
1.0
 10
120.60177856392858
 20
-3323.9779186319638
 30
0.0
 41
1.0
 10
120.61454441611026
 20
-3323.9265077465629
 30
0.0
 41
1.0
 10
120.64664214012453
 20
-3323.7972431751559
 30
0.0
 41
0.9999828681663113
 10
120.67722439212002
 20
-3323.6676117006878
 30
0.0
 41
1.0
 10
120.70780664411386
 20
-3323.5379802262269
 30
0.0
 41
0.9999389844481011
 10
120.73551763290587
 20
-3323.4077047703149
 30
0.0
 41
1.0
 10
120.74265537662548
 20
-3323.3741486664803
 30
0.0
 41
1.0
 10
120.74979312034509
 20
-3323.3405925626457
 30
0.0
 41
1.0
 10
120.79177959657538
 20
-3323.1432048990687
 30
0.0
 41
0.9998933699440216
 10
120.82798386097605
 20
-3322.9446752913168
 30
0.0
 41
1.0
 10
120.82935668619287
 20
-3322.937147270618
 30
0.0
 41
1.0
 10
120.83072951140969
 20
-3322.9296192499187
 30
0.0
 41
1.0
 10
120.86967942624491
 20
-3322.7160336007655
 30
0.0
 41
0.9996850305193461
 10
120.89786310250352
 20
-3322.500762595329
 30
0.0
 41
1.0
 10
120.89985813587275
 20
-3322.4855242412077
 30
0.0
 41
1.0
 10
120.90185316924197
 20
-3322.4702858870864
 30
0.0
 41
1.0
 10
120.92926103170129
 20
-3322.2609406599281
 30
0.0
 41
0.9994697936706795
 10
120.94298559092061
 20
-3322.0502554646009
 30
0.0
 41
1.0
 10
120.94346266017025
 20
-3322.0429319923905
 30
0.0
 41
1.0
 10
120.9439397294199
 20
-3322.0356085201797
 30
0.0
 41
1.0
 10
120.95671015013994
 20
-3321.8395702692733
 30
0.0
 41
0.9991804893137146
 10
120.95358183386742
 20
-3321.6431414192971
 30
0.0
 41
1.0
 10
120.95349795504529
 20
-3321.6378746178843
 30
0.0
 41
1.0
 10
120.95341407622318
 20
-3321.6326078164716
 30
0.0
 41
1.0
 10
120.95045351759448
 20
-3321.4467125693245
 30
0.0
 41
0.9988448329322273
 10
120.92966197197086
 20
-3321.2619599794903
 30
0.0
 41
1.0
 10
120.92806789826784
 20
-3321.2477951237192
 30
0.0
 41
1.0
 10
120.92647382456481
 20
-3321.2336302679482
 30
0.0
 41
1.0
 10
120.90887042634729
 20
-3321.0772073896569
 30
0.0
 41
0.9985503209457798
 10
120.87455415404753
 20
-3320.9235832055674
 30
0.0
 41
1.0
 10
120.86696816197642
 20
-3320.8896228781678
 30
0.0
 41
1.0
 10
120.85938216990529
 20
-3320.8556625507676
 30
0.0
 41
1.0
 10
120.84023788174817
 20
-3320.7699590214788
 30
0.0
 41
0.999103678137093
 10
120.81391302009678
 20
-3320.686181934153
 30
0.0
 41
1.0
 10
120.80993079464072
 20
-3320.6735087716424
 30
0.0
 41
1.0
 10
120.80594856918466
 20
-3320.6608356091315
 30
0.0
 41
1.0
 10
120.78758815844657
 20
-3320.6024048468316
 30
0.0
 41
0.9998874504368303
 10
120.76748295076715
 20
-3320.5445512446049
 30
0.0
 41
1.0
 10
120.74737774308754
 20
-3320.4866976423791
 30
0.0
 41
0.9994041637544385
 10
120.7233291301536
 20
-3320.4303689384901
 30
0.0
 41
1.0
 10
120.71913234592949
 20
-3320.4205388740083
 30
0.0
 41
1.0
 10
120.7149355617054
 20
-3320.4107088095261
 30
0.0
 41
1.0
 10
120.68705673071213
 20
-3320.3454086435613
 30
0.0
 41
0.9991846840701046
 10
120.65400037401878
 20
-3320.2825706122803
 30
0.0
 41
1.0
 10
120.65286376762384
 20
-3320.2804099958257
 30
0.0
 41
1.0
 10
120.65172716122892
 20
-3320.2782493793711
 30
0.0
 41
1.0
 10
120.62094401732634
 20
-3320.2197325810012
 30
0.0
 41
0.9989253167923756
 10
120.58487459327074
 20
-3320.16431765261
 30
0.0
 41
1.0
 10
120.58382046859712
 20
-3320.1626981578484
 30
0.0
 41
1.0
 10
120.58276634392351
 20
-3320.1610786630872
 30
0.0
 41
1.0
 10
120.54880516921688
 20
-3320.108902724221
 30
0.0
 41
0.9986467172836456
 10
120.5096080165784
 20
-3320.0605366905902
 30
0.0
 41
1.0
 10
120.50873388787764
 20
-3320.0594580883117
 30
0.0
 41
1.0
 10
120.5078597591769
 20
-3320.0583794860336
 30
0.0
 41
1.0
 10
120.47041086394059
 20
-3320.0121706569603
 30
0.0
 41
0.9984001104269232
 10
120.42798413342382
 20
-3319.970485549592
 30
0.0
 41
1.0
 10
120.42739699531452
 20
-3319.9699086747105
 30
0.0
 41
1.0
 10
120.42680985720521
 20
-3319.9693317998294
 30
0.0
 41
1.0
 10
120.38555740290741
 20
-3319.9288004422242
 30
0.0
 41
0.9982442159084665
 10
120.33980130157107
 20
-3319.8934318809629
 30
0.0
 41
1.0
 10
120.33958650611015
 20
-3319.8932658483204
 30
0.0
 41
1.0
 10
120.33937171064925
 20
-3319.8930998156779
 30
0.0
 41
1.0
 10
120.29404520023637
 20
-3319.8580633197034
 30
0.0
 41
0.998245006083526
 10
120.24489422116369
 20
-3319.828631536669
 30
0.0
 41
1.0
 10
120.19574324209172
 20
-3319.7991997536355
 30
0.0
 41
0.9983922639633603
 10
120.14357693592753
 20
-3319.7755201189821
 30
0.0
 41
1.0
 10
120.14335005860283
 20
-3319.7754171335005
 30
0.0
 41
1.0
 10
120.14312318127816
 20
-3319.7753141480189
 30
0.0
 41
1.0
 10
120.09050312046479
 20
-3319.7514285424018
 30
0.0
 41
0.9986517147149755
 10
120.03569014759712
 20
-3319.7331274232802
 30
0.0
 41
1.0
 10
120.03501222616893
 20
-3319.7329010768485
 30
0.0
 41
1.0
 10
120.03433430474075
 20
-3319.7326747304169
 30
0.0
 41
1.0
 10
119.97816548901861
 20
-3319.7139209184329
 30
0.0
 41
0.9989435598958399
 10
119.92051210186915
 20
-3319.7004032161985
 30
0.0
 41
1.0
 10
119.91943198228573
 20
-3319.7001499659455
 30
0.0
 41
1.0
 10
119.91835186270231
 20
-3319.6998967156919
 30
0.0
 41
1.0
 10
119.8585382363856
 20
-3319.6858725129509
 30
0.0
 41
0.9992249241240799
 10
119.7978067274861
 20
-3319.6765971702353
 30
0.0
 41
1.0
 10
119.79639303919708
 20
-3319.6763812618278
 30
0.0
 41
1.0
 10
119.79497935090808
 20
-3319.6761653534204
 30
0.0
 41
1.0
 10
119.731420465432
 20
-3319.6664581938899
 30
0.0
 41
0.9994396597834091
 10
119.66735452889827
 20
-3319.6610252715441
 30
0.0
 41
1.0
 10
119.64821386141716
 20
-3319.6594021038254
 30
0.0
 41
1.0
 10
119.62907319393605
 20
-3319.6577789361063
 30
0.0
 41
1.0
 10
119.52672592244136
 20
-3319.6490996783236
 30
0.0
 41
0.9987693403120541
 10
119.42402229885236
 20
-3319.6506027417768
 30
0.0
 41
1.0
 10
119.41376796462723
 20
-3319.6507528135508
 30
0.0
 41
1.0
 10
119.4035136304021
 20
-3319.6509028853252
 30
0.0
 41
1.0
 10
119.2939578642232
 20
-3319.6525062296123
 30
0.0
 41
0.9989753644965705
 10
119.1849958642066
 20
-3319.6640092365374
 30
0.0
 41
1.0
 10
119.07603386418862
 20
-3319.6755122434624
 30
0.0
 41
0.9983190067305815
 10
118.96913505322253
 20
-3319.6995472352496
 30
0.0
 41
1.0
 10
118.96023410161712
 20
-3319.7015485138118
 30
0.0
 41
1.0
 10
118.95133315001169
 20
-3319.7035497923744
 30
0.0
 41
1.0
 10
118.82663243583508
 20
-3319.7315873412863
 30
0.0
 41
0.9985539388303241
 10
118.70566268215843
 20
-3319.7728510173315
 30
0.0
 41
1.0
 10
118.70331725119655
 20
-3319.7736510611476
 30
0.0
 41
1.0
 10
118.70097182023466
 20
-3319.7744511049641
 30
0.0
 41
1.0
 10
118.57531120463685
 20
-3319.817314868641
 30
0.0
 41
0.9988468746493272
 10
118.4543408623382
 20
-3319.8720329537023
 30
0.0
 41
1.0
 10
118.45115804034833
 20
-3319.8734726282628
 30
0.0
 41
1.0
 10
118.44797521835847
 20
-3319.8749123028233
 30
0.0
 41
1.0
 10
118.32063923208264
 20
-3319.9325097370047
 30
0.0
 41
0.9991322885919687
 10
118.19853864802536
 20
-3320.0005050691866
 30
0.0
 41
1.0
 10
118.18093663698073
 20
-3320.0103072711768
 30
0.0
 41
1.0
 10
118.16333462593612
 20
-3320.0201094731669
 30
0.0
 41
1.0
 10
118.06115794487778
 20
-3320.0770095889484
 30
0.0
 41
0.9993860037849666
 10
117.96321694080552
 20
-3320.1409256045363
 30
0.0
 41
1.0
 10
117.95759862794975
 20
-3320.1445920992337
 30
0.0
 41
1.0
 10
117.95198031509398
 20
-3320.1482585939307
 30
0.0
 41
1.0
 10
117.86527593672875
 20
-3320.2048416201274
 30
0.0
 41
0.9998821494954867
 10
117.78034956091932
 20
-3320.2640598502016
 30
0.0
 41
1.0
 10
117.69542318511083
 20
-3320.3232780802755
 30
0.0
 41
0.9997976482743655
 10
117.61294755470759
 20
-3320.3858644883167
 30
0.0
 41
1.0
 10
117.59831128990032
 20
-3320.3969711780983
 30
0.0
 41
1.0
 10
117.58367502509304
 20
-3320.4080778678799
 30
0.0
 41
1.0
 10
117.47192686507869
 20
-3320.4928776554821
 30
0.0
 41
0.9998091630800153
 10
117.36357658704623
 20
-3320.5819780061875
 30
0.0
 41
1.0
 10
117.35057083457176
 20
-3320.5926731066311
 30
0.0
 41
1.0
 10
117.33756508209729
 20
-3320.6033682070747
 30
0.0
 41
1.0
 10
117.20320329911435
 20
-3320.7138587586692
 30
0.0
 41
0.9995035112317421
 10
117.07606742134857
 20
-3320.8325925756858
 30
0.0
 41
1.0
 10
117.06642011096051
 20
-3320.8416023218442
 30
0.0
 41
1.0
 10
117.05677280057246
 20
-3320.8506120680031
 30
0.0
 41
1.0
 10
116.93334973781143
 20
-3320.9658784397552
 30
0.0
 41
0.9994630424299245
 10
116.81774133202777
 20
-3321.0889811829902
 30
0.0
 41
1.0
 10
116.81405849325697
 20
-3321.0929027625025
 30
0.0
 41
1.0
 10
116.81037565448618
 20
-3321.0968243420148
 30
0.0
 41
1.0
 10
116.70213292624376
 20
-3321.2120839262252
 30
0.0
 41
0.9995160693750163
 10
116.60126689671188
 20
-3321.3338513440976
 30
0.0
 41
1.0
 10
116.59933317663123
 20
-3321.3361857683058
 30
0.0
 41
1.0
 10
116.59739945655058
 20
-3321.3385201925139
 30
0.0
 41
1.0
 10
116.50040086717812
 20
-3321.4556187619728
 30
0.0
 41
0.9996561470514627
 10
116.40967464851406
 20
-3321.5776415244195
 30
0.0
 41
1.0
 10
116.40351698261506
 20
-3321.5859233134579
 30
0.0
 41
1.0
 10
116.39735931671605
 20
-3321.5942051024963
 30
0.0
 41
1.0
 10
116.31894842985059
 20
-3321.6996642868653
 30
0.0
 41
0.9998349055172063
 10
116.24442114791594
 20
-3321.8079028705324
 30
0.0
 41
1.0
 10
116.16989386597643
 20
-3321.9161414542064
 30
0.0
 41
0.9999728109560038
 10
116.09697097007232
 20
-3322.0254673797526
 30
0.0
 41
1.0
 10
116.09565575466121
 20
-3322.027439149254
 30
0.0
 41
1.0
 10
116.09434053925008
 20
-3322.0294109187557
 30
0.0
 41
1.0
 10
116.01878721253232
 20
-3322.1426803832919
 30
0.0
 41
0.9999972147402614
 10
115.94376940215284
 20
-3322.2563052261357
 30
0.0
 41
1.0
 10
115.93879785952527
 20
-3322.2638353146158
 30
0.0
 41
1.0
 10
115.93382631689769
 20
-3322.2713654030963
 30
0.0
 41
1.0
 10
115.84886542127919
 20
-3322.4000504228761
 30
0.0
 41
0.9999371979007826
 10
115.76681007187499
 20
-3322.5306073366537
 30
0.0
 41
1.0
 10
115.76330118751281
 20
-3322.5361902647192
 30
0.0
 41
1.0
 10
115.75979230315062
 20
-3322.5417731927851
 30
0.0
 41
1.0
 10
115.67071918501964
 20
-3322.6834959626976
 30
0.0
 41
0.9998272025609853
 10
115.58697579413659
 20
-3322.8284318394417
 30
0.0
 41
1.0
 10
115.57176062211428
 20
-3322.8547649538955
 30
0.0
 41
1.0
 10
115.55654545009196
 20
-3322.8810980683493
 30
0.0
 41
1.0
 10
115.44237171516374
 20
-3323.0787001740018
 30
0.0
 41
0.9995217214838219
 10
115.3406320256086
 20
-3323.2829825018625
 30
0.0
 41
1.0
 10
115.33298846297137
 20
-3323.2983299515699
 30
0.0
 41
1.0
 10
115.32534490033416
 20
-3323.3136774012769
 30
0.0
 41
1.0
 10
115.23843960774681
 20
-3323.488173859354
 30
0.0
 41
0.9998269762607428
 10
115.15808514147432
 20
-3323.6657821460781
 30
0.0
 41
1.0
 10
115.07773067520282
 20
-3323.8433904327999
 30
0.0
 41
0.9998944747388728
 10
115.0025698806373
 20
-3324.0232581584314
 30
0.0
 41
1.0
 10
114.99761621104513
 20
-3324.0351128133511
 30
0.0
 41
1.0
 10
114.99266254145296
 20
-3324.0469674682709
 30
0.0
 41
1.0
 10
114.91201548090018
 20
-3324.2399644082893
 30
0.0
 41
0.9999506734409606
 10
114.83521795199852
 20
-3324.4345252131407
 30
0.0
 41
1.0
 10
114.82061798672757
 20
-3324.4715131349467
 30
0.0
 41
1.0
 10
114.80601802145664
 20
-3324.5085010567532
 30
0.0
 41
1.0
 10
114.75842042309633
 20
-3324.6290860179934
 30
0.0
 41
0.9999912393959738
 10
114.71183397907242
 20
-3324.7500652206927
 30
0.0
 41
1.0
 10
114.66524753504366
 20
-3324.8710444234048
 30
0.0
 41
0.9999927113993689
 10
114.61958624065667
 20
-3324.9923758308882
 30
0.0
 41
1.0
 10
114.60561780925848
 20
-3325.0294928128887
 30
0.0
 41
1.0
 10
114.59164937786028
 20
-3325.0666097948888
 30
0.0
 41
1.0
 10
114.5180512206714
 20
-3325.262175166386
 30
0.0
 41
0.9999487550946052
 10
114.44842759569917
 20
-3325.4591905315701
 30
0.0
 41
1.0
 10
114.42483398576171
 20
-3325.5259538418645
 30
0.0
 41
1.0
 10
114.40124037582424
 20
-3325.5927171521589
 30
0.0
 41
1.0
 10
114.30655474145254
 20
-3325.8606509869869
 30
0.0
 41
0.9999808436929756
 10
114.21519315281319
 20
-3326.1297364182456
 30
0.0
 41
1.0
 10
114.12383156417764
 20
-3326.3988218494933
 30
0.0
 41
0.9999873932916875
 10
114.03517685545248
 20
-3326.6688112045272
 30
0.0
 41
1.0
 10
114.0150844985837
 20
-3326.7300005372781
 30
0.0
 41
1.0
 10
113.99499214171493
 20
-3326.7911898700295
 30
0.0
 41
1.0
 10
113.86615271926172
 20
-3327.183557890537
 30
0.0
 41
0.9999794883028177
 10
113.74234993430075
 20
-3327.5775440968241
 30
0.0
 41
1.0
 10
113.73119767486223
 20
-3327.6130347070643
 30
0.0
 41
1.0
 10
113.72004541542371
 20
-3327.6485253173046
 30
0.0
 41
1.0
 10
113.57748725152605
 20
-3328.1021980693913
 30
0.0
 41
0.999998276175181
 10
113.43661481151241
 20
-3328.55639709151
 30
0.0
 41
1.0
 10
111.84847447893981
 20
-3333.6051668225132
 30
0.0
 41
1.0
 10
110.2603341463672
 20
-3338.6539365535164
 30
0.0
 41
1.0
 10
109.31158353489081
 20
-3338.6539365535164
 30
0.0
 41
1.0
 10
108.36283292341443
 20
-3338.6539365535164
 30
0.0
 41
1.0
 10
111.60111740956762
 20
-3328.3266143535702
 30
0.0
 41
1.0
 10
114.83940189572081
 20
-3317.9992921536241
 30
0.0
 41
1.0
  0
LWPOLYLINE
  5
63
100
AcDbEntity
  8
0
370
              15
390
0
  6
Continuous
 62
               7
100
AcDbPolyline
 90
      232
 70
             128
 10
89.135856121893767
 20
-3319.0836349851393
 42
0.0004370800687513
 10
89.082978947854343
 20
-3319.1523016243532
 10
89.04369471669429
 20
-3319.2034087372922
 42
0.0030481992175466
 10
88.91335599957597
 20
-3319.3751304296356
 10
88.87484432782469
 20
-3319.4265172134246
 42
0.0042058245758935
 10
88.670859277136572
 20
-3319.7035229585235
 10
88.61845415465416
 20
-3319.775955805279
 42
0.0120948898741803
 10
88.322410237893806
 20
-3320.2067054098261
 10
88.226217738770842
 20
-3320.3541861450526
 42
0.0141601263947087
 10
87.922573691848811
 20
-3320.8498554817879
 10
87.883036424425114
 20
-3320.9186994492156
 42
0.0071131081301262
 10
87.677764101184437
 20
-3321.288202248058
 42
0.0068458791003265
 10
87.482884574337035
 20
-3321.6632938115426
 10
87.476072711883603
 20
-3321.6768555252579
 42
0.0064120880291063
 10
87.277930461838253
 20
-3322.0842800001788
 10
87.270395776322289
 20
-3322.1002918568979
 42
0.0058857236447469
 10
87.067640384455657
 20
-3322.5446679679212
 10
87.059465458156637
 20
-3322.5631581215666
 42
0.0053189741893978
 10
86.850761145489045
 20
-3323.0491215954853
 10
86.84201333980775
 20
-3323.0701034736812
 42
0.0047503650417061
 10
86.626039613661391
 20
-3323.6023029068792
 10
86.616771365308921
 20
-3323.6257792829983
 42
0.0042071762170945
 10
86.392223981580116
 20
-3324.2088728770714
 10
86.382474579232507
 20
-3324.2348390519383
 42
0.0036680086484391
 10
86.148019935922022
 20
-3324.8734744364647
 10
86.137812156072641
 20
-3324.9019229708138
 42
0.0032573142630214
 10
85.8921798701044
 20
-3325.6007756305717
 10
85.823529349267019
 20
-3325.8002387146148
 42
0.0026133366650121
 10
85.475084150507257
 20
-3326.8301019982919
 10
85.411827362996931
 20
-3327.0203328337138
 42
0.002059295074381
 10
85.19796429403948
 20
-3327.672436486298
 10
85.194912502880612
 20
-3327.6818729746947
 42
0.0025609928533819
 10
84.993092001390551
 20
-3328.3170181970736
 10
84.99050063426067
 20
-3328.3253205380242
 42
0.0031362356245695
 10
84.801009848586943
 20
-3328.9460833941935
 10
84.798878805661914
 20
-3328.9532247003967
 42
0.0037229918029433
 10
84.622078418733167
 20
-3329.5622100023788
 10
84.620399829525809
 20
-3329.5681568925565
 42
0.0043077623710569
 10
84.456659027461683
 20
-3330.1679756243225
 42
0.0047654161820777
 10
84.303830304947255
 20
-3330.7706617132185
 10
84.269365696106604
 20
-3330.9122234903743
 42
0.0112969368443653
 10
84.07350133796281
 20
-3331.8039156509994
 10
84.045494948866349
 20
-3331.9467436970963
 42
0.013005676257198
 10
83.844657705219731
 20
-3333.1336847687417
 10
83.82411795507241
 20
-3333.27776288222
 42
0.0138721532145141
 10
83.720414950534746
 20
-3334.1845923680439
 10
83.701119462626821
 20
-3334.4080900899694
 42
0.0071254697007365
 10
83.667772816704257
 20
-3334.8712770988163
 10
83.662811842540918
 20
-3334.9572810933778
 42
0.0028881799201996
 10
83.647673549251124
 20
-3335.2490228032193
 42
0.0060297297136504
 10
83.637741349475647
 20
-3335.5409717393331
 10
83.636679067808515
 20
-3335.5893641112661
 42
0.0229523164148411
 10
83.644410095594253
 20
-3335.9121189575508
 10
83.648635869114585
 20
-3335.972522491566
 42
0.012367330065616
 10
83.667714515632952
 20
-3336.1736432167418
 42
0.0128577674466444
 10
83.696909906039195
 20
-3336.3735410666677
 10
83.704035779426249
 20
-3336.4148698812651
 42
0.0285717853766524
 10
83.768529781121998
 20
-3336.692986032579
 10
83.782198304788892
 20
-3336.7396408020581
 42
0.0316283099153358
 10
83.89800888470262
 20
-3337.058655303882
 10
83.901057576457717
 20
-3337.0656416762067
 42
0.0338984824238684
 10
84.050489287425307
 20
-3337.3532076403967
 10
84.052798016795947
 20
-3337.3569986696739
 42
0.0350228718355792
 10
84.235158307468737
 20
-3337.6140506543493
 10
84.2360435592432
 20
-3337.6151297321126
 42
0.0347476747526298
 10
84.450468246483865
 20
-3337.8423147793333
 42
0.0331337701909133
 10
84.693711572230256
 20
-3338.0384434414109
 10
84.69481167074639
 20
-3338.0392161445834
 42
0.0305233319085772
 10
84.963356366318891
 20
-3338.204344314674
 10
84.96658641082098
 20
-3338.2060683265372
 42
0.0273744481158059
 10
85.25914012239565
 20
-3338.3422064704278
 10
85.264244657532799
 20
-3338.3442500548972
 42
0.024096440620837
 10
85.579721733184357
 20
-3338.4532337811802
 10
85.586305062388476
 20
-3338.4551585208537
 42
0.0209636179810269
 10
85.923705215040727
 20
-3338.5386266687856
 10
85.931337675489772
 20
-3338.5401785817871
 42
0.0181388704691254
 10
86.289660067484036
 20
-3338.5995946750004
 10
86.297940915866377
 20
-3338.6006608588182
 42
0.015608654758249
 10
86.676128280054627
 20
-3338.6373970453951
 10
86.719323532393673
 20
-3338.6402355478749
 42
0.013714832902663
 10
87.046996677681136
 20
-3338.6527558031257
 10
87.092932867651825
 20
-3338.6532502362411
 42
0.0051057823895187
 10
87.329078454199362
 20
-3338.6533804906494
 42
0.0052256693311937
 10
87.565175737983665
 20
-3338.6486316661853
 10
87.635402521727428
 20
-3338.6464847001712
 42
0.0161507179049416
 10
88.011139599831054
 20
-3338.6228343298444
 10
88.031152560201747
 20
-3338.6209241345573
 42
0.0101216737841059
 10
88.445179781699053
 20
-3338.5729312041908
 10
88.479233071119211
 20
-3338.5682835073821
 42
0.0245291776394488
 10
88.95602272667027
 20
-3338.4792084293058
 10
89.040846042188605
 20
-3338.4590125089612
 42
0.0143509212560619
 10
89.397477146133951
 20
-3338.3632078751812
 42
0.0156557857039878
 10
89.747693210869571
 20
-3338.2461966593592
 10
89.755194425355853
 20
-3338.2434264976082
 42
0.0170137333625336
 10
90.111790421029298
 20
-3338.0977688827406
 10
90.118894343444708
 20
-3338.0945810471735
 42
0.018310536441121
 10
90.478244011614365
 20
-3337.9172460053474
 10
90.485190776249738
 20
-3337.9134955704772
 42
0.0194899958153112
 10
90.843671517233133
 20
-3337.7015165885869
 10
90.850685396570441
 20
-3337.6969912462914
 42
0.0204869852950272
 10
91.204699698662736
 20
-3337.4474712312067
 10
91.211965307251376
 20
-3337.4418911658572
 42
0.0212516938559515
 10
91.557955238360307
 20
-3337.1519871689616
 10
91.604471932435288
 20
-3337.1095198588687
 42
0.0215248918251497
 10
91.864498101322681
 20
-3336.8507555798742
 10
91.909527835708374
 20
-3336.801911458519
 42
0.0114578554957975
 10
92.064319989380635
 20
-3336.6260885250663
 10
92.075514525363928
 20
-3336.6127697615248
 42
0.0061531305139366
 10
92.201989171361674
 20
-3336.4584802282152
 42
0.000632558712019
 10
92.326367655538263
 20
-3336.3024768525079
 10
92.349407790564953
 20
-3336.27350333188
 42
0.0041897761551606
 10
92.517863194537938
 20
-3336.0579839558177
 10
92.576325314429823
 20
-3335.9818826088331
 42
0.009299388004144
 10
92.852937241659362
 20
-3335.607603844941
 10
92.935331734849242
 20
-3335.4916668413853
 42
0.0159321727083296
 10
93.281938217494826
 20
-3334.9694926206244
 10
93.326294352883338
 20
-3334.8978130563751
 42
0.0085547317022267
 10
93.560806118209655
 20
-3334.5039381071497
 42
0.0084601156890633
 10
93.781782295657223
 20
-3334.1023112581074
 10
93.789897769482081
 20
-3334.0869515758445
 42
0.0081429654285691
 10
94.013147039918238
 20
-3333.6472300633068
 10
94.022007204103602
 20
-3333.6290512212845
 42
0.0076574581329004
 10
94.248414714675121
 20
-3333.145868346021
 10
94.257894355394001
 20
-3333.1248038677286
 42
0.007068272419899
 10
94.488339263204011
 20
-3332.5927665629397
 10
94.498329547182493
 20
-3332.5687773739355
 42
0.0064559514446598
 10
94.73366275536344
 20
-3331.9824651074182
 10
94.744072113529171
 20
-3331.9555301819742
 42
0.0058311413907636
 10
94.98511885029194
 20
-3331.3094980875908
 10
94.99587392767944
 20
-3331.2796137464302
 42
0.0052312425817691
 10
95.24345520571967
 20
-3330.5684113325974
 10
95.254499042100122
 20
-3330.5355846205257
 42
0.0046680544796663
 10
95.509427469832133
 20
-3329.7537583047792
 10
95.551419619877237
 20
-3329.6207750674821
 42
0.0041666856443292
 10
95.754705632273101
 20
-3328.9578062924734
 10
95.792368072938871
 20
-3328.8312251848133
 42
0.0015170975154942
 10
95.913554651349955
 20
-3328.4193568333258
 42
-0.0004887993119157
 10
96.033894424469764
 20
-3328.0072384212954
 10
96.110371681968161
 20
-3327.7462810353427
 42
0.0002583378926776
 10
96.383586252056944
 20
-3326.8122243320795
 10
96.465359101595297
 20
-3326.5321250726274
 42
0.0006636169669015
 10
96.659226861620368
 20
-3325.8647721489938
 10
96.664323515978666
 20
-3325.8471405660748
 42
0.0010589131322017
 10
96.845772216884029
 20
-3325.2144092230651
 10
96.850754287368773
 20
-3325.1968963160302
 42
0.0015655524464497
 10
97.019024494547295
 20
-3324.5982796368439
 10
97.023854694959866
 20
-3324.5808874779168
 42
0.002164044047501
 10
97.178144666948299
 20
-3324.0158604598901
 10
97.182778886377918
 20
-3323.9985957298973
 42
0.0028763871853932
 10
97.322294604431193
 20
-3323.4666277790493
 10
97.326680468598838
 20
-3323.4495038008931
 42
0.0037310511944245
 10
97.450637160435292
 20
-3322.9500562068706
 10
97.454712380725809
 20
-3322.9330959356189
 42
0.004765219776858
 10
97.562336281232774
 20
-3322.4656181673199
 10
97.566026880554645
 20
-3322.4488586121765
 42
0.006027669929873
 10
97.656556979709819
 20
-3322.0127828170257
 10
97.659775669998666
 20
-3321.9962816027178
 42
0.0075824337758436
 10
97.732464979414431
 20
-3321.5910144382906
 10
97.735110356795587
 20
-3321.5748594908346
 42
0.0095130624603503
 10
97.789225592425908
 20
-3321.1997701377686
 10
97.796211816308301
 20
-3321.1438365796535
 42
0.0121054653220215
 10
97.822803146886372
 20
-3320.8789407511777
 10
97.823669636645889
 20
-3320.8675373082488
 42
0.0069050827386911
 10
97.838758454683614
 20
-3320.6245960814044
 10
97.839893754352261
 20
-3320.6010698243572
 42
0.0169063976693334
 10
97.842721033332452
 20
-3320.4048770970589
 10
97.841550381801142
 20
-3320.3445413357072
 42
0.0052007732873165
 10
97.839296933208175
 20
-3320.2689479455576
 42
0.0054038123291652
 10
97.819333421368356
 20
-3320.1489296495424
 10
97.814247565498874
 20
-3320.1202711629667
 42
0.0112050460453736
 10
97.778863203440068
 20
-3319.9439447246259
 10
97.761038241399717
 20
-3319.8644031379067
 42
0.0240764468003875
 10
97.670140875253423
 20
-3319.5341661024054
 10
97.651582112439343
 20
-3319.4775459374091
 42
0.0256812331831474
 10
97.508219192250579
 20
-3319.1058217311547
 10
97.502809766429323
 20
-3319.0936903961651
 42
0.0268360501217077
 10
97.333382525579282
 20
-3318.7626972621438
 10
97.327846117942201
 20
-3318.7531775918278
 42
0.0274670231728967
 10
97.135645141530915
 20
-3318.4608902169143
 10
97.130263841568436
 20
-3318.453611069373
 42
0.0275035967094921
 10
96.918690962006451
 20
-3318.1980951790688
 10
96.913621461040336
 20
-3318.1926160914386
 42
0.0269557673520074
 10
96.686217917600345
 20
-3317.971973805476
 10
96.681474859817001
 20
-3317.9678438510145
 42
0.0259124802207122
 10
96.44192002838696
 20
-3317.780153323863
 10
96.437389183207742
 20
-3317.7769678215345
 42
0.0245162153001232
 10
96.189472830110276
 20
-3317.6202348124225
 10
96.184946283790779
 20
-3317.6176746152241
 42
0.0229282588841514
 10
95.932526726958713
 20
-3317.4898064227227
 10
95.927746233123187
 20
-3317.4876541229614
 42
0.0212984135697827
 10
95.674708280660241
 20
-3317.3864552057184
 10
95.669403995690089
 20
-3317.3845916429582
 42
0.0197555462349089
 10
95.419625657967742
 20
-3317.3077762249932
 42
0.0183511896781952
 10
95.164696932499865
 20
-3317.250193318027
 10
95.078331735782569
 20
-3317.2339905276431
 42
0.0338057877143982
 10
94.792824386521261
 20
-3317.2001821225026
 10
94.701818981490817
 20
-3317.1956024672413
 42
0.0091990524459863
 10
94.595971872845325
 20
-3317.1922266113188
 42
0.0028333980758673
 10
94.490057956874509
 20
-3317.1913985038022
 10
94.489142503803066
 20
-3317.1913965339781
 42
-0.0023619827826251
 10
94.381396488691522
 20
-3317.1906556928998
 10
94.344991318521295
 20
-3317.1902333864368
 42
0.0008824598483018
 10
94.164435328751352
 20
-3317.1884576081993
 10
94.120573896265455
 20
-3317.188103646673
 42
0.0038132665768583
 10
93.852291000338667
 20
-3317.1879847106065
 10
93.835757345593152
 20
-3317.1881034767498
 42
0.00606655693448
 10
93.534476854000502
 20
-3317.1939237761708
 10
93.520226521976497
 20
-3317.1943720841382
 42
0.0080356953330374
 10
93.190767805643347
 20
-3317.2100398062048
 10
93.178697790550018
 20
-3317.2108083891458
 42
0.0098996399102909
 10
92.825934705902043
 20
-3317.2402936183435
 10
92.81588899652445
 20
-3317.2413339145419
 42
0.0117740981368087
 10
92.444732138184435
 20
-3317.2886261620702
 10
92.436509441693147
 20
-3317.2898712786423
 42
0.0137435215136303
 10
92.051920622204165
 20
-3317.3589682522047
 10
92.045263583084704
 20
-3317.3603541484376
 42
0.0158359869385953
 10
91.652266489277466
 20
-3317.4552462369197
 10
91.646853302415082
 20
-3317.456736177789
 42
0.0180554124028758
 10
91.250538257797871
 20
-3317.5813741940292
 10
91.245981469719254
 20
-3317.5829902302939
 42
0.0203657431283556
 10
90.851503951910416
 20
-3317.7412505718085
 10
90.847360412900571
 20
-3317.7431121932514
 42
0.0226819684657101
 10
90.459924356692198
 20
-3317.9387547719257
 10
90.455724565678793
 20
-3317.9411203638429
 42
0.0248634984605622
 10
90.080542624497795
 20
-3318.1777470097895
 10
90.032347695710826
 20
-3318.2116040516175
 42
0.0267044190891293
 10
89.758054998797093
 20
-3318.4270444274835
 42
0.0139303002196862
 10
89.50188783286174
 20
-3318.6642832683924
 10
89.497034447137366
 20
-3318.6690359312556
 42
0.0283460963436421
 10
89.252961852907887
 20
-3318.9367665917034
 10
89.21329334775362
 20
-3318.9855681691738
 42
0.0070695364826187
 10
89.135856121893767
 20
-3319.0836349851393
 42
0.0070695364826187
  0
LWPOLYLINE
  5
64
100
AcDbEntity
  8
0
370
              15
390
0
  6
Continuous
 62
               7
100
AcDbPolyline
 90
      226
 70
             128
 10
85.607035684647371
 20
-3334.8052237913234
 42
-0.0026277636614715
 10
85.606957800847297
 20
-3334.7384518655913
 10
85.607175159079361
 20
-3334.685296648137
 42
-0.0088680296718788
 10
85.610951775372428
 20
-3334.5122808657334
 10
85.613298134484864
 20
-3334.4530008402803
 42
-0.007738170562189
 10
85.629344245247864
 20
-3334.1617403444839
 10
85.630212156421067
 20
-3334.149452110797
 42
-0.006887253053783
 10
85.656844236169178
 20
-3333.8342303587287
 10
85.658048460355303
 20
-3333.8219893797095
 42
-0.0062130021494983
 10
85.695642177183259
 20
-3333.4831196884697
 10
85.697146080718255
 20
-3333.4709458165544
 42
-0.0056726929669828
 10
85.746067940220058
 20
-3333.1087505944447
 10
85.747841385864945
 20
-3333.096656794196
 42
-0.005234188449026
 10
85.808451972126122
 20
-3332.7114635386706
 10
85.810469960901571
 20
-3332.6994586086853
 42
-0.004976845017085
 10
85.883208642327858
 20
-3332.2916140412531
 10
85.90745765704969
 20
-3332.1630660582468
 42
-0.0089029805627106
 10
86.044538508844639
 20
-3331.5012906108236
 10
86.077283884162966
 20
-3331.3562591803011
 42
-0.0080318257101459
 10
86.306832498504264
 20
-3330.410549548445
 10
86.318817424951931
 20
-3330.3644189132569
 42
-0.0074265721318786
 10
86.602828963801073
 20
-3329.3343543348788
 10
86.622708506921001
 20
-3329.2662202742786
 42
-0.0069711922702215
 10
86.950013085425212
 20
-3328.1999525339588
 10
87.009965032525542
 20
-3328.0139311756043
 42
-0.0052070422894837
 10
87.239390257790035
 20
-3327.3266590985572
 10
87.256671449978057
 20
-3327.2766318178942
 42
-0.0009167004447409
 10
87.459763337251673
 20
-3326.6921759697861
 42
-0.0025162726942855
 10
87.666860967518389
 20
-3326.1091347056117
 10
87.704085579317933
 20
-3326.005985159723
 42
-0.0028212681456648
 10
87.95226149828278
 20
-3325.3302545275469
 10
87.962092261038421
 20
-3325.3039470828567
 42
-0.0031964916823889
 10
88.198384518695775
 20
-3324.683742320743
 10
88.208018972696735
 20
-3324.6589323305948
 42
-0.0036281836454394
 10
88.433124933795966
 20
-3324.0914916497068
 10
88.442563343948109
 20
-3324.0681942182168
 42
-0.0041269166835372
 10
88.657181040612613
 20
-3323.5507533222258
 10
88.689813997036751
 20
-3323.4738748758568
 42
-0.0047472213053012
 10
88.846858802587008
 20
-3323.1134534079811
 10
88.853752883795252
 20
-3323.0980328106489
 42
-0.0025651659997885
 10
89.002110917645382
 20
-3322.7707047549011
 42
-0.0057144634995157
 10
89.155860611411725
 20
-3322.4458950815483
 10
89.183891316816457
 20
-3322.3883866991468
 42
-0.0065388068377809
 10
89.367358344557715
 20
-3322.0241542024792
 10
89.375816800334007
 20
-3322.0078946231138
 42
-0.0074510843017606
 10
89.551999046214064
 20
-3321.6812063419866
 10
89.56017871674716
 20
-3321.6665655647139
 42
-0.0084648979857157
 10
89.729812569845137
 20
-3321.3746565537567
 10
89.737668696336925
 20
-3321.3616495620995
 42
-0.0095638542799955
 10
89.901504143927468
 20
-3321.1017606901273
 10
89.908979087596435
 20
-3321.0903913286761
 42
-0.0107191626800549
 10
90.067780667986767
 20
-3320.8597800941279
 10
90.074797401718158
 20
-3320.8500440017629
 42
-0.0118458573889533
 10
90.229345500230352
 20
-3320.6459718064525
 42
-0.0129184518180455
 10
90.393798123830805
 20
-3320.4498112902834
 10
90.423942896193623
 20
-3320.4156852113838
 42
-0.0217742579628328
 10
90.60055521853036
 20
-3320.2324784411326
 10
90.611300762995015
 20
-3320.2222616079257
 42
-0.0097266568648222
 10
90.777358381846454
 20
-3320.0704140334924
 42
-0.0187720905716904
 10
90.951705957736408
 20
-3319.928345180103
 10
90.982411948407616
 20
-3319.9051860977088
 42
-0.0179428207519597
 10
91.214832668406302
 20
-3319.7426339205954
 10
91.218484995326691
 20
-3319.7402699857048
 42
-0.0170047877693746
 10
91.454248632852455
 20
-3319.5988094715563
 10
91.458031621598607
 20
-3319.59671116652
 42
-0.0160190788359526
 10
91.694940169234314
 20
-3319.4750598645319
 42
-0.0151102861495776
 10
91.938971951676564
 20
-3319.3683770884786
 10
91.991358453892758
 20
-3319.3473369555823
 42
-0.0271945441891727
 10
92.350021012948616
 20
-3319.2254721448776
 10
92.419085813441811
 20
-3319.2061226036094
 42
-0.0237596594017838
 10
92.834882660461574
 20
-3319.1106718916285
 10
92.902945514190577
 20
-3319.0984172035019
 42
-0.0213715440558909
 10
93.188820445637305
 20
-3319.059470171992
 10
93.248967611861715
 20
-3319.0538804572907
 42
-0.0101465655805404
 10
93.416460143849463
 20
-3319.0417369140268
 10
93.425800530066283
 20
-3319.0412499990284
 42
-0.0100375910857158
 10
93.57495463061025
 20
-3319.0364741811045
 10
93.585213900270773
 20
-3319.0363517420901
 42
-0.0103625633389252
 10
93.713921894945486
 20
-3319.0374831756167
 10
93.736187546220961
 20
-3319.0381405340818
 42
-0.0115689250214556
 10
93.820238283740309
 20
-3319.0425700403266
 42
-0.0072438037420521
 10
93.904076563184177
 20
-3319.0501592400769
 10
93.920877072652274
 20
-3319.0519257828005
 42
-0.0217917313123923
 10
94.03744683597121
 20
-3319.0693456755225
 10
94.103046926530737
 20
-3319.0820922839353
 42
-0.0332943556751658
 10
94.30743909156098
 20
-3319.1361325752428
 10
94.337611660115911
 20
-3319.1463006523627
 42
-0.0184824084791036
 10
94.476116716576428
 20
-3319.1987516677477
 42
-0.01980020506983
 10
94.610191057069841
 20
-3319.2616357279439
 10
94.612077694452694
 20
-3319.2626135148271
 42
-0.0212242342972901
 10
94.74421663685996
 20
-3319.3383762536237
 10
94.746031932398125
 20
-3319.3395220558286
 42
-0.0226090605787357
 10
94.874535833615639
 20
-3319.42900169939
 10
94.876380275357235
 20
-3319.4304139523806
 42
-0.02384570522352
 10
94.999562356651737
 20
-3319.5344098482442
 10
95.001515085209235
 20
-3319.5362247260091
 42
-0.0248160564149401
 10
95.117716592511897
 20
-3319.6554993272202
 10
95.119820225911951
 20
-3319.6578846609223
 42
-0.025410959146279
 10
95.227425443775999
 20
-3319.793173046884
 10
95.229673465691974
 20
-3319.7963145952872
 42
-0.0255528488287074
 10
95.327120144489569
 20
-3319.9483416495227
 10
95.32945124440522
 20
-3319.9524232611293
 42
-0.025214679322228
 10
95.415232270414023
 20
-3320.1219255071255
 10
95.417534509571965
 20
-3320.127107589039
 42
-0.0244265635948102
 10
95.490189203333131
 20
-3320.314854161084
 10
95.499435604801462
 20
-3320.342719579422
 42
-0.0231319612900251
 10
95.545358383793882
 20
-3320.5060206262247
 42
-0.0112130424362865
 10
95.57999440633229
 20
-3320.6722242264141
 10
95.581196931444595
 20
-3320.678720813301
 42
-0.021052788124852
 10
95.606883406815513
 20
-3320.8597764587425
 10
95.610394001637303
 20
-3320.8951820072893
 42
-0.0190029892421401
 10
95.625835475181844
 20
-3321.1487178535599
 10
95.626645451625905
 20
-3321.1841934679305
 42
-0.0137974553665177
 10
95.625096598790435
 20
-3321.5092248746614
 10
95.624251143834911
 20
-3321.5353436192536
 42
-0.0081336634213519
 10
95.609391808612259
 20
-3321.8406910868562
 42
-0.0073526923568609
 10
95.585083275237963
 20
-3322.1454393311383
 10
95.5838218514549
 20
-3322.1587760058073
 42
-0.0066886138696581
 10
95.548086265408273
 20
-3322.4893620493058
 10
95.546429175938499
 20
-3322.5029836682961
 42
-0.0061359187357519
 10
95.498578573887187
 20
-3322.8597476483988
 10
95.49654107281475
 20
-3322.8736424512254
 42
-0.005669861006586
 10
95.435890742048841
 20
-3323.2569210200568
 10
95.433485308724642
 20
-3323.2710801392941
 42
-0.0052721077278432
 10
95.359353107925187
 20
-3323.6812074789709
 10
95.356589959083294
 20
-3323.695624114358
 42
-0.0049289272183092
 10
95.26829584098391
 20
-3324.1329326254772
 10
95.265183346300716
 20
-3324.1476014782961
 42
-0.004741595670961
 10
95.161945354768122
 20
-3324.6123982357076
 10
95.12717714440862
 20
-3324.7622053310897
 42
-0.0084404470905312
 10
94.937160700837879
 20
-3325.5224293556171
 10
94.931034012851114
 20
-3325.5452934797745
 42
-0.0039635940258342
 10
94.709580328566119
 20
-3326.3462823440254
 10
94.696203533387575
 20
-3326.3932139606136
 42
-0.0072475040838573
 10
94.428756645525638
 20
-3327.282433677
 10
94.358544318697128
 20
-3327.5041740269758
 42
-0.0051345458829464
 10
94.071784946638218
 20
-3328.3784992147871
 10
94.050258679880812
 20
-3328.4419254818872
 42
-0.0019150016604243
 10
93.794725273004019
 20
-3329.1854746021431
 10
93.788257668609859
 20
-3329.2040620670587
 42
-0.0021524362752913
 10
93.539779617543957
 20
-3329.9083878887723
 10
93.530569196851289
 20
-3329.934141467063
 42
-0.0024331286819159
 10
93.294313937811523
 20
-3330.5847407751921
 10
93.285265985254043
 20
-3330.6092840815654
 42
-0.0027449721783824
 10
93.060651414425593
 20
-3331.2084139604713
 10
93.051761407039379
 20
-3331.2317365503077
 42
-0.0031083229768512
 10
92.838218920423401
 20
-3331.7816605879029
 10
92.829482788749701
 20
-3331.8037503037558
 42
-0.0035311343280301
 10
92.626441603156024
 20
-3332.306733429491
 10
92.617856264008736
 20
-3332.3275761530003
 42
-0.0040245640950981
 10
92.424744460213901
 20
-3332.7858854755937
 10
92.416308346611601
 20
-3332.8054648436641
 42
-0.0046015135850919
 10
92.23255205344708
 20
-3333.221369873308
 10
92.224265875624738
 20
-3333.2396670127468
 42
-0.0052768638273603
 10
92.049288356663226
 20
-3333.6154398970302
 10
92.041156146033373
 20
-3333.6324332355794
 42
-0.0060672675641745
 10
91.874376533270322
 20
-3333.9703488586874
 10
91.866407052794074
 20
-3333.9860141176746
 42
-0.0069904648869926
 10
91.707238658787276
 20
-3334.2883499243485
 10
91.699447259173368
 20
-3334.3026604735815
 42
-0.0080637022772767
 10
91.547295398830613
 20
-3334.571695776729
 10
91.53970636619762
 20
-3334.5846236423326
 42
-0.0093006455663841
 10
91.39396568966788
 20
-3334.8226380408328
 10
91.386615022928098
 20
-3334.8341560099998
 42
-0.0107060778059544
 10
91.246666479485782
 20
-3335.0434263273851
 10
91.239604711208727
 20
-3335.0535118699472
 42
-0.0122723111427301
 10
91.104810993008016
 20
-3335.2363051994398
 10
91.104484769454274
 20
-3335.2367255872491
 42
-0.0141836319628515
 10
90.960903166479909
 20
-3335.4112953450795
 10
90.953955410830645
 20
-3335.4192703453409
 42
-0.0175957477211031
 10
90.81404924279326
 20
-3335.5688912337487
 42
-0.0080466359678543
 10
90.66658547776872
 20
-3335.7112137618942
 10
90.620550933245568
 20
-3335.7542341999911
 42
-0.026960026039497
 10
90.367270687260216
 20
-3335.9665574585024
 10
90.300703550970454
 20
-3336.0165088731205
 42
-0.0178362839761144
 10
90.060759061309795
 20
-3336.1835267993765
 10
90.053514090302727
 20
-3336.1881953115858
 42
-0.0174650732631059
 10
89.817177892868074
 20
-3336.3290562765405
 42
-0.0169240130175433
 10
89.571711647015235
 20
-3336.4533485363158
 10
89.525725491452533
 20
-3336.4747104918852
 42
-0.0318883036836071
 10
89.175374635831034
 20
-3336.6110488013956
 10
89.107009100667398
 20
-3336.6327494218708
 42
-0.0284435909903788
 10
88.73095897437679
 20
-3336.7289668573458
 10
88.695800813883849
 20
-3336.7358604531732
 42
-0.0243909341006438
 10
88.382357352959275
 20
-3336.7815814842043
 10
88.332076626190386
 20
-3336.7864270311056
 42
-0.019663929292859
 10
88.116481048660887
 20
-3336.7986753166192
 10
88.064656977484717
 20
-3336.799578577356
 42
-0.0100501510690501
 10
87.952233695833172
 20
-3336.7992781790026
 10
87.920573834508986
 20
-3336.7985571071181
 42
-0.0019752031108336
 10
87.871481497807736
 20
-3336.797244946908
 10
87.868721194553174
 20
-3336.7971602550806
 42
0.006537875209521
 10
87.825144619830837
 20
-3336.7963933638666
 42
-0.0167974694665435
 10
87.781613796899265
 20
-3336.7947334653409
 10
87.777534457636932
 20
-3336.794440454446
 42
-0.0081283276231731
 10
87.725974659883363
 20
-3336.7898934608061
 10
87.714235086019869
 20
-3336.7886655432294
 42
-0.0126703440181237
 10
87.639516790234353
 20
-3336.7789307521593
 10
87.616728922549612
 20
-3336.7753724962427
 42
-0.011785208842639
 10
87.497189936706178
 20
-3336.7538095010832
 10
87.441809484954206
 20
-3336.742465960851
 42
-0.0251774592295709
 10
87.214965445949517
 20
-3336.6839679514192
 10
87.170246256102573
 20
-3336.670001132085
 42
-0.0146525199880305
 10
86.9838532685568
 20
-3336.6057346048847
 42
-0.0166929435851942
 10
86.801875612429683
 20
-3336.52992747183
 10
86.797218981156959
 20
-3336.5278025712159
 42
-0.0191684358440415
 10
86.612035349904033
 20
-3336.4345664874236
 10
86.608702764150792
 20
-3336.4327252398725
 42
-0.0221181781810922
 10
86.425392460247139
 20
-3336.3205917415012
 10
86.423042656240114
 20
-3336.3190074435111
 42
-0.0254984685385963
 10
86.246752505853394
 20
-3336.1865962935399
 10
86.224270358151216
 20
-3336.1678439846037
 42
-0.0292492648791713
 10
86.099501419309831
 20
-3336.0507511849619
 42
-0.015904895749007
 10
85.985661421858566
 20
-3335.9227311933614
 10
85.984342631280413
 20
-3335.9211495803429
 42
-0.0343813379551906
 10
85.881705369655236
 20
-3335.7792782545748
 10
85.850213838293442
 20
-3335.7287748624794
 42
-0.0369117275704373
 10
85.764321336396051
 20
-3335.5652976215306
 42
-0.0191751379891704
 10
85.697127950838421
 20
-3335.392893015523
 10
85.695364627079528
 20
-3335.3877996708497
 42
-0.0378178042222656
 10
85.6455699082954
 20
-3335.1988588947688
 10
85.639574612564843
 20
-3335.1662982765702
 42
-0.0184846046480934
 10
85.618857413270632
 20
-3335.0245454560268
 42
-0.0179866351307576
 10
85.608524408196942
 20
-3334.8816546429453
 10
85.608467965751174
 20
-3334.8800969563331
 42
-0.0085497186139648
 10
85.607035684647371
 20
-3334.8052237913234
 42
-0.0085497186139648
  0
ENDBLK
  5
65
100
AcDbEntity
  8
template
390
0
100
AcDbBlockEnd
  0
BLOCK
  5
66
100
AcDbEntity
  8
notes
390
0
100
AcDbBlockBegin
  2
*D3
 70
               1
 10
0.0
 20
0.0
 30
0.0
  3
*D3
  1

  0
LINE
  5
67
100
AcDbEntity
  8
0
370
              -2
390
0
  6
Continuous
 62
               0
100
AcDbLine
 10
629.09160778758405
 20
-143.61041583021893
 30
0.0
 11
703.94996238177828
 21
-143.61041583021893
 31
0.0
  0
LINE
  5
68
100
AcDbEntity
  8
0
370
              -2
390
0
  6
Continuous
 62
               0
100
AcDbLine
 10
629.09160778758405
 20
-723.61041583021893
 30
0.0
 11
703.94996238177828
 21
-723.61041583021893
 31
0.0
  0
LINE
  5
69
100
AcDbEntity
  8
0
370
              -2
390
0
  6
Continuous
 62
               0
100
AcDbLine
 10
703.94996238177828
 20
-143.61041583021893
 30
0.0
 11
703.94996238177828
 21
-723.61041583021893
 31
0.0
  0
CIRCLE
  5
6A
102
{ACAD_REACTORS
330
6B
102
}
100
AcDbEntity
  8
0
370
              -2
390
0
  6
Continuous
 62
               0
100
AcDbCircle
 10
703.94996238177828
 20
-143.61041583021893
 30
0.0
 40
1.9998779296875
  0
HATCH
  5
6B
100
AcDbEntity
  8
0
370
              -2
390
0
  6
Continuous
 62
               0
100
AcDbHatch
 10
0.0
 20
0.0
 30
0.0
210
0.0
220
0.0
230
1.0
  2
SOLID
 70
               1
 71
               1
 91
        1
 92
        1
 93
        1
 72
               2
 10
703.94996238177828
 20
-143.61041583021893
 40
1.9998779296875
 50
0.0
 51
360.0
 73
               0
 97
        1
330
6A
 75
               0
 76
               1
 98
        1
 10
0.0
 20
0.0
  0
CIRCLE
  5
6C
102
{ACAD_REACTORS
330
6D
102
}
100
AcDbEntity
  8
0
370
              -2
390
0
  6
Continuous
 62
               0
100
AcDbCircle
 10
703.94996238177828
 20
-723.61041583021893
 30
0.0
 40
1.9998779296875
  0
HATCH
  5
6D
100
AcDbEntity
  8
0
370
              -2
390
0
  6
Continuous
 62
               0
100
AcDbHatch
 10
0.0
 20
0.0
 30
0.0
210
0.0
220
0.0
230
1.0
  2
SOLID
 70
               1
 71
               1
 91
        1
 92
        1
 93
        1
 72
               2
 10
703.94996238177828
 20
-723.61041583021893
 40
1.9998779296875
 50
0.0
 51
360.0
 73
               0
 97
        1
330
6C
 75
               0
 76
               1
 98
        1
 10
0.0
 20
0.0
  0
MTEXT
  5
6E
100
AcDbEntity
  8
0
390
0
 62
               0
100
AcDbMText
 10
670.07234519427834
 20
-457.42291751239441
 30
0.0
 40
24.432617187500004
 41
0.0
 71
               1
 72
               1
  1
580
  7
ＭＳ ゴシック
 11
0.0
 21
1.0
 31
0.0
 73
               1
 44
0.7828267384257843
  0
POINT
  5
6F
100
AcDbEntity
  8
Defpoints
370
               0
390
0
 62
               0
100
AcDbPoint
 10
604.09160778758405
 20
-723.61041583021893
 30
0.0
  0
POINT
  5
70
100
AcDbEntity
  8
Defpoints
370
               0
390
0
 62
               0
100
AcDbPoint
 10
604.09160778758405
 20
-143.61041583021893
 30
0.0
  0
POINT
  5
71
100
AcDbEntity
  8
Defpoints
370
               0
390
0
 62
               0
100
AcDbPoint
 10
703.94996238177828
 20
-143.61041583021893
 30
0.0
  0
ENDBLK
  5
72
100
AcDbEntity
  8
notes
390
0
100
AcDbBlockEnd
  0
BLOCK
  5
73
100
AcDbEntity
  8
notes
390
0
100
AcDbBlockBegin
  2
*D4
 70
               1
 10
0.0
 20
0.0
 30
0.0
  3
*D4
  1

  0
LINE
  5
74
100
AcDbEntity
  8
0
370
              -2
390
0
  6
Continuous
 62
               0
100
AcDbLine
 10
-685.15527275987313
 20
-33.655253844912068
 30
0.0
 11
-685.15527275987313
 21
41.344746155087932
 31
0.0
  0
LINE
  5
75
100
AcDbEntity
  8
0
370
              -2
390
0
  6
Continuous
 62
               0
100
AcDbLine
 10
-185.15527275986869
 20
-33.655253844912068
 30
0.0
 11
-185.15527275986869
 21
41.344746155087932
 31
0.0
  0
LINE
  5
76
100
AcDbEntity
  8
0
370
              -2
390
0
  6
Continuous
 62
               0
100
AcDbLine
 10
-685.15527275987313
 20
41.344746155087932
 30
0.0
 11
-185.15527275986869
 21
41.344746155087932
 31
0.0
  0
CIRCLE
  5
77
102
{ACAD_REACTORS
330
78
102
}
100
AcDbEntity
  8
0
370
              -2
390
0
  6
Continuous
 62
               0
100
AcDbCircle
 10
-685.15527275987313
 20
41.344746155087932
 30
0.0
 40
1.9998779296875
  0
HATCH
  5
78
100
AcDbEntity
  8
0
370
              -2
390
0
  6
Continuous
 62
               0
100
AcDbHatch
 10
0.0
 20
0.0
 30
0.0
210
0.0
220
0.0
230
1.0
  2
SOLID
 70
               1
 71
               1
 91
        1
 92
        1
 93
        1
 72
               2
 10
-685.15527275987313
 20
41.344746155087932
 40
1.9998779296875
 50
0.0
 51
360.0
 73
               0
 97
        1
330
77
 75
               0
 76
               1
 98
        1
 10
0.0
 20
0.0
  0
CIRCLE
  5
79
102
{ACAD_REACTORS
330
7A
102
}
100
AcDbEntity
  8
0
370
              -2
390
0
  6
Continuous
 62
               0
100
AcDbCircle
 10
-185.15527275986869
 20
41.344746155087932
 30
0.0
 40
1.9998779296875
  0
HATCH
  5
7A
100
AcDbEntity
  8
0
370
              -2
390
0
  6
Continuous
 62
               0
100
AcDbHatch
 10
0.0
 20
0.0
 30
0.0
210
0.0
220
0.0
230
1.0
  2
SOLID
 70
               1
 71
               1
 91
        1
 92
        1
 93
        1
 72
               2
 10
-185.15527275986869
 20
41.344746155087932
 40
1.9998779296875
 50
0.0
 51
360.0
 73
               0
 97
        1
330
79
 75
               0
 76
               1
 98
        1
 10
0.0
 20
0.0
  0
MTEXT
  5
7B
100
AcDbEntity
  8
0
390
0
 62
               0
100
AcDbMText
 10
-458.96777444204633
 20
75.222363342587869
 30
0.0
 40
24.432617187500004
 41
0.0
 71
               1
 72
               1
  1
500
  7
ＭＳ ゴシック
 73
               1
 44
0.7828267384257843
  0
POINT
  5
7C
100
AcDbEntity
  8
Defpoints
370
               0
390
0
 62
               0
100
AcDbPoint
 10
-185.15527275986869
 20
-58.655253844912068
 30
0.0
  0
POINT
  5
7D
100
AcDbEntity
  8
Defpoints
370
               0
390
0
 62
               0
100
AcDbPoint
 10
-685.15527275987313
 20
-58.655253844912068
 30
0.0
  0
POINT
  5
7E
100
AcDbEntity
  8
Defpoints
370
               0
390
0
 62
               0
100
AcDbPoint
 10
-685.15527275987313
 20
41.344746155087932
 30
0.0
  0
ENDBLK
  5
7F
100
AcDbEntity
  8
notes
390
0
100
AcDbBlockEnd
  0
BLOCK
  5
80
100
AcDbEntity
  8
notes
390
0
100
AcDbBlockBegin
  2
*D5
 70
               1
 10
0.0
 20
0.0
 30
0.0
  3
*D5
  1

  0
LINE
  5
81
100
AcDbEntity
  8
0
370
              -2
390
0
  6
Continuous
 62
               0
100
AcDbLine
 10
-710.15527275987313
 20
-808.6552538449107
 30
0.0
 11
-835.15527275987313
 21
-808.6552538449107
 31
0.0
  0
LINE
  5
82
100
AcDbEntity
  8
0
370
              -2
390
0
  6
Continuous
 62
               0
100
AcDbLine
 10
-710.15527275987313
 20
-58.655253844912068
 30
0.0
 11
-835.15527275987313
 21
-58.655253844912068
 31
0.0
  0
LINE
  5
83
100
AcDbEntity
  8
0
370
              -2
390
0
  6
Continuous
 62
               0
100
AcDbLine
 10
-835.15527275987313
 20
-808.6552538449107
 30
0.0
 11
-835.15527275987313
 21
-58.655253844912068
 31
0.0
  0
CIRCLE
  5
84
102
{ACAD_REACTORS
330
85
102
}
100
AcDbEntity
  8
0
370
              -2
390
0
  6
Continuous
 62
               0
100
AcDbCircle
 10
-835.15527275987313
 20
-808.6552538449107
 30
0.0
 40
1.9998779296875
  0
HATCH
  5
85
100
AcDbEntity
  8
0
370
              -2
390
0
  6
Continuous
 62
               0
100
AcDbHatch
 10
0.0
 20
0.0
 30
0.0
210
0.0
220
0.0
230
1.0
  2
SOLID
 70
               1
 71
               1
 91
        1
 92
        1
 93
        1
 72
               2
 10
-835.15527275987313
 20
-808.6552538449107
 40
1.9998779296875
 50
0.0
 51
360.0
 73
               0
 97
        1
330
84
 75
               0
 76
               1
 98
        1
 10
0.0
 20
0.0
  0
CIRCLE
  5
86
102
{ACAD_REACTORS
330
87
102
}
100
AcDbEntity
  8
0
370
              -2
390
0
  6
Continuous
 62
               0
100
AcDbCircle
 10
-835.15527275987313
 20
-58.655253844912068
 30
0.0
 40
1.9998779296875
  0
HATCH
  5
87
100
AcDbEntity
  8
0
370
              -2
390
0
  6
Continuous
 62
               0
100
AcDbHatch
 10
0.0
 20
0.0
 30
0.0
210
0.0
220
0.0
230
1.0
  2
SOLID
 70
               1
 71
               1
 91
        1
 92
        1
 93
        1
 72
               2
 10
-835.15527275987313
 20
-58.655253844912068
 40
1.9998779296875
 50
0.0
 51
360.0
 73
               0
 97
        1
330
86
 75
               0
 76
               1
 98
        1
 10
0.0
 20
0.0
  0
MTEXT
  5
88
100
AcDbEntity
  8
0
390
0
 62
               0
100
AcDbMText
 10
-869.03288994737306
 20
-457.46775552708709
 30
0.0
 40
24.432617187500004
 41
0.0
 71
               1
 72
               1
  1
750
  7
ＭＳ ゴシック
 11
0.0
 21
1.0
 31
0.0
 73
               1
 44
0.7828267384257843
  0
POINT
  5
89
100
AcDbEntity
  8
Defpoints
370
               0
390
0
 62
               0
100
AcDbPoint
 10
-685.15527275987313
 20
-58.655253844912068
 30
0.0
  0
POINT
  5
8A
100
AcDbEntity
  8
Defpoints
370
               0
390
0
 62
               0
100
AcDbPoint
 10
-685.15527275987313
 20
-808.6552538449107
 30
0.0
  0
POINT
  5
8B
100
AcDbEntity
  8
Defpoints
370
               0
390
0
 62
               0
100
AcDbPoint
 10
-835.15527275987313
 20
-808.6552538449107
 30
0.0
  0
ENDBLK
  5
8C
100
AcDbEntity
  8
notes
390
0
100
AcDbBlockEnd
  0
BLOCK
  5
8D
100
AcDbEntity
  8
notes
390
0
100
AcDbBlockBegin
  2
*D6
 70
               1
 10
0.0
 20
0.0
 30
0.0
  3
*D6
  1

  0
LINE
  5
8E
100
AcDbEntity
  8
0
370
              -2
390
0
  6
Continuous
 62
               0
100
AcDbLine
 10
-657.65527275987313
 20
-633.65525384491116
 30
0.0
 11
-785.15527275987313
 21
-633.65525384491116
 31
0.0
  0
LINE
  5
8F
100
AcDbEntity
  8
0
370
              -2
390
0
  6
Continuous
 62
               0
100
AcDbLine
 10
-657.65527275987313
 20
-533.65525384491252
 30
0.0
 11
-785.15527275987313
 21
-533.65525384491252
 31
0.0
  0
LINE
  5
90
100
AcDbEntity
  8
0
370
              -2
390
0
  6
Continuous
 62
               0
100
AcDbLine
 10
-785.15527275987313
 20
-633.65525384491116
 30
0.0
 11
-785.15527275987313
 21
-533.65525384491252
 31
0.0
  0
CIRCLE
  5
91
102
{ACAD_REACTORS
330
92
102
}
100
AcDbEntity
  8
0
370
              -2
390
0
  6
Continuous
 62
               0
100
AcDbCircle
 10
-785.15527275987313
 20
-633.65525384491116
 30
0.0
 40
1.9998779296875
  0
HATCH
  5
92
100
AcDbEntity
  8
0
370
              -2
390
0
  6
Continuous
 62
               0
100
AcDbHatch
 10
0.0
 20
0.0
 30
0.0
210
0.0
220
0.0
230
1.0
  2
SOLID
 70
               1
 71
               1
 91
        1
 92
        1
 93
        1
 72
               2
 10
-785.15527275987313
 20
-633.65525384491116
 40
1.9998779296875
 50
0.0
 51
360.0
 73
               0
 97
        1
330
91
 75
               0
 76
               1
 98
        1
 10
0.0
 20
0.0
  0
CIRCLE
  5
93
102
{ACAD_REACTORS
330
94
102
}
100
AcDbEntity
  8
0
370
              -2
390
0
  6
Continuous
 62
               0
100
AcDbCircle
 10
-785.15527275987313
 20
-533.65525384491252
 30
0.0
 40
1.9998779296875
  0
HATCH
  5
94
100
AcDbEntity
  8
0
370
              -2
390
0
  6
Continuous
 62
               0
100
AcDbHatch
 10
0.0
 20
0.0
 30
0.0
210
0.0
220
0.0
230
1.0
  2
SOLID
 70
               1
 71
               1
 91
        1
 92
        1
 93
        1
 72
               2
 10
-785.15527275987313
 20
-533.65525384491252
 40
1.9998779296875
 50
0.0
 51
360.0
 73
               0
 97
        1
330
93
 75
               0
 76
               1
 98
        1
 10
0.0
 20
0.0
  0
MTEXT
  5
95
100
AcDbEntity
  8
0
390
0
 62
               0
100
AcDbMText
 10
-819.03288994737306
 20
-607.46775552708709
 30
0.0
 40
24.432617187500004
 41
0.0
 71
               1
 72
               1
  1
100
  7
ＭＳ ゴシック
 11
0.0
 21
1.0
 31
0.0
 73
               1
 44
0.7828267384257843
  0
POINT
  5
96
100
AcDbEntity
  8
Defpoints
370
               0
390
0
 62
               0
100
AcDbPoint
 10
-632.65527275987313
 20
-533.65525384491252
 30
0.0
  0
POINT
  5
97
100
AcDbEntity
  8
Defpoints
370
               0
390
0
 62
               0
100
AcDbPoint
 10
-632.65527275987313
 20
-633.65525384491116
 30
0.0
  0
POINT
  5
98
100
AcDbEntity
  8
Defpoints
370
               0
390
0
 62
               0
100
AcDbPoint
 10
-785.15527275987313
 20
-633.65525384491116
 30
0.0
  0
ENDBLK
  5
99
100
AcDbEntity
  8
notes
390
0
100
AcDbBlockEnd
  0
BLOCK
  5
9A
100
AcDbEntity
  8
notes
390
0
100
AcDbBlockBegin
  2
*D7
 70
               1
 10
0.0
 20
0.0
 30
0.0
  3
*D7
  1

  0
LINE
  5
9B
100
AcDbEntity
  8
0
370
              -2
390
0
  6
Continuous
 62
               0
100
AcDbLine
 10
-657.65527275987313
 20
-533.65525384491252
 30
0.0
 11
-785.15527275987313
 21
-533.65525384491252
 31
0.0
  0
LINE
  5
9C
100
AcDbEntity
  8
0
370
              -2
390
0
  6
Continuous
 62
               0
100
AcDbLine
 10
-657.65527275987313
 20
-433.65525384491298
 30
0.0
 11
-785.15527275987313
 21
-433.65525384491298
 31
0.0
  0
LINE
  5
9D
100
AcDbEntity
  8
0
370
              -2
390
0
  6
Continuous
 62
               0
100
AcDbLine
 10
-785.15527275987313
 20
-533.65525384491252
 30
0.0
 11
-785.15527275987313
 21
-433.65525384491298
 31
0.0
  0
CIRCLE
  5
9E
102
{ACAD_REACTORS
330
9F
102
}
100
AcDbEntity
  8
0
370
              -2
390
0
  6
Continuous
 62
               0
100
AcDbCircle
 10
-785.15527275987313
 20
-533.65525384491252
 30
0.0
 40
1.9998779296875
  0
HATCH
  5
9F
100
AcDbEntity
  8
0
370
              -2
390
0
  6
Continuous
 62
               0
100
AcDbHatch
 10
0.0
 20
0.0
 30
0.0
210
0.0
220
0.0
230
1.0
  2
SOLID
 70
               1
 71
               1
 91
        1
 92
        1
 93
        1
 72
               2
 10
-785.15527275987313
 20
-533.65525384491252
 40
1.9998779296875
 50
0.0
 51
360.0
 73
               0
 97
        1
330
9E
 75
               0
 76
               1
 98
        1
 10
0.0
 20
0.0
  0
CIRCLE
  5
A0
102
{ACAD_REACTORS
330
A1
102
}
100
AcDbEntity
  8
0
370
              -2
390
0
  6
Continuous
 62
               0
100
AcDbCircle
 10
-785.15527275987313
 20
-433.65525384491298
 30
0.0
 40
1.9998779296875
  0
HATCH
  5
A1
100
AcDbEntity
  8
0
370
              -2
390
0
  6
Continuous
 62
               0
100
AcDbHatch
 10
0.0
 20
0.0
 30
0.0
210
0.0
220
0.0
230
1.0
  2
SOLID
 70
               1
 71
               1
 91
        1
 92
        1
 93
        1
 72
               2
 10
-785.15527275987313
 20
-433.65525384491298
 40
1.9998779296875
 50
0.0
 51
360.0
 73
               0
 97
        1
330
A0
 75
               0
 76
               1
 98
        1
 10
0.0
 20
0.0
  0
MTEXT
  5
A2
100
AcDbEntity
  8
0
390
0
 62
               0
100
AcDbMText
 10
-819.03288994737306
 20
-507.467755527088
 30
0.0
 40
24.432617187500004
 41
0.0
 71
               1
 72
               1
  1
100
  7
ＭＳ ゴシック
 11
0.0
 21
1.0
 31
0.0
 73
               1
 44
0.7828267384257843
  0
POINT
  5
A3
100
AcDbEntity
  8
Defpoints
370
               0
390
0
 62
               0
100
AcDbPoint
 10
-632.65527275987313
 20
-433.65525384491298
 30
0.0
  0
POINT
  5
A4
100
AcDbEntity
  8
Defpoints
370
               0
390
0
 62
               0
100
AcDbPoint
 10
-632.65527275987313
 20
-533.65525384491252
 30
0.0
  0
POINT
  5
A5
100
AcDbEntity
  8
Defpoints
370
               0
390
0
 62
               0
100
AcDbPoint
 10
-785.15527275987313
 20
-533.65525384491252
 30
0.0
  0
ENDBLK
  5
A6
100
AcDbEntity
  8
notes
390
0
100
AcDbBlockEnd
  0
BLOCK
  5
A7
100
AcDbEntity
  8
notes
390
0
100
AcDbBlockBegin
  2
*D8
 70
               1
 10
0.0
 20
0.0
 30
0.0
  3
*D8
  1

  0
LINE
  5
A8
100
AcDbEntity
  8
0
370
              -2
390
0
  6
Continuous
 62
               0
100
AcDbLine
 10
-657.65527275987313
 20
-433.65525384491298
 30
0.0
 11
-785.15527275987313
 21
-433.65525384491298
 31
0.0
  0
LINE
  5
A9
100
AcDbEntity
  8
0
370
              -2
390
0
  6
Continuous
 62
               0
100
AcDbLine
 10
-657.65527275987313
 20
-333.65525384491298
 30
0.0
 11
-785.15527275987313
 21
-333.65525384491298
 31
0.0
  0
LINE
  5
AA
100
AcDbEntity
  8
0
370
              -2
390
0
  6
Continuous
 62
               0
100
AcDbLine
 10
-785.15527275987313
 20
-433.65525384491298
 30
0.0
 11
-785.15527275987313
 21
-333.65525384491298
 31
0.0
  0
CIRCLE
  5
AB
102
{ACAD_REACTORS
330
AC
102
}
100
AcDbEntity
  8
0
370
              -2
390
0
  6
Continuous
 62
               0
100
AcDbCircle
 10
-785.15527275987313
 20
-433.65525384491298
 30
0.0
 40
1.9998779296875
  0
HATCH
  5
AC
100
AcDbEntity
  8
0
370
              -2
390
0
  6
Continuous
 62
               0
100
AcDbHatch
 10
0.0
 20
0.0
 30
0.0
210
0.0
220
0.0
230
1.0
  2
SOLID
 70
               1
 71
               1
 91
        1
 92
        1
 93
        1
 72
               2
 10
-785.15527275987313
 20
-433.65525384491298
 40
1.9998779296875
 50
0.0
 51
360.0
 73
               0
 97
        1
330
AB
 75
               0
 76
               1
 98
        1
 10
0.0
 20
0.0
  0
CIRCLE
  5
AD
102
{ACAD_REACTORS
330
AE
102
}
100
AcDbEntity
  8
0
370
              -2
390
0
  6
Continuous
 62
               0
100
AcDbCircle
 10
-785.15527275987313
 20
-333.65525384491298
 30
0.0
 40
1.9998779296875
  0
HATCH
  5
AE
100
AcDbEntity
  8
0
370
              -2
390
0
  6
Continuous
 62
               0
100
AcDbHatch
 10
0.0
 20
0.0
 30
0.0
210
0.0
220
0.0
230
1.0
  2
SOLID
 70
               1
 71
               1
 91
        1
 92
        1
 93
        1
 72
               2
 10
-785.15527275987313
 20
-333.65525384491298
 40
1.9998779296875
 50
0.0
 51
360.0
 73
               0
 97
        1
330
AD
 75
               0
 76
               1
 98
        1
 10
0.0
 20
0.0
  0
MTEXT
  5
AF
100
AcDbEntity
  8
0
390
0
 62
               0
100
AcDbMText
 10
-819.03288994737306
 20
-407.46775552708846
 30
0.0
 40
24.432617187500004
 41
0.0
 71
               1
 72
               1
  1
100
  7
ＭＳ ゴシック
 11
0.0
 21
1.0
 31
0.0
 73
               1
 44
0.7828267384257843
  0
POINT
  5
B0
100
AcDbEntity
  8
Defpoints
370
               0
390
0
 62
               0
100
AcDbPoint
 10
-632.65527275987313
 20
-333.65525384491298
 30
0.0
  0
POINT
  5
B1
100
AcDbEntity
  8
Defpoints
370
               0
390
0
 62
               0
100
AcDbPoint
 10
-632.65527275987313
 20
-433.65525384491298
 30
0.0
  0
POINT
  5
B2
100
AcDbEntity
  8
Defpoints
370
               0
390
0
 62
               0
100
AcDbPoint
 10
-785.15527275987313
 20
-433.65525384491298
 30
0.0
  0
ENDBLK
  5
B3
100
AcDbEntity
  8
notes
390
0
100
AcDbBlockEnd
  0
BLOCK
  5
B4
100
AcDbEntity
  8
notes
390
0
100
AcDbBlockBegin
  2
*D9
 70
               1
 10
0.0
 20
0.0
 30
0.0
  3
*D9
  1

  0
LINE
  5
B5
100
AcDbEntity
  8
0
370
              -2
390
0
  6
Continuous
 62
               0
100
AcDbLine
 10
-657.65527275987313
 20
-333.65525384491298
 30
0.0
 11
-785.15527275987313
 21
-333.65525384491298
 31
0.0
  0
LINE
  5
B6
100
AcDbEntity
  8
0
370
              -2
390
0
  6
Continuous
 62
               0
100
AcDbLine
 10
-657.65527275987313
 20
-233.65525384491298
 30
0.0
 11
-785.15527275987313
 21
-233.65525384491298
 31
0.0
  0
LINE
  5
B7
100
AcDbEntity
  8
0
370
              -2
390
0
  6
Continuous
 62
               0
100
AcDbLine
 10
-785.15527275987313
 20
-333.65525384491298
 30
0.0
 11
-785.15527275987313
 21
-233.65525384491298
 31
0.0
  0
CIRCLE
  5
B8
102
{ACAD_REACTORS
330
B9
102
}
100
AcDbEntity
  8
0
370
              -2
390
0
  6
Continuous
 62
               0
100
AcDbCircle
 10
-785.15527275987313
 20
-333.65525384491298
 30
0.0
 40
1.9998779296875
  0
HATCH
  5
B9
100
AcDbEntity
  8
0
370
              -2
390
0
  6
Continuous
 62
               0
100
AcDbHatch
 10
0.0
 20
0.0
 30
0.0
210
0.0
220
0.0
230
1.0
  2
SOLID
 70
               1
 71
               1
 91
        1
 92
        1
 93
        1
 72
               2
 10
-785.15527275987313
 20
-333.65525384491298
 40
1.9998779296875
 50
0.0
 51
360.0
 73
               0
 97
        1
330
B8
 75
               0
 76
               1
 98
        1
 10
0.0
 20
0.0
  0
CIRCLE
  5
BA
102
{ACAD_REACTORS
330
BB
102
}
100
AcDbEntity
  8
0
370
              -2
390
0
  6
Continuous
 62
               0
100
AcDbCircle
 10
-785.15527275987313
 20
-233.65525384491298
 30
0.0
 40
1.9998779296875
  0
HATCH
  5
BB
100
AcDbEntity
  8
0
370
              -2
390
0
  6
Continuous
 62
               0
100
AcDbHatch
 10
0.0
 20
0.0
 30
0.0
210
0.0
220
0.0
230
1.0
  2
SOLID
 70
               1
 71
               1
 91
        1
 92
        1
 93
        1
 72
               2
 10
-785.15527275987313
 20
-233.65525384491298
 40
1.9998779296875
 50
0.0
 51
360.0
 73
               0
 97
        1
330
BA
 75
               0
 76
               1
 98
        1
 10
0.0
 20
0.0
  0
MTEXT
  5
BC
100
AcDbEntity
  8
0
390
0
 62
               0
100
AcDbMText
 10
-819.03288994737306
 20
-307.46775552708846
 30
0.0
 40
24.432617187500004
 41
0.0
 71
               1
 72
               1
  1
100
  7
ＭＳ ゴシック
 11
0.0
 21
1.0
 31
0.0
 73
               1
 44
0.7828267384257843
  0
POINT
  5
BD
100
AcDbEntity
  8
Defpoints
370
               0
390
0
 62
               0
100
AcDbPoint
 10
-632.65527275987313
 20
-233.65525384491298
 30
0.0
  0
POINT
  5
BE
100
AcDbEntity
  8
Defpoints
370
               0
390
0
 62
               0
100
AcDbPoint
 10
-632.65527275987313
 20
-333.65525384491298
 30
0.0
  0
POINT
  5
BF
100
AcDbEntity
  8
Defpoints
370
               0
390
0
 62
               0
100
AcDbPoint
 10
-785.15527275987313
 20
-333.65525384491298
 30
0.0
  0
ENDBLK
  5
C0
100
AcDbEntity
  8
notes
390
0
100
AcDbBlockEnd
  0
BLOCK
  5
C1
100
AcDbEntity
  8
notes
390
0
100
AcDbBlockBegin
  2
*D10
 70
               1
 10
0.0
 20
0.0
 30
0.0
  3
*D10
  1

  0
LINE
  5
C2
100
AcDbEntity
  8
0
370
              -2
390
0
  6
Continuous
 62
               0
100
AcDbLine
 10
-685.15527275987313
 20
-833.6552538449107
 30
0.0
 11
-685.15527275987313
 21
-908.6552538449107
 31
0.0
  0
LINE
  5
C3
100
AcDbEntity
  8
0
370
              -2
390
0
  6
Continuous
 62
               0
100
AcDbLine
 10
-555.15527275986722
 20
-833.6552538449107
 30
0.0
 11
-555.15527275986722
 21
-908.6552538449107
 31
0.0
  0
LINE
  5
C4
100
AcDbEntity
  8
0
370
              -2
390
0
  6
Continuous
 62
               0
100
AcDbLine
 10
-685.15527275987313
 20
-908.6552538449107
 30
0.0
 11
-555.15527275986722
 21
-908.6552538449107
 31
0.0
  0
CIRCLE
  5
C5
102
{ACAD_REACTORS
330
C6
102
}
100
AcDbEntity
  8
0
370
              -2
390
0
  6
Continuous
 62
               0
100
AcDbCircle
 10
-685.15527275987313
 20
-908.6552538449107
 30
0.0
 40
1.9998779296875
  0
HATCH
  5
C6
100
AcDbEntity
  8
0
370
              -2
390
0
  6
Continuous
 62
               0
100
AcDbHatch
 10
0.0
 20
0.0
 30
0.0
210
0.0
220
0.0
230
1.0
  2
SOLID
 70
               1
 71
               1
 91
        1
 92
        1
 93
        1
 72
               2
 10
-685.15527275987313
 20
-908.6552538449107
 40
1.9998779296875
 50
0.0
 51
360.0
 73
               0
 97
        1
330
C5
 75
               0
 76
               1
 98
        1
 10
0.0
 20
0.0
  0
CIRCLE
  5
C7
102
{ACAD_REACTORS
330
C8
102
}
100
AcDbEntity
  8
0
370
              -2
390
0
  6
Continuous
 62
               0
100
AcDbCircle
 10
-555.15527275986722
 20
-908.6552538449107
 30
0.0
 40
1.9998779296875
  0
HATCH
  5
C8
100
AcDbEntity
  8
0
370
              -2
390
0
  6
Continuous
 62
               0
100
AcDbHatch
 10
0.0
 20
0.0
 30
0.0
210
0.0
220
0.0
230
1.0
  2
SOLID
 70
               1
 71
               1
 91
        1
 92
        1
 93
        1
 72
               2
 10
-555.15527275986722
 20
-908.6552538449107
 40
1.9998779296875
 50
0.0
 51
360.0
 73
               0
 97
        1
330
C7
 75
               0
 76
               1
 98
        1
 10
0.0
 20
0.0
  0
MTEXT
  5
C9
100
AcDbEntity
  8
0
390
0
 62
               0
100
AcDbMText
 10
-643.96777444204565
 20
-874.77763665741054
 30
0.0
 40
24.432617187500004
 41
0.0
 71
               1
 72
               1
  1
130
  7
ＭＳ ゴシック
 73
               1
 44
0.7828267384257843
  0
POINT
  5
CA
100
AcDbEntity
  8
Defpoints
370
               0
390
0
 62
               0
100
AcDbPoint
 10
-555.15527275986722
 20
-808.6552538449107
 30
0.0
  0
POINT
  5
CB
100
AcDbEntity
  8
Defpoints
370
               0
390
0
 62
               0
100
AcDbPoint
 10
-685.15527275987313
 20
-808.6552538449107
 30
0.0
  0
POINT
  5
CC
100
AcDbEntity
  8
Defpoints
370
               0
390
0
 62
               0
100
AcDbPoint
 10
-685.15527275987313
 20
-908.6552538449107
 30
0.0
  0
ENDBLK
  5
CD
100
AcDbEntity
  8
notes
390
0
100
AcDbBlockEnd
  0
BLOCK
  5
CE
100
AcDbEntity
  8
notes
390
0
100
AcDbBlockBegin
  2
*D11
 70
               1
 10
0.0
 20
0.0
 30
0.0
  3
*D11
  1

  0
LINE
  5
CF
100
AcDbEntity
  8
0
370
              -2
390
0
  6
Continuous
 62
               0
100
AcDbLine
 10
-160.15527275986869
 20
-783.6552538449107
 30
0.0
 11
-85.155272759867216
 21
-783.6552538449107
 31
0.0
  0
LINE
  5
D0
100
AcDbEntity
  8
0
370
              -2
390
0
  6
Continuous
 62
               0
100
AcDbLine
 10
-160.15527275986869
 20
-83.655253844912977
 30
0.0
 11
-85.155272759867216
 21
-83.655253844912977
 31
0.0
  0
LINE
  5
D1
100
AcDbEntity
  8
0
370
              -2
390
0
  6
Continuous
 62
               0
100
AcDbLine
 10
-85.155272759867216
 20
-783.6552538449107
 30
0.0
 11
-85.155272759867216
 21
-83.655253844912977
 31
0.0
  0
CIRCLE
  5
D2
102
{ACAD_REACTORS
330
D3
102
}
100
AcDbEntity
  8
0
370
              -2
390
0
  6
Continuous
 62
               0
100
AcDbCircle
 10
-85.155272759867216
 20
-783.6552538449107
 30
0.0
 40
1.9998779296875
  0
HATCH
  5
D3
100
AcDbEntity
  8
0
370
              -2
390
0
  6
Continuous
 62
               0
100
AcDbHatch
 10
0.0
 20
0.0
 30
0.0
210
0.0
220
0.0
230
1.0
  2
SOLID
 70
               1
 71
               1
 91
        1
 92
        1
 93
        1
 72
               2
 10
-85.155272759867216
 20
-783.6552538449107
 40
1.9998779296875
 50
0.0
 51
360.0
 73
               0
 97
        1
330
D2
 75
               0
 76
               1
 98
        1
 10
0.0
 20
0.0
  0
CIRCLE
  5
D4
102
{ACAD_REACTORS
330
D5
102
}
100
AcDbEntity
  8
0
370
              -2
390
0
  6
Continuous
 62
               0
100
AcDbCircle
 10
-85.155272759867216
 20
-83.655253844912977
 30
0.0
 40
1.9998779296875
  0
HATCH
  5
D5
100
AcDbEntity
  8
0
370
              -2
390
0
  6
Continuous
 62
               0
100
AcDbHatch
 10
0.0
 20
0.0
 30
0.0
210
0.0
220
0.0
230
1.0
  2
SOLID
 70
               1
 71
               1
 91
        1
 92
        1
 93
        1
 72
               2
 10
-85.155272759867216
 20
-83.655253844912977
 40
1.9998779296875
 50
0.0
 51
360.0
 73
               0
 97
        1
330
D4
 75
               0
 76
               1
 98
        1
 10
0.0
 20
0.0
  0
MTEXT
  5
D6
100
AcDbEntity
  8
0
390
0
 62
               0
100
AcDbMText
 10
-119.03288994736727
 20
-457.46775552708709
 30
0.0
 40
24.432617187500004
 41
0.0
 71
               1
 72
               1
  1
700
  7
ＭＳ ゴシック
 11
0.0
 21
1.0
 31
0.0
 73
               1
 44
0.7828267384257843
  0
POINT
  5
D7
100
AcDbEntity
  8
Defpoints
370
               0
390
0
 62
               0
100
AcDbPoint
 10
-185.15527275986869
 20
-83.655253844912977
 30
0.0
  0
POINT
  5
D8
100
AcDbEntity
  8
Defpoints
370
               0
390
0
 62
               0
100
AcDbPoint
 10
-185.15527275986869
 20
-783.6552538449107
 30
0.0
  0
POINT
  5
D9
100
AcDbEntity
  8
Defpoints
370
               0
390
0
 62
               0
100
AcDbPoint
 10
-85.155272759867216
 20
-783.6552538449107
 30
0.0
  0
ENDBLK
  5
DA
100
AcDbEntity
  8
notes
390
0
100
AcDbBlockEnd
  0
BLOCK
  5
DB
100
AcDbEntity
  8
notes
390
0
100
AcDbBlockBegin
  2
*D12
 70
               1
 10
0.0
 20
0.0
 30
0.0
  3
*D12
  1

  0
LINE
  5
DC
100
AcDbEntity
  8
0
370
              -2
390
0
  6
Continuous
 62
               0
100
AcDbLine
 10
-555.15527275986722
 20
-833.6552538449107
 30
0.0
 11
-555.15527275986722
 21
-908.6552538449107
 31
0.0
  0
LINE
  5
DD
100
AcDbEntity
  8
0
370
              -2
390
0
  6
Continuous
 62
               0
100
AcDbLine
 10
-210.15527275986722
 20
-833.6552538449107
 30
0.0
 11
-210.15527275986722
 21
-908.6552538449107
 31
0.0
  0
LINE
  5
DE
100
AcDbEntity
  8
0
370
              -2
390
0
  6
Continuous
 62
               0
100
AcDbLine
 10
-555.15527275986722
 20
-908.6552538449107
 30
0.0
 11
-210.15527275986722
 21
-908.6552538449107
 31
0.0
  0
CIRCLE
  5
DF
102
{ACAD_REACTORS
330
E0
102
}
100
AcDbEntity
  8
0
370
              -2
390
0
  6
Continuous
 62
               0
100
AcDbCircle
 10
-555.15527275986722
 20
-908.6552538449107
 30
0.0
 40
1.9998779296875
  0
HATCH
  5
E0
100
AcDbEntity
  8
0
370
              -2
390
0
  6
Continuous
 62
               0
100
AcDbHatch
 10
0.0
 20
0.0
 30
0.0
210
0.0
220
0.0
230
1.0
  2
SOLID
 70
               1
 71
               1
 91
        1
 92
        1
 93
        1
 72
               2
 10
-555.15527275986722
 20
-908.6552538449107
 40
1.9998779296875
 50
0.0
 51
360.0
 73
               0
 97
        1
330
DF
 75
               0
 76
               1
 98
        1
 10
0.0
 20
0.0
  0
CIRCLE
  5
E1
102
{ACAD_REACTORS
330
E2
102
}
100
AcDbEntity
  8
0
370
              -2
390
0
  6
Continuous
 62
               0
100
AcDbCircle
 10
-210.15527275986722
 20
-908.6552538449107
 30
0.0
 40
1.9998779296875
  0
HATCH
  5
E2
100
AcDbEntity
  8
0
370
              -2
390
0
  6
Continuous
 62
               0
100
AcDbHatch
 10
0.0
 20
0.0
 30
0.0
210
0.0
220
0.0
230
1.0
  2
SOLID
 70
               1
 71
               1
 91
        1
 92
        1
 93
        1
 72
               2
 10
-210.15527275986722
 20
-908.6552538449107
 40
1.9998779296875
 50
0.0
 51
360.0
 73
               0
 97
        1
330
E1
 75
               0
 76
               1
 98
        1
 10
0.0
 20
0.0
  0
MTEXT
  5
E3
100
AcDbEntity
  8
0
390
0
 62
               0
100
AcDbMText
 10
-406.4677744420427
 20
-874.77763665741054
 30
0.0
 40
24.432617187500004
 41
0.0
 71
               1
 72
               1
  1
345
  7
ＭＳ ゴシック
 73
               1
 44
0.7828267384257843
  0
POINT
  5
E4
100
AcDbEntity
  8
Defpoints
370
               0
390
0
 62
               0
100
AcDbPoint
 10
-210.15527275986722
 20
-808.6552538449107
 30
0.0
  0
POINT
  5
E5
100
AcDbEntity
  8
Defpoints
370
               0
390
0
 62
               0
100
AcDbPoint
 10
-555.15527275986722
 20
-808.6552538449107
 30
0.0
  0
POINT
  5
E6
100
AcDbEntity
  8
Defpoints
370
               0
390
0
 62
               0
100
AcDbPoint
 10
-555.15527275986722
 20
-908.6552538449107
 30
0.0
  0
ENDBLK
  5
E7
100
AcDbEntity
  8
notes
390
0
100
AcDbBlockEnd
  0
BLOCK
  5
E8
100
AcDbEntity
  8
notes
390
0
100
AcDbBlockBegin
  2
*D13
 70
               1
 10
0.0
 20
0.0
 30
0.0
  3
*D13
  1

  0
LINE
  5
E9
100
AcDbEntity
  8
0
370
              -2
390
0
  6
Continuous
 62
               0
100
AcDbLine
 10
409.05914781690512
 20
-573.65525384491207
 30
0.0
 11
314.05914781690512
 21
-573.65525384491207
 31
0.0
  0
LINE
  5
EA
100
AcDbEntity
  8
0
370
              -2
390
0
  6
Continuous
 62
               0
100
AcDbLine
 10
409.05914781690512
 20
-293.65525384491298
 30
0.0
 11
314.05914781690512
 21
-293.65525384491298
 31
0.0
  0
LINE
  5
EB
100
AcDbEntity
  8
0
370
              -2
390
0
  6
Continuous
 62
               0
100
AcDbLine
 10
314.05914781690512
 20
-573.65525384491207
 30
0.0
 11
314.05914781690512
 21
-293.65525384491298
 31
0.0
  0
CIRCLE
  5
EC
102
{ACAD_REACTORS
330
ED
102
}
100
AcDbEntity
  8
0
370
              -2
390
0
  6
Continuous
 62
               0
100
AcDbCircle
 10
314.05914781690512
 20
-573.65525384491207
 30
0.0
 40
1.9998779296875
  0
HATCH
  5
ED
100
AcDbEntity
  8
0
370
              -2
390
0
  6
Continuous
 62
               0
100
AcDbHatch
 10
0.0
 20
0.0
 30
0.0
210
0.0
220
0.0
230
1.0
  2
SOLID
 70
               1
 71
               1
 91
        1
 92
        1
 93
        1
 72
               2
 10
314.05914781690512
 20
-573.65525384491207
 40
1.9998779296875
 50
0.0
 51
360.0
 73
               0
 97
        1
330
EC
 75
               0
 76
               1
 98
        1
 10
0.0
 20
0.0
  0
CIRCLE
  5
EE
102
{ACAD_REACTORS
330
EF
102
}
100
AcDbEntity
  8
0
370
              -2
390
0
  6
Continuous
 62
               0
100
AcDbCircle
 10
314.05914781690512
 20
-293.65525384491298
 30
0.0
 40
1.9998779296875
  0
HATCH
  5
EF
100
AcDbEntity
  8
0
370
              -2
390
0
  6
Continuous
 62
               0
100
AcDbHatch
 10
0.0
 20
0.0
 30
0.0
210
0.0
220
0.0
230
1.0
  2
SOLID
 70
               1
 71
               1
 91
        1
 92
        1
 93
        1
 72
               2
 10
314.05914781690512
 20
-293.65525384491298
 40
1.9998779296875
 50
0.0
 51
360.0
 73
               0
 97
        1
330
EE
 75
               0
 76
               1
 98
        1
 10
0.0
 20
0.0
  0
MTEXT
  5
F0
100
AcDbEntity
  8
0
390
0
 62
               0
100
AcDbMText
 10
280.18153062940507
 20
-457.467755527088
 30
0.0
 40
24.432617187500004
 41
0.0
 71
               1
 72
               1
  1
280
  7
ＭＳ ゴシック
 11
0.0
 21
1.0
 31
0.0
 73
               1
 44
0.7828267384257843
  0
POINT
  5
F1
100
AcDbEntity
  8
Defpoints
370
               0
390
0
 62
               0
100
AcDbPoint
 10
434.05914781690512
 20
-293.65525384491298
 30
0.0
  0
POINT
  5
F2
100
AcDbEntity
  8
Defpoints
370
               0
390
0
 62
               0
100
AcDbPoint
 10
434.05914781690512
 20
-573.65525384491207
 30
0.0
  0
POINT
  5
F3
100
AcDbEntity
  8
Defpoints
370
               0
390
0
 62
               0
100
AcDbPoint
 10
314.05914781690512
 20
-573.65525384491207
 30
0.0
  0
ENDBLK
  5
F4
100
AcDbEntity
  8
notes
390
0
100
AcDbBlockEnd
  0
BLOCK
  5
F5
100
AcDbEntity
  8
notes
390
0
100
AcDbBlockBegin
  2
*D14
 70
               1
 10
0.0
 20
0.0
 30
0.0
  3
*D14
  1

  0
LINE
  5
F6
100
AcDbEntity
  8
0
370
              -2
390
0
  6
Continuous
 62
               0
100
AcDbLine
 10
414.09160778758525
 20
-33.655253844912068
 30
0.0
 11
414.09160778758525
 21
41.344746155087932
 31
0.0
  0
LINE
  5
F7
100
AcDbEntity
  8
0
370
              -2
390
0
  6
Continuous
 62
               0
100
AcDbLine
 10
604.09160778758405
 20
-118.65525384491298
 30
0.0
 11
604.09160778758405
 21
41.344746155087932
 31
0.0
  0
LINE
  5
F8
100
AcDbEntity
  8
0
370
              -2
390
0
  6
Continuous
 62
               0
100
AcDbLine
 10
414.09160778758525
 20
41.344746155087932
 30
0.0
 11
604.09160778758405
 21
41.344746155087932
 31
0.0
  0
CIRCLE
  5
F9
102
{ACAD_REACTORS
330
FA
102
}
100
AcDbEntity
  8
0
370
              -2
390
0
  6
Continuous
 62
               0
100
AcDbCircle
 10
414.09160778758525
 20
41.344746155087932
 30
0.0
 40
1.9998779296875
  0
HATCH
  5
FA
100
AcDbEntity
  8
0
370
              -2
390
0
  6
Continuous
 62
               0
100
AcDbHatch
 10
0.0
 20
0.0
 30
0.0
210
0.0
220
0.0
230
1.0
  2
SOLID
 70
               1
 71
               1
 91
        1
 92
        1
 93
        1
 72
               2
 10
414.09160778758525
 20
41.344746155087932
 40
1.9998779296875
 50
0.0
 51
360.0
 73
               0
 97
        1
330
F9
 75
               0
 76
               1
 98
        1
 10
0.0
 20
0.0
  0
CIRCLE
  5
FB
102
{ACAD_REACTORS
330
FC
102
}
100
AcDbEntity
  8
0
370
              -2
390
0
  6
Continuous
 62
               0
100
AcDbCircle
 10
604.09160778758405
 20
41.344746155087932
 30
0.0
 40
1.9998779296875
  0
HATCH
  5
FC
100
AcDbEntity
  8
0
370
              -2
390
0
  6
Continuous
 62
               0
100
AcDbHatch
 10
0.0
 20
0.0
 30
0.0
210
0.0
220
0.0
230
1.0
  2
SOLID
 70
               1
 71
               1
 91
        1
 92
        1
 93
        1
 72
               2
 10
604.09160778758405
 20
41.344746155087932
 40
1.9998779296875
 50
0.0
 51
360.0
 73
               0
 97
        1
330
FB
 75
               0
 76
               1
 98
        1
 10
0.0
 20
0.0
  0
MTEXT
  5
FD
100
AcDbEntity
  8
0
390
0
 62
               0
100
AcDbMText
 10
485.27910610540914
 20
75.222363342587869
 30
0.0
 40
24.432617187500004
 41
0.0
 71
               1
 72
               1
  1
190
  7
ＭＳ ゴシック
 73
               1
 44
0.7828267384257843
  0
POINT
  5
FE
100
AcDbEntity
  8
Defpoints
370
               0
390
0
 62
               0
100
AcDbPoint
 10
604.09160778758405
 20
-143.65525384491298
 30
0.0
  0
POINT
  5
FF
100
AcDbEntity
  8
Defpoints
370
               0
390
0
 62
               0
100
AcDbPoint
 10
414.09160778758525
 20
-58.655253844912068
 30
0.0
  0
POINT
  5
100
100
AcDbEntity
  8
Defpoints
370
               0
390
0
 62
               0
100
AcDbPoint
 10
414.09160778758525
 20
41.344746155087932
 30
0.0
  0
ENDBLK
  5
101
100
AcDbEntity
  8
notes
390
0
100
AcDbBlockEnd
  0
BLOCK
  5
102
100
AcDbEntity
  8
notes
390
0
100
AcDbBlockBegin
  2
*D15
 70
               1
 10
0.0
 20
0.0
 30
0.0
  3
*D15
  1

  0
LINE
  5
103
100
AcDbEntity
  8
0
370
              -2
390
0
  6
Continuous
 62
               0
100
AcDbLine
 10
-210.15527275986722
 20
430.15527275986892
 30
0.0
 11
-135.15527275986722
 21
430.15527275986892
 31
0.0
  0
LINE
  5
104
100
AcDbEntity
  8
0
370
              -2
390
0
  6
Continuous
 62
               0
100
AcDbLine
 10
-210.15527275986722
 20
1080.1552727598705
 30
0.0
 11
-135.15527275986722
 21
1080.1552727598705
 31
0.0
  0
LINE
  5
105
100
AcDbEntity
  8
0
370
              -2
390
0
  6
Continuous
 62
               0
100
AcDbLine
 10
-135.15527275986722
 20
430.15527275986892
 30
0.0
 11
-135.15527275986722
 21
1080.1552727598705
 31
0.0
  0
CIRCLE
  5
106
102
{ACAD_REACTORS
330
107
102
}
100
AcDbEntity
  8
0
370
              -2
390
0
  6
Continuous
 62
               0
100
AcDbCircle
 10
-135.15527275986722
 20
430.15527275986892
 30
0.0
 40
1.9998779296875
  0
HATCH
  5
107
100
AcDbEntity
  8
0
370
              -2
390
0
  6
Continuous
 62
               0
100
AcDbHatch
 10
0.0
 20
0.0
 30
0.0
210
0.0
220
0.0
230
1.0
  2
SOLID
 70
               1
 71
               1
 91
        1
 92
        1
 93
        1
 72
               2
 10
-135.15527275986722
 20
430.15527275986892
 40
1.9998779296875
 50
0.0
 51
360.0
 73
               0
 97
        1
330
106
 75
               0
 76
               1
 98
        1
 10
0.0
 20
0.0
  0
CIRCLE
  5
108
102
{ACAD_REACTORS
330
109
102
}
100
AcDbEntity
  8
0
370
              -2
390
0
  6
Continuous
 62
               0
100
AcDbCircle
 10
-135.15527275986722
 20
1080.1552727598705
 30
0.0
 40
1.9998779296875
  0
HATCH
  5
109
100
AcDbEntity
  8
0
370
              -2
390
0
  6
Continuous
 62
               0
100
AcDbHatch
 10
0.0
 20
0.0
 30
0.0
210
0.0
220
0.0
230
1.0
  2
SOLID
 70
               1
 71
               1
 91
        1
 92
        1
 93
        1
 72
               2
 10
-135.15527275986722
 20
1080.1552727598705
 40
1.9998779296875
 50
0.0
 51
360.0
 73
               0
 97
        1
330
108
 75
               0
 76
               1
 98
        1
 10
0.0
 20
0.0
  0
MTEXT
  5
10A
100
AcDbEntity
  8
0
390
0
 62
               0
100
AcDbMText
 10
-169.03288994736727
 20
731.34277107769435
 30
0.0
 40
24.432617187500004
 41
0.0
 71
               1
 72
               1
  1
650
  7
ＭＳ ゴシック
 11
0.0
 21
1.0
 31
0.0
 73
               1
 44
0.7828267384257843
  0
POINT
  5
10B
100
AcDbEntity
  8
Defpoints
370
               0
390
0
 62
               0
100
AcDbPoint
 10
-235.15527275986722
 20
1080.1552727598705
 30
0.0
  0
POINT
  5
10C
100
AcDbEntity
  8
Defpoints
370
               0
390
0
 62
               0
100
AcDbPoint
 10
-235.15527275986722
 20
430.15527275986892
 30
0.0
  0
POINT
  5
10D
100
AcDbEntity
  8
Defpoints
370
               0
390
0
 62
               0
100
AcDbPoint
 10
-135.15527275986722
 20
430.15527275986892
 30
0.0
  0
ENDBLK
  5
10E
100
AcDbEntity
  8
notes
390
0
100
AcDbBlockEnd
  0
BLOCK
  5
10F
100
AcDbEntity
  8
notes
390
0
100
AcDbBlockBegin
  2
*D16
 70
               1
 10
0.0
 20
0.0
 30
0.0
  3
*D16
  1

  0
LINE
  5
110
100
AcDbEntity
  8
0
370
              -2
390
0
  6
Continuous
 62
               0
100
AcDbLine
 10
-235.15527275986722
 20
1105.1552727598705
 30
0.0
 11
-235.15527275986722
 21
1180.1552727598705
 31
0.0
  0
LINE
  5
111
100
AcDbEntity
  8
0
370
              -2
390
0
  6
Continuous
 62
               0
100
AcDbLine
 10
-685.15527275987313
 20
1105.1552727598705
 30
0.0
 11
-685.15527275987313
 21
1180.1552727598705
 31
0.0
  0
LINE
  5
112
100
AcDbEntity
  8
0
370
              -2
390
0
  6
Continuous
 62
               0
100
AcDbLine
 10
-235.15527275986722
 20
1180.1552727598705
 30
0.0
 11
-685.15527275987313
 21
1180.1552727598705
 31
0.0
  0
CIRCLE
  5
113
102
{ACAD_REACTORS
330
114
102
}
100
AcDbEntity
  8
0
370
              -2
390
0
  6
Continuous
 62
               0
100
AcDbCircle
 10
-235.15527275986722
 20
1180.1552727598705
 30
0.0
 40
1.9998779296875
  0
HATCH
  5
114
100
AcDbEntity
  8
0
370
              -2
390
0
  6
Continuous
 62
               0
100
AcDbHatch
 10
0.0
 20
0.0
 30
0.0
210
0.0
220
0.0
230
1.0
  2
SOLID
 70
               1
 71
               1
 91
        1
 92
        1
 93
        1
 72
               2
 10
-235.15527275986722
 20
1180.1552727598705
 40
1.9998779296875
 50
0.0
 51
360.0
 73
               0
 97
        1
330
113
 75
               0
 76
               1
 98
        1
 10
0.0
 20
0.0
  0
CIRCLE
  5
115
102
{ACAD_REACTORS
330
116
102
}
100
AcDbEntity
  8
0
370
              -2
390
0
  6
Continuous
 62
               0
100
AcDbCircle
 10
-685.15527275987313
 20
1180.1552727598705
 30
0.0
 40
1.9998779296875
  0
HATCH
  5
116
100
AcDbEntity
  8
0
370
              -2
390
0
  6
Continuous
 62
               0
100
AcDbHatch
 10
0.0
 20
0.0
 30
0.0
210
0.0
220
0.0
230
1.0
  2
SOLID
 70
               1
 71
               1
 91
        1
 92
        1
 93
        1
 72
               2
 10
-685.15527275987313
 20
1180.1552727598705
 40
1.9998779296875
 50
0.0
 51
360.0
 73
               0
 97
        1
330
115
 75
               0
 76
               1
 98
        1
 10
0.0
 20
0.0
  0
MTEXT
  5
117
100
AcDbEntity
  8
0
390
0
 62
               0
100
AcDbMText
 10
-483.96777444204565
 20
1214.0328899473707
 30
0.0
 40
24.432617187500004
 41
0.0
 71
               1
 72
               1
  1
450
  7
ＭＳ ゴシック
 73
               1
 44
0.7828267384257843
  0
POINT
  5
118
100
AcDbEntity
  8
Defpoints
370
               0
390
0
 62
               0
100
AcDbPoint
 10
-685.15527275987313
 20
1080.1552727598705
 30
0.0
  0
POINT
  5
119
100
AcDbEntity
  8
Defpoints
370
               0
390
0
 62
               0
100
AcDbPoint
 10
-235.15527275986722
 20
1080.1552727598705
 30
0.0
  0
POINT
  5
11A
100
AcDbEntity
  8
Defpoints
370
               0
390
0
 62
               0
100
AcDbPoint
 10
-235.15527275986722
 20
1180.1552727598705
 30
0.0
  0
ENDBLK
  5
11B
100
AcDbEntity
  8
notes
390
0
100
AcDbBlockEnd
  0
BLOCK
  5
11C
100
AcDbEntity
  8
notes
390
0
100
AcDbBlockBegin
  2
*D17
 70
               1
 10
0.0
 20
0.0
 30
0.0
  3
*D17
  1

  0
LINE
  5
11D
100
AcDbEntity
  8
0
370
              -2
390
0
  6
Continuous
 62
               0
100
AcDbLine
 10
-410.15527275987313
 20
980.18958416978307
 30
0.0
 11
-335.15527275987313
 21
980.18958416978307
 31
0.0
  0
LINE
  5
11E
100
AcDbEntity
  8
0
370
              -2
390
0
  6
Continuous
 62
               0
100
AcDbLine
 10
-410.15527275987313
 20
530.18958416978307
 30
0.0
 11
-335.15527275987313
 21
530.18958416978307
 31
0.0
  0
LINE
  5
11F
100
AcDbEntity
  8
0
370
              -2
390
0
  6
Continuous
 62
               0
100
AcDbLine
 10
-335.15527275987313
 20
980.18958416978307
 30
0.0
 11
-335.15527275987313
 21
530.18958416978307
 31
0.0
  0
CIRCLE
  5
120
102
{ACAD_REACTORS
330
121
102
}
100
AcDbEntity
  8
0
370
              -2
390
0
  6
Continuous
 62
               0
100
AcDbCircle
 10
-335.15527275987313
 20
980.18958416978307
 30
0.0
 40
1.9998779296875
  0
HATCH
  5
121
100
AcDbEntity
  8
0
370
              -2
390
0
  6
Continuous
 62
               0
100
AcDbHatch
 10
0.0
 20
0.0
 30
0.0
210
0.0
220
0.0
230
1.0
  2
SOLID
 70
               1
 71
               1
 91
        1
 92
        1
 93
        1
 72
               2
 10
-335.15527275987313
 20
980.18958416978307
 40
1.9998779296875
 50
0.0
 51
360.0
 73
               0
 97
        1
330
120
 75
               0
 76
               1
 98
        1
 10
0.0
 20
0.0
  0
CIRCLE
  5
122
102
{ACAD_REACTORS
330
123
102
}
100
AcDbEntity
  8
0
370
              -2
390
0
  6
Continuous
 62
               0
100
AcDbCircle
 10
-335.15527275987313
 20
530.18958416978307
 30
0.0
 40
1.9998779296875
  0
HATCH
  5
123
100
AcDbEntity
  8
0
370
              -2
390
0
  6
Continuous
 62
               0
100
AcDbHatch
 10
0.0
 20
0.0
 30
0.0
210
0.0
220
0.0
230
1.0
  2
SOLID
 70
               1
 71
               1
 91
        1
 92
        1
 93
        1
 72
               2
 10
-335.15527275987313
 20
530.18958416978307
 40
1.9998779296875
 50
0.0
 51
360.0
 73
               0
 97
        1
330
122
 75
               0
 76
               1
 98
        1
 10
0.0
 20
0.0
  0
MTEXT
  5
124
100
AcDbEntity
  8
0
390
0
 62
               0
100
AcDbMText
 10
-369.03288994737306
 20
731.37708248760759
 30
0.0
 40
24.432617187500004
 41
0.0
 71
               1
 72
               1
  1
450
  7
ＭＳ ゴシック
 11
0.0
 21
1.0
 31
0.0
 73
               1
 44
0.7828267384257843
  0
POINT
  5
125
100
AcDbEntity
  8
Defpoints
370
               0
390
0
 62
               0
100
AcDbPoint
 10
-435.15527275987313
 20
530.18958416978307
 30
0.0
  0
POINT
  5
126
100
AcDbEntity
  8
Defpoints
370
               0
390
0
 62
               0
100
AcDbPoint
 10
-435.15527275987313
 20
980.18958416978307
 30
0.0
  0
POINT
  5
127
100
AcDbEntity
  8
Defpoints
370
               0
390
0
 62
               0
100
AcDbPoint
 10
-335.15527275987313
 20
980.18958416978307
 30
0.0
  0
ENDBLK
  5
128
100
AcDbEntity
  8
notes
390
0
100
AcDbBlockEnd
  0
BLOCK
  5
129
100
AcDbEntity
  8
notes
390
0
100
AcDbBlockBegin
  2
*D18
 70
               1
 10
0.0
 20
0.0
 30
0.0
  3
*D18
  1

  0
LINE
  5
12A
100
AcDbEntity
  8
0
370
              -2
390
0
  6
Continuous
 62
               0
100
AcDbLine
 10
-435.15527275987313
 20
1005.1895841697831
 30
0.0
 11
-435.15527275987313
 21
1030.1895841697831
 31
0.0
  0
LINE
  5
12B
100
AcDbEntity
  8
0
370
              -2
390
0
  6
Continuous
 62
               0
100
AcDbLine
 10
-685.15527275987313
 20
1005.1895841697831
 30
0.0
 11
-685.15527275987313
 21
1030.1895841697831
 31
0.0
  0
LINE
  5
12C
100
AcDbEntity
  8
0
370
              -2
390
0
  6
Continuous
 62
               0
100
AcDbLine
 10
-435.15527275987313
 20
1030.1895841697831
 30
0.0
 11
-685.15527275987313
 21
1030.1895841697831
 31
0.0
  0
CIRCLE
  5
12D
102
{ACAD_REACTORS
330
12E
102
}
100
AcDbEntity
  8
0
370
              -2
390
0
  6
Continuous
 62
               0
100
AcDbCircle
 10
-435.15527275987313
 20
1030.1895841697831
 30
0.0
 40
1.9998779296875
  0
HATCH
  5
12E
100
AcDbEntity
  8
0
370
              -2
390
0
  6
Continuous
 62
               0
100
AcDbHatch
 10
0.0
 20
0.0
 30
0.0
210
0.0
220
0.0
230
1.0
  2
SOLID
 70
               1
 71
               1
 91
        1
 92
        1
 93
        1
 72
               2
 10
-435.15527275987313
 20
1030.1895841697831
 40
1.9998779296875
 50
0.0
 51
360.0
 73
               0
 97
        1
330
12D
 75
               0
 76
               1
 98
        1
 10
0.0
 20
0.0
  0
CIRCLE
  5
12F
102
{ACAD_REACTORS
330
130
102
}
100
AcDbEntity
  8
0
370
              -2
390
0
  6
Continuous
 62
               0
100
AcDbCircle
 10
-685.15527275987313
 20
1030.1895841697831
 30
0.0
 40
1.9998779296875
  0
HATCH
  5
130
100
AcDbEntity
  8
0
370
              -2
390
0
  6
Continuous
 62
               0
100
AcDbHatch
 10
0.0
 20
0.0
 30
0.0
210
0.0
220
0.0
230
1.0
  2
SOLID
 70
               1
 71
               1
 91
        1
 92
        1
 93
        1
 72
               2
 10
-685.15527275987313
 20
1030.1895841697831
 40
1.9998779296875
 50
0.0
 51
360.0
 73
               0
 97
        1
330
12F
 75
               0
 76
               1
 98
        1
 10
0.0
 20
0.0
  0
MTEXT
  5
131
100
AcDbEntity
  8
0
390
0
 62
               0
100
AcDbMText
 10
-583.96777444204861
 20
1064.067201357283
 30
0.0
 40
24.432617187500004
 41
0.0
 71
               1
 72
               1
  1
250
  7
ＭＳ ゴシック
 73
               1
 44
0.7828267384257843
  0
POINT
  5
132
100
AcDbEntity
  8
Defpoints
370
               0
390
0
 62
               0
100
AcDbPoint
 10
-685.15527275987313
 20
980.18958416978307
 30
0.0
  0
POINT
  5
133
100
AcDbEntity
  8
Defpoints
370
               0
390
0
 62
               0
100
AcDbPoint
 10
-435.15527275987313
 20
980.18958416978307
 30
0.0
  0
POINT
  5
134
100
AcDbEntity
  8
Defpoints
370
               0
390
0
 62
               0
100
AcDbPoint
 10
-435.15527275987313
 20
1030.1895841697831
 30
0.0
  0
ENDBLK
  5
135
100
AcDbEntity
  8
notes
390
0
100
AcDbBlockEnd
  0
BLOCK
  5
136
100
AcDbEntity
  8
notes
390
0
100
AcDbBlockBegin
  2
*D19
 70
               1
 10
0.0
 20
0.0
 30
0.0
  3
*D19
  1

  0
LINE
  5
137
100
AcDbEntity
  8
0
370
              -2
390
0
  6
Continuous
 62
               0
100
AcDbLine
 10
414.09010961206224
 20
-828.65248224586389
 30
0.0
 11
414.09010961206224
 21
-908.6552538449107
 31
0.0
  0
LINE
  5
138
100
AcDbEntity
  8
0
370
              -2
390
0
  6
Continuous
 62
               0
100
AcDbLine
 10
454.09160778758508
 20
-684.6699890432667
 30
0.0
 11
454.09160778758508
 21
-908.6552538449107
 31
0.0
  0
LINE
  5
139
100
AcDbEntity
  8
0
370
              -2
390
0
  6
Continuous
 62
               0
100
AcDbLine
 10
414.09010961206224
 20
-908.6552538449107
 30
0.0
 11
454.09160778758508
 21
-908.6552538449107
 31
0.0
  0
CIRCLE
  5
13A
102
{ACAD_REACTORS
330
13B
102
}
100
AcDbEntity
  8
0
370
              -2
390
0
  6
Continuous
 62
               0
100
AcDbCircle
 10
414.09010961206224
 20
-908.6552538449107
 30
0.0
 40
1.9998779296875
  0
HATCH
  5
13B
100
AcDbEntity
  8
0
370
              -2
390
0
  6
Continuous
 62
               0
100
AcDbHatch
 10
0.0
 20
0.0
 30
0.0
210
0.0
220
0.0
230
1.0
  2
SOLID
 70
               1
 71
               1
 91
        1
 92
        1
 93
        1
 72
               2
 10
414.09010961206224
 20
-908.6552538449107
 40
1.9998779296875
 50
0.0
 51
360.0
 73
               0
 97
        1
330
13A
 75
               0
 76
               1
 98
        1
 10
0.0
 20
0.0
  0
CIRCLE
  5
13C
102
{ACAD_REACTORS
330
13D
102
}
100
AcDbEntity
  8
0
370
              -2
390
0
  6
Continuous
 62
               0
100
AcDbCircle
 10
454.09160778758508
 20
-908.6552538449107
 30
0.0
 40
1.9998779296875
  0
HATCH
  5
13D
100
AcDbEntity
  8
0
370
              -2
390
0
  6
Continuous
 62
               0
100
AcDbHatch
 10
0.0
 20
0.0
 30
0.0
210
0.0
220
0.0
230
1.0
  2
SOLID
 70
               1
 71
               1
 91
        1
 92
        1
 93
        1
 72
               2
 10
454.09160778758508
 20
-908.6552538449107
 40
1.9998779296875
 50
0.0
 51
360.0
 73
               0
 97
        1
330
13C
 75
               0
 76
               1
 98
        1
 10
0.0
 20
0.0
  0
MTEXT
  5
13E
100
AcDbEntity
  8
0
390
0
 62
               0
100
AcDbMText
 10
418.21585869982368
 20
-874.77763665741054
 30
0.0
 40
24.432617187500004
 41
0.0
 71
               1
 72
               1
  1
40
  7
ＭＳ ゴシック
 73
               1
 44
0.7828267384257843
  0
POINT
  5
13F
100
AcDbEntity
  8
Defpoints
370
               0
390
0
 62
               0
100
AcDbPoint
 10
454.09160778758508
 20
-659.6699890432667
 30
0.0
  0
POINT
  5
140
100
AcDbEntity
  8
Defpoints
370
               0
390
0
 62
               0
100
AcDbPoint
 10
414.09010961206224
 20
-803.65248224586389
 30
0.0
  0
POINT
  5
141
100
AcDbEntity
  8
Defpoints
370
               0
390
0
 62
               0
100
AcDbPoint
 10
414.09010961206224
 20
-908.6552538449107
 30
0.0
  0
ENDBLK
  5
142
100
AcDbEntity
  8
notes
390
0
100
AcDbBlockEnd
  0
BLOCK
  5
143
100
AcDbEntity
  8
notes
390
0
100
AcDbBlockBegin
  2
*D20
 70
               1
 10
0.0
 20
0.0
 30
0.0
  3
*D20
  1

  0
LINE
  5
144
100
AcDbEntity
  8
0
370
              -2
390
0
  6
Continuous
 62
               0
100
AcDbLine
 10
414.13842481894062
 20
535.83604324764815
 30
0.0
 11
414.13842481894062
 21
458.33604324764815
 31
0.0
  0
LINE
  5
145
100
AcDbEntity
  8
0
370
              -2
390
0
  6
Continuous
 62
               0
100
AcDbLine
 10
509.13842481894062
 20
535.83604324764815
 30
0.0
 11
509.13842481894062
 21
458.33604324764815
 31
0.0
  0
LINE
  5
146
100
AcDbEntity
  8
0
370
              -2
390
0
  6
Continuous
 62
               0
100
AcDbLine
 10
414.13842481894062
 20
458.33604324764815
 30
0.0
 11
509.13842481894062
 21
458.33604324764815
 31
0.0
  0
CIRCLE
  5
147
102
{ACAD_REACTORS
330
148
102
}
100
AcDbEntity
  8
0
370
              -2
390
0
  6
Continuous
 62
               0
100
AcDbCircle
 10
414.13842481894062
 20
458.33604324764815
 30
0.0
 40
1.9998779296875
  0
HATCH
  5
148
100
AcDbEntity
  8
0
370
              -2
390
0
  6
Continuous
 62
               0
100
AcDbHatch
 10
0.0
 20
0.0
 30
0.0
210
0.0
220
0.0
230
1.0
  2
SOLID
 70
               1
 71
               1
 91
        1
 92
        1
 93
        1
 72
               2
 10
414.13842481894062
 20
458.33604324764815
 40
1.9998779296875
 50
0.0
 51
360.0
 73
               0
 97
        1
330
147
 75
               0
 76
               1
 98
        1
 10
0.0
 20
0.0
  0
CIRCLE
  5
149
102
{ACAD_REACTORS
330
14A
102
}
100
AcDbEntity
  8
0
370
              -2
390
0
  6
Continuous
 62
               0
100
AcDbCircle
 10
509.13842481894062
 20
458.33604324764815
 30
0.0
 40
1.9998779296875
  0
HATCH
  5
14A
100
AcDbEntity
  8
0
370
              -2
390
0
  6
Continuous
 62
               0
100
AcDbHatch
 10
0.0
 20
0.0
 30
0.0
210
0.0
220
0.0
230
1.0
  2
SOLID
 70
               1
 71
               1
 91
        1
 92
        1
 93
        1
 72
               2
 10
509.13842481894062
 20
458.33604324764815
 40
1.9998779296875
 50
0.0
 51
360.0
 73
               0
 97
        1
330
149
 75
               0
 76
               1
 98
        1
 10
0.0
 20
0.0
  0
MTEXT
  5
14B
100
AcDbEntity
  8
0
390
0
 62
               0
100
AcDbMText
 10
445.76342481894062
 20
492.21366043514809
 30
0.0
 40
24.432617187500004
 41
0.0
 71
               1
 72
               1
  1
95
  7
ＭＳ ゴシック
 73
               1
 44
0.7828267384257843
  0
POINT
  5
14C
100
AcDbEntity
  8
Defpoints
370
               0
390
0
 62
               0
100
AcDbPoint
 10
509.13842481894062
 20
560.83604324764815
 30
0.0
  0
POINT
  5
14D
100
AcDbEntity
  8
Defpoints
370
               0
390
0
 62
               0
100
AcDbPoint
 10
414.13842481894062
 20
560.83604324764815
 30
0.0
  0
POINT
  5
14E
100
AcDbEntity
  8
Defpoints
370
               0
390
0
 62
               0
100
AcDbPoint
 10
414.13842481894062
 20
458.33604324764815
 30
0.0
  0
ENDBLK
  5
14F
100
AcDbEntity
  8
notes
390
0
100
AcDbBlockEnd
  0
BLOCK
  5
150
100
AcDbEntity
  8
notes
390
0
100
AcDbBlockBegin
  2
*D21
 70
               1
 10
0.0
 20
0.0
 30
0.0
  3
*D21
  1

  0
LINE
  5
151
100
AcDbEntity
  8
0
370
              -2
390
0
  6
Continuous
 62
               0
100
AcDbLine
 10
509.13842481894062
 20
535.83604324764815
 30
0.0
 11
509.13842481894062
 21
458.33604324764815
 31
0.0
  0
LINE
  5
152
100
AcDbEntity
  8
0
370
              -2
390
0
  6
Continuous
 62
               0
100
AcDbLine
 10
604.13842481894073
 20
623.18293695167927
 30
0.0
 11
604.13842481894073
 21
458.33604324764815
 31
0.0
  0
LINE
  5
153
100
AcDbEntity
  8
0
370
              -2
390
0
  6
Continuous
 62
               0
100
AcDbLine
 10
509.13842481894062
 20
458.33604324764815
 30
0.0
 11
604.13842481894073
 21
458.33604324764815
 31
0.0
  0
CIRCLE
  5
154
102
{ACAD_REACTORS
330
155
102
}
100
AcDbEntity
  8
0
370
              -2
390
0
  6
Continuous
 62
               0
100
AcDbCircle
 10
509.13842481894062
 20
458.33604324764815
 30
0.0
 40
1.9998779296875
  0
HATCH
  5
155
100
AcDbEntity
  8
0
370
              -2
390
0
  6
Continuous
 62
               0
100
AcDbHatch
 10
0.0
 20
0.0
 30
0.0
210
0.0
220
0.0
230
1.0
  2
SOLID
 70
               1
 71
               1
 91
        1
 92
        1
 93
        1
 72
               2
 10
509.13842481894062
 20
458.33604324764815
 40
1.9998779296875
 50
0.0
 51
360.0
 73
               0
 97
        1
330
154
 75
               0
 76
               1
 98
        1
 10
0.0
 20
0.0
  0
CIRCLE
  5
156
102
{ACAD_REACTORS
330
157
102
}
100
AcDbEntity
  8
0
370
              -2
390
0
  6
Continuous
 62
               0
100
AcDbCircle
 10
604.13842481894073
 20
458.33604324764815
 30
0.0
 40
1.9998779296875
  0
HATCH
  5
157
100
AcDbEntity
  8
0
370
              -2
390
0
  6
Continuous
 62
               0
100
AcDbHatch
 10
0.0
 20
0.0
 30
0.0
210
0.0
220
0.0
230
1.0
  2
SOLID
 70
               1
 71
               1
 91
        1
 92
        1
 93
        1
 72
               2
 10
604.13842481894073
 20
458.33604324764815
 40
1.9998779296875
 50
0.0
 51
360.0
 73
               0
 97
        1
330
156
 75
               0
 76
               1
 98
        1
 10
0.0
 20
0.0
  0
MTEXT
  5
158
100
AcDbEntity
  8
0
390
0
 62
               0
100
AcDbMText
 10
540.76342481894062
 20
492.21366043514809
 30
0.0
 40
24.432617187500004
 41
0.0
 71
               1
 72
               1
  1
95
  7
ＭＳ ゴシック
 73
               1
 44
0.7828267384257843
  0
POINT
  5
159
100
AcDbEntity
  8
Defpoints
370
               0
390
0
 62
               0
100
AcDbPoint
 10
604.13842481894073
 20
648.18293695167927
 30
0.0
  0
POINT
  5
15A
100
AcDbEntity
  8
Defpoints
370
               0
390
0
 62
               0
100
AcDbPoint
 10
509.13842481894062
 20
560.83604324764815
 30
0.0
  0
POINT
  5
15B
100
AcDbEntity
  8
Defpoints
370
               0
390
0
 62
               0
100
AcDbPoint
 10
509.13842481894062
 20
458.33604324764815
 30
0.0
  0
ENDBLK
  5
15C
100
AcDbEntity
  8
notes
390
0
100
AcDbBlockEnd
  0
BLOCK
  5
15D
100
AcDbEntity
  8
notes
390
0
100
AcDbBlockBegin
  2
*D22
 70
               1
 10
0.0
 20
0.0
 30
0.0
  3
*D22
  1

  0
LINE
  5
15E
100
AcDbEntity
  8
0
370
              -2
390
0
  6
Continuous
 62
               0
100
AcDbLine
 10
392.13842481894062
 20
1058.3360432476477
 30
0.0
 11
314.13842481894062
 21
1058.3360432476477
 31
0.0
  0
LINE
  5
15F
100
AcDbEntity
  8
0
370
              -2
390
0
  6
Continuous
 62
               0
100
AcDbLine
 10
389.18942722990278
 20
993.37695440148241
 30
0.0
 11
314.13842481894062
 21
993.37695440148241
 31
0.0
  0
LINE
  5
160
100
AcDbEntity
  8
0
370
              -2
390
0
  6
Continuous
 62
               0
100
AcDbLine
 10
314.13842481894062
 20
1058.3360432476477
 30
0.0
 11
314.13842481894062
 21
993.37695440148241
 31
0.0
  0
CIRCLE
  5
161
102
{ACAD_REACTORS
330
162
102
}
100
AcDbEntity
  8
0
370
              -2
390
0
  6
Continuous
 62
               0
100
AcDbCircle
 10
314.13842481894062
 20
1058.3360432476477
 30
0.0
 40
1.9998779296875
  0
HATCH
  5
162
100
AcDbEntity
  8
0
370
              -2
390
0
  6
Continuous
 62
               0
100
AcDbHatch
 10
0.0
 20
0.0
 30
0.0
210
0.0
220
0.0
230
1.0
  2
SOLID
 70
               1
 71
               1
 91
        1
 92
        1
 93
        1
 72
               2
 10
314.13842481894062
 20
1058.3360432476477
 40
1.9998779296875
 50
0.0
 51
360.0
 73
               0
 97
        1
330
161
 75
               0
 76
               1
 98
        1
 10
0.0
 20
0.0
  0
CIRCLE
  5
163
102
{ACAD_REACTORS
330
164
102
}
100
AcDbEntity
  8
0
370
              -2
390
0
  6
Continuous
 62
               0
100
AcDbCircle
 10
314.13842481894062
 20
993.37695440148241
 30
0.0
 40
1.9998779296875
  0
HATCH
  5
164
100
AcDbEntity
  8
0
370
              -2
390
0
  6
Continuous
 62
               0
100
AcDbHatch
 10
0.0
 20
0.0
 30
0.0
210
0.0
220
0.0
230
1.0
  2
SOLID
 70
               1
 71
               1
 91
        1
 92
        1
 93
        1
 72
               2
 10
314.13842481894062
 20
993.37695440148241
 40
1.9998779296875
 50
0.0
 51
360.0
 73
               0
 97
        1
330
163
 75
               0
 76
               1
 98
        1
 10
0.0
 20
0.0
  0
MTEXT
  5
165
100
AcDbEntity
  8
0
390
0
 62
               0
100
AcDbMText
 10
280.26080763144057
 20
1009.9814988245651
 30
0.0
 40
24.432617187500004
 41
0.0
 71
               1
 72
               1
  1
65
  7
ＭＳ ゴシック
 11
0.0
 21
1.0
 31
0.0
 73
               1
 44
0.7828267384257843
  0
POINT
  5
166
100
AcDbEntity
  8
Defpoints
370
               0
390
0
 62
               0
100
AcDbPoint
 10
414.18942722990278
 20
993.37695440148241
 30
0.0
  0
POINT
  5
167
100
AcDbEntity
  8
Defpoints
370
               0
390
0
 62
               0
100
AcDbPoint
 10
417.13842481894062
 20
1058.3360432476477
 30
0.0
  0
POINT
  5
168
100
AcDbEntity
  8
Defpoints
370
               0
390
0
 62
               0
100
AcDbPoint
 10
314.13842481894062
 20
1058.3360432476477
 30
0.0
  0
ENDBLK
  5
169
100
AcDbEntity
  8
notes
390
0
100
AcDbBlockEnd
  0
BLOCK
  5
16A
100
AcDbEntity
  8
notes
390
0
100
AcDbBlockBegin
  2
*D23
 70
               1
 10
0.0
 20
0.0
 30
0.0
  3
*D23
  1

  0
LINE
  5
16B
100
AcDbEntity
  8
0
370
              -2
390
0
  6
Continuous
 62
               0
100
AcDbLine
 10
625.13842481894073
 20
1058.3360432476477
 30
0.0
 11
704.13842481599215
 21
1058.3360432476477
 31
0.0
  0
LINE
  5
16C
100
AcDbEntity
  8
0
370
              -2
390
0
  6
Continuous
 62
               0
100
AcDbLine
 10
629.05414249220951
 20
858.33604324764769
 30
0.0
 11
704.13842481599215
 21
858.33604324764769
 31
0.0
  0
LINE
  5
16D
100
AcDbEntity
  8
0
370
              -2
390
0
  6
Continuous
 62
               0
100
AcDbLine
 10
704.13842481599215
 20
1058.3360432476477
 30
0.0
 11
704.13842481599215
 21
858.33604324764769
 31
0.0
  0
CIRCLE
  5
16E
102
{ACAD_REACTORS
330
16F
102
}
100
AcDbEntity
  8
0
370
              -2
390
0
  6
Continuous
 62
               0
100
AcDbCircle
 10
704.13842481599215
 20
1058.3360432476477
 30
0.0
 40
1.9998779296875
  0
HATCH
  5
16F
100
AcDbEntity
  8
0
370
              -2
390
0
  6
Continuous
 62
               0
100
AcDbHatch
 10
0.0
 20
0.0
 30
0.0
210
0.0
220
0.0
230
1.0
  2
SOLID
 70
               1
 71
               1
 91
        1
 92
        1
 93
        1
 72
               2
 10
704.13842481599215
 20
1058.3360432476477
 40
1.9998779296875
 50
0.0
 51
360.0
 73
               0
 97
        1
330
16E
 75
               0
 76
               1
 98
        1
 10
0.0
 20
0.0
  0
CIRCLE
  5
170
102
{ACAD_REACTORS
330
171
102
}
100
AcDbEntity
  8
0
370
              -2
390
0
  6
Continuous
 62
               0
100
AcDbCircle
 10
704.13842481599215
 20
858.33604324764769
 30
0.0
 40
1.9998779296875
  0
HATCH
  5
171
100
AcDbEntity
  8
0
370
              -2
390
0
  6
Continuous
 62
               0
100
AcDbHatch
 10
0.0
 20
0.0
 30
0.0
210
0.0
220
0.0
230
1.0
  2
SOLID
 70
               1
 71
               1
 91
        1
 92
        1
 93
        1
 72
               2
 10
704.13842481599215
 20
858.33604324764769
 40
1.9998779296875
 50
0.0
 51
360.0
 73
               0
 97
        1
330
170
 75
               0
 76
               1
 98
        1
 10
0.0
 20
0.0
  0
MTEXT
  5
172
100
AcDbEntity
  8
0
390
0
 62
               0
100
AcDbMText
 10
670.2608076284921
 20
934.52354156547221
 30
0.0
 40
24.432617187500004
 41
0.0
 71
               1
 72
               1
  1
200
  7
ＭＳ ゴシック
 11
0.0
 21
1.0
 31
0.0
 73
               1
 44
0.7828267384257843
  0
POINT
  5
173
100
AcDbEntity
  8
Defpoints
370
               0
390
0
 62
               0
100
AcDbPoint
 10
604.05414249220951
 20
858.33604324764769
 30
0.0
  0
POINT
  5
174
100
AcDbEntity
  8
Defpoints
370
               0
390
0
 62
               0
100
AcDbPoint
 10
600.13842481894073
 20
1058.3360432476477
 30
0.0
  0
POINT
  5
175
100
AcDbEntity
  8
Defpoints
370
               0
390
0
 62
               0
100
AcDbPoint
 10
704.13842481599215
 20
1058.3360432476477
 30
0.0
  0
ENDBLK
  5
176
100
AcDbEntity
  8
notes
390
0
100
AcDbBlockEnd
  0
BLOCK
  5
177
100
AcDbEntity
  8
notes
390
0
100
AcDbBlockBegin
  2
*D24
 70
               1
 10
0.0
 20
0.0
 30
0.0
  3
*D24
  1

  0
LINE
  5
178
100
AcDbEntity
  8
0
370
              -2
390
0
  6
Continuous
 62
               0
100
AcDbLine
 10
414.20671983807551
 20
821.76933833574344
 30
0.0
 11
414.20671983807551
 21
840.85986390364815
 31
0.0
  0
LINE
  5
179
100
AcDbEntity
  8
0
370
              -2
390
0
  6
Continuous
 62
               0
100
AcDbLine
 10
554.20671983807563
 20
821.73176472114051
 30
0.0
 11
554.20671983807563
 21
840.85986390364815
 31
0.0
  0
LINE
  5
17A
100
AcDbEntity
  8
0
370
              -2
390
0
  6
Continuous
 62
               0
100
AcDbLine
 10
414.20671983807551
 20
840.85986390364815
 30
0.0
 11
261.87367569901926
 21
840.85986390364815
 31
0.0
  0
LINE
  5
17B
100
AcDbEntity
  8
0
370
              -2
390
0
  6
Continuous
 62
               0
100
AcDbLine
 10
414.20671983807551
 20
840.85986390364815
 30
0.0
 11
554.20671983807563
 21
840.85986390364815
 31
0.0
  0
CIRCLE
  5
17C
102
{ACAD_REACTORS
330
17D
102
}
100
AcDbEntity
  8
0
370
              -2
390
0
  6
Continuous
 62
               0
100
AcDbCircle
 10
414.20671983807551
 20
840.85986390364815
 30
0.0
 40
1.9998779296875
  0
HATCH
  5
17D
100
AcDbEntity
  8
0
370
              -2
390
0
  6
Continuous
 62
               0
100
AcDbHatch
 10
0.0
 20
0.0
 30
0.0
210
0.0
220
0.0
230
1.0
  2
SOLID
 70
               1
 71
               1
 91
        1
 92
        1
 93
        1
 72
               2
 10
414.20671983807551
 20
840.85986390364815
 40
1.9998779296875
 50
0.0
 51
360.0
 73
               0
 97
        1
330
17C
 75
               0
 76
               1
 98
        1
 10
0.0
 20
0.0
  0
CIRCLE
  5
17E
102
{ACAD_REACTORS
330
17F
102
}
100
AcDbEntity
  8
0
370
              -2
390
0
  6
Continuous
 62
               0
100
AcDbCircle
 10
554.20671983807563
 20
840.85986390364815
 30
0.0
 40
1.9998779296875
  0
HATCH
  5
17F
100
AcDbEntity
  8
0
370
              -2
390
0
  6
Continuous
 62
               0
100
AcDbHatch
 10
0.0
 20
0.0
 30
0.0
210
0.0
220
0.0
230
1.0
  2
SOLID
 70
               1
 71
               1
 91
        1
 92
        1
 93
        1
 72
               2
 10
554.20671983807563
 20
840.85986390364815
 40
1.9998779296875
 50
0.0
 51
360.0
 73
               0
 97
        1
330
17E
 75
               0
 76
               1
 98
        1
 10
0.0
 20
0.0
  0
MTEXT
  5
180
100
AcDbEntity
  8
0
390
0
 62
               0
100
AcDbMText
 10
261.87367569901926
 20
874.73748109114808
 30
0.0
 40
24.432617187500004
 41
0.0
 71
               1
 72
               1
  1
140(深さ)
  7
ＭＳ ゴシック
 73
               1
 44
0.7828267384257843
  0
POINT
  5
181
100
AcDbEntity
  8
Defpoints
370
               0
390
0
 62
               0
100
AcDbPoint
 10
554.20671983807563
 20
846.73176472114051
 30
0.0
  0
POINT
  5
182
100
AcDbEntity
  8
Defpoints
370
               0
390
0
 62
               0
100
AcDbPoint
 10
414.20671983807551
 20
846.76933833574344
 30
0.0
  0
POINT
  5
183
100
AcDbEntity
  8
Defpoints
370
               0
390
0
 62
               0
100
AcDbPoint
 10
414.20671983807551
 20
840.85986390364815
 30
0.0
  0
ENDBLK
  5
184
100
AcDbEntity
  8
notes
390
0
100
AcDbBlockEnd
  0
BLOCK
  5
185
100
AcDbEntity
  8
notes
390
0
100
AcDbBlockBegin
  2
*D25
 70
               1
 10
0.0
 20
0.0
 30
0.0
  3
*D25
  1

  0
LINE
  5
186
100
AcDbEntity
  8
0
370
              -2
390
0
  6
Continuous
 62
               0
100
AcDbLine
 10
625.13842481894028
 20
1058.3360432476479
 30
0.0
 11
754.13842481599215
 21
1058.3360432476479
 31
0.0
  0
LINE
  5
187
100
AcDbEntity
  8
0
370
              -2
390
0
  6
Continuous
 62
               0
100
AcDbLine
 10
625.13842481894028
 20
643.33604324764792
 30
0.0
 11
754.13842481599215
 21
643.33604324764792
 31
0.0
  0
LINE
  5
188
100
AcDbEntity
  8
0
370
              -2
390
0
  6
Continuous
 62
               0
100
AcDbLine
 10
754.13842481599215
 20
1058.3360432476479
 30
0.0
 11
754.13842481599215
 21
643.33604324764792
 31
0.0
  0
CIRCLE
  5
189
102
{ACAD_REACTORS
330
18A
102
}
100
AcDbEntity
  8
0
370
              -2
390
0
  6
Continuous
 62
               0
100
AcDbCircle
 10
754.13842481599215
 20
1058.3360432476479
 30
0.0
 40
1.9998779296875
  0
HATCH
  5
18A
100
AcDbEntity
  8
0
370
              -2
390
0
  6
Continuous
 62
               0
100
AcDbHatch
 10
0.0
 20
0.0
 30
0.0
210
0.0
220
0.0
230
1.0
  2
SOLID
 70
               1
 71
               1
 91
        1
 92
        1
 93
        1
 72
               2
 10
754.13842481599215
 20
1058.3360432476479
 40
1.9998779296875
 50
0.0
 51
360.0
 73
               0
 97
        1
330
189
 75
               0
 76
               1
 98
        1
 10
0.0
 20
0.0
  0
CIRCLE
  5
18B
102
{ACAD_REACTORS
330
18C
102
}
100
AcDbEntity
  8
0
370
              -2
390
0
  6
Continuous
 62
               0
100
AcDbCircle
 10
754.13842481599215
 20
643.33604324764792
 30
0.0
 40
1.9998779296875
  0
HATCH
  5
18C
100
AcDbEntity
  8
0
370
              -2
390
0
  6
Continuous
 62
               0
100
AcDbHatch
 10
0.0
 20
0.0
 30
0.0
210
0.0
220
0.0
230
1.0
  2
SOLID
 70
               1
 71
               1
 91
        1
 92
        1
 93
        1
 72
               2
 10
754.13842481599215
 20
643.33604324764792
 40
1.9998779296875
 50
0.0
 51
360.0
 73
               0
 97
        1
330
18B
 75
               0
 76
               1
 98
        1
 10
0.0
 20
0.0
  0
MTEXT
  5
18D
100
AcDbEntity
  8
0
390
0
 62
               0
100
AcDbMText
 10
720.2608076284921
 20
827.02354156547244
 30
0.0
 40
24.432617187500004
 41
0.0
 71
               1
 72
               1
  1
415
  7
ＭＳ ゴシック
 11
0.0
 21
1.0
 31
0.0
 73
               1
 44
0.7828267384257843
  0
POINT
  5
18E
100
AcDbEntity
  8
Defpoints
370
               0
390
0
 62
               0
100
AcDbPoint
 10
600.13842481894028
 20
643.33604324764792
 30
0.0
  0
POINT
  5
18F
100
AcDbEntity
  8
Defpoints
370
               0
390
0
 62
               0
100
AcDbPoint
 10
600.13842481894028
 20
1058.3360432476479
 30
0.0
  0
POINT
  5
190
100
AcDbEntity
  8
Defpoints
370
               0
390
0
 62
               0
100
AcDbPoint
 10
754.13842481599215
 20
1058.3360432476479
 30
0.0
  0
ENDBLK
  5
191
100
AcDbEntity
  8
notes
390
0
100
AcDbBlockEnd
  0
BLOCK
  5
192
100
AcDbEntity
  8
ADF70-0010
390
0
100
AcDbBlockBegin
  2
グループ-1
 70
               0
 10
0.0
 20
0.0
 30
0.0
  3
グループ-1
  1

  0
ARC
  5
193
100
AcDbEntity
  8
0
370
              15
390
0
  6
STYLE_13
 62
               7
100
AcDbCircle
 10
-251.94006586255961
 20
-2364.8949671982155
 30
0.0
 40
6.1830023895187436
100
AcDbArc
 50
176.67788908530039
 51
223.05714510551857
  0
LINE
  5
194
100
AcDbEntity
  8
0
370
              15
390
0
  6
STYLE_13
 62
               7
100
AcDbLine
 10
-256.45781959051106
 20
-2369.116272660081
 30
0.0
 11
-244.77099301198592
 21
-2383.0440902054997
 31
0.0
  0
LINE
  5
195
100
AcDbEntity
  8
0
370
              15
390
0
  6
STYLE_13
 62
               7
100
AcDbLine
 10
-244.77099301198592
 20
-2383.0440902054997
 30
0.0
 11
-211.96673091902682
 21
-2383.0440902054997
 31
0.0
  0
ENDBLK
  5
196
100
AcDbEntity
  8
ADF70-0010
390
0
100
AcDbBlockEnd
  0
BLOCK
  5
197
100
AcDbEntity
  8
ADF70-0010
390
0
100
AcDbBlockBegin
  2
グループ-2
 70
               0
 10
0.0
 20
0.0
 30
0.0
  3
グループ-2
  1

  0
ARC
  5
198
100
AcDbEntity
  8
0
370
              15
390
0
  6
STYLE_13
 62
               7
100
AcDbCircle
 10
-251.94006586255961
 20
-2447.1932132127836
 30
0.0
 40
6.183002389518796
100
AcDbArc
 50
136.9428548944814
 51
183.32211091469961
  0
LINE
  5
199
100
AcDbEntity
  8
0
370
              15
390
0
  6
STYLE_13
 62
               7
100
AcDbLine
 10
-256.45781959051106
 20
-2442.971907750918
 30
0.0
 11
-244.77099301198592
 21
-2429.0440902054997
 31
0.0
  0
LINE
  5
19A
100
AcDbEntity
  8
0
370
              15
390
0
  6
STYLE_13
 62
               7
100
AcDbLine
 10
-244.77099301198592
 20
-2429.0440902054997
 30
0.0
 11
-211.96673091902682
 21
-2429.0440902054997
 31
0.0
  0
ENDBLK
  5
19B
100
AcDbEntity
  8
ADF70-0010
390
0
100
AcDbBlockEnd
  0
ENDSEC
  0
SECTION
  2
ENTITIES
  0
MTEXT
  5
19C
100
AcDbEntity
  8
template
390
0
 62
               7
100
AcDbMText
 10
-967.99999999975932
 20
-1147.4176292337004
 30
0.0
 40
16.288411458333332
 41
0.0
 71
               1
 72
               1
  1
品名
  7
ＭＳ ゴシック
 73
               1
 44
0.7828267384257843
  0
MTEXT
  5
19D
100
AcDbEntity
  8
template
390
0
 62
               7
100
AcDbMText
 10
-967.99999999975932
 20
-1232.4176292337004
 30
0.0
 40
16.288411458333332
 41
0.0
 71
               1
 72
               1
  1
仕様
  7
ＭＳ ゴシック
 73
               1
 44
0.7828267384257843
  0
MTEXT
  5
19E
100
AcDbEntity
  8
template
390
0
 62
               7
100
AcDbMText
 10
-914.99999999975932
 20
-1176.0000901712003
 30
0.0
 40
24.432617187500004
 41
0.0
 71
               1
 72
               1
  1
洗面器 -CATALANO,Zero-
  7
ＭＳ ゴシック
 73
               1
 44
0.7828267384257843
  0
LINE
  5
19F
100
AcDbEntity
  8
template
370
               5
390
0
  6
Continuous
 62
               7
100
AcDbLine
 10
974.99999999975876
 20
-1224.0027073587005
 30
0.0
 11
-975.00000000024136
 21
-1224.0027073587005
 31
0.0
  0
LWPOLYLINE
  5
1A0
100
AcDbEntity
  8
template
370
               5
390
0
  6
Continuous
 62
               7
100
AcDbPolyline
 90
        5
 70
             128
 10
975.00000000024124
 20
1405.9972926412995
 10
-974.99999999975932
 20
1405.9972926412995
 10
-974.99999999975932
 20
-1394.0027073587005
 10
975.00000000024124
 20
-1394.0027073587005
 10
975.00000000024124
 20
1405.9972926412995
  0
LINE
  5
1A1
100
AcDbEntity
  8
template
370
               5
390
0
  6
Continuous
 62
               7
100
AcDbLine
 10
974.99999999975876
 20
-1139.0027073587005
 30
0.0
 11
-975.00000000024136
 21
-1139.0027073587005
 31
0.0
  0
LINE
  5
1A2
100
AcDbEntity
  8
template
370
               5
390
0
  6
Continuous
 62
               7
100
AcDbLine
 10
975.00000000024124
 20
-1309.0027073587005
 30
0.0
 11
222.00000000024124
 21
-1309.0027073587005
 31
0.0
  0
MTEXT
  5
1A3
100
AcDbEntity
  8
template
390
0
 62
               7
100
AcDbMText
 10
-974.99999999955605
 20
-1405.8565294155576
 30
0.0
 40
21.717881944444446
 41
0.0
 71
               1
 72
               1
  1
100707SH
  7
ＭＳ ゴシック
 73
               1
 44
0.7828267384257843
  0
MTEXT
  5
1A4
100
AcDbEntity
  8
template
390
0
 62
               7
100
AcDbMText
 10
251.87140625250083
 20
-1338.9131018320079
 30
0.0
 40
24.432617187500004
 41
0.0
 71
               1
 72
               1
  1
大洋金物株式会社 ティーフォルム事業部
  7
ＭＳ ゴシック
 73
               1
 44
0.7828267384257843
  0
INSERT
  5
1A5
100
AcDbEntity
  8
template
390
0
 62
               7
100
AcDbBlockReference
  2
グループ
 10
815.46046975309048
 20
1973.7158637624768
 30
0.0
  0
MTEXT
  5
1A6
100
AcDbEntity
  8
template
390
0
 62
               7
100
AcDbMText
 10
784.00000000049999
 20
-1261.0000901712003
 30
0.0
 40
24.432617187500004
 41
0.0
 71
               1
 72
               1
  1
1:10
  7
ＭＳ ゴシック
 73
               1
 44
0.7828267384257843
  0
MTEXT
  5
1A7
100
AcDbEntity
  8
template
390
0
 62
               7
100
AcDbMText
 10
731.00000000049999
 20
-1232.4176292337004
 30
0.0
 40
16.288411458333332
 41
0.0
 71
               1
 72
               1
  1
縮尺
  7
ＭＳ ゴシック
 73
               1
 44
0.7828267384257843
  0
LINE
  5
1A8
100
AcDbEntity
  8
template
370
               5
390
0
  6
Continuous
 62
               7
100
AcDbLine
 10
724.00000000049999
 20
-1309.0027073587005
 30
0.0
 11
724.00000000049999
 21
-1224.0027073587005
 31
0.0
  0
MTEXT
  5
1A9
100
AcDbEntity
  8
template
390
0
 62
               7
100
AcDbMText
 10
480.00000000049999
 20
-1232.4176292337004
 30
0.0
 40
16.288411458333332
 41
0.0
 71
               1
 72
               1
  1
容量
  7
ＭＳ ゴシック
 73
               1
 44
0.7828267384257843
  0
MTEXT
  5
1AA
100
AcDbEntity
  8
template
390
0
 62
               7
100
AcDbMText
 10
533.00000000049999
 20
-1261.0000901712003
 30
0.0
 40
24.432617187500004
 41
0.0
 71
               1
 72
               1
  1
14L
  7
ＭＳ ゴシック
 73
               1
 44
0.7828267384257843
  0
LINE
  5
1AB
100
AcDbEntity
  8
template
370
               5
390
0
  6
Continuous
 62
               7
100
AcDbLine
 10
473.00000000049999
 20
-1309.0027073587005
 30
0.0
 11
473.00000000049999
 21
-1224.0027073587005
 31
0.0
  0
MTEXT
  5
1AC
100
AcDbEntity
  8
template
390
0
 62
               7
100
AcDbMText
 10
229.00000000049999
 20
-1147.4176292337004
 30
0.0
 40
16.288411458333332
 41
0.0
 71
               1
 72
               1
  1
品番
  7
ＭＳ ゴシック
 73
               1
 44
0.7828267384257843
  0
MTEXT
  5
1AD
100
AcDbEntity
  8
template
390
0
 62
               7
100
AcDbMText
 10
229.00000000049999
 20
-1232.4176292337004
 30
0.0
 40
16.288411458333332
 41
0.0
 71
               1
 72
               1
  1
重量
  7
ＭＳ ゴシック
 73
               1
 44
0.7828267384257843
  0
MTEXT
  5
1AE
100
AcDbEntity
  8
template
390
0
 62
               7
100
AcDbMText
 10
282.00000000049999
 20
-1176.0000901712003
 30
0.0
 40
24.432617187500004
 41
0.0
 71
               1
 72
               1
  1
ADF70-0010
  7
ＭＳ ゴシック
 73
               1
 44
0.7828267384257843
  0
MTEXT
  5
1AF
100
AcDbEntity
  8
template
390
0
 62
               7
100
AcDbMText
 10
282.00000000049999
 20
-1261.0000901712003
 30
0.0
 40
24.432617187500004
 41
0.0
 71
               1
 72
               1
  1
26kg
  7
ＭＳ ゴシック
 73
               1
 44
0.7828267384257843
  0
LINE
  5
1B0
100
AcDbEntity
  8
template
370
               5
390
0
  6
Continuous
 62
               7
100
AcDbLine
 10
222.00000000049999
 20
-1394.0027073587005
 30
0.0
 11
222.00000000049999
 21
-1139.0027073587005
 31
0.0
  0
MTEXT
  5
1B1
100
AcDbEntity
  8
template
390
0
 62
               7
100
AcDbMText
 10
-914.99999999975932
 20
-1261.0000901712003
 30
0.0
 40
24.432617187500004
 41
0.0
 71
               1
 72
               1
  1
壁掛け,カウンタ ー置き,半埋め込み/オーバーフロー付き/壁取付ボルト付属/\P陶器/ホワイト
  7
ＭＳ ゴシック
 73
               1
 44
1.3047112307096407
  0
MTEXT
  5
1B2
100
AcDbEntity
  8
notes
390
0
 62
               7
100
AcDbMText
 10
-0.1302825306624982
 20
-808.62211691189464
 30
0.0
 40
24.432617187500004
 41
840.58499111495939
 71
               1
 72
               1
  1
＝φ30もしくはφ35の水栓取付用穴あけ加工を承ります。\P  必要な場合、ご注文の際にご指示ください。
  7
ＭＳ ゴシック
 11
0.0
 21
1.0
 31
0.0
 73
               1
 44
1.0437689845677123
  0
MTEXT
  5
1B3
100
AcDbEntity
  8
notes
390
0
 62
               7
100
AcDbMText
 10
331.71938779952535
 20
-223.79875276938424
 30
0.0
 40
24.432617187500004
 41
0.0
 71
               1
 72
               1
  1
壁取付ボルト穴(2ヶ所)
  7
ＭＳ ゴシック
 11
0.0
 21
1.0
 31
0.0
 73
               1
 44
0.7828267384257843
  0
MTEXT
  5
1B4
100
AcDbEntity
  8
notes
390
0
 62
               7
100
AcDbMText
 10
-898.53943702377558
 20
618.59375083644977
 30
0.0
 40
24.432617187500004
 41
0.0
 71
               1
 72
               1
  1
カウンター切込寸法
  7
ＭＳ ゴシック
 11
0.0
 21
1.0
 31
0.0
 73
               1
 44
0.7828267384257843
  0
MTEXT
  5
1B5
100
AcDbEntity
  8
notes
390
0
 62
               7
100
AcDbMText
 10
-821.02658732780549
 20
411.9067223098566
 30
0.0
 40
24.432617187500004
 41
0.0
 71
               1
 72
               1
  1
半埋め込み
  7
ＭＳ ゴシック
 11
0.0
 21
1.0
 31
0.0
 73
               1
 44
0.7828267384257843
  0
MTEXT
  5
1B6
100
AcDbEntity
  8
notes
390
0
 62
               7
100
AcDbMText
 10
-756.02658732780549
 20
518.02955725749257
 30
0.0
 40
24.432617187500004
 41
0.0
 71
               1
 72
               1
  1
カウンター置き
  7
ＭＳ ゴシック
 11
0.0
 21
1.0
 31
0.0
 73
               1
 44
0.7828267384257843
  0
LINE
  5
1B7
100
AcDbEntity
  8
notes
370
               5
390
0
  6
Continuous
 62
               7
100
AcDbLine
 10
454.09160778758496
 20
-293.65525384491298
 30
0.0
 11
367.03162290533885
 21
-206.59526896266675
 31
0.0
  0
MTEXT
  5
1B8
100
AcDbEntity
  8
notes
390
0
 62
               7
100
AcDbMText
 10
802.86783877500977
 20
-895.90363444497439
 30
0.0
 40
24.432617187500004
 41
0.0
 71
               1
 72
               1
  1
半埋め込み
  7
ＭＳ ゴシック
 11
0.0
 21
1.0
 31
0.0
 73
               1
 44
0.7828267384257843
  0
MTEXT
  5
1B9
100
AcDbEntity
  8
notes
390
0
 62
               7
100
AcDbMText
 10
754.49454874172579
 20
-846.94511111533961
 30
0.0
 40
24.432617187500004
 41
0.0
 71
               1
 72
               1
  1
カウンター置き
  7
ＭＳ ゴシック
 11
0.0
 21
1.0
 31
0.0
 73
               1
 44
0.7828267384257843
  0
LINE
  5
1BA
100
AcDbEntity
  8
notes
370
               5
390
0
  6
Continuous
 62
               7
100
AcDbLine
 10
604.09160778758405
 20
-740.48161609263593
 30
0.0
 11
604.09160778758269
 21
-855.07901443757805
 31
0.0
  0
LINE
  5
1BB
100
AcDbEntity
  8
notes
370
               5
390
0
  6
Continuous
 62
               7
100
AcDbLine
 10
509.09160778758439
 20
-828.37901443757823
 30
0.0
 11
509.09160778758439
 21
-905.07901443757805
 31
0.0
  0
LINE
  5
1BC
100
AcDbEntity
  8
notes
370
               5
390
0
  6
Continuous
 62
               7
100
AcDbLine
 10
509.09160778758439
 20
-880.07901443757805
 30
0.0
 11
789.65914781690458
 21
-880.07901443757805
 31
0.0
  0
LINE
  5
1BD
100
AcDbEntity
  8
notes
370
               5
390
0
  6
Continuous
 62
               7
100
AcDbLine
 10
604.09160778758269
 20
-830.07901443757805
 30
0.0
 11
741.65914781690458
 21
-830.07901443757805
 31
0.0
  0
DIMENSION
  5
1BE
100
AcDbEntity
  8
notes
370
               5
390
0
  6
Continuous
 62
               7
100
AcDbDimension
  2
*D3
 10
703.94996238177828
 20
-143.61041583021893
 30
0.0
 11
703.94996238177828
 21
-433.61041583021893
 31
0.0
 71
               5
 72
               1
 41
1.0
 42
0.0
  3
tform線あり
100
AcDbAlignedDimension
 13
604.09160778758405
 23
-723.61041583021893
 33
0.0
 14
604.09160778758405
 24
-143.61041583021893
 34
0.0
 50
90.0
100
AcDbRotatedDimension
1001
ACAD
1000
DSTYLE
1002
{
1070
             279
1070
               2
1070
             340
1005
3D
1070
             147
1040
5.0
1002
}
  0
MTEXT
  5
1BF
100
AcDbEntity
  8
notes
390
0
 62
               7
100
AcDbMText
 10
144.89582616227017
 20
379.08289310594432
 30
0.0
 40
24.432617187500004
 41
0.0
 71
               1
 72
               1
  1
※カウンター置きの場合も壁固定が必要です。
  7
ＭＳ ゴシック
 11
0.0
 21
1.0
 31
0.0
 73
               1
 44
0.7828267384257843
  0
MTEXT
  5
1C0
100
AcDbEntity
  8
notes
390
0
 62
               7
100
AcDbMText
 10
-18.130282530662498
 20
379.08289310594432
 30
0.0
 40
24.432617187500004
 41
764.7717154610109
 71
               1
 72
               1
  1
※陶器製品には寸法公差があります。\P  洗面器の収め方をご確認の上、必ず現物を合わせて\P  カウンターに切込を行ってください。
  7
ＭＳ ゴシック
 11
0.0
 21
1.0
 31
0.0
 73
               1
 44
1.0437689845677123
  0
DIMENSION
  5
1C1
100
AcDbEntity
  8
notes
370
               5
390
0
  6
Continuous
 62
               7
100
AcDbDimension
  2
*D4
 10
-685.15527275987313
 20
41.344746155087932
 30
0.0
 11
-435.15527275987085
 21
41.344746155087932
 31
0.0
 71
               5
 72
               1
 41
1.0
 42
0.0
  3
tform線あり
100
AcDbAlignedDimension
 13
-185.15527275986869
 23
-58.655253844912068
 33
0.0
 14
-685.15527275987313
 24
-58.655253844912068
 34
0.0
100
AcDbRotatedDimension
1001
ACAD
1000
DSTYLE
1002
{
1070
             279
1070
               2
1070
             340
1005
3D
1070
             147
1040
5.0
1002
}
  0
DIMENSION
  5
1C2
100
AcDbEntity
  8
notes
370
               5
390
0
  6
Continuous
 62
               7
100
AcDbDimension
  2
*D5
 10
-835.15527275987313
 20
-808.6552538449107
 30
0.0
 11
-840.15527275987313
 21
-433.65525384491161
 31
0.0
 70
             128
 71
               5
 72
               1
 41
1.0
 42
0.0
  3
tform線あり
100
AcDbAlignedDimension
 13
-685.15527275987313
 23
-58.655253844912068
 33
0.0
 14
-685.15527275987313
 24
-808.6552538449107
 34
0.0
 50
90.0
100
AcDbRotatedDimension
1001
ACAD
1000
DSTYLE
1002
{
1070
             279
1070
               2
1070
             340
1005
3D
1070
             147
1040
5.0
1002
}
  0
DIMENSION
  5
1C3
100
AcDbEntity
  8
notes
370
               5
390
0
  6
Continuous
 62
               7
100
AcDbDimension
  2
*D6
 10
-785.15527275987313
 20
-633.65525384491116
 30
0.0
 11
-785.15527275987313
 21
-583.65525384491161
 31
0.0
 71
               5
 72
               1
 41
1.0
 42
0.0
  3
tform線あり
100
AcDbAlignedDimension
 13
-632.65527275987313
 23
-533.65525384491252
 33
0.0
 14
-632.65527275987313
 24
-633.65525384491116
 34
0.0
 50
90.0
100
AcDbRotatedDimension
1001
ACAD
1000
DSTYLE
1002
{
1070
             279
1070
               2
1070
             340
1005
3D
1070
             147
1040
5.0
1002
}
  0
DIMENSION
  5
1C4
100
AcDbEntity
  8
notes
370
               5
390
0
  6
Continuous
 62
               7
100
AcDbDimension
  2
*D7
 10
-785.15527275987313
 20
-533.65525384491252
 30
0.0
 11
-785.15527275987313
 21
-483.65525384491252
 31
0.0
 71
               5
 72
               1
 41
1.0
 42
0.0
  3
tform線あり
100
AcDbAlignedDimension
 13
-632.65527275987313
 23
-433.65525384491298
 33
0.0
 14
-632.65527275987313
 24
-533.65525384491252
 34
0.0
 50
90.0
100
AcDbRotatedDimension
1001
ACAD
1000
DSTYLE
1002
{
1070
             279
1070
               2
1070
             340
1005
3D
1070
             147
1040
5.0
1002
}
  0
DIMENSION
  5
1C5
100
AcDbEntity
  8
notes
370
               5
390
0
  6
Continuous
 62
               7
100
AcDbDimension
  2
*D8
 10
-785.15527275987313
 20
-433.65525384491298
 30
0.0
 11
-785.15527275987313
 21
-383.65525384491298
 31
0.0
 71
               5
 72
               1
 41
1.0
 42
0.0
  3
tform線あり
100
AcDbAlignedDimension
 13
-632.65527275987313
 23
-333.65525384491298
 33
0.0
 14
-632.65527275987313
 24
-433.65525384491298
 34
0.0
 50
90.0
100
AcDbRotatedDimension
1001
ACAD
1000
DSTYLE
1002
{
1070
             279
1070
               2
1070
             340
1005
3D
1070
             147
1040
5.0
1002
}
  0
DIMENSION
  5
1C6
100
AcDbEntity
  8
notes
370
               5
390
0
  6
Continuous
 62
               7
100
AcDbDimension
  2
*D9
 10
-785.15527275987313
 20
-333.65525384491298
 30
0.0
 11
-785.15527275987313
 21
-283.65525384491298
 31
0.0
 71
               5
 72
               1
 41
1.0
 42
0.0
  3
tform線あり
100
AcDbAlignedDimension
 13
-632.65527275987313
 23
-233.65525384491298
 33
0.0
 14
-632.65527275987313
 24
-333.65525384491298
 34
0.0
 50
90.0
100
AcDbRotatedDimension
1001
ACAD
1000
DSTYLE
1002
{
1070
             279
1070
               2
1070
             340
1005
3D
1070
             147
1040
5.0
1002
}
  0
DIMENSION
  5
1C7
100
AcDbEntity
  8
notes
370
               5
390
0
  6
Continuous
 62
               7
100
AcDbDimension
  2
*D10
 10
-685.15527275987313
 20
-908.6552538449107
 30
0.0
 11
-620.15527275987017
 21
-908.6552538449107
 31
0.0
 71
               5
 72
               1
 41
1.0
 42
0.0
  3
tform線あり
100
AcDbAlignedDimension
 13
-555.15527275986722
 23
-808.6552538449107
 33
0.0
 14
-685.15527275987313
 24
-808.6552538449107
 34
0.0
100
AcDbRotatedDimension
1001
ACAD
1000
DSTYLE
1002
{
1070
             279
1070
               2
1070
             340
1005
3D
1070
             147
1040
5.0
1002
}
  0
DIMENSION
  5
1C8
100
AcDbEntity
  8
notes
370
               5
390
0
  6
Continuous
 62
               7
100
AcDbDimension
  2
*D11
 10
-85.155272759867216
 20
-783.6552538449107
 30
0.0
 11
-85.155272759867216
 21
-433.65525384491161
 31
0.0
 71
               5
 72
               1
 41
1.0
 42
0.0
  3
tform線あり
100
AcDbAlignedDimension
 13
-185.15527275986869
 23
-83.655253844912977
 33
0.0
 14
-185.15527275986869
 24
-783.6552538449107
 34
0.0
 50
90.0
100
AcDbRotatedDimension
1001
ACAD
1000
DSTYLE
1002
{
1070
             279
1070
               2
1070
             340
1005
3D
1070
             147
1040
5.0
1002
}
  0
DIMENSION
  5
1C9
100
AcDbEntity
  8
notes
370
               5
390
0
  6
Continuous
 62
               7
100
AcDbDimension
  2
*D12
 10
-555.15527275986722
 20
-908.6552538449107
 30
0.0
 11
-382.65527275986722
 21
-908.6552538449107
 31
0.0
 71
               5
 72
               1
 41
1.0
 42
0.0
  3
tform線あり
100
AcDbAlignedDimension
 13
-210.15527275986722
 23
-808.6552538449107
 33
0.0
 14
-555.15527275986722
 24
-808.6552538449107
 34
0.0
100
AcDbRotatedDimension
1001
ACAD
1000
DSTYLE
1002
{
1070
             279
1070
               2
1070
             340
1005
3D
1070
             147
1040
5.0
1002
}
  0
DIMENSION
  5
1CA
100
AcDbEntity
  8
notes
370
               5
390
0
  6
Continuous
 62
               7
100
AcDbDimension
  2
*D13
 10
314.05914781690512
 20
-573.65525384491207
 30
0.0
 11
314.05914781690512
 21
-433.65525384491252
 31
0.0
 71
               5
 72
               1
 41
1.0
 42
0.0
  3
tform線あり
100
AcDbAlignedDimension
 13
434.05914781690512
 23
-293.65525384491298
 33
0.0
 14
434.05914781690512
 24
-573.65525384491207
 34
0.0
 50
90.0
100
AcDbRotatedDimension
1001
ACAD
1000
DSTYLE
1002
{
1070
             279
1070
               2
1070
             340
1005
3D
1070
             147
1040
5.0
1002
}
  0
DIMENSION
  5
1CB
100
AcDbEntity
  8
notes
370
               5
390
0
  6
Continuous
 62
               7
100
AcDbDimension
  2
*D14
 10
414.09160778758525
 20
41.344746155087932
 30
0.0
 11
509.09160778758468
 21
41.344746155087932
 31
0.0
 71
               5
 72
               1
 41
1.0
 42
0.0
  3
tform線あり
100
AcDbAlignedDimension
 13
604.09160778758405
 23
-143.65525384491298
 33
0.0
 14
414.09160778758525
 24
-58.655253844912068
 34
0.0
100
AcDbRotatedDimension
1001
ACAD
1000
DSTYLE
1002
{
1070
             279
1070
               2
1070
             340
1005
3D
1070
             147
1040
5.0
1002
}
  0
DIMENSION
  5
1CC
100
AcDbEntity
  8
notes
370
               5
390
0
  6
Continuous
 62
               7
100
AcDbDimension
  2
*D15
 10
-135.15527275986722
 20
430.15527275986892
 30
0.0
 11
-135.15527275986722
 21
755.15527275986983
 31
0.0
 71
               5
 72
               1
 41
1.0
 42
0.0
  3
tform線あり
100
AcDbAlignedDimension
 13
-235.15527275986722
 23
1080.1552727598705
 33
0.0
 14
-235.15527275986722
 24
430.15527275986892
 34
0.0
 50
90.0
100
AcDbRotatedDimension
1001
ACAD
1000
DSTYLE
1002
{
1070
             279
1070
               2
1070
             340
1005
3D
1070
             147
1040
5.0
1002
}
  0
DIMENSION
  5
1CD
100
AcDbEntity
  8
notes
370
               5
390
0
  6
Continuous
 62
               7
100
AcDbDimension
  2
*D16
 10
-235.15527275986722
 20
1180.1552727598705
 30
0.0
 11
-460.15527275987017
 21
1180.1552727598705
 31
0.0
 71
               5
 72
               1
 41
1.0
 42
0.0
  3
tform線あり
100
AcDbAlignedDimension
 13
-685.15527275987313
 23
1080.1552727598705
 33
0.0
 14
-235.15527275986722
 24
1080.1552727598705
 34
0.0
100
AcDbRotatedDimension
1001
ACAD
1000
DSTYLE
1002
{
1070
             279
1070
               2
1070
             340
1005
3D
1070
             147
1040
5.0
1002
}
  0
DIMENSION
  5
1CE
100
AcDbEntity
  8
notes
370
               5
390
0
  6
Continuous
 62
               7
100
AcDbDimension
  2
*D17
 10
-335.15527275987313
 20
980.18958416978307
 30
0.0
 11
-335.15527275987313
 21
755.18958416978307
 31
0.0
 71
               5
 72
               1
 41
1.0
 42
0.0
  3
tform線あり
100
AcDbAlignedDimension
 13
-435.15527275987313
 23
530.18958416978307
 33
0.0
 14
-435.15527275987313
 24
980.18958416978307
 34
0.0
 50
90.0
100
AcDbRotatedDimension
1001
ACAD
1000
DSTYLE
1002
{
1070
             279
1070
               2
1070
             340
1005
3D
1070
             147
1040
5.0
1002
}
  0
DIMENSION
  5
1CF
100
AcDbEntity
  8
notes
370
               5
390
0
  6
Continuous
 62
               7
100
AcDbDimension
  2
*D18
 10
-435.15527275987313
 20
1030.1895841697831
 30
0.0
 11
-560.15527275987313
 21
1030.1895841697831
 31
0.0
 71
               5
 72
               1
 41
1.0
 42
0.0
  3
tform線あり
100
AcDbAlignedDimension
 13
-685.15527275987313
 23
980.18958416978307
 33
0.0
 14
-435.15527275987313
 24
980.18958416978307
 34
0.0
100
AcDbRotatedDimension
1001
ACAD
1000
DSTYLE
1002
{
1070
             279
1070
               2
1070
             340
1005
3D
1070
             147
1040
5.0
1002
}
  0
DIMENSION
  5
1D0
100
AcDbEntity
  8
notes
370
               5
390
0
  6
Continuous
 62
               7
100
AcDbDimension
  2
*D19
 10
414.09010961206224
 20
-908.6552538449107
 30
0.0
 11
434.09085869982368
 21
-903.6552538449107
 31
0.0
 70
             128
 71
               5
 72
               1
 41
1.0
 42
0.0
  3
tform線あり
100
AcDbAlignedDimension
 13
454.09160778758508
 23
-659.6699890432667
 33
0.0
 14
414.09010961206224
 24
-803.65248224586389
 34
0.0
100
AcDbRotatedDimension
1001
ACAD
1000
DSTYLE
1002
{
1070
             279
1070
               2
1070
             340
1005
3D
1070
             147
1040
5.0
1002
}
  0
CIRCLE
  5
1D1
100
AcDbEntity
  8
notes
370
              15
390
0
  6
STYLE_13
 62
               7
100
AcDbCircle
 10
11.340116937389439
 20
-835.53712579693524
 30
0.0
 40
17.499999999999545
  0
LINE
  5
1D2
100
AcDbEntity
  8
notes
370
               5
390
0
  6
Continuous
 62
               7
100
AcDbLine
 10
-685.15527275987313
 20
430.15527275986915
 30
0.0
 11
-786.34085218309576
 21
430.15527275986915
 31
0.0
  0
LINE
  5
1D3
100
AcDbEntity
  8
notes
370
               5
390
0
  6
Continuous
 62
               7
100
AcDbLine
 10
-665.15527275987313
 20
530.18958416978307
 30
0.0
 11
-725.90626109569337
 21
530.18958416978307
 31
0.0
  0
DIMENSION
  5
1D4
100
AcDbEntity
  8
notes
370
               5
390
0
  6
Continuous
 62
               7
100
AcDbDimension
  2
*D20
 10
414.13842481894062
 20
458.33604324764815
 30
0.0
 11
461.63842481894062
 21
458.33604324764815
 31
0.0
 71
               5
 72
               1
 41
1.0
 42
0.0
  3
tfrom線あり
100
AcDbAlignedDimension
 13
509.13842481894062
 23
560.83604324764815
 33
0.0
 14
414.13842481894062
 24
560.83604324764815
 34
0.0
100
AcDbRotatedDimension
1001
ACAD
1000
DSTYLE
1002
{
1070
             279
1070
               2
1070
             340
1005
3D
1070
             147
1040
5.0
1002
}
  0
DIMENSION
  5
1D5
100
AcDbEntity
  8
notes
370
               5
390
0
  6
Continuous
 62
               7
100
AcDbDimension
  2
*D21
 10
509.13842481894062
 20
458.33604324764815
 30
0.0
 11
556.63842481894062
 21
458.33604324764815
 31
0.0
 71
               5
 72
               1
 41
1.0
 42
0.0
  3
tfrom線あり
100
AcDbAlignedDimension
 13
604.13842481894073
 23
648.18293695167927
 33
0.0
 14
509.13842481894062
 24
560.83604324764815
 34
0.0
100
AcDbRotatedDimension
1001
ACAD
1000
DSTYLE
1002
{
1070
             279
1070
               2
1070
             340
1005
3D
1070
             147
1040
5.0
1002
}
  0
DIMENSION
  5
1D6
100
AcDbEntity
  8
notes
370
               5
390
0
  6
Continuous
 62
               7
100
AcDbDimension
  2
*D22
 10
314.13842481894062
 20
1058.3360432476477
 30
0.0
 11
314.13842481894062
 21
1025.8564988245651
 31
0.0
 71
               5
 72
               1
 41
1.0
 42
0.0
  3
tfrom線あり
100
AcDbAlignedDimension
 13
414.18942722990278
 23
993.37695440148241
 33
0.0
 14
417.13842481894062
 24
1058.3360432476477
 34
0.0
 50
90.0
100
AcDbRotatedDimension
1001
ACAD
1000
DSTYLE
1002
{
1070
             279
1070
               2
1070
             340
1005
3D
1070
             147
1040
5.0
1002
}
  0
DIMENSION
  5
1D7
100
AcDbEntity
  8
notes
370
               5
390
0
  6
Continuous
 62
               7
100
AcDbDimension
  2
*D23
 10
704.13842481599215
 20
1058.3360432476477
 30
0.0
 11
704.13842481599215
 21
958.33604324764769
 31
0.0
 71
               5
 72
               1
 41
1.0
 42
0.0
  3
tfrom線あり
100
AcDbAlignedDimension
 13
604.05414249220951
 23
858.33604324764769
 33
0.0
 14
600.13842481894073
 24
1058.3360432476477
 34
0.0
 50
90.0
100
AcDbRotatedDimension
1001
ACAD
1000
DSTYLE
1002
{
1070
             279
1070
               2
1070
             340
1005
3D
1070
             147
1040
5.0
1002
}
  0
DIMENSION
  5
1D8
100
AcDbEntity
  8
notes
370
               5
390
0
  6
Continuous
 62
               7
100
AcDbDimension
  2
*D24
 10
414.20671983807551
 20
840.85986390364815
 30
0.0
 11
404.74867569901926
 21
845.85986390364815
 31
0.0
 70
             128
 71
               5
 72
               1
 41
1.0
 42
0.0
  3
tfrom線あり
100
AcDbAlignedDimension
 13
554.20671983807563
 23
846.73176472114051
 33
0.0
 14
414.20671983807551
 24
846.76933833574344
 34
0.0
100
AcDbRotatedDimension
1001
ACAD
1000
DSTYLE
1002
{
1070
             279
1070
               2
1070
             340
1005
3D
1070
               3
1000
<>(深さ)
1070
             174
1070
               0
1070
             147
1040
5.0
1002
}
  0
DIMENSION
  5
1D9
100
AcDbEntity
  8
notes
370
               5
390
0
  6
Continuous
 62
               7
100
AcDbDimension
  2
*D25
 10
754.13842481599215
 20
1058.3360432476479
 30
0.0
 11
754.13842481599215
 21
850.83604324764792
 31
0.0
 71
               5
 72
               1
 41
1.0
 42
0.0
  3
tfrom線あり
100
AcDbAlignedDimension
 13
600.13842481894028
 23
643.33604324764792
 33
0.0
 14
600.13842481894028
 24
1058.3360432476479
 34
0.0
 50
90.0
100
AcDbRotatedDimension
1001
ACAD
1000
DSTYLE
1002
{
1070
             279
1070
               2
1070
             340
1005
3D
1070
             147
1040
5.0
1002
}
  0
LINE
  5
1DA
100
AcDbEntity
  8
ADF70-0010
370
              15
390
0
  6
Continuous
 62
               7
100
AcDbLine
 10
-210.15527275986722
 20
-778.6552538449107
 30
0.0
 11
-210.15527275986722
 21
-88.655253844912977
 31
0.0
  0
LINE
  5
1DB
100
AcDbEntity
  8
ADF70-0010
370
              15
390
0
  6
Continuous
 62
               7
100
AcDbLine
 10
-550.15527275986722
 20
-783.6552538449107
 30
0.0
 11
-215.15527275986722
 21
-783.6552538449107
 31
0.0
  0
LINE
  5
1DC
100
AcDbEntity
  8
ADF70-0010
370
              15
390
0
  6
Continuous
 62
               7
100
AcDbLine
 10
-215.15527275986722
 20
-83.655253844912977
 30
0.0
 11
-550.15527275986722
 21
-83.655253844912977
 31
0.0
  0
LINE
  5
1DD
100
AcDbEntity
  8
ADF70-0010
370
              15
390
0
  6
Continuous
 62
               7
100
AcDbLine
 10
-297.02541363330681
 20
-701.78511297147111
 30
0.0
 11
-534.12567224558813
 21
-701.78511297147065
 31
0.0
  0
LINE
  5
1DE
100
AcDbEntity
  8
ADF70-0010
370
              15
390
0
  6
Continuous
 62
               7
100
AcDbLine
 10
-211.61973885393434
 20
-782.19078775084358
 30
0.0
 11
-292.02541363330681
 21
-701.78511297147111
 31
0.0
  0
LINE
  5
1DF
100
AcDbEntity
  8
ADF70-0010
370
              15
390
0
  6
Continuous
 62
               7
100
AcDbLine
 10
-211.63973547296143
 20
-85.099835784490779
 30
0.0
 11
-292.02541363330681
 21
-163.32591573034665
 31
0.0
  0
SPLINE
  5
1E0
100
AcDbEntity
  8
ADF70-0010
370
              15
390
0
  6
Continuous
 62
               7
100
AcDbSpline
210
0.0
220
0.0
230
1.0
 70
               8
 71
               2
 72
              30
 73
              27
 74
               0
 42
0.000001
 43
0.000001
 40
0.0
 40
0.0
 40
0.0
 40
1.0
 40
1.0
 40
2.0
 40
3.0
 40
4.0
 40
5.0
 40
6.0
 40
7.0
 40
8.0
 40
9.0
 40
10.0
 40
11.0
 40
12.0
 40
13.0
 40
14.0
 40
15.0
 40
16.0
 40
17.0
 40
18.0
 40
19.0
 40
20.0
 40
21.0
 40
22.0
 40
22.0
 40
23.0
 40
23.0
 40
23.0
 10
-548.31774819418558
 20
-419.68646384277713
 30
0.0
 10
-548.39350954032136
 20
-419.68646384277713
 30
0.0
 10
-548.46927088645714
 20
-419.68646384277713
 30
0.0
 10
-549.27401902911231
 20
-420.00486490260141
 30
0.0
 10
-550.1860918547294
 20
-422.29490287554086
 30
0.0
 10
-550.69171297596029
 20
-424.40179964257936
 30
0.0
 10
-551.05912995019514
 20
-426.90785271105119
 30
0.0
 10
-551.36876241198422
 20
-430.90301425017628
 30
0.0
 10
-551.27027460513716
 20
-434.78225097288464
 30
0.0
 10
-551.0591353968756
 20
-437.46501786005069
 30
0.0
 10
-550.69172749715369
 20
-439.971078583191
 30
0.0
 10
-550.18607353741288
 20
-442.07798588513492
 30
0.0
 10
-549.26280342911321
 20
-444.3626084065852
 30
0.0
 10
-548.31776327391469
 20
-444.75240153998743
 30
0.0
 10
-547.3621760065397
 20
-444.36850074450763
 30
0.0
 10
-546.44944659165446
 20
-442.07806373464359
 30
0.0
 10
-545.94378757515994
 20
-439.97117750256371
 30
0.0
 10
-545.57637366066899
 20
-437.46513208882357
 30
0.0
 10
-545.26673524533169
 20
-433.46997700070801
 30
0.0
 10
-545.36521881618216
 20
-429.59073822612368
 30
0.0
 10
-545.57635376913993
 20
-426.90796694012465
 30
0.0
 10
-545.94376472858892
 20
-424.40189856212533
 30
0.0
 10
-546.44938079303836
 20
-422.29498072680303
 30
0.0
 10
-547.36863548987492
 20
-420.00960754452694
 30
0.0
 10
-548.16619550072153
 20
-419.68647015710008
 30
0.0
 10
-548.24195684685344
 20
-419.68646700025079
 30
0.0
 10
-548.31771819298535
 20
-419.68646384340195
 30
0.0
  0
LINE
  5
1E1
100
AcDbEntity
  8
ADF70-0010
370
              15
390
0
  6
Continuous
 62
               7
100
AcDbLine
 10
-555.15527275986722
 20
-88.655253844912977
 30
0.0
 11
-555.15527275986722
 21
-778.6552538449107
 31
0.0
  0
CIRCLE
  5
1E2
100
AcDbEntity
  8
ADF70-0010
370
              15
390
0
  6
Continuous
 62
               7
100
AcDbCircle
 10
-485.15527275986722
 20
-432.18646384277713
 30
0.0
 40
37.5
  0
LINE
  5
1E3
100
AcDbEntity
  8
ADF70-0010
370
              15
390
0
  6
Continuous
 62
               7
100
AcDbLine
 10
-554.61784095009386
 20
-780.91035587089004
 30
0.0
 11
-539.12567224558813
 21
-701.78511297147065
 31
0.0
  0
LINE
  5
1E4
100
AcDbEntity
  8
ADF70-0010
370
              15
390
0
  6
Continuous
 62
               7
100
AcDbLine
 10
-554.60721151818086
 20
-86.379239501323582
 30
0.0
 11
-539.12567224558813
 21
-163.32591573034665
 31
0.0
  0
LINE
  5
1E5
100
AcDbEntity
  8
ADF70-0010
370
              15
390
0
  6
Continuous
 62
               7
100
AcDbLine
 10
-292.02541363330681
 20
-696.78511297147111
 30
0.0
 11
-292.02541363330681
 21
-168.32591573034665
 31
0.0
  0
LINE
  5
1E6
100
AcDbEntity
  8
ADF70-0010
370
              15
390
0
  6
Continuous
 62
               7
100
AcDbLine
 10
-534.12567224558813
 20
-163.32591573034665
 30
0.0
 11
-297.02541363330681
 21
-163.32591573034665
 31
0.0
  0
LINE
  5
1E7
100
AcDbEntity
  8
ADF70-0010
370
              15
390
0
  6
Continuous
 62
               7
100
AcDbLine
 10
-539.12567224558813
 20
-696.78511297147065
 30
0.0
 11
-539.12567224558813
 21
-168.32591573034665
 31
0.0
  0
ARC
  5
1E8
100
AcDbEntity
  8
ADF70-0010
370
              15
390
0
  6
Continuous
 62
               7
100
AcDbCircle
 10
-297.02541363330681
 20
-696.78511297147111
 30
0.0
 40
5.0
100
AcDbArc
 50
270.0
 51
0.0
  0
ARC
  5
1E9
100
AcDbEntity
  8
ADF70-0010
370
              15
390
0
  6
Continuous
 62
               7
100
AcDbCircle
 10
-534.12567224558813
 20
-696.78511297147111
 30
0.0
 40
5.0
100
AcDbArc
 50
180.0
 51
270.0
  0
ARC
  5
1EA
100
AcDbEntity
  8
ADF70-0010
370
              15
390
0
  6
Continuous
 62
               7
100
AcDbCircle
 10
-534.12567224558813
 20
-168.32591573034665
 30
0.0
 40
5.0
100
AcDbArc
 50
90.0
 51
180.0
  0
ARC
  5
1EB
100
AcDbEntity
  8
ADF70-0010
370
              15
390
0
  6
Continuous
 62
               7
100
AcDbCircle
 10
-297.02541363330658
 20
-168.32591573034665
 30
0.0
 40
5.0
100
AcDbArc
 50
0.0
 51
90.0
  0
ARC
  5
1EC
100
AcDbEntity
  8
ADF70-0010
370
              15
390
0
  6
Continuous
 62
               7
100
AcDbCircle
 10
-215.15527275986699
 20
-88.655253844912977
 30
0.0
 40
5.0
100
AcDbArc
 50
0.0
 51
90.0
  0
ARC
  5
1ED
100
AcDbEntity
  8
ADF70-0010
370
              15
390
0
  6
Continuous
 62
               7
100
AcDbCircle
 10
-550.15527275986722
 20
-88.655253844912977
 30
0.0
 40
5.0
100
AcDbArc
 50
90.0
 51
180.0
  0
ARC
  5
1EE
100
AcDbEntity
  8
ADF70-0010
370
              15
390
0
  6
Continuous
 62
               7
100
AcDbCircle
 10
-550.15527275986722
 20
-778.6552538449107
 30
0.0
 40
5.0
100
AcDbArc
 50
180.0
 51
270.0
  0
ARC
  5
1EF
100
AcDbEntity
  8
ADF70-0010
370
              15
390
0
  6
Continuous
 62
               7
100
AcDbCircle
 10
-215.15527275986722
 20
-778.6552538449107
 30
0.0
 40
5.0
100
AcDbArc
 50
270.0
 51
0.0
  0
LWPOLYLINE
  5
1F0
100
AcDbEntity
  8
ADF70-0010
370
              15
390
0
  6
Continuous
 62
               7
100
AcDbPolyline
 90
        5
 70
             129
 10
-462.15527275986722
 20
-432.18646384277713
 42
-0.414213562373095
 10
-485.15527275986722
 20
-455.18646384277667
 42
-0.414213562373098
 10
-508.15527275986722
 20
-432.18646384277713
 42
-0.414213562373095
 10
-485.15527275986722
 20
-409.18646384277667
 42
-0.4142135623730922
 10
-462.15527275986722
 20
-432.18646384277713
  0
LWPOLYLINE
  5
1F1
100
AcDbEntity
  8
ADF70-0010
370
              15
390
0
  6
Continuous
 62
               7
100
AcDbPolyline
 90
        6
 70
             129
 10
-185.15527275986869
 20
-63.655253844912295
 42
0.4142135623730684
 10
-190.15527275986869
 20
-58.655253844912068
 10
-685.15527275987313
 20
-58.655253844912068
 10
-685.15527275987313
 20
-808.6552538449107
 10
-190.15527275986869
 20
-808.6552538449107
 42
0.414213562373095
 10
-185.15527275986869
 20
-803.6552538449107
  0
POLYLINE
  5
1F2
100
AcDbEntity
  8
ADF70-0010
370
              15
390
0
  6
Continuous
 62
               7
100
AcDb2dPolyline
 66
               1
 10
0.0
 20
0.0
 30
0.0
 70
               1
 75
               5
  0
VERTEX
  5
1F3
100
AcDbEntity
  8
ADF70-0010
370
              15
390
0
  6
Continuous
 62
               7
100
AcDbVertex
100
AcDb2dVertex
 10
414.09160778758525
 20
-58.655253844912068
 30
0.0
  0
VERTEX
  5
1F4
100
AcDbEntity
  8
ADF70-0010
370
              15
390
0
  6
Continuous
 62
               7
100
AcDbVertex
100
AcDb2dVertex
 10
509.09160778758439
 20
-58.655253844912068
 30
0.0
  0
VERTEX
  5
1F5
100
AcDbEntity
  8
ADF70-0010
370
              15
390
0
  6
Continuous
 62
               7
100
AcDbVertex
100
AcDb2dVertex
 10
509.09160778758439
 20
-808.6552538449107
 30
0.0
  0
VERTEX
  5
1F6
100
AcDbEntity
  8
ADF70-0010
370
              15
390
0
  6
Continuous
 62
               7
100
AcDbVertex
100
AcDb2dVertex
 10
414.09160778758525
 20
-808.6552538449107
 30
0.0
  0
SEQEND
  5
1F7
100
AcDbEntity
  8
ADF70-0010
370
              15
390
0
  6
Continuous
 62
               7
  0
LINE
  5
1F8
100
AcDbEntity
  8
ADF70-0010
370
              15
390
0
  6
Continuous
 62
               7
100
AcDbLine
 10
604.09160778758405
 20
-146.64387031085357
 30
0.0
 11
604.09160778758405
 21
-720.4816160903631
 31
0.0
  0
INSERT
  5
1F9
100
AcDbEntity
  8
ADF70-0010
390
0
 62
               7
100
AcDbBlockReference
  2
グループ-1
 10
815.46046975309048
 20
1973.7158637624768
 30
0.0
  0
INSERT
  5
1FA
100
AcDbEntity
  8
ADF70-0010
390
0
 62
               7
100
AcDbBlockReference
  2
グループ-2
 10
815.46046975309048
 20
1973.7158637624768
 30
0.0
  0
ARC
  5
1FB
100
AcDbEntity
  8
ADF70-0010
370
              15
390
0
  6
STYLE_13
 62
               7
100
AcDbCircle
 10
420.14126020568096
 20
-782.49401847022705
 30
0.0
 40
5.9999999893505382
100
AcDbArc
 50
124.99999990543496
 51
179.99999994706039
  0
LINE
  5
1FC
100
AcDbEntity
  8
ADF70-0010
370
              15
390
0
  6
STYLE_13
 62
               7
100
AcDbLine
 10
533.64172858389452
 20
-695.69548754044058
 30
0.0
 11
509.09010961206138
 21
-712.88671619200045
 31
0.0
  0
LINE
  5
1FD
100
AcDbEntity
  8
ADF70-0010
370
              15
390
0
  6
STYLE_13
 62
               7
100
AcDbLine
 10
509.09010961206138
 20
-712.88671618573403
 30
0.0
 11
416.69980160179495
 21
-777.5791062075366
 31
0.0
  0
ARC
  5
1FE
100
AcDbEntity
  8
ADF70-0010
370
              15
390
0
  6
STYLE_13
 62
               7
100
AcDbCircle
 10
513.56655327840156
 20
-667.0251659255498
 30
0.0
 40
35.000000072107831
100
AcDbArc
 50
304.9999999837068
 51
355.49781053149712
  0
LINE
  5
1FF
100
AcDbEntity
  8
ADF70-0010
370
              15
390
0
  6
STYLE_13
 62
               7
100
AcDbLine
 10
557.34779186438141
 20
-473.83565005514879
 30
0.0
 11
548.45855506876808
 21
-669.77256762690354
 31
0.0
  0
ARC
  5
200
100
AcDbEntity
  8
ADF70-0010
370
              15
390
0
  6
Continuous
 62
               7
100
AcDbCircle
 10
601.09160778997898
 20
-720.4816160903631
 30
0.0
 40
2.9999999976053764
100
AcDbArc
 50
272.99999997270669
 51
359.99999995659221
  0
LINE
  5
201
100
AcDbEntity
  8
ADF70-0010
370
              15
390
0
  6
Continuous
 62
               7
100
AcDbLine
 10
528.00978971353811
 20
-727.29838241240918
 30
0.0
 11
601.24861565715514
 21
-723.47750469231028
 31
0.0
  0
ARC
  5
202
100
AcDbEntity
  8
ADF70-0010
370
              15
390
0
  6
Continuous
 62
               7
100
AcDbCircle
 10
529.05650883754561
 20
-747.27097309337591
 30
0.0
 40
19.999999985850053
100
AcDbArc
 50
92.999999999682061
 51
180.00000000052893
  0
LINE
  5
203
100
AcDbEntity
  8
ADF70-0010
370
              15
390
0
  6
STYLE_13
 62
               7
100
AcDbLine
 10
474.05914781690456
 20
-293.65525384491298
 30
0.0
 11
434.05914781690512
 21
-293.65525384491298
 31
0.0
  0
LINE
  5
204
100
AcDbEntity
  8
ADF70-0010
370
              15
390
0
  6
STYLE_13
 62
               7
100
AcDbLine
 10
474.05914781690456
 20
-573.65525384491207
 30
0.0
 11
434.05914781690512
 21
-573.65525384491207
 31
0.0
  0
LWPOLYLINE
  5
205
100
AcDbEntity
  8
ADF70-0010
370
               5
390
0
  6
STYLE_13
 62
               7
100
AcDbPolyline
 90
        5
 70
             129
 10
-462.15527275986722
 20
756.62406276200863
 42
-0.4142135623730922
 10
-485.15527275986722
 20
733.62406276200863
 42
-0.414213562373095
 10
-508.15527275986722
 20
756.62406276200863
 42
-0.414213562373098
 10
-485.15527275986722
 20
779.62406276200863
 42
-0.414213562373095
 10
-462.15527275986722
 20
756.62406276200863
  0
LWPOLYLINE
  5
206
100
AcDbEntity
  8
ADF70-0010
370
               5
390
0
  6
STYLE_13
 62
               7
100
AcDbPolyline
 90
        6
 70
             129
 10
-185.15527275986869
 20
1125.1552727598682
 42
0.414213562373095
 10
-190.15527275986869
 20
1130.1552727598682
 10
-685.15527275987313
 20
1130.1552727598682
 10
-685.15527275987313
 20
380.15527275986915
 10
-190.15527275986869
 20
380.15527275986915
 42
0.4142135623731084
 10
-185.15527275986869
 20
385.15527275986915
  0
CIRCLE
  5
207
100
AcDbEntity
  8
ADF70-0010
370
               5
390
0
  6
STYLE_13
 62
               7
100
AcDbCircle
 10
-620.1552727598729
 20
755.15527275987256
 30
0.0
 40
17.5
  0
CIRCLE
  5
208
100
AcDbEntity
  8
ADF70-0010
370
               5
390
0
  6
STYLE_13
 62
               7
100
AcDbCircle
 10
-620.1552727598729
 20
855.15527275987256
 30
0.0
 40
17.5
  0
CIRCLE
  5
209
100
AcDbEntity
  8
ADF70-0010
370
               5
390
0
  6
STYLE_13
 62
               7
100
AcDbCircle
 10
-620.15527275987313
 20
655.15527275987188
 30
0.0
 40
17.500000000000227
  0
CIRCLE
  5
20A
100
AcDbEntity
  8
ADF70-0010
370
               5
390
0
  6
STYLE_13
 62
               7
100
AcDbCircle
 10
-620.15527275987313
 20
555.1552727598696
 30
0.0
 40
17.500000000000682
  0
CIRCLE
  5
20B
100
AcDbEntity
  8
ADF70-0010
370
               5
390
0
  6
STYLE_13
 62
               7
100
AcDbCircle
 10
-620.1552727598729
 20
955.15527275987256
 30
0.0
 40
17.5
  0
LINE
  5
20C
100
AcDbEntity
  8
ADF70-0010
370
              15
390
0
  6
Continuous
 62
               7
100
AcDbLine
 10
-685.15527275987313
 20
430.15527275986915
 30
0.0
 11
-235.15527275986722
 21
430.15527275986892
 31
0.0
  0
LINE
  5
20D
100
AcDbEntity
  8
ADF70-0010
370
              15
390
0
  6
Continuous
 62
               7
100
AcDbLine
 10
-235.15527275986722
 20
430.15527275986892
 30
0.0
 11
-235.15527275986722
 21
1080.1552727598705
 31
0.0
  0
LINE
  5
20E
100
AcDbEntity
  8
ADF70-0010
370
              15
390
0
  6
Continuous
 62
               7
100
AcDbLine
 10
-235.15527275986722
 20
1080.1552727598705
 30
0.0
 11
-685.15527275987313
 21
1080.1552727598705
 31
0.0
  0
LINE
  5
20F
100
AcDbEntity
  8
ADF70-0010
370
              15
390
0
  6
Continuous
 62
               7
100
AcDbLine
 10
-685.15527275987313
 20
430.15527275986915
 30
0.0
 11
-685.15527275987313
 21
1080.1552727598705
 31
0.0
  0
ARC
  5
210
100
AcDbEntity
  8
ADF70-0010
370
              15
390
0
  6
Continuous
 62
               7
100
AcDbCircle
 10
601.09160778997898
 20
-146.64387031085357
 30
0.0
 40
2.9999999976050731
100
AcDbArc
 50
0.0000000434078032
 51
87.000000027292884
  0
LINE
  5
211
100
AcDbEntity
  8
ADF70-0010
370
              15
390
0
  6
Continuous
 62
               7
100
AcDbLine
 10
528.05044068940538
 20
-139.82710398880795
 30
0.0
 11
601.24861565715514
 21
-143.64798170890685
 31
0.0
  0
ARC
  5
212
100
AcDbEntity
  8
ADF70-0010
370
              15
390
0
  6
Continuous
 62
               7
100
AcDbCircle
 10
529.09715981341287
 20
-119.85451330784122
 30
0.0
 40
19.999999985849968
100
AcDbArc
 50
179.99999999947107
 51
267.00000000031793
  0
ARC
  5
213
100
AcDbEntity
  8
ADF70-0010
370
              15
390
0
  6
STYLE_13
 62
               7
100
AcDbCircle
 10
420.14126020568102
 20
-84.650197551141218
 30
0.0
 40
5.9999999893504992
100
AcDbArc
 50
180.00000005293964
 51
235.000000094565
  0
LINE
  5
214
100
AcDbEntity
  8
ADF70-0010
370
              15
390
0
  6
STYLE_13
 62
               7
100
AcDbLine
 10
533.64172858389452
 20
-171.44872848092768
 30
0.0
 11
509.09010961206138
 21
-154.25749982936782
 31
0.0
  0
LINE
  5
215
100
AcDbEntity
  8
ADF70-0010
370
              15
390
0
  6
STYLE_13
 62
               7
100
AcDbLine
 10
509.09010961206138
 20
-154.25749983563423
 30
0.0
 11
416.69980160179495
 21
-89.565109813831668
 31
0.0
  0
ARC
  5
216
100
AcDbEntity
  8
ADF70-0010
370
              15
390
0
  6
STYLE_13
 62
               7
100
AcDbCircle
 10
513.56655327840156
 20
-200.11905009581892
 30
0.0
 40
35.000000072107774
100
AcDbArc
 50
4.5021894685035493
 51
55.000000016293683
  0
LINE
  5
217
100
AcDbEntity
  8
ADF70-0010
370
              15
390
0
  6
STYLE_13
 62
               7
100
AcDbLine
 10
557.46809481086916
 20
-389.91455871409448
 30
0.0
 11
548.45855506876808
 21
-197.37164839446473
 31
0.0
  0
LINE
  5
218
100
AcDbEntity
  8
ADF70-0010
370
              15
390
0
  6
STYLE_13
 62
               7
100
AcDbLine
 10
570.6894767411045
 20
-455.32822644302291
 30
0.0
 11
570.6894767411045
 21
-409.32822644302291
 31
0.0
  0
LINE
  5
219
100
AcDbEntity
  8
ADF70-0010
370
              15
390
0
  6
STYLE_13
 62
               7
100
AcDbLine
 10
557.99160778758414
 20
-470.70932990542883
 30
0.0
 11
557.99160778758414
 21
-393.94712298061654
 31
0.0
  0
LINE
  5
21A
100
AcDbEntity
  8
ADF70-0010
370
               5
390
0
  6
Continuous
 62
               7
100
AcDbLine
 10
-685.15527275987313
 20
355.18958416978307
 30
0.0
 11
-685.15527275987313
 21
1155.1895841697831
 31
0.0
  0
LINE
  5
21B
100
AcDbEntity
  8
ADF70-0010
370
              15
390
0
  6
Continuous
 62
               7
100
AcDbLine
 10
-685.15527275987313
 20
1089.9337558523396
 30
0.0
 11
-722.15527275987313
 21
1126.9337558523396
 31
0.0
  0
LINE
  5
21C
100
AcDbEntity
  8
ADF70-0010
370
              15
390
0
  6
Continuous
 62
               7
100
AcDbLine
 10
-685.15527275987313
 20
1109.9337558523396
 30
0.0
 11
-722.15527275987313
 21
1146.9337558523396
 31
0.0
  0
LINE
  5
21D
100
AcDbEntity
  8
ADF70-0010
370
              15
390
0
  6
Continuous
 62
               7
100
AcDbLine
 10
-685.15527275987313
 20
1129.9337558523396
 30
0.0
 11
-722.15527275987313
 21
1166.9337558523396
 31
0.0
  0
CIRCLE
  5
21E
100
AcDbEntity
  8
ADF70-0010
370
              15
390
0
  6
STYLE_13
 62
               7
100
AcDbCircle
 10
-620.14085218309572
 20
-433.65525384491298
 30
0.0
 40
17.5
  0
CIRCLE
  5
21F
100
AcDbEntity
  8
ADF70-0010
370
              15
390
0
  6
STYLE_13
 62
               7
100
AcDbCircle
 10
-620.14085218309572
 20
-333.65525384491298
 30
0.0
 40
17.5
  0
CIRCLE
  5
220
100
AcDbEntity
  8
ADF70-0010
370
              15
390
0
  6
STYLE_13
 62
               7
100
AcDbCircle
 10
-620.14085218309594
 20
-533.65525384491252
 30
0.0
 40
17.499999999999545
  0
CIRCLE
  5
221
100
AcDbEntity
  8
ADF70-0010
370
              15
390
0
  6
STYLE_13
 62
               7
100
AcDbCircle
 10
-620.14085218309594
 20
-633.65525384491116
 30
0.0
 40
17.499999999999545
  0
CIRCLE
  5
222
100
AcDbEntity
  8
ADF70-0010
370
              15
390
0
  6
STYLE_13
 62
               7
100
AcDbCircle
 10
-620.14085218309572
 20
-233.65525384491298
 30
0.0
 40
17.5
  0
POLYLINE
  5
223
100
AcDbEntity
  8
ADF70-0010
370
              15
390
0
  6
Continuous
 62
               7
100
AcDb2dPolyline
 66
               1
 10
0.0
 20
0.0
 30
0.0
 70
               1
 75
               5
  0
VERTEX
  5
224
100
AcDbEntity
  8
ADF70-0010
370
              15
390
0
  6
Continuous
 62
               7
100
AcDbVertex
100
AcDb2dVertex
 10
-685.15527275987313
 20
980.18958416978307
 30
0.0
  0
VERTEX
  5
225
100
AcDbEntity
  8
ADF70-0010
370
              15
390
0
  6
Continuous
 62
               7
100
AcDbVertex
100
AcDb2dVertex
 10
-435.15527275987313
 20
980.18958416978307
 30
0.0
  0
VERTEX
  5
226
100
AcDbEntity
  8
ADF70-0010
370
              15
390
0
  6
Continuous
 62
               7
100
AcDbVertex
100
AcDb2dVertex
 10
-435.15527275987313
 20
530.18958416978307
 30
0.0
  0
VERTEX
  5
227
100
AcDbEntity
  8
ADF70-0010
370
              15
390
0
  6
Continuous
 62
               7
100
AcDbVertex
100
AcDb2dVertex
 10
-685.15527275987313
 20
530.18958416978307
 30
0.0
  0
SEQEND
  5
228
100
AcDbEntity
  8
ADF70-0010
370
              15
390
0
  6
Continuous
 62
               7
  0
LINE
  5
229
100
AcDbEntity
  8
ADF70-0010
370
              15
390
0
  6
STYLE_13
 62
               7
100
AcDbLine
 10
454.05914781690478
 20
-553.65525384491207
 30
0.0
 11
454.05914781690478
 21
-593.65525384491161
 31
0.0
  0
CIRCLE
  5
22A
100
AcDbEntity
  8
ADF70-0010
370
              15
390
0
  6
STYLE_13
 62
               7
100
AcDbCircle
 10
454.09160778758496
 20
-573.65525384491207
 30
0.0
 40
10.0
  0
LINE
  5
22B
100
AcDbEntity
  8
ADF70-0010
370
              15
390
0
  6
STYLE_13
 62
               7
100
AcDbLine
 10
454.05914781690478
 20
-273.65525384491207
 30
0.0
 11
454.05914781690478
 21
-313.65525384491161
 31
0.0
  0
CIRCLE
  5
22C
100
AcDbEntity
  8
ADF70-0010
370
              15
390
0
  6
STYLE_13
 62
               7
100
AcDbCircle
 10
454.09160778758496
 20
-293.65525384491207
 30
0.0
 40
10.0
  0
ARC
  5
22D
100
AcDbEntity
  8
ADF70-0010
370
              15
390
0
  6
Continuous
 62
               7
100
AcDbCircle
 10
600.19652786999961
 20
1054.4763164215296
 30
0.0
 40
3.8601641334013896
100
AcDbArc
 50
357.91748992096706
 51
90.862446571307984
  0
LINE
  5
22E
100
AcDbEntity
  8
ADF70-0010
370
              15
390
0
  6
STYLE_13
 62
               7
100
AcDbLine
 10
559.13842481894073
 20
820.83604324764815
 30
0.0
 11
559.13842481894073
 21
895.83604324764769
 31
0.0
  0
LINE
  5
22F
100
AcDbEntity
  8
ADF70-0010
370
              15
390
0
  6
STYLE_13
 62
               7
100
AcDbLine
 10
571.29294476278676
 20
881.35085046222298
 30
0.0
 11
571.31782778533955
 21
835.35089047198903
 31
0.0
  0
POLYLINE
  5
230
100
AcDbEntity
  8
ADF70-0010
370
              15
390
0
  6
STYLE_13
 62
               7
100
AcDb2dPolyline
 66
               1
 10
0.0
 20
0.0
 30
0.0
 70
               1
 75
               5
  0
VERTEX
  5
231
100
AcDbEntity
  8
ADF70-0010
370
              15
390
0
  6
STYLE_13
 62
               7
100
AcDbVertex
100
AcDb2dVertex
 10
604.12208987829911
 20
835.35089047198903
 30
0.0
  0
VERTEX
  5
232
100
AcDbEntity
  8
ADF70-0010
370
              15
390
0
  6
STYLE_13
 62
               7
100
AcDbVertex
100
AcDb2dVertex
 10
571.31782778533955
 20
835.35089047198903
 30
0.0
  0
VERTEX
  5
233
100
AcDbEntity
  8
ADF70-0010
370
              15
390
0
  6
STYLE_13
 62
               7
100
AcDbVertex
100
AcDb2dVertex
 10
571.31782778533955
 20
835.35089047198903
 30
0.0
  0
VERTEX
  5
234
100
AcDbEntity
  8
ADF70-0010
370
              15
390
0
  6
STYLE_13
 62
               7
100
AcDbVertex
100
AcDb2dVertex
 10
571.31782778533955
 20
835.35089047198903
 30
0.0
  0
VERTEX
  5
235
100
AcDbEntity
  8
ADF70-0010
370
              15
390
0
  6
STYLE_13
 62
               7
100
AcDbVertex
100
AcDb2dVertex
 10
604.12208987829911
 20
835.35089047198903
 30
0.0
  0
SEQEND
  5
236
100
AcDbEntity
  8
ADF70-0010
370
              15
390
0
  6
STYLE_13
 62
               7
  0
LINE
  5
237
100
AcDbEntity
  8
ADF70-0010
370
              15
390
0
  6
STYLE_13
 62
               7
100
AcDbLine
 10
571.29294476278676
 20
881.35085046222321
 30
0.0
 11
604.05414249220951
 21
881.35085046222321
 31
0.0
  0
LINE
  5
238
100
AcDbEntity
  8
ADF70-0010
370
              15
390
0
  6
STYLE_13
 62
               7
100
AcDbLine
 10
559.23142924412434
 20
895.72520490419242
 30
0.0
 11
571.29294476278676
 21
881.35085046222321
 31
0.0
  0
ARC
  5
239
100
AcDbEntity
  8
ADF70-0010
370
              15
390
0
  6
STYLE_13
 62
               7
100
AcDbCircle
 10
563.06165144735644
 20
898.93914295350646
 30
0.0
 40
4.9999999910959714
100
AcDbArc
 50
184.58365973569136
 51
220.00000009880583
  0
LINE
  5
23A
100
AcDbEntity
  8
ADF70-0010
370
              15
390
0
  6
STYLE_13
 62
               7
100
AcDbLine
 10
557.68561717710611
 20
903.42943571567935
 30
0.0
 11
558.07764290640955
 21
898.53956971274556
 31
0.0
  0
ARC
  5
23B
100
AcDbEntity
  8
ADF70-0010
370
              15
390
0
  6
STYLE_13
 62
               7
100
AcDbCircle
 10
537.74958296897751
 20
901.83114281414964
 30
0.0
 40
20.000000003668852
100
AcDbArc
 50
4.5836595498710402
 51
86.50986487526572
  0
LINE
  5
23C
100
AcDbEntity
  8
ADF70-0010
370
              15
390
0
  6
STYLE_13
 62
               7
100
AcDbLine
 10
419.82440908315857
 20
928.03805344091802
 30
0.0
 11
538.96711667354896
 21
921.79404871046086
 31
0.0
  0
LINE
  5
23D
100
AcDbEntity
  8
ADF70-0010
370
              15
390
0
  6
Continuous
 62
               7
100
AcDbLine
 10
604.05414249220951
 20
1054.3360432476477
 30
0.0
 11
604.05414249220951
 21
648.18293695167927
 31
0.0
  0
LINE
  5
23E
100
AcDbEntity
  8
ADF70-0010
370
              15
390
0
  6
Continuous
 62
               7
100
AcDbLine
 10
604.13842481894073
 20
648.18293695167927
 30
0.0
 11
604.13842481894073
 21
680.85393286417525
 31
0.0
  0
ARC
  5
23F
100
AcDbEntity
  8
ADF70-0010
370
              15
390
0
  6
Continuous
 62
               7
100
AcDbCircle
 10
601.13842482133543
 20
648.18293695395232
 30
0.0
 40
2.9999999976051375
100
AcDbArc
 50
272.99999997270254
 51
359.99999995658777
  0
LINE
  5
240
100
AcDbEntity
  8
ADF70-0010
370
              15
390
0
  6
Continuous
 62
               7
100
AcDbLine
 10
528.38874303543901
 20
641.36617063190647
 30
0.0
 11
601.2954326885116
 21
645.18704835200538
 31
0.0
  0
ARC
  5
241
100
AcDbEntity
  8
ADF70-0010
370
              15
390
0
  6
Continuous
 62
               7
100
AcDbCircle
 10
529.43546215944718
 20
621.39357995093928
 30
0.0
 40
19.999999985850998
100
AcDbArc
 50
92.99999999968388
 51
180.00000000052566
  0
LINE
  5
242
100
AcDbEntity
  8
ADF70-0010
370
              15
390
0
  6
Continuous
 62
               7
100
AcDbLine
 10
509.43546217359608
 20
563.33604324764815
 30
0.0
 11
509.43546217359608
 21
1058.3360432476477
 31
0.0
  0
ARC
  5
243
100
AcDbEntity
  8
ADF70-0010
370
              15
390
0
  6
Continuous
 62
               7
100
AcDbCircle
 10
504.43546217359608
 20
563.33604324764815
 30
0.0
 40
5.0
100
AcDbArc
 50
270.0
 51
0.0
  0
LINE
  5
244
100
AcDbEntity
  8
ADF70-0010
370
              15
390
0
  6
Continuous
 62
               7
100
AcDbLine
 10
419.05414249220939
 20
558.33604324764815
 30
0.0
 11
504.43546217359608
 21
558.33604324764815
 31
0.0
  0
LWPOLYLINE
  5
245
100
AcDbEntity
  8
ADF70-0010
370
              15
390
0
  6
STYLE_13
 62
               7
100
AcDbPolyline
 90
        8
 70
             128
 10
571.31782778533955
 20
835.35089047198903
 10
559.13842481894073
 20
820.83604324764815
 10
559.23142924423439
 20
820.94688160519786
 42
0.1557749061972153
 10
558.07764290420948
 20
818.13251680335975
 10
548.45571967137914
 20
695.93409179670266
 42
-0.2239746283263839
 10
533.63889318650547
 20
670.01117188316562
 10
416.69696620440527
 20
588.12755320980273
 42
0.2446984434215681
 10
414.13842481894062
 20
583.21264095265633
 42
0.2446984434215681
  0
LINE
  5
246
100
AcDbEntity
  8
ADF70-0010
370
              15
390
0
  6
Continuous
 62
               7
100
AcDbLine
 10
414.24042964086539
 20
976.85853673194583
 30
0.0
 11
424.13842481894062
 21
976.85853673194583
 31
0.0
  0
ARC
  5
247
100
AcDbEntity
  8
ADF70-0010
370
              15
390
0
  6
STYLE_13
 62
               7
100
AcDbCircle
 10
420.1384248221957
 20
934.02983065262197
 30
0.0
 40
6.0000000032548542
100
AcDbArc
 50
179.99999997050779
 51
266.99999998652754
  0
LINE
  5
248
100
AcDbEntity
  8
ADF70-0010
370
              15
390
0
  6
Continuous
 62
               7
100
AcDbLine
 10
414.13842481894062
 20
1011.8588504622232
 30
0.0
 11
424.13842481894062
 21
1011.8588504622232
 31
0.0
  0
LINE
  5
249
100
AcDbEntity
  8
ADF70-0010
370
              15
390
0
  6
Continuous
 62
               7
100
AcDbLine
 10
600.13842481895381
 20
1058.3360432476477
 30
0.0
 11
417.05414249220939
 21
1058.3360432476477
 31
0.0
  0
LINE
  5
24A
100
AcDbEntity
  8
ADF70-0010
370
              15
390
0
  6
Continuous
 62
               7
100
AcDbLine
 10
414.05414249220939
 20
1055.3360432476477
 30
0.0
 11
414.05414249220939
 21
563.33604324764815
 31
0.0
  0
ARC
  5
24B
100
AcDbEntity
  8
ADF70-0010
370
              15
390
0
  6
Continuous
 62
               7
100
AcDbCircle
 10
417.05414249220962
 20
1055.3360432476477
 30
0.0
 40
3.0
100
AcDbArc
 50
90.0
 51
180.0
  0
ARC
  5
24C
100
AcDbEntity
  8
ADF70-0010
370
              15
390
0
  6
Continuous
 62
               7
100
AcDbCircle
 10
419.05414249220939
 20
563.33604324764815
 30
0.0
 40
5.0
100
AcDbArc
 50
180.0
 51
270.0
  0
ENDSEC
  0
SECTION
  2
OBJECTS
  0
DICTIONARY
  5
19
100
AcDbDictionary
280
               0
281
               1
  3
ACAD_GROUP
350
1A
  3
ACAD_MLINESTYLE
350
1B
  3
ACAD_LAYOUT
350
1E
  3
ACAD_PLOTSETTINGS
350
22
  3
ACAD_PLOTSTYLENAME
350
1F
  0
DICTIONARY
  5
1A
102
{ACAD_REACTORS
330
19
102
}
100
AcDbDictionary
280
               0
281
               1
  0
DICTIONARY
  5
1B
102
{ACAD_REACTORS
330
19
102
}
100
AcDbDictionary
280
               0
281
               1
  3
Standard
350
1C
  0
MLINESTYLE
  5
1C
102
{ACAD_REACTORS
330
1B
102
}
100
AcDbMlineStyle
  2
Standard
 70
               0
  3

 62
               0
 51
90.0
 52
90.0
 71
               2
 49
0.5
 62
             256
  6
ByLayer
 49
-0.5
 62
             256
  6
ByLayer
  0
ACDBDICTIONARYWDFLT
  5
1F
102
{ACAD_REACTORS
330
19
102
}
100
AcDbDictionary
281
               1
  3
Normal
350
1D
100
AcDbDictionaryWithDefault
340
1D
  0
ACDBPLACEHOLDER
  5
1D
102
{ACAD_REACTORS
330
1F
102
}
  0
LAYOUT
  5
20
102
{ACAD_REACTORS
330
1E
102
}
100
AcDbPlotSettings
  1

  2

  4

  6

 40
0.0
 41
0.0
 42
0.0
 43
0.0
 44
0.0
 45
0.0
 46
0.0
 47
0.0
 48
0.0
 49
0.0
140
0.0
141
0.0
142
1.0
143
1.0
 70
            1024
 72
               0
 73
               0
 74
               0
  7

 75
               0
147
1.0
148
0.0
149
0.0
100
AcDbLayout
  1
Model
 70
               0
 71
               0
 10
0.0
 20
0.0
 11
0.0
 21
0.0
 12
0.0
 22
0.0
 32
0.0
 14
0.0
 24
0.0
 34
0.0
 15
0.0
 25
0.0
 35
0.0
146
0.0
 13
0.0
 23
0.0
 33
0.0
 16
0.0
 26
0.0
 36
0.0
 17
0.0
 27
0.0
 37
0.0
 76
               0
330
A
331
0
345
0
346
0
  0
LAYOUT
  5
21
102
{ACAD_REACTORS
330
1E
102
}
100
AcDbPlotSettings
  1

  2

  4

  6

 40
0.0
 41
0.0
 42
0.0
 43
0.0
 44
0.0
 45
0.0
 46
0.0
 47
0.0
 48
0.0
 49
0.0
140
0.0
141
0.0
142
1.0
143
1.0
 70
               0
 72
               0
 73
               0
 74
               0
  7

 75
               0
147
1.0
148
0.0
149
0.0
100
AcDbLayout
  1
Layout1
 70
               0
 71
               0
 10
0.0
 20
0.0
 11
0.0
 21
0.0
 12
0.0
 22
0.0
 32
0.0
 14
0.0
 24
0.0
 34
0.0
 15
0.0
 25
0.0
 35
0.0
146
0.0
 13
0.0
 23
0.0
 33
0.0
 16
0.0
 26
0.0
 36
0.0
 17
0.0
 27
0.0
 37
0.0
 76
               0
330
B
331
0
345
0
346
0
  0
DICTIONARY
  5
1E
102
{ACAD_REACTORS
330
19
102
}
100
AcDbDictionary
280
               0
281
               1
  3
Layout1
350
21
  3
Model
350
20
  0
DICTIONARY
  5
22
102
{ACAD_REACTORS
330
19
102
}
100
AcDbDictionary
280
               0
281
               1
  0
ENDSEC
  0
EOF
