  0
SECTION
  2
HEADER
  9
$ACADVER
  1
AC1015
  9
$ACADMAINTVER
 70
               6
  9
$DWGCODEPAGE
  3
ANSI_932
  9
$INSBASE
 10
0.0
 20
0.0
 30
0.0
  9
$EXTMIN
 10
-1000.000000000482
 20
-1410.0458190697832
 30
-14.834305555555554
  9
$EXTMAX
 10
950.0
 20
1427.476996042629
 30
14.834305555555554
  9
$LIMMIN
 10
0.0
 20
0.0
  9
$LIMMAX
 10
0.0
 20
0.0
  9
$ORTHOMODE
 70
               0
  9
$REGENMODE
 70
               1
  9
$FILLMODE
 70
               1
  9
$QTEXTMODE
 70
               0
  9
$MIRRTEXT
 70
               1
  9
$LTSCALE
 40
50.799999999999997
  9
$ATTMODE
 70
               1
  9
$TEXTSIZE
 40
0.2
  9
$TRACEWID
 40
1.0
  9
$TEXTSTYLE
  7
Standard
  9
$CLAYER
  8
62ZN
  9
$CELTYPE
  6
Continuous
  9
$CECOLOR
 62
             256
  9
$CELTSCALE
 40
1.0
  9
$DISPSILH
 70
               0
  9
$DIMSCALE
 40
1.0
  9
$DIMASZ
 40
22.4482421875
  9
$DIMEXO
 40
15.875
  9
$DIMDLI
 40
10.16
  9
$DIMRND
 40
0.0
  9
$DIMDLE
 40
1.5874999999999999
  9
$DIMEXE
 40
31.75
  9
$DIMTP
 40
0.0
  9
$DIMTM
 40
0.0
  9
$DIMTXT
 40
24.432617187500004
  9
$DIMCEN
 40
0.0
  9
$DIMTSZ
 40
0.0
  9
$DIMTOL
 70
               0
  9
$DIMLIM
 70
               0
  9
$DIMTIH
 70
               0
  9
$DIMTOH
 70
               0
  9
$DIMSE1
 70
               0
  9
$DIMSE2
 70
               0
  9
$DIMTAD
 70
               1
  9
$DIMZIN
 70
              11
  9
$DIMBLK
  1
VW_SLASH
  9
$DIMASO
 70
               1
  9
$DIMSHO
 70
               1
  9
$DIMPOST
  1
<>
  9
$DIMAPOST
  1
[]
  9
$DIMALT
 70
               0
  9
$DIMALTD
 70
               1
  9
$DIMALTF
 40
1.0
  9
$DIMLFAC
 40
1.0
  9
$DIMTOFL
 70
               1
  9
$DIMTVP
 40
0.0
  9
$DIMTIX
 70
               1
  9
$DIMSOXD
 70
               0
  9
$DIMSAH
 70
               0
  9
$DIMBLK1
  1

  9
$DIMBLK2
  1

  9
$DIMSTYLE
  2
Arch
  9
$DIMCLRD
 70
               0
  9
$DIMCLRE
 70
               0
  9
$DIMCLRT
 70
               0
  9
$DIMTFAC
 40
1.0
  9
$DIMGAP
 40
1.5874999999999999
  9
$DIMJUST
 70
               0
  9
$DIMSD1
 70
               0
  9
$DIMSD2
 70
               0
  9
$DIMTOLJ
 70
               1
  9
$DIMTZIN
 70
              11
  9
$DIMALTZ
 70
              11
  9
$DIMALTTZ
 70
              11
  9
$DIMUPT
 70
               0
  9
$DIMDEC
 70
               1
  9
$DIMTDEC
 70
               1
  9
$DIMALTU
 70
               2
  9
$DIMALTTD
 70
               2
  9
$DIMTXSTY
  7
ＭＳ ゴシック
  9
$DIMAUNIT
 70
               0
  9
$DIMADEC
 70
               2
  9
$DIMALTRND
 40
0.0
  9
$DIMAZIN
 70
               0
  9
$DIMDSEP
 70
              46
  9
$DIMATFIT
 70
               0
  9
$DIMFRAC
 70
               2
  9
$DIMLDRBLK
  1

  9
$DIMLUNIT
 70
               2
  9
$DIMLWD
 70
              -2
  9
$DIMLWE
 70
              -2
  9
$DIMTMOVE
 70
               0
  9
$LUNITS
 70
               2
  9
$LUPREC
 70
               4
  9
$SKETCHINC
 40
0.1
  9
$FILLETRAD
 40
0.0
  9
$AUNITS
 70
               0
  9
$AUPREC
 70
               0
  9
$MENU
  1
acad
  9
$ELEVATION
 40
0.0
  9
$PELEVATION
 40
0.0
  9
$THICKNESS
 40
0.0
  9
$LIMCHECK
 70
               0
  9
$CHAMFERA
 40
0.0
  9
$CHAMFERB
 40
0.0
  9
$CHAMFERC
 40
0.0
  9
$CHAMFERD
 40
0.0
  9
$SKPOLY
 70
               0
  9
$TDCREATE
 40
2455736.633900463
  9
$TDUCREATE
 40
0.000000000
  9
$TDUPDATE
 40
2455736.633900463
  9
$TDUUPDATE
 40
0.000000000
  9
$TDINDWG
 40
0.0000000000
  9
$TDUSRTIMER
 40
0.0000000000
  9
$USRTIMER
 70
               1
  9
$ANGBASE
 50
0.0
  9
$ANGDIR
 70
               0
  9
$PDMODE
 70
               1
  9
$PDSIZE
 40
-2.0
  9
$PLINEWID
 40
0.0
  9
$SPLFRAME
 70
               0
  9
$SPLINETYPE
 70
               6
  9
$SPLINESEGS
 70
               8
  9
$HANDSEED
  5
19A
  9
$SURFTAB1
 70
               6
  9
$SURFTAB2
 70
               6
  9
$SURFTYPE
 70
               6
  9
$SURFU
 70
               6
  9
$SURFV
 70
               6
  9
$UCSBASE
  2

  9
$UCSNAME
  2

  9
$UCSORG
 10
0.0
 20
0.0
 30
0.0
  9
$UCSXDIR
 10
1.0
 20
0.0
 30
0.0
  9
$UCSYDIR
 10
0.0
 20
1.0
 30
0.0
  9
$UCSORTHOREF
  2

  9
$UCSORTHOVIEW
 70
               0
  9
$UCSORGTOP
 10
0.0
 20
0.0
 30
0.0
  9
$UCSORGBOTTOM
 10
0.0
 20
0.0
 30
0.0
  9
$UCSORGLEFT
 10
0.0
 20
0.0
 30
0.0
  9
$UCSORGRIGHT
 10
0.0
 20
0.0
 30
0.0
  9
$UCSORGFRONT
 10
0.0
 20
0.0
 30
0.0
  9
$UCSORGBACK
 10
0.0
 20
0.0
 30
0.0
  9
$PUCSBASE
  2

  9
$PUCSNAME
  2

  9
$PUCSORG
 10
0.0
 20
0.0
 30
0.0
  9
$PUCSXDIR
 10
1.0
 20
0.0
 30
0.0
  9
$PUCSYDIR
 10
0.0
 20
1.0
 30
0.0
  9
$PUCSORTHOREF
  2

  9
$PUCSORTHOVIEW
 70
               0
  9
$PUCSORGTOP
 10
0.0
 20
0.0
 30
0.0
  9
$PUCSORGBOTTOM
 10
0.0
 20
0.0
 30
0.0
  9
$PUCSORGLEFT
 10
0.0
 20
0.0
 30
0.0
  9
$PUCSORGRIGHT
 10
0.0
 20
0.0
 30
0.0
  9
$PUCSORGFRONT
 10
0.0
 20
0.0
 30
0.0
  9
$PUCSORGBACK
 10
0.0
 20
0.0
 30
0.0
  9
$USERI1
 70
               0
  9
$USERI2
 70
               0
  9
$USERI3
 70
               0
  9
$USERI4
 70
               0
  9
$USERI5
 70
               0
  9
$USERR1
 40
0.0
  9
$USERR2
 40
0.0
  9
$USERR3
 40
0.0
  9
$USERR4
 40
0.0
  9
$USERR5
 40
0.0
  9
$WORLDVIEW
 70
               1
  9
$SHADEDGE
 70
               3
  9
$SHADEDIF
 70
              70
  9
$TILEMODE
 70
               1
  9
$MAXACTVP
 70
              64
  9
$PINSBASE
 10
0.0
 20
0.0
 30
0.0
  9
$PLIMCHECK
 70
               0
  9
$PEXTMIN
 10
1.0000000000000000E+20
 20
1.0000000000000000E+20
 30
1.0000000000000000E+20
  9
$PEXTMAX
 10
-1.0000000000000000E+20
 20
-1.0000000000000000E+20
 30
-1.0000000000000000E+20
  9
$PLIMMIN
 10
0.0
 20
0.0
  9
$PLIMMAX
 10
12.0
 20
9.0
  9
$UNITMODE
 70
               0
  9
$VISRETAIN
 70
               0
  9
$PLINEGEN
 70
               1
  9
$PSLTSCALE
 70
               0
  9
$TREEDEPTH
 70
            3020
  9
$CMLSTYLE
  2
Standard
  9
$CMLJUST
 70
               0
  9
$CMLSCALE
 40
1.0
  9
$PROXYGRAPHICS
 70
               0
  9
$MEASUREMENT
 70
               1
  9
$CELWEIGHT
370
               0
  9
$ENDCAPS
280
               0
  9
$JOINSTYLE
280
               0
  9
$LWDISPLAY
290
               1
  9
$INSUNITS
 70
               4
  9
$HYPERLINKBASE
  1

  9
$STYLESHEET
  1

  9
$XEDIT
290
               1
  9
$CEPSNTYPE
380
               0
  9
$PSTYLEMODE
290
               1
  9
$FINGERPRINTGUID
  2

  9
$VERSIONGUID
  2

  9
$EXTNAMES
290
               1
  9
$PSVPSCALE
 40
0.0
  0
ENDSEC
  0
SECTION
  2
CLASSES
  0
CLASS
  1
LWPOLYLINE
  2
AcDbPolyline
  3
AutoCAD 2000
 90
        0
280
               0
281
               1
  0
CLASS
  1
IMAGE
  2
AcDbRasterImage
  3
ISM
 90
      127
280
               0
281
               1
  0
CLASS
  1
OLE2FRAME
  2
AcDbOle2Frame
  3
AutoCAD 2000
 90
        0
280
               0
281
               1
  0
CLASS
  1
HATCH
  2
AcDbHatch
  3
AutoCAD 2000
 90
        0
280
               0
281
               1
  0
CLASS
  1
DICTIONARYVAR
  2
AcDbDictionaryVar
  3
AutoCAD 2000
 90
        0
280
               0
281
               0
  0
CLASS
  1
RASTERVARIABLES
  2
AcDbRasterVariables
  3
ISM
 90
        0
280
               0
281
               0
  0
CLASS
  1
IMAGEDEF
  2
AcDbRasterImageDef
  3
ISM
 90
        0
280
               0
281
               0
  0
CLASS
  1
IMAGEDEF_REACTOR
  2
AcDbRasterImageDefReactor
  3
ISM
 90
        1
280
               0
281
               0
  0
CLASS
  1
IDBUFFER
  2
AcDbIdBuffer
  3
AutoCAD 2000
 90
        0
280
               0
281
               0
  0
CLASS
  1
SPATIAL_FILTER
  2
AcDbSpatialFilter
  3
AutoCAD 2000
 90
        0
280
               0
281
               0
  0
CLASS
  1
XRECORD
  2
AcDbXrecord
  3
AutoCAD 2000
 90
        0
280
               0
281
               0
  0
CLASS
  1
SORTENTSTABLE
  2
AcDbSortentsTable
  3
AutoCAD 2000
 90
        0
280
               0
281
               0
  0
CLASS
  1
LAYER_INDEX
  2
AcDbLayerIndex
  3
AutoCAD 2000
 90
        0
280
               0
281
               0
  0
CLASS
  1
SPATIAL_INDEX
  2
AcDbSpatialIndex
  3
AutoCAD 2000
 90
        0
280
               0
281
               0
  0
CLASS
  1
OBJECT_PTR
  2
CAseDLPNTableRecord
  3
"ASE-LPNTableRecord"
 90
        1
280
               0
281
               0
  0
CLASS
  1
LAYOUT
  2
AcDbLayout
  3
AutoCAD 2000
 90
        0
280
               0
281
               0
  0
CLASS
  1
PLOTSETTINGS
  2
AcDbPlotSettings
  3
AutoCAD 2000
 90
        0
280
               0
281
               0
  0
CLASS
  1
ACDBDICTIONARYWDFLT
  2
AcDbDictionaryWithDefault
  3
AutoCAD 2000
 90
        0
280
               0
281
               0
  0
CLASS
  1
ACDBPLACEHOLDER
  2
AcDbPlaceHolder
  3
AutoCAD 2000
 90
        0
280
               0
281
               0
  0
ENDSEC
  0
SECTION
  2
TABLES
  0
TABLE
  2
VPORT
  5
7
100
AcDbSymbolTable
 70
               1
  0
VPORT
  5
15
100
AcDbSymbolTableRecord
100
AcDbViewportTableRecord
  2
*ACTIVE
 70
               0
 10
0.0
 20
0.0
 11
1.0
 21
1.0
 12
-25.000000000241016
 22
8.7155884864228028
 13
0.0
 23
0.0
 14
1.0
 24
1.0
 15
0.0
 25
0.0
 16
0.0
 26
0.0
 36
1.0
 17
0.0
 27
0.0
 37
0.0
 40
2837.522815112412
 41
0.688564
 42
50.0
 43
0.0
 44
0.0
 50
0.0
 51
0.0
 71
               0
 72
            2000
 73
               1
 74
               1
 75
               0
 76
               0
 77
               0
 78
               0
281
               0
 65
               0
110
0.0
120
0.0
130
0.0
111
1.0
121
0.0
131
0.0
112
0.0
122
1.0
132
0.0
345
0
346
0
 79
               0
146
0.0
  0
ENDTAB
  0
TABLE
  2
LTYPE
  5
4
100
AcDbSymbolTable
 70
              15
  0
LTYPE
  5
11
100
AcDbSymbolTableRecord
100
AcDbLinetypeTableRecord
  2
ByBlock
 70
              64
  3

 72
              65
 73
               0
 40
0.0
  0
LTYPE
  5
12
100
AcDbSymbolTableRecord
100
AcDbLinetypeTableRecord
  2
ByLayer
 70
              64
  3

 72
              65
 73
               0
 40
0.0
  0
LTYPE
  5
13
100
AcDbSymbolTableRecord
100
AcDbLinetypeTableRecord
  2
Continuous
 70
              64
  3
Solid line
 72
              65
 73
               0
 40
0.0
  0
LTYPE
  5
34
100
AcDbSymbolTableRecord
100
AcDbLinetypeTableRecord
  2
STYLE_01
 70
               0
  3

 72
              65
 73
               2
 40
0.375
 49
0.25
 74
               0
 49
-0.125
 74
               0
  0
LTYPE
  5
35
100
AcDbSymbolTableRecord
100
AcDbLinetypeTableRecord
  2
STYLE_02
 70
               0
  3

 72
              65
 73
               4
 40
0.177082874015748
 49
0.1041666338582677
 74
               0
 49
-0.0243054133858268
 74
               0
 49
0.0243054133858268
 74
               0
 49
-0.0243054133858268
 74
               0
  0
LTYPE
  5
36
100
AcDbSymbolTableRecord
100
AcDbLinetypeTableRecord
  2
STYLE_03
 70
               0
  3

 72
              65
 73
               2
 40
1.25
 49
1.0416400000000001
 74
               0
 49
-0.2083599999999999
 74
               0
  0
LTYPE
  5
37
100
AcDbSymbolTableRecord
100
AcDbLinetypeTableRecord
  2
STYLE_04
 70
               0
  3

 72
              65
 73
               2
 40
1.5277099999999999
 49
1.3194249999999998
 74
               0
 49
-0.208285
 74
               0
  0
LTYPE
  5
38
100
AcDbSymbolTableRecord
100
AcDbLinetypeTableRecord
  2
STYLE_05
 70
               0
  3

 72
              65
 73
               2
 40
0.20828
 49
0.069425
 74
               0
 49
-0.138855
 74
               0
  0
LTYPE
  5
39
100
AcDbSymbolTableRecord
100
AcDbLinetypeTableRecord
  2
STYLE_06
 70
               0
  3

 72
              65
 73
               4
 40
1.0416400000000001
 49
0.625
 74
               0
 49
-0.20828
 74
               0
 49
0.06943
 74
               0
 49
-0.13893
 74
               0
  0
LTYPE
  5
3A
100
AcDbSymbolTableRecord
100
AcDbLinetypeTableRecord
  2
STYLE_07
 70
               0
  3

 72
              65
 73
               6
 40
1.875
 49
0.625
 74
               0
 49
-0.20828
 74
               0
 49
0.6250000000000001
 74
               0
 49
-0.2083599999999999
 74
               0
 49
0.06943
 74
               0
 49
-0.1389299999999999
 74
               0
  0
LTYPE
  5
3B
100
AcDbSymbolTableRecord
100
AcDbLinetypeTableRecord
  2
STYLE_08
 70
               0
  3

 72
              65
 73
               6
 40
1.25
 49
0.625
 74
               0
 49
-0.20828
 74
               0
 49
0.06943
 74
               0
 49
-0.13893
 74
               0
 49
0.0694299999999999
 74
               0
 49
-0.13893
 74
               0
  0
LTYPE
  5
3C
100
AcDbSymbolTableRecord
100
AcDbLinetypeTableRecord
  2
STYLE_09
 70
               0
  3

 72
              65
 73
               4
 40
5.0
 49
3.75
 74
               0
 49
-0.2777849999999998
 74
               0
 49
0.6944300000000003
 74
               0
 49
-0.2777849999999998
 74
               0
  0
LTYPE
  5
3D
100
AcDbSymbolTableRecord
100
AcDbLinetypeTableRecord
  2
STYLE_10
 70
               0
  3

 72
              65
 73
               6
 40
5.9375
 49
3.75
 74
               0
 49
-0.2777849999999998
 74
               0
 49
0.6944300000000003
 74
               0
 49
-0.2777849999999998
 74
               0
 49
0.625
 74
               0
 49
-0.3125
 74
               0
  0
LTYPE
  5
3E
100
AcDbSymbolTableRecord
100
AcDbLinetypeTableRecord
  2
STYLE_11
 70
               0
  3

 72
              65
 73
               2
 40
0.0694444881889764
 49
0.0347222440944882
 74
               0
 49
-0.0347222440944882
 74
               0
  0
LTYPE
  5
3F
100
AcDbSymbolTableRecord
100
AcDbLinetypeTableRecord
  2
STYLE_12
 70
               0
  3

 72
              65
 73
               2
 40
0.3937007874015748
 49
0.1968503937007874
 74
               0
 49
-0.1968503937007874
 74
               0
  0
ENDTAB
  0
TABLE
  2
LAYER
  5
2
100
AcDbSymbolTable
 70
               6
  0
LAYER
  5
14
100
AcDbSymbolTableRecord
100
AcDbLayerTableRecord
  2
0
 70
               0
 62
               7
  6
Continuous
290
               1
370
              -3
390
1D
  0
LAYER
  5
40
100
AcDbSymbolTableRecord
100
AcDbLayerTableRecord
  2
Defpoints
 70
               0
 62
               7
  6
Continuous
290
               0
370
              -3
390
1D
  0
LAYER
  5
41
100
AcDbSymbolTableRecord
100
AcDbLayerTableRecord
  2
template
 70
               0
 62
               7
  6
Continuous
290
               1
370
              -3
390
1D
  0
LAYER
  5
42
100
AcDbSymbolTableRecord
100
AcDbLayerTableRecord
  2
notes
 70
               0
 62
               7
  6
Continuous
290
               1
370
              -3
390
1D
  0
LAYER
  5
43
100
AcDbSymbolTableRecord
100
AcDbLayerTableRecord
  2
ADF70-0020
 70
               0
 62
               7
  6
Continuous
290
               1
370
              -3
390
1D
  0
LAYER
  5
44
100
AcDbSymbolTableRecord
100
AcDbLayerTableRecord
  2
62ZN
 70
               0
 62
               7
  6
Continuous
290
               1
370
              -3
390
1D
  0
ENDTAB
  0
TABLE
  2
STYLE
  5
3
100
AcDbSymbolTable
 70
               2
  0
STYLE
  5
17
100
AcDbSymbolTableRecord
100
AcDbTextStyleTableRecord
  2
Standard
 70
               0
 40
0.0
 41
1.0
 50
0.0
 71
               0
 42
0.0
  3
txt
  4
BIGFONT.SHX
  0
STYLE
  5
33
100
AcDbSymbolTableRecord
100
AcDbTextStyleTableRecord
  2
ＭＳ ゴシック
 70
               0
 40
0.0
 41
1.0
 50
0.0
 71
               0
 42
0.0
  3

  4
ＭＳ ゴシック
1001
ACAD
1000
ＭＳ ゴシック
1071
        0
  0
ENDTAB
  0
TABLE
  2
VIEW
  5
5
100
AcDbSymbolTable
 70
               0
  0
ENDTAB
  0
TABLE
  2
UCS
  5
6
100
AcDbSymbolTable
 70
               0
  0
ENDTAB
  0
TABLE
  2
APPID
  5
8
100
AcDbSymbolTable
 70
               1
  0
APPID
  5
16
100
AcDbSymbolTableRecord
100
AcDbRegAppTableRecord
  2
ACAD
 70
               0
  0
ENDTAB
  0
TABLE
  2
DIMSTYLE
  5
9
100
AcDbSymbolTable
 70
               3
100
AcDbDimStyleTable
 71
               0
  0
DIMSTYLE
105
18
100
AcDbSymbolTableRecord
100
AcDbDimStyleTableRecord
  2
Standard
 70
               0
  3

  4

 40
1.0
 41
0.18
 42
0.0625
 43
0.38
 44
0.18
 45
0.0
 46
0.0
 47
0.0
 48
0.0
 71
               0
 72
               0
 73
               1
 74
               1
 75
               0
 76
               0
 77
               0
 78
               0
 79
               0
140
0.18
141
0.09
142
0.0
143
25.399999999999999
144
1.0
145
0.0
146
1.0
147
0.09
148
0.0
170
               0
171
               2
172
               0
173
               0
174
               0
175
               0
176
               0
177
               0
178
               0
179
               0
271
               4
272
               4
273
               2
274
               2
275
               0
276
               0
277
               2
278
              46
279
               0
280
               0
281
               0
282
               0
283
               1
284
               0
285
               0
286
               0
288
               0
289
               3
340
17
341
0
342
0
343
0
344
0
371
              -2
372
              -2
  0
DIMSTYLE
105
4D
100
AcDbSymbolTableRecord
100
AcDbDimStyleTableRecord
  2
tform線あり
 70
               0
  3
<>
  4
[]
 40
1.0
 41
3.999755859375
 42
24.999999999999996
 43
0.9999999999999999
 44
0.0
 45
0.0
 46
0.0
 47
0.0
 48
0.0
 71
               0
 72
               0
 73
               0
 74
               0
 75
               0
 76
               0
 77
               1
 78
              11
 79
               0
140
24.432617187500004
141
0.0
142
0.0
143
1.0
144
1.0
145
0.0
146
1.0
147
0.4999999999999999
148
0.0
170
               0
171
               1
172
               1
173
               0
174
               1
175
               0
176
               0
177
               0
178
               0
179
               2
271
               1
272
               1
273
               2
274
               2
275
               0
276
               2
277
               2
278
              46
279
               0
280
               0
281
               0
282
               0
283
               1
284
              11
285
              11
286
              11
288
               0
289
               0
340
33
341
45
342
45
343
0
344
0
371
              -2
372
              -2
  0
DIMSTYLE
105
57
100
AcDbSymbolTableRecord
100
AcDbDimStyleTableRecord
  2
Arch
 70
               0
  3
<>
  4
[]
 40
1.0
 41
22.4482421875
 42
15.875
 43
10.16
 44
31.75
 45
0.0
 46
1.5874999999999999
 47
0.0
 48
0.0
 71
               0
 72
               0
 73
               0
 74
               0
 75
               0
 76
               0
 77
               1
 78
              11
 79
               0
140
24.432617187500004
141
0.0
142
0.0
143
1.0
144
1.0
145
0.0
146
1.0
147
1.5874999999999999
148
0.0
170
               0
171
               1
172
               1
173
               0
174
               1
175
               0
176
               0
177
               0
178
               0
179
               2
271
               1
272
               1
273
               2
274
               2
275
               0
276
               2
277
               2
278
              46
279
               0
280
               0
281
               0
282
               0
283
               1
284
              11
285
              11
286
              11
288
               0
289
               0
340
33
341
53
342
4E
343
0
344
0
371
              -2
372
              -2
  0
ENDTAB
  0
TABLE
  2
BLOCK_RECORD
  5
1
100
AcDbSymbolTable
 70
              19
  0
BLOCK_RECORD
  5
A
100
AcDbSymbolTableRecord
100
AcDbBlockTableRecord
  2
*MODEL_SPACE
340
20
  0
BLOCK_RECORD
  5
B
100
AcDbSymbolTableRecord
100
AcDbBlockTableRecord
  2
*PAPER_SPACE
340
21
  0
BLOCK_RECORD
  5
45
100
AcDbSymbolTableRecord
100
AcDbBlockTableRecord
  2
_DOT
340
0
  0
BLOCK_RECORD
  5
4E
100
AcDbSymbolTableRecord
100
AcDbBlockTableRecord
  2
VW_SLASH
340
0
  0
BLOCK_RECORD
  5
53
100
AcDbSymbolTableRecord
100
AcDbBlockTableRecord
  2
VW_FILLEDARROW
340
0
  0
BLOCK_RECORD
  5
23
100
AcDbSymbolTableRecord
100
AcDbBlockTableRecord
  2
グループ
340
0
102
{BLKREFS
331
12D
102
}
  0
BLOCK_RECORD
  5
24
100
AcDbSymbolTableRecord
100
AcDbBlockTableRecord
  2
*D4
340
0
  0
BLOCK_RECORD
  5
25
100
AcDbSymbolTableRecord
100
AcDbBlockTableRecord
  2
*D5
340
0
  0
BLOCK_RECORD
  5
26
100
AcDbSymbolTableRecord
100
AcDbBlockTableRecord
  2
*D6
340
0
  0
BLOCK_RECORD
  5
27
100
AcDbSymbolTableRecord
100
AcDbBlockTableRecord
  2
*D7
340
0
  0
BLOCK_RECORD
  5
28
100
AcDbSymbolTableRecord
100
AcDbBlockTableRecord
  2
*D8
340
0
  0
BLOCK_RECORD
  5
29
100
AcDbSymbolTableRecord
100
AcDbBlockTableRecord
  2
*D9
340
0
  0
BLOCK_RECORD
  5
2A
100
AcDbSymbolTableRecord
100
AcDbBlockTableRecord
  2
*D10
340
0
  0
BLOCK_RECORD
  5
2B
100
AcDbSymbolTableRecord
100
AcDbBlockTableRecord
  2
*D11
340
0
  0
BLOCK_RECORD
  5
2C
100
AcDbSymbolTableRecord
100
AcDbBlockTableRecord
  2
*D12
340
0
  0
BLOCK_RECORD
  5
2D
100
AcDbSymbolTableRecord
100
AcDbBlockTableRecord
  2
*D13
340
0
  0
BLOCK_RECORD
  5
2E
100
AcDbSymbolTableRecord
100
AcDbBlockTableRecord
  2
*D14
340
0
  0
BLOCK_RECORD
  5
2F
100
AcDbSymbolTableRecord
100
AcDbBlockTableRecord
  2
*D15
340
0
  0
BLOCK_RECORD
  5
30
100
AcDbSymbolTableRecord
100
AcDbBlockTableRecord
  2
*D16
340
0
  0
BLOCK_RECORD
  5
31
100
AcDbSymbolTableRecord
100
AcDbBlockTableRecord
  2
*D17
340
0
  0
BLOCK_RECORD
  5
32
100
AcDbSymbolTableRecord
100
AcDbBlockTableRecord
  2
*D18
340
0
  0
ENDTAB
  0
ENDSEC
  0
SECTION
  2
BLOCKS
  0
BLOCK
  5
D
100
AcDbEntity
  8
0
390
0
100
AcDbBlockBegin
  2
*MODEL_SPACE
 70
               0
 10
0.0
 20
0.0
 30
0.0
  3
*MODEL_SPACE
  1

  0
ENDBLK
  5
E
100
AcDbEntity
  8
0
390
0
100
AcDbBlockEnd
  0
BLOCK
  5
F
100
AcDbEntity
 67
               1
  8
0
390
0
100
AcDbBlockBegin
  2
*PAPER_SPACE
 70
               0
 10
0.0
 20
0.0
 30
0.0
  3
*PAPER_SPACE
  1

  0
ENDBLK
  5
10
100
AcDbEntity
 67
               1
  8
0
390
0
100
AcDbBlockEnd
  0
BLOCK
  5
46
100
AcDbEntity
  8
0
390
0
100
AcDbBlockBegin
  2
_DOT
 70
               0
 10
0.0
 20
0.0
 30
0.0
  3
_DOT
  1

  0
POLYLINE
  5
47
100
AcDbEntity
  8
0
370
              -2
390
0
  6
ByBlock
 62
               0
100
AcDb2dPolyline
 66
               1
 10
0.0
 20
0.0
 30
0.0
 70
               1
 40
0.5
 41
0.5
  0
VERTEX
  5
48
100
AcDbEntity
  8
0
370
              -2
390
0
  6
ByBlock
 62
               0
100
AcDbVertex
100
AcDb2dVertex
 10
-0.25
 20
0.0
 30
0.0
 42
1.0
  0
VERTEX
  5
49
100
AcDbEntity
  8
0
370
              -2
390
0
  6
ByBlock
 62
               0
100
AcDbVertex
100
AcDb2dVertex
 10
0.25
 20
0.0
 30
0.0
 42
1.0
  0
SEQEND
  5
4A
100
AcDbEntity
  8
0
390
0
  0
LINE
  5
4B
100
AcDbEntity
  8
0
370
              -2
390
0
  6
ByBlock
 62
               0
100
AcDbLine
 10
-0.5
 20
0.0
 30
0.0
 11
-1.0
 21
0.0
 31
0.0
  0
ENDBLK
  5
4C
100
AcDbEntity
  8
0
390
0
100
AcDbBlockEnd
  0
BLOCK
  5
4F
100
AcDbEntity
  8
0
370
              -2
390
0
  6
ByBlock
 62
               0
100
AcDbBlockBegin
  2
VW_SLASH
 70
               0
 10
0.0
 20
0.0
 30
0.0
  3
VW_SLASH
  1

  0
LINE
  5
50
100
AcDbEntity
  8
0
370
              -2
390
0
  6
ByBlock
 62
               0
100
AcDbLine
 10
0.0
 20
0.0
 30
0.0
 11
-1.0
 21
0.0
 31
0.0
  0
LINE
  5
51
100
AcDbEntity
  8
0
370
              20
390
0
  6
ByBlock
 62
               0
100
AcDbLine
 10
-0.4987813153181721
 20
-0.4987813153181719
 30
0.0
 11
0.4987813153181721
 21
0.4987813153181719
 31
0.0
  0
ENDBLK
  5
52
100
AcDbEntity
  8
0
390
0
100
AcDbBlockEnd
  0
BLOCK
  5
54
100
AcDbEntity
  8
0
370
              -2
390
0
  6
ByBlock
 62
               0
100
AcDbBlockBegin
  2
VW_FILLEDARROW
 70
               0
 10
0.0
 20
0.0
 30
0.0
  3
VW_FILLEDARROW
  1

  0
SOLID
  5
55
100
AcDbEntity
  8
0
370
              -2
390
0
 62
               0
100
AcDbTrace
 10
0.0
 20
0.0
 30
0.0
 11
-1.4107666015625
 21
-0.3780137715974714
 31
0.0
 12
-1.4107666015625
 22
0.3780137715974717
 32
0.0
 13
-1.4107666015625
 23
0.3780137715974717
 33
0.0
  0
ENDBLK
  5
56
100
AcDbEntity
  8
0
390
0
100
AcDbBlockEnd
  0
BLOCK
  5
58
100
AcDbEntity
  8
template
390
0
100
AcDbBlockBegin
  2
グループ
 70
               0
 10
0.0
 20
0.0
 30
0.0
  3
グループ
  1

  0
LWPOLYLINE
  5
59
100
AcDbEntity
  8
0
370
              15
390
0
  6
Continuous
 62
               7
100
AcDbPolyline
 90
        8
 70
             129
 10
-9730.737330579148
 20
12.226140851314085
 10
-9730.737330579148
 20
6.2287521577381995
 10
-9740.2385274971512
 20
6.2287521577381995
 10
-9740.2385274971512
 20
-18.222211105770612
 10
-9748.5939047589345
 20
-18.222211105770612
 10
-9748.5939047589345
 20
6.2287521577381995
 10
-9757.9268617052439
 20
6.2287521577381995
 10
-9757.9268617052439
 20
12.226140851314085
  0
LWPOLYLINE
  5
5A
100
AcDbEntity
  8
0
370
              15
390
0
  6
Continuous
 62
               7
100
AcDbPolyline
 90
      101
 70
             128
 10
-9718.0090387485907
 20
11.497892358377612
 10
-9717.9936887198055
 20
11.502253115062956
 42
-0.0222221607804918
 10
-9717.7036841431345
 20
11.570877580307297
 10
-9717.6878903791385
 20
11.573881003404656
 42
-0.0146883565611582
 10
-9717.4251876739181
 20
11.615884190353654
 42
-0.0127458844218893
 10
-9717.1605487067627
 20
11.643421158426264
 10
-9717.0980936284504
 20
11.648314581014347
 42
-0.0198099018574184
 10
-9716.7072445189751
 20
11.663399738410984
 10
-9716.655433049531
 20
11.663345962745893
 42
-0.0147617382767043
 10
-9716.1608095885604
 20
11.6482259375012
 10
-9716.0881181336808
 20
11.643853330613277
 42
-0.0162624548991492
 10
-9715.6979645042156
 20
11.607620455341021
 10
-9715.5764321129591
 20
11.5923338963447
 42
-0.0080020874636317
 10
-9715.4308530818671
 20
11.571651049076081
 10
-9715.3925336112752
 20
11.56557977126551
 42
-0.0053821929685976
 10
-9715.3240495059563
 20
11.553972247443426
 10
-9716.0504552051552
 20
9.3730437917295149
 42
0.0108667757387297
 10
-9716.1177722752964
 20
9.3862309069513188
 10
-9716.1552402984744
 20
9.3927286495438693
 42
0.0170663203318205
 10
-9716.2984570853932
 20
9.4125582468358058
 10
-9716.3663324180743
 20
9.4196054174230994
 42
0.0220162375259636
 10
-9716.6467118259279
 20
9.4362877781932344
 10
-9716.7245673929792
 20
9.437487145459702
 42
0.0282606915763867
 10
-9717.060203716559
 20
9.4236838684906843
 10
-9717.104116990331
 20
9.4193838784869701
 42
0.0169677213714788
 10
-9717.3500414852897
 20
9.3868468289350631
 42
0.019057626985049
 10
-9717.5929494478678
 20
9.3366999568290474
 10
-9717.5992086359802
 20
9.3351569827193543
 42
0.0213685642876309
 10
-9717.8495931204689
 20
9.2619566976119163
 10
-9717.8550830153763
 20
9.2600937015555473
 42
0.0237595297572483
 10
-9718.1085779002806
 20
9.1604091796569254
 10
-9718.1136799743035
 20
9.1581174041817803
 42
0.0261857468830822
 10
-9718.3658507505315
 20
9.0285810668077655
 10
-9718.3762769396199
 20
9.0225155923383902
 42
0.0272553062012276
 10
-9718.6127067148591
 20
8.8671433863945595
 10
-9718.6474697283611
 20
8.8414822383082576
 42
0.0325996893144174
 10
-9718.7976250720203
 20
8.714734365330969
 10
-9718.82133450115
 20
8.6919163368119445
 42
0.0138050960736835
 10
-9718.913217657353
 20
8.5984666752664225
 42
0.0125280103816421
 10
-9719.0000601901884
 20
8.500303348663067
 10
-9719.0237406350934
 20
8.472144850479026
 42
0.0205218024736953
 10
-9719.1488407106117
 20
8.3103515362459373
 10
-9719.1713070510959
 20
8.2786918064230122
 42
0.0163110129636501
 10
-9719.3270174303379
 20
8.0433613713656555
 10
-9719.3297413263972
 20
8.0389376093676219
 42
0.0131897341871797
 10
-9719.4765418472871
 20
7.7858055170334755
 10
-9719.4782419426701
 20
7.7826872778674669
 42
0.0107895576102053
 10
-9719.6160186449051
 20
7.5164720681829031
 10
-9719.6167515344059
 20
7.5149778355857961
 42
0.0091371507221397
 10
-9719.7452314830807
 20
7.2404526377701757
 10
-9719.7749771144645
 20
7.1737461306673822
 42
0.0135418326375173
 10
-9719.9466910535557
 20
6.7588083453467585
 10
-9719.9802958619912
 20
6.6709422030603989
 42
0.0092834542445056
 10
-9720.1515249218901
 20
6.1970437048120175
 10
-9720.1771420496189
 20
6.1218026349881107
 42
0.0054261043597709
 10
-9720.2847801979005
 20
5.7940386619535502
 10
-9720.3023061842105
 20
5.7386504993033967
 42
0.000822509082486
 10
-9720.3709762359103
 20
5.5203817415742833
 10
-9721.3556653678424
 20
2.4954904483176961
 10
-9718.1230415277696
 20
2.4954904483176961
 10
-9718.6272339576226
 20
0.5910121499653087
 10
-9721.8832902396061
 20
0.5910121499653087
 10
-9727.7124392719597
 20
-18.222210916039558
 10
-9729.5375368822697
 20
-18.222210916039558
 10
-9723.7028588467692
 20
0.5910121499653087
 10
-9726.1079752158093
 20
0.5910121499653087
 10
-9725.6037827859564
 20
2.4954904483176961
 10
-9723.1752339750055
 20
2.4954904483176961
 10
-9722.3150790568179
 20
5.1319034490165905
 42
-0.0005863560591329
 10
-9722.2783443785156
 20
5.2487298696230358
 10
-9722.2022565449552
 20
5.4897221686937883
 42
-0.0087522378925678
 10
-9722.0027884015108
 20
6.0849982558035256
 10
-9721.9105241260695
 20
6.3451384243974971
 42
-0.0077400953811427
 10
-9721.6525904669525
 20
7.0381431019014826
 10
-9721.6368254953886
 20
7.0785739852506557
 42
-0.0082369946325774
 10
-9721.3897410247628
 20
7.6826530514832712
 42
-0.0085725238366302
 10
-9721.1224949287971
 20
8.2780790906896975
 10
-9721.020865327755
 20
8.4945001927498627
 42
-0.0168109410599648
 10
-9720.7339208990215
 20
9.0557077188598214
 10
-9720.6080775083283
 20
9.2826717522804767
 42
-0.0007817726764298
 10
-9720.5537931585059
 20
9.3802159968882961
 10
-9720.5536648524667
 20
9.3804457056645241
 42
-0.0036626142147802
 10
-9720.4987769884683
 20
9.4770435855932647
 42
-0.0080221150657573
 10
-9720.4416527330941
 20
9.5723228202916779
 10
-9720.4109527816981
 20
9.6217137694683288
 42
-0.0202139325613615
 10
-9720.2832970418804
 20
9.8096953701642597
 10
-9720.2292295767038
 20
9.8827742343905811
 42
-0.0249323791807841
 10
-9719.970066782982
 20
10.198819476549048
 10
-9719.9459269688596
 20
10.225433749457466
 42
-0.024213212153446
 10
-9719.6062462273076
 20
10.565317235668664
 10
-9719.5583346545645
 20
10.60882637184827
 42
-0.0251017527846308
 10
-9719.2743529539257
 20
10.841819117612317
 10
-9719.2729074771069
 20
10.842888375194418
 42
-0.0130868069050259
 10
-9718.9746468271551
 20
11.051668843733751
 10
-9718.973085008005
 20
11.052702284013915
 42
-0.0290329526367986
 10
-9718.6619738666195
 20
11.233527785638103
 10
-9718.6321283046364
 20
11.248630168475929
 42
-0.0160250190033948
 10
-9718.3662238908692
 20
11.372646278690922
 42
-0.0267600374790456
 10
-9718.0909478134035
 20
11.473394599238297
 10
-9718.0642118938777
 20
11.481587158065167
 42
-0.0049981587558118
 10
-9718.0090387485907
 20
11.497892358377612
 42
-0.0049981587558118
  0
LWPOLYLINE
  5
5B
100
AcDbEntity
  8
0
370
              15
390
0
  6
Continuous
 62
               7
100
AcDbPolyline
 90
      118
 70
             128
 10
-9698.1946711841447
 20
2.4215071204903325
 10
-9696.3195492596442
 20
2.4215071204903325
 10
-9697.1575881652443
 20
-0.2600594059097148
 42
-0.001058722934814
 10
-9697.1261323498093
 20
-0.2231548727142918
 10
-9697.0679382590406
 20
-0.1551726163786498
 42
-0.0071874740405263
 10
-9696.9175630409718
 20
0.0154680756168325
 10
-9696.7758402676809
 20
0.1717042169635761
 42
-0.0148118053520015
 10
-9696.3257109749829
 20
0.6393180629612579
 10
-9696.2384886400614
 20
0.7247153838338362
 42
-0.0086273358692549
 10
-9695.9029398390576
 20
1.0420910178465874
 10
-9695.8591061228253
 20
1.0821406621850682
 42
-0.0103138323125748
 10
-9695.6010824205987
 20
1.3083037995179438
 10
-9695.5553080142945
 20
1.3467858467582106
 42
-0.0060206748531572
 10
-9695.3824599501586
 20
1.4885804975325527
 10
-9695.3804288193242
 20
1.4902062031220278
 42
-0.0067069027368128
 10
-9695.2081360046104
 20
1.624356836958782
 10
-9695.2055872386827
 20
1.6262870068354898
 42
-0.0076184352059364
 10
-9695.0346819728129
 20
1.7516618820778831
 42
-0.0089652861666957
 10
-9694.8597210100925
 20
1.87129514240182
 10
-9694.8233692899194
 20
1.8952063559029371
 42
-0.0156916245933716
 10
-9694.6274097927726
 20
2.0154688423677953
 42
-0.0023299011070378
 10
-9694.427147748911
 20
2.1286467818424843
 10
-9694.4117636164119
 20
2.1372467769733703
 42
-0.0107669341519148
 10
-9694.1775267913054
 20
2.2616469103259891
 10
-9694.1552619902359
 20
2.2728636602728329
 42
-0.0078058045879636
 10
-9693.8716718723044
 20
2.4102251159022563
 10
-9693.8617647845749
 20
2.414834243779751
 42
-0.0181829330462606
 10
-9693.5514553799549
 20
2.5456979848767851
 10
-9693.4973999373906
 20
2.5662131048194627
 42
-0.0208411536037052
 10
-9693.1483149699416
 20
2.682303567312033
 10
-9693.1339588698138
 20
2.6864220122657612
 42
-0.0222799817152202
 10
-9692.8052390758967
 20
2.7650635784058295
 10
-9692.7963501126542
 20
2.7667755889917864
 42
-0.0215509523879878
 10
-9692.4798791443809
 20
2.8136912775252085
 10
-9692.437397183332
 20
2.8181288043160757
 42
-0.0182545924849089
 10
-9692.2032884040273
 20
2.8339726297069774
 10
-9692.1638873876873
 20
2.8351971747859808
 42
-0.0072962856523927
 10
-9692.0079645079895
 20
2.8377665033083304
 10
-9691.9788648374197
 20
2.837821338712069
 42
-0.0059227516355714
 10
-9691.881115338274
 20
2.8368476269216671
 10
-9691.8518731207769
 20
2.8362098603178469
 42
-0.0011833111690222
 10
-9691.8126218370689
 20
2.8352608560082899
 10
-9692.608008432675
 20
0.2965269109092787
 42
0.0143932051229474
 10
-9692.6344098150221
 20
0.3067258809526165
 10
-9692.6416817874451
 20
0.3092970998119426
 42
0.0234388603466522
 10
-9692.6835126533751
 20
0.3219163355271066
 10
-9692.6921943162888
 20
0.324097297532262
 42
0.0199162742983177
 10
-9692.7524831503724
 20
0.3367140328680425
 10
-9692.7732970881752
 20
0.3402112322958146
 42
0.0293643550686876
 10
-9692.8763719469316
 20
0.3513612779487942
 10
-9692.9010571276558
 20
0.3525728949675795
 42
0.0214606686833177
 10
-9693.0541980436046
 20
0.3535114553850983
 10
-9693.0635699544255
 20
0.3531665438407572
 42
0.0167564054198656
 10
-9693.2350901455375
 20
0.3410895014723148
 10
-9693.2435499382918
 20
0.3402081610455525
 42
0.0137677553251277
 10
-9693.4309032515575
 20
0.3154588525021156
 10
-9693.4382549910661
 20
0.314280932534075
 42
0.011849726147984
 10
-9693.6387527551633
 20
0.2772635823459309
 10
-9693.6449027624149
 20
0.2759767196248504
 42
0.0106421143925204
 10
-9693.8557836497112
 20
0.2271443440466375
 10
-9693.8606924580872
 20
0.2258970013649559
 42
0.0099746379665303
 10
-9694.0791509272203
 20
0.1657224730586504
 10
-9694.1406989674197
 20
0.1474405944195496
 42
0.0191613675871533
 10
-9694.4766834299371
 20
0.0334632141319226
 10
-9694.5647432026708
 20
-0.0002236961878407
 42
0.0205274080155187
 10
-9694.9500499745809
 20
-0.1660521040180356
 10
-9695.0076992565391
 20
-0.1937200685787956
 42
0.0181256912195956
 10
-9695.2659761972318
 20
-0.329403887568219
 10
-9695.3189315805648
 20
-0.3597215007940827
 42
0.0140709242415152
 10
-9695.4638865151719
 20
-0.4482161742173503
 10
-9695.4901353837849
 20
-0.4652729929287706
 42
0.0086667884420454
 10
-9695.5790615453334
 20
-0.5252756608156233
 42
0.0036408191969194
 10
-9695.6664947832705
 20
-0.5874565185381147
 10
-9695.701721657837
 20
-0.6128974645207563
 42
0.00522607812758
 10
-9695.8579503552464
 20
-0.7282298511701113
 10
-9695.8741572114868
 20
-0.7404579617731315
 42
0.0050024435897387
 10
-9696.0601605545362
 20
-0.8837405300281891
 10
-9696.07547871106
 20
-0.8957865524811268
 42
0.0136138710284263
 10
-9696.2859199793565
 20
-1.0707530573690616
 10
-9696.3195878551796
 20
-1.1003320301086887
 42
0.0172815186900342
 10
-9696.5839913968321
 20
-1.3493287027207408
 10
-9696.5865537426853
 20
-1.3519145198791875
 42
0.018940385798046
 10
-9696.8371355412492
 20
-1.6247197846656727
 10
-9696.8697670347974
 20
-1.6630637161758104
 42
0.0185044199481792
 10
-9697.0617234737801
 20
-1.9063122973035433
 42
0.0088565243899946
 10
-9697.2401835804194
 20
-2.1598287174684478
 10
-9697.2493615600579
 20
-2.1733700972135921
 42
0.0157195347203496
 10
-9697.432582166397
 20
-2.462892306538095
 10
-9697.4786651083141
 20
-2.5410445035351241
 42
0.0095451879778681
 10
-9697.6437506584589
 20
-2.833639145906659
 10
-9697.6548985773679
 20
-2.8543098179994413
 42
0.0100351706246611
 10
-9697.7869423265474
 20
-3.1113653785293991
 42
0.0086935915417325
 10
-9697.9092734783117
 20
-3.373198523864863
 10
-9697.912594219757
 20
-3.380640846905635
 42
0.0072580174911105
 10
-9698.0329406717228
 20
-3.6612328385420891
 10
-9698.0362023050075
 20
-3.6691528645066001
 42
0.0060005122658386
 10
-9698.155402973347
 20
-3.9687625351061566
 10
-9698.1586139516912
 20
-3.9771240630165039
 42
0.0049017786949833
 10
-9698.2775141105485
 20
-4.2960530436143891
 10
-9698.2806799169412
 20
-4.3048059808512562
 42
0.0039415167597318
 10
-9698.4001161949909
 20
-4.6433480432447842
 10
-9698.4032472976505
 20
-4.6524512441405932
 42
0.003103583874435
 10
-9698.5240520833431
 20
-5.0108911059162455
 10
-9698.5271621278735
 20
-5.0203117272889131
 42
0.0025070747137291
 10
-9698.6500634792574
 20
-5.3989589444481867
 10
-9698.6873573756129
 20
-5.515850609485824
 42
0.0029081910276532
 10
-9698.8793756734358
 20
-6.1300142678138343
 10
-9698.9201788419414
 20
-6.2632375100533864
 42
0.0009266453724702
 10
-9699.1885962163669
 20
-7.1454619703423194
 10
-9699.2094836892757
 20
-7.2145738504657517
 42
-0.0005809993661053
 10
-9699.4868203694878
 20
-8.1283819558517507
 10
-9699.5531021677671
 20
-8.3458668880303541
 42
-0.0012018708180676
 10
-9699.7000864771908
 20
-8.8240295525321244
 10
-9699.7524063286346
 20
-8.9927886930093308
 42
-0.000269105961877
 10
-9699.7959758099241
 20
-9.1330563137398713
 10
-9702.6289317082137
 20
-18.222210916039558
 10
-9704.4469206001922
 20
-18.222210916039558
 10
-9698.1946711841447
 20
2.4215071204903325
  0
SPLINE
  5
5C
100
AcDbEntity
  8
0
370
              15
390
0
  6
Continuous
 62
               7
100
AcDbSpline
210
0.0
220
0.0
230
1.0
 70
              13
 71
               2
 72
             782
 73
             779
 74
               0
 42
0.000001
 43
0.000001
 40
0.0
 40
0.0
 40
0.0
 40
1.0
 40
1.0
 40
2.0
 40
2.0
 40
3.0
 40
3.0
 40
4.0
 40
4.0
 40
5.0
 40
5.0
 40
6.0
 40
6.0
 40
7.0
 40
7.0
 40
8.0
 40
8.0
 40
9.0
 40
9.0
 40
10.0
 40
10.0
 40
11.0
 40
11.0
 40
12.0
 40
12.0
 40
13.0
 40
13.0
 40
14.0
 40
14.0
 40
15.0
 40
15.0
 40
16.0
 40
16.0
 40
17.0
 40
17.0
 40
18.0
 40
18.0
 40
19.0
 40
19.0
 40
20.0
 40
20.0
 40
21.0
 40
21.0
 40
22.0
 40
22.0
 40
23.0
 40
23.0
 40
24.0
 40
24.0
 40
25.0
 40
25.0
 40
26.0
 40
26.0
 40
27.0
 40
27.0
 40
28.0
 40
28.0
 40
29.0
 40
29.0
 40
30.0
 40
30.0
 40
31.0
 40
31.0
 40
32.0
 40
32.0
 40
33.0
 40
33.0
 40
34.0
 40
34.0
 40
35.0
 40
35.0
 40
36.0
 40
36.0
 40
37.0
 40
37.0
 40
38.0
 40
38.0
 40
39.0
 40
39.0
 40
40.0
 40
40.0
 40
41.0
 40
41.0
 40
42.0
 40
42.0
 40
43.0
 40
43.0
 40
44.0
 40
44.0
 40
45.0
 40
45.0
 40
46.0
 40
46.0
 40
47.0
 40
47.0
 40
48.0
 40
48.0
 40
49.0
 40
49.0
 40
50.0
 40
50.0
 40
51.0
 40
51.0
 40
52.0
 40
52.0
 40
53.0
 40
53.0
 40
54.0
 40
54.0
 40
55.0
 40
55.0
 40
56.0
 40
56.0
 40
57.0
 40
57.0
 40
58.0
 40
58.0
 40
59.0
 40
59.0
 40
60.0
 40
60.0
 40
61.0
 40
61.0
 40
62.0
 40
62.0
 40
63.0
 40
63.0
 40
64.0
 40
64.0
 40
65.0
 40
65.0
 40
66.0
 40
66.0
 40
67.0
 40
67.0
 40
68.0
 40
68.0
 40
69.0
 40
69.0
 40
70.0
 40
70.0
 40
71.0
 40
71.0
 40
72.0
 40
72.0
 40
73.0
 40
73.0
 40
74.0
 40
74.0
 40
75.0
 40
75.0
 40
76.0
 40
76.0
 40
77.0
 40
77.0
 40
78.0
 40
78.0
 40
79.0
 40
79.0
 40
80.0
 40
80.0
 40
81.0
 40
81.0
 40
82.0
 40
82.0
 40
83.0
 40
83.0
 40
84.0
 40
84.0
 40
85.0
 40
85.0
 40
86.0
 40
86.0
 40
87.0
 40
87.0
 40
88.0
 40
88.0
 40
89.0
 40
89.0
 40
90.0
 40
90.0
 40
91.0
 40
91.0
 40
92.0
 40
92.0
 40
93.0
 40
93.0
 40
94.0
 40
94.0
 40
95.0
 40
95.0
 40
96.0
 40
96.0
 40
97.0
 40
97.0
 40
98.0
 40
98.0
 40
99.0
 40
99.0
 40
100.0
 40
100.0
 40
101.0
 40
101.0
 40
102.0
 40
102.0
 40
103.0
 40
103.0
 40
104.0
 40
104.0
 40
105.0
 40
105.0
 40
106.0
 40
106.0
 40
107.0
 40
107.0
 40
108.0
 40
108.0
 40
109.0
 40
109.0
 40
110.0
 40
110.0
 40
111.0
 40
111.0
 40
112.0
 40
112.0
 40
113.0
 40
113.0
 40
114.0
 40
114.0
 40
115.0
 40
115.0
 40
116.0
 40
116.0
 40
117.0
 40
117.0
 40
118.0
 40
118.0
 40
119.0
 40
119.0
 40
120.0
 40
120.0
 40
121.0
 40
121.0
 40
122.0
 40
122.0
 40
123.0
 40
123.0
 40
124.0
 40
124.0
 40
125.0
 40
125.0
 40
126.0
 40
126.0
 40
127.0
 40
127.0
 40
128.0
 40
128.0
 40
129.0
 40
129.0
 40
130.0
 40
130.0
 40
131.0
 40
131.0
 40
132.0
 40
132.0
 40
133.0
 40
133.0
 40
134.0
 40
134.0
 40
135.0
 40
135.0
 40
136.0
 40
136.0
 40
137.0
 40
137.0
 40
138.0
 40
138.0
 40
139.0
 40
139.0
 40
140.0
 40
140.0
 40
141.0
 40
141.0
 40
142.0
 40
142.0
 40
143.0
 40
143.0
 40
144.0
 40
144.0
 40
145.0
 40
145.0
 40
146.0
 40
146.0
 40
147.0
 40
147.0
 40
148.0
 40
148.0
 40
149.0
 40
149.0
 40
150.0
 40
150.0
 40
151.0
 40
151.0
 40
152.0
 40
152.0
 40
153.0
 40
153.0
 40
154.0
 40
154.0
 40
155.0
 40
155.0
 40
156.0
 40
156.0
 40
157.0
 40
157.0
 40
158.0
 40
158.0
 40
159.0
 40
159.0
 40
160.0
 40
160.0
 40
161.0
 40
161.0
 40
162.0
 40
162.0
 40
163.0
 40
163.0
 40
164.0
 40
164.0
 40
165.0
 40
165.0
 40
166.0
 40
166.0
 40
167.0
 40
167.0
 40
168.0
 40
168.0
 40
169.0
 40
169.0
 40
170.0
 40
170.0
 40
171.0
 40
171.0
 40
172.0
 40
172.0
 40
173.0
 40
173.0
 40
174.0
 40
174.0
 40
175.0
 40
175.0
 40
176.0
 40
176.0
 40
177.0
 40
177.0
 40
178.0
 40
178.0
 40
179.0
 40
179.0
 40
180.0
 40
180.0
 40
181.0
 40
181.0
 40
182.0
 40
182.0
 40
183.0
 40
183.0
 40
184.0
 40
184.0
 40
185.0
 40
185.0
 40
186.0
 40
186.0
 40
187.0
 40
187.0
 40
188.0
 40
188.0
 40
189.0
 40
189.0
 40
190.0
 40
190.0
 40
191.0
 40
191.0
 40
192.0
 40
192.0
 40
193.0
 40
193.0
 40
194.0
 40
194.0
 40
195.0
 40
195.0
 40
196.0
 40
196.0
 40
197.0
 40
197.0
 40
198.0
 40
198.0
 40
199.0
 40
199.0
 40
200.0
 40
200.0
 40
201.0
 40
201.0
 40
202.0
 40
202.0
 40
203.0
 40
203.0
 40
204.0
 40
204.0
 40
205.0
 40
205.0
 40
206.0
 40
206.0
 40
207.0
 40
207.0
 40
208.0
 40
208.0
 40
209.0
 40
209.0
 40
210.0
 40
210.0
 40
211.0
 40
211.0
 40
212.0
 40
212.0
 40
213.0
 40
213.0
 40
214.0
 40
214.0
 40
215.0
 40
215.0
 40
216.0
 40
216.0
 40
217.0
 40
217.0
 40
218.0
 40
218.0
 40
219.0
 40
219.0
 40
220.0
 40
220.0
 40
221.0
 40
221.0
 40
222.0
 40
222.0
 40
223.0
 40
223.0
 40
224.0
 40
224.0
 40
225.0
 40
225.0
 40
226.0
 40
226.0
 40
227.0
 40
227.0
 40
228.0
 40
228.0
 40
229.0
 40
229.0
 40
230.0
 40
230.0
 40
231.0
 40
231.0
 40
232.0
 40
232.0
 40
233.0
 40
233.0
 40
234.0
 40
234.0
 40
235.0
 40
235.0
 40
236.0
 40
236.0
 40
237.0
 40
237.0
 40
238.0
 40
238.0
 40
239.0
 40
239.0
 40
240.0
 40
240.0
 40
241.0
 40
241.0
 40
242.0
 40
242.0
 40
243.0
 40
243.0
 40
244.0
 40
244.0
 40
245.0
 40
245.0
 40
246.0
 40
246.0
 40
247.0
 40
247.0
 40
248.0
 40
248.0
 40
249.0
 40
249.0
 40
250.0
 40
250.0
 40
251.0
 40
251.0
 40
252.0
 40
252.0
 40
253.0
 40
253.0
 40
254.0
 40
254.0
 40
255.0
 40
255.0
 40
256.0
 40
256.0
 40
257.0
 40
257.0
 40
258.0
 40
258.0
 40
259.0
 40
259.0
 40
260.0
 40
260.0
 40
261.0
 40
261.0
 40
262.0
 40
262.0
 40
263.0
 40
263.0
 40
264.0
 40
264.0
 40
265.0
 40
265.0
 40
266.0
 40
266.0
 40
267.0
 40
267.0
 40
268.0
 40
268.0
 40
269.0
 40
269.0
 40
270.0
 40
270.0
 40
271.0
 40
271.0
 40
272.0
 40
272.0
 40
273.0
 40
273.0
 40
274.0
 40
274.0
 40
275.0
 40
275.0
 40
276.0
 40
276.0
 40
277.0
 40
277.0
 40
278.0
 40
278.0
 40
279.0
 40
279.0
 40
280.0
 40
280.0
 40
281.0
 40
281.0
 40
282.0
 40
282.0
 40
283.0
 40
283.0
 40
284.0
 40
284.0
 40
285.0
 40
285.0
 40
286.0
 40
286.0
 40
287.0
 40
287.0
 40
288.0
 40
288.0
 40
289.0
 40
289.0
 40
290.0
 40
290.0
 40
291.0
 40
291.0
 40
292.0
 40
292.0
 40
293.0
 40
293.0
 40
294.0
 40
294.0
 40
295.0
 40
295.0
 40
296.0
 40
296.0
 40
297.0
 40
297.0
 40
298.0
 40
298.0
 40
299.0
 40
299.0
 40
300.0
 40
300.0
 40
301.0
 40
301.0
 40
302.0
 40
302.0
 40
303.0
 40
303.0
 40
304.0
 40
304.0
 40
305.0
 40
305.0
 40
306.0
 40
306.0
 40
307.0
 40
307.0
 40
308.0
 40
308.0
 40
309.0
 40
309.0
 40
310.0
 40
310.0
 40
311.0
 40
311.0
 40
312.0
 40
312.0
 40
313.0
 40
313.0
 40
314.0
 40
314.0
 40
315.0
 40
315.0
 40
316.0
 40
316.0
 40
317.0
 40
317.0
 40
318.0
 40
318.0
 40
319.0
 40
319.0
 40
320.0
 40
320.0
 40
321.0
 40
321.0
 40
322.0
 40
322.0
 40
323.0
 40
323.0
 40
324.0
 40
324.0
 40
325.0
 40
325.0
 40
326.0
 40
326.0
 40
327.0
 40
327.0
 40
328.0
 40
328.0
 40
329.0
 40
329.0
 40
330.0
 40
330.0
 40
331.0
 40
331.0
 40
332.0
 40
332.0
 40
333.0
 40
333.0
 40
334.0
 40
334.0
 40
335.0
 40
335.0
 40
336.0
 40
336.0
 40
337.0
 40
337.0
 40
338.0
 40
338.0
 40
339.0
 40
339.0
 40
340.0
 40
340.0
 40
341.0
 40
341.0
 40
342.0
 40
342.0
 40
343.0
 40
343.0
 40
344.0
 40
344.0
 40
345.0
 40
345.0
 40
346.0
 40
346.0
 40
347.0
 40
347.0
 40
348.0
 40
348.0
 40
349.0
 40
349.0
 40
350.0
 40
350.0
 40
351.0
 40
351.0
 40
352.0
 40
352.0
 40
353.0
 40
353.0
 40
354.0
 40
354.0
 40
355.0
 40
355.0
 40
356.0
 40
356.0
 40
357.0
 40
357.0
 40
358.0
 40
358.0
 40
359.0
 40
359.0
 40
360.0
 40
360.0
 40
361.0
 40
361.0
 40
362.0
 40
362.0
 40
363.0
 40
363.0
 40
364.0
 40
364.0
 40
365.0
 40
365.0
 40
366.0
 40
366.0
 40
367.0
 40
367.0
 40
368.0
 40
368.0
 40
369.0
 40
369.0
 40
370.0
 40
370.0
 40
371.0
 40
371.0
 40
372.0
 40
372.0
 40
373.0
 40
373.0
 40
374.0
 40
374.0
 40
375.0
 40
375.0
 40
376.0
 40
376.0
 40
377.0
 40
377.0
 40
378.0
 40
378.0
 40
379.0
 40
379.0
 40
380.0
 40
380.0
 40
381.0
 40
381.0
 40
382.0
 40
382.0
 40
383.0
 40
383.0
 40
384.0
 40
384.0
 40
385.0
 40
385.0
 40
386.0
 40
386.0
 40
387.0
 40
387.0
 40
388.0
 40
388.0
 40
389.0
 40
389.0
 40
389.0
 10
-9687.8659667334105
 20
2.4324334838527193
 30
0.0
 41
1.0
 10
-9687.0475426246903
 20
2.4324334838527193
 30
0.0
 41
1.0
 10
-9686.2291185159702
 20
2.4324334838527193
 30
0.0
 41
1.0
 10
-9686.6428722514866
 20
1.0898072196030171
 30
0.0
 41
1.0
 10
-9687.0566259870029
 20
-0.2528190446466851
 30
0.0
 41
1.0
 10
-9687.0382864918192
 20
-0.2241182717100194
 30
0.0
 41
0.999995726443041
 10
-9687.0197794949672
 20
-0.1955252215286961
 30
0.0
 41
1.0
 10
-9686.9893501708484
 20
-0.1485123431807686
 30
0.0
 41
1.0
 10
-9686.9589208467296
 20
-0.1014994648328411
 30
0.0
 41
1.0
 10
-9686.8795552016127
 20
0.0211193420875861
 30
0.0
 41
0.9995394069082999
 10
-9686.792896810055
 20
0.1386974038378303
 30
0.0
 41
1.0
 10
-9686.7571399478002
 20
0.1872122964227372
 30
0.0
 41
1.0
 10
-9686.7213830855471
 20
0.2357271890076442
 30
0.0
 41
1.0
 10
-9686.5876564177288
 20
0.4171674641336231
 30
0.0
 41
0.9994460617142932
 10
-9686.4421559364455
 20
0.5893098617756323
 30
0.0
 41
1.0
 10
-9686.437767755473
 20
0.5945015421560435
 30
0.0
 41
1.0
 10
-9686.4333795744988
 20
0.5996932225364546
 30
0.0
 41
1.0
 10
-9686.296655455164
 20
0.761452259419633
 30
0.0
 41
0.9994359394933087
 10
-9686.1493812248082
 20
0.9136684605898608
 30
0.0
 41
1.0
 10
-9686.1469978708483
 20
0.9161317909690105
 30
0.0
 41
1.0
 10
-9686.1446145168902
 20
0.9185951213481604
 30
0.0
 41
1.0
 10
-9686.0021069944596
 20
1.065884661752333
 30
0.0
 41
0.9995293688568137
 10
-9685.8508353134748
 20
1.2041578739186889
 30
0.0
 41
1.0
 10
-9685.8315415542165
 20
1.2217937595645072
 30
0.0
 41
1.0
 10
-9685.8122477949601
 20
1.2394296452103253
 30
0.0
 41
1.0
 10
-9685.6995636324918
 20
1.3424310860820627
 30
0.0
 41
0.9997087614804278
 10
-9685.5820407435367
 20
1.4398753668806421
 30
0.0
 41
1.0
 10
-9685.5628746703442
 20
1.4557669454030475
 30
0.0
 41
1.0
 10
-9685.5437085971498
 20
1.4716585239254532
 30
0.0
 41
1.0
 10
-9685.4645178545343
 20
1.5373196477155888
 30
0.0
 41
0.9999595338695985
 10
-9685.3841585837254
 20
1.6015453783335261
 30
0.0
 41
1.0
 10
-9685.3037993128783
 20
1.6657711089839879
 30
0.0
 41
0.9999749417513774
 10
-9685.2225387785475
 20
1.7288526629188123
 30
0.0
 41
1.0
 10
-9685.2015526323739
 20
1.7451439502283184
 30
0.0
 41
1.0
 10
-9685.1805664862022
 20
1.7614352375378242
 30
0.0
 41
1.0
 10
-9685.0959986008929
 20
1.827084247385961
 30
0.0
 41
0.9999792037118362
 10
-9685.0105910011262
 20
1.8916370290274926
 30
0.0
 41
1.0
 10
-9684.9897661755313
 20
1.9073768510451554
 30
0.0
 41
1.0
 10
-9684.9689413499382
 20
1.923116673062818
 30
0.0
 41
1.0
 10
-9684.9251834015577
 20
1.9561898105190838
 30
0.0
 41
0.9999993373833852
 10
-9684.8815017152119
 20
1.9893636060951394
 30
0.0
 41
1.0
 10
-9684.8378200290972
 20
2.0225374015001911
 30
0.0
 41
0.999916095381176
 10
-9684.7932936181805
 20
2.0545684666953687
 30
0.0
 41
1.0
 10
-9684.7604717307458
 20
2.0781796222912998
 30
0.0
 41
1.0
 10
-9684.7276498433112
 20
2.1017907778872313
 30
0.0
 41
1.0
 10
-9684.6174796575506
 20
2.1810441542566332
 30
0.0
 41
0.9980964527231997
 10
-9684.4983906640409
 20
2.2461316271172107
 30
0.0
 41
1.0
 10
-9684.4613580571149
 20
2.2663716067087845
 30
0.0
 41
1.0
 10
-9684.4243254501889
 20
2.2866115863003582
 30
0.0
 41
1.0
 10
-9684.2449984369214
 20
2.3846218369991865
 30
0.0
 41
0.9984572810571922
 10
-9684.0559098705635
 20
2.4621440983449929
 30
0.0
 41
1.0
 10
-9684.0522636011719
 20
2.4636389906811997
 30
0.0
 41
1.0
 10
-9684.0486173317804
 20
2.4651338830174061
 30
0.0
 41
1.0
 10
-9683.8668213042056
 20
2.5396663596919171
 30
0.0
 41
0.9987838528032444
 10
-9683.678568645646
 20
2.5959319998571573
 30
0.0
 41
1.0
 10
-9683.6743306964436
 20
2.5971986535484612
 30
0.0
 41
1.0
 10
-9683.6700927472411
 20
2.5984653072397657
 30
0.0
 41
1.0
 10
-9683.4903159870901
 20
2.6521976400229734
 30
0.0
 41
0.999065281620565
 10
-9683.3065700553707
 20
2.6902013195649488
 30
0.0
 41
1.0
 10
-9683.3013816543389
 20
2.6912744226713095
 30
0.0
 41
1.0
 10
-9683.296193253309
 20
2.6923475257776706
 30
0.0
 41
1.0
 10
-9683.1228241236677
 20
2.7282049991060915
 30
0.0
 41
0.9992909934267819
 10
-9682.9472483571953
 20
2.7509154315735032
 30
0.0
 41
1.0
 10
-9682.7716725907503
 20
2.7736258640396159
 30
0.0
 41
0.9994553539447443
 10
-9682.5949811576447
 20
2.7847051682462283
 30
0.0
 41
1.0
 10
-9682.5595467498497
 20
2.7869270562940018
 30
0.0
 41
1.0
 10
-9682.5241123420547
 20
2.7891489443417754
 30
0.0
 41
1.0
 10
-9682.3578865754935
 20
2.7995720067541505
 30
0.0
 41
0.9990928098290921
 10
-9682.1913767835813
 20
2.7958123655190548
 30
0.0
 41
1.0
 10
-9682.1528149483092
 20
2.7949416739860728
 30
0.0
 41
1.0
 10
-9682.1142531130372
 20
2.7940709824530909
 30
0.0
 41
1.0
 10
-9682.0248669916746
 20
2.7920527242845816
 30
0.0
 41
0.9998382089205777
 10
-9681.9356113088925
 20
2.7868205977564457
 30
0.0
 41
1.0
 10
-9681.9351814026741
 20
2.7867953968542158
 30
0.0
 41
1.0
 10
-9681.9347514964538
 20
2.7867701959519859
 30
0.0
 41
1.0
 10
-9681.846355626114
 20
2.7815884712283703
 30
0.0
 41
0.9997558016760986
 10
-9681.7582750489055
 20
2.7725059558619023
 30
0.0
 41
1.0
 10
-9681.7577989104757
 20
2.7724568583792846
 30
0.0
 41
1.0
 10
-9681.7573227720459
 20
2.7724077608966669
 30
0.0
 41
1.0
 10
-9681.6701944717079
 20
2.7634234404966014
 30
0.0
 41
0.9996565144179006
 10
-9681.5836566183625
 20
2.7498861338063989
 30
0.0
 41
1.0
 10
-9681.5831906929925
 20
2.7498132480762694
 30
0.0
 41
1.0
 10
-9681.5827247676225
 20
2.7497403623461394
 30
0.0
 41
1.0
 10
-9681.4971187650299
 20
2.7363488271191923
 30
0.0
 41
0.999532180686766
 10
-9681.4124916846922
 20
2.7177483386881249
 30
0.0
 41
1.0
 10
-9681.4121024901215
 20
2.7176627962224131
 30
0.0
 41
1.0
 10
-9681.4117132955507
 20
2.7175772537567009
 30
0.0
 41
1.0
 10
-9681.3278646043746
 20
2.6991478502615029
 30
0.0
 41
0.9993819199217927
 10
-9681.2455180701691
 20
2.6748724669981812
 30
0.0
 41
1.0
 10
-9681.2452796366724
 20
2.674802177889315
 30
0.0
 41
1.0
 10
-9681.2450412031758
 20
2.6747318887804488
 30
0.0
 41
1.0
 10
-9681.1631715359799
 20
2.6505970837405282
 30
0.0
 41
0.999208856850311
 10
-9681.0834790169847
 20
2.6200318479430962
 30
0.0
 41
1.0
 10
-9681.0037980261041
 20
2.589472247208878
 30
0.0
 41
0.9990226101775885
 10
-9680.9271273561972
 20
2.5519948155953216
 30
0.0
 41
1.0
 10
-9680.8504682143866
 20
2.5145230190350691
 30
0.0
 41
0.9988424273974341
 10
-9680.7777645871738
 20
2.4698582437810965
 30
0.0
 41
1.0
 10
-9680.7774968787999
 20
2.4696937797128165
 30
0.0
 41
1.0
 10
-9680.7772291704277
 20
2.4695293156445359
 30
0.0
 41
1.0
 10
-9680.7039901264652
 20
2.4245356122520225
 30
0.0
 41
0.9986928844492452
 10
-9680.6357272597525
 20
2.3722998779702902
 30
0.0
 41
1.0
 10
-9680.6351459675279
 20
2.3718550647410188
 30
0.0
 41
1.0
 10
-9680.6345646753034
 20
2.3714102515117474
 30
0.0
 41
1.0
 10
-9680.5651392241489
 20
2.3182848907778384
 30
0.0
 41
0.9986007262275819
 10
-9680.501713054382
 20
2.2581241210848049
 30
0.0
 41
1.0
 10
-9680.5008186389241
 20
2.2572757532487131
 30
0.0
 41
1.0
 10
-9680.4999242234662
 20
2.2564273854126213
 30
0.0
 41
1.0
 10
-9680.4347092227908
 20
2.1945698800537965
 30
0.0
 41
0.9985581491380823
 10
-9680.3765016110956
 20
2.1260773897900469
 30
0.0
 41
1.0
 10
-9680.3672431574942
 20
2.1151830320819403
 30
0.0
 41
1.0
 10
-9680.3579847038927
 20
2.1042886743738336
 30
0.0
 41
1.0
 10
-9680.2812601850019
 20
2.0140074687066414
 30
0.0
 41
0.9970460233511032
 10
-9680.2192682838449
 20
1.9130403845272455
 30
0.0
 41
1.0
 10
-9680.2047989187595
 20
1.8894739254342876
 30
0.0
 41
1.0
 10
-9680.1903295536722
 20
1.86590746634133
 30
0.0
 41
1.0
 10
-9680.1505928536662
 20
1.8011877423176073
 30
0.0
 41
0.9988468816639344
 10
-9680.117246482916
 20
1.7329552898952443
 30
0.0
 41
1.0
 10
-9680.1102104604324
 20
1.7185583687754953
 30
0.0
 41
1.0
 10
-9680.1031744379507
 20
1.7041614476557465
 30
0.0
 41
1.0
 10
-9680.0839001121749
 20
1.6647228374918555
 30
0.0
 41
0.9998431189993099
 10
-9680.0660347846697
 20
1.6246262830268279
 30
0.0
 41
1.0
 10
-9680.0481694569662
 20
1.5845297281146027
 30
0.0
 41
0.9999989989808933
 10
-9680.0301907332559
 20
1.5444838898939968
 30
0.0
 41
1.0
 10
-9680.024018421911
 20
1.5307356736355049
 30
0.0
 41
1.0
 10
-9680.0178461105643
 20
1.516987457377013
 30
0.0
 41
1.0
 10
-9679.9875227639423
 20
1.4494451861414488
 30
0.0
 41
0.9998790356319173
 10
-9679.9593148838012
 20
1.3809924341942357
 30
0.0
 41
1.0
 10
-9679.9524797025333
 20
1.3644053328056494
 30
0.0
 41
1.0
 10
-9679.9456445212636
 20
1.3478182314170633
 30
0.0
 41
1.0
 10
-9679.9220868588764
 20
1.2906502765147532
 30
0.0
 41
0.9998227574561321
 10
-9679.9006981104776
 20
1.2326359682130033
 30
0.0
 41
1.0
 10
-9679.8793093620807
 20
1.1746216599141177
 30
0.0
 41
0.9996797971041785
 10
-9679.8608830771154
 20
1.1155995407724593
 30
0.0
 41
1.0
 10
-9679.8569792743965
 20
1.1030950826260026
 30
0.0
 41
1.0
 10
-9679.8530754716776
 20
1.090590624479546
 30
0.0
 41
1.0
 10
-9679.8268415812672
 20
1.0065595890184906
 30
0.0
 41
0.997927493874154
 10
-9679.811617057785
 20
0.9198552303541115
 30
0.0
 41
1.0
 10
-9679.809393370524
 20
0.9071912295350735
 30
0.0
 41
1.0
 10
-9679.8071696832649
 20
0.8945272287160354
 30
0.0
 41
1.0
 10
-9679.7962397435676
 20
0.832280721427487
 30
0.0
 41
0.9994985982137482
 10
-9679.789271578391
 20
0.769467220288675
 30
0.0
 41
1.0
 10
-9679.7823034132143
 20
0.7066537191411153
 30
0.0
 41
0.9996372611204484
 10
-9679.7787275474457
 20
0.6435561404547575
 30
0.0
 41
1.0
 10
-9679.7785589699561
 20
0.6405815233774321
 30
0.0
 41
1.0
 10
-9679.7783903924683
 20
0.6376069063001069
 30
0.0
 41
1.0
 10
-9679.7744773717204
 20
0.5685600934673134
 30
0.0
 41
0.9997730630731978
 10
-9679.7735090582337
 20
0.4994092694455083
 30
0.0
 41
1.0
 10
-9679.7734519518162
 20
0.495331090290826
 30
0.0
 41
1.0
 10
-9679.773394845397
 20
0.4912529111361437
 30
0.0
 41
1.0
 10
-9679.7723123190735
 20
0.4139457287965135
 30
0.0
 41
0.9998772614074686
 10
-9679.7736524058055
 20
0.3366425822106179
 30
0.0
 41
1.0
 10
-9679.7737416690034
 20
0.3314934183973093
 30
0.0
 41
1.0
 10
-9679.7738309322012
 20
0.3263442545840007
 30
0.0
 41
1.0
 10
-9679.7753495453289
 20
0.2387427804072362
 30
0.0
 41
0.9999415567325294
 10
-9679.7787618555722
 20
0.1511946187874721
 30
0.0
 41
1.0
 10
-9679.7790031762488
 20
0.1450031589937386
 30
0.0
 41
1.0
 10
-9679.7792444969273
 20
0.138811699200005
 30
0.0
 41
1.0
 10
-9679.7831394485238
 20
0.0388806180541845
 30
0.0
 41
0.9999716810420911
 10
-9679.788538031642
 20
-0.0609805201647941
 30
0.0
 41
1.0
 10
-9679.7917508304308
 20
-0.1204097698339397
 30
0.0
 41
1.0
 10
-9679.7949636292215
 20
-0.1798390195030853
 30
0.0
 41
1.0
 10
-9679.8030375383732
 20
-0.3291874207783336
 30
0.0
 41
0.9999819129907805
 10
-9679.8129073299897
 20
-0.4784278984855064
 30
0.0
 41
1.0
 10
-9679.8227771216061
 20
-0.6276683761968798
 30
0.0
 41
1.0
 10
-9679.8252164421701
 20
-0.664861422046215
 30
0.0
 41
1.0
 10
-9679.8025182085548
 20
-0.6261204250802177
 30
0.0
 41
0.9999982128237226
 10
-9679.7796736498949
 20
-0.5874655312858398
 30
0.0
 41
1.0
 10
-9679.7527640898552
 20
-0.5419323169670116
 30
0.0
 41
1.0
 10
-9679.7258545298137
 20
-0.4963991026481835
 30
0.0
 41
1.0
 10
-9679.6491908512762
 20
-0.3666777805592301
 30
0.0
 41
0.9998609190057384
 10
-9679.5682435383915
 20
-0.2395853985943688
 30
0.0
 41
1.0
 10
-9679.5385952169345
 20
-0.1930356656761225
 30
0.0
 41
1.0
 10
-9679.5089468954775
 20
-0.1464859327578763
 30
0.0
 41
1.0
 10
-9679.4266746752255
 20
-0.0173133627384859
 30
0.0
 41
0.9999067609731506
 10
-9679.340905665762
 20
0.1095643267016158
 30
0.0
 41
1.0
 10
-9679.3385009625672
 20
0.1131215927463645
 30
0.0
 41
1.0
 10
-9679.3360962593742
 20
0.1166788587911133
 30
0.0
 41
1.0
 10
-9679.2551366563093
 20
0.2364420161274614
 30
0.0
 41
0.9998784952147689
 10
-9679.1704830466169
 20
0.3536232328516462
 30
0.0
 41
1.0
 10
-9679.0858294369336
 20
0.4708044495622765
 30
0.0
 41
0.9998532968282211
 10
-9678.9972118160968
 20
0.5850173580506868
 30
0.0
 41
1.0
 10
-9678.9772500271138
 20
0.6107446790601565
 30
0.0
 41
1.0
 10
-9678.9572882381308
 20
0.6364720000696262
 30
0.0
 41
1.0
 10
-9678.8388041883682
 20
0.7891776110433075
 30
0.0
 41
0.9991551975793531
 10
-9678.7081797387473
 20
0.9316371731231357
 30
0.0
 41
1.0
 10
-9678.7046701227773
 20
0.9354647747360591
 30
0.0
 41
1.0
 10
-9678.7011605068092
 20
0.9392923763489824
 30
0.0
 41
1.0
 10
-9678.5775552891264
 20
1.0740967352047395
 30
0.0
 41
0.9997418144180348
 10
-9678.4479531494235
 20
1.2031461458191188
 30
0.0
 41
1.0
 10
-9678.3183510097242
 20
1.3321955564296779
 30
0.0
 41
0.9989238204633656
 10
-9678.1773484614678
 20
1.4486805184728415
 30
0.0
 41
1.0
 10
-9678.1321007833285
 20
1.4860605100826167
 30
0.0
 41
1.0
 10
-9678.0868531051874
 20
1.5234405016923922
 30
0.0
 41
1.0
 10
-9677.9466130479723
 20
1.6392955549793142
 30
0.0
 41
0.9990825084094858
 10
-9677.796973115368
 20
1.7427245528118647
 30
0.0
 41
1.0
 10
-9677.7869277513146
 20
1.7496677658888371
 30
0.0
 41
1.0
 10
-9677.7768823872611
 20
1.7566109789658095
 30
0.0
 41
1.0
 10
-9677.6473331827674
 20
1.8461535506427651
 30
0.0
 41
0.9998164899827244
 10
-9677.5144489793875
 20
1.9306677921612163
 30
0.0
 41
1.0
 10
-9677.5026034188595
 20
1.9382015586889962
 30
0.0
 41
1.0
 10
-9677.4907578583297
 20
1.9457353252167764
 30
0.0
 41
1.0
 10
-9677.3815647760021
 20
2.0151820336835562
 30
0.0
 41
0.9997473449130313
 10
-9677.2693608187619
 20
2.0796509914932813
 30
0.0
 41
1.0
 10
-9677.1571568615145
 20
2.1441199493078491
 30
0.0
 41
0.9999327861141271
 10
-9677.043488250707
 20
2.2059699410128526
 30
0.0
 41
1.0
 10
-9677.0429362481664
 20
2.2062702996807815
 30
0.0
 41
1.0
 10
-9677.0423842456275
 20
2.2065706583487099
 30
0.0
 41
1.0
 10
-9676.9276116297478
 20
2.2690213673860571
 30
0.0
 41
0.9996956420482557
 10
-9676.8098983039235
 20
2.325734834352311
 30
0.0
 41
1.0
 10
-9676.7794578990215
 20
2.340400811087326
 30
0.0
 41
1.0
 10
-9676.7490174941177
 20
2.3550667878223406
 30
0.0
 41
1.0
 10
-9676.6460403873898
 20
2.4046804462594427
 30
0.0
 41
0.9998070570175217
 10
-9676.5411939984315
 20
2.4502110331676477
 30
0.0
 41
1.0
 10
-9676.4363476094877
 20
2.4957416200696514
 30
0.0
 41
0.9997827436148031
 10
-9676.3296946729079
 20
2.5368627913701438
 30
0.0
 41
1.0
 10
-9676.3104718232644
 20
2.5442743650077109
 30
0.0
 41
1.0
 10
-9676.2912489736191
 20
2.5516859386452779
 30
0.0
 41
1.0
 10
-9676.1461503377413
 20
2.6076302572241099
 30
0.0
 41
0.9988031841975907
 10
-9675.996279975132
 20
2.6491303213926334
 30
0.0
 41
1.0
 10
-9675.9713627267738
 20
2.656030067198023
 30
0.0
 41
1.0
 10
-9675.9464454784156
 20
2.6629298130034127
 30
0.0
 41
1.0
 10
-9675.779175452768
 20
2.7092479554109365
 30
0.0
 41
0.9984748040547684
 10
-9675.6078185441183
 20
2.7368421876751654
 30
0.0
 41
1.0
 10
-9675.6030794078706
 20
2.7376053481884761
 30
0.0
 41
1.0
 10
-9675.5983402716229
 20
2.7383685087017868
 30
0.0
 41
1.0
 10
-9675.4364616354796
 20
2.7644364199401972
 30
0.0
 41
0.9984436495476032
 10
-9675.2726868917453
 20
2.7723143737587179
 30
0.0
 41
1.0
 10
-9675.2509896836164
 20
2.7733580609582962
 30
0.0
 41
1.0
 10
-9675.2292924754856
 20
2.774401748157874
 30
0.0
 41
1.0
 10
-9675.1089121480272
 20
2.7801923275777787
 30
0.0
 41
0.9987954789334026
 10
-9674.9885439031095
 20
2.7741557998351709
 30
0.0
 41
1.0
 10
-9674.9685791106167
 20
2.773154555496598
 30
0.0
 41
1.0
 10
-9674.9486143181221
 20
2.7721533111580254
 30
0.0
 41
1.0
 10
-9674.8681756582209
 20
2.7681192720947898
 30
0.0
 41
0.9997941595875576
 10
-9674.787966880107
 20
2.7608252061718304
 30
0.0
 41
1.0
 10
-9674.7077581020021
 20
2.7535311402499483
 30
0.0
 41
0.9998589466236877
 10
-9674.6278395551581
 20
2.743547285800894
 30
0.0
 41
1.0
 10
-9674.5954333533482
 20
2.7394989288815701
 30
0.0
 41
1.0
 10
-9674.5630271515402
 20
2.7354505719622466
 30
0.0
 41
1.0
 10
-9674.4182962010709
 20
2.7173700036737767
 30
0.0
 41
0.9993495063250708
 10
-9674.2752449572999
 20
2.6889042939315773
 30
0.0
 41
1.0
 10
-9674.2423112601537
 20
2.6823508307178594
 30
0.0
 41
1.0
 10
-9674.2093775630074
 20
2.6757973675041411
 30
0.0
 41
1.0
 10
-9674.1000837397933
 20
2.6540490333673681
 30
0.0
 41
0.9996788715560111
 10
-9673.9920321678383
 20
2.6267912340040311
 30
0.0
 41
1.0
 10
-9673.9899691653063
 20
2.6262708074329111
 30
0.0
 41
1.0
 10
-9673.9879061627744
 20
2.625750380861791
 30
0.0
 41
1.0
 10
-9673.8839805959014
 20
2.5995334346467778
 30
0.0
 41
0.9995480654491318
 10
-9673.7818183606523
 20
2.5671184780165959
 30
0.0
 41
1.0
 10
-9673.7801287185212
 20
2.5665823731022845
 30
0.0
 41
1.0
 10
-9673.7784390763918
 20
2.5660462681879728
 30
0.0
 41
1.0
 10
-9673.6796561254178
 20
2.5347035213905302
 30
0.0
 41
0.9993867959455749
 10
-9673.5833089669795
 20
2.4965241521024382
 30
0.0
 41
1.0
 10
-9673.5820660178942
 20
2.4960316102055069
 30
0.0
 41
1.0
 10
-9673.5808230688071
 20
2.4955390683085761
 30
0.0
 41
1.0
 10
-9673.4869618085304
 20
2.4583447828092981
 30
0.0
 41
0.9992050256522435
 10
-9673.3963621335042
 20
2.4137908835739381
 30
0.0
 41
1.0
 10
-9673.3956274507909
 20
2.4134295911120529
 30
0.0
 41
1.0
 10
-9673.3948927680758
 20
2.4130682986501677
 30
0.0
 41
1.0
 10
-9673.3057624584653
 20
2.3692369843318923
 30
0.0
 41
0.9990222350741227
 10
-9673.2208523970767
 20
2.3177037166368564
 30
0.0
 41
1.0
 10
-9673.2206685117999
 20
2.3175921137357332
 30
0.0
 41
1.0
 10
-9673.2204846265231
 20
2.3174805108346099
 30
0.0
 41
1.0
 10
-9673.1359423356862
 20
2.2661704489389152
 30
0.0
 41
0.9988642743809637
 10
-9673.0566678010655
 20
2.2070462614133248
 30
0.0
 41
1.0
 10
-9672.9773932664539
 20
2.1479220738963094
 30
0.0
 41
0.9987681233306219
 10
-9672.9043694821921
 20
2.0812313825082138
 30
0.0
 41
1.0
 10
-9672.9040405542146
 20
2.0809309812835757
 30
0.0
 41
1.0
 10
-9672.9037116262371
 20
2.0806305800589371
 30
0.0
 41
1.0
 10
-9672.8300299860221
 20
2.0133390862221905
 30
0.0
 41
0.9987496570899778
 10
-9672.7634361806922
 20
1.9390262721312788
 30
0.0
 41
1.0
 10
-9672.7626640109374
 20
1.9381645987792768
 30
0.0
 41
1.0
 10
-9672.7618918411827
 20
1.9373029254272751
 30
0.0
 41
1.0
 10
-9672.6937536963305
 20
1.8612667646207597
 30
0.0
 41
0.9988147669823784
 10
-9672.6333314421099
 20
1.7789657577820233
 30
0.0
 41
1.0
 10
-9672.632212116032
 20
1.7774411264296885
 30
0.0
 41
1.0
 10
-9672.631092789954
 20
1.7759164950773538
 30
0.0
 41
1.0
 10
-9672.5684318835774
 20
1.6905662255354419
 30
0.0
 41
0.9989452636213633
 10
-9672.5138649706132
 20
1.5998275363724879
 30
0.0
 41
1.0
 10
-9672.5125162445274
 20
1.5975847553460913
 30
0.0
 41
1.0
 10
-9672.5111675184417
 20
1.5953419743196946
 30
0.0
 41
1.0
 10
-9672.4539031533022
 20
1.5001177230988361
 30
0.0
 41
0.9991046436070948
 10
-9672.4048939399763
 20
1.4003932900648761
 30
0.0
 41
1.0
 10
-9672.4034300783915
 20
1.3974146100019631
 30
0.0
 41
1.0
 10
-9672.4019662168066
 20
1.3944359299390499
 30
0.0
 41
1.0
 10
-9672.3500292803037
 20
1.2887541367703901
 30
0.0
 41
0.9992763831096676
 10
-9672.3062761517485
 20
1.1794300748096362
 30
0.0
 41
1.0
 10
-9672.3047968820865
 20
1.175733887277562
 30
0.0
 41
1.0
 10
-9672.3033176124227
 20
1.1720376997454878
 30
0.0
 41
1.0
 10
-9672.2566059445344
 20
1.0553212626980537
 30
0.0
 41
0.9994163472886419
 10
-9672.2179729133368
 20
0.9356876742095206
 30
0.0
 41
1.0
 10
-9672.2167347610903
 20
0.9318535304273744
 30
0.0
 41
1.0
 10
-9672.2154966088438
 20
0.9280193866452282
 30
0.0
 41
1.0
 10
-9672.1756130478352
 20
0.8045133251948189
 30
0.0
 41
0.9997268055890197
 10
-9672.1415449919295
 20
0.6792782932636783
 30
0.0
 41
1.0
 10
-9672.1406148116512
 20
0.6758589271251019
 30
0.0
 41
1.0
 10
-9672.1396846313746
 20
0.6724395609865254
 30
0.0
 41
1.0
 10
-9672.1074769360093
 20
0.5540432612834865
 30
0.0
 41
0.9996701318999832
 10
-9672.0813913192469
 20
0.4341493080495411
 30
0.0
 41
1.0
 10
-9672.0553057024754
 20
0.3142553547874725
 30
0.0
 41
0.9995785451108133
 10
-9672.0362221251362
 20
0.1930495937571693
 30
0.0
 41
1.0
 10
-9672.0320023429595
 20
0.1662484389780115
 30
0.0
 41
1.0
 10
-9672.0277825607827
 20
0.1394472841988537
 30
0.0
 41
1.0
 10
-9672.0012075848499
 20
-0.0293386894922118
 30
0.0
 41
0.9979925101225751
 10
-9671.9961819989221
 20
-0.2001300175702454
 30
0.0
 41
1.0
 10
-9671.9953571864971
 20
-0.2281607411086514
 30
0.0
 41
1.0
 10
-9671.9945323740703
 20
-0.2561914646470574
 30
0.0
 41
1.0
 10
-9671.991156412998
 20
-0.3709213457186763
 30
0.0
 41
0.9995314902267051
 10
-9671.9948066051347
 20
-0.485642829413905
 30
0.0
 41
1.0
 10
-9671.998456797277
 20
-0.600364313214341
 30
0.0
 41
0.9996245486946079
 10
-9672.0083858924136
 20
-0.7147135843857544
 30
0.0
 41
1.0
 10
-9672.0085489404046
 20
-0.7165913404730192
 30
0.0
 41
1.0
 10
-9672.0087119883938
 20
-0.718469096560284
 30
0.0
 41
1.0
 10
-9672.018967179516
 20
-0.8365738799750903
 30
0.0
 41
0.9997286094999767
 10
-9672.0347125030912
 20
-0.9540727888916721
 30
0.0
 41
1.0
 10
-9672.0351059957393
 20
-0.9570092135724373
 30
0.0
 41
1.0
 10
-9672.0354994883855
 20
-0.9599456382532026
 30
0.0
 41
1.0
 10
-9672.0520317972514
 20
-1.0833173965158518
 30
0.0
 41
0.9998265533967475
 10
-9672.0731472559764
 20
-1.2059878712666039
 30
0.0
 41
1.0
 10
-9672.0738237981204
 20
-1.2099182498108494
 30
0.0
 41
1.0
 10
-9672.0745003402626
 20
-1.2138486283550947
 30
0.0
 41
1.0
 10
-9672.0969688832702
 20
-1.3443798601599419
 30
0.0
 41
0.9999022530852654
 10
-9672.1230783478841
 20
-1.4742318288093677
 30
0.0
 41
1.0
 10
-9672.1240569890469
 20
-1.4790989711904681
 30
0.0
 41
1.0
 10
-9672.1250356302116
 20
-1.4839661135715687
 30
0.0
 41
1.0
 10
-9672.1531023771367
 20
-1.6235523669227687
 30
0.0
 41
0.9999524761932144
 10
-9672.1838853459612
 20
-1.7625648600411488
 30
0.0
 41
1.0
 10
-9672.1851614531479
 20
-1.7683276193976081
 30
0.0
 41
1.0
 10
-9672.1864375603363
 20
-1.7740903787540674
 30
0.0
 41
1.0
 10
-9672.2197727435087
 20
-1.9246283904593566
 30
0.0
 41
0.9999813588727711
 10
-9672.2549437442922
 20
-2.0747481030641728
 30
0.0
 41
1.0
 10
-9672.2564976697613
 20
-2.0813806935440229
 30
0.0
 41
1.0
 10
-9672.2580515952322
 20
-2.088013284023873
 30
0.0
 41
1.0
 10
-9672.296330446974
 20
-2.2513981776618053
 30
0.0
 41
0.9999955237619213
 10
-9672.3355863249708
 20
-2.4145510813413922
 30
0.0
 41
1.0
 10
-9672.3478679605796
 20
-2.4655952717592866
 30
0.0
 41
1.0
 10
-9672.3601495961902
 20
-2.5166394621771815
 30
0.0
 41
1.0
 10
-9672.4239687452973
 20
-2.7818807462453643
 30
0.0
 41
0.9999993604639587
 10
-9672.488387692365
 20
-3.0469769965174951
 30
0.0
 41
1.0
 10
-9672.4931065280325
 20
-3.0663959050560168
 30
0.0
 41
1.0
 10
-9672.4978253637018
 20
-3.0858148135945385
 30
0.0
 41
1.0
 10
-9672.5716819819336
 20
-3.389748880242534
 30
0.0
 41
0.9999659914731482
 10
-9672.6505415777956
 20
-3.6924234267132516
 30
0.0
 41
1.0
 10
-9672.6554942667535
 20
-3.7114325639954462
 30
0.0
 41
1.0
 10
-9672.6604469557096
 20
-3.7304417012776412
 30
0.0
 41
1.0
 10
-9672.7492119294584
 20
-4.0711345222092072
 30
0.0
 41
0.9999441976026673
 10
-9672.8451549624242
 20
-4.4098759475213187
 30
0.0
 41
1.0
 10
-9672.8618554808454
 20
-4.4688396600362328
 30
0.0
 41
1.0
 10
-9672.8785559992684
 20
-4.5278033725511477
 30
0.0
 41
1.0
 10
-9673.0079000691094
 20
-4.9844722229891705
 30
0.0
 41
0.9999625120736699
 10
-9673.1451328364619
 20
-5.4388327570769164
 30
0.0
 41
1.0
 10
-9673.1809227795547
 20
-5.5573287837361383
 30
0.0
 41
1.0
 10
-9673.2167127226476
 20
-5.6758248103953601
 30
0.0
 41
1.0
 10
-9673.2912329266455
 20
-5.9225518883565389
 30
0.0
 41
0.9999793386319561
 10
-9673.3689189497527
 20
-6.1683005274937841
 30
0.0
 41
1.0
 10
-9673.446604972889
 20
-6.4140491667299102
 30
0.0
 41
1.0
 10
-9673.4573845317591
 20
-6.4480670711045605
 30
0.0
 41
1.0
 10
-9675.3077575850293
 20
-12.335138993572059
 30
0.0
 41
1.0
 10
-9677.1581306382977
 20
-18.222210916039558
 30
0.0
 41
1.0
 10
-9678.119387328321
 20
-18.222210916039558
 30
0.0
 41
1.0
 10
-9679.0806440183442
 20
-18.222210916039558
 30
0.0
 41
1.0
 10
-9677.4616992396659
 20
-13.074182414250117
 30
0.0
 41
1.0
 10
-9675.8427544609876
 20
-7.926153912460677
 30
0.0
 41
1.0
 10
-9675.7975886377972
 20
-7.7821226901361591
 30
0.0
 41
1.0
 10
-9675.7524228146049
 20
-7.6380914678116412
 30
0.0
 41
1.0
 10
-9675.5821183972621
 20
-7.0950004387089844
 30
0.0
 41
0.9999911657889664
 10
-9675.4163855855968
 20
-6.550496907394745
 30
0.0
 41
1.0
 10
-9675.3866896420695
 20
-6.4529329672563298
 30
0.0
 41
1.0
 10
-9675.3569936985423
 20
-6.3553690271179146
 30
0.0
 41
1.0
 10
-9675.2506527738988
 20
-6.0059933759747288
 30
0.0
 41
0.999995242814481
 10
-9675.1464691845904
 20
-5.6559683516815085
 30
0.0
 41
1.0
 10
-9675.1414097142515
 20
-5.6389700773845313
 30
0.0
 41
1.0
 10
-9675.1363502439126
 20
-5.6219718030875532
 30
0.0
 41
1.0
 10
-9675.0422855952584
 20
-5.3059433273076788
 30
0.0
 41
0.9999931687501076
 10
-9674.9505597573916
 20
-4.9892281140614614
 30
0.0
 41
1.0
 10
-9674.9456244929061
 20
-4.9721874047035852
 30
0.0
 41
1.0
 10
-9674.9406892284223
 20
-4.9551466953457091
 30
0.0
 41
1.0
 10
-9674.8588339194939
 20
-4.6725129007086181
 30
0.0
 41
0.9999893840791705
 10
-9674.779586693061
 20
-4.3891367715443721
 30
0.0
 41
1.0
 10
-9674.7003394666317
 20
-4.1057606423904573
 30
0.0
 41
0.9999833980081242
 10
-9674.6243632259175
 20
-3.8214900594670089
 30
0.0
 41
1.0
 10
-9674.6153592891624
 20
-3.7878011808685605
 30
0.0
 41
1.0
 10
-9674.6063553524073
 20
-3.7541123022701122
 30
0.0
 41
1.0
 10
-9674.537390803549
 20
-3.4960764699993678
 30
0.0
 41
0.9999233658064061
 10
-9674.4748358323322
 20
-3.2364123112913603
 30
0.0
 41
1.0
 10
-9674.4122808611119
 20
-2.9767481525689163
 30
0.0
 41
1.0
 10
-9674.3727974422545
 20
-2.8129414881427692
 30
0.0
 41
1.0
 10
-9674.367818838271
 20
-2.7922865262472532
 30
0.0
 41
1.0
 10
-9674.3628402342874
 20
-2.7716315643517371
 30
0.0
 41
1.0
 10
-9674.3333140233954
 20
-2.6491348237078052
 30
0.0
 41
0.9999868670877621
 10
-9674.3050449393995
 20
-2.5263418780712072
 30
0.0
 41
1.0
 10
-9674.3011474522536
 20
-2.5094122907071212
 30
0.0
 41
1.0
 10
-9674.2972499651078
 20
-2.4924827033430352
 30
0.0
 41
1.0
 10
-9674.2767758554164
 20
-2.4035489324809172
 30
0.0
 41
0.9999778173360455
 10
-9674.2574882572881
 20
-2.31435031519527
 30
0.0
 41
1.0
 10
-9674.2382006591579
 20
-2.2251516978978785
 30
0.0
 41
0.9999602692859437
 10
-9674.2205063005149
 20
-2.135623409406068
 30
0.0
 41
1.0
 10
-9674.2173024684507
 20
-2.1194129545865947
 30
0.0
 41
1.0
 10
-9674.2140986363866
 20
-2.1032024997671215
 30
0.0
 41
1.0
 10
-9674.1899966136061
 20
-1.9812533016011309
 30
0.0
 41
0.9995617985320683
 10
-9674.1731532663925
 20
-1.8580915539273231
 30
0.0
 41
1.0
 10
-9674.1706887764813
 20
-1.8400707365278863
 30
0.0
 41
1.0
 10
-9674.16822428657
 20
-1.8220499191284496
 30
0.0
 41
1.0
 10
-9674.1479410255215
 20
-1.6737348694287211
 30
0.0
 41
0.9991121410637015
 10
-9674.1402156719341
 20
-1.52423877062472
 30
0.0
 41
1.0
 10
-9674.1392968819091
 20
-1.5064589340482291
 30
0.0
 41
1.0
 10
-9674.1383780918841
 20
-1.4886790974717381
 30
0.0
 41
1.0
 10
-9674.1324903183449
 20
-1.3747426718182707
 30
0.0
 41
0.9989792494904154
 10
-9674.136909410463
 20
-1.2607398359201625
 30
0.0
 41
1.0
 10
-9674.1375573823316
 20
-1.2440235899885814
 30
0.0
 41
1.0
 10
-9674.1382053542002
 20
-1.2273073440570001
 30
0.0
 41
1.0
 10
-9674.1413285025792
 20
-1.1467370000182227
 30
0.0
 41
0.9997820295392395
 10
-9674.1478124999558
 20
-1.0663672782777667
 30
0.0
 41
1.0
 10
-9674.1542964973305
 20
-0.9859975565328701
 30
0.0
 41
0.9998335105970252
 10
-9674.163708692844
 20
-0.9059179400844231
 30
0.0
 41
1.0
 10
-9674.1653036175194
 20
-0.8923482096010184
 30
0.0
 41
1.0
 10
-9674.1668985421966
 20
-0.8787784791176136
 30
0.0
 41
1.0
 10
-9674.1795005870626
 20
-0.7715594016917057
 30
0.0
 41
0.9996876457880483
 10
-9674.1974444998614
 20
-0.6651039739656761
 30
0.0
 41
1.0
 10
-9674.1996761629998
 20
-0.6518642387593576
 30
0.0
 41
1.0
 10
-9674.2019078261401
 20
-0.6386245035530391
 30
0.0
 41
1.0
 10
-9674.2157036475655
 20
-0.5567783595682425
 30
0.0
 41
0.9995547496496134
 10
-9674.2343569694622
 20
-0.4759008623523187
 30
0.0
 41
1.0
 10
-9674.2347309263314
 20
-0.4742794516563275
 30
0.0
 41
1.0
 10
-9674.2351048832006
 20
-0.4726580409603363
 30
0.0
 41
1.0
 10
-9674.2530102913533
 20
-0.3950233651685559
 30
0.0
 41
0.9994899427175948
 10
-9674.2758352000346
 20
-0.3186900823267251
 30
0.0
 41
1.0
 10
-9674.2762937267762
 20
-0.317156632533713
 30
0.0
 41
1.0
 10
-9674.2767522535196
 20
-0.3156231827407008
 30
0.0
 41
1.0
 10
-9674.2986601087159
 20
-0.2423567994872674
 30
0.0
 41
0.9993784877587891
 10
-9674.3256757438212
 20
-0.1708160943333041
 30
0.0
 41
1.0
 10
-9674.326207434804
 20
-0.1694081115979743
 30
0.0
 41
1.0
 10
-9674.3267391257868
 20
-0.1680001288626444
 30
0.0
 41
1.0
 10
-9674.3526913789319
 20
-0.0992753891604798
 30
0.0
 41
0.9992430832246397
 10
-9674.3839079140853
 20
-0.0327762371059634
 30
0.0
 41
1.0
 10
-9674.384490030141
 20
-0.0315361819916205
 30
0.0
 41
1.0
 10
-9674.3850721461949
 20
-0.0302961268772775
 30
0.0
 41
1.0
 10
-9674.4151244492423
 20
0.0337229149553471
 30
0.0
 41
0.9990789632806173
 10
-9674.4505550760223
 20
0.0949295267118941
 30
0.0
 41
1.0
 10
-9674.4511507821935
 20
0.0959586125530187
 30
0.0
 41
1.0
 10
-9674.4517464883647
 20
0.0969876983941432
 30
0.0
 41
1.0
 10
-9674.4859857027859
 20
0.1561361384395972
 30
0.0
 41
0.9988874801128352
 10
-9674.5256449788321
 20
0.2117958508794118
 30
0.0
 41
1.0
 10
-9674.5262005048935
 20
0.2125755025514705
 30
0.0
 41
1.0
 10
-9674.5267560309567
 20
0.2133551542235291
 30
0.0
 41
1.0
 10
-9674.5653042548602
 20
0.2674555632928746
 30
0.0
 41
0.998676206069516
 10
-9674.6092067261397
 20
0.3173092777363991
 30
0.0
 41
1.0
 10
-9674.6096506864742
 20
0.3178134195549707
 30
0.0
 41
1.0
 10
-9674.6100946468068
 20
0.3183175613735424
 30
0.0
 41
1.0
 10
-9674.6531091974211
 20
0.3671629921809605
 30
0.0
 41
0.9984621642490298
 10
-9674.7012667541931
 20
0.4109462926467131
 30
0.0
 41
1.0
 10
-9674.7015133887107
 20
0.411170524811098
 30
0.0
 41
1.0
 10
-9674.7017600232284
 20
0.4113947569754828
 30
0.0
 41
1.0
 10
-9674.7494243109686
 20
0.4547295931134825
 30
0.0
 41
0.9982724693864503
 10
-9674.8018429428121
 20
0.492173943635521
 30
0.0
 41
1.0
 10
-9674.8542615746446
 20
0.5296182941465876
 30
0.0
 41
0.9981399180168245
 10
-9674.9108476380407
 20
0.5604048135925904
 30
0.0
 41
1.0
 10
-9674.9108933001226
 20
0.5604296567517826
 30
0.0
 41
1.0
 10
-9674.9109389622045
 20
0.5604544999109749
 30
0.0
 41
1.0
 10
-9674.9676163497479
 20
0.5912907056652883
 30
0.0
 41
0.9980927086839257
 10
-9675.0276617008112
 20
0.6149075145177271
 30
0.0
 41
1.0
 10
-9675.0281018705282
 20
0.6150806403945037
 30
0.0
 41
1.0
 10
-9675.0285420402433
 20
0.6152537662712803
 30
0.0
 41
1.0
 10
-9675.0894677307315
 20
0.6392168268732825
 30
0.0
 41
0.9981411356557404
 10
-9675.152856252138
 20
0.655589468380165
 30
0.0
 41
1.0
 10
-9675.1537383688374
 20
0.6558173105852245
 30
0.0
 41
1.0
 10
-9675.1546204855367
 20
0.6560451527902842
 30
0.0
 41
1.0
 10
-9675.2197732403383
 20
0.6728734787072421
 30
0.0
 41
0.9983031812929557
 10
-9675.2864406693279
 20
0.6820128398824026
 30
0.0
 41
1.0
 10
-9675.2953116947338
 20
0.6832289585539888
 30
0.0
 41
1.0
 10
-9675.3041827201396
 20
0.684445077225575
 30
0.0
 41
1.0
 10
-9675.3585323626394
 20
0.6918958072153383
 30
0.0
 41
0.9983887708274394
 10
-9675.4133762119382
 20
0.6931404808500474
 30
0.0
 41
1.0
 10
-9675.4214396171556
 20
0.6933234787249086
 30
0.0
 41
1.0
 10
-9675.4295030223748
 20
0.6935064765997698
 30
0.0
 41
1.0
 10
-9675.4682200612042
 20
0.6943851544826466
 30
0.0
 41
0.999886956308114
 10
-9675.5069460144332
 20
0.6940992851236842
 30
0.0
 41
1.0
 10
-9675.5456719676095
 20
0.6938134157651019
 30
0.0
 41
0.9999972320154394
 10
-9675.584396146849
 20
0.6933453162349551
 30
0.0
 41
1.0
 10
-9675.6037491634288
 20
0.6931113761455598
 30
0.0
 41
1.0
 10
-9675.6231021800086
 20
0.6928774360561647
 30
0.0
 41
1.0
 10
-9675.7005323923586
 20
0.6919414563486438
 30
0.0
 41
0.9997304945088226
 10
-9675.7778356986128
 20
0.6874123625624543
 30
0.0
 41
1.0
 10
-9675.7868853403179
 20
0.6868821565724443
 30
0.0
 41
1.0
 10
-9675.795934982023
 20
0.6863519505824343
 30
0.0
 41
1.0
 10
-9675.8913375716529
 20
0.6807624448166718
 30
0.0
 41
0.9997888306418277
 10
-9675.9864299075161
 20
0.6712574803271577
 30
0.0
 41
1.0
 10
-9675.9951509690873
 20
0.6703857656951662
 30
0.0
 41
1.0
 10
-9676.0038720306584
 20
0.6695140510631745
 30
0.0
 41
1.0
 10
-9676.1164064896439
 20
0.6582656573099052
 30
0.0
 41
0.998417023819249
 10
-9676.2269656369881
 20
0.6344495753759749
 30
0.0
 41
1.0
 10
-9676.2633467679807
 20
0.6266125395688752
 30
0.0
 41
1.0
 10
-9676.2997278989715
 20
0.6187755037617755
 30
0.0
 41
1.0
 10
-9676.4149189673881
 20
0.5939616372522305
 30
0.0
 41
0.9976592854203495
 10
-9676.5256471337962
 20
0.5536629601050436
 30
0.0
 41
1.0
 10
-9676.6363753002097
 20
0.513364282954794
 30
0.0
 41
0.9993255074352908
 10
-9676.7438470990019
 20
0.4650473844618693
 30
0.0
 41
1.0
 10
-9676.7484722779209
 20
0.4629680082639499
 30
0.0
 41
1.0
 10
-9676.7530974568399
 20
0.4608886320660304
 30
0.0
 41
1.0
 10
-9676.8698196134828
 20
0.4084129811723176
 30
0.0
 41
0.9976475078268399
 10
-9676.9782669578017
 20
0.3404649915062452
 30
0.0
 41
1.0
 10
-9676.9966093519361
 20
0.3289725126924031
 30
0.0
 41
1.0
 10
-9677.0149517460686
 20
0.3174800338785611
 30
0.0
 41
1.0
 10
-9677.0991539376028
 20
0.2647229131210477
 30
0.0
 41
0.9995131336407259
 10
-9677.1799016525656
 20
0.206816701165053
 30
0.0
 41
1.0
 10
-9677.2606493675321
 20
0.1489104892054575
 30
0.0
 41
0.999581010760524
 10
-9677.3379110152764
 20
0.0864288067268155
 30
0.0
 41
1.0
 10
-9677.3408810464753
 20
0.0840269352718511
 30
0.0
 41
1.0
 10
-9677.3438510776723
 20
0.0816250638168867
 30
0.0
 41
1.0
 10
-9677.4270527878089
 20
0.0143396384323214
 30
0.0
 41
0.9996617837956335
 10
-9677.506643474946
 20
-0.0571808171281615
 30
0.0
 41
1.0
 10
-9677.518774225844
 20
-0.0680815501379154
 30
0.0
 41
1.0
 10
-9677.530904976742
 20
-0.0789822831476693
 30
0.0
 41
1.0
 10
-9677.5991805041176
 20
-0.1403348986011355
 30
0.0
 41
0.9997267750050595
 10
-9677.664514012391
 20
-0.2048114351179038
 30
0.0
 41
1.0
 10
-9677.7298475206771
 20
-0.2692879716447748
 30
0.0
 41
0.9999667288967784
 10
-9677.7941204638628
 20
-0.3348217785790335
 30
0.0
 41
1.0
 10
-9677.8629479116171
 20
-0.4049994373165935
 30
0.0
 41
1.0
 10
-9677.9317753593714
 20
-0.4751770960541535
 30
0.0
 41
1.0
 10
-9678.1337031980675
 20
-0.6810662204627105
 30
0.0
 41
0.9988205335173994
 10
-9678.3147088150417
 20
-0.9055704525178632
 30
0.0
 41
1.0
 10
-9678.3453487799488
 20
-0.9435737029516598
 30
0.0
 41
1.0
 10
-9678.3759887448578
 20
-0.9815769533854564
 30
0.0
 41
1.0
 10
-9678.6182742916535
 20
-1.2820876863125212
 30
0.0
 41
0.9997077826754977
 10
-9678.8457522427561
 20
-1.5939574805268153
 30
0.0
 41
1.0
 10
-9678.8474756578853
 20
-1.5963202639040994
 30
0.0
 41
1.0
 10
-9678.8491990730145
 20
-1.5986830472813836
 30
0.0
 41
1.0
 10
-9679.0801238543845
 20
-1.9152784082629521
 30
0.0
 41
0.9989147567079607
 10
-9679.280587357267
 20
-2.251987869446991
 30
0.0
 41
1.0
 10
-9679.3053285025708
 20
-2.2935444499934698
 30
0.0
 41
1.0
 10
-9679.3300696478727
 20
-2.3351010305399487
 30
0.0
 41
1.0
 10
-9679.4852809465156
 20
-2.5958024150020336
 30
0.0
 41
0.999747659818259
 10
-9679.6286259340231
 20
-2.8632121635816929
 30
0.0
 41
1.0
 10
-9679.7719709215289
 20
-3.1306219121548362
 30
0.0
 41
0.9996258967108811
 10
-9679.9004791734587
 20
-3.405469848776395
 30
0.0
 41
1.0
 10
-9679.9136790829161
 20
-3.4337012488885579
 30
0.0
 41
1.0
 10
-9679.9268789923735
 20
-3.4619326490007207
 30
0.0
 41
1.0
 10
-9680.0670877133671
 20
-3.7618050469381275
 30
0.0
 41
0.9998735413942231
 10
-9680.1976890600854
 20
-4.0659846464005795
 30
0.0
 41
1.0
 10
-9680.2011318881378
 20
-4.0740032318489217
 30
0.0
 41
1.0
 10
-9680.2045747161919
 20
-4.0820218172972638
 30
0.0
 41
1.0
 10
-9680.3282904068037
 20
-4.3701642458617496
 30
0.0
 41
0.9999377418858508
 10
-9680.4455452089805
 20
-4.6609957135432296
 30
0.0
 41
1.0
 10
-9680.5628000111428
 20
-4.9518271811854868
 30
0.0
 41
0.9999508299504146
 10
-9680.6742639545082
 20
-5.2449268579795953
 30
0.0
 41
1.0
 10
-9680.6773447231826
 20
-5.2530278839739513
 30
0.0
 41
1.0
 10
-9680.680425491857
 20
-5.2611289099683063
 30
0.0
 41
1.0
 10
-9680.7980509725967
 20
-5.5704306388161626
 30
0.0
 41
0.999960922843069
 10
-9680.9101895755011
 20
-5.881763654923156
 30
0.0
 41
1.0
 10
-9680.9131455858169
 20
-5.8899704952375025
 30
0.0
 41
1.0
 10
-9680.9161015961326
 20
-5.8981773355518499
 30
0.0
 41
1.0
 10
-9681.0341522196977
 20
-6.2259240323618652
 30
0.0
 41
0.9999674607405135
 10
-9681.1468997457469
 20
-6.5555326523000605
 30
0.0
 41
1.0
 10
-9681.1982981363089
 20
-6.7057918479919714
 30
0.0
 41
1.0
 10
-9681.249696526871
 20
-6.8560510436838831
 30
0.0
 41
1.0
 10
-9681.3657071336456
 20
-7.1951990262370025
 30
0.0
 41
0.999928753230988
 10
-9681.4735885376285
 20
-7.5370197652440538
 30
0.0
 41
1.0
 10
-9681.5200657938622
 20
-7.6842823099167061
 30
0.0
 41
1.0
 10
-9681.5665430500958
 20
-7.8315448545893585
 30
0.0
 41
1.0
 10
-9681.581469941666
 20
-7.878840504436365
 30
0.0
 41
0.9999998223472758
 10
-9681.5963404503291
 20
-7.926153912460677
 30
0.0
 41
1.0
 10
-9683.2169965871253
 20
-13.074182414250117
 30
0.0
 41
1.0
 10
-9684.8376527239197
 20
-18.222210916039558
 30
0.0
 41
1.0
 10
-9685.7429611678108
 20
-18.222210916039558
 30
0.0
 41
1.0
 10
-9686.6482696117018
 20
-18.222210916039558
 30
0.0
 41
1.0
 10
-9684.7961852003173
 20
-12.335138993572059
 30
0.0
 41
1.0
 10
-9682.9441007889309
 20
-6.4480670711045605
 30
0.0
 41
1.0
 10
-9682.9339790306276
 20
-6.4160238576548636
 30
0.0
 41
1.0
 10
-9682.8613713617779
 20
-6.1857243158290203
 30
0.0
 41
1.0
 10
-9682.7887636929445
 20
-5.9554247740563691
 30
0.0
 41
0.9999825681964428
 10
-9682.7188806537597
 20
-5.7242838790803736
 30
0.0
 41
1.0
 10
-9682.6705895915784
 20
-5.5645592955168732
 30
0.0
 41
1.0
 10
-9682.6222985293971
 20
-5.4048347119533728
 30
0.0
 41
1.0
 10
-9682.5251461760799
 20
-5.0834994901813237
 30
0.0
 41
0.9999672528964327
 10
-9682.4332073704554
 20
-4.7606339445882213
 30
0.0
 41
1.0
 10
-9682.4304184867615
 20
-4.7508400991142246
 30
0.0
 41
1.0
 10
-9682.4276296030675
 20
-4.7410462536402278
 30
0.0
 41
1.0
 10
-9682.3412685648054
 20
-4.4377683989052681
 30
0.0
 41
0.9999899749146683
 10
-9682.2576269552974
 20
-4.1337293105494837
 30
0.0
 41
1.0
 10
-9682.2475210362536
 20
-4.0969940727751055
 30
0.0
 41
1.0
 10
-9682.2374151172098
 20
-4.0602588350007283
 30
0.0
 41
1.0
 10
-9682.1739853457384
 20
-3.8296902220115658
 30
0.0
 41
0.9999214200504413
 10
-9682.1163559173838
 20
-3.5976038798877426
 30
0.0
 41
1.0
 10
-9682.1035900652205
 20
-3.5461929945543083
 30
0.0
 41
1.0
 10
-9682.0908242130554
 20
-3.494782109220874
 30
0.0
 41
1.0
 10
-9682.05872648902
 20
-3.365517537727845
 30
0.0
 41
0.9999828681662247
 10
-9682.0281442370106
 20
-3.2358860632109554
 30
0.0
 41
1.0
 10
-9681.9975619850229
 20
-3.1062545887699367
 30
0.0
 41
0.9999389844474809
 10
-9681.9698509962345
 20
-2.975979132879532
 30
0.0
 41
1.0
 10
-9681.9627132525093
 20
-2.9424230290240567
 30
0.0
 41
1.0
 10
-9681.9555755087858
 20
-2.9088669251685815
 30
0.0
 41
1.0
 10
-9681.9135890325488
 20
-2.7114792615524879
 30
0.0
 41
0.9998933699440743
 10
-9681.8773847681405
 20
-2.5129496537557685
 30
0.0
 41
1.0
 10
-9681.8760119429317
 20
-2.5054216330988268
 30
0.0
 41
1.0
 10
-9681.8746391177228
 20
-2.4978936124418851
 30
0.0
 41
1.0
 10
-9681.8356892028842
 20
-2.2843079632683052
 30
0.0
 41
0.9996850305193089
 10
-9681.8075055266218
 20
-2.069036957804621
 30
0.0
 41
1.0
 10
-9681.8055104932573
 20
-2.0537986037114679
 30
0.0
 41
1.0
 10
-9681.8035154598911
 20
-2.0385602496183153
 30
0.0
 41
1.0
 10
-9681.7761075974304
 20
-1.8292150224587957
 30
0.0
 41
0.9994697936706412
 10
-9681.7623830382108
 20
-1.6185298271242345
 30
0.0
 41
1.0
 10
-9681.7619059689587
 20
-1.6112063548776927
 30
0.0
 41
1.0
 10
-9681.7614288997065
 20
-1.6038828826311506
 30
0.0
 41
1.0
 10
-9681.7486584789895
 20
-1.4078446317579054
 30
0.0
 41
0.9991804893133551
 10
-9681.7517867952647
 20
-1.2114157818200511
 30
0.0
 41
1.0
 10
-9681.7518706740884
 20
-1.2061489803871415
 30
0.0
 41
1.0
 10
-9681.7519545529103
 20
-1.2008821789542321
 30
0.0
 41
1.0
 10
-9681.7549151115381
 20
-1.0149869318260847
 30
0.0
 41
0.9988448329319918
 10
-9681.7757066571612
 20
-0.8302343420132274
 30
0.0
 41
1.0
 10
-9681.7773007308642
 20
-0.8160694862504215
 30
0.0
 41
1.0
 10
-9681.7788948045654
 20
-0.8019046304876156
 30
0.0
 41
1.0
 10
-9681.7964982027825
 20
-0.645481752188909
 30
0.0
 41
0.9985503209457778
 10
-9681.8308144750845
 20
-0.4918575680906088
 30
0.0
 41
1.0
 10
-9681.838400467157
 20
-0.4578972406906525
 30
0.0
 41
1.0
 10
-9681.8459864592278
 20
-0.4239369132906963
 30
0.0
 41
1.0
 10
-9681.8651307473847
 20
-0.3382333840011287
 30
0.0
 41
0.9991036781371018
 10
-9681.8914556090349
 20
-0.2544562966763806
 30
0.0
 41
1.0
 10
-9681.8954378344915
 20
-0.241783134164912
 30
0.0
 41
1.0
 10
-9681.8994200599482
 20
-0.2291099716534435
 30
0.0
 41
1.0
 10
-9681.9177804706887
 20
-0.1706792093488031
 30
0.0
 41
0.9998874504367737
 10
-9681.937885678366
 20
-0.1128256071281157
 30
0.0
 41
1.0
 10
-9681.9579908860414
 20
-0.0549720049107172
 30
0.0
 41
0.9994041637537933
 10
-9681.9820394989747
 20
0.0013566989758575
 30
0.0
 41
1.0
 10
-9681.9862362831955
 20
0.0111867634537889
 30
0.0
 41
1.0
 10
-9681.9904330674181
 20
0.0210168279317203
 30
0.0
 41
1.0
 10
-9682.0183118984187
 20
0.0863169939106566
 30
0.0
 41
0.9991846840703841
 10
-9682.0513682551136
 20
0.1491550251962508
 30
0.0
 41
1.0
 10
-9682.0525048615127
 20
0.1513156416589883
 30
0.0
 41
1.0
 10
-9682.0536414679118
 20
0.1534762581217257
 30
0.0
 41
1.0
 10
-9682.0844246118122
 20
0.2119930564879128
 30
0.0
 41
0.9989253167917083
 10
-9682.1204940358621
 20
0.2674079848667361
 30
0.0
 41
1.0
 10
-9682.1215481605323
 20
0.2690274796226215
 30
0.0
 41
1.0
 10
-9682.1226022852024
 20
0.270646974378507
 30
0.0
 41
1.0
 10
-9682.1565634599119
 20
0.3228229132507074
 30
0.0
 41
0.9986467172833079
 10
-9682.1957606125543
 20
0.3711889468864911
 30
0.0
 41
1.0
 10
-9682.196634741249
 20
0.3722675491562152
 30
0.0
 41
1.0
 10
-9682.1975088699419
 20
0.3733461514259393
 30
0.0
 41
1.0
 10
-9682.2349577651821
 20
0.4195549805052801
 30
0.0
 41
0.9984001104276787
 10
-9682.2773844957082
 20
0.461240087884903
 30
0.0
 41
1.0
 10
-9682.2779716338136
 20
0.4618169627626115
 30
0.0
 41
1.0
 10
-9682.2785587719191
 20
0.4623938376403199
 30
0.0
 41
1.0
 10
-9682.3198112262253
 20
0.502925195253404
 30
0.0
 41
0.9982442159081805
 10
-9682.3655673275607
 20
0.5382937565138946
 30
0.0
 41
1.0
 10
-9682.3657821230299
 20
0.538459789162457
 30
0.0
 41
1.0
 10
-9682.3659969184973
 20
0.5386258218110194
 30
0.0
 41
1.0
 10
-9682.4113234288998
 20
0.5736623177770083
 30
0.0
 41
0.998245006083386
 10
-9682.4604744079679
 20
0.6030941008076525
 30
0.0
 41
1.0
 10
-9682.5096253870488
 20
0.6325258838470287
 30
0.0
 41
0.9983922639622218
 10
-9682.5617916932169
 20
0.6562055185001592
 30
0.0
 41
1.0
 10
-9682.5620185705357
 20
0.656308503979155
 30
0.0
 41
1.0
 10
-9682.5622454478544
 20
0.6564114894581508
 30
0.0
 41
1.0
 10
-9682.6148655086672
 20
0.6802970950748704
 30
0.0
 41
0.998651714715166
 10
-9682.6696784815304
 20
0.6985982141954362
 30
0.0
 41
1.0
 10
-9682.6703564029594
 20
0.698824560627568
 30
0.0
 41
1.0
 10
-9682.6710343243903
 20
0.6990509070597
 30
0.0
 41
1.0
 10
-9682.727203140108
 20
0.7178047190419397
 30
0.0
 41
0.9989435598962008
 10
-9682.7848565272652
 20
0.7313224212784053
 30
0.0
 41
1.0
 10
-9682.7859366468474
 20
0.7315756715316434
 30
0.0
 41
1.0
 10
-9682.7870167664296
 20
0.7318289217848815
 30
0.0
 41
1.0
 10
-9682.8468303927402
 20
0.7458531245250848
 30
0.0
 41
0.9992249241237449
 10
-9682.9075619016476
 20
0.755128467241513
 30
0.0
 41
1.0
 10
-9682.9089755899367
 20
0.7553443756489
 30
0.0
 41
1.0
 10
-9682.9103892782241
 20
0.755560284056287
 30
0.0
 41
1.0
 10
-9682.9739481637152
 20
0.7652674435880258
 30
0.0
 41
0.9994396597836146
 10
-9683.0380141002424
 20
0.7707003659329739
 30
0.0
 41
1.0
 10
-9683.0571547677191
 20
0.772323533651569
 30
0.0
 41
1.0
 10
-9683.0762954351958
 20
0.7739467013701642
 30
0.0
 41
1.0
 10
-9683.1786427066818
 20
0.782625959151831
 30
0.0
 41
0.9987693403126844
 10
-9683.2813463302773
 20
0.7811228957004963
 30
0.0
 41
1.0
 10
-9683.2916006645028
 20
0.7809728239263034
 30
0.0
 41
1.0
 10
-9683.3018549987301
 20
0.7808227521521106
 30
0.0
 41
1.0
 10
-9683.4114107649093
 20
0.7792194078640695
 30
0.0
 41
0.9989753644969033
 10
-9683.5203727649259
 20
0.7677164009395483
 30
0.0
 41
1.0
 10
-9683.6293347649389
 20
0.756213394015289
 30
0.0
 41
0.9983190067303515
 10
-9683.7362335759117
 20
0.7321784022266346
 30
0.0
 41
1.0
 10
-9683.7451345275149
 20
0.7301771236644243
 30
0.0
 41
1.0
 10
-9683.7540354791199
 20
0.7281758451022142
 30
0.0
 41
1.0
 10
-9683.87873619331
 20
0.7001382961870537
 30
0.0
 41
0.998553938830254
 10
-9683.9997059469842
 20
0.658874620141873
 30
0.0
 41
1.0
 10
-9684.0020513779418
 20
0.6580745763273441
 30
0.0
 41
1.0
 10
-9684.0043968088976
 20
0.6572745325128153
 30
0.0
 41
1.0
 10
-9684.1300574244869
 20
0.6144107688381013
 30
0.0
 41
0.9988468746498727
 10
-9684.2510277667934
 20
0.559692683775227
 30
0.0
 41
1.0
 10
-9684.2542105887842
 20
0.5582530092142487
 30
0.0
 41
1.0
 10
-9684.257393410775
 20
0.5568133346532704
 30
0.0
 41
1.0
 10
-9684.3847293970484
 20
0.4992159004723782
 30
0.0
 41
0.999132288592146
 10
-9684.5068299810955
 20
0.4312205682966721
 30
0.0
 41
1.0
 10
-9684.5244319921476
 20
0.421418366301565
 30
0.0
 41
1.0
 10
-9684.5420340032015
 20
0.4116161643064581
 30
0.0
 41
1.0
 10
-9684.6442106842551
 20
0.3547160485267301
 30
0.0
 41
0.9993860037849985
 10
-9684.742151688326
 20
0.2908000329402967
 30
0.0
 41
1.0
 10
-9684.7477700012023
 20
0.2871335382296563
 30
0.0
 41
1.0
 10
-9684.7533883140786
 20
0.2834670435190159
 30
0.0
 41
1.0
 10
-9684.8400926924387
 20
0.2268840173270089
 30
0.0
 41
0.9998821494953389
 10
-9684.9250190682142
 20
0.1676657872750411
 30
0.0
 41
1.0
 10
-9685.0099454440387
 20
0.1084475571894751
 30
0.0
 41
0.9997976482745048
 10
-9685.0924210744361
 20
0.0458611491519535
 30
0.0
 41
1.0
 10
-9685.107057339239
 20
0.0347544593744225
 30
0.0
 41
1.0
 10
-9685.12169360404
 20
0.0236477695968915
 30
0.0
 41
1.0
 10
-9685.2334417640377
 20
-0.0611520179925259
 30
0.0
 41
0.9998091630801315
 10
-9685.3417920420543
 20
-0.1502523686843969
 30
0.0
 41
1.0
 10
-9685.3547977945454
 20
-0.1609474691412087
 30
0.0
 41
1.0
 10
-9685.3678035470348
 20
-0.1716425695980206
 30
0.0
 41
1.0
 10
-9685.5021653300137
 20
-0.28213312118885
 30
0.0
 41
0.9995035112316345
 10
-9685.6293012077695
 20
-0.4008669381965782
 30
0.0
 41
1.0
 10
-9685.6389485181517
 20
-0.409876684349376
 30
0.0
 41
1.0
 10
-9685.6485958285339
 20
-0.4188864305021738
 30
0.0
 41
1.0
 10
-9685.7720188913154
 20
-0.5341528022729369
 30
0.0
 41
0.9994630424300831
 10
-9685.8876272971047
 20
-0.6572555455131806
 30
0.0
 41
1.0
 10
-9685.8913101358885
 20
-0.6611771250385842
 30
0.0
 41
1.0
 10
-9685.8949929746705
 20
-0.6650987045639878
 30
0.0
 41
1.0
 10
-9686.0032357028958
 20
-0.7803582887572851
 30
0.0
 41
0.9995160693749917
 10
-9686.1041017324205
 20
-0.90212570662095
 30
0.0
 41
1.0
 10
-9686.1060354525071
 20
-0.9044601308364789
 30
0.0
 41
1.0
 10
-9686.1079691725936
 20
-0.9067945550520078
 30
0.0
 41
1.0
 10
-9686.2049677619652
 20
-1.0238931245094189
 30
0.0
 41
0.9996561470513976
 10
-9686.2956939806172
 20
-1.1459158869427029
 30
0.0
 41
1.0
 10
-9686.301851646509
 20
-1.1541976759712498
 30
0.0
 41
1.0
 10
-9686.3080093124008
 20
-1.1624794649997967
 30
0.0
 41
1.0
 10
-9686.3864201992674
 20
-1.2679386493698153
 30
0.0
 41
0.9998349055172977
 10
-9686.4609474812169
 20
-1.3761772330552731
 30
0.0
 41
1.0
 10
-9686.53547476315
 20
-1.4844158167215156
 30
0.0
 41
0.999972810956016
 10
-9686.608397659078
 20
-1.5937417423022666
 30
0.0
 41
1.0
 10
-9686.6097128744805
 20
-1.595713511790597
 30
0.0
 41
1.0
 10
-9686.6110280898829
 20
-1.5976852812789275
 30
0.0
 41
1.0
 10
-9686.6865814165776
 20
-1.7109547457827761
 30
0.0
 41
0.9999972147305817
 10
-9686.7615992270112
 20
-1.8245795887047132
 30
0.0
 41
1.0
 10
-9686.7665707696233
 20
-1.832109677162161
 30
0.0
 41
1.0
 10
-9686.7715423122354
 20
-1.8396397656196086
 30
0.0
 41
1.0
 10
-9686.8565032078222
 20
-1.9683247853548447
 30
0.0
 41
0.9999371979006231
 10
-9686.9385585572199
 20
-2.0988816991183121
 30
0.0
 41
1.0
 10
-9686.9420674415996
 20
-2.1044646272132841
 30
0.0
 41
1.0
 10
-9686.9455763259812
 20
-2.1100475553082561
 30
0.0
 41
1.0
 10
-9687.0346494441201
 20
-2.2517703252335926
 30
0.0
 41
0.9998272025611316
 10
-9687.1183928350165
 20
-2.3967062020020728
 30
0.0
 41
1.0
 10
-9687.1336080070287
 20
-2.4230393164373294
 30
0.0
 41
1.0
 10
-9687.148823179039
 20
-2.4493724308725859
 30
0.0
 41
1.0
 10
-9687.2629969139853
 20
-2.6469745365543926
 30
0.0
 41
0.9995217214835863
 10
-9687.3647366035511
 20
-2.8512568644420009
 30
0.0
 41
1.0
 10
-9687.3723801661909
 20
-2.8666043141538906
 30
0.0
 41
1.0
 10
-9687.3800237288306
 20
-2.8819517638657803
 30
0.0
 41
1.0
 10
-9687.4669290214042
 20
-3.0564482219143265
 30
0.0
 41
0.9998269762607249
 10
-9687.5472834876582
 20
-3.2340565086012703
 30
0.0
 41
1.0
 10
-9687.6276379539286
 20
-3.4116647953194743
 30
0.0
 41
0.9998944747389095
 10
-9687.7027987484944
 20
-3.5915325209517377
 30
0.0
 41
1.0
 10
-9687.7077524181041
 20
-3.6033871759155121
 30
0.0
 41
1.0
 10
-9687.7127060877156
 20
-3.6152418308792869
 30
0.0
 41
1.0
 10
-9687.7933531482522
 20
-3.8082387708581074
 30
0.0
 41
0.9999506734412671
 10
-9687.870150677134
 20
-4.0027995756641985
 30
0.0
 41
1.0
 10
-9687.8847506424099
 20
-4.0397874974817078
 30
0.0
 41
1.0
 10
-9687.8993506076858
 20
-4.0767754192992172
 30
0.0
 41
1.0
 10
-9687.9469482060358
 20
-4.1973603805148585
 30
0.0
 41
0.9999912393932343
 10
-9687.9935346500606
 20
-4.3183395832161295
 30
0.0
 41
1.0
 10
-9688.04012109414
 20
-4.4393187860613228
 30
0.0
 41
0.9999927113957091
 10
-9688.0857823886145
 20
-4.5606501937785264
 30
0.0
 41
1.0
 10
-9688.0997508199434
 20
-4.5977671755951439
 30
0.0
 41
1.0
 10
-9688.1137192512724
 20
-4.6348841574117614
 30
0.0
 41
1.0
 10
-9688.1873174084485
 20
-4.8304495288800169
 30
0.0
 41
0.9999487550952163
 10
-9688.2569410334199
 20
-5.0274648940576112
 30
0.0
 41
1.0
 10
-9688.2805346433815
 20
-5.0942282044175711
 30
0.0
 41
1.0
 10
-9688.3041282533413
 20
-5.1609915147775309
 30
0.0
 41
1.0
 10
-9688.3988138876994
 20
-5.4289253495664429
 30
0.0
 41
0.9999808436925652
 10
-9688.4901754763196
 20
-5.6980107807689819
 30
0.0
 41
1.0
 10
-9688.5815370649379
 20
-5.9670962119703486
 30
0.0
 41
0.9999873932915433
 10
-9688.6701917736336
 20
-6.2370855669127536
 30
0.0
 41
1.0
 10
-9688.6902841305255
 20
-6.2982748997327178
 30
0.0
 41
1.0
 10
-9688.7103764874173
 20
-6.359464232552682
 30
0.0
 41
1.0
 10
-9688.8392159098639
 20
-6.7518322530392858
 30
0.0
 41
0.9999794883040594
 10
-9688.9630186948016
 20
-7.1458184592504912
 30
0.0
 41
1.0
 10
-9688.9741709542359
 20
-7.181309069480573
 30
0.0
 41
1.0
 10
-9688.985323213672
 20
-7.2167996797106539
 30
0.0
 41
1.0
 10
-9689.1278813776044
 20
-7.6704724319097277
 30
0.0
 41
0.9999982761823433
 10
-9689.2687538176197
 20
-8.1246714540329776
 30
0.0
 41
1.0
 10
-9690.8568941501926
 20
-13.173441185036268
 30
0.0
 41
1.0
 10
-9692.4450344827655
 20
-18.222210916039558
 30
0.0
 41
1.0
 10
-9693.393785094242
 20
-18.222210916039558
 30
0.0
 41
1.0
 10
-9694.3425357057167
 20
-18.222210916039558
 30
0.0
 41
1.0
 10
-9691.1042512195636
 20
-7.8948887160934191
 30
0.0
 41
1.0
 10
-9687.8659667334105
 20
2.4324334838527193
 30
0.0
 41
1.0
  0
LWPOLYLINE
  5
5D
100
AcDbEntity
  8
0
370
              15
390
0
  6
Continuous
 62
               7
100
AcDbPolyline
 90
      232
 70
             128
 10
-9713.569512507238
 20
1.3480906523375324
 42
0.0004370800652428
 10
-9713.6223896805932
 20
1.2794240140121671
 10
-9713.6616739124365
 20
1.2283169001847227
 42
0.0030481992249952
 10
-9713.7920126296067
 20
1.0565952077734546
 10
-9713.8305243013074
 20
1.0052084240523982
 42
0.0042058245770022
 10
-9714.0345093519791
 20
0.7282026789752535
 10
-9714.0869144744775
 20
0.6557698321979615
 42
0.0120948898720323
 10
-9714.3829583912357
 20
0.2250202276552237
 10
-9714.4791508903818
 20
0.0775394923929405
 42
0.0141601263954011
 10
-9714.7827949372841
 20
-0.4181298443113519
 10
-9714.8223322047397
 20
-0.4869738117945156
 42
0.0071131081306238
 10
-9715.0276045279479
 20
-0.8564766105812396
 42
0.0068458790996483
 10
-9715.2224840547769
 20
-1.231568174028713
 10
-9715.2292959172482
 20
-1.2451298877809904
 42
0.0064120880270142
 10
-9715.4274381672731
 20
-1.6525543626557857
 10
-9715.4349728528105
 20
-1.6685662194211091
 42
0.0058857236447882
 10
-9715.6377282446938
 20
-2.1129423304864332
 10
-9715.6459031709746
 20
-2.1314324840900554
 42
0.0053189741908369
 10
-9715.8546074836304
 20
-2.6173959579787196
 10
-9715.8633552893243
 20
-2.6383778362040857
 42
0.004750365042568
 10
-9716.0793290155052
 20
-3.17057726949343
 10
-9716.0885972638225
 20
-3.1940536455216488
 42
0.0042071762169427
 10
-9716.3131446475873
 20
-3.7771472396886367
 10
-9716.3228940498993
 20
-3.8031134144611087
 42
0.0036680086493055
 10
-9716.5573486931935
 20
-4.4417487989431086
 10
-9716.5675564730591
 20
-4.4701973333368414
 42
0.0032573142639545
 10
-9716.8131887590534
 20
-5.1690499931681373
 10
-9716.8818392799276
 20
-5.3685130773171759
 42
0.002613336664797
 10
-9717.2302844786245
 20
-6.3983763608150639
 10
-9717.29354126617
 20
-6.5886071963435136
 42
0.0020592950748696
 10
-9717.5074043350924
 20
-7.2407108488212089
 10
-9717.5104561262469
 20
-7.2501473372043481
 42
0.0025609928519215
 10
-9717.7122766277425
 20
-7.8852925595967918
 10
-9717.7148679948605
 20
-7.893594900509231
 42
0.0031362356233946
 10
-9717.9043587805463
 20
-8.5143577567168904
 10
-9717.9064898235174
 20
-8.5214990630768366
 42
0.0037229918028948
 10
-9718.0832902103994
 20
-9.130484364902145
 10
-9718.0849687996433
 20
-9.1364312552108196
 42
0.0043077623734539
 10
-9718.2487096016703
 20
-9.7362499868455643
 42
0.0047654161842242
 10
-9718.4015383242349
 20
-10.338936075944005
 10
-9718.4360029330255
 20
-10.480497852897656
 42
0.011296936845104
 10
-9718.6318672911821
 20
-11.372190013590203
 10
-9718.6598736802662
 20
-11.515018059619706
 42
0.0130056762563864
 10
-9718.8607109239128
 20
-12.70195913126463
 10
-9718.8812506740596
 20
-12.846037244742611
 42
0.0138721532141517
 10
-9718.9849536785969
 20
-13.752866730567348
 10
-9719.0042491665063
 20
-13.976364452520992
 42
0.0071254697016638
 10
-9719.0375958124278
 20
-14.439551461339647
 10
-9719.0425567866041
 20
-14.525555456117939
 42
0.0028881799203678
 10
-9719.0576950798823
 20
-14.817297165742389
 42
0.0060297297098143
 10
-9719.0676272796554
 20
-15.109246101778432
 10
-9719.0686895613253
 20
-15.157638473785402
 42
0.0229523164158251
 10
-9719.0609585335369
 20
-15.480393320073858
 10
-9719.0567327600111
 20
-15.540796854156637
 42
0.0123673300715012
 10
-9719.0376541134992
 20
-15.74191757926485
 42
0.0128577674499283
 10
-9719.0084587230976
 20
-15.941815429165205
 10
-9719.0013328497062
 20
-15.983144243788615
 42
0.0285717853769199
 10
-9718.9368388480052
 20
-16.261260395118448
 10
-9718.9231703243386
 20
-16.307915164596139
 42
0.031628309916925
 10
-9718.8073597444309
 20
-16.626929666404976
 10
-9718.8043110526723
 20
-16.633916038736327
 42
0.0338984824245077
 10
-9718.654879341706
 20
-16.921482002919674
 10
-9718.6525706123321
 20
-16.925273032201073
 42
0.0350228718395773
 10
-9718.4702103216623
 20
-17.182325016872483
 10
-9718.4693250698929
 20
-17.183404094629079
 42
0.0347476747547707
 10
-9718.254900382648
 20
-17.410589141856576
 42
0.0331337701905393
 10
-9718.0116570568971
 20
-17.606717803937588
 10
-9718.0105569583866
 20
-17.60749050710649
 42
0.0305233319041957
 10
-9717.7420122628155
 20
-17.772618677196402
 10
-9717.7387822183118
 20
-17.774342689060518
 42
0.027374448115585
 10
-9717.4462285067311
 20
-17.910480832952945
 10
-9717.4411239715992
 20
-17.912524417420627
 42
0.0240964406187516
 10
-9717.1256468959546
 20
-18.021508143701816
 10
-9717.1190635667444
 20
-18.023432883377041
 42
0.0209636179822043
 10
-9716.7816634140854
 20
-18.106901031310336
 10
-9716.7740309536421
 20
-18.108452944310557
 42
0.018138870469559
 10
-9716.415708561648
 20
-18.167869037524088
 10
-9716.4074277132659
 20
-18.168935221341599
 42
0.0156086547571366
 10
-9716.029240349073
 20
-18.205671407918551
 10
-9715.9860450967499
 20
-18.208509910397233
 42
0.0137148328996342
 10
-9715.658371951451
 20
-18.221030165648585
 10
-9715.6124357615117
 20
-18.221524598763775
 42
0.0051057823890498
 10
-9715.3762901749324
 20
-18.221654853172936
 42
0.0052256693301858
 10
-9715.1401928911455
 20
-18.216906028708571
 10
-9715.0699661074032
 20
-18.214759062694611
 42
0.0161507179047941
 10
-9714.6942290293046
 20
-18.191108692368267
 10
-9714.67421606893
 20
-18.189198497080497
 42
0.0101216737827953
 10
-9714.2601888474401
 20
-18.141205566715023
 10
-9714.2261355580122
 20
-18.136557869905346
 42
0.0245291776402703
 10
-9713.7493459024663
 20
-18.04748279183001
 10
-9713.6645225869361
 20
-18.027286871482762
 42
0.014350921255337
 10
-9713.3078914829985
 20
-17.931482237704472
 42
0.0156557857037775
 10
-9712.9576754182726
 20
-17.814471021886344
 10
-9712.9501742037755
 20
-17.811700860131509
 42
0.0170137333625013
 10
-9712.5935782080996
 20
-17.6660432452632
 10
-9712.5864742856866
 20
-17.662855409696704
 42
0.0183105364406462
 10
-9712.2271246175424
 20
-17.485520367883641
 10
-9712.2201778528834
 20
-17.481769933000237
 42
0.0194899958168483
 10
-9711.861697111899
 20
-17.269790951110391
 10
-9711.854683232561
 20
-17.265265608814502
 42
0.0204869852935795
 10
-9711.5006689304737
 20
-17.015745593733357
 10
-9711.4934033218815
 20
-17.010165528380298
 42
0.0212516938559678
 10
-9711.1474133907832
 20
-16.720261531495638
 10
-9711.1008966966892
 20
-16.677794221385728
 42
0.0215248918227856
 10
-9710.8408705278089
 20
-16.419029942397515
 10
-9710.7958407933802
 20
-16.370185820994362
 42
0.0114578554958363
 10
-9710.6410486397508
 20
-16.194362887589364
 10
-9710.6298541037631
 20
-16.181044124043147
 42
0.0061531305104538
 10
-9710.5033794577703
 20
-16.026754590738278
 42
0.0006325587083003
 10
-9710.3790009740169
 20
-15.870751215565313
 10
-9710.3559608385658
 20
-15.841777694403163
 42
0.0041897761557171
 10
-9710.1875054345419
 20
-15.626258318272392
 10
-9710.1290433147024
 20
-15.550156971356159
 42
0.0092993880020361
 10
-9709.8524313874768
 20
-15.175878207468717
 10
-9709.7700368942878
 20
-15.059941203914894
 42
0.0159321727073627
 10
-9709.4234304116362
 20
-14.537766983147549
 10
-9709.379074276294
 20
-14.46608741897402
 42
0.0085547316995606
 10
-9709.1445625109227
 20
-14.072212469672877
 42
0.0084601156863862
 10
-9708.9235863335325
 20
-13.670585620739415
 10
-9708.9154708596507
 20
-13.655225938367721
 42
0.0081429654280364
 10
-9708.6922215892118
 20
-13.215504425824879
 10
-9708.6833614250281
 20
-13.197325583807583
 42
0.007657458132023
 10
-9708.456953914465
 20
-12.714142708560349
 10
-9708.4474742737384
 20
-12.693078230251444
 42
0.007068272420281
 10
-9708.2170293659437
 20
-12.161040925498233
 10
-9708.2070390819499
 20
-12.137051736458602
 42
0.0064559514449038
 10
-9707.971705873777
 20
-11.550739469961011
 10
-9707.961296515603
 20
-11.523804544497466
 42
0.0058311413910647
 10
-9707.7202497788367
 20
-10.877772450104915
 10
-9707.7094947014521
 20
-10.847888108953271
 42
0.0052312425794741
 10
-9707.4619134234363
 20
-10.136685695193588
 10
-9707.4508695870318
 20
-10.103858983049008
 42
0.004668054479146
 10
-9707.1959411592943
 20
-9.3220326672836347
 10
-9707.1539490093019
 20
-9.1890494301566203
 42
0.004166685644161
 10
-9706.95066299686
 20
-8.5260806549965764
 10
-9706.913000556202
 20
-8.3994995473635985
 42
0.0015170975167383
 10
-9706.791813977783
 20
-7.9876311958491897
 42
-0.0004887993101838
 10
-9706.6714742048025
 20
-7.5755127842983532
 10
-9706.594996947164
 20
-7.3145553978661155
 42
0.0002583378925433
 10
-9706.3217823771138
 20
-6.3804986947333884
 10
-9706.2400095274625
 20
-6.1003994348904067
 42
0.0006636169678635
 10
-9706.0461417675124
 20
-5.4330465115169773
 10
-9706.0410451131756
 20
-5.4154149286710958
 42
0.0010589131330994
 10
-9705.8595964122487
 20
-4.7826835855880745
 10
-9705.8546143417025
 20
-4.7651706783371628
 42
0.0015655524463123
 10
-9705.6863441345849
 20
-4.1665539993671246
 10
-9705.681513934207
 20
-4.1491618405670749
 42
0.0021640440486361
 10
-9705.5272239621845
 20
-3.584134822413148
 10
-9705.5225897427481
 20
-3.5668700923951402
 42
0.0028763871860542
 10
-9705.3830740247013
 20
-3.0349021415722746
 10
-9705.3786881605083
 20
-3.0177781633178484
 42
0.0037310511937047
 10
-9705.2547314686963
 20
-2.5183305693939246
 10
-9705.2506562483923
 20
-2.5013702980868637
 42
0.0047652197772308
 10
-9705.1430323478999
 20
-2.0338925298433423
 10
-9705.1393417485833
 20
-2.0171329747230935
 42
0.0060276699304774
 10
-9705.0488116494234
 20
-1.5810571795491342
 10
-9705.0455929591481
 20
-1.5645559653117553
 42
0.0075824337762024
 10
-9704.9729036497174
 20
-1.1592888008137834
 10
-9704.9702582723221
 20
-1.1431338532696624
 42
0.0095130624630508
 10
-9704.9161430367058
 20
-0.7680445002914667
 10
-9704.9091568128224
 20
-0.7121109421649579
 42
0.0121054653275229
 10
-9704.8825654822467
 20
-0.4472151137010769
 10
-9704.8816989924799
 20
-0.4358116706676875
 42
0.0069050827429879
 10
-9704.8666101744493
 20
-0.1928704439277453
 10
-9704.8654748747849
 20
-0.1693441869531829
 42
0.016906397667103
 10
-9704.8626475958008
 20
0.0268485404177454
 10
-9704.8638182473314
 20
0.0871843017457357
 42
0.0052007732980126
 10
-9704.8660716959239
 20
0.1627776919190183
 42
0.0054038123269499
 10
-9704.8860352077572
 20
0.2827959878983139
 10
-9704.8911210636325
 20
0.3114544745101284
 42
0.0112050460429281
 10
-9704.9265054256975
 20
0.4877809128756762
 10
-9704.9443303877324
 20
0.5673224995699684
 42
0.0240764468005877
 10
-9705.0352277538786
 20
0.8975595350736119
 10
-9705.0537865166862
 20
0.9541797000469943
 42
0.0256812331797942
 10
-9705.1971494368809
 20
1.3259039063223099
 10
-9705.2025588626966
 20
1.3380352412979173
 42
0.0268360501200597
 10
-9705.3719861035534
 20
1.6690283753330277
 10
-9705.3775225111822
 20
1.6785480456335085
 42
0.0274670231766783
 10
-9705.5697234876006
 20
1.9708354205625938
 10
-9705.5751047875619
 20
1.9781145681014978
 42
0.0275035967092631
 10
-9705.7866776671253
 20
2.2336304584080153
 10
-9705.7917471680939
 20
2.2391095460410142
 42
0.0269557673531345
 10
-9706.0191507115305
 20
2.4597518320007339
 10
-9706.023893769323
 20
2.4638817864706879
 42
0.0259124802176327
 10
-9706.2634486007446
 20
2.6515723136138831
 10
-9706.26797944592
 20
2.6547578159392731
 42
0.0245162153022851
 10
-9706.5158957990207
 20
2.8114908250546478
 10
-9706.5204223453529
 20
2.8140510222600534
 42
0.0229282588818774
 10
-9706.7728419021732
 20
2.9419192147544209
 10
-9706.7776223960136
 20
2.9440715145178147
 42
0.0212984135729497
 10
-9707.0306603484714
 20
3.0452704317586949
 10
-9707.0359646334327
 20
3.0471339945159293
 42
0.019755546231302
 10
-9707.2857429711639
 20
3.1239494124835119
 42
0.0183511896818898
 10
-9707.540671696639
 20
3.1815323194511782
 10
-9707.627036893351
 20
3.1977351098339639
 42
0.0338057877154913
 10
-9707.9125442426121
 20
3.2315435149743053
 10
-9708.0035496476557
 20
3.2361231702358642
 42
0.0091990524569803
 10
-9708.1093967562865
 20
3.2394990261577732
 42
0.0028333980702639
 10
-9708.2153106722762
 20
3.2403271336745076
 10
-9708.2162261253288
 20
3.2403291034985386
 42
-0.0023619827736207
 10
-9708.3239721404479
 20
3.2410699445771818
 10
-9708.3603773106115
 20
3.2414922510400856
 42
0.000882459848577
 10
-9708.5409333004354
 20
3.2432680292781293
 10
-9708.5847947328657
 20
3.2436219908039448
 42
0.0038132665801685
 10
-9708.853077628748
 20
3.2437409268705344
 10
-9708.8696112835387
 20
3.2436221607269999
 42
0.0060665569352419
 10
-9709.1708917751312
 20
3.2378018613061723
 10
-9709.1851421071551
 20
3.2373535533386075
 42
0.0080356953364543
 10
-9709.5146008234988
 20
3.2216858312715222
 10
-9709.5266708385825
 20
3.2209172483312614
 42
0.0098996399109788
 10
-9709.8794339232281
 20
3.1914320191334498
 10
-9709.8894796326076
 20
3.190391722934919
 42
0.0117740981389675
 10
-9710.2606364909498
 20
3.1430994754060935
 10
-9710.2688591874394
 20
3.14185435883428
 42
0.0137435215120018
 10
-9710.6534480069295
 20
3.072757385271836
 10
-9710.6601050460486
 20
3.071371489039052
 42
0.0158359869372861
 10
-9711.0531021398547
 20
2.9764794005570301
 10
-9711.0585153267166
 20
2.9749894596877766
 42
0.0180554124012753
 10
-9711.4548303713309
 20
2.8503514434488793
 10
-9711.4593871594134
 20
2.848735407182744
 42
0.0203657431284467
 10
-9711.8538646772286
 20
2.6904750656648604
 10
-9711.8580082162316
 20
2.6886134442250977
 42
0.0226819684652736
 10
-9712.2454442724375
 20
2.4929708655523806
 10
-9712.2496440634532
 20
2.4906052736342872
 42
0.024863498459686
 10
-9712.6248260046414
 20
2.2539786276817271
 10
-9712.6730209334146
 20
2.2201215858638963
 42
0.026704419085126
 10
-9712.947313630335
 20
2.0046812099932367
 42
0.0139303002163642
 10
-9713.2034807962427
 20
1.7674423691135095
 10
-9713.2083341819962
 20
1.762689706221181
 42
0.0283460963432327
 10
-9713.452406776225
 20
1.4949590457726207
 10
-9713.4920752813778
 20
1.4461574683029994
 42
0.0070695364835984
 10
-9713.569512507238
 20
1.3480906523375324
 42
0.0070695364835984
  0
LWPOLYLINE
  5
5E
100
AcDbEntity
  8
0
370
              15
390
0
  6
Continuous
 62
               7
100
AcDbPolyline
 90
      226
 70
             128
 10
-9717.0983329444844
 20
-14.373498153846413
 42
-0.0026277637049899
 10
-9717.0984108282864
 20
-14.306726228930806
 10
-9717.0981934700521
 20
-14.253571010660266
 42
-0.0088680296714107
 10
-9717.094416853759
 20
-14.080555228254381
 10
-9717.0920704946475
 20
-14.021275202803622
 42
-0.0077381705609746
 10
-9717.0760243838831
 20
-13.730014707002974
 10
-9717.0751564727107
 20
-13.71772647332034
 42
-0.0068872530504395
 10
-9717.0485243929543
 20
-13.402504721160419
 10
-9717.0473201687764
 20
-13.390263742232605
 42
-0.00621300214604
 10
-9717.0097264519409
 20
-13.051394050923372
 10
-9717.0082225484148
 20
-13.039220179077574
 42
-0.005672692966431
 10
-9716.9593006888936
 20
-12.677024956848532
 10
-9716.9575272432667
 20
-12.664931156718808
 42
-0.0052341884519628
 10
-9716.8969166570168
 20
-12.279737901259539
 10
-9716.8948986682299
 20
-12.267732971208488
 42
-0.0049768450176371
 10
-9716.8221599868048
 20
-11.859888403776818
 10
-9716.7979109720836
 20
-11.731340420769925
 42
-0.008902980562971
 10
-9716.6608301203087
 20
-11.069564973439423
 10
-9716.6280847449707
 20
-10.924533542824065
 42
-0.0080318257089015
 10
-9716.3985361306059
 20
-9.9788239108798251
 10
-9716.3865512041812
 20
-9.9326932757802524
 42
-0.0074265721309656
 10
-9716.1025396653295
 20
-8.9026286973972812
 10
-9716.0826601222143
 20
-8.8344946368105273
 42
-0.0069711922699109
 10
-9715.7553555437062
 20
-7.7682268964823606
 10
-9715.6954035965628
 20
-7.582205537995887
 42
-0.005207042288948
 10
-9715.4659783713414
 20
-6.8949334610804272
 10
-9715.4486971791212
 20
-6.8449061803245224
 42
-0.0009167004450815
 10
-9715.2456052918787
 20
-6.2604503323092331
 42
-0.0025162726960836
 10
-9715.0385076617113
 20
-5.6774090684071821
 10
-9715.0012830497999
 20
-5.574259522205347
 42
-0.0028212681447572
 10
-9714.7531071308495
 20
-4.8985288900702244
 10
-9714.7432763681136
 20
-4.8722214454323387
 42
-0.0031964916818875
 10
-9714.5069841104378
 20
-4.2520166832664472
 10
-9714.4973496564398
 20
-4.2272066931265604
 42
-0.003628183643412
 10
-9714.2722436953372
 20
-3.6597660122300795
 10
-9714.262805285136
 20
-3.6364685806214787
 42
-0.0041269166820962
 10
-9714.0481875885198
 20
-3.1190276847489713
 10
-9714.0155546320784
 20
-3.0421492383372688
 42
-0.0047472213039125
 10
-9713.8585098265467
 20
-2.6817277705044944
 10
-9713.8516157453814
 20
-2.6663071732707651
 42
-0.0025651659992014
 10
-9713.7032577114878
 20
-2.33897911742406
 42
-0.0057144634993214
 10
-9713.5495080177498
 20
-2.0141694441326319
 10
-9713.521477312288
 20
-1.9566610616141431
 42
-0.0065388068376163
 10
-9713.3380102845749
 20
-1.5924285650023648
 10
-9713.3295518287523
 20
-1.5761689855476033
 42
-0.0074510842994058
 10
-9713.1533695829185
 20
-1.2494807045101197
 10
-9713.1451899123495
 20
-1.2348399271746937
 42
-0.008464897986821
 10
-9712.9755560592857
 20
-0.9429309162801474
 10
-9712.9676999328094
 20
-0.9299239246477273
 42
-0.0095638542814993
 10
-9712.803864485204
 20
-0.6700350526507464
 10
-9712.7963895415323
 20
-0.6586656911965718
 42
-0.0107191626808514
 10
-9712.6375879611442
 20
-0.428054456651239
 10
-9712.6305712274207
 20
-0.4183183642973928
 42
-0.011845857394673
 10
-9712.4760231289019
 20
-0.214246168975933
 42
-0.0129184518205706
 10
-9712.3115705052696
 20
-0.0180856527715109
 10
-9712.281425732941
 20
0.0160404260889808
 42
-0.0217742579635125
 10
-9712.1048134106022
 20
0.1992471963441176
 10
-9712.0940678661682
 20
0.2094640295224921
 42
-0.0097266568647686
 10
-9711.9280102472858
 20
0.3613116039844044
 42
-0.0187720905724326
 10
-9711.7536626714191
 20
0.5033804573571856
 10
-9711.7229566807109
 20
0.5265395397795194
 42
-0.0179428207492182
 10
-9711.4905359607255
 20
0.6890917168814212
 10
-9711.4868836338028
 20
0.6914556517736914
 42
-0.0170047877703934
 10
-9711.2511199962792
 20
0.8329161659206648
 10
-9711.2473370075168
 20
0.8350144709653293
 42
-0.0160190788376979
 10
-9711.0104284598965
 20
0.9566657729450299
 42
-0.0151102861540802
 10
-9710.7663966774599
 20
1.0633485489958341
 10
-9710.7140101752393
 20
1.0843886818943247
 42
-0.0271945441883422
 10
-9710.3553476161778
 20
1.2062534926011146
 10
-9710.2862828156904
 20
1.2256030338675732
 42
-0.0237596594002524
 10
-9709.8704859686695
 20
1.3210537458481895
 10
-9709.8024231149429
 20
1.3333084339741876
 42
-0.0213715440546139
 10
-9709.5165481834956
 20
1.3722554654848409
 10
-9709.4564010172726
 20
1.3778451801861753
 42
-0.0101465655772894
 10
-9709.2889084852832
 20
1.3899887234498465
 10
-9709.2795680990821
 20
1.3904756384472274
 42
-0.0100375910884108
 10
-9709.1304139985223
 20
1.3952514563723071
 10
-9709.1201547288401
 20
1.3953738953867763
 42
-0.010362563333408
 10
-9708.991446734186
 20
1.3942424618601308
 10
-9708.9691810829136
 20
1.3935851033950737
 42
-0.0115689250148274
 10
-9708.8851303453921
 20
1.3891555971500793
 42
-0.0072438037500341
 10
-9708.8012920659512
 20
1.3815663974006749
 10
-9708.7844915564783
 20
1.3797998546765484
 42
-0.0217917313106571
 10
-9708.6679217931651
 20
1.3623799619554602
 10
-9708.6023217025886
 20
1.3496333535392466
 42
-0.033294355673399
 10
-9708.3979295375721
 20
1.2955930622339338
 10
-9708.367756969019
 20
1.285424985114457
 42
-0.0184824084796036
 10
-9708.2292519125549
 20
1.2329739697289597
 42
-0.0198002050697405
 10
-9708.095177572035
 20
1.1700899095191186
 10
-9708.0932909346793
 20
1.1691121226497216
 42
-0.021224234296283
 10
-9707.9611519922637
 20
1.09334938384767
 10
-9707.9593366967347
 20
1.0922035816482776
 42
-0.0226090605802647
 10
-9707.8308327955037
 20
1.0027239380779498
 10
-9707.8289883537745
 20
1.0013116850963115
 42
-0.0238457052255709
 10
-9707.7058062724773
 20
0.8973157892300663
 10
-9707.7038535439224
 20
0.8955009114678205
 42
-0.0248160564149356
 10
-9707.587652036611
 20
0.7762263102463569
 10
-9707.5855484032199
 20
0.7738409765546521
 42
-0.0254109591427583
 10
-9707.4779431853513
 20
0.6385525905864111
 10
-9707.4756951634408
 20
0.6354110421897303
 42
-0.0255528488285279
 10
-9707.3782484846288
 20
0.4833839879321354
 10
-9707.3759173847266
 20
0.4793023763478459
 42
-0.0252146793261068
 10
-9707.2901363587243
 20
0.3098001303647238
 10
-9707.287834119561
 20
0.3046180484379875
 42
-0.0244265635972582
 10
-9707.2151794258007
 20
0.1168714763995036
 10
-9707.2059330243283
 20
0.0890060580483698
 42
-0.0231319612882527
 10
-9707.1600102453376
 20
-0.074294988748079
 42
-0.0112130424299967
 10
-9707.1253742227964
 20
-0.2404985889588517
 10
-9707.1241716976874
 20
-0.2469951758240541
 42
-0.0210527881319165
 10
-9707.098485222321
 20
-0.4280508212162568
 10
-9707.0949746274946
 20
-0.4634563698125476
 42
-0.0190029892397314
 10
-9707.0795331539503
 20
-0.7169922161047214
 10
-9707.0787231775066
 20
-0.7524678304538384
 42
-0.013797455362358
 10
-9707.0802720303454
 20
-1.0774992372831591
 10
-9707.0811174852952
 20
-1.1036179816927614
 42
-0.0081336634257619
 10
-9707.0959768205194
 20
-1.408965449379366
 42
-0.0073526923571696
 10
-9707.1202853539035
 20
-1.7137136937516149
 10
-9707.1215467776783
 20
-1.7270503683305378
 42
-0.0066886138686288
 10
-9707.1572823637362
 20
-2.0576364119194048
 10
-9707.1589394531948
 20
-2.0712580308191946
 42
-0.0061359187411548
 10
-9707.2067900552356
 20
-2.4280220108481814
 10
-9707.2088275563183
 20
-2.4419168137484348
 42
-0.0056698610096447
 10
-9707.2694778870846
 20
-2.8251953825753491
 10
-9707.271883320409
 20
-2.8393545018171835
 42
-0.0052721077298532
 10
-9707.3460155211997
 20
-3.2494818414501547
 10
-9707.3487786700498
 20
-3.2638984768810815
 42
-0.0049289272188104
 10
-9707.4370727881505
 20
-3.7012069880154934
 10
-9707.4401852828305
 20
-3.715875840819308
 42
-0.0047415956699482
 10
-9707.5434232743737
 20
-4.1806725982681865
 10
-9707.5781914847248
 20
-4.3304796936131424
 42
-0.0084404470909736
 10
-9707.7682079282968
 20
-5.090703718149034
 10
-9707.7743346162806
 20
-5.113567842297698
 42
-0.0039635940256171
 10
-9707.9957883005882
 20
-5.9145567066300595
 10
-9708.0091650957438
 20
-5.9614883231369049
 42
-0.0072475040831276
 10
-9708.2766119836178
 20
-6.8507080395599003
 10
-9708.3468243104344
 20
-7.0724483894985433
 42
-0.005134545883652
 10
-9708.6335836824946
 20
-7.9467735773102959
 10
-9708.6551099491171
 20
-8.0101998440159257
 42
-0.0019150016611599
 10
-9708.9106433561283
 20
-8.7537489646663289
 10
-9708.9171109605068
 20
-8.7723364295357911
 42
-0.0021524362750818
 10
-9709.1655890115871
 20
-9.4766622512958065
 10
-9709.1747994323123
 20
-9.5024158296766057
 42
-0.0024331286824777
 10
-9709.4110546913216
 20
-10.153015137715443
 10
-9709.4201026438586
 20
-10.177558444031822
 42
-0.0027449721787995
 10
-9709.6447172147055
 20
-10.776688322994232
 10
-9709.6536072221024
 20
-10.800010912860765
 42
-0.0031083229759158
 10
-9709.8671497087089
 20
-11.349934950426132
 10
-9709.8758858403307
 20
-11.372024666148002
 42
-0.0035311343300798
 10
-9710.0789270259756
 20
-11.875007792014003
 10
-9710.0875123651258
 20
-11.895850515531334
 42
-0.0040245640937859
 10
-9710.2806241689177
 20
-12.354159838116743
 10
-9710.2890602825319
 20
-12.373739206214529
 42
-0.00460151358492
 10
-9710.4728165756842
 20
-12.78964423583102
 10
-9710.4811027534361
 20
-12.80794137511403
 42
-0.0052768638297433
 10
-9710.6560802724689
 20
-13.183714259553426
 10
-9710.6642124831051
 20
-13.200707598117521
 42
-0.0060672675618731
 10
-9710.8309920958618
 20
-13.538623221210855
 10
-9710.838961576379
 20
-13.554288480279926
 42
-0.0069904648842206
 10
-9710.9981299703431
 20
-13.856624286871806
 10
-9711.0059213699424
 20
-13.870934836079048
 42
-0.0080637022758565
 10
-9711.1580732303009
 20
-14.139970139252227
 10
-9711.1656622629325
 20
-14.152898004853439
 42
-0.0093006455676939
 10
-9711.3114029394637
 20
-14.390912403356083
 10
-9711.3187536061905
 20
-14.402430372502494
 42
-0.0107060778084826
 10
-9711.4587021496463
 20
-14.611700689908275
 10
-9711.4657639179168
 20
-14.62178623246065
 42
-0.0122723111413858
 10
-9711.600557636124
 20
-14.804579561963124
 10
-9711.6008838596717
 20
-14.80499994976376
 42
-0.0141836319683341
 10
-9711.7444654626524
 20
-14.979569707602309
 10
-9711.7514132183096
 20
-14.987544707872766
 42
-0.0175957477177067
 10
-9711.8913193863373
 20
-15.137165596271871
 42
-0.0080466359653236
 10
-9712.0387831513726
 20
-15.279488124427413
 10
-9712.0848176958862
 20
-15.322508562514258
 42
-0.0269600260379199
 10
-9712.3380979418689
 20
-15.534831821023015
 10
-9712.404665078162
 20
-15.584783235643183
 42
-0.0178362839773196
 10
-9712.644609567822
 20
-15.751801161899721
 10
-9712.6518545388226
 20
-15.75646967410494
 42
-0.0174650732633732
 10
-9712.8881907362629
 20
-15.897330639063739
 42
-0.0169240130151338
 10
-9713.133656982116
 20
-16.021622898838608
 10
-9713.1796431376788
 20
-16.04298485440836
 42
-0.0318883036835984
 10
-9713.5299939933029
 20
-16.179323163919523
 10
-9713.5983595284633
 20
-16.201023784393126
 42
-0.0284435909905215
 10
-9713.9744096547547
 20
-16.297241219868624
 10
-9714.0095678152575
 20
-16.30413481569779
 42
-0.024390934100753
 10
-9714.3230112761739
 20
-16.349855846727223
 10
-9714.373292002947
 20
-16.354701393629142
 42
-0.0196639292906328
 10
-9714.5888875804703
 20
-16.366949679142408
 10
-9714.640711651633
 20
-16.367852939879121
 42
-0.0100501510629719
 10
-9714.7531349333003
 20
-16.367552541526038
 10
-9714.7847947946448
 20
-16.366831469640672
 42
-0.0019752031193036
 10
-9714.8338871313244
 20
-16.365519309431079
 10
-9714.8366474345476
 20
-16.365434617604731
 42
0.0065378752045106
 10
-9714.8802240093009
 20
-16.364667726389825
 42
-0.0167974694643967
 10
-9714.9237548322362
 20
-16.363007827863601
 10
-9714.9278341714962
 20
-16.362714816968833
 42
-0.008128327631596
 10
-9714.9793939692299
 20
-16.358167823331328
 10
-9714.9911335431134
 20
-16.356939905752597
 42
-0.0126703440308148
 10
-9715.0658518389046
 20
-16.347205114681316
 10
-9715.0886397065824
 20
-16.343646858765851
 42
-0.0117852088365164
 10
-9715.20817869241
 20
-16.322083863609695
 10
-9715.2635591441776
 20
-16.310740323374148
 42
-0.0251774592259743
 10
-9715.4904031831975
 20
-16.252242313937856
 10
-9715.5351223730304
 20
-16.238275494607684
 42
-0.0146525199909526
 10
-9715.7215153605757
 20
-16.174008967407758
 42
-0.0166929435887397
 10
-9715.9034930167199
 20
-16.098201834345325
 10
-9715.9081496479757
 20
-16.096076933739141
 42
-0.0191684358403121
 10
-9716.0933332792392
 20
-16.002840849941428
 10
-9716.0966658649813
 20
-16.000999602395837
 42
-0.0221181781797997
 10
-9716.2799761688966
 20
-15.88886610401582
 10
-9716.2823259728921
 20
-15.887281806034025
 42
-0.0254984685420876
 10
-9716.4586161232746
 20
-15.754870656066812
 10
-9716.4810982709714
 20
-15.736118347135099
 42
-0.0292492648751666
 10
-9716.6058672098225
 20
-15.61902554748508
 42
-0.015904895747406
 10
-9716.7197072072795
 20
-15.491005555877141
 10
-9716.721025997851
 20
-15.489423942865983
 42
-0.0343813379597338
 10
-9716.8236632594744
 20
-15.347552617099975
 10
-9716.8551547908373
 20
-15.297049225002407
 42
-0.0369117275738263
 10
-9716.9410472927357
 20
-15.133571984054015
 42
-0.0191751379923722
 10
-9717.0082406782913
 20
-14.961167378052975
 10
-9717.0100040020516
 20
-14.95607403337317
 42
-0.0378178042271111
 10
-9717.0597987208366
 20
-14.767133257291659
 10
-9717.0657940165656
 20
-14.734572639098548
 42
-0.0184846046580792
 10
-9717.0865112158608
 20
-14.59281981854997
 42
-0.0179866351354953
 10
-9717.0968442209341
 20
-14.449929005479248
 10
-9717.0969006633804
 20
-14.448371318856289
 42
-0.0085497186261487
 10
-9717.0983329444844
 20
-14.373498153846413
 42
-0.0085497186261487
  0
ENDBLK
  5
5F
100
AcDbEntity
  8
template
390
0
100
AcDbBlockEnd
  0
BLOCK
  5
60
100
AcDbEntity
  8
62ZN
390
0
100
AcDbBlockBegin
  2
*D4
 70
               1
 10
0.0
 20
0.0
 30
0.0
  3
*D4
  1

  0
LINE
  5
61
100
AcDbEntity
  8
0
370
              -2
390
0
  6
Continuous
 62
               0
100
AcDbLine
 10
-131.15743247653336
 20
901.37207270604154
 30
0.0
 11
-131.15743247653336
 21
1029.3720727060415
 31
0.0
  0
LINE
  5
62
100
AcDbEntity
  8
0
370
              -2
390
0
  6
Continuous
 62
               0
100
AcDbLine
 10
-751.15741817821072
 20
901.37207270604154
 30
0.0
 11
-751.15741817821072
 21
1029.3720727060415
 31
0.0
  0
LINE
  5
63
100
AcDbEntity
  8
0
370
              -2
390
0
  6
Continuous
 62
               0
100
AcDbLine
 10
-131.15743247653336
 20
1029.3720727060415
 30
0.0
 11
-751.15741817821072
 21
1029.3720727060415
 31
0.0
  0
CIRCLE
  5
64
102
{ACAD_REACTORS
330
65
102
}
100
AcDbEntity
  8
0
370
              -2
390
0
  6
Continuous
 62
               0
100
AcDbCircle
 10
-131.15743247653336
 20
1029.3720727060415
 30
0.0
 40
1.9998779296875
  0
HATCH
  5
65
100
AcDbEntity
  8
0
370
              -2
390
0
  6
Continuous
 62
               0
100
AcDbHatch
 10
0.0
 20
0.0
 30
0.0
210
0.0
220
0.0
230
1.0
  2
SOLID
 70
               1
 71
               1
 91
        1
 92
        1
 93
        1
 72
               2
 10
-131.15743247653336
 20
1029.3720727060415
 40
1.9998779296875
 50
0.0
 51
360.0
 73
               0
 97
        1
330
64
 75
               0
 76
               1
 98
        1
 10
0.0
 20
0.0
  0
CIRCLE
  5
66
102
{ACAD_REACTORS
330
67
102
}
100
AcDbEntity
  8
0
370
              -2
390
0
  6
Continuous
 62
               0
100
AcDbCircle
 10
-751.15741817821072
 20
1029.3720727060415
 30
0.0
 40
1.9998779296875
  0
HATCH
  5
67
100
AcDbEntity
  8
0
370
              -2
390
0
  6
Continuous
 62
               0
100
AcDbHatch
 10
0.0
 20
0.0
 30
0.0
210
0.0
220
0.0
230
1.0
  2
SOLID
 70
               1
 71
               1
 91
        1
 92
        1
 93
        1
 72
               2
 10
-751.15741817821072
 20
1029.3720727060415
 40
1.9998779296875
 50
0.0
 51
360.0
 73
               0
 97
        1
330
66
 75
               0
 76
               1
 98
        1
 10
0.0
 20
0.0
  0
MTEXT
  5
68
100
AcDbEntity
  8
0
390
0
 62
               0
100
AcDbMText
 10
-464.96992700954797
 20
1063.2496898935417
 30
0.0
 40
24.432617187500004
 41
0.0
 71
               1
 72
               1
  1
620
  7
ＭＳ ゴシック
 73
               1
 44
0.7828267384257843
  0
POINT
  5
69
100
AcDbEntity
  8
Defpoints
370
               0
390
0
 62
               0
100
AcDbPoint
 10
-751.15741817821072
 20
876.37207270604154
 30
0.0
  0
POINT
  5
6A
100
AcDbEntity
  8
Defpoints
370
               0
390
0
 62
               0
100
AcDbPoint
 10
-131.15743247653336
 20
876.37207270604154
 30
0.0
  0
POINT
  5
6B
100
AcDbEntity
  8
Defpoints
370
               0
390
0
 62
               0
100
AcDbPoint
 10
-131.15743247653336
 20
1029.3720727060415
 30
0.0
  0
ENDBLK
  5
6C
100
AcDbEntity
  8
62ZN
390
0
100
AcDbBlockEnd
  0
BLOCK
  5
6D
100
AcDbEntity
  8
62ZN
390
0
100
AcDbBlockBegin
  2
*D5
 70
               1
 10
0.0
 20
0.0
 30
0.0
  3
*D5
  1

  0
LINE
  5
6E
100
AcDbEntity
  8
0
370
              -2
390
0
  6
Continuous
 62
               0
100
AcDbLine
 10
-109.15741817821072
 20
879.37207271953253
 30
0.0
 11
-31.157418178210719
 21
879.37207271953253
 31
0.0
  0
LINE
  5
6F
100
AcDbEntity
  8
0
370
              -2
390
0
  6
Continuous
 62
               0
100
AcDbLine
 10
-312.46963955982574
 20
419.37207271953253
 30
0.0
 11
-31.157418178210719
 21
419.37207271953253
 31
0.0
  0
LINE
  5
70
100
AcDbEntity
  8
0
370
              -2
390
0
  6
Continuous
 62
               0
100
AcDbLine
 10
-31.157418178210719
 20
879.37207271953253
 30
0.0
 11
-31.157418178210719
 21
419.37207271953253
 31
0.0
  0
CIRCLE
  5
71
102
{ACAD_REACTORS
330
72
102
}
100
AcDbEntity
  8
0
370
              -2
390
0
  6
Continuous
 62
               0
100
AcDbCircle
 10
-31.157418178210719
 20
879.37207271953253
 30
0.0
 40
1.9998779296875
  0
HATCH
  5
72
100
AcDbEntity
  8
0
370
              -2
390
0
  6
Continuous
 62
               0
100
AcDbHatch
 10
0.0
 20
0.0
 30
0.0
210
0.0
220
0.0
230
1.0
  2
SOLID
 70
               1
 71
               1
 91
        1
 92
        1
 93
        1
 72
               2
 10
-31.157418178210719
 20
879.37207271953253
 40
1.9998779296875
 50
0.0
 51
360.0
 73
               0
 97
        1
330
71
 75
               0
 76
               1
 98
        1
 10
0.0
 20
0.0
  0
CIRCLE
  5
73
102
{ACAD_REACTORS
330
74
102
}
100
AcDbEntity
  8
0
370
              -2
390
0
  6
Continuous
 62
               0
100
AcDbCircle
 10
-31.157418178210719
 20
419.37207271953253
 30
0.0
 40
1.9998779296875
  0
HATCH
  5
74
100
AcDbEntity
  8
0
370
              -2
390
0
  6
Continuous
 62
               0
100
AcDbHatch
 10
0.0
 20
0.0
 30
0.0
210
0.0
220
0.0
230
1.0
  2
SOLID
 70
               1
 71
               1
 91
        1
 92
        1
 93
        1
 72
               2
 10
-31.157418178210719
 20
419.37207271953253
 40
1.9998779296875
 50
0.0
 51
360.0
 73
               0
 97
        1
330
73
 75
               0
 76
               1
 98
        1
 10
0.0
 20
0.0
  0
MTEXT
  5
75
100
AcDbEntity
  8
0
390
0
 62
               0
100
AcDbMText
 10
-65.035035365710428
 20
625.55957103735705
 30
0.0
 40
24.432617187500004
 41
0.0
 71
               1
 72
               1
  1
460
  7
ＭＳ ゴシック
 11
0.0
 21
1.0
 31
0.0
 73
               1
 44
0.7828267384257843
  0
POINT
  5
76
100
AcDbEntity
  8
Defpoints
370
               0
390
0
 62
               0
100
AcDbPoint
 10
-337.46963955982574
 20
419.37207271953253
 30
0.0
  0
POINT
  5
77
100
AcDbEntity
  8
Defpoints
370
               0
390
0
 62
               0
100
AcDbPoint
 10
-134.15741817821072
 20
879.37207271953253
 30
0.0
  0
POINT
  5
78
100
AcDbEntity
  8
Defpoints
370
               0
390
0
 62
               0
100
AcDbPoint
 10
-31.157418178210719
 20
879.37207271953253
 30
0.0
  0
ENDBLK
  5
79
100
AcDbEntity
  8
62ZN
390
0
100
AcDbBlockEnd
  0
BLOCK
  5
7A
100
AcDbEntity
  8
62ZN
390
0
100
AcDbBlockBegin
  2
*D6
 70
               1
 10
0.0
 20
0.0
 30
0.0
  3
*D6
  1

  0
LINE
  5
7B
100
AcDbEntity
  8
0
370
              -2
390
0
  6
Continuous
 62
               0
100
AcDbLine
 10
-112.15584645310082
 20
-336.47517822451414
 30
0.0
 11
-31.455846453100094
 21
-336.47517822451414
 31
0.0
  0
LINE
  5
7C
100
AcDbEntity
  8
0
370
              -2
390
0
  6
Continuous
 62
               0
100
AcDbLine
 10
-224.33711090748329
 20
-496.47517822451516
 30
0.0
 11
-31.455846453100094
 21
-496.47517822451516
 31
0.0
  0
LINE
  5
7D
100
AcDbEntity
  8
0
370
              -2
390
0
  6
Continuous
 62
               0
100
AcDbLine
 10
-31.455846453100094
 20
-336.47517822451414
 30
0.0
 11
-31.455846453100094
 21
-496.47517822451516
 31
0.0
  0
CIRCLE
  5
7E
102
{ACAD_REACTORS
330
7F
102
}
100
AcDbEntity
  8
0
370
              -2
390
0
  6
Continuous
 62
               0
100
AcDbCircle
 10
-31.455846453100094
 20
-336.47517822451414
 30
0.0
 40
1.9998779296875
  0
HATCH
  5
7F
100
AcDbEntity
  8
0
370
              -2
390
0
  6
Continuous
 62
               0
100
AcDbHatch
 10
0.0
 20
0.0
 30
0.0
210
0.0
220
0.0
230
1.0
  2
SOLID
 70
               1
 71
               1
 91
        1
 92
        1
 93
        1
 72
               2
 10
-31.455846453100094
 20
-336.47517822451414
 40
1.9998779296875
 50
0.0
 51
360.0
 73
               0
 97
        1
330
7E
 75
               0
 76
               1
 98
        1
 10
0.0
 20
0.0
  0
CIRCLE
  5
80
102
{ACAD_REACTORS
330
81
102
}
100
AcDbEntity
  8
0
370
              -2
390
0
  6
Continuous
 62
               0
100
AcDbCircle
 10
-31.455846453100094
 20
-496.47517822451516
 30
0.0
 40
1.9998779296875
  0
HATCH
  5
81
100
AcDbEntity
  8
0
370
              -2
390
0
  6
Continuous
 62
               0
100
AcDbHatch
 10
0.0
 20
0.0
 30
0.0
210
0.0
220
0.0
230
1.0
  2
SOLID
 70
               1
 71
               1
 91
        1
 92
        1
 93
        1
 72
               2
 10
-31.455846453100094
 20
-496.47517822451516
 40
1.9998779296875
 50
0.0
 51
360.0
 73
               0
 97
        1
330
80
 75
               0
 76
               1
 98
        1
 10
0.0
 20
0.0
  0
MTEXT
  5
82
100
AcDbEntity
  8
0
390
0
 62
               0
100
AcDbMText
 10
-65.333463640599803
 20
-440.28767990669007
 30
0.0
 40
24.432617187500004
 41
0.0
 71
               1
 72
               1
  1
160
  7
ＭＳ ゴシック
 11
0.0
 21
1.0
 31
0.0
 73
               1
 44
0.7828267384257843
  0
POINT
  5
83
100
AcDbEntity
  8
Defpoints
370
               0
390
0
 62
               0
100
AcDbPoint
 10
-249.33711090748329
 20
-496.47517822451516
 30
0.0
  0
POINT
  5
84
100
AcDbEntity
  8
Defpoints
370
               0
390
0
 62
               0
100
AcDbPoint
 10
-137.15584645310082
 20
-336.47517822451414
 30
0.0
  0
POINT
  5
85
100
AcDbEntity
  8
Defpoints
370
               0
390
0
 62
               0
100
AcDbPoint
 10
-31.455846453100094
 20
-336.47517822451414
 30
0.0
  0
ENDBLK
  5
86
100
AcDbEntity
  8
62ZN
390
0
100
AcDbBlockEnd
  0
BLOCK
  5
87
100
AcDbEntity
  8
62ZN
390
0
100
AcDbBlockBegin
  2
*D7
 70
               1
 10
0.0
 20
0.0
 30
0.0
  3
*D7
  1

  0
LINE
  5
88
100
AcDbEntity
  8
0
370
              -2
390
0
  6
Continuous
 62
               0
100
AcDbLine
 10
-770.17217278784119
 20
-336.47518033268852
 30
0.0
 11
-850.89421956859769
 21
-336.47518033268852
 31
0.0
  0
LINE
  5
89
100
AcDbEntity
  8
0
370
              -2
390
0
  6
Continuous
 62
               0
100
AcDbLine
 10
-613.65555346353722
 20
-376.47518033268909
 30
0.0
 11
-850.89421956859769
 21
-376.47518033268909
 31
0.0
  0
LINE
  5
8A
100
AcDbEntity
  8
0
370
              -2
390
0
  6
Continuous
 62
               0
100
AcDbLine
 10
-850.89421956859769
 20
-336.47518033268852
 30
0.0
 11
-850.89421956859769
 21
-376.47518033268909
 31
0.0
  0
CIRCLE
  5
8B
102
{ACAD_REACTORS
330
8C
102
}
100
AcDbEntity
  8
0
370
              -2
390
0
  6
Continuous
 62
               0
100
AcDbCircle
 10
-850.89421956859769
 20
-336.47518033268852
 30
0.0
 40
1.9998779296875
  0
HATCH
  5
8C
100
AcDbEntity
  8
0
370
              -2
390
0
  6
Continuous
 62
               0
100
AcDbHatch
 10
0.0
 20
0.0
 30
0.0
210
0.0
220
0.0
230
1.0
  2
SOLID
 70
               1
 71
               1
 91
        1
 92
        1
 93
        1
 72
               2
 10
-850.89421956859769
 20
-336.47518033268852
 40
1.9998779296875
 50
0.0
 51
360.0
 73
               0
 97
        1
330
8B
 75
               0
 76
               1
 98
        1
 10
0.0
 20
0.0
  0
CIRCLE
  5
8D
102
{ACAD_REACTORS
330
8E
102
}
100
AcDbEntity
  8
0
370
              -2
390
0
  6
Continuous
 62
               0
100
AcDbCircle
 10
-850.89421956859769
 20
-376.47518033268909
 30
0.0
 40
1.9998779296875
  0
HATCH
  5
8E
100
AcDbEntity
  8
0
370
              -2
390
0
  6
Continuous
 62
               0
100
AcDbHatch
 10
0.0
 20
0.0
 30
0.0
210
0.0
220
0.0
230
1.0
  2
SOLID
 70
               1
 71
               1
 91
        1
 92
        1
 93
        1
 72
               2
 10
-850.89421956859769
 20
-376.47518033268909
 40
1.9998779296875
 50
0.0
 51
360.0
 73
               0
 97
        1
330
8D
 75
               0
 76
               1
 98
        1
 10
0.0
 20
0.0
  0
MTEXT
  5
8F
100
AcDbEntity
  8
0
390
0
 62
               0
100
AcDbMText
 10
-884.7718367560974
 20
-372.35018033268875
 30
0.0
 40
24.432617187500004
 41
0.0
 71
               1
 72
               1
  1
40
  7
ＭＳ ゴシック
 11
0.0
 21
1.0
 31
0.0
 73
               1
 44
0.7828267384257843
  0
POINT
  5
90
100
AcDbEntity
  8
Defpoints
370
               0
390
0
 62
               0
100
AcDbPoint
 10
-588.65555346353722
 20
-376.47518033268909
 30
0.0
  0
POINT
  5
91
100
AcDbEntity
  8
Defpoints
370
               0
390
0
 62
               0
100
AcDbPoint
 10
-745.17217278784119
 20
-336.47518033268852
 30
0.0
  0
POINT
  5
92
100
AcDbEntity
  8
Defpoints
370
               0
390
0
 62
               0
100
AcDbPoint
 10
-850.89421956859769
 20
-336.47518033268852
 30
0.0
  0
ENDBLK
  5
93
100
AcDbEntity
  8
62ZN
390
0
100
AcDbBlockEnd
  0
BLOCK
  5
94
100
AcDbEntity
  8
62ZN
390
0
100
AcDbBlockBegin
  2
*D8
 70
               1
 10
0.0
 20
0.0
 30
0.0
  3
*D8
  1

  0
LINE
  5
95
100
AcDbEntity
  8
0
370
              -2
390
0
  6
Continuous
 62
               0
100
AcDbLine
 10
-341.15749690431949
 20
854.3774487458893
 30
0.0
 11
-341.15749690431949
 21
979.3774487458893
 31
0.0
  0
LINE
  5
96
100
AcDbEntity
  8
0
370
              -2
390
0
  6
Continuous
 62
               0
100
AcDbLine
 10
-441.15738234707715
 20
856.8774487458893
 30
0.0
 11
-441.15738234707715
 21
979.3774487458893
 31
0.0
  0
LINE
  5
97
100
AcDbEntity
  8
0
370
              -2
390
0
  6
Continuous
 62
               0
100
AcDbLine
 10
-341.15749690431949
 20
979.3774487458893
 30
0.0
 11
-441.15738234707715
 21
979.3774487458893
 31
0.0
  0
CIRCLE
  5
98
102
{ACAD_REACTORS
330
99
102
}
100
AcDbEntity
  8
0
370
              -2
390
0
  6
Continuous
 62
               0
100
AcDbCircle
 10
-341.15749690431949
 20
979.3774487458893
 30
0.0
 40
1.9998779296875
  0
HATCH
  5
99
100
AcDbEntity
  8
0
370
              -2
390
0
  6
Continuous
 62
               0
100
AcDbHatch
 10
0.0
 20
0.0
 30
0.0
210
0.0
220
0.0
230
1.0
  2
SOLID
 70
               1
 71
               1
 91
        1
 92
        1
 93
        1
 72
               2
 10
-341.15749690431949
 20
979.3774487458893
 40
1.9998779296875
 50
0.0
 51
360.0
 73
               0
 97
        1
330
98
 75
               0
 76
               1
 98
        1
 10
0.0
 20
0.0
  0
CIRCLE
  5
9A
102
{ACAD_REACTORS
330
9B
102
}
100
AcDbEntity
  8
0
370
              -2
390
0
  6
Continuous
 62
               0
100
AcDbCircle
 10
-441.15738234707715
 20
979.3774487458893
 30
0.0
 40
1.9998779296875
  0
HATCH
  5
9B
100
AcDbEntity
  8
0
370
              -2
390
0
  6
Continuous
 62
               0
100
AcDbHatch
 10
0.0
 20
0.0
 30
0.0
210
0.0
220
0.0
230
1.0
  2
SOLID
 70
               1
 71
               1
 91
        1
 92
        1
 93
        1
 72
               2
 10
-441.15738234707715
 20
979.3774487458893
 40
1.9998779296875
 50
0.0
 51
360.0
 73
               0
 97
        1
330
9A
 75
               0
 76
               1
 98
        1
 10
0.0
 20
0.0
  0
MTEXT
  5
9C
100
AcDbEntity
  8
0
390
0
 62
               0
100
AcDbMText
 10
-414.96994130787425
 20
1013.2550659333895
 30
0.0
 40
24.432617187500004
 41
0.0
 71
               1
 72
               1
  1
100
  7
ＭＳ ゴシック
 73
               1
 44
0.7828267384257843
  0
POINT
  5
9D
100
AcDbEntity
  8
Defpoints
370
               0
390
0
 62
               0
100
AcDbPoint
 10
-441.15738234707715
 20
831.8774487458893
 30
0.0
  0
POINT
  5
9E
100
AcDbEntity
  8
Defpoints
370
               0
390
0
 62
               0
100
AcDbPoint
 10
-341.15749690431949
 20
829.3774487458893
 30
0.0
  0
POINT
  5
9F
100
AcDbEntity
  8
Defpoints
370
               0
390
0
 62
               0
100
AcDbPoint
 10
-341.15749690431949
 20
979.3774487458893
 30
0.0
  0
ENDBLK
  5
A0
100
AcDbEntity
  8
62ZN
390
0
100
AcDbBlockEnd
  0
BLOCK
  5
A1
100
AcDbEntity
  8
62ZN
390
0
100
AcDbBlockBegin
  2
*D9
 70
               1
 10
0.0
 20
0.0
 30
0.0
  3
*D9
  1

  0
LINE
  5
A2
100
AcDbEntity
  8
0
370
              -2
390
0
  6
Continuous
 62
               0
100
AcDbLine
 10
-441.15738234707715
 20
856.8774487458893
 30
0.0
 11
-441.15738234707715
 21
979.3774487458893
 31
0.0
  0
LINE
  5
A3
100
AcDbEntity
  8
0
370
              -2
390
0
  6
Continuous
 62
               0
100
AcDbLine
 10
-541.15738234707715
 20
854.3774487458893
 30
0.0
 11
-541.15738234707715
 21
979.3774487458893
 31
0.0
  0
LINE
  5
A4
100
AcDbEntity
  8
0
370
              -2
390
0
  6
Continuous
 62
               0
100
AcDbLine
 10
-441.15738234707715
 20
979.3774487458893
 30
0.0
 11
-541.15738234707715
 21
979.3774487458893
 31
0.0
  0
CIRCLE
  5
A5
102
{ACAD_REACTORS
330
A6
102
}
100
AcDbEntity
  8
0
370
              -2
390
0
  6
Continuous
 62
               0
100
AcDbCircle
 10
-441.15738234707715
 20
979.3774487458893
 30
0.0
 40
1.9998779296875
  0
HATCH
  5
A6
100
AcDbEntity
  8
0
370
              -2
390
0
  6
Continuous
 62
               0
100
AcDbHatch
 10
0.0
 20
0.0
 30
0.0
210
0.0
220
0.0
230
1.0
  2
SOLID
 70
               1
 71
               1
 91
        1
 92
        1
 93
        1
 72
               2
 10
-441.15738234707715
 20
979.3774487458893
 40
1.9998779296875
 50
0.0
 51
360.0
 73
               0
 97
        1
330
A5
 75
               0
 76
               1
 98
        1
 10
0.0
 20
0.0
  0
CIRCLE
  5
A7
102
{ACAD_REACTORS
330
A8
102
}
100
AcDbEntity
  8
0
370
              -2
390
0
  6
Continuous
 62
               0
100
AcDbCircle
 10
-541.15738234707715
 20
979.3774487458893
 30
0.0
 40
1.9998779296875
  0
HATCH
  5
A8
100
AcDbEntity
  8
0
370
              -2
390
0
  6
Continuous
 62
               0
100
AcDbHatch
 10
0.0
 20
0.0
 30
0.0
210
0.0
220
0.0
230
1.0
  2
SOLID
 70
               1
 71
               1
 91
        1
 92
        1
 93
        1
 72
               2
 10
-541.15738234707715
 20
979.3774487458893
 40
1.9998779296875
 50
0.0
 51
360.0
 73
               0
 97
        1
330
A7
 75
               0
 76
               1
 98
        1
 10
0.0
 20
0.0
  0
MTEXT
  5
A9
100
AcDbEntity
  8
0
390
0
 62
               0
100
AcDbMText
 10
-514.96988402925308
 20
1013.2550659333895
 30
0.0
 40
24.432617187500004
 41
0.0
 71
               1
 72
               1
  1
100
  7
ＭＳ ゴシック
 73
               1
 44
0.7828267384257843
  0
POINT
  5
AA
100
AcDbEntity
  8
Defpoints
370
               0
390
0
 62
               0
100
AcDbPoint
 10
-541.15738234707715
 20
829.3774487458893
 30
0.0
  0
POINT
  5
AB
100
AcDbEntity
  8
Defpoints
370
               0
390
0
 62
               0
100
AcDbPoint
 10
-441.15738234707715
 20
831.8774487458893
 30
0.0
  0
POINT
  5
AC
100
AcDbEntity
  8
Defpoints
370
               0
390
0
 62
               0
100
AcDbPoint
 10
-441.15738234707715
 20
979.3774487458893
 30
0.0
  0
ENDBLK
  5
AD
100
AcDbEntity
  8
62ZN
390
0
100
AcDbBlockEnd
  0
BLOCK
  5
AE
100
AcDbEntity
  8
62ZN
390
0
100
AcDbBlockBegin
  2
*D10
 70
               1
 10
0.0
 20
0.0
 30
0.0
  3
*D10
  1

  0
LINE
  5
AF
100
AcDbEntity
  8
0
370
              -2
390
0
  6
Continuous
 62
               0
100
AcDbLine
 10
-581.15742217520528
 20
-331.46558721680128
 30
0.0
 11
-581.15742217520528
 21
-236.46558721680117
 31
0.0
  0
LINE
  5
B0
100
AcDbEntity
  8
0
370
              -2
390
0
  6
Continuous
 62
               0
100
AcDbLine
 10
-301.15742217520528
 20
-331.46558721680128
 30
0.0
 11
-301.15742217520528
 21
-236.46558721680117
 31
0.0
  0
LINE
  5
B1
100
AcDbEntity
  8
0
370
              -2
390
0
  6
Continuous
 62
               0
100
AcDbLine
 10
-581.15742217520528
 20
-236.46558721680117
 30
0.0
 11
-301.15742217520528
 21
-236.46558721680117
 31
0.0
  0
CIRCLE
  5
B2
102
{ACAD_REACTORS
330
B3
102
}
100
AcDbEntity
  8
0
370
              -2
390
0
  6
Continuous
 62
               0
100
AcDbCircle
 10
-581.15742217520528
 20
-236.46558721680117
 30
0.0
 40
1.9998779296875
  0
HATCH
  5
B3
100
AcDbEntity
  8
0
370
              -2
390
0
  6
Continuous
 62
               0
100
AcDbHatch
 10
0.0
 20
0.0
 30
0.0
210
0.0
220
0.0
230
1.0
  2
SOLID
 70
               1
 71
               1
 91
        1
 92
        1
 93
        1
 72
               2
 10
-581.15742217520528
 20
-236.46558721680117
 40
1.9998779296875
 50
0.0
 51
360.0
 73
               0
 97
        1
330
B2
 75
               0
 76
               1
 98
        1
 10
0.0
 20
0.0
  0
CIRCLE
  5
B4
102
{ACAD_REACTORS
330
B5
102
}
100
AcDbEntity
  8
0
370
              -2
390
0
  6
Continuous
 62
               0
100
AcDbCircle
 10
-301.15742217520528
 20
-236.46558721680117
 30
0.0
 40
1.9998779296875
  0
HATCH
  5
B5
100
AcDbEntity
  8
0
370
              -2
390
0
  6
Continuous
 62
               0
100
AcDbHatch
 10
0.0
 20
0.0
 30
0.0
210
0.0
220
0.0
230
1.0
  2
SOLID
 70
               1
 71
               1
 91
        1
 92
        1
 93
        1
 72
               2
 10
-301.15742217520528
 20
-236.46558721680117
 40
1.9998779296875
 50
0.0
 51
360.0
 73
               0
 97
        1
330
B4
 75
               0
 76
               1
 98
        1
 10
0.0
 20
0.0
  0
MTEXT
  5
B6
100
AcDbEntity
  8
0
390
0
 62
               0
100
AcDbMText
 10
-464.96992385738122
 20
-202.58797002930123
 30
0.0
 40
24.432617187500004
 41
0.0
 71
               1
 72
               1
  1
280
  7
ＭＳ ゴシック
 73
               1
 44
0.7828267384257843
  0
POINT
  5
B7
100
AcDbEntity
  8
Defpoints
370
               0
390
0
 62
               0
100
AcDbPoint
 10
-301.15742217520528
 20
-356.46558721680128
 30
0.0
  0
POINT
  5
B8
100
AcDbEntity
  8
Defpoints
370
               0
390
0
 62
               0
100
AcDbPoint
 10
-581.15742217520528
 20
-356.46558721680128
 30
0.0
  0
POINT
  5
B9
100
AcDbEntity
  8
Defpoints
370
               0
390
0
 62
               0
100
AcDbPoint
 10
-581.15742217520528
 20
-236.46558721680117
 30
0.0
  0
ENDBLK
  5
BA
100
AcDbEntity
  8
62ZN
390
0
100
AcDbBlockEnd
  0
BLOCK
  5
BB
100
AcDbEntity
  8
62ZN
390
0
100
AcDbBlockBegin
  2
*D11
 70
               1
 10
0.0
 20
0.0
 30
0.0
  3
*D11
  1

  0
LINE
  5
BC
100
AcDbEntity
  8
0
370
              -2
390
0
  6
Continuous
 62
               0
100
AcDbLine
 10
502.90425851104555
 20
-516.34340793179456
 30
0.0
 11
502.90425851104555
 21
-596.47517822451516
 31
0.0
  0
LINE
  5
BD
100
AcDbEntity
  8
0
370
              -2
390
0
  6
Continuous
 62
               0
100
AcDbLine
 10
732.90425851104555
 20
-518.47517822451516
 30
0.0
 11
732.90425851104555
 21
-596.47517822451516
 31
0.0
  0
LINE
  5
BE
100
AcDbEntity
  8
0
370
              -2
390
0
  6
Continuous
 62
               0
100
AcDbLine
 10
502.90425851104555
 20
-596.47517822451516
 30
0.0
 11
732.90425851104555
 21
-596.47517822451516
 31
0.0
  0
CIRCLE
  5
BF
102
{ACAD_REACTORS
330
C0
102
}
100
AcDbEntity
  8
0
370
              -2
390
0
  6
Continuous
 62
               0
100
AcDbCircle
 10
502.90425851104555
 20
-596.47517822451516
 30
0.0
 40
1.9998779296875
  0
HATCH
  5
C0
100
AcDbEntity
  8
0
370
              -2
390
0
  6
Continuous
 62
               0
100
AcDbHatch
 10
0.0
 20
0.0
 30
0.0
210
0.0
220
0.0
230
1.0
  2
SOLID
 70
               1
 71
               1
 91
        1
 92
        1
 93
        1
 72
               2
 10
502.90425851104555
 20
-596.47517822451516
 40
1.9998779296875
 50
0.0
 51
360.0
 73
               0
 97
        1
330
BF
 75
               0
 76
               1
 98
        1
 10
0.0
 20
0.0
  0
CIRCLE
  5
C1
102
{ACAD_REACTORS
330
C2
102
}
100
AcDbEntity
  8
0
370
              -2
390
0
  6
Continuous
 62
               0
100
AcDbCircle
 10
732.90425851104555
 20
-596.47517822451516
 30
0.0
 40
1.9998779296875
  0
HATCH
  5
C2
100
AcDbEntity
  8
0
370
              -2
390
0
  6
Continuous
 62
               0
100
AcDbHatch
 10
0.0
 20
0.0
 30
0.0
210
0.0
220
0.0
230
1.0
  2
SOLID
 70
               1
 71
               1
 91
        1
 92
        1
 93
        1
 72
               2
 10
732.90425851104555
 20
-596.47517822451516
 40
1.9998779296875
 50
0.0
 51
360.0
 73
               0
 97
        1
330
C1
 75
               0
 76
               1
 98
        1
 10
0.0
 20
0.0
  0
MTEXT
  5
C3
100
AcDbEntity
  8
0
390
0
 62
               0
100
AcDbMText
 10
594.09175682886962
 20
-562.59756103701511
 30
0.0
 40
24.432617187500004
 41
0.0
 71
               1
 72
               1
  1
230
  7
ＭＳ ゴシック
 73
               1
 44
0.7828267384257843
  0
POINT
  5
C4
100
AcDbEntity
  8
Defpoints
370
               0
390
0
 62
               0
100
AcDbPoint
 10
732.90425851104555
 20
-493.47517822451516
 30
0.0
  0
POINT
  5
C5
100
AcDbEntity
  8
Defpoints
370
               0
390
0
 62
               0
100
AcDbPoint
 10
502.90425851104555
 20
-491.34340793179456
 30
0.0
  0
POINT
  5
C6
100
AcDbEntity
  8
Defpoints
370
               0
390
0
 62
               0
100
AcDbPoint
 10
502.90425851104555
 20
-596.47517822451516
 30
0.0
  0
ENDBLK
  5
C7
100
AcDbEntity
  8
62ZN
390
0
100
AcDbBlockEnd
  0
BLOCK
  5
C8
100
AcDbEntity
  8
62ZN
390
0
100
AcDbBlockBegin
  2
*D12
 70
               1
 10
0.0
 20
0.0
 30
0.0
  3
*D12
  1

  0
LINE
  5
C9
100
AcDbEntity
  8
0
370
              -2
390
0
  6
Continuous
 62
               0
100
AcDbLine
 10
252.37452356141512
 20
-336.47517822451414
 30
0.0
 11
174.37452356141512
 21
-336.47517822451414
 31
0.0
  0
LINE
  5
CA
100
AcDbEntity
  8
0
370
              -2
390
0
  6
Continuous
 62
               0
100
AcDbLine
 10
254.47452356141548
 20
-431.47517822451516
 30
0.0
 11
174.37452356141512
 21
-431.47517822451516
 31
0.0
  0
LINE
  5
CB
100
AcDbEntity
  8
0
370
              -2
390
0
  6
Continuous
 62
               0
100
AcDbLine
 10
174.37452356141512
 20
-336.47517822451414
 30
0.0
 11
174.37452356141512
 21
-431.47517822451516
 31
0.0
  0
CIRCLE
  5
CC
102
{ACAD_REACTORS
330
CD
102
}
100
AcDbEntity
  8
0
370
              -2
390
0
  6
Continuous
 62
               0
100
AcDbCircle
 10
174.37452356141512
 20
-336.47517822451414
 30
0.0
 40
1.9998779296875
  0
HATCH
  5
CD
100
AcDbEntity
  8
0
370
              -2
390
0
  6
Continuous
 62
               0
100
AcDbHatch
 10
0.0
 20
0.0
 30
0.0
210
0.0
220
0.0
230
1.0
  2
SOLID
 70
               1
 71
               1
 91
        1
 92
        1
 93
        1
 72
               2
 10
174.37452356141512
 20
-336.47517822451414
 40
1.9998779296875
 50
0.0
 51
360.0
 73
               0
 97
        1
330
CC
 75
               0
 76
               1
 98
        1
 10
0.0
 20
0.0
  0
CIRCLE
  5
CE
102
{ACAD_REACTORS
330
CF
102
}
100
AcDbEntity
  8
0
370
              -2
390
0
  6
Continuous
 62
               0
100
AcDbCircle
 10
174.37452356141512
 20
-431.47517822451516
 30
0.0
 40
1.9998779296875
  0
HATCH
  5
CF
100
AcDbEntity
  8
0
370
              -2
390
0
  6
Continuous
 62
               0
100
AcDbHatch
 10
0.0
 20
0.0
 30
0.0
210
0.0
220
0.0
230
1.0
  2
SOLID
 70
               1
 71
               1
 91
        1
 92
        1
 93
        1
 72
               2
 10
174.37452356141512
 20
-431.47517822451516
 40
1.9998779296875
 50
0.0
 51
360.0
 73
               0
 97
        1
330
CE
 75
               0
 76
               1
 98
        1
 10
0.0
 20
0.0
  0
MTEXT
  5
D0
100
AcDbEntity
  8
0
390
0
 62
               0
100
AcDbMText
 10
140.49690637391541
 20
-399.85017822451459
 30
0.0
 40
24.432617187500004
 41
0.0
 71
               1
 72
               1
  1
95
  7
ＭＳ ゴシック
 11
0.0
 21
1.0
 31
0.0
 73
               1
 44
0.7828267384257843
  0
POINT
  5
D1
100
AcDbEntity
  8
Defpoints
370
               0
390
0
 62
               0
100
AcDbPoint
 10
279.47452356141548
 20
-431.47517822451516
 30
0.0
  0
POINT
  5
D2
100
AcDbEntity
  8
Defpoints
370
               0
390
0
 62
               0
100
AcDbPoint
 10
277.37452356141512
 20
-336.47517822451414
 30
0.0
  0
POINT
  5
D3
100
AcDbEntity
  8
Defpoints
370
               0
390
0
 62
               0
100
AcDbPoint
 10
174.37452356141512
 20
-336.47517822451414
 30
0.0
  0
ENDBLK
  5
D4
100
AcDbEntity
  8
62ZN
390
0
100
AcDbBlockEnd
  0
BLOCK
  5
D5
100
AcDbEntity
  8
62ZN
390
0
100
AcDbBlockBegin
  2
*D13
 70
               1
 10
0.0
 20
0.0
 30
0.0
  3
*D13
  1

  0
LINE
  5
D6
100
AcDbEntity
  8
0
370
              -2
390
0
  6
Continuous
 62
               0
100
AcDbLine
 10
254.47452356141548
 20
-431.47517822451516
 30
0.0
 11
174.37452356141512
 21
-431.47517822451516
 31
0.0
  0
LINE
  5
D7
100
AcDbEntity
  8
0
370
              -2
390
0
  6
Continuous
 62
               0
100
AcDbLine
 10
383.92978031376515
 20
-496.47517822451516
 30
0.0
 11
174.37452356141512
 21
-496.47517822451516
 31
0.0
  0
LINE
  5
D8
100
AcDbEntity
  8
0
370
              -2
390
0
  6
Continuous
 62
               0
100
AcDbLine
 10
174.37452356141512
 20
-431.47517822451516
 30
0.0
 11
174.37452356141512
 21
-496.47517822451516
 31
0.0
  0
CIRCLE
  5
D9
102
{ACAD_REACTORS
330
DA
102
}
100
AcDbEntity
  8
0
370
              -2
390
0
  6
Continuous
 62
               0
100
AcDbCircle
 10
174.37452356141512
 20
-431.47517822451516
 30
0.0
 40
1.9998779296875
  0
HATCH
  5
DA
100
AcDbEntity
  8
0
370
              -2
390
0
  6
Continuous
 62
               0
100
AcDbHatch
 10
0.0
 20
0.0
 30
0.0
210
0.0
220
0.0
230
1.0
  2
SOLID
 70
               1
 71
               1
 91
        1
 92
        1
 93
        1
 72
               2
 10
174.37452356141512
 20
-431.47517822451516
 40
1.9998779296875
 50
0.0
 51
360.0
 73
               0
 97
        1
330
D9
 75
               0
 76
               1
 98
        1
 10
0.0
 20
0.0
  0
CIRCLE
  5
DB
102
{ACAD_REACTORS
330
DC
102
}
100
AcDbEntity
  8
0
370
              -2
390
0
  6
Continuous
 62
               0
100
AcDbCircle
 10
174.37452356141512
 20
-496.47517822451516
 30
0.0
 40
1.9998779296875
  0
HATCH
  5
DC
100
AcDbEntity
  8
0
370
              -2
390
0
  6
Continuous
 62
               0
100
AcDbHatch
 10
0.0
 20
0.0
 30
0.0
210
0.0
220
0.0
230
1.0
  2
SOLID
 70
               1
 71
               1
 91
        1
 92
        1
 93
        1
 72
               2
 10
174.37452356141512
 20
-496.47517822451516
 40
1.9998779296875
 50
0.0
 51
360.0
 73
               0
 97
        1
330
DB
 75
               0
 76
               1
 98
        1
 10
0.0
 20
0.0
  0
MTEXT
  5
DD
100
AcDbEntity
  8
0
390
0
 62
               0
100
AcDbMText
 10
140.49690637391541
 20
-479.85017822451516
 30
0.0
 40
24.432617187500004
 41
0.0
 71
               1
 72
               1
  1
65
  7
ＭＳ ゴシック
 11
0.0
 21
1.0
 31
0.0
 73
               1
 44
0.7828267384257843
  0
POINT
  5
DE
100
AcDbEntity
  8
Defpoints
370
               0
390
0
 62
               0
100
AcDbPoint
 10
408.92978031376515
 20
-496.47517822451516
 30
0.0
  0
POINT
  5
DF
100
AcDbEntity
  8
Defpoints
370
               0
390
0
 62
               0
100
AcDbPoint
 10
279.47452356141548
 20
-431.47517822451516
 30
0.0
  0
POINT
  5
E0
100
AcDbEntity
  8
Defpoints
370
               0
390
0
 62
               0
100
AcDbPoint
 10
174.37452356141512
 20
-431.47517822451516
 30
0.0
  0
ENDBLK
  5
E1
100
AcDbEntity
  8
62ZN
390
0
100
AcDbBlockEnd
  0
BLOCK
  5
E2
100
AcDbEntity
  8
62ZN
390
0
100
AcDbBlockBegin
  2
*D14
 70
               1
 10
0.0
 20
0.0
 30
0.0
  3
*D14
  1

  0
LINE
  5
E3
100
AcDbEntity
  8
0
370
              -2
390
0
  6
Continuous
 62
               0
100
AcDbLine
 10
497.57740622522397
 20
-336.47517822451414
 30
0.0
 11
472.57958936298746
 21
-336.47517822451414
 31
0.0
  0
LINE
  5
E4
100
AcDbEntity
  8
0
370
              -2
390
0
  6
Continuous
 62
               0
100
AcDbLine
 10
497.57740622522397
 20
-446.47517822451516
 30
0.0
 11
472.57958936298746
 21
-446.47517822451516
 31
0.0
  0
LINE
  5
E5
100
AcDbEntity
  8
0
370
              -2
390
0
  6
Continuous
 62
               0
100
AcDbLine
 10
472.57958936298746
 20
-336.47517822451414
 30
0.0
 11
472.57958936298746
 21
-181.47456213635701
 31
0.0
  0
LINE
  5
E6
100
AcDbEntity
  8
0
370
              -2
390
0
  6
Continuous
 62
               0
100
AcDbLine
 10
472.57958936298746
 20
-336.47517822451414
 30
0.0
 11
472.57958936298746
 21
-446.47517822451516
 31
0.0
  0
CIRCLE
  5
E7
102
{ACAD_REACTORS
330
E8
102
}
100
AcDbEntity
  8
0
370
              -2
390
0
  6
Continuous
 62
               0
100
AcDbCircle
 10
472.57958936298746
 20
-336.47517822451414
 30
0.0
 40
1.9998779296875
  0
HATCH
  5
E8
100
AcDbEntity
  8
0
370
              -2
390
0
  6
Continuous
 62
               0
100
AcDbHatch
 10
0.0
 20
0.0
 30
0.0
210
0.0
220
0.0
230
1.0
  2
SOLID
 70
               1
 71
               1
 91
        1
 92
        1
 93
        1
 72
               2
 10
472.57958936298746
 20
-336.47517822451414
 40
1.9998779296875
 50
0.0
 51
360.0
 73
               0
 97
        1
330
E7
 75
               0
 76
               1
 98
        1
 10
0.0
 20
0.0
  0
CIRCLE
  5
E9
102
{ACAD_REACTORS
330
EA
102
}
100
AcDbEntity
  8
0
370
              -2
390
0
  6
Continuous
 62
               0
100
AcDbCircle
 10
472.57958936298746
 20
-446.47517822451516
 30
0.0
 40
1.9998779296875
  0
HATCH
  5
EA
100
AcDbEntity
  8
0
370
              -2
390
0
  6
Continuous
 62
               0
100
AcDbHatch
 10
0.0
 20
0.0
 30
0.0
210
0.0
220
0.0
230
1.0
  2
SOLID
 70
               1
 71
               1
 91
        1
 92
        1
 93
        1
 72
               2
 10
472.57958936298746
 20
-446.47517822451516
 40
1.9998779296875
 50
0.0
 51
360.0
 73
               0
 97
        1
330
E9
 75
               0
 76
               1
 98
        1
 10
0.0
 20
0.0
  0
MTEXT
  5
EB
100
AcDbEntity
  8
0
390
0
 62
               0
100
AcDbMText
 10
438.70197217548775
 20
-324.34956213635701
 30
0.0
 40
24.432617187500004
 41
0.0
 71
               1
 72
               1
  1
110(深さ)
  7
ＭＳ ゴシック
 11
0.0
 21
1.0
 31
0.0
 73
               1
 44
0.7828267384257843
  0
POINT
  5
EC
100
AcDbEntity
  8
Defpoints
370
               0
390
0
 62
               0
100
AcDbPoint
 10
472.57740622522397
 20
-446.47517822451516
 30
0.0
  0
POINT
  5
ED
100
AcDbEntity
  8
Defpoints
370
               0
390
0
 62
               0
100
AcDbPoint
 10
472.57740622522397
 20
-336.47517822451414
 30
0.0
  0
POINT
  5
EE
100
AcDbEntity
  8
Defpoints
370
               0
390
0
 62
               0
100
AcDbPoint
 10
472.57958936298746
 20
-336.47517822451414
 30
0.0
  0
ENDBLK
  5
EF
100
AcDbEntity
  8
62ZN
390
0
100
AcDbBlockEnd
  0
BLOCK
  5
F0
100
AcDbEntity
  8
62ZN
390
0
100
AcDbBlockBegin
  2
*D15
 70
               1
 10
0.0
 20
0.0
 30
0.0
  3
*D15
  1

  0
LINE
  5
F1
100
AcDbEntity
  8
0
370
              -2
390
0
  6
Continuous
 62
               0
100
AcDbLine
 10
672.87958936298674
 20
-311.47517822451414
 30
0.0
 11
672.87958936298674
 21
-225.1504263634713
 31
0.0
  0
LINE
  5
F2
100
AcDbEntity
  8
0
370
              -2
390
0
  6
Continuous
 62
               0
100
AcDbLine
 10
732.87958936298674
 20
-316.47517822451425
 30
0.0
 11
732.87958936298674
 21
-225.1504263634713
 31
0.0
  0
LINE
  5
F3
100
AcDbEntity
  8
0
370
              -2
390
0
  6
Continuous
 62
               0
100
AcDbLine
 10
672.87958936298674
 20
-225.1504263634713
 30
0.0
 11
732.87958936298674
 21
-225.1504263634713
 31
0.0
  0
CIRCLE
  5
F4
102
{ACAD_REACTORS
330
F5
102
}
100
AcDbEntity
  8
0
370
              -2
390
0
  6
Continuous
 62
               0
100
AcDbCircle
 10
672.87958936298674
 20
-225.1504263634713
 30
0.0
 40
1.9998779296875
  0
HATCH
  5
F5
100
AcDbEntity
  8
0
370
              -2
390
0
  6
Continuous
 62
               0
100
AcDbHatch
 10
0.0
 20
0.0
 30
0.0
210
0.0
220
0.0
230
1.0
  2
SOLID
 70
               1
 71
               1
 91
        1
 92
        1
 93
        1
 72
               2
 10
672.87958936298674
 20
-225.1504263634713
 40
1.9998779296875
 50
0.0
 51
360.0
 73
               0
 97
        1
330
F4
 75
               0
 76
               1
 98
        1
 10
0.0
 20
0.0
  0
CIRCLE
  5
F6
102
{ACAD_REACTORS
330
F7
102
}
100
AcDbEntity
  8
0
370
              -2
390
0
  6
Continuous
 62
               0
100
AcDbCircle
 10
732.87958936298674
 20
-225.1504263634713
 30
0.0
 40
1.9998779296875
  0
HATCH
  5
F7
100
AcDbEntity
  8
0
370
              -2
390
0
  6
Continuous
 62
               0
100
AcDbHatch
 10
0.0
 20
0.0
 30
0.0
210
0.0
220
0.0
230
1.0
  2
SOLID
 70
               1
 71
               1
 91
        1
 92
        1
 93
        1
 72
               2
 10
732.87958936298674
 20
-225.1504263634713
 40
1.9998779296875
 50
0.0
 51
360.0
 73
               0
 97
        1
330
F6
 75
               0
 76
               1
 98
        1
 10
0.0
 20
0.0
  0
MTEXT
  5
F8
100
AcDbEntity
  8
0
390
0
 62
               0
100
AcDbMText
 10
687.00458936298674
 20
-191.27280917597136
 30
0.0
 40
24.432617187500004
 41
0.0
 71
               1
 72
               1
  1
60
  7
ＭＳ ゴシック
 73
               1
 44
0.7828267384257843
  0
POINT
  5
F9
100
AcDbEntity
  8
Defpoints
370
               0
390
0
 62
               0
100
AcDbPoint
 10
732.87958936298674
 20
-341.47517822451425
 30
0.0
  0
POINT
  5
FA
100
AcDbEntity
  8
Defpoints
370
               0
390
0
 62
               0
100
AcDbPoint
 10
672.87958936298674
 20
-336.47517822451414
 30
0.0
  0
POINT
  5
FB
100
AcDbEntity
  8
Defpoints
370
               0
390
0
 62
               0
100
AcDbPoint
 10
672.87958936298674
 20
-225.1504263634713
 30
0.0
  0
ENDBLK
  5
FC
100
AcDbEntity
  8
62ZN
390
0
100
AcDbBlockEnd
  0
BLOCK
  5
FD
100
AcDbEntity
  8
62ZN
390
0
100
AcDbBlockBegin
  2
*D16
 70
               1
 10
0.0
 20
0.0
 30
0.0
  3
*D16
  1

  0
LINE
  5
FE
100
AcDbEntity
  8
0
370
              -2
390
0
  6
Continuous
 62
               0
100
AcDbLine
 10
-773.15741817821072
 20
879.37207271953253
 30
0.0
 11
-841.46963955982574
 21
879.37207271953253
 31
0.0
  0
LINE
  5
FF
100
AcDbEntity
  8
0
370
              -2
390
0
  6
Continuous
 62
               0
100
AcDbLine
 10
-776.15741458114462
 20
749.37207271031889
 30
0.0
 11
-841.46963955982574
 21
749.37207271031889
 31
0.0
  0
LINE
  5
100
100
AcDbEntity
  8
0
370
              -2
390
0
  6
Continuous
 62
               0
100
AcDbLine
 10
-841.46963955982574
 20
879.37207271953253
 30
0.0
 11
-841.46963955982574
 21
749.37207271031889
 31
0.0
  0
CIRCLE
  5
101
102
{ACAD_REACTORS
330
102
102
}
100
AcDbEntity
  8
0
370
              -2
390
0
  6
Continuous
 62
               0
100
AcDbCircle
 10
-841.46963955982574
 20
879.37207271953253
 30
0.0
 40
1.9998779296875
  0
HATCH
  5
102
100
AcDbEntity
  8
0
370
              -2
390
0
  6
Continuous
 62
               0
100
AcDbHatch
 10
0.0
 20
0.0
 30
0.0
210
0.0
220
0.0
230
1.0
  2
SOLID
 70
               1
 71
               1
 91
        1
 92
        1
 93
        1
 72
               2
 10
-841.46963955982574
 20
879.37207271953253
 40
1.9998779296875
 50
0.0
 51
360.0
 73
               0
 97
        1
330
101
 75
               0
 76
               1
 98
        1
 10
0.0
 20
0.0
  0
CIRCLE
  5
103
102
{ACAD_REACTORS
330
104
102
}
100
AcDbEntity
  8
0
370
              -2
390
0
  6
Continuous
 62
               0
100
AcDbCircle
 10
-841.46963955982574
 20
749.37207271031889
 30
0.0
 40
1.9998779296875
  0
HATCH
  5
104
100
AcDbEntity
  8
0
370
              -2
390
0
  6
Continuous
 62
               0
100
AcDbHatch
 10
0.0
 20
0.0
 30
0.0
210
0.0
220
0.0
230
1.0
  2
SOLID
 70
               1
 71
               1
 91
        1
 92
        1
 93
        1
 72
               2
 10
-841.46963955982574
 20
749.37207271031889
 40
1.9998779296875
 50
0.0
 51
360.0
 73
               0
 97
        1
330
103
 75
               0
 76
               1
 98
        1
 10
0.0
 20
0.0
  0
MTEXT
  5
105
100
AcDbEntity
  8
0
390
0
 62
               0
100
AcDbMText
 10
-875.34725674732545
 20
790.55957103275
 30
0.0
 40
24.432617187500004
 41
0.0
 71
               1
 72
               1
  1
130
  7
ＭＳ ゴシック
 11
0.0
 21
1.0
 31
0.0
 73
               1
 44
0.7828267384257843
  0
POINT
  5
106
100
AcDbEntity
  8
Defpoints
370
               0
390
0
 62
               0
100
AcDbPoint
 10
-751.15741458114462
 20
749.37207271031889
 30
0.0
  0
POINT
  5
107
100
AcDbEntity
  8
Defpoints
370
               0
390
0
 62
               0
100
AcDbPoint
 10
-748.15741817821072
 20
879.37207271953253
 30
0.0
  0
POINT
  5
108
100
AcDbEntity
  8
Defpoints
370
               0
390
0
 62
               0
100
AcDbPoint
 10
-841.46963955982574
 20
879.37207271953253
 30
0.0
  0
ENDBLK
  5
109
100
AcDbEntity
  8
62ZN
390
0
100
AcDbBlockEnd
  0
BLOCK
  5
10A
100
AcDbEntity
  8
62ZN
390
0
100
AcDbBlockBegin
  2
*D17
 70
               1
 10
0.0
 20
0.0
 30
0.0
  3
*D17
  1

  0
LINE
  5
10B
100
AcDbEntity
  8
0
370
              -2
390
0
  6
Continuous
 62
               0
100
AcDbLine
 10
-776.15741458114462
 20
749.37207271031889
 30
0.0
 11
-841.46963955982574
 21
749.37207271031889
 31
0.0
  0
LINE
  5
10C
100
AcDbEntity
  8
0
370
              -2
390
0
  6
Continuous
 62
               0
100
AcDbLine
 10
-696.22296878680754
 20
464.37207271031889
 30
0.0
 11
-841.46963955982574
 21
464.37207271031889
 31
0.0
  0
LINE
  5
10D
100
AcDbEntity
  8
0
370
              -2
390
0
  6
Continuous
 62
               0
100
AcDbLine
 10
-841.46963955982574
 20
749.37207271031889
 30
0.0
 11
-841.46963955982574
 21
464.37207271031889
 31
0.0
  0
CIRCLE
  5
10E
102
{ACAD_REACTORS
330
10F
102
}
100
AcDbEntity
  8
0
370
              -2
390
0
  6
Continuous
 62
               0
100
AcDbCircle
 10
-841.46963955982574
 20
749.37207271031889
 30
0.0
 40
1.9998779296875
  0
HATCH
  5
10F
100
AcDbEntity
  8
0
370
              -2
390
0
  6
Continuous
 62
               0
100
AcDbHatch
 10
0.0
 20
0.0
 30
0.0
210
0.0
220
0.0
230
1.0
  2
SOLID
 70
               1
 71
               1
 91
        1
 92
        1
 93
        1
 72
               2
 10
-841.46963955982574
 20
749.37207271031889
 40
1.9998779296875
 50
0.0
 51
360.0
 73
               0
 97
        1
330
10E
 75
               0
 76
               1
 98
        1
 10
0.0
 20
0.0
  0
CIRCLE
  5
110
102
{ACAD_REACTORS
330
111
102
}
100
AcDbEntity
  8
0
370
              -2
390
0
  6
Continuous
 62
               0
100
AcDbCircle
 10
-841.46963955982574
 20
464.37207271031889
 30
0.0
 40
1.9998779296875
  0
HATCH
  5
111
100
AcDbEntity
  8
0
370
              -2
390
0
  6
Continuous
 62
               0
100
AcDbHatch
 10
0.0
 20
0.0
 30
0.0
210
0.0
220
0.0
230
1.0
  2
SOLID
 70
               1
 71
               1
 91
        1
 92
        1
 93
        1
 72
               2
 10
-841.46963955982574
 20
464.37207271031889
 40
1.9998779296875
 50
0.0
 51
360.0
 73
               0
 97
        1
330
110
 75
               0
 76
               1
 98
        1
 10
0.0
 20
0.0
  0
MTEXT
  5
112
100
AcDbEntity
  8
0
390
0
 62
               0
100
AcDbMText
 10
-875.34725674732545
 20
583.05957102814341
 30
0.0
 40
24.432617187500004
 41
0.0
 71
               1
 72
               1
  1
285
  7
ＭＳ ゴシック
 11
0.0
 21
1.0
 31
0.0
 73
               1
 44
0.7828267384257843
  0
POINT
  5
113
100
AcDbEntity
  8
Defpoints
370
               0
390
0
 62
               0
100
AcDbPoint
 10
-671.22296878680754
 20
464.37207271031889
 30
0.0
  0
POINT
  5
114
100
AcDbEntity
  8
Defpoints
370
               0
390
0
 62
               0
100
AcDbPoint
 10
-751.15741458114462
 20
749.37207271031889
 30
0.0
  0
POINT
  5
115
100
AcDbEntity
  8
Defpoints
370
               0
390
0
 62
               0
100
AcDbPoint
 10
-841.46963955982574
 20
749.37207271031889
 30
0.0
  0
ENDBLK
  5
116
100
AcDbEntity
  8
62ZN
390
0
100
AcDbBlockEnd
  0
BLOCK
  5
117
100
AcDbEntity
  8
62ZN
390
0
100
AcDbBlockBegin
  2
*D18
 70
               1
 10
0.0
 20
0.0
 30
0.0
  3
*D18
  1

  0
LINE
  5
118
100
AcDbEntity
  8
0
370
              -2
390
0
  6
Continuous
 62
               0
100
AcDbLine
 10
-703.65741122305553
 20
474.65476946953481
 30
0.0
 11
-703.65741122305553
 21
319.35476946953486
 31
0.0
  0
LINE
  5
119
100
AcDbEntity
  8
0
370
              -2
390
0
  6
Continuous
 62
               0
100
AcDbLine
 10
-178.65741122305553
 20
474.6547696406476
 30
0.0
 11
-178.65741122305553
 21
319.35476946953486
 31
0.0
  0
LINE
  5
11A
100
AcDbEntity
  8
0
370
              -2
390
0
  6
Continuous
 62
               0
100
AcDbLine
 10
-703.65741122305553
 20
319.35476946953486
 30
0.0
 11
-178.65741122305553
 21
319.35476946953486
 31
0.0
  0
CIRCLE
  5
11B
102
{ACAD_REACTORS
330
11C
102
}
100
AcDbEntity
  8
0
370
              -2
390
0
  6
Continuous
 62
               0
100
AcDbCircle
 10
-703.65741122305553
 20
319.35476946953486
 30
0.0
 40
1.9998779296875
  0
HATCH
  5
11C
100
AcDbEntity
  8
0
370
              -2
390
0
  6
Continuous
 62
               0
100
AcDbHatch
 10
0.0
 20
0.0
 30
0.0
210
0.0
220
0.0
230
1.0
  2
SOLID
 70
               1
 71
               1
 91
        1
 92
        1
 93
        1
 72
               2
 10
-703.65741122305553
 20
319.35476946953486
 40
1.9998779296875
 50
0.0
 51
360.0
 73
               0
 97
        1
330
11B
 75
               0
 76
               1
 98
        1
 10
0.0
 20
0.0
  0
CIRCLE
  5
11D
102
{ACAD_REACTORS
330
11E
102
}
100
AcDbEntity
  8
0
370
              -2
390
0
  6
Continuous
 62
               0
100
AcDbCircle
 10
-178.65741122305553
 20
319.35476946953486
 30
0.0
 40
1.9998779296875
  0
HATCH
  5
11E
100
AcDbEntity
  8
0
370
              -2
390
0
  6
Continuous
 62
               0
100
AcDbHatch
 10
0.0
 20
0.0
 30
0.0
210
0.0
220
0.0
230
1.0
  2
SOLID
 70
               1
 71
               1
 91
        1
 92
        1
 93
        1
 72
               2
 10
-178.65741122305553
 20
319.35476946953486
 40
1.9998779296875
 50
0.0
 51
360.0
 73
               0
 97
        1
330
11D
 75
               0
 76
               1
 98
        1
 10
0.0
 20
0.0
  0
MTEXT
  5
11F
100
AcDbEntity
  8
0
390
0
 62
               0
100
AcDbMText
 10
-464.96991290523147
 20
353.23238665703479
 30
0.0
 40
24.432617187500004
 41
0.0
 71
               1
 72
               1
  1
525
  7
ＭＳ ゴシック
 73
               1
 44
0.7828267384257843
  0
POINT
  5
120
100
AcDbEntity
  8
Defpoints
370
               0
390
0
 62
               0
100
AcDbPoint
 10
-178.65741122305553
 20
499.6547696406476
 30
0.0
  0
POINT
  5
121
100
AcDbEntity
  8
Defpoints
370
               0
390
0
 62
               0
100
AcDbPoint
 10
-703.65741122305553
 20
499.65476946953481
 30
0.0
  0
POINT
  5
122
100
AcDbEntity
  8
Defpoints
370
               0
390
0
 62
               0
100
AcDbPoint
 10
-703.65741122305553
 20
319.35476946953486
 30
0.0
  0
ENDBLK
  5
123
100
AcDbEntity
  8
62ZN
390
0
100
AcDbBlockEnd
  0
ENDSEC
  0
SECTION
  2
ENTITIES
  0
MTEXT
  5
124
100
AcDbEntity
  8
template
390
0
 62
               7
100
AcDbMText
 10
-993.0
 20
-1125.9379258323706
 30
0.0
 40
16.288411458333332
 41
0.0
 71
               1
 72
               1
  1
品名
  7
ＭＳ ゴシック
 73
               1
 44
0.7828267384257843
  0
MTEXT
  5
125
100
AcDbEntity
  8
template
390
0
 62
               7
100
AcDbMText
 10
-993.0
 20
-1210.9379258323706
 30
0.0
 40
16.288411458333332
 41
0.0
 71
               1
 72
               1
  1
仕様
  7
ＭＳ ゴシック
 73
               1
 44
0.7828267384257843
  0
MTEXT
  5
126
100
AcDbEntity
  8
template
390
0
 62
               7
100
AcDbMText
 10
-940.0
 20
-1154.5203867698708
 30
0.0
 40
24.432617187500004
 41
0.0
 71
               1
 72
               1
  1
洗面器 -CATALANO,Zero-
  7
ＭＳ ゴシック
 73
               1
 44
0.7828267384257843
  0
LINE
  5
127
100
AcDbEntity
  8
template
370
               5
390
0
  6
Continuous
 62
               7
100
AcDbLine
 10
949.99999999951797
 20
-1202.5230039573707
 30
0.0
 11
-1000.000000000482
 21
-1202.5230039573707
 31
0.0
  0
LWPOLYLINE
  5
128
100
AcDbEntity
  8
template
370
               5
390
0
  6
Continuous
 62
               7
100
AcDbPolyline
 90
        5
 70
             128
 10
950.0
 20
1427.476996042629
 10
-1000.0
 20
1427.476996042629
 10
-1000.0
 20
-1372.5230039573707
 10
950.0
 20
-1372.5230039573707
 10
950.0
 20
1427.476996042629
  0
LINE
  5
129
100
AcDbEntity
  8
template
370
               5
390
0
  6
Continuous
 62
               7
100
AcDbLine
 10
949.99999999951797
 20
-1117.5230039573707
 30
0.0
 11
-1000.000000000482
 21
-1117.5230039573707
 31
0.0
  0
LINE
  5
12A
100
AcDbEntity
  8
template
370
               5
390
0
  6
Continuous
 62
               7
100
AcDbLine
 10
950.0
 20
-1287.5230039573707
 30
0.0
 11
197.0
 21
-1287.5230039573707
 31
0.0
  0
MTEXT
  5
12B
100
AcDbEntity
  8
template
390
0
 62
               7
100
AcDbMText
 10
-999.99999999979627
 20
-1384.3768260142276
 30
0.0
 40
21.717881944444446
 41
0.0
 71
               1
 72
               1
  1
100707SH
  7
ＭＳ ゴシック
 73
               1
 44
0.7828267384257843
  0
MTEXT
  5
12C
100
AcDbEntity
  8
template
390
0
 62
               7
100
AcDbMText
 10
226.87140625225948
 20
-1317.4333984306784
 30
0.0
 40
24.432617187500004
 41
0.0
 71
               1
 72
               1
  1
大洋金物株式会社 ティーフォルム事業部
  7
ＭＳ ゴシック
 73
               1
 44
0.7828267384257843
  0
INSERT
  5
12D
100
AcDbEntity
  8
template
390
0
 62
               7
100
AcDbBlockReference
  2
グループ
 10
10593.165838381981
 20
-1325.2361584736702
 30
0.0
  0
MTEXT
  5
12E
100
AcDbEntity
  8
template
390
0
 62
               7
100
AcDbMText
 10
759.0000000002583
 20
-1239.5203867698708
 30
0.0
 40
24.432617187500004
 41
0.0
 71
               1
 72
               1
  1
1:10
  7
ＭＳ ゴシック
 73
               1
 44
0.7828267384257843
  0
MTEXT
  5
12F
100
AcDbEntity
  8
template
390
0
 62
               7
100
AcDbMText
 10
706.0000000002583
 20
-1210.9379258323706
 30
0.0
 40
16.288411458333332
 41
0.0
 71
               1
 72
               1
  1
縮尺
  7
ＭＳ ゴシック
 73
               1
 44
0.7828267384257843
  0
LINE
  5
130
100
AcDbEntity
  8
template
370
               5
390
0
  6
Continuous
 62
               7
100
AcDbLine
 10
699.0000000002583
 20
-1287.5230039573707
 30
0.0
 11
699.0000000002583
 21
-1202.5230039573707
 31
0.0
  0
MTEXT
  5
131
100
AcDbEntity
  8
template
390
0
 62
               7
100
AcDbMText
 10
455.0000000002583
 20
-1210.9379258323706
 30
0.0
 40
16.288411458333332
 41
0.0
 71
               1
 72
               1
  1
容量
  7
ＭＳ ゴシック
 73
               1
 44
0.7828267384257843
  0
MTEXT
  5
132
100
AcDbEntity
  8
template
390
0
 62
               7
100
AcDbMText
 10
508.0000000002583
 20
-1239.5203867698708
 30
0.0
 40
24.432617187500004
 41
0.0
 71
               1
 72
               1
  1
7L
  7
ＭＳ ゴシック
 73
               1
 44
0.7828267384257843
  0
LINE
  5
133
100
AcDbEntity
  8
template
370
               5
390
0
  6
Continuous
 62
               7
100
AcDbLine
 10
448.0000000002583
 20
-1287.5230039573707
 30
0.0
 11
448.0000000002583
 21
-1202.5230039573707
 31
0.0
  0
MTEXT
  5
134
100
AcDbEntity
  8
template
390
0
 62
               7
100
AcDbMText
 10
204.0000000002583
 20
-1125.9379258323706
 30
0.0
 40
16.288411458333332
 41
0.0
 71
               1
 72
               1
  1
品番
  7
ＭＳ ゴシック
 73
               1
 44
0.7828267384257843
  0
MTEXT
  5
135
100
AcDbEntity
  8
template
390
0
 62
               7
100
AcDbMText
 10
204.0000000002583
 20
-1210.9379258323706
 30
0.0
 40
16.288411458333332
 41
0.0
 71
               1
 72
               1
  1
重量
  7
ＭＳ ゴシック
 73
               1
 44
0.7828267384257843
  0
MTEXT
  5
136
100
AcDbEntity
  8
template
390
0
 62
               7
100
AcDbMText
 10
257.0000000002583
 20
-1154.5203867698708
 30
0.0
 40
24.432617187500004
 41
0.0
 71
               1
 72
               1
  1
ADF70-0019
  7
ＭＳ ゴシック
 73
               1
 44
0.7828267384257843
  0
MTEXT
  5
137
100
AcDbEntity
  8
template
390
0
 62
               7
100
AcDbMText
 10
257.0000000002583
 20
-1239.5203867698708
 30
0.0
 40
24.432617187500004
 41
0.0
 71
               1
 72
               1
  1
17kg
  7
ＭＳ ゴシック
 73
               1
 44
0.7828267384257843
  0
LINE
  5
138
100
AcDbEntity
  8
template
370
               5
390
0
  6
Continuous
 62
               7
100
AcDbLine
 10
197.0000000002583
 20
-1372.5230039573707
 30
0.0
 11
197.0000000002583
 21
-1117.5230039573707
 31
0.0
  0
MTEXT
  5
139
100
AcDbEntity
  8
template
390
0
 62
               7
100
AcDbMText
 10
-940.0
 20
-1239.5203867698708
 30
0.0
 40
24.432617187500004
 41
0.0
 71
               1
 72
               1
  1
壁掛け/オーバーフロー付き/壁取付ボルト付属/陶器/ホワイト
  7
ＭＳ ゴシック
 73
               1
 44
1.3047112307096407
  0
MTEXT
  5
13A
100
AcDbEntity
  8
notes
390
0
 62
               7
100
AcDbMText
 10
-236.9557524377451
 20
-256.71688611257809
 30
0.0
 40
24.432617187500004
 41
0.0
 71
               1
 72
               1
  1
壁取付ボルト穴(2ヶ所)
  7
ＭＳ ゴシック
 73
               1
 44
0.7828267384257843
  0
LINE
  5
13B
100
AcDbEntity
  8
notes
370
               5
390
0
  6
Continuous
 62
               7
100
AcDbLine
 10
-301.475178224513
 20
-376.47517822451471
 30
0.0
 11
-216.02912121839108
 21
-291.02912121839131
 31
0.0
  0
ARC
  5
13C
100
AcDbEntity
  8
62ZN
370
              15
390
0
  6
Continuous
 62
               7
100
AcDbCircle
 10
-748.15741817821072
 20
876.37207271953253
 30
0.0
 40
3.0
100
AcDbArc
 50
90.0
 51
180.00000025765897
  0
ARC
  5
13D
100
AcDbEntity
  8
62ZN
370
              15
390
0
  6
Continuous
 62
               7
100
AcDbCircle
 10
-134.15741817821072
 20
876.37207271953253
 30
0.0
 40
3.0
100
AcDbArc
 50
359.99999974234106
 51
90.0
  0
LINE
  5
13E
100
AcDbEntity
  8
62ZN
370
              15
390
0
  6
Continuous
 62
               7
100
AcDbLine
 10
-751.15741817821072
 20
876.37207270604154
 30
0.0
 11
-751.15741121820793
 21
630.63840417541337
 31
0.0
  0
LINE
  5
13F
100
AcDbEntity
  8
62ZN
370
              15
390
0
  6
Continuous
 62
               7
100
AcDbLine
 10
-131.15743247653336
 20
876.37207270604154
 30
0.0
 11
-131.15742551652875
 21
630.63841577612834
 31
0.0
  0
ARC
  5
140
100
AcDbEntity
  8
62ZN
370
              15
390
0
  6
Continuous
 62
               7
100
AcDbCircle
 10
-441.15741776360846
 20
1783.1416944949794
 30
0.0
 40
1363.8600255760389
100
AcDbArc
 50
265.3443665464165
 51
274.6556334830089
  0
ARC
  5
141
100
AcDbEntity
  8
62ZN
370
              15
390
0
  6
Continuous
 62
               7
100
AcDbCircle
 10
-338.15742551652875
 20
630.63840996872909
 30
0.0
 40
207.00000000000034
100
AcDbArc
 50
272.13179942271296
 51
0.0000016074370137
  0
ARC
  5
142
100
AcDbEntity
  8
62ZN
370
              15
390
0
  6
Continuous
 62
               7
100
AcDbCircle
 10
-338.15742551652875
 20
630.63840996872909
 30
0.0
 40
162.00000000000003
100
AcDbArc
 50
272.93434146184302
 51
0.0000016074369569
  0
ARC
  5
143
100
AcDbEntity
  8
62ZN
370
              15
390
0
  6
Continuous
 62
               7
100
AcDbCircle
 10
-544.15741121820793
 20
630.63840998281262
 30
0.0
 40
207.00000000000009
100
AcDbArc
 50
180.00000160743701
 51
267.8682005694651
  0
ARC
  5
144
100
AcDbEntity
  8
62ZN
370
              15
390
0
  6
Continuous
 62
               7
100
AcDbCircle
 10
-544.15741121820793
 20
630.63840998281262
 30
0.0
 40
162.00000000000006
100
AcDbArc
 50
180.00000160743718
 51
267.06565890751597
  0
LINE
  5
145
100
AcDbEntity
  8
62ZN
370
              15
390
0
  6
Continuous
 62
               7
100
AcDbLine
 10
-748.15741817821072
 20
879.37207271953253
 30
0.0
 11
-134.15741817821072
 21
879.37207271953253
 31
0.0
  0
LINE
  5
146
100
AcDbEntity
  8
62ZN
370
              15
390
0
  6
Continuous
 62
               7
100
AcDbLine
 10
-671.15741124524175
 20
749.37207271031889
 30
0.0
 11
-211.15742511117605
 21
749.37207271031889
 31
0.0
  0
LINE
  5
147
100
AcDbEntity
  8
62ZN
370
              15
390
0
  6
Continuous
 62
               7
100
AcDbLine
 10
-176.15742551652875
 20
630.6384145136501
 30
0.0
 11
-176.15742511117605
 21
714.37207271031889
 31
0.0
  0
ARC
  5
148
100
AcDbEntity
  8
62ZN
370
              15
390
0
  6
Continuous
 62
               7
100
AcDbCircle
 10
-211.15742511117605
 20
714.37207271031889
 30
0.0
 40
35.0
100
AcDbArc
 50
0.0
 51
90.0
  0
LINE
  5
149
100
AcDbEntity
  8
62ZN
370
              15
390
0
  6
Continuous
 62
               7
100
AcDbLine
 10
-706.15741121820793
 20
630.63840543789115
 30
0.0
 11
-706.15741124524175
 21
714.37207271031889
 31
0.0
  0
ARC
  5
14A
100
AcDbEntity
  8
62ZN
370
              15
390
0
  6
Continuous
 62
               7
100
AcDbCircle
 10
-671.15741124524175
 20
714.37207271031889
 30
0.0
 40
35.0
100
AcDbArc
 50
90.0
 51
180.0
  0
CIRCLE
  5
14B
100
AcDbEntity
  8
62ZN
370
              15
390
0
  6
STYLE_12
 62
               7
100
AcDbCircle
 10
-441.15738234707715
 20
814.3774487458893
 30
0.0
 40
17.5
  0
ARC
  5
14C
100
AcDbEntity
  8
62ZN
370
              15
390
0
  6
Continuous
 62
               7
100
AcDbCircle
 10
-441.15742289283662
 20
649.37206688060792
 30
0.0
 40
40.547752734716596
100
AcDbArc
 50
90.0
 51
270.0
  0
ARC
  5
14D
100
AcDbEntity
  8
62ZN
370
              15
390
0
  6
Continuous
 62
               7
100
AcDbCircle
 10
-441.15742289284026
 20
649.37206688060792
 30
0.0
 40
40.547752734716141
100
AcDbArc
 50
270.0
 51
90.0
  0
CIRCLE
  5
14E
100
AcDbEntity
  8
62ZN
370
              15
390
0
  6
STYLE_12
 62
               7
100
AcDbCircle
 10
-541.15738234707715
 20
814.3774487458893
 30
0.0
 40
15.0
  0
CIRCLE
  5
14F
100
AcDbEntity
  8
62ZN
370
              15
390
0
  6
STYLE_12
 62
               7
100
AcDbCircle
 10
-341.15749690431949
 20
814.3774487458893
 30
0.0
 40
15.0
  0
CIRCLE
  5
150
100
AcDbEntity
  8
62ZN
370
              15
390
0
  6
Continuous
 62
               7
100
AcDbCircle
 10
-441.15741574367712
 20
649.37207271953253
 30
0.0
 40
23.530227542581997
  0
ARC
  5
151
100
AcDbEntity
  8
62ZN
370
              15
390
0
  6
Continuous
 62
               7
100
AcDbCircle
 10
-441.15741808520033
 20
1821.6089785392694
 30
0.0
 40
1357.3285467563228
100
AcDbArc
 50
265.29680036137489
 51
274.70319965889723
  0
DIMENSION
  5
152
100
AcDbEntity
  8
62ZN
370
               5
390
0
  6
Continuous
 62
               7
100
AcDbDimension
  2
*D4
 10
-131.15743247653336
 20
1029.3720727060415
 30
0.0
 11
-441.15742532737204
 21
1029.3720727060415
 31
0.0
 71
               5
 72
               1
 41
1.0
 42
0.0
  3
tform線あり
100
AcDbAlignedDimension
 13
-751.15741817821072
 23
876.37207270604154
 33
0.0
 14
-131.15743247653336
 24
876.37207270604154
 34
0.0
100
AcDbRotatedDimension
1001
ACAD
1000
DSTYLE
1002
{
1070
             279
1070
               2
1070
             340
1005
33
1070
             147
1040
5.0
1002
}
  0
DIMENSION
  5
153
100
AcDbEntity
  8
62ZN
370
               5
390
0
  6
Continuous
 62
               7
100
AcDbDimension
  2
*D5
 10
-31.157418178210719
 20
879.37207271953253
 30
0.0
 11
-31.157418178210719
 21
649.37207271953253
 31
0.0
 71
               5
 72
               1
 41
1.0
 42
0.0
  3
tform線あり
100
AcDbAlignedDimension
 13
-337.46963955982574
 23
419.37207271953253
 33
0.0
 14
-134.15741817821072
 24
879.37207271953253
 34
0.0
 50
90.0
100
AcDbRotatedDimension
1001
ACAD
1000
DSTYLE
1002
{
1070
             279
1070
               2
1070
             340
1005
33
1070
             147
1040
5.0
1002
}
  0
DIMENSION
  5
154
100
AcDbEntity
  8
62ZN
370
               5
390
0
  6
Continuous
 62
               7
100
AcDbDimension
  2
*D6
 10
-31.455846453100094
 20
-336.47517822451414
 30
0.0
 11
-31.455846453100094
 21
-416.47517822451459
 31
0.0
 71
               5
 72
               1
 41
1.0
 42
0.0
  3
tform線あり
100
AcDbAlignedDimension
 13
-249.33711090748329
 23
-496.47517822451516
 33
0.0
 14
-137.15584645310082
 24
-336.47517822451414
 34
0.0
 50
90.0
100
AcDbRotatedDimension
1001
ACAD
1000
DSTYLE
1002
{
1070
             279
1070
               2
1070
             340
1005
33
1070
             147
1040
5.0
1002
}
  0
DIMENSION
  5
155
100
AcDbEntity
  8
62ZN
370
               5
390
0
  6
Continuous
 62
               7
100
AcDbDimension
  2
*D7
 10
-850.89421956859769
 20
-336.47518033268852
 30
0.0
 11
-850.89421956859769
 21
-356.47518033268875
 31
0.0
 71
               5
 72
               1
 41
1.0
 42
0.0
  3
tform線あり
100
AcDbAlignedDimension
 13
-588.65555346353722
 23
-376.47518033268909
 33
0.0
 14
-745.17217278784119
 24
-336.47518033268852
 34
0.0
 50
90.0
100
AcDbRotatedDimension
1001
ACAD
1000
DSTYLE
1002
{
1070
             279
1070
               2
1070
             340
1005
33
1070
             147
1040
5.0
1002
}
  0
LINE
  5
156
100
AcDbEntity
  8
62ZN
370
              15
390
0
  6
Continuous
 62
               7
100
AcDbLine
 10
-249.33711090748329
 20
-496.68330536814108
 30
0.0
 11
-632.99420356044902
 21
-496.68330536814108
 31
0.0
  0
LINE
  5
157
100
AcDbEntity
  8
62ZN
370
              15
390
0
  6
Continuous
 62
               7
100
AcDbLine
 10
-137.15584645310082
 20
-336.47517822451414
 30
0.0
 11
-745.17217399132642
 21
-336.47517822451414
 31
0.0
  0
LINE
  5
158
100
AcDbEntity
  8
62ZN
370
              15
390
0
  6
Continuous
 62
               7
100
AcDbLine
 10
-748.78242375177979
 20
-425.76297932565637
 30
0.0
 11
-751.15741469820932
 21
-342.65476631813692
 31
0.0
  0
SPLINE
  5
159
100
AcDbEntity
  8
62ZN
370
              15
390
0
  6
Continuous
 62
               7
100
AcDbSpline
210
0.0
220
0.0
230
1.0
 70
               8
 71
               2
 72
              14
 73
              11
 74
               0
 42
0.000001
 43
0.000001
 40
0.0
 40
0.0
 40
0.0
 40
1.0
 40
1.0
 40
2.0
 40
3.0
 40
4.0
 40
5.0
 40
6.0
 40
6.0
 40
7.0
 40
7.0
 40
7.0
 10
-748.78242375177979
 20
-425.76297932565637
 30
0.0
 10
-748.78107619671027
 20
-425.8183413797758
 30
0.0
 10
-748.77972864164076
 20
-425.87370343389523
 30
0.0
 10
-748.68181482030741
 20
-427.31006404525499
 30
0.0
 10
-747.69046205345148
 20
-429.15649033668694
 30
0.0
 10
-746.54166353331857
 20
-430.35096569458062
 30
0.0
 10
-745.1051697034236
 20
-431.19753756351531
 30
0.0
 10
-743.66173127441107
 20
-431.57131419311338
 30
0.0
 10
-742.89154933187092
 20
-431.59998897485696
 30
0.0
 10
-742.83613112962485
 20
-431.59998897485696
 30
0.0
 10
-742.78071292737695
 20
-431.59998897485696
 30
0.0
  0
SPLINE
  5
15A
100
AcDbEntity
  8
62ZN
370
              15
390
0
  6
Continuous
 62
               7
100
AcDbSpline
210
0.0
220
0.0
230
1.0
 70
               8
 71
               2
 72
              19
 73
              16
 74
               0
 42
0.000001
 43
0.000001
 40
0.0
 40
0.0
 40
0.0
 40
1.0
 40
1.0
 40
2.0
 40
3.0
 40
4.0
 40
5.0
 40
6.0
 40
7.0
 40
7.0
 40
8.0
 40
8.0
 40
9.0
 40
10.0
 40
11.0
 40
11.0
 40
11.0
 10
-745.17217399132642
 20
-336.47517822451414
 30
0.0
 10
-745.22820982298072
 20
-336.47517822451414
 30
0.0
 10
-745.28424565463501
 20
-336.47517822451414
 30
0.0
 10
-746.06362322830137
 20
-336.50581852544747
 30
0.0
 10
-747.52302501324266
 20
-336.89697737338042
 30
0.0
 10
-748.96968821726477
 20
-337.77696782715805
 30
0.0
 10
-750.1187172924765
 20
-339.01361986271479
 30
0.0
 10
-750.89421956859769
 20
-340.53115939206725
 30
0.0
 10
-751.13640752341416
 20
-341.82077865280655
 30
0.0
 10
-751.15741469820932
 20
-342.3805014293381
 30
0.0
 10
-751.15741469820932
 20
-342.4369302978879
 30
0.0
 10
-751.15741469820932
 20
-342.4933591664377
 30
0.0
 10
-751.15741469820932
 20
-342.50005888113003
 30
0.0
 10
-751.15741469820932
 20
-342.58153514766684
 30
0.0
 10
-751.15741469820932
 20
-342.65049439547613
 30
0.0
 10
-751.15741469820932
 20
-342.65476631813692
 30
0.0
  0
LINE
  5
15B
100
AcDbEntity
  8
62ZN
370
              15
390
0
  6
Continuous
 62
               7
100
AcDbLine
 10
-742.78071292737695
 20
-431.59998897485696
 30
0.0
 11
-139.5275433760271
 21
-431.59998897485696
 31
0.0
  0
LINE
  5
15C
100
AcDbEntity
  8
62ZN
370
              15
390
0
  6
Continuous
 62
               7
100
AcDbLine
 10
-669.08095197712282
 20
-431.59998897485696
 30
0.0
 11
-641.58831221883338
 21
-491.7784998969438
 31
0.0
  0
LINE
  5
15D
100
AcDbEntity
  8
62ZN
370
              15
390
0
  6
Continuous
 62
               7
100
AcDbLine
 10
-133.54559669264745
 20
-425.76297932565637
 30
0.0
 11
-131.15742965220124
 21
-342.4933591664377
 31
0.0
  0
SPLINE
  5
15E
100
AcDbEntity
  8
62ZN
370
              15
390
0
  6
Continuous
 62
               7
100
AcDbSpline
210
0.0
220
0.0
230
1.0
 70
               8
 71
               2
 72
              14
 73
              11
 74
               0
 42
0.000001
 43
0.000001
 40
0.0
 40
0.0
 40
0.0
 40
1.0
 40
1.0
 40
2.0
 40
3.0
 40
4.0
 40
5.0
 40
6.0
 40
6.0
 40
7.0
 40
7.0
 40
7.0
 10
-139.5275433760271
 20
-431.59998897485696
 30
0.0
 10
-139.47251821067402
 20
-431.59998897485696
 30
0.0
 10
-139.41749304532277
 20
-431.59998897485696
 30
0.0
 10
-137.98788725748091
 20
-431.53761388846135
 30
0.0
 10
-136.12323307947008
 20
-430.59711211898377
 30
0.0
 10
-134.90133804920697
 20
-429.48316338526377
 30
0.0
 10
-134.01629038203282
 20
-428.07290514711383
 30
0.0
 10
-133.6008813926328
 20
-426.64221657523524
 30
0.0
 10
-133.54896558032306
 20
-425.87370343389523
 30
0.0
 10
-133.54728113648525
 20
-425.8183413797758
 30
0.0
 10
-133.54559669264745
 20
-425.76297932565637
 30
0.0
  0
SPLINE
  5
15F
100
AcDbEntity
  8
62ZN
370
              15
390
0
  6
Continuous
 62
               7
100
AcDbSpline
210
0.0
220
0.0
230
1.0
 70
               8
 71
               2
 72
              18
 73
              15
 74
               0
 42
0.000001
 43
0.000001
 40
0.0
 40
0.0
 40
0.0
 40
1.0
 40
1.0
 40
2.0
 40
3.0
 40
4.0
 40
5.0
 40
6.0
 40
6.0
 40
7.0
 40
7.0
 40
8.0
 40
9.0
 40
10.0
 40
10.0
 40
10.0
 10
-131.15742965220124
 20
-342.65476631813692
 30
0.0
 10
-131.15568906023691
 20
-342.59794441269196
 30
0.0
 10
-131.15394846827076
 20
-342.541122507247
 30
0.0
 10
-131.17407459022434
 20
-341.06536041867128
 30
0.0
 10
-132.09250783700918
 20
-339.14315881493951
 30
0.0
 10
-133.20805779723378
 20
-337.88331569360378
 30
0.0
 10
-134.63650145069914
 20
-336.96907774882197
 30
0.0
 10
-136.09505131548576
 20
-336.53643088097692
 30
0.0
 10
-136.88113237927973
 20
-336.47922088972336
 30
0.0
 10
-136.93778584034044
 20
-336.47719955711875
 30
0.0
 10
-136.99443930140114
 20
-336.47517822451414
 30
0.0
 10
-137.00113901609438
 20
-336.47517822451391
 30
0.0
 10
-137.08261528263029
 20
-336.47517822451391
 30
0.0
 10
-137.15157453044048
 20
-336.47517822451459
 30
0.0
 10
-137.15584645310082
 20
-336.47517822451414
 30
0.0
  0
LINE
  5
160
100
AcDbEntity
  8
62ZN
370
              15
390
0
  6
Continuous
 62
               7
100
AcDbLine
 10
-213.23050343059367
 20
-431.59998897485696
 30
0.0
 11
-240.72653023089879
 21
-491.7784998969438
 31
0.0
  0
SPLINE
  5
161
100
AcDbEntity
  8
62ZN
370
              15
390
0
  6
Continuous
 62
               7
100
AcDbSpline
210
0.0
220
0.0
230
1.0
 70
               8
 71
               2
 72
              13
 73
              10
 74
               0
 42
0.000001
 43
0.000001
 40
0.0
 40
0.0
 40
0.0
 40
1.0
 40
1.0
 40
2.0
 40
3.0
 40
4.0
 40
5.0
 40
5.0
 40
6.0
 40
6.0
 40
6.0
 10
-641.58831088254919
 20
-491.77850437059067
 30
0.0
 10
-641.55631179708143
 20
-491.83303222395261
 30
0.0
 10
-641.52431271161367
 20
-491.88756007731456
 30
0.0
 10
-640.7879646018755
 20
-493.06718269103624
 30
0.0
 10
-639.18597096411395
 20
-494.59976115178904
 30
0.0
 10
-637.53570400406716
 20
-495.64937535152683
 30
0.0
 10
-635.01349775583185
 20
-496.63176287691124
 30
0.0
 10
-633.12031760317586
 20
-496.68330536814108
 30
0.0
 10
-633.05726058181244
 20
-496.68330536814108
 30
0.0
 10
-632.99420356044902
 20
-496.68330536814108
 30
0.0
  0
SPLINE
  5
162
100
AcDbEntity
  8
62ZN
370
              15
390
0
  6
Continuous
 62
               7
100
AcDbSpline
210
0.0
220
0.0
230
1.0
 70
               8
 71
               2
 72
              13
 73
              10
 74
               0
 42
0.000001
 43
0.000001
 40
0.0
 40
0.0
 40
0.0
 40
1.0
 40
1.0
 40
2.0
 40
3.0
 40
4.0
 40
5.0
 40
5.0
 40
6.0
 40
6.0
 40
6.0
 10
-249.33711090748329
 20
-496.68330536814108
 30
0.0
 10
-249.27375977687916
 20
-496.68330536814108
 30
0.0
 10
-249.21040864627321
 20
-496.68330536814108
 30
0.0
 10
-247.81707140383878
 20
-496.64619596545265
 30
0.0
 10
-245.67553308114293
 20
-496.04838474832525
 30
0.0
 10
-243.92667965827422
 20
-495.16494787567296
 30
0.0
 10
-241.79297672016583
 20
-493.49706305242887
 30
0.0
 10
-240.79029635140432
 20
-491.88756007731456
 30
0.0
 10
-240.75841490963285
 20
-491.83303222395261
 30
0.0
 10
-240.72653346786137
 20
-491.77850437059067
 30
0.0
  0
LINE
  5
163
100
AcDbEntity
  8
62ZN
370
              15
390
0
  6
STYLE_12
 62
               7
100
AcDbLine
 10
-581.15742217520528
 20
-356.46558721680128
 30
0.0
 11
-581.15742217520528
 21
-396.43526972649136
 31
0.0
  0
LINE
  5
164
100
AcDbEntity
  8
62ZN
370
              15
390
0
  6
STYLE_12
 62
               7
100
AcDbLine
 10
-301.15742217520528
 20
-356.46558721680128
 30
0.0
 11
-301.15742217520528
 21
-396.43526972649136
 31
0.0
  0
LINE
  5
165
100
AcDbEntity
  8
62ZN
370
              15
390
0
  6
STYLE_12
 62
               7
100
AcDbLine
 10
-601.14226343004884
 20
-376.45042847164632
 30
0.0
 11
-561.17258092035991
 21
-376.45042847164632
 31
0.0
  0
CIRCLE
  5
166
100
AcDbEntity
  8
62ZN
370
              15
390
0
  6
STYLE_12
 62
               7
100
AcDbCircle
 10
-581.15742217520528
 20
-376.47518033268909
 30
0.0
 40
10.0
  0
LINE
  5
167
100
AcDbEntity
  8
62ZN
370
              15
390
0
  6
STYLE_12
 62
               7
100
AcDbLine
 10
-321.14226343005066
 20
-376.45042847164632
 30
0.0
 11
-281.17258092035991
 21
-376.45042847164632
 31
0.0
  0
CIRCLE
  5
168
100
AcDbEntity
  8
62ZN
370
              15
390
0
  6
STYLE_12
 62
               7
100
AcDbCircle
 10
-301.15742217520528
 20
-376.47518033268909
 30
0.0
 40
10.0
  0
LINE
  5
169
100
AcDbEntity
  8
62ZN
370
              15
390
0
  6
STYLE_12
 62
               7
100
AcDbLine
 10
-301.15742217520528
 20
-356.46558721680128
 30
0.0
 11
-301.15742217520528
 21
-396.43526972649136
 31
0.0
  0
DIMENSION
  5
16A
100
AcDbEntity
  8
62ZN
370
               5
390
0
  6
Continuous
 62
               7
100
AcDbDimension
  2
*D8
 10
-341.15749690431949
 20
979.3774487458893
 30
0.0
 11
-391.15743962569832
 21
979.3774487458893
 31
0.0
 71
               5
 72
               1
 41
1.0
 42
0.0
  3
tform線あり
100
AcDbAlignedDimension
 13
-441.15738234707715
 23
831.8774487458893
 33
0.0
 14
-341.15749690431949
 24
829.3774487458893
 34
0.0
100
AcDbRotatedDimension
1001
ACAD
1000
DSTYLE
1002
{
1070
             279
1070
               2
1070
             340
1005
33
1070
             147
1040
5.0
1002
}
  0
DIMENSION
  5
16B
100
AcDbEntity
  8
62ZN
370
               5
390
0
  6
Continuous
 62
               7
100
AcDbDimension
  2
*D9
 10
-441.15738234707715
 20
979.3774487458893
 30
0.0
 11
-491.15738234707715
 21
979.3774487458893
 31
0.0
 71
               5
 72
               1
 41
1.0
 42
0.0
  3
tform線あり
100
AcDbAlignedDimension
 13
-541.15738234707715
 23
829.3774487458893
 33
0.0
 14
-441.15738234707715
 24
831.8774487458893
 34
0.0
100
AcDbRotatedDimension
1001
ACAD
1000
DSTYLE
1002
{
1070
             279
1070
               2
1070
             340
1005
33
1070
             147
1040
5.0
1002
}
  0
DIMENSION
  5
16C
100
AcDbEntity
  8
62ZN
370
               5
390
0
  6
Continuous
 62
               7
100
AcDbDimension
  2
*D10
 10
-581.15742217520528
 20
-236.46558721680117
 30
0.0
 11
-441.15742217520528
 21
-236.46558721680117
 31
0.0
 71
               5
 72
               1
 41
1.0
 42
0.0
  3
tform線あり
100
AcDbAlignedDimension
 13
-301.15742217520528
 23
-356.46558721680128
 33
0.0
 14
-581.15742217520528
 24
-356.46558721680128
 34
0.0
100
AcDbRotatedDimension
1001
ACAD
1000
DSTYLE
1002
{
1070
             279
1070
               2
1070
             340
1005
33
1070
             147
1040
5.0
1002
}
  0
DIMENSION
  5
16D
100
AcDbEntity
  8
62ZN
370
               5
390
0
  6
Continuous
 62
               7
100
AcDbDimension
  2
*D11
 10
502.90425851104555
 20
-596.47517822451516
 30
0.0
 11
617.90425851104555
 21
-596.47517822451516
 31
0.0
 71
               5
 72
               1
 41
1.0
 42
0.0
  3
tform線あり
100
AcDbAlignedDimension
 13
732.90425851104555
 23
-493.47517822451516
 33
0.0
 14
502.90425851104555
 24
-491.34340793179456
 34
0.0
100
AcDbRotatedDimension
1001
ACAD
1000
DSTYLE
1002
{
1070
             279
1070
               2
1070
             340
1005
33
1070
              73
1070
               1
1070
              74
1070
               1
1070
             147
1040
5.0
1002
}
  0
DIMENSION
  5
16E
100
AcDbEntity
  8
62ZN
370
               5
390
0
  6
Continuous
 62
               7
100
AcDbDimension
  2
*D12
 10
174.37452356141512
 20
-336.47517822451414
 30
0.0
 11
174.37452356141512
 21
-383.97517822451459
 31
0.0
 71
               5
 72
               1
 41
1.0
 42
0.0
  3
tform線あり
100
AcDbAlignedDimension
 13
279.47452356141548
 23
-431.47517822451516
 33
0.0
 14
277.37452356141512
 24
-336.47517822451414
 34
0.0
 50
90.0
100
AcDbRotatedDimension
1001
ACAD
1000
DSTYLE
1002
{
1070
             279
1070
               2
1070
             340
1005
33
1070
             147
1040
5.0
1002
}
  0
DIMENSION
  5
16F
100
AcDbEntity
  8
62ZN
370
               5
390
0
  6
Continuous
 62
               7
100
AcDbDimension
  2
*D13
 10
174.37452356141512
 20
-431.47517822451516
 30
0.0
 11
174.37452356141512
 21
-463.97517822451516
 31
0.0
 71
               5
 72
               1
 41
1.0
 42
0.0
  3
tform線あり
100
AcDbAlignedDimension
 13
408.92978031376515
 23
-496.47517822451516
 33
0.0
 14
279.47452356141548
 24
-431.47517822451516
 34
0.0
 50
90.0
100
AcDbRotatedDimension
1001
ACAD
1000
DSTYLE
1002
{
1070
             279
1070
               2
1070
             340
1005
33
1070
             147
1040
5.0
1002
}
  0
DIMENSION
  5
170
100
AcDbEntity
  8
62ZN
370
               5
390
0
  6
Continuous
 62
               7
100
AcDbDimension
  2
*D14
 10
472.57958936298746
 20
-336.47517822451414
 30
0.0
 11
477.57958936298746
 21
-324.34956213635701
 31
0.0
 70
             128
 71
               5
 72
               1
 41
1.0
 42
0.0
  3
tform線あり
100
AcDbAlignedDimension
 13
472.57740622522397
 23
-446.47517822451516
 33
0.0
 14
472.57740622522397
 24
-336.47517822451414
 34
0.0
 50
90.0
100
AcDbRotatedDimension
1001
ACAD
1000
DSTYLE
1002
{
1070
             279
1070
               2
1070
             340
1005
33
1070
               3
1000
<>(深さ)
1070
             174
1070
               0
1070
             147
1040
5.0
1002
}
  0
DIMENSION
  5
171
100
AcDbEntity
  8
62ZN
370
               5
390
0
  6
Continuous
 62
               7
100
AcDbDimension
  2
*D15
 10
672.87958936298674
 20
-225.1504263634713
 30
0.0
 11
702.87958936298674
 21
-225.1504263634713
 31
0.0
 71
               5
 72
               1
 41
1.0
 42
0.0
  3
tform線あり
100
AcDbAlignedDimension
 13
732.87958936298674
 23
-341.47517822451425
 33
0.0
 14
672.87958936298674
 24
-336.47517822451414
 34
0.0
100
AcDbRotatedDimension
1001
ACAD
1000
DSTYLE
1002
{
1070
             279
1070
               2
1070
             340
1005
33
1070
             147
1040
5.0
1002
}
  0
LINE
  5
172
100
AcDbEntity
  8
62ZN
370
              15
390
0
  6
STYLE_12
 62
               7
100
AcDbLine
 10
320.08227782072936
 20
-340.56287107670607
 30
0.0
 11
340.68495370336313
 21
-417.53390654321754
 31
0.0
  0
LINE
  5
173
100
AcDbEntity
  8
62ZN
370
              15
390
0
  6
Continuous
 62
               7
100
AcDbLine
 10
732.90425851104555
 20
-339.47517822451425
 30
0.0
 11
732.90425851104555
 21
-493.47517822451516
 31
0.0
  0
LINE
  5
174
100
AcDbEntity
  8
62ZN
370
              15
390
0
  6
Continuous
 62
               7
100
AcDbLine
 10
729.90425851104555
 20
-336.47517822451414
 30
0.0
 11
276.14552162009386
 21
-336.47517822451414
 31
0.0
  0
LINE
  5
175
100
AcDbEntity
  8
62ZN
370
              15
390
0
  6
Continuous
 62
               7
100
AcDbLine
 10
273.14552162009386
 20
-339.47517822451425
 30
0.0
 11
275.24552162009422
 21
-428.47517822451516
 31
0.0
  0
LINE
  5
176
100
AcDbEntity
  8
62ZN
370
              15
390
0
  6
Continuous
 62
               7
100
AcDbLine
 10
278.24552162009422
 20
-431.47517822451516
 30
0.0
 11
333.03237979769074
 21
-431.47517822451516
 31
0.0
  0
ARC
  5
177
100
AcDbEntity
  8
62ZN
370
              15
390
0
  6
Continuous
 62
               7
100
AcDbCircle
 10
729.90425851104555
 20
-339.47517822451425
 30
0.0
 40
3.0
100
AcDbArc
 50
0.0
 51
90.0
  0
ARC
  5
178
100
AcDbEntity
  8
62ZN
370
              15
390
0
  6
Continuous
 62
               7
100
AcDbCircle
 10
729.90425851104555
 20
-493.47517822451516
 30
0.0
 40
3.0
100
AcDbArc
 50
270.0
 51
0.0
  0
ARC
  5
179
100
AcDbEntity
  8
62ZN
370
              15
390
0
  6
Continuous
 62
               7
100
AcDbCircle
 10
276.14552162009386
 20
-339.47517822451425
 30
0.0
 40
3.0000000000001137
100
AcDbArc
 50
90.0
 51
180.0
  0
ARC
  5
17A
100
AcDbEntity
  8
62ZN
370
              15
390
0
  6
Continuous
 62
               7
100
AcDbCircle
 10
278.24552162009422
 20
-428.47517822451516
 30
0.0
 40
3.0
100
AcDbArc
 50
180.0
 51
270.0
  0
LINE
  5
17B
100
AcDbEntity
  8
62ZN
370
              15
390
0
  6
Continuous
 62
               7
100
AcDbLine
 10
405.57402015817934
 20
-495.59104672186118
 30
0.0
 11
355.51847692283809
 21
-445.27788317756131
 31
0.0
  0
LINE
  5
17C
100
AcDbEntity
  8
62ZN
370
              15
390
0
  6
Continuous
 62
               7
100
AcDbLine
 10
729.90425851104555
 20
-496.47517822451516
 30
0.0
 11
407.70077837244389
 21
-496.47517822451516
 31
0.0
  0
ARC
  5
17D
100
AcDbEntity
  8
62ZN
370
              15
390
0
  6
Continuous
 62
               7
100
AcDbCircle
 10
361.47932678033067
 20
-412.14570622309361
 30
0.0
 40
33.163989167339082
100
AcDbArc
 50
218.13019216960302
 51
257.07725490229149
  0
ARC
  5
17E
100
AcDbEntity
  8
62ZN
370
              15
390
0
  6
Continuous
 62
               7
100
AcDbCircle
 10
333.03237979769074
 20
-434.47517822451505
 30
0.0
 40
2.9999999999996176
100
AcDbArc
 50
38.130192169604868
 51
90.0
  0
ARC
  5
17F
100
AcDbEntity
  8
62ZN
370
              15
390
0
  6
Continuous
 62
               7
100
AcDbCircle
 10
353.39171870857353
 20
-447.39375167490778
 30
0.0
 40
3.0000000000008273
100
AcDbArc
 50
44.852936991226649
 51
77.077254902262951
  0
ARC
  5
180
100
AcDbEntity
  8
62ZN
370
              15
390
0
  6
Continuous
 62
               7
100
AcDbCircle
 10
407.70077837244389
 20
-493.47517822451516
 30
0.0
 40
3.0000000000005067
100
AcDbArc
 50
224.85293699122053
 51
270.0
  0
LINE
  5
181
100
AcDbEntity
  8
62ZN
370
              15
390
0
  6
STYLE_12
 62
               7
100
AcDbLine
 10
603.64373103757862
 20
-341.74501376172691
 30
0.0
 11
597.18695128169747
 21
-415.53100895098544
 31
0.0
  0
LINE
  5
182
100
AcDbEntity
  8
62ZN
370
              15
390
0
  6
STYLE_12
 62
               7
100
AcDbLine
 10
578.61555329327894
 20
-439.26967036312078
 30
0.0
 11
542.63246363798498
 21
-446.09252295539841
 31
0.0
  0
LINE
  5
183
100
AcDbEntity
  8
62ZN
370
              15
390
0
  6
STYLE_12
 62
               7
100
AcDbLine
 10
463.17605338410613
 20
-446.09252295539841
 30
0.0
 11
363.89532598518053
 21
-436.29666442236237
 31
0.0
  0
ARC
  5
184
100
AcDbEntity
  8
62ZN
370
              15
390
0
  6
STYLE_12
 62
               7
100
AcDbCircle
 10
314.3469694431551
 20
-342.14549576973729
 30
0.0
 40
5.9496607554435919
100
AcDbArc
 50
15.426530594279477
 51
99.276233650152761
  0
ARC
  5
185
100
AcDbEntity
  8
62ZN
370
              15
390
0
  6
STYLE_12
 62
               7
100
AcDbCircle
 10
365.48196993206693
 20
-410.64449804234846
 30
0.0
 40
25.701188279643315
100
AcDbArc
 50
195.52700345746837
 51
265.57318534314805
  0
ARC
  5
186
100
AcDbEntity
  8
62ZN
370
              15
390
0
  6
STYLE_12
 62
               7
100
AcDbCircle
 10
463.26994714540342
 20
-449.65695494952251
 30
0.0
 40
3.5656684477314089
100
AcDbArc
 50
48.295903570633669
 51
91.508928338352504
  0
LINE
  5
187
100
AcDbEntity
  8
62ZN
370
              15
390
0
  6
STYLE_12
 62
               7
100
AcDbLine
 10
465.64212836712613
 20
-446.99486033616756
 30
0.0
 11
480.71688681339947
 21
-459.65103767974881
 31
0.0
  0
LINE
  5
188
100
AcDbEntity
  8
62ZN
370
              15
390
0
  6
STYLE_12
 62
               7
100
AcDbLine
 10
481.90138379393284
 20
-461.81198044501969
 30
0.0
 11
482.2523744713144
 21
-491.4682674118809
 31
0.0
  0
LINE
  5
189
100
AcDbEntity
  8
62ZN
370
              15
390
0
  6
STYLE_12
 62
               7
100
AcDbLine
 10
523.55762029860125
 20
-491.34340793179456
 30
0.0
 11
482.25089672349168
 21
-491.34340793179456
 31
0.0
  0
ARC
  5
18A
100
AcDbEntity
  8
62ZN
370
              15
390
0
  6
STYLE_12
 62
               7
100
AcDbCircle
 10
572.91490073241221
 20
-415.58773948494809
 30
0.0
 40
24.350405680469546
100
AcDbArc
 50
281.77201596301478
 51
1.8845477308492491
  0
ARC
  5
18B
100
AcDbEntity
  8
62ZN
370
              15
390
0
  6
STYLE_12
 62
               7
100
AcDbCircle
 10
479.85011266020956
 20
-461.5312562576695
 30
0.0
 40
2.0703911063837857
100
AcDbArc
 50
354.74953546943203
 51
65.250464530567569
  0
ARC
  5
18C
100
AcDbEntity
  8
62ZN
370
              15
390
0
  6
STYLE_12
 62
               7
100
AcDbCircle
 10
542.53856987668769
 20
-449.65695494952251
 30
0.0
 40
3.5656684477312397
100
AcDbArc
 50
88.49107166164751
 51
131.70409642936636
  0
LINE
  5
18D
100
AcDbEntity
  8
62ZN
370
              15
390
0
  6
STYLE_12
 62
               7
100
AcDbLine
 10
540.16638865496498
 20
-446.99486033616756
 30
0.0
 11
525.09163020869346
 21
-459.65103767974881
 31
0.0
  0
LINE
  5
18E
100
AcDbEntity
  8
62ZN
370
              15
390
0
  6
STYLE_12
 62
               7
100
AcDbLine
 10
523.90713322816009
 20
-461.81198044501969
 30
0.0
 11
523.55614255077853
 21
-491.4682674118809
 31
0.0
  0
ARC
  5
18F
100
AcDbEntity
  8
62ZN
370
              15
390
0
  6
STYLE_12
 62
               7
100
AcDbCircle
 10
525.95840436188337
 20
-461.5312562576695
 30
0.0
 40
2.0703911063845331
100
AcDbArc
 50
114.74953546943244
 51
185.25046453056336
  0
LINE
  5
190
100
AcDbEntity
  8
62ZN
370
              15
390
0
  6
STYLE_12
 62
               7
100
AcDbLine
 10
540.32732920120907
 20
-446.85974095085157
 30
0.0
 11
465.48118782087113
 21
-446.85974095085157
 31
0.0
  0
LINE
  5
191
100
AcDbEntity
  8
62ZN
370
              15
390
0
  6
STYLE_12
 62
               7
100
AcDbLine
 10
523.89670023214057
 20
-461.72071711062358
 30
0.0
 11
481.91181678995235
 21
-461.72071711062358
 31
0.0
  0
LINE
  5
192
100
AcDbEntity
  8
62ZN
370
              15
390
0
  6
Continuous
 62
               7
100
AcDbLine
 10
655.37958936298674
 20
-336.47517822451414
 30
0.0
 11
655.37958936298674
 21
-351.47517822451437
 31
0.0
  0
LINE
  5
193
100
AcDbEntity
  8
62ZN
370
              15
390
0
  6
Continuous
 62
               7
100
AcDbLine
 10
690.37958936298674
 20
-336.47517822451414
 30
0.0
 11
690.37958936298674
 21
-351.47517822451437
 31
0.0
  0
DIMENSION
  5
194
100
AcDbEntity
  8
62ZN
370
               5
390
0
  6
Continuous
 62
               7
100
AcDbDimension
  2
*D16
 10
-841.46963955982574
 20
879.37207271953253
 30
0.0
 11
-841.46963955982574
 21
814.37207271492548
 31
0.0
 71
               5
 72
               1
 41
1.0
 42
0.0
  3
tform線あり
100
AcDbAlignedDimension
 13
-751.15741458114462
 23
749.37207271031889
 33
0.0
 14
-748.15741817821072
 24
879.37207271953253
 34
0.0
 50
90.0
100
AcDbRotatedDimension
1001
ACAD
1000
DSTYLE
1002
{
1070
             279
1070
               2
1070
             340
1005
33
1070
             147
1040
5.0
1002
}
  0
DIMENSION
  5
195
100
AcDbEntity
  8
62ZN
370
               5
390
0
  6
Continuous
 62
               7
100
AcDbDimension
  2
*D17
 10
-841.46963955982574
 20
749.37207271031889
 30
0.0
 11
-841.46963955982574
 21
606.87207271031889
 31
0.0
 71
               5
 72
               1
 41
1.0
 42
0.0
  3
tform線あり
100
AcDbAlignedDimension
 13
-671.22296878680754
 23
464.37207271031889
 33
0.0
 14
-751.15741458114462
 24
749.37207271031889
 34
0.0
 50
90.0
100
AcDbRotatedDimension
1001
ACAD
1000
DSTYLE
1002
{
1070
             279
1070
               2
1070
             340
1005
33
1070
             147
1040
5.0
1002
}
  0
DIMENSION
  5
196
100
AcDbEntity
  8
62ZN
370
               5
390
0
  6
Continuous
 62
               7
100
AcDbDimension
  2
*D18
 10
-703.65741122305553
 20
319.35476946953486
 30
0.0
 11
-441.15741122305553
 21
319.35476946953486
 31
0.0
 71
               5
 72
               1
 41
1.0
 42
0.0
  3
tform線あり
100
AcDbAlignedDimension
 13
-178.65741122305553
 23
499.6547696406476
 33
0.0
 14
-703.65741122305553
 24
499.65476946953481
 34
0.0
100
AcDbRotatedDimension
1001
ACAD
1000
DSTYLE
1002
{
1070
             279
1070
               2
1070
             340
1005
33
1070
             147
1040
5.0
1002
}
  0
MTEXT
  5
197
100
AcDbEntity
  8
62ZN
390
0
 62
               7
100
AcDbMText
 10
-819.33950966175871
 20
232.78810752573668
 30
0.0
 40
24.432617187500004
 41
842.88315656391467
 71
               1
 72
               1
  1
＝φ30もしくはφ35の水栓取付用穴あけ加工を承ります。\P   必要な場合、ご注文の際にご指示ください。
  7
ＭＳ ゴシック
 73
               1
 44
1.0437689845677123
  0
CIRCLE
  5
198
100
AcDbEntity
  8
62ZN
370
              15
390
0
  6
STYLE_12
 62
               7
100
AcDbCircle
 10
-847.03259404678829
 20
222.2166058119335
 30
0.0
 40
17.5
  0
MTEXT
  5
199
100
AcDbEntity
  8
62ZN
390
0
 62
               7
100
AcDbMText
 10
-819.33950966175871
 20
232.78810752573668
 30
0.0
 40
24.432617187500004
 41
842.88315656391467
 71
               1
 72
               1
  1
＝φ30もしくはφ35の水栓取付用穴あけ加工を承ります。\P   必要な場合、ご注文の際にご指示ください。
  7
ＭＳ ゴシック
 73
               1
 44
1.0437689845677123
  0
ENDSEC
  0
SECTION
  2
OBJECTS
  0
DICTIONARY
  5
19
100
AcDbDictionary
280
               0
281
               1
  3
ACAD_GROUP
350
1A
  3
ACAD_MLINESTYLE
350
1B
  3
ACAD_LAYOUT
350
1E
  3
ACAD_PLOTSETTINGS
350
22
  3
ACAD_PLOTSTYLENAME
350
1F
  0
DICTIONARY
  5
1A
102
{ACAD_REACTORS
330
19
102
}
100
AcDbDictionary
280
               0
281
               1
  0
DICTIONARY
  5
1B
102
{ACAD_REACTORS
330
19
102
}
100
AcDbDictionary
280
               0
281
               1
  3
Standard
350
1C
  0
MLINESTYLE
  5
1C
102
{ACAD_REACTORS
330
1B
102
}
100
AcDbMlineStyle
  2
Standard
 70
               0
  3

 62
               0
 51
90.0
 52
90.0
 71
               2
 49
0.5
 62
             256
  6
ByLayer
 49
-0.5
 62
             256
  6
ByLayer
  0
ACDBDICTIONARYWDFLT
  5
1F
102
{ACAD_REACTORS
330
19
102
}
100
AcDbDictionary
281
               1
  3
Normal
350
1D
100
AcDbDictionaryWithDefault
340
1D
  0
ACDBPLACEHOLDER
  5
1D
102
{ACAD_REACTORS
330
1F
102
}
  0
LAYOUT
  5
20
102
{ACAD_REACTORS
330
1E
102
}
100
AcDbPlotSettings
  1

  2

  4

  6

 40
0.0
 41
0.0
 42
0.0
 43
0.0
 44
0.0
 45
0.0
 46
0.0
 47
0.0
 48
0.0
 49
0.0
140
0.0
141
0.0
142
1.0
143
1.0
 70
            1024
 72
               0
 73
               0
 74
               0
  7

 75
               0
147
1.0
148
0.0
149
0.0
100
AcDbLayout
  1
Model
 70
               0
 71
               0
 10
0.0
 20
0.0
 11
0.0
 21
0.0
 12
0.0
 22
0.0
 32
0.0
 14
0.0
 24
0.0
 34
0.0
 15
0.0
 25
0.0
 35
0.0
146
0.0
 13
0.0
 23
0.0
 33
0.0
 16
0.0
 26
0.0
 36
0.0
 17
0.0
 27
0.0
 37
0.0
 76
               0
330
A
331
0
345
0
346
0
  0
LAYOUT
  5
21
102
{ACAD_REACTORS
330
1E
102
}
100
AcDbPlotSettings
  1

  2

  4

  6

 40
0.0
 41
0.0
 42
0.0
 43
0.0
 44
0.0
 45
0.0
 46
0.0
 47
0.0
 48
0.0
 49
0.0
140
0.0
141
0.0
142
1.0
143
1.0
 70
               0
 72
               0
 73
               0
 74
               0
  7

 75
               0
147
1.0
148
0.0
149
0.0
100
AcDbLayout
  1
Layout1
 70
               0
 71
               0
 10
0.0
 20
0.0
 11
0.0
 21
0.0
 12
0.0
 22
0.0
 32
0.0
 14
0.0
 24
0.0
 34
0.0
 15
0.0
 25
0.0
 35
0.0
146
0.0
 13
0.0
 23
0.0
 33
0.0
 16
0.0
 26
0.0
 36
0.0
 17
0.0
 27
0.0
 37
0.0
 76
               0
330
B
331
0
345
0
346
0
  0
DICTIONARY
  5
1E
102
{ACAD_REACTORS
330
19
102
}
100
AcDbDictionary
280
               0
281
               1
  3
Layout1
350
21
  3
Model
350
20
  0
DICTIONARY
  5
22
102
{ACAD_REACTORS
330
19
102
}
100
AcDbDictionary
280
               0
281
               1
  0
ENDSEC
  0
EOF
