  0
SECTION
  2
HEADER
  9
$ACADVER
  1
AC1015
  9
$ACADMAINTVER
 70
               6
  9
$DWGCODEPAGE
  3
ANSI_932
  9
$INSBASE
 10
0.0
 20
0.0
 30
0.0
  9
$EXTMIN
 10
-975.00000000024124
 20
-1431.5255224711129
 30
-14.834305555555554
  9
$EXTMAX
 10
975.00000000024124
 20
1405.9972926412995
 30
14.834305555555554
  9
$LIMMIN
 10
0.0
 20
0.0
  9
$LIMMAX
 10
0.0
 20
0.0
  9
$ORTHOMODE
 70
               0
  9
$REGENMODE
 70
               1
  9
$FILLMODE
 70
               1
  9
$QTEXTMODE
 70
               0
  9
$MIRRTEXT
 70
               1
  9
$LTSCALE
 40
50.799999999999997
  9
$ATTMODE
 70
               1
  9
$TEXTSIZE
 40
0.2
  9
$TRACEWID
 40
1.0
  9
$TEXTSTYLE
  7
Standard
  9
$CLAYER
  8
notes
  9
$CELTYPE
  6
Continuous
  9
$CECOLOR
 62
             256
  9
$CELTSCALE
 40
1.0
  9
$DISPSILH
 70
               0
  9
$DIMSCALE
 40
1.0
  9
$DIMASZ
 40
22.4482421875
  9
$DIMEXO
 40
15.875
  9
$DIMDLI
 40
10.16
  9
$DIMRND
 40
0.0
  9
$DIMDLE
 40
1.5874999999999999
  9
$DIMEXE
 40
31.75
  9
$DIMTP
 40
0.0
  9
$DIMTM
 40
0.0
  9
$DIMTXT
 40
24.432617187500004
  9
$DIMCEN
 40
0.0
  9
$DIMTSZ
 40
0.0
  9
$DIMTOL
 70
               0
  9
$DIMLIM
 70
               0
  9
$DIMTIH
 70
               0
  9
$DIMTOH
 70
               0
  9
$DIMSE1
 70
               0
  9
$DIMSE2
 70
               0
  9
$DIMTAD
 70
               1
  9
$DIMZIN
 70
              11
  9
$DIMBLK
  1
VW_SLASH
  9
$DIMASO
 70
               1
  9
$DIMSHO
 70
               1
  9
$DIMPOST
  1
<>
  9
$DIMAPOST
  1
[]
  9
$DIMALT
 70
               0
  9
$DIMALTD
 70
               1
  9
$DIMALTF
 40
1.0
  9
$DIMLFAC
 40
1.0
  9
$DIMTOFL
 70
               1
  9
$DIMTVP
 40
0.0
  9
$DIMTIX
 70
               1
  9
$DIMSOXD
 70
               0
  9
$DIMSAH
 70
               0
  9
$DIMBLK1
  1

  9
$DIMBLK2
  1

  9
$DIMSTYLE
  2
Arch
  9
$DIMCLRD
 70
               0
  9
$DIMCLRE
 70
               0
  9
$DIMCLRT
 70
               0
  9
$DIMTFAC
 40
1.0
  9
$DIMGAP
 40
1.5874999999999999
  9
$DIMJUST
 70
               0
  9
$DIMSD1
 70
               0
  9
$DIMSD2
 70
               0
  9
$DIMTOLJ
 70
               1
  9
$DIMTZIN
 70
              11
  9
$DIMALTZ
 70
              11
  9
$DIMALTTZ
 70
              11
  9
$DIMUPT
 70
               0
  9
$DIMDEC
 70
               1
  9
$DIMTDEC
 70
               1
  9
$DIMALTU
 70
               2
  9
$DIMALTTD
 70
               2
  9
$DIMTXSTY
  7
ＭＳ ゴシック
  9
$DIMAUNIT
 70
               0
  9
$DIMADEC
 70
               2
  9
$DIMALTRND
 40
0.0
  9
$DIMAZIN
 70
               0
  9
$DIMDSEP
 70
              46
  9
$DIMATFIT
 70
               0
  9
$DIMFRAC
 70
               2
  9
$DIMLDRBLK
  1

  9
$DIMLUNIT
 70
               2
  9
$DIMLWD
 70
              -2
  9
$DIMLWE
 70
              -2
  9
$DIMTMOVE
 70
               0
  9
$LUNITS
 70
               2
  9
$LUPREC
 70
               4
  9
$SKETCHINC
 40
0.1
  9
$FILLETRAD
 40
0.0
  9
$AUNITS
 70
               0
  9
$AUPREC
 70
               0
  9
$MENU
  1
acad
  9
$ELEVATION
 40
0.0
  9
$PELEVATION
 40
0.0
  9
$THICKNESS
 40
0.0
  9
$LIMCHECK
 70
               0
  9
$CHAMFERA
 40
0.0
  9
$CHAMFERB
 40
0.0
  9
$CHAMFERC
 40
0.0
  9
$CHAMFERD
 40
0.0
  9
$SKPOLY
 70
               0
  9
$TDCREATE
 40
2455995.604895833
  9
$TDUCREATE
 40
0.000000000
  9
$TDUPDATE
 40
2455995.604895833
  9
$TDUUPDATE
 40
0.000000000
  9
$TDINDWG
 40
0.0000000000
  9
$TDUSRTIMER
 40
0.0000000000
  9
$USRTIMER
 70
               1
  9
$ANGBASE
 50
0.0
  9
$ANGDIR
 70
               0
  9
$PDMODE
 70
               1
  9
$PDSIZE
 40
-2.0
  9
$PLINEWID
 40
0.0
  9
$SPLFRAME
 70
               0
  9
$SPLINETYPE
 70
               6
  9
$SPLINESEGS
 70
               8
  9
$HANDSEED
  5
1AB
  9
$SURFTAB1
 70
               6
  9
$SURFTAB2
 70
               6
  9
$SURFTYPE
 70
               6
  9
$SURFU
 70
               6
  9
$SURFV
 70
               6
  9
$UCSBASE
  2

  9
$UCSNAME
  2

  9
$UCSORG
 10
0.0
 20
0.0
 30
0.0
  9
$UCSXDIR
 10
1.0
 20
0.0
 30
0.0
  9
$UCSYDIR
 10
0.0
 20
1.0
 30
0.0
  9
$UCSORTHOREF
  2

  9
$UCSORTHOVIEW
 70
               0
  9
$UCSORGTOP
 10
0.0
 20
0.0
 30
0.0
  9
$UCSORGBOTTOM
 10
0.0
 20
0.0
 30
0.0
  9
$UCSORGLEFT
 10
0.0
 20
0.0
 30
0.0
  9
$UCSORGRIGHT
 10
0.0
 20
0.0
 30
0.0
  9
$UCSORGFRONT
 10
0.0
 20
0.0
 30
0.0
  9
$UCSORGBACK
 10
0.0
 20
0.0
 30
0.0
  9
$PUCSBASE
  2

  9
$PUCSNAME
  2

  9
$PUCSORG
 10
0.0
 20
0.0
 30
0.0
  9
$PUCSXDIR
 10
1.0
 20
0.0
 30
0.0
  9
$PUCSYDIR
 10
0.0
 20
1.0
 30
0.0
  9
$PUCSORTHOREF
  2

  9
$PUCSORTHOVIEW
 70
               0
  9
$PUCSORGTOP
 10
0.0
 20
0.0
 30
0.0
  9
$PUCSORGBOTTOM
 10
0.0
 20
0.0
 30
0.0
  9
$PUCSORGLEFT
 10
0.0
 20
0.0
 30
0.0
  9
$PUCSORGRIGHT
 10
0.0
 20
0.0
 30
0.0
  9
$PUCSORGFRONT
 10
0.0
 20
0.0
 30
0.0
  9
$PUCSORGBACK
 10
0.0
 20
0.0
 30
0.0
  9
$USERI1
 70
               0
  9
$USERI2
 70
               0
  9
$USERI3
 70
               0
  9
$USERI4
 70
               0
  9
$USERI5
 70
               0
  9
$USERR1
 40
0.0
  9
$USERR2
 40
0.0
  9
$USERR3
 40
0.0
  9
$USERR4
 40
0.0
  9
$USERR5
 40
0.0
  9
$WORLDVIEW
 70
               1
  9
$SHADEDGE
 70
               3
  9
$SHADEDIF
 70
              70
  9
$TILEMODE
 70
               1
  9
$MAXACTVP
 70
              64
  9
$PINSBASE
 10
0.0
 20
0.0
 30
0.0
  9
$PLIMCHECK
 70
               0
  9
$PEXTMIN
 10
1.0000000000000000E+20
 20
1.0000000000000000E+20
 30
1.0000000000000000E+20
  9
$PEXTMAX
 10
-1.0000000000000000E+20
 20
-1.0000000000000000E+20
 30
-1.0000000000000000E+20
  9
$PLIMMIN
 10
0.0
 20
0.0
  9
$PLIMMAX
 10
12.0
 20
9.0
  9
$UNITMODE
 70
               0
  9
$VISRETAIN
 70
               0
  9
$PLINEGEN
 70
               1
  9
$PSLTSCALE
 70
               0
  9
$TREEDEPTH
 70
            3020
  9
$CMLSTYLE
  2
Standard
  9
$CMLJUST
 70
               0
  9
$CMLSCALE
 40
1.0
  9
$PROXYGRAPHICS
 70
               0
  9
$MEASUREMENT
 70
               1
  9
$CELWEIGHT
370
               0
  9
$ENDCAPS
280
               0
  9
$JOINSTYLE
280
               0
  9
$LWDISPLAY
290
               1
  9
$INSUNITS
 70
               4
  9
$HYPERLINKBASE
  1

  9
$STYLESHEET
  1

  9
$XEDIT
290
               1
  9
$CEPSNTYPE
380
               0
  9
$PSTYLEMODE
290
               1
  9
$FINGERPRINTGUID
  2

  9
$VERSIONGUID
  2

  9
$EXTNAMES
290
               1
  9
$PSVPSCALE
 40
0.0
  0
ENDSEC
  0
SECTION
  2
CLASSES
  0
CLASS
  1
LWPOLYLINE
  2
AcDbPolyline
  3
AutoCAD 2000
 90
        0
280
               0
281
               1
  0
CLASS
  1
IMAGE
  2
AcDbRasterImage
  3
ISM
 90
      127
280
               0
281
               1
  0
CLASS
  1
OLE2FRAME
  2
AcDbOle2Frame
  3
AutoCAD 2000
 90
        0
280
               0
281
               1
  0
CLASS
  1
HATCH
  2
AcDbHatch
  3
AutoCAD 2000
 90
        0
280
               0
281
               1
  0
CLASS
  1
DICTIONARYVAR
  2
AcDbDictionaryVar
  3
AutoCAD 2000
 90
        0
280
               0
281
               0
  0
CLASS
  1
RASTERVARIABLES
  2
AcDbRasterVariables
  3
ISM
 90
        0
280
               0
281
               0
  0
CLASS
  1
IMAGEDEF
  2
AcDbRasterImageDef
  3
ISM
 90
        0
280
               0
281
               0
  0
CLASS
  1
IMAGEDEF_REACTOR
  2
AcDbRasterImageDefReactor
  3
ISM
 90
        1
280
               0
281
               0
  0
CLASS
  1
IDBUFFER
  2
AcDbIdBuffer
  3
AutoCAD 2000
 90
        0
280
               0
281
               0
  0
CLASS
  1
SPATIAL_FILTER
  2
AcDbSpatialFilter
  3
AutoCAD 2000
 90
        0
280
               0
281
               0
  0
CLASS
  1
XRECORD
  2
AcDbXrecord
  3
AutoCAD 2000
 90
        0
280
               0
281
               0
  0
CLASS
  1
SORTENTSTABLE
  2
AcDbSortentsTable
  3
AutoCAD 2000
 90
        0
280
               0
281
               0
  0
CLASS
  1
LAYER_INDEX
  2
AcDbLayerIndex
  3
AutoCAD 2000
 90
        0
280
               0
281
               0
  0
CLASS
  1
SPATIAL_INDEX
  2
AcDbSpatialIndex
  3
AutoCAD 2000
 90
        0
280
               0
281
               0
  0
CLASS
  1
OBJECT_PTR
  2
CAseDLPNTableRecord
  3
"ASE-LPNTableRecord"
 90
        1
280
               0
281
               0
  0
CLASS
  1
LAYOUT
  2
AcDbLayout
  3
AutoCAD 2000
 90
        0
280
               0
281
               0
  0
CLASS
  1
PLOTSETTINGS
  2
AcDbPlotSettings
  3
AutoCAD 2000
 90
        0
280
               0
281
               0
  0
CLASS
  1
ACDBDICTIONARYWDFLT
  2
AcDbDictionaryWithDefault
  3
AutoCAD 2000
 90
        0
280
               0
281
               0
  0
CLASS
  1
ACDBPLACEHOLDER
  2
AcDbPlaceHolder
  3
AutoCAD 2000
 90
        0
280
               0
281
               0
  0
ENDSEC
  0
SECTION
  2
TABLES
  0
TABLE
  2
VPORT
  5
7
100
AcDbSymbolTable
 70
               1
  0
VPORT
  5
15
100
AcDbSymbolTableRecord
100
AcDbViewportTableRecord
  2
*ACTIVE
 70
               0
 10
0.0
 20
0.0
 11
1.0
 21
1.0
 12
0.0
 22
-12.764114914906713
 13
0.0
 23
0.0
 14
1.0
 24
1.0
 15
0.0
 25
0.0
 16
0.0
 26
0.0
 36
1.0
 17
0.0
 27
0.0
 37
0.0
 40
2837.5228151124124
 41
0.688564
 42
50.0
 43
0.0
 44
0.0
 50
0.0
 51
0.0
 71
               0
 72
            2000
 73
               1
 74
               1
 75
               0
 76
               0
 77
               0
 78
               0
281
               0
 65
               0
110
0.0
120
0.0
130
0.0
111
1.0
121
0.0
131
0.0
112
0.0
122
1.0
132
0.0
345
0
346
0
 79
               0
146
0.0
  0
ENDTAB
  0
TABLE
  2
LTYPE
  5
4
100
AcDbSymbolTable
 70
              15
  0
LTYPE
  5
11
100
AcDbSymbolTableRecord
100
AcDbLinetypeTableRecord
  2
ByBlock
 70
              64
  3

 72
              65
 73
               0
 40
0.0
  0
LTYPE
  5
12
100
AcDbSymbolTableRecord
100
AcDbLinetypeTableRecord
  2
ByLayer
 70
              64
  3

 72
              65
 73
               0
 40
0.0
  0
LTYPE
  5
13
100
AcDbSymbolTableRecord
100
AcDbLinetypeTableRecord
  2
Continuous
 70
              64
  3
Solid line
 72
              65
 73
               0
 40
0.0
  0
LTYPE
  5
35
100
AcDbSymbolTableRecord
100
AcDbLinetypeTableRecord
  2
STYLE_01
 70
               0
  3

 72
              65
 73
               4
 40
0.2108074803149606
 49
0.1109547244094488
 74
               0
 49
-0.0332842519685039
 74
               0
 49
0.0332842519685039
 74
               0
 49
-0.0332842519685039
 74
               0
  0
LTYPE
  5
36
100
AcDbSymbolTableRecord
100
AcDbLinetypeTableRecord
  2
STYLE_02
 70
               0
  3

 72
              65
 73
               4
 40
0.177082874015748
 49
0.1041666338582677
 74
               0
 49
-0.0243054133858268
 74
               0
 49
0.0243054133858268
 74
               0
 49
-0.0243054133858268
 74
               0
  0
LTYPE
  5
37
100
AcDbSymbolTableRecord
100
AcDbLinetypeTableRecord
  2
STYLE_03
 70
               0
  3

 72
              65
 73
               2
 40
1.25
 49
1.0416400000000001
 74
               0
 49
-0.2083599999999999
 74
               0
  0
LTYPE
  5
38
100
AcDbSymbolTableRecord
100
AcDbLinetypeTableRecord
  2
STYLE_04
 70
               0
  3

 72
              65
 73
               2
 40
1.5277099999999999
 49
1.3194249999999998
 74
               0
 49
-0.208285
 74
               0
  0
LTYPE
  5
39
100
AcDbSymbolTableRecord
100
AcDbLinetypeTableRecord
  2
STYLE_05
 70
               0
  3

 72
              65
 73
               2
 40
0.20828
 49
0.069425
 74
               0
 49
-0.138855
 74
               0
  0
LTYPE
  5
3A
100
AcDbSymbolTableRecord
100
AcDbLinetypeTableRecord
  2
STYLE_06
 70
               0
  3

 72
              65
 73
               4
 40
1.0416400000000001
 49
0.625
 74
               0
 49
-0.20828
 74
               0
 49
0.06943
 74
               0
 49
-0.13893
 74
               0
  0
LTYPE
  5
3B
100
AcDbSymbolTableRecord
100
AcDbLinetypeTableRecord
  2
STYLE_07
 70
               0
  3

 72
              65
 73
               6
 40
1.875
 49
0.625
 74
               0
 49
-0.20828
 74
               0
 49
0.6250000000000001
 74
               0
 49
-0.2083599999999999
 74
               0
 49
0.06943
 74
               0
 49
-0.1389299999999999
 74
               0
  0
LTYPE
  5
3C
100
AcDbSymbolTableRecord
100
AcDbLinetypeTableRecord
  2
STYLE_08
 70
               0
  3

 72
              65
 73
               6
 40
1.25
 49
0.625
 74
               0
 49
-0.20828
 74
               0
 49
0.06943
 74
               0
 49
-0.13893
 74
               0
 49
0.0694299999999999
 74
               0
 49
-0.13893
 74
               0
  0
LTYPE
  5
3D
100
AcDbSymbolTableRecord
100
AcDbLinetypeTableRecord
  2
STYLE_09
 70
               0
  3

 72
              65
 73
               4
 40
5.0
 49
3.75
 74
               0
 49
-0.2777849999999998
 74
               0
 49
0.6944300000000003
 74
               0
 49
-0.2777849999999998
 74
               0
  0
LTYPE
  5
3E
100
AcDbSymbolTableRecord
100
AcDbLinetypeTableRecord
  2
STYLE_10
 70
               0
  3

 72
              65
 73
               6
 40
5.9375
 49
3.75
 74
               0
 49
-0.2777849999999998
 74
               0
 49
0.6944300000000003
 74
               0
 49
-0.2777849999999998
 74
               0
 49
0.625
 74
               0
 49
-0.3125
 74
               0
  0
LTYPE
  5
3F
100
AcDbSymbolTableRecord
100
AcDbLinetypeTableRecord
  2
STYLE_11
 70
               0
  3

 72
              65
 73
               2
 40
0.0694444881889764
 49
0.0347222440944882
 74
               0
 49
-0.0347222440944882
 74
               0
  0
LTYPE
  5
40
100
AcDbSymbolTableRecord
100
AcDbLinetypeTableRecord
  2
STYLE_12
 70
               0
  3

 72
              65
 73
               2
 40
0.3937007874015748
 49
0.1968503937007874
 74
               0
 49
-0.1968503937007874
 74
               0
  0
ENDTAB
  0
TABLE
  2
LAYER
  5
2
100
AcDbSymbolTable
 70
               5
  0
LAYER
  5
14
100
AcDbSymbolTableRecord
100
AcDbLayerTableRecord
  2
0
 70
               0
 62
               7
  6
Continuous
290
               1
370
              -3
390
1D
  0
LAYER
  5
41
100
AcDbSymbolTableRecord
100
AcDbLayerTableRecord
  2
Defpoints
 70
               0
 62
               7
  6
Continuous
290
               0
370
              -3
390
1D
  0
LAYER
  5
42
100
AcDbSymbolTableRecord
100
AcDbLayerTableRecord
  2
template
 70
               0
 62
               7
  6
Continuous
290
               1
370
              -3
390
1D
  0
LAYER
  5
43
100
AcDbSymbolTableRecord
100
AcDbLayerTableRecord
  2
notes
 70
               0
 62
               7
  6
Continuous
290
               1
370
              -3
390
1D
  0
LAYER
  5
44
100
AcDbSymbolTableRecord
100
AcDbLayerTableRecord
  2
ADF70-0020
 70
               0
 62
               7
  6
Continuous
290
               1
370
              -3
390
1D
  0
ENDTAB
  0
TABLE
  2
STYLE
  5
3
100
AcDbSymbolTable
 70
               2
  0
STYLE
  5
17
100
AcDbSymbolTableRecord
100
AcDbTextStyleTableRecord
  2
Standard
 70
               0
 40
0.0
 41
1.0
 50
0.0
 71
               0
 42
0.0
  3
txt
  4
BIGFONT.SHX
  0
STYLE
  5
34
100
AcDbSymbolTableRecord
100
AcDbTextStyleTableRecord
  2
ＭＳ ゴシック
 70
               0
 40
0.0
 41
1.0
 50
0.0
 71
               0
 42
0.0
  3

  4
ＭＳ ゴシック
1001
ACAD
1000
ＭＳ ゴシック
1071
        0
  0
ENDTAB
  0
TABLE
  2
VIEW
  5
5
100
AcDbSymbolTable
 70
               0
  0
ENDTAB
  0
TABLE
  2
UCS
  5
6
100
AcDbSymbolTable
 70
               0
  0
ENDTAB
  0
TABLE
  2
APPID
  5
8
100
AcDbSymbolTable
 70
               1
  0
APPID
  5
16
100
AcDbSymbolTableRecord
100
AcDbRegAppTableRecord
  2
ACAD
 70
               0
  0
ENDTAB
  0
TABLE
  2
DIMSTYLE
  5
9
100
AcDbSymbolTable
 70
               3
100
AcDbDimStyleTable
 71
               0
  0
DIMSTYLE
105
18
100
AcDbSymbolTableRecord
100
AcDbDimStyleTableRecord
  2
Standard
 70
               0
  3

  4

 40
1.0
 41
0.18
 42
0.0625
 43
0.38
 44
0.18
 45
0.0
 46
0.0
 47
0.0
 48
0.0
 71
               0
 72
               0
 73
               1
 74
               1
 75
               0
 76
               0
 77
               0
 78
               0
 79
               0
140
0.18
141
0.09
142
0.0
143
25.399999999999999
144
1.0
145
0.0
146
1.0
147
0.09
148
0.0
170
               0
171
               2
172
               0
173
               0
174
               0
175
               0
176
               0
177
               0
178
               0
179
               0
271
               4
272
               4
273
               2
274
               2
275
               0
276
               0
277
               2
278
              46
279
               0
280
               0
281
               0
282
               0
283
               1
284
               0
285
               0
286
               0
288
               0
289
               3
340
17
341
0
342
0
343
0
344
0
371
              -2
372
              -2
  0
DIMSTYLE
105
4D
100
AcDbSymbolTableRecord
100
AcDbDimStyleTableRecord
  2
tform線あり
 70
               0
  3
<>
  4
[]
 40
1.0
 41
3.999755859375
 42
24.999999999999996
 43
0.9999999999999999
 44
0.0
 45
0.0
 46
0.0
 47
0.0
 48
0.0
 71
               0
 72
               0
 73
               0
 74
               0
 75
               0
 76
               0
 77
               1
 78
              11
 79
               0
140
24.432617187500004
141
0.0
142
0.0
143
1.0
144
1.0
145
0.0
146
1.0
147
0.4999999999999999
148
0.0
170
               0
171
               1
172
               1
173
               0
174
               1
175
               0
176
               0
177
               0
178
               0
179
               2
271
               1
272
               1
273
               2
274
               2
275
               0
276
               2
277
               2
278
              46
279
               0
280
               0
281
               0
282
               0
283
               1
284
              11
285
              11
286
              11
288
               0
289
               0
340
34
341
45
342
45
343
0
344
0
371
              -2
372
              -2
  0
DIMSTYLE
105
57
100
AcDbSymbolTableRecord
100
AcDbDimStyleTableRecord
  2
Arch
 70
               0
  3
<>
  4
[]
 40
1.0
 41
22.4482421875
 42
15.875
 43
10.16
 44
31.75
 45
0.0
 46
1.5874999999999999
 47
0.0
 48
0.0
 71
               0
 72
               0
 73
               0
 74
               0
 75
               0
 76
               0
 77
               1
 78
              11
 79
               0
140
24.432617187500004
141
0.0
142
0.0
143
1.0
144
1.0
145
0.0
146
1.0
147
1.5874999999999999
148
0.0
170
               0
171
               1
172
               1
173
               0
174
               1
175
               0
176
               0
177
               0
178
               0
179
               2
271
               1
272
               1
273
               2
274
               2
275
               0
276
               2
277
               2
278
              46
279
               0
280
               0
281
               0
282
               0
283
               1
284
              11
285
              11
286
              11
288
               0
289
               0
340
34
341
53
342
4E
343
0
344
0
371
              -2
372
              -2
  0
ENDTAB
  0
TABLE
  2
BLOCK_RECORD
  5
1
100
AcDbSymbolTable
 70
              20
  0
BLOCK_RECORD
  5
A
100
AcDbSymbolTableRecord
100
AcDbBlockTableRecord
  2
*MODEL_SPACE
340
20
  0
BLOCK_RECORD
  5
B
100
AcDbSymbolTableRecord
100
AcDbBlockTableRecord
  2
*PAPER_SPACE
340
21
  0
BLOCK_RECORD
  5
45
100
AcDbSymbolTableRecord
100
AcDbBlockTableRecord
  2
_DOT
340
0
  0
BLOCK_RECORD
  5
4E
100
AcDbSymbolTableRecord
100
AcDbBlockTableRecord
  2
VW_SLASH
340
0
  0
BLOCK_RECORD
  5
53
100
AcDbSymbolTableRecord
100
AcDbBlockTableRecord
  2
VW_FILLEDARROW
340
0
  0
BLOCK_RECORD
  5
23
100
AcDbSymbolTableRecord
100
AcDbBlockTableRecord
  2
グループ
340
0
102
{BLKREFS
331
136
102
}
  0
BLOCK_RECORD
  5
24
100
AcDbSymbolTableRecord
100
AcDbBlockTableRecord
  2
*D4
340
0
  0
BLOCK_RECORD
  5
25
100
AcDbSymbolTableRecord
100
AcDbBlockTableRecord
  2
*D5
340
0
  0
BLOCK_RECORD
  5
26
100
AcDbSymbolTableRecord
100
AcDbBlockTableRecord
  2
*D6
340
0
  0
BLOCK_RECORD
  5
27
100
AcDbSymbolTableRecord
100
AcDbBlockTableRecord
  2
*D7
340
0
  0
BLOCK_RECORD
  5
28
100
AcDbSymbolTableRecord
100
AcDbBlockTableRecord
  2
*D8
340
0
  0
BLOCK_RECORD
  5
29
100
AcDbSymbolTableRecord
100
AcDbBlockTableRecord
  2
*D9
340
0
  0
BLOCK_RECORD
  5
2A
100
AcDbSymbolTableRecord
100
AcDbBlockTableRecord
  2
*D10
340
0
  0
BLOCK_RECORD
  5
2B
100
AcDbSymbolTableRecord
100
AcDbBlockTableRecord
  2
*D11
340
0
  0
BLOCK_RECORD
  5
2C
100
AcDbSymbolTableRecord
100
AcDbBlockTableRecord
  2
*D12
340
0
  0
BLOCK_RECORD
  5
2D
100
AcDbSymbolTableRecord
100
AcDbBlockTableRecord
  2
*D13
340
0
  0
BLOCK_RECORD
  5
2E
100
AcDbSymbolTableRecord
100
AcDbBlockTableRecord
  2
*D14
340
0
  0
BLOCK_RECORD
  5
2F
100
AcDbSymbolTableRecord
100
AcDbBlockTableRecord
  2
*D15
340
0
  0
BLOCK_RECORD
  5
30
100
AcDbSymbolTableRecord
100
AcDbBlockTableRecord
  2
*D16
340
0
  0
BLOCK_RECORD
  5
31
100
AcDbSymbolTableRecord
100
AcDbBlockTableRecord
  2
*D17
340
0
  0
BLOCK_RECORD
  5
32
100
AcDbSymbolTableRecord
100
AcDbBlockTableRecord
  2
*D18
340
0
  0
BLOCK_RECORD
  5
33
100
AcDbSymbolTableRecord
100
AcDbBlockTableRecord
  2
*D19
340
0
  0
ENDTAB
  0
ENDSEC
  0
SECTION
  2
BLOCKS
  0
BLOCK
  5
D
100
AcDbEntity
  8
0
390
0
100
AcDbBlockBegin
  2
*MODEL_SPACE
 70
               0
 10
0.0
 20
0.0
 30
0.0
  3
*MODEL_SPACE
  1

  0
ENDBLK
  5
E
100
AcDbEntity
  8
0
390
0
100
AcDbBlockEnd
  0
BLOCK
  5
F
100
AcDbEntity
 67
               1
  8
0
390
0
100
AcDbBlockBegin
  2
*PAPER_SPACE
 70
               0
 10
0.0
 20
0.0
 30
0.0
  3
*PAPER_SPACE
  1

  0
ENDBLK
  5
10
100
AcDbEntity
 67
               1
  8
0
390
0
100
AcDbBlockEnd
  0
BLOCK
  5
46
100
AcDbEntity
  8
0
390
0
100
AcDbBlockBegin
  2
_DOT
 70
               0
 10
0.0
 20
0.0
 30
0.0
  3
_DOT
  1

  0
POLYLINE
  5
47
100
AcDbEntity
  8
0
370
              -2
390
0
  6
ByBlock
 62
               0
100
AcDb2dPolyline
 66
               1
 10
0.0
 20
0.0
 30
0.0
 70
               1
 40
0.5
 41
0.5
  0
VERTEX
  5
48
100
AcDbEntity
  8
0
370
              -2
390
0
  6
ByBlock
 62
               0
100
AcDbVertex
100
AcDb2dVertex
 10
-0.25
 20
0.0
 30
0.0
 42
1.0
  0
VERTEX
  5
49
100
AcDbEntity
  8
0
370
              -2
390
0
  6
ByBlock
 62
               0
100
AcDbVertex
100
AcDb2dVertex
 10
0.25
 20
0.0
 30
0.0
 42
1.0
  0
SEQEND
  5
4A
100
AcDbEntity
  8
0
390
0
  0
LINE
  5
4B
100
AcDbEntity
  8
0
370
              -2
390
0
  6
ByBlock
 62
               0
100
AcDbLine
 10
-0.5
 20
0.0
 30
0.0
 11
-1.0
 21
0.0
 31
0.0
  0
ENDBLK
  5
4C
100
AcDbEntity
  8
0
390
0
100
AcDbBlockEnd
  0
BLOCK
  5
4F
100
AcDbEntity
  8
0
370
              -2
390
0
  6
ByBlock
 62
               0
100
AcDbBlockBegin
  2
VW_SLASH
 70
               0
 10
0.0
 20
0.0
 30
0.0
  3
VW_SLASH
  1

  0
LINE
  5
50
100
AcDbEntity
  8
0
370
              -2
390
0
  6
ByBlock
 62
               0
100
AcDbLine
 10
0.0
 20
0.0
 30
0.0
 11
-1.0
 21
0.0
 31
0.0
  0
LINE
  5
51
100
AcDbEntity
  8
0
370
              20
390
0
  6
ByBlock
 62
               0
100
AcDbLine
 10
-0.4987813153181721
 20
-0.4987813153181719
 30
0.0
 11
0.4987813153181721
 21
0.4987813153181719
 31
0.0
  0
ENDBLK
  5
52
100
AcDbEntity
  8
0
390
0
100
AcDbBlockEnd
  0
BLOCK
  5
54
100
AcDbEntity
  8
0
370
              -2
390
0
  6
ByBlock
 62
               0
100
AcDbBlockBegin
  2
VW_FILLEDARROW
 70
               0
 10
0.0
 20
0.0
 30
0.0
  3
VW_FILLEDARROW
  1

  0
SOLID
  5
55
100
AcDbEntity
  8
0
370
              -2
390
0
 62
               0
100
AcDbTrace
 10
0.0
 20
0.0
 30
0.0
 11
-1.4107666015625
 21
-0.3780137715974714
 31
0.0
 12
-1.4107666015625
 22
0.3780137715974717
 32
0.0
 13
-1.4107666015625
 23
0.3780137715974717
 33
0.0
  0
ENDBLK
  5
56
100
AcDbEntity
  8
0
390
0
100
AcDbBlockEnd
  0
BLOCK
  5
58
100
AcDbEntity
  8
template
390
0
100
AcDbBlockBegin
  2
グループ
 70
               0
 10
0.0
 20
0.0
 30
0.0
  3
グループ
  1

  0
LWPOLYLINE
  5
59
100
AcDbEntity
  8
0
370
              15
390
0
  6
Continuous
 62
               7
100
AcDbPolyline
 90
        8
 70
             129
 10
782.96580580307477
 20
-1487.7738591486859
 10
782.96580580307477
 20
-1493.7712478422618
 10
773.46460888507147
 20
-1493.7712478422618
 10
773.46460888507147
 20
-1518.2222111057706
 10
765.10923162328868
 20
-1518.2222111057706
 10
765.10923162328868
 20
-1493.7712478422618
 10
755.77627467697926
 20
-1493.7712478422618
 10
755.77627467697926
 20
-1487.7738591486859
  0
LWPOLYLINE
  5
5A
100
AcDbEntity
  8
0
370
              15
390
0
  6
Continuous
 62
               7
100
AcDbPolyline
 90
      101
 70
             128
 10
795.69409763363171
 20
-1488.5021076416224
 10
795.70944766241541
 20
-1488.4977468849377
 42
-0.0222221607814564
 10
795.99945223908776
 20
-1488.4291224196927
 10
796.01524600307516
 20
-1488.4261189965969
 42
-0.014688356558883
 10
796.27794870830553
 20
-1488.3841158096463
 42
-0.0127458844181463
 10
796.54258767546492
 20
-1488.3565788415733
 10
796.60504275377139
 20
-1488.3516854189857
 42
-0.0198099018567055
 10
796.99589186324215
 20
-1488.336600261589
 10
797.04770333269198
 20
-1488.336654037254
 42
-0.0147617382759784
 10
797.5423267936693
 20
-1488.3517740624991
 10
797.61501824854111
 20
-1488.3561466693866
 42
-0.0162624549002311
 10
798.00517187800574
 20
-1488.392379544659
 10
798.12670426927605
 20
-1488.407666103657
 42
-0.0080020874661947
 10
798.27228330035655
 20
-1488.4283489509239
 10
798.31060277096105
 20
-1488.4344202287366
 42
-0.0053821929672812
 10
798.37908687626634
 20
-1488.4460277525566
 10
797.65268117706773
 20
-1490.6269562082705
 42
0.0108667757388242
 10
797.58536410693523
 20
-1490.6137690930502
 10
797.54789608374745
 20
-1490.6072713504561
 42
0.0170663203312335
 10
797.40467929682916
 20
-1490.5874417531641
 10
797.33680396414888
 20
-1490.5803945825769
 42
0.0220162375275947
 10
797.05642455629334
 20
-1490.5637122218068
 10
796.97856898924397
 20
-1490.5625128545403
 42
0.0282606915784728
 10
796.64293266566358
 20
-1490.5763161315094
 10
796.59901939189569
 20
-1490.5806161215125
 42
0.016967721368167
 10
796.35309489693236
 20
-1490.6131531710648
 42
0.0190576269865571
 10
796.11018693435096
 20
-1490.6633000431716
 10
796.10392774624142
 20
-1490.6648430172806
 42
0.0213685642850859
 10
795.85354326176196
 20
-1490.7380433023861
 10
795.84805336684747
 20
-1490.7399062984446
 42
0.0237595297598554
 10
795.59455848195159
 20
-1490.839590820339
 10
795.5894564079191
 20
-1490.8418825958183
 42
0.0261857468820284
 10
795.33728563168893
 20
-1490.971418933193
 10
795.32685944260402
 20
-1490.9774844076601
 42
0.0272553062017515
 10
795.09042966736365
 20
-1491.1328566136053
 10
795.05566665385243
 20
-1491.1585177616989
 42
0.0325996893174951
 10
794.90551131020266
 20
-1491.285265634669
 10
794.88180188108356
 20
-1491.308083663178
 42
0.0138050960622907
 10
794.78991872486949
 20
-1491.4015333247335
 42
0.01252801037972
 10
794.70307619203845
 20
-1491.4996966513306
 10
794.67939574712761
 20
-1491.527855149521
 42
0.020521802474601
 10
794.55429567161059
 20
-1491.6896484637546
 10
794.5318293311268
 20
-1491.721308193577
 42
0.0163110129577876
 10
794.37611895187888
 20
-1491.9566386286413
 10
794.37339505582452
 20
-1491.9610623906324
 42
0.0131897341897367
 10
794.22659453491906
 20
-1492.2141944829962
 10
794.22489443955214
 20
-1492.2173127221326
 42
0.010789557606635
 10
794.08711773733967
 20
-1492.4835279317713
 10
794.08638484781636
 20
-1492.4850221644142
 42
0.009137150722477
 10
793.95790489916237
 20
-1492.7595473621834
 10
793.92815926775756
 20
-1492.8262538693325
 42
0.0135418326351268
 10
793.75644532868534
 20
-1493.2411916546027
 10
793.72284052025202
 20
-1493.3290577968817
 42
0.009283454241138
 10
793.55161146033083
 20
-1493.8029562951879
 10
793.52599433261344
 20
-1493.8781973649805
 42
0.0054261043585329
 10
793.41835618432015
 20
-1494.2059613380466
 10
793.40083019813346
 20
-1494.2613495003059
 42
0.0008225090819967
 10
793.33216014631273
 20
-1494.4796182584257
 10
792.34747101437927
 20
-1497.5045095516823
 10
795.58009485445314
 20
-1497.5045095516823
 10
795.07590242459969
 20
-1499.4089878500347
 10
791.81984614261637
 20
-1499.4089878500347
 10
785.99069711026254
 20
-1518.2222109160396
 10
784.16559949995224
 20
-1518.2222109160396
 10
790.00027753545317
 20
-1499.4089878500347
 10
787.59516116641282
 20
-1499.4089878500347
 10
788.09935359626627
 20
-1497.5045095516823
 10
790.52790240721629
 20
-1497.5045095516823
 10
791.38805732540493
 20
-1494.8680965509834
 42
-0.0005863560635943
 10
791.42479200360594
 20
-1494.7512701306996
 10
791.50087983726883
 20
-1494.5102778313062
 42
-0.0087522378926923
 10
791.70034798072493
 20
-1493.9150017441618
 10
791.79261225613618
 20
-1493.6548615756549
 42
-0.0077400953831361
 10
792.05054591527028
 20
-1492.9618568980986
 10
792.06631088684765
 20
-1492.9214260147164
 42
-0.0082369946332414
 10
792.3133953574611
 20
-1492.3173469485168
 42
-0.0085725238365622
 10
792.58064145346179
 20
-1491.7219209092343
 10
792.68227105447227
 20
-1491.5054998072428
 42
-0.0168109410596036
 10
792.96921548320142
 20
-1490.9442922811402
 10
793.09505887357784
 20
-1490.7173282482913
 42
-0.0007817726873648
 10
793.1493432237171
 20
-1490.6197840031118
 10
793.14947152972911
 20
-1490.6195542943849
 42
-0.0036626142160932
 10
793.20435939375557
 20
-1490.5229564144067
 42
-0.0080221150686869
 10
793.26148364915639
 20
-1490.4276771796635
 10
793.29218360052346
 20
-1490.3782862305316
 42
-0.0202139325565584
 10
793.41983934033112
 20
-1490.1903046298492
 10
793.4739068055178
 20
-1490.1172257656094
 42
-0.0249323791796201
 10
793.73306959923718
 20
-1489.8011805234548
 10
793.75720941336397
 20
-1489.7745662505426
 42
-0.0242132121543198
 10
794.09689015490392
 20
-1489.4346827643406
 10
794.1448017276557
 20
-1489.3911736281532
 42
-0.0251017527857371
 10
794.42878342829727
 20
-1489.1581808823876
 10
794.43022890511395
 20
-1489.1571116248065
 42
-0.013086806903388
 10
794.72848955506834
 20
-1488.9483311562662
 10
794.73005137421103
 20
-1488.9472977159912
 42
-0.0290329526388389
 10
795.04116251560436
 20
-1488.7664722143618
 10
795.07100807758934
 20
-1488.7513698315227
 42
-0.0160250190047116
 10
795.33691249135518
 20
-1488.6273537213092
 42
-0.0267600374782543
 10
795.61218856882499
 20
-1488.5266054007602
 10
795.63892448834474
 20
-1488.5184128419348
 42
-0.0049981587669901
 10
795.69409763363171
 20
-1488.5021076416224
 42
-0.0049981587669901
  0
LWPOLYLINE
  5
5B
100
AcDbEntity
  8
0
370
              15
390
0
  6
Continuous
 62
               7
100
AcDbPolyline
 90
      118
 70
             128
 10
815.50846519807862
 20
-1497.5784928795097
 10
817.38358712257809
 20
-1497.5784928795097
 10
816.5455482169782
 20
-1500.2600594059097
 42
-0.0010587229244192
 10
816.5770040325566
 20
-1500.2231548725467
 10
816.63519812318214
 20
-1500.1551726163786
 42
-0.0071874740417932
 10
816.78557334127515
 20
-1499.9845319243552
 10
816.9272961145424
 20
-1499.8282957830365
 42
-0.0148118053514126
 10
817.3774254072506
 20
-1499.3606819370279
 10
817.46464774216577
 20
-1499.2752846161613
 42
-0.0086273358690924
 10
817.80019654316538
 20
-1498.9579089821534
 10
817.84403025939366
 20
-1498.9178593378181
 42
-0.0103138323112569
 10
818.10205396162473
 20
-1498.6916962004821
 10
818.14782836795837
 20
-1498.6532141532164
 42
-0.0060206748566706
 10
818.32067643206403
 20
-1498.5114195024676
 10
818.32270756293951
 20
-1498.5097937968446
 42
-0.006706902729886
 10
818.49500037761254
 20
-1498.3756431630413
 10
818.49754914354742
 20
-1498.3737129931592
 42
-0.0076184352045808
 10
818.66845440940983
 20
-1498.2483381179222
 42
-0.008965286167192
 10
818.84341537213788
 20
-1498.1287048575937
 10
818.87976709228542
 20
-1498.1047936441089
 42
-0.0156916245939448
 10
819.07572658944946
 20
-1497.9845311576323
 42
-0.0023299011069902
 10
819.27598863342109
 20
-1497.8713532180959
 10
819.29137276580911
 20
-1497.8627532230266
 42
-0.0107669341488296
 10
819.52560959090783
 20
-1497.7383530896784
 10
819.54787439198526
 20
-1497.7271363397272
 42
-0.0078058045898824
 10
819.83146450993536
 20
-1497.58977488409
 10
819.84137159764714
 20
-1497.5851657562202
 42
-0.0181829330473898
 10
820.15168100225935
 20
-1497.4543020151259
 10
820.20573644482818
 20
-1497.4337868951816
 42
-0.0208411536031649
 10
820.55482141227981
 20
-1497.3176964326881
 10
820.56917751240542
 20
-1497.313577987735
 42
-0.0222799817141208
 10
820.89789730632447
 20
-1497.2349364215943
 10
820.90678626955912
 20
-1497.2332244110096
 42
-0.0215509523883378
 10
821.22325723784138
 20
-1497.1863087224747
 10
821.2657391988937
 20
-1497.1818711956835
 42
-0.0182545924867272
 10
821.49984797819548
 20
-1497.166027370293
 10
821.53924899455274
 20
-1497.1648028252137
 42
-0.0072962856532821
 10
821.69517187423253
 20
-1497.1622334966917
 10
821.72427154479078
 20
-1497.162178661288
 42
-0.0059227516327967
 10
821.82202104394946
 20
-1497.1631523730784
 10
821.85126326149941
 20
-1497.1637901396834
 42
-0.0011833111897221
 10
821.89051454515379
 20
-1497.1647391439917
 10
821.09512794954662
 20
-1499.7034730890907
 42
0.0143932051571071
 10
821.06872656720191
 20
-1499.6932741190476
 10
821.06145459477875
 20
-1499.6907029001882
 42
0.0234388603530183
 10
821.01962372884543
 20
-1499.6780836644725
 10
821.01094206593393
 20
-1499.6759027024677
 42
0.0199162742989287
 10
820.95065323185509
 20
-1499.6632859671329
 10
820.92983929404772
 20
-1499.6597887677042
 42
0.029364355067756
 10
820.82676443528544
 20
-1499.6486387220509
 10
820.8020792545683
 20
-1499.6474271050324
 42
0.0214606686870889
 10
820.64893833861379
 20
-1499.6464885446151
 10
820.63956642779783
 20
-1499.6468334561591
 42
0.0167564054173264
 10
820.46804623668652
 20
-1499.6589104985273
 10
820.45958644393045
 20
-1499.6597918389543
 42
0.0137677553239298
 10
820.27223313066406
 20
-1499.6845411474981
 10
820.26488139115781
 20
-1499.6857190674659
 42
0.0118497261481428
 10
820.06438362706376
 20
-1499.7227364176536
 10
820.05823361980924
 20
-1499.7240232803751
 42
0.0106421143889927
 10
819.84735273251545
 20
-1499.7728556559521
 10
819.84244392413518
 20
-1499.774102998635
 42
0.0099746379701972
 10
819.62398545497422
 20
-1499.8342775269493
 10
819.56243741480239
 20
-1499.8525594055805
 42
0.0191613675858064
 10
819.22645295228835
 20
-1499.9665367858668
 10
819.13839317953966
 20
-1500.0002236961921
 42
0.0205274080142973
 10
818.75308640764069
 20
-1500.166052104018
 10
818.69543712566042
 20
-1500.1937200685895
 42
0.0181256912195531
 10
818.43716018499174
 20
-1500.3294038875683
 10
818.38420480167758
 20
-1500.3597215007831
 42
0.0140709242415152
 10
818.23924986704947
 20
-1500.4482161742174
 10
818.2130009984304
 20
-1500.465272992933
 42
0.0086667884399631
 10
818.12407483688844
 20
-1500.5252756608156
 42
0.0036408192033024
 10
818.0366415988309
 20
-1500.5874565186255
 10
818.00141472438645
 20
-1500.6128974645208
 42
0.0052260781280063
 10
817.84518602699097
 20
-1500.7282298511584
 10
817.82897917073569
 20
-1500.7404579617732
 42
0.0050024435896235
 10
817.64297582768233
 20
-1500.8837405300312
 10
817.62765767116173
 20
-1500.8957865524812
 42
0.0136138710278142
 10
817.41721640284038
 20
-1501.0707530573911
 10
817.38354852704288
 20
-1501.1003320301088
 42
0.017281518691522
 10
817.11914498538056
 20
-1501.349328702732
 10
817.11658263953768
 20
-1501.3519145198793
 42
0.0189403857992167
 10
816.86600084096017
 20
-1501.6247197846817
 10
816.83336934742078
 20
-1501.6630637161827
 42
0.0185044199504784
 10
816.64141290844259
 20
-1501.9063122973034
 42
0.0088565243901365
 10
816.46295280181459
 20
-1502.1598287174531
 10
816.45377482216566
 20
-1502.1733700972136
 42
0.0157195347229999
 10
816.27055421583009
 20
-1502.4628923065316
 10
816.22447127390399
 20
-1502.5410445035443
 42
0.0095451879780833
 10
816.05938572376306
 20
-1502.8336391459065
 10
816.04823780483332
 20
-1502.8543098180387
 42
0.0100351706250623
 10
815.91619405567417
 20
-1503.1113653785294
 42
0.0086935915421444
 10
815.79386290387833
 20
-1503.3731985239378
 10
815.79054216246561
 20
-1503.3806408469056
 42
0.0072580174861745
 10
815.67019571052356
 20
-1503.6612328384815
 10
815.66693407721436
 20
-1503.6691528645065
 42
0.0060005122616033
 10
815.54773340886618
 20
-1503.968762535126
 10
815.54452243053004
 20
-1503.9771240630166
 42
0.0049017786975585
 10
815.42562227167662
 20
-1504.2960530436096
 10
815.42245646528215
 20
-1504.3048059808511
 42
0.0039415167602741
 10
815.30302018722659
 20
-1504.6433480432615
 10
815.29988908457335
 20
-1504.6524512441406
 42
0.0031035838767535
 10
815.17908429888394
 20
-1505.0108911059031
 10
815.17597425434985
 20
-1505.020311727289
 42
0.0025070747153926
 10
815.05307290303369
 20
-1505.3989589442353
 10
815.01577900660914
 20
-1505.5158506094858
 42
0.0029081910284811
 10
814.82376070880252
 20
-1506.1300142677635
 10
814.78295754028125
 20
-1506.2632375100534
 42
0.0009266453733838
 10
814.51454016595153
 20
-1507.1454619700266
 10
814.49365269332031
 20
-1507.2145738492313
 42
-0.0005809993666427
 10
814.21631601273475
 20
-1508.1283819558516
 10
814.15003421445067
 20
-1508.3458668880478
 42
-0.00120187081663
 10
814.00304990503264
 20
-1508.824029552532
 10
813.95073005354266
 20
-1508.9927886931544
 42
-0.0002691059604588
 10
813.90716057229849
 20
-1509.1330563137399
 10
811.07420467400925
 20
-1518.2222109160396
 10
809.25621578203072
 20
-1518.2222109160396
 10
815.50846519807862
 20
-1497.5784928795097
  0
SPLINE
  5
5C
100
AcDbEntity
  8
0
370
              15
390
0
  6
Continuous
 62
               7
100
AcDbSpline
210
0.0
220
0.0
230
1.0
 70
              13
 71
               2
 72
             782
 73
             779
 74
               0
 42
0.000001
 43
0.000001
 40
0.0
 40
0.0
 40
0.0
 40
1.0
 40
1.0
 40
2.0
 40
2.0
 40
3.0
 40
3.0
 40
4.0
 40
4.0
 40
5.0
 40
5.0
 40
6.0
 40
6.0
 40
7.0
 40
7.0
 40
8.0
 40
8.0
 40
9.0
 40
9.0
 40
10.0
 40
10.0
 40
11.0
 40
11.0
 40
12.0
 40
12.0
 40
13.0
 40
13.0
 40
14.0
 40
14.0
 40
15.0
 40
15.0
 40
16.0
 40
16.0
 40
17.0
 40
17.0
 40
18.0
 40
18.0
 40
19.0
 40
19.0
 40
20.0
 40
20.0
 40
21.0
 40
21.0
 40
22.0
 40
22.0
 40
23.0
 40
23.0
 40
24.0
 40
24.0
 40
25.0
 40
25.0
 40
26.0
 40
26.0
 40
27.0
 40
27.0
 40
28.0
 40
28.0
 40
29.0
 40
29.0
 40
30.0
 40
30.0
 40
31.0
 40
31.0
 40
32.0
 40
32.0
 40
33.0
 40
33.0
 40
34.0
 40
34.0
 40
35.0
 40
35.0
 40
36.0
 40
36.0
 40
37.0
 40
37.0
 40
38.0
 40
38.0
 40
39.0
 40
39.0
 40
40.0
 40
40.0
 40
41.0
 40
41.0
 40
42.0
 40
42.0
 40
43.0
 40
43.0
 40
44.0
 40
44.0
 40
45.0
 40
45.0
 40
46.0
 40
46.0
 40
47.0
 40
47.0
 40
48.0
 40
48.0
 40
49.0
 40
49.0
 40
50.0
 40
50.0
 40
51.0
 40
51.0
 40
52.0
 40
52.0
 40
53.0
 40
53.0
 40
54.0
 40
54.0
 40
55.0
 40
55.0
 40
56.0
 40
56.0
 40
57.0
 40
57.0
 40
58.0
 40
58.0
 40
59.0
 40
59.0
 40
60.0
 40
60.0
 40
61.0
 40
61.0
 40
62.0
 40
62.0
 40
63.0
 40
63.0
 40
64.0
 40
64.0
 40
65.0
 40
65.0
 40
66.0
 40
66.0
 40
67.0
 40
67.0
 40
68.0
 40
68.0
 40
69.0
 40
69.0
 40
70.0
 40
70.0
 40
71.0
 40
71.0
 40
72.0
 40
72.0
 40
73.0
 40
73.0
 40
74.0
 40
74.0
 40
75.0
 40
75.0
 40
76.0
 40
76.0
 40
77.0
 40
77.0
 40
78.0
 40
78.0
 40
79.0
 40
79.0
 40
80.0
 40
80.0
 40
81.0
 40
81.0
 40
82.0
 40
82.0
 40
83.0
 40
83.0
 40
84.0
 40
84.0
 40
85.0
 40
85.0
 40
86.0
 40
86.0
 40
87.0
 40
87.0
 40
88.0
 40
88.0
 40
89.0
 40
89.0
 40
90.0
 40
90.0
 40
91.0
 40
91.0
 40
92.0
 40
92.0
 40
93.0
 40
93.0
 40
94.0
 40
94.0
 40
95.0
 40
95.0
 40
96.0
 40
96.0
 40
97.0
 40
97.0
 40
98.0
 40
98.0
 40
99.0
 40
99.0
 40
100.0
 40
100.0
 40
101.0
 40
101.0
 40
102.0
 40
102.0
 40
103.0
 40
103.0
 40
104.0
 40
104.0
 40
105.0
 40
105.0
 40
106.0
 40
106.0
 40
107.0
 40
107.0
 40
108.0
 40
108.0
 40
109.0
 40
109.0
 40
110.0
 40
110.0
 40
111.0
 40
111.0
 40
112.0
 40
112.0
 40
113.0
 40
113.0
 40
114.0
 40
114.0
 40
115.0
 40
115.0
 40
116.0
 40
116.0
 40
117.0
 40
117.0
 40
118.0
 40
118.0
 40
119.0
 40
119.0
 40
120.0
 40
120.0
 40
121.0
 40
121.0
 40
122.0
 40
122.0
 40
123.0
 40
123.0
 40
124.0
 40
124.0
 40
125.0
 40
125.0
 40
126.0
 40
126.0
 40
127.0
 40
127.0
 40
128.0
 40
128.0
 40
129.0
 40
129.0
 40
130.0
 40
130.0
 40
131.0
 40
131.0
 40
132.0
 40
132.0
 40
133.0
 40
133.0
 40
134.0
 40
134.0
 40
135.0
 40
135.0
 40
136.0
 40
136.0
 40
137.0
 40
137.0
 40
138.0
 40
138.0
 40
139.0
 40
139.0
 40
140.0
 40
140.0
 40
141.0
 40
141.0
 40
142.0
 40
142.0
 40
143.0
 40
143.0
 40
144.0
 40
144.0
 40
145.0
 40
145.0
 40
146.0
 40
146.0
 40
147.0
 40
147.0
 40
148.0
 40
148.0
 40
149.0
 40
149.0
 40
150.0
 40
150.0
 40
151.0
 40
151.0
 40
152.0
 40
152.0
 40
153.0
 40
153.0
 40
154.0
 40
154.0
 40
155.0
 40
155.0
 40
156.0
 40
156.0
 40
157.0
 40
157.0
 40
158.0
 40
158.0
 40
159.0
 40
159.0
 40
160.0
 40
160.0
 40
161.0
 40
161.0
 40
162.0
 40
162.0
 40
163.0
 40
163.0
 40
164.0
 40
164.0
 40
165.0
 40
165.0
 40
166.0
 40
166.0
 40
167.0
 40
167.0
 40
168.0
 40
168.0
 40
169.0
 40
169.0
 40
170.0
 40
170.0
 40
171.0
 40
171.0
 40
172.0
 40
172.0
 40
173.0
 40
173.0
 40
174.0
 40
174.0
 40
175.0
 40
175.0
 40
176.0
 40
176.0
 40
177.0
 40
177.0
 40
178.0
 40
178.0
 40
179.0
 40
179.0
 40
180.0
 40
180.0
 40
181.0
 40
181.0
 40
182.0
 40
182.0
 40
183.0
 40
183.0
 40
184.0
 40
184.0
 40
185.0
 40
185.0
 40
186.0
 40
186.0
 40
187.0
 40
187.0
 40
188.0
 40
188.0
 40
189.0
 40
189.0
 40
190.0
 40
190.0
 40
191.0
 40
191.0
 40
192.0
 40
192.0
 40
193.0
 40
193.0
 40
194.0
 40
194.0
 40
195.0
 40
195.0
 40
196.0
 40
196.0
 40
197.0
 40
197.0
 40
198.0
 40
198.0
 40
199.0
 40
199.0
 40
200.0
 40
200.0
 40
201.0
 40
201.0
 40
202.0
 40
202.0
 40
203.0
 40
203.0
 40
204.0
 40
204.0
 40
205.0
 40
205.0
 40
206.0
 40
206.0
 40
207.0
 40
207.0
 40
208.0
 40
208.0
 40
209.0
 40
209.0
 40
210.0
 40
210.0
 40
211.0
 40
211.0
 40
212.0
 40
212.0
 40
213.0
 40
213.0
 40
214.0
 40
214.0
 40
215.0
 40
215.0
 40
216.0
 40
216.0
 40
217.0
 40
217.0
 40
218.0
 40
218.0
 40
219.0
 40
219.0
 40
220.0
 40
220.0
 40
221.0
 40
221.0
 40
222.0
 40
222.0
 40
223.0
 40
223.0
 40
224.0
 40
224.0
 40
225.0
 40
225.0
 40
226.0
 40
226.0
 40
227.0
 40
227.0
 40
228.0
 40
228.0
 40
229.0
 40
229.0
 40
230.0
 40
230.0
 40
231.0
 40
231.0
 40
232.0
 40
232.0
 40
233.0
 40
233.0
 40
234.0
 40
234.0
 40
235.0
 40
235.0
 40
236.0
 40
236.0
 40
237.0
 40
237.0
 40
238.0
 40
238.0
 40
239.0
 40
239.0
 40
240.0
 40
240.0
 40
241.0
 40
241.0
 40
242.0
 40
242.0
 40
243.0
 40
243.0
 40
244.0
 40
244.0
 40
245.0
 40
245.0
 40
246.0
 40
246.0
 40
247.0
 40
247.0
 40
248.0
 40
248.0
 40
249.0
 40
249.0
 40
250.0
 40
250.0
 40
251.0
 40
251.0
 40
252.0
 40
252.0
 40
253.0
 40
253.0
 40
254.0
 40
254.0
 40
255.0
 40
255.0
 40
256.0
 40
256.0
 40
257.0
 40
257.0
 40
258.0
 40
258.0
 40
259.0
 40
259.0
 40
260.0
 40
260.0
 40
261.0
 40
261.0
 40
262.0
 40
262.0
 40
263.0
 40
263.0
 40
264.0
 40
264.0
 40
265.0
 40
265.0
 40
266.0
 40
266.0
 40
267.0
 40
267.0
 40
268.0
 40
268.0
 40
269.0
 40
269.0
 40
270.0
 40
270.0
 40
271.0
 40
271.0
 40
272.0
 40
272.0
 40
273.0
 40
273.0
 40
274.0
 40
274.0
 40
275.0
 40
275.0
 40
276.0
 40
276.0
 40
277.0
 40
277.0
 40
278.0
 40
278.0
 40
279.0
 40
279.0
 40
280.0
 40
280.0
 40
281.0
 40
281.0
 40
282.0
 40
282.0
 40
283.0
 40
283.0
 40
284.0
 40
284.0
 40
285.0
 40
285.0
 40
286.0
 40
286.0
 40
287.0
 40
287.0
 40
288.0
 40
288.0
 40
289.0
 40
289.0
 40
290.0
 40
290.0
 40
291.0
 40
291.0
 40
292.0
 40
292.0
 40
293.0
 40
293.0
 40
294.0
 40
294.0
 40
295.0
 40
295.0
 40
296.0
 40
296.0
 40
297.0
 40
297.0
 40
298.0
 40
298.0
 40
299.0
 40
299.0
 40
300.0
 40
300.0
 40
301.0
 40
301.0
 40
302.0
 40
302.0
 40
303.0
 40
303.0
 40
304.0
 40
304.0
 40
305.0
 40
305.0
 40
306.0
 40
306.0
 40
307.0
 40
307.0
 40
308.0
 40
308.0
 40
309.0
 40
309.0
 40
310.0
 40
310.0
 40
311.0
 40
311.0
 40
312.0
 40
312.0
 40
313.0
 40
313.0
 40
314.0
 40
314.0
 40
315.0
 40
315.0
 40
316.0
 40
316.0
 40
317.0
 40
317.0
 40
318.0
 40
318.0
 40
319.0
 40
319.0
 40
320.0
 40
320.0
 40
321.0
 40
321.0
 40
322.0
 40
322.0
 40
323.0
 40
323.0
 40
324.0
 40
324.0
 40
325.0
 40
325.0
 40
326.0
 40
326.0
 40
327.0
 40
327.0
 40
328.0
 40
328.0
 40
329.0
 40
329.0
 40
330.0
 40
330.0
 40
331.0
 40
331.0
 40
332.0
 40
332.0
 40
333.0
 40
333.0
 40
334.0
 40
334.0
 40
335.0
 40
335.0
 40
336.0
 40
336.0
 40
337.0
 40
337.0
 40
338.0
 40
338.0
 40
339.0
 40
339.0
 40
340.0
 40
340.0
 40
341.0
 40
341.0
 40
342.0
 40
342.0
 40
343.0
 40
343.0
 40
344.0
 40
344.0
 40
345.0
 40
345.0
 40
346.0
 40
346.0
 40
347.0
 40
347.0
 40
348.0
 40
348.0
 40
349.0
 40
349.0
 40
350.0
 40
350.0
 40
351.0
 40
351.0
 40
352.0
 40
352.0
 40
353.0
 40
353.0
 40
354.0
 40
354.0
 40
355.0
 40
355.0
 40
356.0
 40
356.0
 40
357.0
 40
357.0
 40
358.0
 40
358.0
 40
359.0
 40
359.0
 40
360.0
 40
360.0
 40
361.0
 40
361.0
 40
362.0
 40
362.0
 40
363.0
 40
363.0
 40
364.0
 40
364.0
 40
365.0
 40
365.0
 40
366.0
 40
366.0
 40
367.0
 40
367.0
 40
368.0
 40
368.0
 40
369.0
 40
369.0
 40
370.0
 40
370.0
 40
371.0
 40
371.0
 40
372.0
 40
372.0
 40
373.0
 40
373.0
 40
374.0
 40
374.0
 40
375.0
 40
375.0
 40
376.0
 40
376.0
 40
377.0
 40
377.0
 40
378.0
 40
378.0
 40
379.0
 40
379.0
 40
380.0
 40
380.0
 40
381.0
 40
381.0
 40
382.0
 40
382.0
 40
383.0
 40
383.0
 40
384.0
 40
384.0
 40
385.0
 40
385.0
 40
386.0
 40
386.0
 40
387.0
 40
387.0
 40
388.0
 40
388.0
 40
389.0
 40
389.0
 40
389.0
 10
825.83716964881125
 20
-1497.5675665161473
 30
0.0
 41
1.0
 10
826.65559375753173
 20
-1497.5675665161473
 30
0.0
 41
1.0
 10
827.47401786625221
 20
-1497.5675665161473
 30
0.0
 41
1.0
 10
827.0602641307355
 20
-1498.910192780397
 30
0.0
 41
1.0
 10
826.64651039521868
 20
-1500.2528190446467
 30
0.0
 41
1.0
 10
826.66484989038292
 20
-1500.2241182717407
 30
0.0
 41
0.9999957264358559
 10
826.6833568872288
 20
-1500.1955252215669
 30
0.0
 41
1.0
 10
826.71378621136046
 20
-1500.1485123431999
 30
0.0
 41
1.0
 10
826.744215535492
 20
-1500.1014994648328
 30
0.0
 41
1.0
 10
826.82358118059676
 20
-1499.9788806579311
 30
0.0
 41
0.9995394069081031
 10
826.91023957214793
 20
-1499.8613025961904
 30
0.0
 41
1.0
 10
826.9459964344079
 20
-1499.8127877035968
 30
0.0
 41
1.0
 10
826.98175329666788
 20
-1499.7642728110029
 30
0.0
 41
1.0
 10
827.11547996448655
 20
-1499.5828325358752
 30
0.0
 41
0.9994460617143465
 10
827.26098044577566
 20
-1499.4106901382243
 30
0.0
 41
1.0
 10
827.26536862675039
 20
-1499.405498457842
 30
0.0
 41
1.0
 10
827.269756807725
 20
-1499.4003067774599
 30
0.0
 41
1.0
 10
827.40648092706431
 20
-1499.2385477405742
 30
0.0
 41
0.9994359394934329
 10
827.55375515741503
 20
-1499.0863315394101
 30
0.0
 41
1.0
 10
827.55613851137173
 20
-1499.0838682090334
 30
0.0
 41
1.0
 10
827.55852186532832
 20
-1499.0814048786569
 30
0.0
 41
1.0
 10
827.70102938776847
 20
-1498.9341153382436
 30
0.0
 41
0.9995293688568034
 10
827.8523010687486
 20
-1498.7958421260814
 30
0.0
 41
1.0
 10
827.87159482800621
 20
-1498.7782062404353
 30
0.0
 41
1.0
 10
827.89088858726393
 20
-1498.7605703547893
 30
0.0
 41
1.0
 10
828.00357274972691
 20
-1498.6575689139204
 30
0.0
 41
0.9997087614803301
 10
828.1210956386858
 20
-1498.5601246331194
 30
0.0
 41
1.0
 10
828.14026171185822
 20
-1498.5442330546139
 30
0.0
 41
1.0
 10
828.15942778503063
 20
-1498.5283414761086
 30
0.0
 41
1.0
 10
828.23861852763764
 20
-1498.462680352324
 30
0.0
 41
0.9999595338695836
 10
828.31897779849601
 20
-1498.3984546216666
 30
0.0
 41
1.0
 10
828.39933706936404
 20
-1498.3342288910014
 30
0.0
 41
0.9999749417507793
 10
828.48059760371405
 20
-1498.27114733705
 30
0.0
 41
1.0
 10
828.50158374987564
 20
-1498.2548560497489
 30
0.0
 41
1.0
 10
828.52256989603734
 20
-1498.238564762448
 30
0.0
 41
1.0
 10
828.60713778133118
 20
-1498.1729157526133
 30
0.0
 41
0.9999792037120503
 10
828.69254538109703
 20
-1498.1083629709724
 30
0.0
 41
1.0
 10
828.713370207092
 20
-1498.0926231486515
 30
0.0
 41
1.0
 10
828.73419503308696
 20
-1498.0768833263307
 30
0.0
 41
1.0
 10
828.77795298094475
 20
-1498.0438101892696
 30
0.0
 41
0.9999993373952537
 10
828.82163466700968
 20
-1498.0106363939049
 30
0.0
 41
1.0
 10
828.86531635315953
 20
-1497.9774625984762
 30
0.0
 41
0.9999160953816716
 10
828.90984276409029
 20
-1497.9454315332698
 30
0.0
 41
1.0
 10
828.94266465150088
 20
-1497.9218203776913
 30
0.0
 41
1.0
 10
828.97548653891147
 20
-1497.8982092221127
 30
0.0
 41
1.0
 10
829.08565672467
 20
-1497.8189558457448
 30
0.0
 41
0.9980964527231861
 10
829.20474571817078
 20
-1497.7538683728887
 30
0.0
 41
1.0
 10
829.24177832509906
 20
-1497.7336283932955
 30
0.0
 41
1.0
 10
829.27881093202734
 20
-1497.7133884137022
 30
0.0
 41
1.0
 10
829.45813794529977
 20
-1497.6153781630014
 30
0.0
 41
0.9984572810573013
 10
829.6472265116588
 20
-1497.5378559016549
 30
0.0
 41
1.0
 10
829.65087278105511
 20
-1497.5363610093168
 30
0.0
 41
1.0
 10
829.65451905045131
 20
-1497.5348661169787
 30
0.0
 41
1.0
 10
829.83631507801863
 20
-1497.4603336403084
 30
0.0
 41
0.9987838528034024
 10
830.02456773657696
 20
-1497.4040680001428
 30
0.0
 41
1.0
 10
830.02880568577507
 20
-1497.4028013464526
 30
0.0
 41
1.0
 10
830.0330436349733
 20
-1497.4015346927627
 30
0.0
 41
1.0
 10
830.2128203951354
 20
-1497.3478023599773
 30
0.0
 41
0.9990652816207291
 10
830.39656632685205
 20
-1497.3097986804351
 30
0.0
 41
1.0
 10
830.40175472788155
 20
-1497.3087255773289
 30
0.0
 41
1.0
 10
830.40694312891117
 20
-1497.3076524742228
 30
0.0
 41
1.0
 10
830.58031225856644
 20
-1497.2717950008932
 30
0.0
 41
0.9992909934270339
 10
830.75588802502625
 20
-1497.2490845684265
 30
0.0
 41
1.0
 10
830.93146379148448
 20
-1497.22637413596
 30
0.0
 41
0.9994553539448881
 10
831.10815522457767
 20
-1497.2152948317537
 30
0.0
 41
1.0
 10
831.14358963237419
 20
-1497.2130729437058
 30
0.0
 41
1.0
 10
831.17902404017059
 20
-1497.2108510556579
 30
0.0
 41
1.0
 10
831.34524980673928
 20
-1497.2004279932464
 30
0.0
 41
0.9990928098293083
 10
831.51175959864099
 20
-1497.2041876344811
 30
0.0
 41
1.0
 10
831.55032143391111
 20
-1497.2050583260138
 30
0.0
 41
1.0
 10
831.58888326918122
 20
-1497.2059290175469
 30
0.0
 41
1.0
 10
831.67826939054191
 20
-1497.2079472757155
 30
0.0
 41
0.9998382089205223
 10
831.76752507332981
 20
-1497.2131794022434
 30
0.0
 41
1.0
 10
831.7679549795472
 20
-1497.2132046031456
 30
0.0
 41
1.0
 10
831.76838488576459
 20
-1497.2132298040476
 30
0.0
 41
1.0
 10
831.85678075611349
 20
-1497.2184115287714
 30
0.0
 41
0.9997558016758997
 10
831.94486133331679
 20
-1497.227494044138
 30
0.0
 41
1.0
 10
831.94533747174387
 20
-1497.2275431416201
 30
0.0
 41
1.0
 10
831.94581361017083
 20
-1497.2275922391025
 30
0.0
 41
1.0
 10
832.03294191051498
 20
-1497.2365765595041
 30
0.0
 41
0.9996565144181346
 10
832.11947976385977
 20
-1497.2501138661937
 30
0.0
 41
1.0
 10
832.11994568923774
 20
-1497.2501867519252
 30
0.0
 41
1.0
 10
832.12041161461582
 20
-1497.2502596376567
 30
0.0
 41
1.0
 10
832.20601761720229
 20
-1497.2636511728826
 30
0.0
 41
0.999532180686722
 10
832.29064469752973
 20
-1497.2822516613119
 30
0.0
 41
1.0
 10
832.29103389209877
 20
-1497.2823372037772
 30
0.0
 41
1.0
 10
832.29142308666781
 20
-1497.2824227462424
 30
0.0
 41
1.0
 10
832.37527177785535
 20
-1497.3008521497404
 30
0.0
 41
0.9993819199219367
 10
832.45761831205391
 20
-1497.3251275330017
 30
0.0
 41
1.0
 10
832.45785674555441
 20
-1497.3251978221119
 30
0.0
 41
1.0
 10
832.45809517905491
 20
-1497.3252681112219
 30
0.0
 41
1.0
 10
832.53996484625293
 20
-1497.3494029162634
 30
0.0
 41
0.9992088568506424
 10
832.61965736523837
 20
-1497.3799681520568
 30
0.0
 41
1.0
 10
832.69933835611732
 20
-1497.4105277527901
 30
0.0
 41
0.9990226101773315
 10
832.77600902602455
 20
-1497.4480051844048
 30
0.0
 41
1.0
 10
832.85266816782348
 20
-1497.4854769809585
 30
0.0
 41
0.9988424273972472
 10
832.92537179503529
 20
-1497.5301417562112
 30
0.0
 41
1.0
 10
832.92563950341446
 20
-1497.5303062202834
 30
0.0
 41
1.0
 10
832.92590721179363
 20
-1497.5304706843554
 30
0.0
 41
1.0
 10
832.99914625576469
 20
-1497.5754643877528
 30
0.0
 41
0.9986928844491239
 10
833.06740912247403
 20
-1497.6277001220321
 30
0.0
 41
1.0
 10
833.06799041469685
 20
-1497.62814493526
 30
0.0
 41
1.0
 10
833.06857170691978
 20
-1497.6285897484881
 30
0.0
 41
1.0
 10
833.137997158075
 20
-1497.6817151092237
 30
0.0
 41
0.9986007262278989
 10
833.20142332784167
 20
-1497.741875878917
 30
0.0
 41
1.0
 10
833.20231774329898
 20
-1497.742724246752
 30
0.0
 41
1.0
 10
833.20321215875629
 20
-1497.7435726145873
 30
0.0
 41
1.0
 10
833.26842715943781
 20
-1497.8054301199513
 30
0.0
 41
0.9985581491380841
 10
833.32663477113965
 20
-1497.8739226102234
 30
0.0
 41
1.0
 10
833.33589322473517
 20
-1497.8848169679247
 30
0.0
 41
1.0
 10
833.34515167833069
 20
-1497.8957113256261
 30
0.0
 41
1.0
 10
833.4218761972237
 20
-1497.9859925313006
 30
0.0
 41
0.9970460233520087
 10
833.48386809838303
 20
-1498.0869596154823
 30
0.0
 41
1.0
 10
833.49833746346337
 20
-1498.1105260745649
 30
0.0
 41
1.0
 10
833.51280682854372
 20
-1498.1340925336474
 30
0.0
 41
1.0
 10
833.55254352855525
 20
-1498.1988122576781
 30
0.0
 41
0.9988468816636866
 10
833.58588989930627
 20
-1498.2670447101048
 30
0.0
 41
1.0
 10
833.59292592179736
 20
-1498.2814416312413
 30
0.0
 41
1.0
 10
833.59996194428834
 20
-1498.2958385523777
 30
0.0
 41
1.0
 10
833.61923627005604
 20
-1498.3352771625284
 30
0.0
 41
0.9998431189997581
 10
833.63710159755283
 20
-1498.3753737169732
 30
0.0
 41
1.0
 10
833.65496692504462
 20
-1498.4154702714063
 30
0.0
 41
0.9999989989739102
 10
833.67294564846702
 20
-1498.4555161089918
 30
0.0
 41
1.0
 10
833.67911796006263
 20
-1498.4692643258072
 30
0.0
 41
1.0
 10
833.68529027165823
 20
-1498.4830125426229
 30
0.0
 41
1.0
 10
833.71561361826946
 20
-1498.5505548138335
 30
0.0
 41
0.999879035632255
 10
833.74382149840835
 20
-1498.6190075657732
 30
0.0
 41
1.0
 10
833.75065667969102
 20
-1498.6355946671968
 30
0.0
 41
1.0
 10
833.75749186097369
 20
-1498.6521817686203
 30
0.0
 41
1.0
 10
833.78104952335502
 20
-1498.7093497235076
 30
0.0
 41
0.999822757456134
 10
833.8024382717449
 20
-1498.7673640317871
 30
0.0
 41
1.0
 10
833.82382702013399
 20
-1498.8253783400637
 30
0.0
 41
0.9996797971041314
 10
833.84225330509173
 20
-1498.8844004591772
 30
0.0
 41
1.0
 10
833.84615710781804
 20
-1498.8969049173488
 30
0.0
 41
1.0
 10
833.85006091054447
 20
-1498.9094093755205
 30
0.0
 41
1.0
 10
833.87629480095484
 20
-1498.9934404109765
 30
0.0
 41
0.997927493873449
 10
833.89151932443406
 20
-1499.0801447696369
 30
0.0
 41
1.0
 10
833.89374301169528
 20
-1499.0928087704579
 30
0.0
 41
1.0
 10
833.89596669895639
 20
-1499.1054727712788
 30
0.0
 41
1.0
 10
833.90689663865442
 20
-1499.1677192785673
 30
0.0
 41
0.9994985982136971
 10
833.91386480383153
 20
-1499.2305327797112
 30
0.0
 41
1.0
 10
833.92083296900864
 20
-1499.2933462808553
 30
0.0
 41
0.9996372611202105
 10
833.92440883477627
 20
-1499.3564438595363
 30
0.0
 41
1.0
 10
833.92457741226553
 20
-1499.359418476618
 30
0.0
 41
1.0
 10
833.92474598975491
 20
-1499.3623930936999
 30
0.0
 41
1.0
 10
833.92865901050118
 20
-1499.4314399065443
 30
0.0
 41
0.9997730630736148
 10
833.92962732398928
 20
-1499.5005907305763
 30
0.0
 41
1.0
 10
833.92968443040741
 20
-1499.5046689097201
 30
0.0
 41
1.0
 10
833.92974153682553
 20
-1499.5087470888639
 30
0.0
 41
1.0
 10
833.93082406314966
 20
-1499.5860542711853
 30
0.0
 41
0.9998772614070505
 10
833.92948397641783
 20
-1499.6633574177604
 30
0.0
 41
1.0
 10
833.92939471321915
 20
-1499.6685065815882
 30
0.0
 41
1.0
 10
833.92930545002059
 20
-1499.673655745416
 30
0.0
 41
1.0
 10
833.92778683689141
 20
-1499.7612572196506
 30
0.0
 41
0.999941556732143
 10
833.92437452664501
 20
-1499.8488053813362
 30
0.0
 41
1.0
 10
833.92413320596984
 20
-1499.854996841068
 30
0.0
 41
1.0
 10
833.92389188529478
 20
-1499.8611883008
 30
0.0
 41
1.0
 10
833.91999693369792
 20
-1499.9611193819567
 30
0.0
 41
0.9999716810432674
 10
833.91459835057913
 20
-1500.0609805201902
 30
0.0
 41
1.0
 10
833.91138555179123
 20
-1500.1204097698303
 30
0.0
 41
1.0
 10
833.90817275300333
 20
-1500.1798390194704
 30
0.0
 41
1.0
 10
833.90009884385029
 20
-1500.3291874207625
 30
0.0
 41
0.9999819129896307
 10
833.89022905223283
 20
-1500.4784278984855
 30
0.0
 41
1.0
 10
833.88035926061627
 20
-1500.6276683761969
 30
0.0
 41
1.0
 10
833.87791994005238
 20
-1500.6648614220462
 30
0.0
 41
1.0
 10
833.90061817390915
 20
-1500.626120424673
 30
0.0
 41
0.9999982128088889
 10
833.92346273267265
 20
-1500.5874655307014
 30
0.0
 41
1.0
 10
833.95037229254058
 20
-1500.5419323166748
 30
0.0
 41
1.0
 10
833.97728185240851
 20
-1500.4963991026482
 30
0.0
 41
1.0
 10
834.05394553093265
 20
-1500.3666777805813
 30
0.0
 41
0.9998609190058
 10
834.13489284379386
 20
-1500.2395853986529
 30
0.0
 41
1.0
 10
834.16454116527996
 20
-1500.1930356656887
 30
0.0
 41
1.0
 10
834.19418948676605
 20
-1500.1464859327245
 30
0.0
 41
1.0
 10
834.27646170699848
 20
-1500.017313362737
 30
0.0
 41
0.9999067609733737
 10
834.36223071646077
 20
-1499.8904356732983
 30
0.0
 41
1.0
 10
834.36463541966009
 20
-1499.8868784072456
 30
0.0
 41
1.0
 10
834.36704012285941
 20
-1499.8833211411932
 30
0.0
 41
1.0
 10
834.44799972592409
 20
-1499.7635579838579
 30
0.0
 41
0.9998784952148543
 10
834.53265333560614
 20
-1499.6463767671485
 30
0.0
 41
1.0
 10
834.61730694528558
 20
-1499.5291955504422
 30
0.0
 41
0.9998532968284773
 10
834.70592456610609
 20
-1499.4149826419743
 30
0.0
 41
1.0
 10
834.72588635509896
 20
-1499.3892553209519
 30
0.0
 41
1.0
 10
834.74584814409195
 20
-1499.3635279999294
 30
0.0
 41
1.0
 10
834.86433219385094
 20
-1499.2108223889607
 30
0.0
 41
0.9991551975795207
 10
834.99495664347478
 20
-1499.0683628268769
 30
0.0
 41
1.0
 10
834.99846625945304
 20
-1499.0645352252541
 30
0.0
 41
1.0
 10
835.0019758754313
 20
-1499.0607076236315
 30
0.0
 41
1.0
 10
835.12558109309634
 20
-1498.9259032647951
 30
0.0
 41
0.9997418144180401
 10
835.2551832327988
 20
-1498.7968538541809
 30
0.0
 41
1.0
 10
835.38478537249853
 20
-1498.6678044435691
 30
0.0
 41
0.998923820463309
 10
835.52578792074962
 20
-1498.5513194815301
 30
0.0
 41
1.0
 10
835.57103559889208
 20
-1498.5139394899188
 30
0.0
 41
1.0
 10
835.61628327703454
 20
-1498.4765594983078
 30
0.0
 41
1.0
 10
835.75652333425285
 20
-1498.3607044450198
 30
0.0
 41
0.9990825084096962
 10
835.90616326685495
 20
-1498.257275447188
 30
0.0
 41
1.0
 10
835.91620863091407
 20
-1498.250332234107
 30
0.0
 41
1.0
 10
835.92625399497331
 20
-1498.2433890210259
 30
0.0
 41
1.0
 10
836.05580319946125
 20
-1498.1538464493535
 30
0.0
 41
0.9998164899828147
 10
836.18868740283517
 20
-1498.0693322078387
 30
0.0
 41
1.0
 10
836.20053296335891
 20
-1498.0617984413143
 30
0.0
 41
1.0
 10
836.21237852388276
 20
-1498.0542646747901
 30
0.0
 41
1.0
 10
836.32157160620955
 20
-1497.9848179663236
 30
0.0
 41
0.9997473449131303
 10
836.43377556346081
 20
-1497.9203490085067
 30
0.0
 41
1.0
 10
836.54597952071344
 20
-1497.8558800506894
 30
0.0
 41
0.9999327861147552
 10
836.65964813148116
 20
-1497.7940300590055
 30
0.0
 41
1.0
 10
836.66020013403818
 20
-1497.7937297003284
 30
0.0
 41
1.0
 10
836.66075213659519
 20
-1497.7934293416513
 30
0.0
 41
1.0
 10
836.77552475247785
 20
-1497.7309786326125
 30
0.0
 41
0.9996956420482781
 10
836.89323807831579
 20
-1497.6742651656389
 30
0.0
 41
1.0
 10
836.92367848321146
 20
-1497.6595991889076
 30
0.0
 41
1.0
 10
836.95411888810702
 20
-1497.6449332121761
 30
0.0
 41
1.0
 10
837.05709599485021
 20
-1497.5953195537331
 30
0.0
 41
0.9998070570176967
 10
837.16194238379046
 20
-1497.5497889668322
 30
0.0
 41
1.0
 10
837.26678877273332
 20
-1497.5042583799307
 30
0.0
 41
0.999782743614828
 10
837.37344170934671
 20
-1497.4631372086174
 30
0.0
 41
1.0
 10
837.39266455897541
 20
-1497.455725634986
 30
0.0
 41
1.0
 10
837.41188740860412
 20
-1497.4483140613547
 30
0.0
 41
1.0
 10
837.55698604447718
 20
-1497.3923697427779
 30
0.0
 41
0.9988031841976371
 10
837.70685640708234
 20
-1497.3508696786103
 30
0.0
 41
1.0
 10
837.7317736554462
 20
-1497.3439699328032
 30
0.0
 41
1.0
 10
837.75669090381007
 20
-1497.337070186996
 30
0.0
 41
1.0
 10
837.92396092945626
 20
-1497.2907520445895
 30
0.0
 41
0.9984748040550053
 10
838.09531783810405
 20
-1497.2631578123248
 30
0.0
 41
1.0
 10
838.10005697435361
 20
-1497.2623946518113
 30
0.0
 41
1.0
 10
838.10479611060316
 20
-1497.2616314912977
 30
0.0
 41
1.0
 10
838.26667474675355
 20
-1497.23556358006
 30
0.0
 41
0.9984436495480022
 10
838.43044949047771
 20
-1497.2276856262413
 30
0.0
 41
1.0
 10
838.45214669860832
 20
-1497.2266419390417
 30
0.0
 41
1.0
 10
838.47384390673892
 20
-1497.225598251842
 30
0.0
 41
1.0
 10
838.59422423420176
 20
-1497.2198076724226
 30
0.0
 41
0.9987954789335163
 10
838.7145924791123
 20
-1497.2258442001648
 30
0.0
 41
1.0
 10
838.73455727160717
 20
-1497.2268454445034
 30
0.0
 41
1.0
 10
838.75452206410205
 20
-1497.227846688842
 30
0.0
 41
1.0
 10
838.83496072402227
 20
-1497.2318807279071
 30
0.0
 41
0.9997941595876786
 10
838.91516950211656
 20
-1497.2391747938282
 30
0.0
 41
1.0
 10
838.99537828021175
 20
-1497.2464688597493
 30
0.0
 41
0.9998589466236035
 10
839.07529682706729
 20
-1497.2564527141994
 30
0.0
 41
1.0
 10
839.10770302887488
 20
-1497.2605010711186
 30
0.0
 41
1.0
 10
839.14010923068247
 20
-1497.2645494280378
 30
0.0
 41
1.0
 10
839.28484018115216
 20
-1497.282629996326
 30
0.0
 41
0.9993495063249565
 10
839.42789142491631
 20
-1497.3110957060671
 30
0.0
 41
1.0
 10
839.46082512207181
 20
-1497.3176491692827
 30
0.0
 41
1.0
 10
839.49375881922742
 20
-1497.3242026324983
 30
0.0
 41
1.0
 10
839.60305264242947
 20
-1497.3459509666332
 30
0.0
 41
0.9996788715560964
 10
839.71110421438459
 20
-1497.373208765996
 30
0.0
 41
1.0
 10
839.7131672169221
 20
-1497.3737291925686
 30
0.0
 41
1.0
 10
839.71523021945973
 20
-1497.3742496191412
 30
0.0
 41
1.0
 10
839.81915578633982
 20
-1497.4004665653588
 30
0.0
 41
0.9995480654492622
 10
839.92131802157041
 20
-1497.4328815219833
 30
0.0
 41
1.0
 10
839.92300766369976
 20
-1497.4334176268972
 30
0.0
 41
1.0
 10
839.924697305829
 20
-1497.4339537318112
 30
0.0
 41
1.0
 10
840.02348025679998
 20
-1497.4652964786078
 30
0.0
 41
0.9993867959456299
 10
840.11982741524241
 20
-1497.5034758478976
 30
0.0
 41
1.0
 10
840.12107036432781
 20
-1497.503968389794
 30
0.0
 41
1.0
 10
840.12231331341309
 20
-1497.5044609316906
 30
0.0
 41
1.0
 10
840.21617457368518
 20
-1497.5416552171873
 30
0.0
 41
0.9992050256521348
 10
840.30677424871828
 20
-1497.5862091164261
 30
0.0
 41
1.0
 10
840.30750893142954
 20
-1497.5865704088862
 30
0.0
 41
1.0
 10
840.30824361414079
 20
-1497.5869317013464
 30
0.0
 41
1.0
 10
840.39737392375014
 20
-1497.6307630156639
 30
0.0
 41
0.9990222350741804
 10
840.48228398514539
 20
-1497.682296283363
 30
0.0
 41
1.0
 10
840.4824678704282
 20
-1497.6824078862678
 30
0.0
 41
1.0
 10
840.482651755711
 20
-1497.6825194891728
 30
0.0
 41
1.0
 10
840.56719404653927
 20
-1497.7338295510617
 30
0.0
 41
0.9988642743805254
 10
840.64646858115793
 20
-1497.7929537385867
 30
0.0
 41
1.0
 10
840.72574311577773
 20
-1497.8520779261125
 30
0.0
 41
0.998768123331077
 10
840.79876690005369
 20
-1497.9187686175133
 30
0.0
 41
1.0
 10
840.79909582801929
 20
-1497.9190690187272
 30
0.0
 41
1.0
 10
840.79942475598477
 20
-1497.9193694199412
 30
0.0
 41
1.0
 10
840.87310639619204
 20
-1497.9866609137698
 30
0.0
 41
0.9987496570898096
 10
840.93970020151892
 20
-1498.0609737278562
 30
0.0
 41
1.0
 10
840.94047237127972
 20
-1498.0618354012145
 30
0.0
 41
1.0
 10
840.94124454104053
 20
-1498.0626970745727
 30
0.0
 41
1.0
 10
841.00938268588868
 20
-1498.1387332353754
 30
0.0
 41
0.9988147669827452
 10
841.06980494011373
 20
-1498.2210342422177
 30
0.0
 41
1.0
 10
841.07092426619147
 20
-1498.2225588735701
 30
0.0
 41
1.0
 10
841.0720435922691
 20
-1498.2240835049226
 30
0.0
 41
1.0
 10
841.13470449865008
 20
-1498.3094337744712
 30
0.0
 41
0.9989452636216549
 10
841.18927141161112
 20
-1498.4001724636285
 30
0.0
 41
1.0
 10
841.19062013769667
 20
-1498.4024152446545
 30
0.0
 41
1.0
 10
841.19196886378222
 20
-1498.4046580256804
 30
0.0
 41
1.0
 10
841.24923322891539
 20
-1498.4998822768916
 30
0.0
 41
0.9991046436070988
 10
841.29824244223732
 20
-1498.5996067099175
 30
0.0
 41
1.0
 10
841.29970630382695
 20
-1498.6025853899891
 30
0.0
 41
1.0
 10
841.30117016541658
 20
-1498.6055640700611
 30
0.0
 41
1.0
 10
841.35310710191868
 20
-1498.7112458632323
 30
0.0
 41
0.99927638311014
 10
841.39686023047318
 20
-1498.8205699251866
 30
0.0
 41
1.0
 10
841.39833950013667
 20
-1498.8242661127206
 30
0.0
 41
1.0
 10
841.39981876980005
 20
-1498.8279623002545
 30
0.0
 41
1.0
 10
841.4465304376821
 20
-1498.9446787372785
 30
0.0
 41
0.9994163472883507
 10
841.48516346887209
 20
-1499.0643123257432
 30
0.0
 41
1.0
 10
841.48640162111792
 20
-1499.0681464695231
 30
0.0
 41
1.0
 10
841.48763977336375
 20
-1499.0719806133031
 30
0.0
 41
1.0
 10
841.52752333438173
 20
-1499.1954866747835
 30
0.0
 41
0.9997268055890564
 10
841.56159139029432
 20
-1499.3207217067363
 30
0.0
 41
1.0
 10
841.56252157056383
 20
-1499.3241410728451
 30
0.0
 41
1.0
 10
841.56345175083345
 20
-1499.3275604389539
 30
0.0
 41
1.0
 10
841.59565944620658
 20
-1499.4459567386882
 30
0.0
 41
0.9996701319000881
 10
841.62174506297674
 20
-1499.5658506919503
 30
0.0
 41
1.0
 10
841.64783067974724
 20
-1499.6857446452145
 30
0.0
 41
0.9995785451109814
 10
841.66691425708723
 20
-1499.8069504062473
 30
0.0
 41
1.0
 10
841.67113403926066
 20
-1499.8337515610103
 30
0.0
 41
1.0
 10
841.6753538214341
 20
-1499.8605527157733
 30
0.0
 41
1.0
 10
841.70192879737294
 20
-1500.0293386894768
 30
0.0
 41
0.9979925101216686
 10
841.70695438329938
 20
-1500.2001300175702
 30
0.0
 41
1.0
 10
841.70777919572402
 20
-1500.2281607410505
 30
0.0
 41
1.0
 10
841.70860400814865
 20
-1500.2561914645307
 30
0.0
 41
1.0
 10
841.71197996922581
 20
-1500.3709213456605
 30
0.0
 41
0.999531490226299
 10
841.70832977708722
 20
-1500.4856428294138
 30
0.0
 41
1.0
 10
841.70467958494851
 20
-1500.6003643131683
 30
0.0
 41
0.9996245486944816
 10
841.69475048981781
 20
-1500.7147135842915
 30
0.0
 41
1.0
 10
841.69458744182361
 20
-1500.716591340426
 30
0.0
 41
1.0
 10
841.69442439382942
 20
-1500.7184690965603
 30
0.0
 41
1.0
 10
841.68416920271034
 20
-1500.8365738799525
 30
0.0
 41
0.9997286095000808
 10
841.66842387913869
 20
-1500.9540727888484
 30
0.0
 41
1.0
 10
841.66803038648823
 20
-1500.9570092135509
 30
0.0
 41
1.0
 10
841.66763689383788
 20
-1500.9599456382532
 30
0.0
 41
1.0
 10
841.65110458496611
 20
-1501.0833173965505
 30
0.0
 41
0.9998265533969177
 10
841.62998912623357
 20
-1501.2059878713371
 30
0.0
 41
1.0
 10
841.62931258409617
 20
-1501.2099182498462
 30
0.0
 41
1.0
 10
841.62863604195877
 20
-1501.2138486283552
 30
0.0
 41
1.0
 10
841.60616749895416
 20
-1501.344379860147
 30
0.0
 41
0.9999022530855286
 10
841.58005803434537
 20
-1501.4742318287801
 30
0.0
 41
1.0
 10
841.57907939317829
 20
-1501.479098971176
 30
0.0
 41
1.0
 10
841.57810075201121
 20
-1501.4839661135716
 30
0.0
 41
1.0
 10
841.55003400506916
 20
-1501.6235523669907
 30
0.0
 41
0.9999524761935509
 10
841.5192510362358
 20
-1501.762564860149
 30
0.0
 41
1.0
 10
841.5179749290603
 20
-1501.7683276194516
 30
0.0
 41
1.0
 10
841.5166988218848
 20
-1501.774090378754
 30
0.0
 41
1.0
 10
841.4833636386968
 20
-1501.9246283905334
 30
0.0
 41
0.9999813588731131
 10
841.44819263789805
 20
-1502.0747481032017
 30
0.0
 41
1.0
 10
841.44663871244416
 20
-1502.0813806936128
 30
0.0
 41
1.0
 10
841.44508478699026
 20
-1502.0880132840239
 30
0.0
 41
1.0
 10
841.40680593527782
 20
-1502.2513981775396
 30
0.0
 41
0.999995523766485
 10
841.36755005730186
 20
-1502.414551081127
 30
0.0
 41
1.0
 10
841.35526842166701
 20
-1502.4655952716521
 30
0.0
 41
1.0
 10
841.34298678603204
 20
-1502.5166394621772
 30
0.0
 41
1.0
 10
841.2791676367699
 20
-1502.7818807468825
 30
0.0
 41
0.9999993604648825
 10
841.21474868958308
 20
-1503.0469769976444
 30
0.0
 41
1.0
 10
841.21002985405198
 20
-1503.0663959056194
 30
0.0
 41
1.0
 10
841.20531101852077
 20
-1503.0858148135944
 30
0.0
 41
1.0
 10
841.13145440026017
 20
-1503.3897488803541
 30
0.0
 41
0.9999659914724151
 10
841.05259480437144
 20
-1503.692423426927
 30
0.0
 41
1.0
 10
841.04764211544261
 20
-1503.7114325641023
 30
0.0
 41
1.0
 10
841.04268942651379
 20
-1503.7304417012776
 30
0.0
 41
1.0
 10
840.95392445276661
 20
-1504.071134522203
 30
0.0
 41
0.999944197602595
 10
840.85798141980342
 20
-1504.409875947501
 30
0.0
 41
1.0
 10
840.8412809013787
 20
-1504.4688396600261
 30
0.0
 41
1.0
 10
840.82458038295385
 20
-1504.5278033725513
 30
0.0
 41
1.0
 10
840.69523631313837
 20
-1504.9844722229082
 30
0.0
 41
0.9999625120731833
 10
840.55800354581777
 20
-1505.4388327568947
 30
0.0
 41
1.0
 10
840.52221360273279
 20
-1505.5573287835282
 30
0.0
 41
1.0
 10
840.48642365964793
 20
-1505.6758248101617
 30
0.0
 41
1.0
 10
840.41190345560835
 20
-1505.922551888259
 30
0.0
 41
0.9999793386324378
 10
840.33421743247118
 20
-1506.1683005274938
 30
0.0
 41
1.0
 10
840.25653140933366
 20
-1506.4140491667299
 30
0.0
 41
1.0
 10
840.24575185046297
 20
-1506.4480670711046
 30
0.0
 41
1.0
 10
838.39537879719387
 20
-1512.3351389935719
 30
0.0
 41
1.0
 10
836.54500574392466
 20
-1518.2222109160396
 30
0.0
 41
1.0
 10
835.5837490539011
 20
-1518.2222109160396
 30
0.0
 41
1.0
 10
834.62249236387754
 20
-1518.2222109160396
 30
0.0
 41
1.0
 10
836.24143714255592
 20
-1513.0741824142501
 30
0.0
 41
1.0
 10
837.86038192123442
 20
-1507.9261539124607
 30
0.0
 41
1.0
 10
837.90554774440886
 20
-1507.7821226901904
 30
0.0
 41
1.0
 10
837.95071356758331
 20
-1507.63809146792
 30
0.0
 41
1.0
 10
838.12101798494655
 20
-1507.095000438756
 30
0.0
 41
0.9999911657923353
 10
838.28675079662594
 20
-1506.5504969073947
 30
0.0
 41
1.0
 10
838.31644674012864
 20
-1506.4529329673367
 30
0.0
 41
1.0
 10
838.34614268363146
 20
-1506.3553690272786
 30
0.0
 41
1.0
 10
838.45248360831329
 20
-1506.0059933760076
 30
0.0
 41
0.9999952428176415
 10
838.55666719763121
 20
-1505.6559683516816
 30
0.0
 41
1.0
 10
838.56172666796033
 20
-1505.638970077418
 30
0.0
 41
1.0
 10
838.56678613828933
 20
-1505.6219718031543
 30
0.0
 41
1.0
 10
838.66085078695858
 20
-1505.3059433273238
 30
0.0
 41
0.9999931687503781
 10
838.75257662482977
 20
-1504.9892281140615
 30
0.0
 41
1.0
 10
838.75751188928803
 20
-1504.972187404795
 30
0.0
 41
1.0
 10
838.76244715374617
 20
-1504.9551466955286
 30
0.0
 41
1.0
 10
838.84430246270244
 20
-1504.6725129007946
 30
0.0
 41
0.9999893840805434
 10
838.92354968916027
 20
-1504.3891367715444
 30
0.0
 41
1.0
 10
839.00279691562082
 20
-1504.1057606422846
 30
0.0
 41
0.999983398007846
 10
839.07877315636313
 20
-1503.8214900592534
 30
0.0
 41
1.0
 10
839.08777709308265
 20
-1503.7878011807852
 30
0.0
 41
1.0
 10
839.09678102980217
 20
-1503.7541123023173
 30
0.0
 41
1.0
 10
839.16574557866932
 20
-1503.4960764700172
 30
0.0
 41
0.9999233658065648
 10
839.2283005498906
 20
-1503.2364123112914
 30
0.0
 41
1.0
 10
839.29085552111087
 20
-1502.9767481525689
 30
0.0
 41
1.0
 10
839.33033893996844
 20
-1502.8129414881428
 30
0.0
 41
1.0
 10
839.33531754394699
 20
-1502.7922865262672
 30
0.0
 41
1.0
 10
839.34029614792541
 20
-1502.7716315643916
 30
0.0
 41
1.0
 10
839.36982235882806
 20
-1502.6491348237087
 30
0.0
 41
0.9999868670852156
 10
839.39809144282219
 20
-1502.5263418780712
 30
0.0
 41
1.0
 10
839.40198892997989
 20
-1502.5094122906544
 30
0.0
 41
1.0
 10
839.40588641713759
 20
-1502.4924827032376
 30
0.0
 41
1.0
 10
839.42636052681564
 20
-1502.4035489324369
 30
0.0
 41
0.9999778173354139
 10
839.44564812493377
 20
-1502.3143503151953
 30
0.0
 41
1.0
 10
839.46493572305064
 20
-1502.2251516979579
 30
0.0
 41
0.9999602692858594
 10
839.48263008168396
 20
-1502.135623409519
 30
0.0
 41
1.0
 10
839.48583391375962
 20
-1502.1194129546429
 30
0.0
 41
1.0
 10
839.48903774583528
 20
-1502.1032024997671
 30
0.0
 41
1.0
 10
839.51313976862093
 20
-1501.9812533015709
 30
0.0
 41
0.9995617985320637
 10
839.52998311583951
 20
-1501.8580915538671
 30
0.0
 41
1.0
 10
839.53244760574603
 20
-1501.8400707364995
 30
0.0
 41
1.0
 10
839.53491209565243
 20
-1501.822049919132
 30
0.0
 41
1.0
 10
839.55519535670066
 20
-1501.6737348694328
 30
0.0
 41
0.999112141063956
 10
839.56292071028906
 20
-1501.5242387706248
 30
0.0
 41
1.0
 10
839.56383950031352
 20
-1501.5064589340502
 30
0.0
 41
1.0
 10
839.56475829033798
 20
-1501.4886790974756
 30
0.0
 41
1.0
 10
839.57064606387723
 20
-1501.3747426718203
 30
0.0
 41
0.9989792494905602
 10
839.56622697175999
 20
-1501.26073983592
 30
0.0
 41
1.0
 10
839.56557899989139
 20
-1501.2440235899921
 30
0.0
 41
1.0
 10
839.56493102802267
 20
-1501.2273073440642
 30
0.0
 41
1.0
 10
839.56180787964286
 20
-1501.1467370000234
 30
0.0
 41
0.9997820295393668
 10
839.55532388226698
 20
-1501.0663672782778
 30
0.0
 41
1.0
 10
839.54883988489144
 20
-1500.9859975565348
 30
0.0
 41
0.9998335105973442
 10
839.53942768937986
 20
-1500.9059179400861
 30
0.0
 41
1.0
 10
839.53783276470335
 20
-1500.8923482096018
 30
0.0
 41
1.0
 10
839.53623784002684
 20
-1500.8787784791175
 30
0.0
 41
1.0
 10
839.52363579516282
 20
-1500.7715594017038
 30
0.0
 41
0.9996876457879446
 10
839.5056918823642
 20
-1500.6651039739861
 30
0.0
 41
1.0
 10
839.50346021921894
 20
-1500.6518642387443
 30
0.0
 41
1.0
 10
839.50122855607367
 20
-1500.6386245035026
 30
0.0
 41
1.0
 10
839.4874327346522
 20
-1500.5567783595418
 30
0.0
 41
0.999554749649489
 10
839.46877941275989
 20
-1500.4759008623523
 30
0.0
 41
1.0
 10
839.46840545588873
 20
-1500.4742794516476
 30
0.0
 41
1.0
 10
839.46803149901757
 20
-1500.4726580409429
 30
0.0
 41
1.0
 10
839.45012609086734
 20
-1500.3950233651619
 30
0.0
 41
0.9994899427175958
 10
839.42730118218788
 20
-1500.3186900823266
 30
0.0
 41
1.0
 10
839.42684265544699
 20
-1500.3171566325373
 30
0.0
 41
1.0
 10
839.42638412870599
 20
-1500.3156231827481
 30
0.0
 41
1.0
 10
839.40447627350886
 20
-1500.2423567994933
 30
0.0
 41
0.9993784877591491
 10
839.377460638402
 20
-1500.1708160943333
 30
0.0
 41
1.0
 10
839.37692894742497
 20
-1500.1694081116125
 30
0.0
 41
1.0
 10
839.37639725644794
 20
-1500.1680001288917
 30
0.0
 41
1.0
 10
839.35044500329514
 20
-1500.0992753891735
 30
0.0
 41
0.9992430832254405
 10
839.31922846813609
 20
-1500.032776237106
 30
0.0
 41
1.0
 10
839.31864635207967
 20
-1500.0315361819889
 30
0.0
 41
1.0
 10
839.31806423602325
 20
-1500.0302961268721
 30
0.0
 41
1.0
 10
839.28801193297693
 20
-1499.9662770850382
 30
0.0
 41
0.9990789632798371
 10
839.2525813062
 20
-1499.9050704732881
 30
0.0
 41
1.0
 10
839.25198560001832
 20
-1499.9040413874295
 30
0.0
 41
1.0
 10
839.25138989383652
 20
-1499.9030123015707
 30
0.0
 41
1.0
 10
839.21715067942398
 20
-1499.8438638615398
 30
0.0
 41
0.9988874801121052
 10
839.17749140339129
 20
-1499.7882041491207
 30
0.0
 41
1.0
 10
839.17693587732697
 20
-1499.787424497446
 30
0.0
 41
1.0
 10
839.17638035126265
 20
-1499.786644845771
 30
0.0
 41
1.0
 10
839.13783212735893
 20
-1499.7325444367025
 30
0.0
 41
0.9986762060693443
 10
839.09392965608299
 20
-1499.6826907222635
 30
0.0
 41
1.0
 10
839.09348569575104
 20
-1499.682186580447
 30
0.0
 41
1.0
 10
839.09304173541898
 20
-1499.6816824386306
 30
0.0
 41
1.0
 10
839.05002718480659
 20
-1499.632837007824
 30
0.0
 41
0.9984621642488227
 10
839.001869628029
 20
-1499.5890537073533
 30
0.0
 41
1.0
 10
839.00162299351223
 20
-1499.5888294751896
 30
0.0
 41
1.0
 10
839.00137635899557
 20
-1499.588605243026
 30
0.0
 41
1.0
 10
838.95371207125152
 20
-1499.5452704068823
 30
0.0
 41
0.9982724693850289
 10
838.90129343940976
 20
-1499.5078260563646
 30
0.0
 41
1.0
 10
838.84887480756868
 20
-1499.4703817058469
 30
0.0
 41
0.9981399180157734
 10
838.79228874417572
 20
-1499.4395951864037
 30
0.0
 41
1.0
 10
838.79224308209689
 20
-1499.4395703432465
 30
0.0
 41
1.0
 10
838.79219742001806
 20
-1499.439545500089
 30
0.0
 41
1.0
 10
838.73552003246868
 20
-1499.4087092943316
 30
0.0
 41
0.998092708683699
 10
838.67547468140287
 20
-1499.3850924854794
 30
0.0
 41
1.0
 10
838.67503451169046
 20
-1499.3849193596041
 30
0.0
 41
1.0
 10
838.67459434197804
 20
-1499.3847462337287
 30
0.0
 41
1.0
 10
838.61366865148909
 20
-1499.3607831731265
 30
0.0
 41
0.9981411356562362
 10
838.55028013009075
 20
-1499.3444105316212
 30
0.0
 41
1.0
 10
838.54939801338833
 20
-1499.3441826894154
 30
0.0
 41
1.0
 10
838.54851589668601
 20
-1499.3439548472097
 30
0.0
 41
1.0
 10
838.48336314188259
 20
-1499.3271265212929
 30
0.0
 41
0.9983031812934377
 10
838.41669571288685
 20
-1499.3179871601167
 30
0.0
 41
1.0
 10
838.40782468748398
 20
-1499.3167710414455
 30
0.0
 41
1.0
 10
838.39895366208111
 20
-1499.3155549227743
 30
0.0
 41
1.0
 10
838.3446040195771
 20
-1499.3081041927833
 30
0.0
 41
0.9983887708264193
 10
838.28976017028424
 20
-1499.3068595191498
 30
0.0
 41
1.0
 10
838.28169676506889
 20
-1499.306676521275
 30
0.0
 41
1.0
 10
838.27363335985353
 20
-1499.3064935234001
 30
0.0
 41
1.0
 10
838.23491632099353
 20
-1499.3056148455166
 30
0.0
 41
0.9998869563080198
 10
838.19619036778874
 20
-1499.3059007148763
 30
0.0
 41
1.0
 10
838.15746441458305
 20
-1499.306186584236
 30
0.0
 41
0.9999972320190204
 10
838.1187402353695
 20
-1499.3066546837651
 30
0.0
 41
1.0
 10
838.09938721879234
 20
-1499.3068886238543
 30
0.0
 41
1.0
 10
838.0800342022153
 20
-1499.3071225639437
 30
0.0
 41
1.0
 10
838.00260398984221
 20
-1499.3080585436517
 30
0.0
 41
0.9997304945087846
 10
837.92530068360225
 20
-1499.3125876374381
 30
0.0
 41
1.0
 10
837.9162510419003
 20
-1499.3131178434278
 30
0.0
 41
1.0
 10
837.90720140019846
 20
-1499.3136480494177
 30
0.0
 41
1.0
 10
837.81179881055198
 20
-1499.3192375551835
 30
0.0
 41
0.9997888306416359
 10
837.71670647470921
 20
-1499.3287425196725
 30
0.0
 41
1.0
 10
837.70798541313673
 20
-1499.3296142343047
 30
0.0
 41
1.0
 10
837.69926435156424
 20
-1499.3304859489367
 30
0.0
 41
1.0
 10
837.58672989257741
 20
-1499.34173434269
 30
0.0
 41
0.9984170238191552
 10
837.47617074522748
 20
-1499.3655504246253
 30
0.0
 41
1.0
 10
837.43978961424023
 20
-1499.3733874604318
 30
0.0
 41
1.0
 10
837.40340848325297
 20
-1499.381224496238
 30
0.0
 41
1.0
 10
837.28821741483091
 20
-1499.4060383627477
 30
0.0
 41
0.9976592854199264
 10
837.17748924842545
 20
-1499.4463370398948
 30
0.0
 41
1.0
 10
837.06676108201918
 20
-1499.4866357170424
 30
0.0
 41
0.9993255074352336
 10
836.95928928322724
 20
-1499.5349526155355
 30
0.0
 41
1.0
 10
836.95466410430515
 20
-1499.5370319917347
 30
0.0
 41
1.0
 10
836.95003892538307
 20
-1499.5391113679339
 30
0.0
 41
1.0
 10
836.83331676874627
 20
-1499.5915870188257
 30
0.0
 41
0.9976475078275516
 10
836.7248694244355
 20
-1499.6595350084842
 30
0.0
 41
1.0
 10
836.70652703029589
 20
-1499.6710274873017
 30
0.0
 41
1.0
 10
836.68818463615628
 20
-1499.6825199661193
 30
0.0
 41
1.0
 10
836.60398244460941
 20
-1499.7352770868843
 30
0.0
 41
0.9995131336406518
 10
836.52323472965611
 20
-1499.7931832988349
 30
0.0
 41
1.0
 10
836.44248701470167
 20
-1499.8510895107861
 30
0.0
 41
0.9995810107606613
 10
836.36522536697726
 20
-1499.9135711932483
 30
0.0
 41
1.0
 10
836.36225533576351
 20
-1499.9159730647157
 30
0.0
 41
1.0
 10
836.35928530454976
 20
-1499.9183749361832
 30
0.0
 41
1.0
 10
836.27608359440603
 20
-1499.985660361574
 30
0.0
 41
0.9996617837955016
 10
836.19649290727295
 20
-1500.0571808171314
 30
0.0
 41
1.0
 10
836.18436215639031
 20
-1500.0680815501271
 30
0.0
 41
1.0
 10
836.17223140550777
 20
-1500.0789822831227
 30
0.0
 41
1.0
 10
836.10395587811195
 20
-1500.1403348985946
 30
0.0
 41
0.9997267750052827
 10
836.03862236983036
 20
-1500.2048114351178
 30
0.0
 41
1.0
 10
835.97328886153559
 20
-1500.269287971654
 30
0.0
 41
0.9999667288962809
 10
835.9090159183844
 20
-1500.3348217785535
 30
0.0
 41
1.0
 10
835.84018847061702
 20
-1500.404999437304
 30
0.0
 41
1.0
 10
835.77136102284976
 20
-1500.4751770960543
 30
0.0
 41
1.0
 10
835.56943318415165
 20
-1500.6810662204662
 30
0.0
 41
0.9988205335174805
 10
835.38842756717202
 20
-1500.9055704525274
 30
0.0
 41
1.0
 10
835.35778760226799
 20
-1500.9435737029564
 30
0.0
 41
1.0
 10
835.32714763736408
 20
-1500.9815769533855
 30
0.0
 41
1.0
 10
835.08486209057367
 20
-1501.2820876863077
 30
0.0
 41
0.9997077826754448
 10
834.85738413946774
 20
-1501.5939574805252
 30
0.0
 41
1.0
 10
834.85566072433835
 20
-1501.5963202639032
 30
0.0
 41
1.0
 10
834.85393730920896
 20
-1501.5986830472814
 30
0.0
 41
1.0
 10
834.62301252784425
 20
-1501.9152784082548
 30
0.0
 41
0.9989147567079042
 10
834.42254902496165
 20
-1502.2519878694377
 30
0.0
 41
1.0
 10
834.39780787965196
 20
-1502.2935444499947
 30
0.0
 41
1.0
 10
834.37306673434227
 20
-1502.3351010305516
 30
0.0
 41
1.0
 10
834.21785543570627
 20
-1502.5958024150023
 30
0.0
 41
0.9997476598181132
 10
834.07451044819845
 20
-1502.8632121635817
 30
0.0
 41
1.0
 10
833.93116546068904
 20
-1503.1306219121636
 30
0.0
 41
0.9996258967109819
 10
833.80265720875764
 20
-1503.4054698487873
 30
0.0
 41
1.0
 10
833.78945729930706
 20
-1503.4337012488845
 30
0.0
 41
1.0
 10
833.7762573898566
 20
-1503.4619326489819
 30
0.0
 41
1.0
 10
833.63604866885635
 20
-1503.7618050469362
 30
0.0
 41
0.9998735413943882
 10
833.50544732213734
 20
-1504.0659846464005
 30
0.0
 41
1.0
 10
833.50200449407544
 20
-1504.0740032318686
 30
0.0
 41
1.0
 10
833.49856166601342
 20
-1504.0820218173367
 30
0.0
 41
1.0
 10
833.37484597541777
 20
-1504.3701642458661
 30
0.0
 41
0.9999377418858483
 10
833.25759117324219
 20
-1504.6609957135433
 30
0.0
 41
1.0
 10
833.14033637106832
 20
-1504.9518271812158
 30
0.0
 41
0.9999508299508741
 10
833.02887242769339
 20
-1505.244926858031
 30
0.0
 41
1.0
 10
833.0257916590291
 20
-1505.2530278839995
 30
0.0
 41
1.0
 10
833.02271089036481
 20
-1505.2611289099682
 30
0.0
 41
1.0
 10
832.90508540966425
 20
-1505.5704306387124
 30
0.0
 41
0.9999609228433725
 10
832.79294680678674
 20
-1505.8817636547376
 30
0.0
 41
1.0
 10
832.78999079643791
 20
-1505.8899704951446
 30
0.0
 41
1.0
 10
832.78703478608918
 20
-1505.8981773355517
 30
0.0
 41
1.0
 10
832.66898416251479
 20
-1506.2259240323897
 30
0.0
 41
0.9999674607398371
 10
832.55623663644872
 20
-1506.5555326523786
 30
0.0
 41
1.0
 10
832.50483824588582
 20
-1506.7057918480714
 30
0.0
 41
1.0
 10
832.45343985532304
 20
-1506.8560510437644
 30
0.0
 41
1.0
 10
832.33742924856506
 20
-1507.1951990262678
 30
0.0
 41
0.9999287532304765
 10
832.22954784459421
 20
-1507.5370197652442
 30
0.0
 41
1.0
 10
832.1830705884945
 20
-1507.6842823094898
 30
0.0
 41
1.0
 10
832.13659333239468
 20
-1507.8315448537357
 30
0.0
 41
1.0
 10
832.12166644068827
 20
-1507.8788405040141
 30
0.0
 41
0.9999998224336073
 10
832.10679593189298
 20
-1507.9261539124607
 30
0.0
 41
1.0
 10
830.48613979509753
 20
-1513.0741824142501
 30
0.0
 41
1.0
 10
828.86548365830208
 20
-1518.2222109160396
 30
0.0
 41
1.0
 10
827.96017521441115
 20
-1518.2222109160396
 30
0.0
 41
1.0
 10
827.05486677052022
 20
-1518.2222109160396
 30
0.0
 41
1.0
 10
828.90695118190627
 20
-1512.3351389935719
 30
0.0
 41
1.0
 10
830.75903559329231
 20
-1506.4480670711046
 30
0.0
 41
1.0
 10
830.76915735159503
 20
-1506.4160238576549
 30
0.0
 41
1.0
 10
830.84176502044477
 20
-1506.185724315829
 30
0.0
 41
1.0
 10
830.91437268930008
 20
-1505.9554247739857
 30
0.0
 41
0.9999825681974421
 10
830.98425572851681
 20
-1505.724283878903
 30
0.0
 41
1.0
 10
831.03254679067265
 20
-1505.5645592954231
 30
0.0
 41
1.0
 10
831.08083785282849
 20
-1505.4048347119433
 30
0.0
 41
1.0
 10
831.17799020614211
 20
-1505.0834994901788
 30
0.0
 41
0.9999672528958703
 10
831.26992901176686
 20
-1504.7606339445883
 30
0.0
 41
1.0
 10
831.27271789543238
 20
-1504.7508400992128
 30
0.0
 41
1.0
 10
831.27550677909801
 20
-1504.7410462538376
 30
0.0
 41
1.0
 10
831.3618678173832
 20
-1504.4377683990269
 30
0.0
 41
0.9999899749143154
 10
831.4455094269249
 20
-1504.1337293105494
 30
0.0
 41
1.0
 10
831.45561534594458
 20
-1504.0969940728633
 30
0.0
 41
1.0
 10
831.46572126496415
 20
-1504.0602588351771
 30
0.0
 41
1.0
 10
831.52915103646001
 20
-1503.8296902220955
 30
0.0
 41
0.9999214200505381
 10
831.58678046483737
 20
-1503.5976038798876
 30
0.0
 41
1.0
 10
831.59954631701748
 20
-1503.5461929944936
 30
0.0
 41
1.0
 10
831.61231216919748
 20
-1503.4947821090993
 30
0.0
 41
1.0
 10
831.64440989321395
 20
-1503.3655175376825
 30
0.0
 41
0.9999828681661171
 10
831.67499214521047
 20
-1503.235886063211
 30
0.0
 41
1.0
 10
831.7055743972054
 20
-1503.1062545887462
 30
0.0
 41
0.9999389844479267
 10
831.73328538599617
 20
-1502.9759791328386
 30
0.0
 41
1.0
 10
831.74042312971585
 20
-1502.9424230290037
 30
0.0
 41
1.0
 10
831.74756087343553
 20
-1502.9088669251687
 30
0.0
 41
1.0
 10
831.78954734966362
 20
-1502.7114792616007
 30
0.0
 41
0.9998933699442201
 10
831.82575161406623
 20
-1502.5129496538418
 30
0.0
 41
1.0
 10
831.82712443928312
 20
-1502.5054216331419
 30
0.0
 41
1.0
 10
831.82849726450013
 20
-1502.4978936124419
 30
0.0
 41
1.0
 10
831.8674471793347
 20
-1502.2843079632921
 30
0.0
 41
0.9996850305193895
 10
831.89563085559325
 20
-1502.0690369578574
 30
0.0
 41
1.0
 10
831.89762588896269
 20
-1502.0537986037339
 30
0.0
 41
1.0
 10
831.89962092233225
 20
-1502.0385602496106
 30
0.0
 41
1.0
 10
831.9270287847911
 20
-1501.829215022457
 30
0.0
 41
0.9994697936706763
 10
831.940753344011
 20
-1501.6185298271243
 30
0.0
 41
1.0
 10
831.94123041326066
 20
-1501.611206354914
 30
0.0
 41
1.0
 10
831.94170748251031
 20
-1501.6038828827038
 30
0.0
 41
1.0
 10
831.95447790323067
 20
-1501.4078446317944
 30
0.0
 41
0.999180489313668
 10
831.9513495869578
 20
-1501.2114157818201
 30
0.0
 41
1.0
 10
831.95126570813568
 20
-1501.2061489804073
 30
0.0
 41
1.0
 10
831.95118182931355
 20
-1501.2008821789943
 30
0.0
 41
1.0
 10
831.94822127068505
 20
-1501.0149869318466
 30
0.0
 41
0.998844832932156
 10
831.9274297250613
 20
-1500.8302343420132
 30
0.0
 41
1.0
 10
831.92583565135828
 20
-1500.8160694862424
 30
0.0
 41
1.0
 10
831.92424157765538
 20
-1500.8019046304717
 30
0.0
 41
1.0
 10
831.90663817943766
 20
-1500.6454817521815
 30
0.0
 41
0.9985503209459491
 10
831.87232190713803
 20
-1500.4918575680906
 30
0.0
 41
1.0
 10
831.86473591506638
 20
-1500.4578972406885
 30
0.0
 41
1.0
 10
831.85714992299472
 20
-1500.4239369132865
 30
0.0
 41
1.0
 10
831.83800563483794
 20
-1500.3382333839995
 30
0.0
 41
0.9991036781370487
 10
831.81168077318716
 20
-1500.2544562966764
 30
0.0
 41
1.0
 10
831.8076985477303
 20
-1500.2417831341629
 30
0.0
 41
1.0
 10
831.80371632227343
 20
-1500.2291099716495
 30
0.0
 41
1.0
 10
831.78535591153502
 20
-1500.1706792093482
 30
0.0
 41
0.9998874504367661
 10
831.76525070385765
 20
-1500.1128256071281
 30
0.0
 41
1.0
 10
831.74514549617857
 20
-1500.0549720049028
 30
0.0
 41
0.9994041637542795
 10
831.72109688324429
 20
-1499.9986433010138
 30
0.0
 41
1.0
 10
831.71690009902068
 20
-1499.9888132365329
 30
0.0
 41
1.0
 10
831.71270331479718
 20
-1499.978983172052
 30
0.0
 41
1.0
 10
831.6848244838028
 20
-1499.9136830060854
 30
0.0
 41
0.9991846840702949
 10
831.65176812710922
 20
-1499.8508449748037
 30
0.0
 41
1.0
 10
831.65063152071446
 20
-1499.8486843583496
 30
0.0
 41
1.0
 10
831.64949491431969
 20
-1499.8465237418952
 30
0.0
 41
1.0
 10
831.61871177041689
 20
-1499.788006943525
 30
0.0
 41
0.9989253167923589
 10
831.58264234636113
 20
-1499.7325920151334
 30
0.0
 41
1.0
 10
831.58158822168662
 20
-1499.7309725203704
 30
0.0
 41
1.0
 10
831.58053409701199
 20
-1499.7293530256077
 30
0.0
 41
1.0
 10
831.54657292230559
 20
-1499.6771770867419
 30
0.0
 41
0.9986467172834449
 10
831.5073757696689
 20
-1499.6288110531136
 30
0.0
 41
1.0
 10
831.50650164096862
 20
-1499.627732450836
 30
0.0
 41
1.0
 10
831.50562751226835
 20
-1499.6266538485581
 30
0.0
 41
1.0
 10
831.46817861703198
 20
-1499.5804450194844
 30
0.0
 41
0.9984001104267966
 10
831.42575188651426
 20
-1499.538759912115
 30
0.0
 41
1.0
 10
831.42516474840465
 20
-1499.5381830372335
 30
0.0
 41
1.0
 10
831.42457761029505
 20
-1499.5376061623519
 30
0.0
 41
1.0
 10
831.38332515599677
 20
-1499.497074804746
 30
0.0
 41
0.9982442159083805
 10
831.33756905466157
 20
-1499.4617062434861
 30
0.0
 41
1.0
 10
831.33735425919986
 20
-1499.4615402108429
 30
0.0
 41
1.0
 10
831.33713946373825
 20
-1499.4613741781998
 30
0.0
 41
1.0
 10
831.29181295332569
 20
-1499.4263376822257
 30
0.0
 41
0.9982450060835461
 10
831.24266197425413
 20
-1499.3969058991925
 30
0.0
 41
1.0
 10
831.19351099518235
 20
-1499.3674741161587
 30
0.0
 41
0.998392263963432
 10
831.14134468901636
 20
-1499.3437944815041
 30
0.0
 41
1.0
 10
831.14111781169254
 20
-1499.343691496023
 30
0.0
 41
1.0
 10
831.1408909343686
 20
-1499.3435885105418
 30
0.0
 41
1.0
 10
831.08827087355508
 20
-1499.319702904925
 30
0.0
 41
0.9986517147149976
 10
831.03345790068715
 20
-1499.3014017858034
 30
0.0
 41
1.0
 10
831.0327799792592
 20
-1499.3011754393719
 30
0.0
 41
1.0
 10
831.03210205783125
 20
-1499.3009490929403
 30
0.0
 41
1.0
 10
830.97593324210698
 20
-1499.2821952809554
 30
0.0
 41
0.9989435598956253
 10
830.91827985495513
 20
-1499.2686775787208
 30
0.0
 41
1.0
 10
830.91719973537397
 20
-1499.268424328468
 30
0.0
 41
1.0
 10
830.9161196157927
 20
-1499.2681710782151
 30
0.0
 41
1.0
 10
830.85630598947785
 20
-1499.2541468754746
 30
0.0
 41
0.9992249241239898
 10
830.79557448058017
 20
-1499.2448715327594
 30
0.0
 41
1.0
 10
830.7941607922894
 20
-1499.2446556243517
 30
0.0
 41
1.0
 10
830.79274710399852
 20
-1499.2444397159438
 30
0.0
 41
1.0
 10
830.72918821852102
 20
-1499.2347325564131
 30
0.0
 41
0.9994396597834356
 10
830.66512228198553
 20
-1499.2292996340673
 30
0.0
 41
1.0
 10
830.64598161450601
 20
-1499.2276764663484
 30
0.0
 41
1.0
 10
830.62684094702649
 20
-1499.2260532986297
 30
0.0
 41
1.0
 10
830.52449367553447
 20
-1499.2173740408468
 30
0.0
 41
0.9987693403121765
 10
830.42179005194805
 20
-1499.2188771042995
 30
0.0
 41
1.0
 10
830.41153571771792
 20
-1499.2190271760737
 30
0.0
 41
1.0
 10
830.4012813834878
 20
-1499.2191772478482
 30
0.0
 41
1.0
 10
830.29172561731116
 20
-1499.2207805921353
 30
0.0
 41
0.9989753644965425
 10
830.18276361729704
 20
-1499.2322835990603
 30
0.0
 41
1.0
 10
830.07380161727997
 20
-1499.2437866059856
 30
0.0
 41
0.9983190067305895
 10
829.96690280631412
 20
-1499.2678215977728
 30
0.0
 41
1.0
 10
829.95800185470807
 20
-1499.2698228763352
 30
0.0
 41
1.0
 10
829.94910090310213
 20
-1499.2718241548978
 30
0.0
 41
1.0
 10
829.82440018892407
 20
-1499.2998617038097
 30
0.0
 41
0.998553938830303
 10
829.7034304352461
 20
-1499.3411253798554
 30
0.0
 41
1.0
 10
829.70108500428569
 20
-1499.3419254236712
 30
0.0
 41
1.0
 10
829.69873957332516
 20
-1499.3427254674871
 30
0.0
 41
1.0
 10
829.57307895772624
 20
-1499.3855892311647
 30
0.0
 41
0.9988468746493933
 10
829.45210861542569
 20
-1499.4403073162271
 30
0.0
 41
1.0
 10
829.4489257934373
 20
-1499.4417469907869
 30
0.0
 41
1.0
 10
829.44574297144891
 20
-1499.4431866653467
 30
0.0
 41
1.0
 10
829.31840698517328
 20
-1499.5007840995281
 30
0.0
 41
0.9991322885919609
 10
829.19630640111666
 20
-1499.5687794317093
 30
0.0
 41
1.0
 10
829.17870439007152
 20
-1499.5785816336997
 30
0.0
 41
1.0
 10
829.16110237902649
 20
-1499.5883838356904
 30
0.0
 41
1.0
 10
829.05892569797027
 20
-1499.6452839514707
 30
0.0
 41
0.999386003784967
 10
828.96098469389597
 20
-1499.7091999670597
 30
0.0
 41
1.0
 10
828.95536638103658
 20
-1499.7128664617592
 30
0.0
 41
1.0
 10
828.94974806817731
 20
-1499.7165329564587
 30
0.0
 41
1.0
 10
828.86304368981553
 20
-1499.7731159826528
 30
0.0
 41
0.9998821494951737
 10
828.77811731400971
 20
-1499.8323342127251
 30
0.0
 41
1.0
 10
828.69319093820252
 20
-1499.8915524427978
 30
0.0
 41
0.9997976482744845
 10
828.61071530780373
 20
-1499.9541388508355
 30
0.0
 41
1.0
 10
828.59607904299355
 20
-1499.9652455406194
 30
0.0
 41
1.0
 10
828.58144277818349
 20
-1499.9763522304031
 30
0.0
 41
1.0
 10
828.46969461817207
 20
-1500.061152018003
 30
0.0
 41
0.9998091630800355
 10
828.36134434014389
 20
-1500.1502523687047
 30
0.0
 41
1.0
 10
828.34833858766581
 20
-1500.1609474691513
 30
0.0
 41
1.0
 10
828.33533283518773
 20
-1500.1716425695981
 30
0.0
 41
1.0
 10
828.20097105220748
 20
-1500.2821331211899
 30
0.0
 41
0.999503511231749
 10
828.073835174446
 20
-1500.4008669382029
 30
0.0
 41
1.0
 10
828.06418786405607
 20
-1500.4098766843631
 30
0.0
 41
1.0
 10
828.05454055366613
 20
-1500.4188864305236
 30
0.0
 41
1.0
 10
827.93111749090167
 20
-1500.5341528022786
 30
0.0
 41
0.9994630424298771
 10
827.81550908511826
 20
-1500.6572555455132
 30
0.0
 41
1.0
 10
827.81182624634721
 20
-1500.6611771250259
 30
0.0
 41
1.0
 10
827.80814340757615
 20
-1500.6650987045384
 30
0.0
 41
1.0
 10
827.69990067933384
 20
-1500.7803582887489
 30
0.0
 41
0.999516069374969
 10
827.59903464980232
 20
-1500.9021257066211
 30
0.0
 41
1.0
 10
827.59710092972364
 20
-1500.9044601308267
 30
0.0
 41
1.0
 10
827.59516720964496
 20
-1500.9067945550323
 30
0.0
 41
1.0
 10
827.49816862027183
 20
-1501.0238931244917
 30
0.0
 41
0.9996561470514284
 10
827.4074424016045
 20
-1501.1459158869427
 30
0.0
 41
1.0
 10
827.40128473570212
 20
-1501.1541976759856
 30
0.0
 41
1.0
 10
827.39512706979974
 20
-1501.1624794650286
 30
0.0
 41
1.0
 10
827.31671618293626
 20
-1501.2679386493951
 30
0.0
 41
0.9998349055172918
 10
827.24218890100633
 20
-1501.3761772330554
 30
0.0
 41
1.0
 10
827.16766161906889
 20
-1501.4844158167264
 30
0.0
 41
0.9999728109562233
 10
827.09473872315539
 20
-1501.5937417422867
 30
0.0
 41
1.0
 10
827.09342350774796
 20
-1501.5957135117828
 30
0.0
 41
1.0
 10
827.09210829234053
 20
-1501.5976852812789
 30
0.0
 41
1.0
 10
827.01655496561602
 20
-1501.7109547458253
 30
0.0
 41
0.9999972147329197
 10
826.94153715525226
 20
-1501.8245795886457
 30
0.0
 41
1.0
 10
826.93656561262014
 20
-1501.8321096771328
 30
0.0
 41
1.0
 10
826.93159406998814
 20
-1501.8396397656197
 30
0.0
 41
1.0
 10
826.84663317436571
 20
-1501.9683247854057
 30
0.0
 41
0.999937197900569
 10
826.76457782495925
 20
-1502.0988816991867
 30
0.0
 41
1.0
 10
826.76106894060013
 20
-1502.1044646272476
 30
0.0
 41
1.0
 10
826.75756005624112
 20
-1502.1100475553083
 30
0.0
 41
1.0
 10
826.66848693811528
 20
-1502.2517703252124
 30
0.0
 41
0.9998272025609751
 10
826.58474354723535
 20
-1502.3967062019508
 30
0.0
 41
1.0
 10
826.56952837520885
 20
-1502.4230393164116
 30
0.0
 41
1.0
 10
826.55431320318235
 20
-1502.4493724308727
 30
0.0
 41
1.0
 10
826.440139468251
 20
-1502.6469745365305
 30
0.0
 41
0.9995217214838266
 10
826.33839977869434
 20
-1502.8512568643948
 30
0.0
 41
1.0
 10
826.33075621606258
 20
-1502.8666043140913
 30
0.0
 41
1.0
 10
826.32311265343071
 20
-1502.8819517637878
 30
0.0
 41
1.0
 10
826.23620736083797
 20
-1503.0564482218756
 30
0.0
 41
0.9998269762608034
 10
826.15585289456476
 20
-1503.2340565086013
 30
0.0
 41
1.0
 10
826.07549842829235
 20
-1503.4116647953256
 30
0.0
 41
0.9998944747388313
 10
826.00033763372699
 20
-1503.5915325209562
 30
0.0
 41
1.0
 10
825.99538396413777
 20
-1503.6033871758691
 30
0.0
 41
1.0
 10
825.99043029454845
 20
-1503.6152418307822
 30
0.0
 41
1.0
 10
825.90978323399213
 20
-1503.8082387708087
 30
0.0
 41
0.9999506734407461
 10
825.83298570508896
 20
-1504.0027995756641
 30
0.0
 41
1.0
 10
825.81838573981531
 20
-1504.0397874974769
 30
0.0
 41
1.0
 10
825.80378577454167
 20
-1504.07677541929
 30
0.0
 41
1.0
 10
825.75618817618033
 20
-1504.1973603805332
 30
0.0
 41
0.9999912393909604
 10
825.70960173216281
 20
-1504.3183395832161
 30
0.0
 41
1.0
 10
825.6630152881329
 20
-1504.4393187859309
 30
0.0
 41
0.9999927113952383
 10
825.61735399374231
 20
-1504.5606501934244
 30
0.0
 41
1.0
 10
825.6033855623466
 20
-1504.5977671754181
 30
0.0
 41
1.0
 10
825.58941713095078
 20
-1504.6348841574118
 30
0.0
 41
1.0
 10
825.51581897375866
 20
-1504.8304495289181
 30
0.0
 41
0.9999487550949413
 10
825.4461953487853
 20
-1505.0274648941058
 30
0.0
 41
1.0
 10
825.42260173884733
 20
-1505.0942282044018
 30
0.0
 41
1.0
 10
825.39900812890926
 20
-1505.1609915146978
 30
0.0
 41
1.0
 10
825.30432249453952
 20
-1505.4289253495199
 30
0.0
 41
0.9999808436946628
 10
825.21296090590363
 20
-1505.698010780769
 30
0.0
 41
1.0
 10
825.1215993172591
 20
-1505.9670962120424
 30
0.0
 41
0.9999873932924268
 10
825.03294460854465
 20
-1506.2370855670451
 30
0.0
 41
1.0
 10
825.01285225167499
 20
-1506.2982748997988
 30
0.0
 41
1.0
 10
824.99275989480543
 20
-1506.3594642325527
 30
0.0
 41
1.0
 10
824.86392047234335
 20
-1506.7518322530882
 30
0.0
 41
0.9999794883030684
 10
824.7401176873833
 20
-1507.1458184593721
 30
0.0
 41
1.0
 10
824.72896542797218
 20
-1507.1813090695252
 30
0.0
 41
1.0
 10
824.71781316856107
 20
-1507.2167996796784
 30
0.0
 41
1.0
 10
824.57525500465226
 20
-1507.6704724318013
 30
0.0
 41
0.9999982761836297
 10
824.43438256460286
 20
-1508.124671454033
 30
0.0
 41
1.0
 10
822.84624223203025
 20
-1513.1734411850362
 30
0.0
 41
1.0
 10
821.25810189945764
 20
-1518.2222109160396
 30
0.0
 41
1.0
 10
820.30935128798126
 20
-1518.2222109160396
 30
0.0
 41
1.0
 10
819.36060067650487
 20
-1518.2222109160396
 30
0.0
 41
1.0
 10
822.59888516265801
 20
-1507.8948887160934
 30
0.0
 41
1.0
 10
825.83716964881125
 20
-1497.5675665161473
 30
0.0
 41
1.0
  0
LWPOLYLINE
  5
5D
100
AcDbEntity
  8
0
370
              15
390
0
  6
Continuous
 62
               7
100
AcDbPolyline
 90
      232
 70
             128
 10
800.13362387498421
 20
-1498.6519093476625
 42
0.000437080068799
 10
800.08074670087615
 20
-1498.7205759869653
 10
800.04146246978473
 20
-1498.7716830998152
 42
0.0030481992169684
 10
799.9111237526688
 20
-1498.9434047921552
 10
799.87261208091513
 20
-1498.9947915759476
 42
0.0042058245759578
 10
799.66862703022969
 20
-1499.2717973210429
 10
799.6162219077446
 20
-1499.3442301678019
 42
0.0120948898743158
 10
799.32017799098514
 20
-1499.7749797723482
 10
799.22398549186221
 20
-1499.9224605075744
 42
0.0141601263947371
 10
798.92034144493925
 20
-1500.4181298443114
 10
798.88080417750155
 20
-1500.4869738117636
 42
0.0071131081304725
 10
798.67553185427482
 20
-1500.8564766105812
 42
0.006845879100143
 10
798.48065232743534
 20
-1501.2315681740502
 10
798.47384046497405
 20
-1501.2451298877809
 42
0.0064120880289851
 10
798.2756982149325
 20
-1501.652554362694
 10
798.26816352941273
 20
-1501.6685662194211
 42
0.0058857236449556
 10
798.06540813754157
 20
-1502.1129423304549
 10
798.05723321124708
 20
-1502.1314324840901
 42
0.0053189741892308
 10
797.84852889858291
 20
-1502.6173959579999
 10
797.83978109289819
 20
-1502.6383778362042
 42
0.0047503650419544
 10
797.62380736674334
 20
-1503.1705772694243
 10
797.61453911839931
 20
-1503.1940536455218
 42
0.0042071762172726
 10
797.38999173466493
 20
-1503.7771472396091
 10
797.38024233232295
 20
-1503.8031134144612
 42
0.0036680086485753
 10
797.14578768900719
 20
-1504.4417487990024
 10
797.13557990916308
 20
-1504.4701973333367
 42
0.0032573142627274
 10
796.88994762320056
 20
-1505.1690499930783
 10
796.82129710235256
 20
-1505.3685130771523
 42
0.0026133366650811
 10
796.47285190359776
 20
-1506.3983763608151
 10
796.40959511609458
 20
-1506.5886071962157
 42
0.0020592950740137
 10
796.19573204712992
 20
-1507.2407108488212
 10
796.19268025597239
 20
-1507.2501473372138
 42
0.0025609928531733
 10
795.99085975448099
 20
-1507.8852925595968
 10
795.98826838734738
 20
-1507.8935949005595
 42
0.0031362356241646
 10
795.79877760167733
 20
-1508.5143577567169
 10
795.79664655874876
 20
-1508.5214990629318
 42
0.0037229918028781
 10
795.61984617182361
 20
-1509.1304843649023
 10
795.61816758261796
 20
-1509.1364312550741
 42
0.0043077623706026
 10
795.45442678055213
 20
-1509.7362499868455
 42
0.004765416182484
 10
795.30159805803328
 20
-1510.3389360757596
 10
795.26713344919699
 20
-1510.4804978528978
 42
0.0112969368444575
 10
795.07126909105364
 20
-1511.372190013521
 10
795.04326270195679
 20
-1511.5150180596197
 42
0.0130056762572028
 10
794.84242545831012
 20
-1512.7019591312646
 10
794.82188570816311
 20
-1512.846037244741
 42
0.0138721532144315
 10
794.71818270362519
 20
-1513.7528667305673
 10
794.69888721571829
 20
-1513.976364452481
 42
0.0071254697007102
 10
794.66554056979476
 20
-1514.4395514613398
 10
794.66057959563227
 20
-1514.5255554558853
 42
0.0028881799203774
 10
794.64544130234162
 20
-1514.8172971657423
 42
0.00602972971383
 10
794.63550910256572
 20
-1515.1092461018732
 10
794.63444682089892
 20
-1515.1576384737893
 42
0.0229523164155406
 10
794.6421778486847
 20
-1515.4803933200737
 10
794.6464036222053
 20
-1515.5407968540928
 42
0.0123673300674771
 10
794.66548226872339
 20
-1515.7419175792647
 42
0.0128577674470349
 10
794.69467765912975
 20
-1515.9418154291918
 10
794.70180353251669
 20
-1515.9831442437885
 42
0.0285717853763963
 10
794.76629753421264
 20
-1516.2612603951029
 10
794.77996605787871
 20
-1516.3079151645786
 42
0.0316283099158107
 10
794.89577663779301
 20
-1516.626929666405
 10
794.89882532954812
 20
-1516.6339160387297
 42
0.0338984824236027
 10
795.04825704051575
 20
-1516.9214820029197
 10
795.05056576988557
 20
-1516.9252730321955
 42
0.0350228718355001
 10
795.23292606055918
 20
-1517.1823250168725
 10
795.23381131233452
 20
-1517.1834040946369
 42
0.0347476747529758
 10
795.44823599957431
 20
-1517.4105891418567
 42
0.0331337701910797
 10
795.69147932532132
 20
-1517.6067178039343
 10
795.69257942383683
 20
-1517.6074905071064
 42
0.0305233319079928
 10
795.96112411941044
 20
-1517.7726186771981
 10
795.96435416391137
 20
-1517.7743426890606
 42
0.0273744481155438
 10
796.2569078754882
 20
-1517.9104808329519
 10
796.26201241062324
 20
-1517.9125244174206
 42
0.0240964406195145
 10
796.57748948626602
 20
-1518.0215081437011
 10
796.58407281547898
 20
-1518.0234328833772
 42
0.0209636179810325
 10
796.92147296813118
 20
-1518.106901031309
 10
796.92910542858021
 20
-1518.1084529443106
 42
0.0181388704694854
 10
797.28742782058271
 20
-1518.167869037525
 10
797.29570866895688
 20
-1518.1689352213416
 42
0.015608654758387
 10
797.67389603314166
 20
-1518.2056714079181
 10
797.71709128547684
 20
-1518.2085099103974
 42
0.0137148329023238
 10
798.04476443077158
 20
-1518.2210301656487
 10
798.09070062070657
 20
-1518.2215245987638
 42
0.0051057823884069
 10
798.3268462072898
 20
-1518.2216548531728
 42
0.0052256693315935
 10
798.562943491076
 20
-1518.2169060287085
 10
798.63317027481787
 20
-1518.2147590626946
 42
0.0161507179047407
 10
799.00890735291671
 20
-1518.1911086923683
 10
799.02892031329225
 20
-1518.1891984970805
 42
0.0101216737834304
 10
799.442947534788
 20
-1518.1412055667142
 10
799.47700082420965
 20
-1518.1365578699053
 42
0.0245291776397545
 10
799.95379047976053
 20
-1518.0474827918292
 10
800.03861379528394
 20
-1518.0272868714835
 42
0.0143509212555939
 10
800.39524489922439
 20
-1517.9314822377046
 42
0.0156557857035073
 10
800.74546096395386
 20
-1517.8144710218851
 10
800.7529621784463
 20
-1517.8117008601316
 42
0.0170137333627626
 10
801.10955817412662
 20
-1517.6660432452609
 10
801.11666209653515
 20
-1517.6628554096967
 42
0.0183105364413152
 10
801.47601176470164
 20
-1517.4855203678721
 10
801.48295852934018
 20
-1517.4817699330001
 42
0.0194899958154003
 10
801.84143927032267
 20
-1517.2697909511103
 10
801.84845314966083
 20
-1517.2652656088144
 42
0.0204869852953237
 10
802.20246745175484
 20
-1517.0157455937285
 10
802.20973306034182
 20
-1517.0101655283802
 42
0.0212516938561582
 10
802.55572299145422
 20
-1516.7202615314816
 10
802.60223968552179
 20
-1516.6777942213955
 42
0.021524891824715
 10
802.86226585441318
 20
-1516.4190299423976
 10
802.90729558879173
 20
-1516.37018582105
 42
0.011457855495125
 10
803.06208774247102
 20
-1516.1943628875893
 10
803.07328227844619
 20
-1516.1810441240575
 42
0.0061531305126114
 10
803.19975692445212
 20
-1516.0267545907382
 42
0.0006325587126333
 10
803.32413540867105
 20
-1515.8707512149779
 10
803.34717554365534
 20
-1515.8417776944032
 42
0.0041897761555896
 10
803.51563094762901
 20
-1515.6262583183402
 10
803.57409306752027
 20
-1515.550156971356
 42
0.0092993880039604
 10
803.85070499474489
 20
-1515.175878207471
 10
803.93309948794251
 20
-1515.0599412039041
 42
0.0159321727086174
 10
804.27970597058527
 20
-1514.5377669831475
 10
804.32406210598162
 20
-1514.4660874188858
 42
0.0085547317023647
 10
804.55857387130004
 20
-1514.0722124696729
 42
0.0084601156893554
 10
804.77955004874764
 20
-1513.6705856206304
 10
804.78766552257252
 20
-1513.6552259383677
 42
0.0081429654284498
 10
805.01091479300567
 20
-1513.2155044258357
 10
805.01977495719404
 20
-1513.1973255838075
 42
0.0076574581326665
 10
805.24618246776151
 20
-1512.7141427085533
 10
805.25566210848444
 20
-1512.6930782302516
 42
0.0070682724199255
 10
805.48610701629138
 20
-1512.1610409254699
 10
805.49609730027294
 20
-1512.1370517364585
 42
0.0064559514447759
 10
805.73143050845511
 20
-1511.5507394699384
 10
805.74183986661956
 20
-1511.5238045444976
 42
0.0058311413908945
 10
805.98288660338324
 20
-1510.8777724501113
 10
805.99364168076988
 20
-1510.8478881089532
 42
0.0052312425819548
 10
806.24122295881148
 20
-1510.1366856951167
 10
806.25226679519051
 20
-1510.1038589830491
 42
0.0046680544794641
 10
806.50719522292104
 20
-1509.322032667307
 10
806.54918737297146
 20
-1509.189049429993
 42
0.0041666856444124
 10
806.7524733853636
 20
-1508.5260806549966
 10
806.79013582602522
 20
-1508.3994995473502
 42
0.0015170975154164
 10
806.9113224044404
 20
-1507.9876311958492
 42
-0.0004887993115324
 10
807.03166217759667
 20
-1507.5755127836942
 10
807.10813943505855
 20
-1507.3145553978661
 42
0.0002583378927851
 10
807.38135400505098
 20
-1506.3804986949331
 10
807.46312685466216
 20
-1506.100399435232
 42
0.0006636169673093
 10
807.65699461471081
 20
-1505.433046511517
 10
807.66209126905494
 20
-1505.4154149286469
 42
0.0010589131322279
 10
807.84353996997447
 20
-1504.7826835855881
 10
807.84852204046058
 20
-1504.7651706785484
 42
0.0015655524460508
 10
808.0167922476378
 20
-1504.1665539993671
 10
808.02162244804765
 20
-1504.1491618404498
 42
0.0021640440476292
 10
808.17591242003869
 20
-1503.584134822413
 10
808.18054663946589
 20
-1503.5668700924293
 42
0.002876387185111
 10
808.32006235752169
 20
-1503.0349021415723
 10
808.32444822169407
 20
-1503.0177781633975
 42
0.0037310511945807
 10
808.44840491352579
 20
-1502.518330569394
 10
808.45248013381433
 20
-1502.5013702981505
 42
0.0047652197768595
 10
808.56010403432322
 20
-1502.0338925298433
 10
808.56379463364931
 20
-1502.0171329746809
 42
0.0060276699307641
 10
808.65432473280021
 20
-1501.5810571795491
 10
808.65754342308765
 20
-1501.5645559652489
 42
0.00758243377531
 10
808.73023273250487
 20
-1501.1592888008138
 10
808.73287810988677
 20
-1501.1431338533532
 42
0.0095130624607946
 10
808.78699334551629
 20
-1500.7680445002916
 10
808.79397956939943
 20
-1500.7121109421705
 42
0.0121054653232747
 10
808.82057089997681
 20
-1500.4472151137011
 10
808.82143738973548
 20
-1500.435811670784
 42
0.0069050827387816
 10
808.83652620777411
 20
-1500.1928704439279
 10
808.8376615074427
 20
-1500.1693441868804
 42
0.0169063976705369
 10
808.84048878642284
 20
-1499.9731514595824
 10
808.83931813489164
 20
-1499.9128156982324
 42
0.0052007732890511
 10
808.83706468629862
 20
-1499.837222308081
 42
0.0054038123300231
 10
808.81710117445914
 20
-1499.7172040120677
 10
808.81201531858937
 20
-1499.6885455254899
 42
0.0112050460469906
 10
808.77663095653111
 20
-1499.5122190871525
 10
808.7588059944901
 20
-1499.4326775004301
 42
0.0240764468009326
 10
808.66790862834432
 20
-1499.1024404649299
 10
808.64934986553044
 20
-1499.0458202999346
 42
0.0256812331835221
 10
808.50598694534096
 20
-1498.6740960936777
 10
808.5005775195192
 20
-1498.6619647586872
 42
0.0268360501217945
 10
808.33115027866972
 20
-1498.330971624667
 10
808.32561387103533
 20
-1498.3214519543558
 42
0.027467023172392
 10
808.13341289462142
 20
-1498.0291645794373
 10
808.12803159465818
 20
-1498.021885431895
 42
0.0275035967100903
 10
807.91645871509695
 20
-1497.766369541592
 10
807.91138921413051
 20
-1497.7608904539616
 42
0.026955767352391
 10
807.68398567069084
 20
-1497.5402481679994
 10
807.6792426129083
 20
-1497.5361182135387
 42
0.0259124802209501
 10
807.43968778147746
 20
-1497.348427686386
 10
807.43515693629524
 20
-1497.3452421840555
 42
0.0245162153005278
 10
807.18724058320072
 20
-1497.1885091749455
 10
807.18271403687527
 20
-1497.1859489777439
 42
0.0229282588840492
 10
806.93029448004916
 20
-1497.0580807852457
 10
806.92551398621242
 20
-1497.0559284854837
 42
0.0212984135701176
 10
806.67247603375063
 20
-1496.9547295682414
 10
806.66717174878374
 20
-1496.9528660054823
 42
0.0197555462344421
 10
806.41739341105813
 20
-1496.8760505875166
 42
0.018351189678837
 10
806.1624646855978
 20
-1496.8184676805515
 10
806.07609948887182
 20
-1496.802264890166
 42
0.0338057877146925
 10
805.7905921396117
 20
-1496.7684564850256
 10
805.69958673456188
 20
-1496.7638768297638
 42
0.0091990524500142
 10
805.59373962593577
 20
-1496.7605009738422
 42
0.0028333980786838
 10
805.48782570994695
 20
-1496.7596728663257
 10
805.48691025689345
 20
-1496.7596708965016
 42
-0.0023619827794228
 10
805.37916424176785
 20
-1496.7589300554228
 10
805.34275907161168
 20
-1496.7585077489598
 42
0.0008824598473425
 10
805.16220308183085
 20
-1496.7567319707223
 10
805.1183416493559
 20
-1496.7563780091959
 42
0.0038132665768329
 10
804.85005875346053
 20
-1496.7562590731295
 10
804.83352509868359
 20
-1496.756377839273
 42
0.0060665569333864
 10
804.53224460710419
 20
-1496.7621981386935
 10
804.51799427506694
 20
-1496.7626464466614
 42
0.0080356953337828
 10
804.18853555872067
 20
-1496.7783141687287
 10
804.17646554364046
 20
-1496.7790827516687
 42
0.0098996399106815
 10
803.82370245898801
 20
-1496.8085679808671
 10
803.81365674961489
 20
-1496.8096082770651
 42
0.0117740981367639
 10
803.44249989126797
 20
-1496.8569005245947
 10
803.43427719478359
 20
-1496.8581456411657
 42
0.0137435215138461
 10
803.04968837529589
 20
-1496.9272426147281
 10
803.04303133617509
 20
-1496.9286285109611
 42
0.0158359869386839
 10
802.65003424237295
 20
-1497.0235205994416
 10
802.64462105550547
 20
-1497.0250105403122
 42
0.0180554124027534
 10
802.2483060108957
 20
-1497.1496485565501
 10
802.2437492228097
 20
-1497.1512645928174
 42
0.0203657431285034
 10
801.84927170499611
 20
-1497.3095249343339
 10
801.84512816599101
 20
-1497.3113865557748
 42
0.0226819684654983
 10
801.45769210978801
 20
-1497.5070291344457
 10
801.45349231876924
 20
-1497.5093947263658
 42
0.0248634984609265
 10
801.07831037758353
 20
-1497.7460213723159
 10
801.03011544880076
 20
-1497.779878414141
 42
0.0267044190893086
 10
800.75582275188754
 20
-1497.9953187900069
 42
0.0139303002203054
 10
800.49965558594079
 20
-1498.2325576309265
 10
800.49480220022781
 20
-1498.2373102937788
 42
0.028346096344342
 10
800.2507296060005
 20
-1498.5050409542239
 10
800.21106110084406
 20
-1498.553842531697
 42
0.0070695364819118
 10
800.13362387498421
 20
-1498.6519093476625
 42
0.0070695364819118
  0
LWPOLYLINE
  5
5E
100
AcDbEntity
  8
0
370
              15
390
0
  6
Continuous
 62
               7
100
AcDbPolyline
 90
      226
 70
             128
 10
796.60480343773781
 20
-1514.3734981538464
 42
-0.0026277636632487
 10
796.60472555393778
 20
-1514.3067262281158
 10
796.6049429121698
 20
-1514.2535710106604
 42
-0.008868029672775
 10
796.60871952846287
 20
-1514.0805552282543
 10
796.61106588757525
 20
-1514.0212752028037
 42
-0.007738170561902
 10
796.62711199833814
 20
-1513.7300147070102
 10
796.62797990951151
 20
-1513.7177264733205
 42
-0.0068872530526161
 10
796.65461198926016
 20
-1513.4025047212456
 10
796.65581621344575
 20
-1513.3902637422325
 42
-0.0062130021487599
 10
796.69340993027367
 20
-1513.0513940509927
 10
796.69491383380864
 20
-1513.0392201790776
 42
-0.0056726929668188
 10
796.74383569331019
 20
-1512.6770249569699
 10
796.74560913895539
 20
-1512.6649311567189
 42
-0.0052341884495551
 10
796.8062197252159
 20
-1512.2797379011972
 10
796.80823771399196
 20
-1512.2677329712085
 42
-0.0049768450164338
 10
796.88097639541786
 20
-1511.8598884037785
 10
796.90522541014013
 20
-1511.7313404207698
 42
-0.0089029805626272
 10
797.04230626193407
 20
-1511.0695649733511
 10
797.07505163725341
 20
-1510.9245335428241
 42
-0.0080318257101217
 10
797.3046002515913
 20
-1509.9788239109814
 10
797.31658517804237
 20
-1509.9326932757804
 42
-0.007426572132031
 10
797.60059671689021
 20
-1508.902628697407
 10
797.6204762600081
 20
-1508.8344946368136
 42
-0.0069711922701877
 10
797.94778083851565
 20
-1507.7682268964822
 10
798.00773278562258
 20
-1507.5822055381072
 42
-0.0052070422892358
 10
798.23715801088042
 20
-1506.8949334610804
 10
798.25443920302098
 20
-1506.8449061805547
 42
-0.0009167004449907
 10
798.45753109034217
 20
-1506.2604503323091
 42
-0.0025162726945337
 10
798.66462872060345
 20
-1505.6774090681502
 10
798.70185333241261
 20
-1505.5742595222343
 42
-0.0028212681457041
 10
798.95002925137328
 20
-1504.8985288900703
 10
798.95986001412859
 20
-1504.8722214453812
 42
-0.0031964916823738
 10
799.19615227178622
 20
-1504.2520166832664
 10
799.20578672577835
 20
-1504.2272066931407
 42
-0.003628183645317
 10
799.43089268688641
 20
-1503.6597660122302
 10
799.44033109705049
 20
-1503.6364685807112
 42
-0.0041269166830277
 10
799.65494879370306
 20
-1503.119027684749
 10
799.68758175011794
 20
-1503.0421492384016
 42
-0.0047472213057909
 10
799.84462655567745
 20
-1502.6817277705045
 10
799.85152063688463
 20
-1502.6663071731748
 42
-0.0025651659994936
 10
799.99987867073582
 20
-1502.3389791174241
 42
-0.0057144634989182
 10
800.15362836450993
 20
-1502.0141694440558
 10
800.18165906990714
 20
-1501.9566610616698
 42
-0.0065388068374136
 10
800.36512609764816
 20
-1501.5924285650024
 10
800.37358455342905
 20
-1501.5761689856283
 42
-0.0074510843020419
 10
800.54976679930451
 20
-1501.24948070451
 10
800.55794646983179
 20
-1501.2348399272478
 42
-0.0084648979856452
 10
800.72758032293564
 20
-1500.9429309162801
 10
800.7354364494231
 20
-1500.9299239246302
 42
-0.0095638542800703
 10
800.89927189701791
 20
-1500.6700350526507
 10
800.90674684069256
 20
-1500.6586656911909
 42
-0.0107191626806656
 10
801.06554842107721
 20
-1500.4280544566514
 10
801.0725651548089
 20
-1500.4183183642858
 42
-0.0118458573903787
 10
801.22711325332079
 20
-1500.2142461689759
 42
-0.0129184518188796
 10
801.39156587692332
 20
-1500.0180856528043
 10
801.42171064928664
 20
-1499.9839595739045
 42
-0.0217742579632881
 10
801.59832297162075
 20
-1499.800752803656
 10
801.60906851606956
 20
-1499.7905359704641
 42
-0.0097266568659376
 10
801.77512613493695
 20
-1499.6386883960156
 42
-0.0187720905724615
 10
801.94947371082321
 20
-1499.4966195426291
 10
801.98017970149795
 20
-1499.4734604602322
 42
-0.0179428207520828
 10
802.21260042149675
 20
-1499.3109082831186
 10
802.21625274841119
 20
-1499.3085443482316
 42
-0.0170047877695016
 10
802.4520163859429
 20
-1499.1670838340792
 10
802.45579937468983
 20
-1499.1649855290427
 42
-0.0160190788363251
 10
802.69270792232476
 20
-1499.0433342270549
 42
-0.015110286149533
 10
802.93673970476914
 20
-1498.9366514510014
 10
802.9891262069832
 20
-1498.9156113181057
 42
-0.0271945441887031
 10
803.34778876604321
 20
-1498.7937465073992
 10
803.41685356652886
 20
-1498.7743969661335
 42
-0.0237596594023593
 10
803.83265041355207
 20
-1498.6789462541519
 10
803.90071326728116
 20
-1498.6666915660253
 42
-0.021371544055457
 10
804.1865881987278
 20
-1498.6277445345152
 10
804.24673536493628
 20
-1498.622154819815
 42
-0.0101465655825217
 10
804.41422789693991
 20
-1498.6100112765503
 10
804.42356828314485
 20
-1498.6095243615525
 42
-0.0100375910875215
 10
804.57272238370069
 20
-1498.6047485436277
 10
804.58298165337283
 20
-1498.6046261046133
 42
-0.010362563338599
 10
804.71168964803587
 20
-1498.6057575381399
 10
804.73395529930542
 20
-1498.6064148966047
 42
-0.0115689250231575
 10
804.81800603683075
 20
-1498.61084440285
 42
-0.0072438037429115
 10
804.90184431627881
 20
-1498.6184336026001
 10
804.91864482574272
 20
-1498.6202001453235
 42
-0.0217917313136314
 10
805.03521458905561
 20
-1498.6376200380444
 10
805.10081467962743
 20
-1498.6503666464596
 42
-0.0332943556747918
 10
805.30520684465137
 20
-1498.7044069377662
 10
805.33537941319844
 20
-1498.7145750148836
 42
-0.0184824084810055
 10
805.47388446966693
 20
-1498.7670260302712
 42
-0.0198002050700658
 10
805.6079588101627
 20
-1498.8299100904685
 10
805.60984544754319
 20
-1498.8308878773503
 42
-0.0212242342976484
 10
805.74198438994449
 20
-1498.9066506161428
 10
805.74379968548851
 20
-1498.9077964183516
 42
-0.0226090605787612
 10
805.8723035867115
 20
-1498.9972760619171
 10
805.87414802844773
 20
-1498.9986883149036
 42
-0.0238457052230061
 10
805.99733010974057
 20
-1499.1026842107658
 10
805.99928283829968
 20
-1499.1044990885321
 42
-0.0248160564146587
 10
806.11548434559995
 20
-1499.2237736897405
 10
806.11758797900234
 20
-1499.2261590234452
 42
-0.0254109591447568
 10
806.22519319686899
 20
-1499.3614474094104
 10
806.22744121878236
 20
-1499.3645889578102
 42
-0.025552848828205
 10
806.32488789757895
 20
-1499.5166160120434
 10
806.32721899749572
 20
-1499.5206976236523
 42
-0.0252146793220043
 10
806.41300002350499
 20
-1499.6901998696494
 10
806.41530226266241
 20
-1499.695381951562
 42
-0.0244265635949631
 10
806.48795695642389
 20
-1499.8831285236085
 10
806.4972033578922
 20
-1499.9109939419461
 42
-0.0231319612891545
 10
806.54312613688433
 20
-1500.0742949887481
 42
-0.0112130424362611
 10
806.57776215942283
 20
-1500.2404985889375
 10
806.57896468453509
 20
-1500.2469951758239
 42
-0.0210527881240582
 10
806.60465115990587
 20
-1500.4280508212655
 10
806.60816175472769
 20
-1500.4634563698125
 42
-0.0190029892424853
 10
806.62360322827226
 20
-1500.7169922160847
 10
806.62441320471635
 20
-1500.752467830454
 42
-0.0137974553667794
 10
806.62286435188116
 20
-1501.0774992371739
 10
806.62201889692528
 20
-1501.1036179817802
 42
-0.0081336634214543
 10
806.6071595617027
 20
-1501.4089654493794
 42
-0.0073526923572366
 10
806.58285102832883
 20
-1501.7137136936574
 10
806.58158960454534
 20
-1501.7270503683305
 42
-0.0066886138690303
 10
806.54585401849829
 20
-1502.0576364118322
 10
806.54419692902889
 20
-1502.0712580308191
 42
-0.0061359187354239
 10
806.49634632697848
 20
-1502.4280220109156
 10
806.49430882590514
 20
-1502.4419168137483
 42
-0.0056698610071393
 10
806.43365849513964
 20
-1502.8251953825777
 10
806.43125306181514
 20
-1502.8393545018171
 42
-0.0052721077272008
 10
806.35712086101671
 20
-1503.2494818414884
 10
806.35435771217374
 20
-1503.263898476881
 42
-0.0049289272179403
 10
806.26606359407594
 20
-1503.7012069879929
 10
806.2629510993911
 20
-1503.7158758408193
 42
-0.0047415956708381
 10
806.15971310785869
 20
-1504.1806725982303
 10
806.12494489749906
 20
-1504.3304796936131
 42
-0.0084404470902582
 10
805.93492845392757
 20
-1505.0907037181432
 10
805.92880176594156
 20
-1505.1135678422977
 42
-0.0039635940257274
 10
805.70734808165901
 20
-1505.91455670654
 10
805.69397128647802
 20
-1505.961488323137
 42
-0.0072475040837452
 10
805.42652439861695
 20
-1506.8507080395207
 10
805.35631207178824
 20
-1507.0724483894969
 42
-0.0051345458827099
 10
805.06955269972866
 20
-1507.9467735773103
 10
805.0480264329492
 20
-1508.0101998444757
 42
-0.0019150016600584
 10
804.79249302609446
 20
-1508.7537489646663
 10
804.7860254217012
 20
-1508.7723364295791
 42
-0.0021524362752688
 10
804.53754737063446
 20
-1509.4766622512957
 10
804.52833694994706
 20
-1509.5024158295719
 42
-0.002433128681953
 10
804.29208169090202
 20
-1510.1530151377156
 10
804.28303373834945
 20
-1510.1775584440754
 42
-0.0027449721785745
 10
804.05841916751604
 20
-1510.7766883229942
 10
804.04952916012678
 20
-1510.8000109128386
 42
-0.0031083229768132
 10
803.83598667351384
 20
-1511.3499349504261
 10
803.8272505418322
 20
-1511.3720246662995
 42
-0.0035311343280478
 10
803.62420935624641
 20
-1511.875007792014
 10
803.61562401710205
 20
-1511.8958505155163
 42
-0.0040245640950808
 10
803.42251221330434
 20
-1512.3541598381166
 10
803.41407609969906
 20
-1512.3737392061939
 42
-0.0046015135850286
 10
803.23031980653752
 20
-1512.789644235831
 10
803.22203362871312
 20
-1512.8079413752746
 42
-0.0052768638272866
 10
803.04705610975361
 20
-1513.1837142595534
 10
803.03892389912721
 20
-1513.2007075980955
 42
-0.0060672675643781
 10
802.87214428636071
 20
-1513.5386232212109
 10
802.86417480588545
 20
-1513.554288480196
 42
-0.0069904648872169
 10
802.70500641187778
 20
-1513.8566242868719
 10
802.69721501227457
 20
-1513.8709348360853
 42
-0.0080637022766553
 10
802.54506315192111
 20
-1514.1399701392522
 10
802.53747411928885
 20
-1514.1528980048547
 42
-0.0093006455661871
 10
802.39173344275832
 20
-1514.3909124033562
 10
802.3843827760146
 20
-1514.4024303725294
 42
-0.0107060778047081
 10
802.24443423257617
 20
-1514.6117006899083
 10
802.23737246428971
 20
-1514.6217862324841
 42
-0.0122723111401304
 10
802.10257874609852
 20
-1514.8045795619632
 10
802.10225252254611
 20
-1514.8049999497707
 42
-0.0141836319630576
 10
801.9586709195703
 20
-1514.9795697076024
 10
801.9517231639245
 20
-1514.98754470786
 42
-0.017595747721498
 10
801.81181699588365
 20
-1515.1371655962719
 42
-0.0080466359680415
 10
801.66435323085329
 20
-1515.2794881244231
 10
801.61831868633601
 20
-1515.3225085625143
 42
-0.0269600260392877
 10
801.36503844035212
 20
-1515.5348318210242
 10
801.29847130405244
 20
-1515.5847832356501
 42
-0.0178362839749311
 10
801.05852681440024
 20
-1515.7518011618997
 10
801.05128184340367
 20
-1515.7564696741022
 42
-0.0174650732653622
 10
800.81494564595846
 20
-1515.8973306390637
 42
-0.0169240130164284
 10
800.56947940009843
 20
-1516.0216228988422
 10
800.52349324454303
 20
-1516.0429848544084
 42
-0.0318883036839453
 10
800.17314238892243
 20
-1516.1793231639188
 10
800.10477685375872
 20
-1516.2010237843938
 42
-0.0284435909900261
 10
799.72872672746723
 20
-1516.2972412198687
 10
799.69356856697095
 20
-1516.3041348156967
 42
-0.0243909341014725
 10
799.38012510604972
 20
-1516.3498558467272
 10
799.32984437927371
 20
-1516.3547013936293
 42
-0.0196639292927657
 10
799.11424880175127
 20
-1516.3669496791424
 10
799.06242473058819
 20
-1516.3678529398792
 42
-0.0100501510681936
 10
798.95000144892356
 20
-1516.367552541526
 10
798.91834158757433
 20
-1516.3668314696406
 42
-0.0019752031132857
 10
798.86924925089818
 20
-1516.365519309431
 10
798.86648894767359
 20
-1516.3654346176045
 42
0.0065378751971723
 10
798.82291237292134
 20
-1516.3646677263898
 42
-0.0167974694648868
 10
798.77938154999026
 20
-1516.3630078278638
 10
798.77530221072743
 20
-1516.3627148169689
 42
-0.0081283276268731
 10
798.7237424129919
 20
-1516.3581678233313
 10
798.71200283911026
 20
-1516.3569399057526
 42
-0.0126703440170666
 10
798.63728454331397
 20
-1516.3472051146807
 10
798.61449667564011
 20
-1516.3436468587659
 42
-0.0117852088439086
 10
798.49495768980887
 20
-1516.3220838636089
 10
798.43957723804465
 20
-1516.3107403233741
 42
-0.025177459229538
 10
798.21273319903707
 20
-1516.2522423139412
 10
798.16801400918098
 20
-1516.2382754946043
 42
-0.0146525199889358
 10
797.98162102164724
 20
-1516.1740089674076
 42
-0.0166929435869341
 10
797.79964336552518
 20
-1516.0982018343552
 10
797.79498673424746
 20
-1516.0960769337391
 42
-0.0191684358435611
 10
797.60980310300238
 20
-1516.0028408499516
 10
797.60647051724118
 20
-1516.000999602396
 42
-0.0221181781810743
 10
797.42316021333988
 20
-1515.8888661040255
 10
797.42081040933056
 20
-1515.887281806034
 42
-0.0254984685376768
 10
797.24452025894459
 20
-1515.754870656064
 10
797.22203811124302
 20
-1515.736118347128
 42
-0.0292492648804824
 10
797.09726917240027
 20
-1515.6190255474851
 42
-0.0159048957502023
 10
796.9834291749512
 20
-1515.4910055558871
 10
796.9821103843708
 20
-1515.4894239428659
 42
-0.0343813379561661
 10
796.87947312274468
 20
-1515.3475526170964
 10
796.84798159138325
 20
-1515.2970492250015
 42
-0.0369117275701352
 10
796.76208908948649
 20
-1515.133571984054
 42
-0.0191751379904812
 10
796.69489570393057
 20
-1514.961167378051
 10
796.69313238017003
 20
-1514.9560740333732
 42
-0.0378178042228814
 10
796.64333766138566
 20
-1514.7671332572913
 10
796.63734236565506
 20
-1514.7345726390922
 42
-0.0184846046462631
 10
796.61662516636102
 20
-1514.59281981855
 42
-0.0179866351308468
 10
796.60629216128734
 20
-1514.4499290054664
 10
796.60623571884162
 20
-1514.4483713188563
 42
-0.0085497186139088
 10
796.60480343773781
 20
-1514.3734981538464
 42
-0.0085497186139088
  0
ENDBLK
  5
5F
100
AcDbEntity
  8
template
390
0
100
AcDbBlockEnd
  0
BLOCK
  5
60
100
AcDbEntity
  8
notes
390
0
100
AcDbBlockBegin
  2
*D4
 70
               1
 10
0.0
 20
0.0
 30
0.0
  3
*D4
  1

  0
LINE
  5
61
100
AcDbEntity
  8
0
370
              -2
390
0
  6
Continuous
 62
               0
100
AcDbLine
 10
757.90425851128634
 20
-539.95488162584491
 30
0.0
 11
757.90425851128634
 21
-667.95488162584491
 31
0.0
  0
LINE
  5
62
100
AcDbEntity
  8
0
370
              -2
390
0
  6
Continuous
 62
               0
100
AcDbLine
 10
387.90425851128754
 20
-539.95488162584491
 30
0.0
 11
387.90425851128754
 21
-667.95488162584491
 31
0.0
  0
LINE
  5
63
100
AcDbEntity
  8
0
370
              -2
390
0
  6
Continuous
 62
               0
100
AcDbLine
 10
757.90425851128634
 20
-667.95488162584491
 30
0.0
 11
387.90425851128754
 21
-667.95488162584491
 31
0.0
  0
CIRCLE
  5
64
102
{ACAD_REACTORS
330
65
102
}
100
AcDbEntity
  8
0
370
              -2
390
0
  6
Continuous
 62
               0
100
AcDbCircle
 10
757.90425851128634
 20
-667.95488162584491
 30
0.0
 40
1.9998779296875
  0
HATCH
  5
65
100
AcDbEntity
  8
0
370
              -2
390
0
  6
Continuous
 62
               0
100
AcDbHatch
 10
0.0
 20
0.0
 30
0.0
210
0.0
220
0.0
230
1.0
  2
SOLID
 70
               1
 71
               1
 91
        1
 92
        1
 93
        1
 72
               2
 10
757.90425851128634
 20
-667.95488162584491
 40
1.9998779296875
 50
0.0
 51
360.0
 73
               0
 97
        1
330
64
 75
               0
 76
               1
 98
        1
 10
0.0
 20
0.0
  0
CIRCLE
  5
66
102
{ACAD_REACTORS
330
67
102
}
100
AcDbEntity
  8
0
370
              -2
390
0
  6
Continuous
 62
               0
100
AcDbCircle
 10
387.90425851128754
 20
-667.95488162584491
 30
0.0
 40
1.9998779296875
  0
HATCH
  5
67
100
AcDbEntity
  8
0
370
              -2
390
0
  6
Continuous
 62
               0
100
AcDbHatch
 10
0.0
 20
0.0
 30
0.0
210
0.0
220
0.0
230
1.0
  2
SOLID
 70
               1
 71
               1
 91
        1
 92
        1
 93
        1
 72
               2
 10
387.90425851128754
 20
-667.95488162584491
 40
1.9998779296875
 50
0.0
 51
360.0
 73
               0
 97
        1
330
66
 75
               0
 76
               1
 98
        1
 10
0.0
 20
0.0
  0
MTEXT
  5
68
100
AcDbEntity
  8
0
390
0
 62
               0
100
AcDbMText
 10
549.09175682911143
 20
-634.07726443834486
 30
0.0
 40
24.432617187500004
 41
0.0
 71
               1
 72
               1
  1
370
  7
ＭＳ ゴシック
 73
               1
 44
0.7828267384257843
  0
POINT
  5
69
100
AcDbEntity
  8
Defpoints
370
               0
390
0
 62
               0
100
AcDbPoint
 10
387.90425851128754
 20
-514.95488162584491
 30
0.0
  0
POINT
  5
6A
100
AcDbEntity
  8
Defpoints
370
               0
390
0
 62
               0
100
AcDbPoint
 10
757.90425851128634
 20
-514.95488162584491
 30
0.0
  0
POINT
  5
6B
100
AcDbEntity
  8
Defpoints
370
               0
390
0
 62
               0
100
AcDbPoint
 10
757.90425851128634
 20
-667.95488162584491
 30
0.0
  0
ENDBLK
  5
6C
100
AcDbEntity
  8
notes
390
0
100
AcDbBlockEnd
  0
BLOCK
  5
6D
100
AcDbEntity
  8
notes
390
0
100
AcDbBlockBegin
  2
*D5
 70
               1
 10
0.0
 20
0.0
 30
0.0
  3
*D5
  1

  0
LINE
  5
6E
100
AcDbEntity
  8
0
370
              -2
390
0
  6
Continuous
 62
               0
100
AcDbLine
 10
-555.98605028386157
 20
-543.1114641700666
 30
0.0
 11
-555.98605028386157
 21
-618.16300488511695
 31
0.0
  0
LINE
  5
6F
100
AcDbEntity
  8
0
370
              -2
390
0
  6
Continuous
 62
               0
100
AcDbLine
 10
-275.98605028386038
 20
-543.1114641700666
 30
0.0
 11
-275.98605028386038
 21
-618.16300488511695
 31
0.0
  0
LINE
  5
70
100
AcDbEntity
  8
0
370
              -2
390
0
  6
Continuous
 62
               0
100
AcDbLine
 10
-555.98605028386157
 20
-618.16300488511695
 30
0.0
 11
-275.98605028386038
 21
-618.16300488511695
 31
0.0
  0
CIRCLE
  5
71
102
{ACAD_REACTORS
330
72
102
}
100
AcDbEntity
  8
0
370
              -2
390
0
  6
Continuous
 62
               0
100
AcDbCircle
 10
-555.98605028386157
 20
-618.16300488511695
 30
0.0
 40
1.9998779296875
  0
HATCH
  5
72
100
AcDbEntity
  8
0
370
              -2
390
0
  6
Continuous
 62
               0
100
AcDbHatch
 10
0.0
 20
0.0
 30
0.0
210
0.0
220
0.0
230
1.0
  2
SOLID
 70
               1
 71
               1
 91
        1
 92
        1
 93
        1
 72
               2
 10
-555.98605028386157
 20
-618.16300488511695
 40
1.9998779296875
 50
0.0
 51
360.0
 73
               0
 97
        1
330
71
 75
               0
 76
               1
 98
        1
 10
0.0
 20
0.0
  0
CIRCLE
  5
73
102
{ACAD_REACTORS
330
74
102
}
100
AcDbEntity
  8
0
370
              -2
390
0
  6
Continuous
 62
               0
100
AcDbCircle
 10
-275.98605028386038
 20
-618.16300488511695
 30
0.0
 40
1.9998779296875
  0
HATCH
  5
74
100
AcDbEntity
  8
0
370
              -2
390
0
  6
Continuous
 62
               0
100
AcDbHatch
 10
0.0
 20
0.0
 30
0.0
210
0.0
220
0.0
230
1.0
  2
SOLID
 70
               1
 71
               1
 91
        1
 92
        1
 93
        1
 72
               2
 10
-275.98605028386038
 20
-618.16300488511695
 40
1.9998779296875
 50
0.0
 51
360.0
 73
               0
 97
        1
330
73
 75
               0
 76
               1
 98
        1
 10
0.0
 20
0.0
  0
MTEXT
  5
75
100
AcDbEntity
  8
0
390
0
 62
               0
100
AcDbMText
 10
-439.79855196603654
 20
-584.2853876976169
 30
0.0
 40
24.432617187500004
 41
0.0
 71
               1
 72
               1
  1
280
  7
ＭＳ ゴシック
 73
               1
 44
0.7828267384257843
  0
POINT
  5
76
100
AcDbEntity
  8
Defpoints
370
               0
390
0
 62
               0
100
AcDbPoint
 10
-275.98605028386038
 20
-518.1114641700666
 30
0.0
  0
POINT
  5
77
100
AcDbEntity
  8
Defpoints
370
               0
390
0
 62
               0
100
AcDbPoint
 10
-555.98605028386157
 20
-518.1114641700666
 30
0.0
  0
POINT
  5
78
100
AcDbEntity
  8
Defpoints
370
               0
390
0
 62
               0
100
AcDbPoint
 10
-555.98605028386157
 20
-618.16300488511695
 30
0.0
  0
ENDBLK
  5
79
100
AcDbEntity
  8
notes
390
0
100
AcDbBlockEnd
  0
BLOCK
  5
7A
100
AcDbEntity
  8
notes
390
0
100
AcDbBlockBegin
  2
*D6
 70
               1
 10
0.0
 20
0.0
 30
0.0
  3
*D6
  1

  0
LINE
  5
7B
100
AcDbEntity
  8
0
370
              -2
390
0
  6
Continuous
 62
               0
100
AcDbLine
 10
-146.85104806255458
 20
-357.95487951766961
 30
0.0
 11
-66.35903480792966
 21
-357.95487951766961
 31
0.0
  0
LINE
  5
7C
100
AcDbEntity
  8
0
370
              -2
390
0
  6
Continuous
 62
               0
100
AcDbLine
 10
-259.03231251693666
 20
-517.95487951767052
 30
0.0
 11
-66.35903480792966
 21
-517.95487951767052
 31
0.0
  0
LINE
  5
7D
100
AcDbEntity
  8
0
370
              -2
390
0
  6
Continuous
 62
               0
100
AcDbLine
 10
-66.35903480792966
 20
-357.95487951766961
 30
0.0
 11
-66.35903480792966
 21
-517.95487951767052
 31
0.0
  0
CIRCLE
  5
7E
102
{ACAD_REACTORS
330
7F
102
}
100
AcDbEntity
  8
0
370
              -2
390
0
  6
Continuous
 62
               0
100
AcDbCircle
 10
-66.35903480792966
 20
-357.95487951766961
 30
0.0
 40
1.9998779296875
  0
HATCH
  5
7F
100
AcDbEntity
  8
0
370
              -2
390
0
  6
Continuous
 62
               0
100
AcDbHatch
 10
0.0
 20
0.0
 30
0.0
210
0.0
220
0.0
230
1.0
  2
SOLID
 70
               1
 71
               1
 91
        1
 92
        1
 93
        1
 72
               2
 10
-66.35903480792966
 20
-357.95487951766961
 40
1.9998779296875
 50
0.0
 51
360.0
 73
               0
 97
        1
330
7E
 75
               0
 76
               1
 98
        1
 10
0.0
 20
0.0
  0
CIRCLE
  5
80
102
{ACAD_REACTORS
330
81
102
}
100
AcDbEntity
  8
0
370
              -2
390
0
  6
Continuous
 62
               0
100
AcDbCircle
 10
-66.35903480792966
 20
-517.95487951767052
 30
0.0
 40
1.9998779296875
  0
HATCH
  5
81
100
AcDbEntity
  8
0
370
              -2
390
0
  6
Continuous
 62
               0
100
AcDbHatch
 10
0.0
 20
0.0
 30
0.0
210
0.0
220
0.0
230
1.0
  2
SOLID
 70
               1
 71
               1
 91
        1
 92
        1
 93
        1
 72
               2
 10
-66.35903480792966
 20
-517.95487951767052
 40
1.9998779296875
 50
0.0
 51
360.0
 73
               0
 97
        1
330
80
 75
               0
 76
               1
 98
        1
 10
0.0
 20
0.0
  0
MTEXT
  5
82
100
AcDbEntity
  8
0
390
0
 62
               0
100
AcDbMText
 10
-100.23665199542965
 20
-461.76738119984554
 30
0.0
 40
24.432617187500004
 41
0.0
 71
               1
 72
               1
  1
160
  7
ＭＳ ゴシック
 11
0.0
 21
1.0
 31
0.0
 73
               1
 44
0.7828267384257843
  0
POINT
  5
83
100
AcDbEntity
  8
Defpoints
370
               0
390
0
 62
               0
100
AcDbPoint
 10
-284.03231251693666
 20
-517.95487951767052
 30
0.0
  0
POINT
  5
84
100
AcDbEntity
  8
Defpoints
370
               0
390
0
 62
               0
100
AcDbPoint
 10
-171.85104806255458
 20
-357.95487951766961
 30
0.0
  0
POINT
  5
85
100
AcDbEntity
  8
Defpoints
370
               0
390
0
 62
               0
100
AcDbPoint
 10
-66.35903480792966
 20
-357.95487951766961
 30
0.0
  0
ENDBLK
  5
86
100
AcDbEntity
  8
notes
390
0
100
AcDbBlockEnd
  0
BLOCK
  5
87
100
AcDbEntity
  8
notes
390
0
100
AcDbBlockBegin
  2
*D7
 70
               1
 10
0.0
 20
0.0
 30
0.0
  3
*D7
  1

  0
LINE
  5
88
100
AcDbEntity
  8
0
370
              -2
390
0
  6
Continuous
 62
               0
100
AcDbLine
 10
-685.16697317193552
 20
-357.954881625844
 30
0.0
 11
-765.88901995269202
 21
-357.954881625844
 31
0.0
  0
LINE
  5
89
100
AcDbEntity
  8
0
370
              -2
390
0
  6
Continuous
 62
               0
100
AcDbLine
 10
-528.65035384763314
 20
-397.95488162584445
 30
0.0
 11
-765.88901995269202
 21
-397.95488162584445
 31
0.0
  0
LINE
  5
8A
100
AcDbEntity
  8
0
370
              -2
390
0
  6
Continuous
 62
               0
100
AcDbLine
 10
-765.88901995269202
 20
-357.954881625844
 30
0.0
 11
-765.88901995269202
 21
-397.95488162584445
 31
0.0
  0
CIRCLE
  5
8B
102
{ACAD_REACTORS
330
8C
102
}
100
AcDbEntity
  8
0
370
              -2
390
0
  6
Continuous
 62
               0
100
AcDbCircle
 10
-765.88901995269202
 20
-357.954881625844
 30
0.0
 40
1.9998779296875
  0
HATCH
  5
8C
100
AcDbEntity
  8
0
370
              -2
390
0
  6
Continuous
 62
               0
100
AcDbHatch
 10
0.0
 20
0.0
 30
0.0
210
0.0
220
0.0
230
1.0
  2
SOLID
 70
               1
 71
               1
 91
        1
 92
        1
 93
        1
 72
               2
 10
-765.88901995269202
 20
-357.954881625844
 40
1.9998779296875
 50
0.0
 51
360.0
 73
               0
 97
        1
330
8B
 75
               0
 76
               1
 98
        1
 10
0.0
 20
0.0
  0
CIRCLE
  5
8D
102
{ACAD_REACTORS
330
8E
102
}
100
AcDbEntity
  8
0
370
              -2
390
0
  6
Continuous
 62
               0
100
AcDbCircle
 10
-765.88901995269202
 20
-397.95488162584445
 30
0.0
 40
1.9998779296875
  0
HATCH
  5
8E
100
AcDbEntity
  8
0
370
              -2
390
0
  6
Continuous
 62
               0
100
AcDbHatch
 10
0.0
 20
0.0
 30
0.0
210
0.0
220
0.0
230
1.0
  2
SOLID
 70
               1
 71
               1
 91
        1
 92
        1
 93
        1
 72
               2
 10
-765.88901995269202
 20
-397.95488162584445
 40
1.9998779296875
 50
0.0
 51
360.0
 73
               0
 97
        1
330
8D
 75
               0
 76
               1
 98
        1
 10
0.0
 20
0.0
  0
MTEXT
  5
8F
100
AcDbEntity
  8
0
390
0
 62
               0
100
AcDbMText
 10
-799.76663714019207
 20
-393.82988162584422
 30
0.0
 40
24.432617187500004
 41
0.0
 71
               1
 72
               1
  1
40
  7
ＭＳ ゴシック
 11
0.0
 21
1.0
 31
0.0
 73
               1
 44
0.7828267384257843
  0
POINT
  5
90
100
AcDbEntity
  8
Defpoints
370
               0
390
0
 62
               0
100
AcDbPoint
 10
-503.6503538476332
 20
-397.95488162584445
 30
0.0
  0
POINT
  5
91
100
AcDbEntity
  8
Defpoints
370
               0
390
0
 62
               0
100
AcDbPoint
 10
-660.16697317193552
 20
-357.954881625844
 30
0.0
  0
POINT
  5
92
100
AcDbEntity
  8
Defpoints
370
               0
390
0
 62
               0
100
AcDbPoint
 10
-765.88901995269202
 20
-357.954881625844
 30
0.0
  0
ENDBLK
  5
93
100
AcDbEntity
  8
notes
390
0
100
AcDbBlockEnd
  0
BLOCK
  5
94
100
AcDbEntity
  8
notes
390
0
100
AcDbBlockBegin
  2
*D8
 70
               1
 10
0.0
 20
0.0
 30
0.0
  3
*D8
  1

  0
LINE
  5
95
100
AcDbEntity
  8
0
370
              -2
390
0
  6
Continuous
 62
               0
100
AcDbLine
 10
-481.05238609858424
 20
-364.14190704269515
 30
0.0
 11
-481.05238609858424
 21
-257.95488162584434
 31
0.0
  0
LINE
  5
96
100
AcDbEntity
  8
0
370
              -2
390
0
  6
Continuous
 62
               0
100
AcDbLine
 10
-351.05238609858327
 20
-364.14190704269515
 30
0.0
 11
-351.05238609858327
 21
-257.95488162584434
 31
0.0
  0
LINE
  5
97
100
AcDbEntity
  8
0
370
              -2
390
0
  6
Continuous
 62
               0
100
AcDbLine
 10
-481.05238609858424
 20
-257.95488162584434
 30
0.0
 11
-351.05238609858327
 21
-257.95488162584434
 31
0.0
  0
CIRCLE
  5
98
102
{ACAD_REACTORS
330
99
102
}
100
AcDbEntity
  8
0
370
              -2
390
0
  6
Continuous
 62
               0
100
AcDbCircle
 10
-481.05238609858424
 20
-257.95488162584434
 30
0.0
 40
1.9998779296875
  0
HATCH
  5
99
100
AcDbEntity
  8
0
370
              -2
390
0
  6
Continuous
 62
               0
100
AcDbHatch
 10
0.0
 20
0.0
 30
0.0
210
0.0
220
0.0
230
1.0
  2
SOLID
 70
               1
 71
               1
 91
        1
 92
        1
 93
        1
 72
               2
 10
-481.05238609858424
 20
-257.95488162584434
 40
1.9998779296875
 50
0.0
 51
360.0
 73
               0
 97
        1
330
98
 75
               0
 76
               1
 98
        1
 10
0.0
 20
0.0
  0
CIRCLE
  5
9A
102
{ACAD_REACTORS
330
9B
102
}
100
AcDbEntity
  8
0
370
              -2
390
0
  6
Continuous
 62
               0
100
AcDbCircle
 10
-351.05238609858327
 20
-257.95488162584434
 30
0.0
 40
1.9998779296875
  0
HATCH
  5
9B
100
AcDbEntity
  8
0
370
              -2
390
0
  6
Continuous
 62
               0
100
AcDbHatch
 10
0.0
 20
0.0
 30
0.0
210
0.0
220
0.0
230
1.0
  2
SOLID
 70
               1
 71
               1
 91
        1
 92
        1
 93
        1
 72
               2
 10
-351.05238609858327
 20
-257.95488162584434
 40
1.9998779296875
 50
0.0
 51
360.0
 73
               0
 97
        1
330
9A
 75
               0
 76
               1
 98
        1
 10
0.0
 20
0.0
  0
MTEXT
  5
9C
100
AcDbEntity
  8
0
390
0
 62
               0
100
AcDbMText
 10
-439.86488778075926
 20
-224.07726443834437
 30
0.0
 40
24.432617187500004
 41
0.0
 71
               1
 72
               1
  1
130
  7
ＭＳ ゴシック
 73
               1
 44
0.7828267384257843
  0
POINT
  5
9D
100
AcDbEntity
  8
Defpoints
370
               0
390
0
 62
               0
100
AcDbPoint
 10
-351.05238609858327
 20
-389.14190704269515
 30
0.0
  0
POINT
  5
9E
100
AcDbEntity
  8
Defpoints
370
               0
390
0
 62
               0
100
AcDbPoint
 10
-481.05238609858424
 20
-389.14190704269515
 30
0.0
  0
POINT
  5
9F
100
AcDbEntity
  8
Defpoints
370
               0
390
0
 62
               0
100
AcDbPoint
 10
-481.05238609858424
 20
-257.95488162584434
 30
0.0
  0
ENDBLK
  5
A0
100
AcDbEntity
  8
notes
390
0
100
AcDbBlockEnd
  0
BLOCK
  5
A1
100
AcDbEntity
  8
notes
390
0
100
AcDbBlockBegin
  2
*D9
 70
               1
 10
0.0
 20
0.0
 30
0.0
  3
*D9
  1

  0
LINE
  5
A2
100
AcDbEntity
  8
0
370
              -2
390
0
  6
Continuous
 62
               0
100
AcDbLine
 10
-666.13302385955092
 20
879.88163183548966
 30
0.0
 11
-666.13302385955092
 21
957.8923693182029
 31
0.0
  0
LINE
  5
A3
100
AcDbEntity
  8
0
370
              -2
390
0
  6
Continuous
 62
               0
100
AcDbLine
 10
-166.13302385955024
 20
879.88163183548966
 30
0.0
 11
-166.13302385955024
 21
957.8923693182029
 31
0.0
  0
LINE
  5
A4
100
AcDbEntity
  8
0
370
              -2
390
0
  6
Continuous
 62
               0
100
AcDbLine
 10
-666.13302385955092
 20
957.8923693182029
 30
0.0
 11
-166.13302385955024
 21
957.8923693182029
 31
0.0
  0
CIRCLE
  5
A5
102
{ACAD_REACTORS
330
A6
102
}
100
AcDbEntity
  8
0
370
              -2
390
0
  6
Continuous
 62
               0
100
AcDbCircle
 10
-666.13302385955092
 20
957.8923693182029
 30
0.0
 40
1.9998779296875
  0
HATCH
  5
A6
100
AcDbEntity
  8
0
370
              -2
390
0
  6
Continuous
 62
               0
100
AcDbHatch
 10
0.0
 20
0.0
 30
0.0
210
0.0
220
0.0
230
1.0
  2
SOLID
 70
               1
 71
               1
 91
        1
 92
        1
 93
        1
 72
               2
 10
-666.13302385955092
 20
957.8923693182029
 40
1.9998779296875
 50
0.0
 51
360.0
 73
               0
 97
        1
330
A5
 75
               0
 76
               1
 98
        1
 10
0.0
 20
0.0
  0
CIRCLE
  5
A7
102
{ACAD_REACTORS
330
A8
102
}
100
AcDbEntity
  8
0
370
              -2
390
0
  6
Continuous
 62
               0
100
AcDbCircle
 10
-166.13302385955024
 20
957.8923693182029
 30
0.0
 40
1.9998779296875
  0
HATCH
  5
A8
100
AcDbEntity
  8
0
370
              -2
390
0
  6
Continuous
 62
               0
100
AcDbHatch
 10
0.0
 20
0.0
 30
0.0
210
0.0
220
0.0
230
1.0
  2
SOLID
 70
               1
 71
               1
 91
        1
 92
        1
 93
        1
 72
               2
 10
-166.13302385955024
 20
957.8923693182029
 40
1.9998779296875
 50
0.0
 51
360.0
 73
               0
 97
        1
330
A7
 75
               0
 76
               1
 98
        1
 10
0.0
 20
0.0
  0
MTEXT
  5
A9
100
AcDbEntity
  8
0
390
0
 62
               0
100
AcDbMText
 10
-439.94552554172611
 20
991.76998650570295
 30
0.0
 40
24.432617187500004
 41
0.0
 71
               1
 72
               1
  1
500
  7
ＭＳ ゴシック
 73
               1
 44
0.7828267384257843
  0
POINT
  5
AA
100
AcDbEntity
  8
Defpoints
370
               0
390
0
 62
               0
100
AcDbPoint
 10
-166.13302385955024
 20
854.88163183548966
 30
0.0
  0
POINT
  5
AB
100
AcDbEntity
  8
Defpoints
370
               0
390
0
 62
               0
100
AcDbPoint
 10
-666.13302385955092
 20
854.88163183548966
 30
0.0
  0
POINT
  5
AC
100
AcDbEntity
  8
Defpoints
370
               0
390
0
 62
               0
100
AcDbPoint
 10
-666.13302385955092
 20
957.8923693182029
 30
0.0
  0
ENDBLK
  5
AD
100
AcDbEntity
  8
notes
390
0
100
AcDbBlockEnd
  0
BLOCK
  5
AE
100
AcDbEntity
  8
notes
390
0
100
AcDbBlockBegin
  2
*D10
 70
               1
 10
0.0
 20
0.0
 30
0.0
  3
*D10
  1

  0
LINE
  5
AF
100
AcDbEntity
  8
0
370
              -2
390
0
  6
Continuous
 62
               0
100
AcDbLine
 10
-144.13980062117923
 20
857.89236931820335
 30
0.0
 11
-66.133023859550221
 21
857.89236931820335
 31
0.0
  0
LINE
  5
B0
100
AcDbEntity
  8
0
370
              -2
390
0
  6
Continuous
 62
               0
100
AcDbLine
 10
-347.57963274649029
 20
357.89236931820426
 30
0.0
 11
-66.133023859550221
 21
357.89236931820426
 31
0.0
  0
LINE
  5
B1
100
AcDbEntity
  8
0
370
              -2
390
0
  6
Continuous
 62
               0
100
AcDbLine
 10
-66.133023859550221
 20
857.89236931820335
 30
0.0
 11
-66.133023859550221
 21
357.89236931820426
 31
0.0
  0
CIRCLE
  5
B2
102
{ACAD_REACTORS
330
B3
102
}
100
AcDbEntity
  8
0
370
              -2
390
0
  6
Continuous
 62
               0
100
AcDbCircle
 10
-66.133023859550221
 20
857.89236931820335
 30
0.0
 40
1.9998779296875
  0
HATCH
  5
B3
100
AcDbEntity
  8
0
370
              -2
390
0
  6
Continuous
 62
               0
100
AcDbHatch
 10
0.0
 20
0.0
 30
0.0
210
0.0
220
0.0
230
1.0
  2
SOLID
 70
               1
 71
               1
 91
        1
 92
        1
 93
        1
 72
               2
 10
-66.133023859550221
 20
857.89236931820335
 40
1.9998779296875
 50
0.0
 51
360.0
 73
               0
 97
        1
330
B2
 75
               0
 76
               1
 98
        1
 10
0.0
 20
0.0
  0
CIRCLE
  5
B4
102
{ACAD_REACTORS
330
B5
102
}
100
AcDbEntity
  8
0
370
              -2
390
0
  6
Continuous
 62
               0
100
AcDbCircle
 10
-66.133023859550221
 20
357.89236931820426
 30
0.0
 40
1.9998779296875
  0
HATCH
  5
B5
100
AcDbEntity
  8
0
370
              -2
390
0
  6
Continuous
 62
               0
100
AcDbHatch
 10
0.0
 20
0.0
 30
0.0
210
0.0
220
0.0
230
1.0
  2
SOLID
 70
               1
 71
               1
 91
        1
 92
        1
 93
        1
 72
               2
 10
-66.133023859550221
 20
357.89236931820426
 40
1.9998779296875
 50
0.0
 51
360.0
 73
               0
 97
        1
330
B4
 75
               0
 76
               1
 98
        1
 10
0.0
 20
0.0
  0
MTEXT
  5
B6
100
AcDbEntity
  8
0
390
0
 62
               0
100
AcDbMText
 10
-100.01064104705021
 20
584.07986763602821
 30
0.0
 40
24.432617187500004
 41
0.0
 71
               1
 72
               1
  1
500
  7
ＭＳ ゴシック
 11
0.0
 21
1.0
 31
0.0
 73
               1
 44
0.7828267384257843
  0
POINT
  5
B7
100
AcDbEntity
  8
Defpoints
370
               0
390
0
 62
               0
100
AcDbPoint
 10
-372.57963274649029
 20
357.89236931820426
 30
0.0
  0
POINT
  5
B8
100
AcDbEntity
  8
Defpoints
370
               0
390
0
 62
               0
100
AcDbPoint
 10
-169.13980062117923
 20
857.89236931820335
 30
0.0
  0
POINT
  5
B9
100
AcDbEntity
  8
Defpoints
370
               0
390
0
 62
               0
100
AcDbPoint
 10
-66.133023859550221
 20
857.89236931820335
 30
0.0
  0
ENDBLK
  5
BA
100
AcDbEntity
  8
notes
390
0
100
AcDbBlockEnd
  0
BLOCK
  5
BB
100
AcDbEntity
  8
notes
390
0
100
AcDbBlockBegin
  2
*D11
 70
               1
 10
0.0
 20
0.0
 30
0.0
  3
*D11
  1

  0
LINE
  5
BC
100
AcDbEntity
  8
0
370
              -2
390
0
  6
Continuous
 62
               0
100
AcDbLine
 10
-621.13137684779883
 20
439.79583567412624
 30
0.0
 11
-621.13137684779883
 21
257.89236931820426
 31
0.0
  0
LINE
  5
BD
100
AcDbEntity
  8
0
370
              -2
390
0
  6
Continuous
 62
               0
100
AcDbLine
 10
-211.13137684779838
 20
439.79583567412624
 30
0.0
 11
-211.13137684779838
 21
257.89236931820426
 31
0.0
  0
LINE
  5
BE
100
AcDbEntity
  8
0
370
              -2
390
0
  6
Continuous
 62
               0
100
AcDbLine
 10
-621.13137684779883
 20
257.89236931820426
 30
0.0
 11
-211.13137684779838
 21
257.89236931820426
 31
0.0
  0
CIRCLE
  5
BF
102
{ACAD_REACTORS
330
C0
102
}
100
AcDbEntity
  8
0
370
              -2
390
0
  6
Continuous
 62
               0
100
AcDbCircle
 10
-621.13137684779883
 20
257.89236931820426
 30
0.0
 40
1.9998779296875
  0
HATCH
  5
C0
100
AcDbEntity
  8
0
370
              -2
390
0
  6
Continuous
 62
               0
100
AcDbHatch
 10
0.0
 20
0.0
 30
0.0
210
0.0
220
0.0
230
1.0
  2
SOLID
 70
               1
 71
               1
 91
        1
 92
        1
 93
        1
 72
               2
 10
-621.13137684779883
 20
257.89236931820426
 40
1.9998779296875
 50
0.0
 51
360.0
 73
               0
 97
        1
330
BF
 75
               0
 76
               1
 98
        1
 10
0.0
 20
0.0
  0
CIRCLE
  5
C1
102
{ACAD_REACTORS
330
C2
102
}
100
AcDbEntity
  8
0
370
              -2
390
0
  6
Continuous
 62
               0
100
AcDbCircle
 10
-211.13137684779838
 20
257.89236931820426
 30
0.0
 40
1.9998779296875
  0
HATCH
  5
C2
100
AcDbEntity
  8
0
370
              -2
390
0
  6
Continuous
 62
               0
100
AcDbHatch
 10
0.0
 20
0.0
 30
0.0
210
0.0
220
0.0
230
1.0
  2
SOLID
 70
               1
 71
               1
 91
        1
 92
        1
 93
        1
 72
               2
 10
-211.13137684779838
 20
257.89236931820426
 40
1.9998779296875
 50
0.0
 51
360.0
 73
               0
 97
        1
330
C1
 75
               0
 76
               1
 98
        1
 10
0.0
 20
0.0
  0
MTEXT
  5
C3
100
AcDbEntity
  8
0
390
0
 62
               0
100
AcDbMText
 10
-439.94387852997414
 20
291.76998650570431
 30
0.0
 40
24.432617187500004
 41
0.0
 71
               1
 72
               1
  1
410
  7
ＭＳ ゴシック
 73
               1
 44
0.7828267384257843
  0
POINT
  5
C4
100
AcDbEntity
  8
Defpoints
370
               0
390
0
 62
               0
100
AcDbPoint
 10
-211.13137684779838
 20
464.79583567412624
 30
0.0
  0
POINT
  5
C5
100
AcDbEntity
  8
Defpoints
370
               0
390
0
 62
               0
100
AcDbPoint
 10
-621.13137684779883
 20
464.79583567412624
 30
0.0
  0
POINT
  5
C6
100
AcDbEntity
  8
Defpoints
370
               0
390
0
 62
               0
100
AcDbPoint
 10
-621.13137684779883
 20
257.89236931820426
 30
0.0
  0
ENDBLK
  5
C7
100
AcDbEntity
  8
notes
390
0
100
AcDbBlockEnd
  0
BLOCK
  5
C8
100
AcDbEntity
  8
notes
390
0
100
AcDbBlockBegin
  2
*D12
 70
               1
 10
0.0
 20
0.0
 30
0.0
  3
*D12
  1

  0
LINE
  5
C9
100
AcDbEntity
  8
0
370
              -2
390
0
  6
Continuous
 62
               0
100
AcDbLine
 10
-403.80526407572574
 20
805.02991310830305
 30
0.0
 11
-327.17963274649031
 21
881.65554443753842
 31
0.0
  0
CIRCLE
  5
CA
102
{ACAD_REACTORS
330
CB
102
}
100
AcDbEntity
  8
0
370
              -2
390
0
  6
Continuous
 62
               0
100
AcDbCircle
 10
-403.80526407572574
 20
805.02991310830305
 30
0.0
 40
1.9998779296875
  0
HATCH
  5
CB
100
AcDbEntity
  8
0
370
              -2
390
0
  6
Continuous
 62
               0
100
AcDbHatch
 10
0.0
 20
0.0
 30
0.0
210
0.0
220
0.0
230
1.0
  2
SOLID
 70
               1
 71
               1
 91
        1
 92
        1
 93
        1
 72
               2
 10
-403.80526407572574
 20
805.02991310830305
 40
1.9998779296875
 50
0.0
 51
360.0
 73
               0
 97
        1
330
CA
 75
               0
 76
               1
 98
        1
 10
0.0
 20
0.0
  0
LINE
  5
CC
100
AcDbEntity
  8
0
370
              -2
390
0
  6
Continuous
 62
               0
100
AcDbLine
 10
-327.17963274649031
 20
881.65554443753842
 30
0.0
 11
-200.17963274649031
 21
881.65554443753842
 31
0.0
  0
MTEXT
  5
CD
100
AcDbEntity
  8
0
390
0
 62
               0
100
AcDbMText
 10
-263.67963274649031
 20
915.53316162503847
 30
0.0
 40
24.432617187500004
 41
0.0
 71
               1
 72
               1
  1
φ35
  7
ＭＳ ゴシック
 73
               1
 44
0.7828267384257843
  0
POINT
  5
CE
100
AcDbEntity
  8
Defpoints
370
               0
390
0
 62
               0
100
AcDbPoint
 10
-428.55400141725517
 20
780.2811757667738
 30
0.0
  0
POINT
  5
CF
100
AcDbEntity
  8
Defpoints
370
               0
390
0
 62
               0
100
AcDbPoint
 10
-403.80526407572574
 20
805.02991310830305
 30
0.0
  0
ENDBLK
  5
D0
100
AcDbEntity
  8
notes
390
0
100
AcDbBlockEnd
  0
BLOCK
  5
D1
100
AcDbEntity
  8
notes
390
0
100
AcDbBlockBegin
  2
*D13
 70
               1
 10
0.0
 20
0.0
 30
0.0
  3
*D13
  1

  0
LINE
  5
D2
100
AcDbEntity
  8
0
370
              -2
390
0
  6
Continuous
 62
               0
100
AcDbLine
 10
-683.86809551595491
 20
857.89236931820335
 30
0.0
 11
-766.13168746054907
 21
857.89236931820335
 31
0.0
  0
LINE
  5
D3
100
AcDbEntity
  8
0
370
              -2
390
0
  6
Continuous
 62
               0
100
AcDbLine
 10
-683.86809551595491
 20
727.89236931820301
 30
0.0
 11
-766.13168746054907
 21
727.89236931820301
 31
0.0
  0
LINE
  5
D4
100
AcDbEntity
  8
0
370
              -2
390
0
  6
Continuous
 62
               0
100
AcDbLine
 10
-766.13168746054907
 20
857.89236931820335
 30
0.0
 11
-766.13168746054907
 21
727.89236931820301
 31
0.0
  0
CIRCLE
  5
D5
102
{ACAD_REACTORS
330
D6
102
}
100
AcDbEntity
  8
0
370
              -2
390
0
  6
Continuous
 62
               0
100
AcDbCircle
 10
-766.13168746054907
 20
857.89236931820335
 30
0.0
 40
1.9998779296875
  0
HATCH
  5
D6
100
AcDbEntity
  8
0
370
              -2
390
0
  6
Continuous
 62
               0
100
AcDbHatch
 10
0.0
 20
0.0
 30
0.0
210
0.0
220
0.0
230
1.0
  2
SOLID
 70
               1
 71
               1
 91
        1
 92
        1
 93
        1
 72
               2
 10
-766.13168746054907
 20
857.89236931820335
 40
1.9998779296875
 50
0.0
 51
360.0
 73
               0
 97
        1
330
D5
 75
               0
 76
               1
 98
        1
 10
0.0
 20
0.0
  0
CIRCLE
  5
D7
102
{ACAD_REACTORS
330
D8
102
}
100
AcDbEntity
  8
0
370
              -2
390
0
  6
Continuous
 62
               0
100
AcDbCircle
 10
-766.13168746054907
 20
727.89236931820301
 30
0.0
 40
1.9998779296875
  0
HATCH
  5
D8
100
AcDbEntity
  8
0
370
              -2
390
0
  6
Continuous
 62
               0
100
AcDbHatch
 10
0.0
 20
0.0
 30
0.0
210
0.0
220
0.0
230
1.0
  2
SOLID
 70
               1
 71
               1
 91
        1
 92
        1
 93
        1
 72
               2
 10
-766.13168746054907
 20
727.89236931820301
 40
1.9998779296875
 50
0.0
 51
360.0
 73
               0
 97
        1
330
D7
 75
               0
 76
               1
 98
        1
 10
0.0
 20
0.0
  0
MTEXT
  5
D9
100
AcDbEntity
  8
0
390
0
 62
               0
100
AcDbMText
 10
-800.00930464804912
 20
769.07986763602776
 30
0.0
 40
24.432617187500004
 41
0.0
 71
               1
 72
               1
  1
130
  7
ＭＳ ゴシック
 11
0.0
 21
1.0
 31
0.0
 73
               1
 44
0.7828267384257843
  0
POINT
  5
DA
100
AcDbEntity
  8
Defpoints
370
               0
390
0
 62
               0
100
AcDbPoint
 10
-658.86809551595491
 20
727.89236931820301
 30
0.0
  0
POINT
  5
DB
100
AcDbEntity
  8
Defpoints
370
               0
390
0
 62
               0
100
AcDbPoint
 10
-658.86809551595491
 20
857.89236931820335
 30
0.0
  0
POINT
  5
DC
100
AcDbEntity
  8
Defpoints
370
               0
390
0
 62
               0
100
AcDbPoint
 10
-766.13168746054907
 20
857.89236931820335
 30
0.0
  0
ENDBLK
  5
DD
100
AcDbEntity
  8
notes
390
0
100
AcDbBlockEnd
  0
BLOCK
  5
DE
100
AcDbEntity
  8
notes
390
0
100
AcDbBlockBegin
  2
*D14
 70
               1
 10
0.0
 20
0.0
 30
0.0
  3
*D14
  1

  0
LINE
  5
DF
100
AcDbEntity
  8
0
370
              -2
390
0
  6
Continuous
 62
               0
100
AcDbLine
 10
-692.28605028386164
 20
727.89236931820301
 30
0.0
 11
-766.13168746054907
 21
727.89236931820301
 31
0.0
  0
LINE
  5
E0
100
AcDbEntity
  8
0
370
              -2
390
0
  6
Continuous
 62
               0
100
AcDbLine
 10
-585.70400999432968
 20
402.89236931820392
 30
0.0
 11
-766.13168746054907
 21
402.89236931820392
 31
0.0
  0
LINE
  5
E1
100
AcDbEntity
  8
0
370
              -2
390
0
  6
Continuous
 62
               0
100
AcDbLine
 10
-766.13168746054907
 20
727.89236931820301
 30
0.0
 11
-766.13168746054907
 21
402.89236931820392
 31
0.0
  0
CIRCLE
  5
E2
102
{ACAD_REACTORS
330
E3
102
}
100
AcDbEntity
  8
0
370
              -2
390
0
  6
Continuous
 62
               0
100
AcDbCircle
 10
-766.13168746054907
 20
727.89236931820301
 30
0.0
 40
1.9998779296875
  0
HATCH
  5
E3
100
AcDbEntity
  8
0
370
              -2
390
0
  6
Continuous
 62
               0
100
AcDbHatch
 10
0.0
 20
0.0
 30
0.0
210
0.0
220
0.0
230
1.0
  2
SOLID
 70
               1
 71
               1
 91
        1
 92
        1
 93
        1
 72
               2
 10
-766.13168746054907
 20
727.89236931820301
 40
1.9998779296875
 50
0.0
 51
360.0
 73
               0
 97
        1
330
E2
 75
               0
 76
               1
 98
        1
 10
0.0
 20
0.0
  0
CIRCLE
  5
E4
102
{ACAD_REACTORS
330
E5
102
}
100
AcDbEntity
  8
0
370
              -2
390
0
  6
Continuous
 62
               0
100
AcDbCircle
 10
-766.13168746054907
 20
402.89236931820392
 30
0.0
 40
1.9998779296875
  0
HATCH
  5
E5
100
AcDbEntity
  8
0
370
              -2
390
0
  6
Continuous
 62
               0
100
AcDbHatch
 10
0.0
 20
0.0
 30
0.0
210
0.0
220
0.0
230
1.0
  2
SOLID
 70
               1
 71
               1
 91
        1
 92
        1
 93
        1
 72
               2
 10
-766.13168746054907
 20
402.89236931820392
 40
1.9998779296875
 50
0.0
 51
360.0
 73
               0
 97
        1
330
E4
 75
               0
 76
               1
 98
        1
 10
0.0
 20
0.0
  0
MTEXT
  5
E6
100
AcDbEntity
  8
0
390
0
 62
               0
100
AcDbMText
 10
-800.00930464804912
 20
541.57986763602787
 30
0.0
 40
24.432617187500004
 41
0.0
 71
               1
 72
               1
  1
325
  7
ＭＳ ゴシック
 11
0.0
 21
1.0
 31
0.0
 73
               1
 44
0.7828267384257843
  0
POINT
  5
E7
100
AcDbEntity
  8
Defpoints
370
               0
390
0
 62
               0
100
AcDbPoint
 10
-560.70400999432968
 20
402.89236931820392
 30
0.0
  0
POINT
  5
E8
100
AcDbEntity
  8
Defpoints
370
               0
390
0
 62
               0
100
AcDbPoint
 10
-667.28605028386164
 20
727.89236931820301
 30
0.0
  0
POINT
  5
E9
100
AcDbEntity
  8
Defpoints
370
               0
390
0
 62
               0
100
AcDbPoint
 10
-766.13168746054907
 20
727.89236931820301
 30
0.0
  0
ENDBLK
  5
EA
100
AcDbEntity
  8
notes
390
0
100
AcDbBlockEnd
  0
BLOCK
  5
EB
100
AcDbEntity
  8
notes
390
0
100
AcDbBlockBegin
  2
*D15
 70
               1
 10
0.0
 20
0.0
 30
0.0
  3
*D15
  1

  0
LINE
  5
EC
100
AcDbEntity
  8
0
370
              -2
390
0
  6
Continuous
 62
               0
100
AcDbLine
 10
527.90425851128748
 20
-537.8231113331243
 30
0.0
 11
527.90425851128748
 21
-617.95488162584491
 31
0.0
  0
LINE
  5
ED
100
AcDbEntity
  8
0
370
              -2
390
0
  6
Continuous
 62
               0
100
AcDbLine
 10
757.90425851128634
 20
-539.95488162584491
 30
0.0
 11
757.90425851128634
 21
-617.95488162584491
 31
0.0
  0
LINE
  5
EE
100
AcDbEntity
  8
0
370
              -2
390
0
  6
Continuous
 62
               0
100
AcDbLine
 10
527.90425851128748
 20
-617.95488162584491
 30
0.0
 11
757.90425851128634
 21
-617.95488162584491
 31
0.0
  0
CIRCLE
  5
EF
102
{ACAD_REACTORS
330
F0
102
}
100
AcDbEntity
  8
0
370
              -2
390
0
  6
Continuous
 62
               0
100
AcDbCircle
 10
527.90425851128748
 20
-617.95488162584491
 30
0.0
 40
1.9998779296875
  0
HATCH
  5
F0
100
AcDbEntity
  8
0
370
              -2
390
0
  6
Continuous
 62
               0
100
AcDbHatch
 10
0.0
 20
0.0
 30
0.0
210
0.0
220
0.0
230
1.0
  2
SOLID
 70
               1
 71
               1
 91
        1
 92
        1
 93
        1
 72
               2
 10
527.90425851128748
 20
-617.95488162584491
 40
1.9998779296875
 50
0.0
 51
360.0
 73
               0
 97
        1
330
EF
 75
               0
 76
               1
 98
        1
 10
0.0
 20
0.0
  0
CIRCLE
  5
F1
102
{ACAD_REACTORS
330
F2
102
}
100
AcDbEntity
  8
0
370
              -2
390
0
  6
Continuous
 62
               0
100
AcDbCircle
 10
757.90425851128634
 20
-617.95488162584491
 30
0.0
 40
1.9998779296875
  0
HATCH
  5
F2
100
AcDbEntity
  8
0
370
              -2
390
0
  6
Continuous
 62
               0
100
AcDbHatch
 10
0.0
 20
0.0
 30
0.0
210
0.0
220
0.0
230
1.0
  2
SOLID
 70
               1
 71
               1
 91
        1
 92
        1
 93
        1
 72
               2
 10
757.90425851128634
 20
-617.95488162584491
 40
1.9998779296875
 50
0.0
 51
360.0
 73
               0
 97
        1
330
F1
 75
               0
 76
               1
 98
        1
 10
0.0
 20
0.0
  0
MTEXT
  5
F3
100
AcDbEntity
  8
0
390
0
 62
               0
100
AcDbMText
 10
619.09175682911143
 20
-584.07726443834486
 30
0.0
 40
24.432617187500004
 41
0.0
 71
               1
 72
               1
  1
230
  7
ＭＳ ゴシック
 73
               1
 44
0.7828267384257843
  0
POINT
  5
F4
100
AcDbEntity
  8
Defpoints
370
               0
390
0
 62
               0
100
AcDbPoint
 10
757.90425851128634
 20
-514.95488162584491
 30
0.0
  0
POINT
  5
F5
100
AcDbEntity
  8
Defpoints
370
               0
390
0
 62
               0
100
AcDbPoint
 10
527.90425851128748
 20
-512.8231113331243
 30
0.0
  0
POINT
  5
F6
100
AcDbEntity
  8
Defpoints
370
               0
390
0
 62
               0
100
AcDbPoint
 10
527.90425851128748
 20
-617.95488162584491
 30
0.0
  0
ENDBLK
  5
F7
100
AcDbEntity
  8
notes
390
0
100
AcDbBlockEnd
  0
BLOCK
  5
F8
100
AcDbEntity
  8
notes
390
0
100
AcDbBlockBegin
  2
*D16
 70
               1
 10
0.0
 20
0.0
 30
0.0
  3
*D16
  1

  0
LINE
  5
F9
100
AcDbEntity
  8
0
370
              -2
390
0
  6
Continuous
 62
               0
100
AcDbLine
 10
235.90425851128674
 20
-357.954881625844
 30
0.0
 11
157.90425851128674
 21
-357.954881625844
 31
0.0
  0
LINE
  5
FA
100
AcDbEntity
  8
0
370
              -2
390
0
  6
Continuous
 62
               0
100
AcDbLine
 10
238.00425851128688
 20
-452.95488162584491
 30
0.0
 11
157.90425851128674
 21
-452.95488162584491
 31
0.0
  0
LINE
  5
FB
100
AcDbEntity
  8
0
370
              -2
390
0
  6
Continuous
 62
               0
100
AcDbLine
 10
157.90425851128674
 20
-357.954881625844
 30
0.0
 11
157.90425851128674
 21
-452.95488162584491
 31
0.0
  0
CIRCLE
  5
FC
102
{ACAD_REACTORS
330
FD
102
}
100
AcDbEntity
  8
0
370
              -2
390
0
  6
Continuous
 62
               0
100
AcDbCircle
 10
157.90425851128674
 20
-357.954881625844
 30
0.0
 40
1.9998779296875
  0
HATCH
  5
FD
100
AcDbEntity
  8
0
370
              -2
390
0
  6
Continuous
 62
               0
100
AcDbHatch
 10
0.0
 20
0.0
 30
0.0
210
0.0
220
0.0
230
1.0
  2
SOLID
 70
               1
 71
               1
 91
        1
 92
        1
 93
        1
 72
               2
 10
157.90425851128674
 20
-357.954881625844
 40
1.9998779296875
 50
0.0
 51
360.0
 73
               0
 97
        1
330
FC
 75
               0
 76
               1
 98
        1
 10
0.0
 20
0.0
  0
CIRCLE
  5
FE
102
{ACAD_REACTORS
330
FF
102
}
100
AcDbEntity
  8
0
370
              -2
390
0
  6
Continuous
 62
               0
100
AcDbCircle
 10
157.90425851128674
 20
-452.95488162584491
 30
0.0
 40
1.9998779296875
  0
HATCH
  5
FF
100
AcDbEntity
  8
0
370
              -2
390
0
  6
Continuous
 62
               0
100
AcDbHatch
 10
0.0
 20
0.0
 30
0.0
210
0.0
220
0.0
230
1.0
  2
SOLID
 70
               1
 71
               1
 91
        1
 92
        1
 93
        1
 72
               2
 10
157.90425851128674
 20
-452.95488162584491
 40
1.9998779296875
 50
0.0
 51
360.0
 73
               0
 97
        1
330
FE
 75
               0
 76
               1
 98
        1
 10
0.0
 20
0.0
  0
MTEXT
  5
100
100
AcDbEntity
  8
0
390
0
 62
               0
100
AcDbMText
 10
124.02664132378675
 20
-421.32988162584445
 30
0.0
 40
24.432617187500004
 41
0.0
 71
               1
 72
               1
  1
95
  7
ＭＳ ゴシック
 11
0.0
 21
1.0
 31
0.0
 73
               1
 44
0.7828267384257843
  0
POINT
  5
101
100
AcDbEntity
  8
Defpoints
370
               0
390
0
 62
               0
100
AcDbPoint
 10
263.00425851128688
 20
-452.95488162584491
 30
0.0
  0
POINT
  5
102
100
AcDbEntity
  8
Defpoints
370
               0
390
0
 62
               0
100
AcDbPoint
 10
260.90425851128674
 20
-357.954881625844
 30
0.0
  0
POINT
  5
103
100
AcDbEntity
  8
Defpoints
370
               0
390
0
 62
               0
100
AcDbPoint
 10
157.90425851128674
 20
-357.954881625844
 30
0.0
  0
ENDBLK
  5
104
100
AcDbEntity
  8
notes
390
0
100
AcDbBlockEnd
  0
BLOCK
  5
105
100
AcDbEntity
  8
notes
390
0
100
AcDbBlockBegin
  2
*D17
 70
               1
 10
0.0
 20
0.0
 30
0.0
  3
*D17
  1

  0
LINE
  5
106
100
AcDbEntity
  8
0
370
              -2
390
0
  6
Continuous
 62
               0
100
AcDbLine
 10
238.00425851128688
 20
-452.95488162584491
 30
0.0
 11
157.90425851128674
 21
-452.95488162584491
 31
0.0
  0
LINE
  5
107
100
AcDbEntity
  8
0
370
              -2
390
0
  6
Continuous
 62
               0
100
AcDbLine
 10
367.45951526363609
 20
-517.95488162584491
 30
0.0
 11
157.90425851128674
 21
-517.95488162584491
 31
0.0
  0
LINE
  5
108
100
AcDbEntity
  8
0
370
              -2
390
0
  6
Continuous
 62
               0
100
AcDbLine
 10
157.90425851128674
 20
-452.95488162584491
 30
0.0
 11
157.90425851128674
 21
-517.95488162584491
 31
0.0
  0
CIRCLE
  5
109
102
{ACAD_REACTORS
330
10A
102
}
100
AcDbEntity
  8
0
370
              -2
390
0
  6
Continuous
 62
               0
100
AcDbCircle
 10
157.90425851128674
 20
-452.95488162584491
 30
0.0
 40
1.9998779296875
  0
HATCH
  5
10A
100
AcDbEntity
  8
0
370
              -2
390
0
  6
Continuous
 62
               0
100
AcDbHatch
 10
0.0
 20
0.0
 30
0.0
210
0.0
220
0.0
230
1.0
  2
SOLID
 70
               1
 71
               1
 91
        1
 92
        1
 93
        1
 72
               2
 10
157.90425851128674
 20
-452.95488162584491
 40
1.9998779296875
 50
0.0
 51
360.0
 73
               0
 97
        1
330
109
 75
               0
 76
               1
 98
        1
 10
0.0
 20
0.0
  0
CIRCLE
  5
10B
102
{ACAD_REACTORS
330
10C
102
}
100
AcDbEntity
  8
0
370
              -2
390
0
  6
Continuous
 62
               0
100
AcDbCircle
 10
157.90425851128674
 20
-517.95488162584491
 30
0.0
 40
1.9998779296875
  0
HATCH
  5
10C
100
AcDbEntity
  8
0
370
              -2
390
0
  6
Continuous
 62
               0
100
AcDbHatch
 10
0.0
 20
0.0
 30
0.0
210
0.0
220
0.0
230
1.0
  2
SOLID
 70
               1
 71
               1
 91
        1
 92
        1
 93
        1
 72
               2
 10
157.90425851128674
 20
-517.95488162584491
 40
1.9998779296875
 50
0.0
 51
360.0
 73
               0
 97
        1
330
10B
 75
               0
 76
               1
 98
        1
 10
0.0
 20
0.0
  0
MTEXT
  5
10D
100
AcDbEntity
  8
0
390
0
 62
               0
100
AcDbMText
 10
124.02664132378675
 20
-501.32988162584491
 30
0.0
 40
24.432617187500004
 41
0.0
 71
               1
 72
               1
  1
65
  7
ＭＳ ゴシック
 11
0.0
 21
1.0
 31
0.0
 73
               1
 44
0.7828267384257843
  0
POINT
  5
10E
100
AcDbEntity
  8
Defpoints
370
               0
390
0
 62
               0
100
AcDbPoint
 10
392.45951526363609
 20
-517.95488162584491
 30
0.0
  0
POINT
  5
10F
100
AcDbEntity
  8
Defpoints
370
               0
390
0
 62
               0
100
AcDbPoint
 10
263.00425851128688
 20
-452.95488162584491
 30
0.0
  0
POINT
  5
110
100
AcDbEntity
  8
Defpoints
370
               0
390
0
 62
               0
100
AcDbPoint
 10
157.90425851128674
 20
-452.95488162584491
 30
0.0
  0
ENDBLK
  5
111
100
AcDbEntity
  8
notes
390
0
100
AcDbBlockEnd
  0
BLOCK
  5
112
100
AcDbEntity
  8
notes
390
0
100
AcDbBlockBegin
  2
*D18
 70
               1
 10
0.0
 20
0.0
 30
0.0
  3
*D18
  1

  0
LINE
  5
113
100
AcDbEntity
  8
0
370
              -2
390
0
  6
Continuous
 62
               0
100
AcDbLine
 10
522.57740622546555
 20
-357.954881625844
 30
0.0
 11
497.57958936322837
 21
-357.954881625844
 31
0.0
  0
LINE
  5
114
100
AcDbEntity
  8
0
370
              -2
390
0
  6
Continuous
 62
               0
100
AcDbLine
 10
522.57740622546555
 20
-467.95488162584491
 30
0.0
 11
497.57958936322837
 21
-467.95488162584491
 31
0.0
  0
LINE
  5
115
100
AcDbEntity
  8
0
370
              -2
390
0
  6
Continuous
 62
               0
100
AcDbLine
 10
497.57958936322837
 20
-357.954881625844
 30
0.0
 11
497.57958936322837
 21
-202.95426553768684
 31
0.0
  0
LINE
  5
116
100
AcDbEntity
  8
0
370
              -2
390
0
  6
Continuous
 62
               0
100
AcDbLine
 10
497.57958936322837
 20
-357.954881625844
 30
0.0
 11
497.57958936322837
 21
-467.95488162584491
 31
0.0
  0
CIRCLE
  5
117
102
{ACAD_REACTORS
330
118
102
}
100
AcDbEntity
  8
0
370
              -2
390
0
  6
Continuous
 62
               0
100
AcDbCircle
 10
497.57958936322837
 20
-357.954881625844
 30
0.0
 40
1.9998779296875
  0
HATCH
  5
118
100
AcDbEntity
  8
0
370
              -2
390
0
  6
Continuous
 62
               0
100
AcDbHatch
 10
0.0
 20
0.0
 30
0.0
210
0.0
220
0.0
230
1.0
  2
SOLID
 70
               1
 71
               1
 91
        1
 92
        1
 93
        1
 72
               2
 10
497.57958936322837
 20
-357.954881625844
 40
1.9998779296875
 50
0.0
 51
360.0
 73
               0
 97
        1
330
117
 75
               0
 76
               1
 98
        1
 10
0.0
 20
0.0
  0
CIRCLE
  5
119
102
{ACAD_REACTORS
330
11A
102
}
100
AcDbEntity
  8
0
370
              -2
390
0
  6
Continuous
 62
               0
100
AcDbCircle
 10
497.57958936322837
 20
-467.95488162584491
 30
0.0
 40
1.9998779296875
  0
HATCH
  5
11A
100
AcDbEntity
  8
0
370
              -2
390
0
  6
Continuous
 62
               0
100
AcDbHatch
 10
0.0
 20
0.0
 30
0.0
210
0.0
220
0.0
230
1.0
  2
SOLID
 70
               1
 71
               1
 91
        1
 92
        1
 93
        1
 72
               2
 10
497.57958936322837
 20
-467.95488162584491
 40
1.9998779296875
 50
0.0
 51
360.0
 73
               0
 97
        1
330
119
 75
               0
 76
               1
 98
        1
 10
0.0
 20
0.0
  0
MTEXT
  5
11B
100
AcDbEntity
  8
0
390
0
 62
               0
100
AcDbMText
 10
463.70197217572837
 20
-345.82926553768687
 30
0.0
 40
24.432617187500004
 41
0.0
 71
               1
 72
               1
  1
110(深さ)
  7
ＭＳ ゴシック
 11
0.0
 21
1.0
 31
0.0
 73
               1
 44
0.7828267384257843
  0
POINT
  5
11C
100
AcDbEntity
  8
Defpoints
370
               0
390
0
 62
               0
100
AcDbPoint
 10
497.57740622546555
 20
-467.95488162584491
 30
0.0
  0
POINT
  5
11D
100
AcDbEntity
  8
Defpoints
370
               0
390
0
 62
               0
100
AcDbPoint
 10
497.57740622546555
 20
-357.954881625844
 30
0.0
  0
POINT
  5
11E
100
AcDbEntity
  8
Defpoints
370
               0
390
0
 62
               0
100
AcDbPoint
 10
497.57958936322837
 20
-357.954881625844
 30
0.0
  0
ENDBLK
  5
11F
100
AcDbEntity
  8
notes
390
0
100
AcDbBlockEnd
  0
BLOCK
  5
120
100
AcDbEntity
  8
notes
390
0
100
AcDbBlockBegin
  2
*D19
 70
               1
 10
0.0
 20
0.0
 30
0.0
  3
*D19
  1

  0
LINE
  5
121
100
AcDbEntity
  8
0
370
              -2
390
0
  6
Continuous
 62
               0
100
AcDbLine
 10
692.87958936322752
 20
-332.954881625844
 30
0.0
 11
692.87958936322752
 21
-246.63012976480124
 31
0.0
  0
LINE
  5
122
100
AcDbEntity
  8
0
370
              -2
390
0
  6
Continuous
 62
               0
100
AcDbLine
 10
757.90425851128634
 20
-337.954881625844
 30
0.0
 11
757.90425851128634
 21
-246.63012976480124
 31
0.0
  0
LINE
  5
123
100
AcDbEntity
  8
0
370
              -2
390
0
  6
Continuous
 62
               0
100
AcDbLine
 10
692.87958936322752
 20
-246.63012976480124
 30
0.0
 11
757.90425851128634
 21
-246.63012976480124
 31
0.0
  0
CIRCLE
  5
124
102
{ACAD_REACTORS
330
125
102
}
100
AcDbEntity
  8
0
370
              -2
390
0
  6
Continuous
 62
               0
100
AcDbCircle
 10
692.87958936322752
 20
-246.63012976480124
 30
0.0
 40
1.9998779296875
  0
HATCH
  5
125
100
AcDbEntity
  8
0
370
              -2
390
0
  6
Continuous
 62
               0
100
AcDbHatch
 10
0.0
 20
0.0
 30
0.0
210
0.0
220
0.0
230
1.0
  2
SOLID
 70
               1
 71
               1
 91
        1
 92
        1
 93
        1
 72
               2
 10
692.87958936322752
 20
-246.63012976480124
 40
1.9998779296875
 50
0.0
 51
360.0
 73
               0
 97
        1
330
124
 75
               0
 76
               1
 98
        1
 10
0.0
 20
0.0
  0
CIRCLE
  5
126
102
{ACAD_REACTORS
330
127
102
}
100
AcDbEntity
  8
0
370
              -2
390
0
  6
Continuous
 62
               0
100
AcDbCircle
 10
757.90425851128634
 20
-246.63012976480124
 30
0.0
 40
1.9998779296875
  0
HATCH
  5
127
100
AcDbEntity
  8
0
370
              -2
390
0
  6
Continuous
 62
               0
100
AcDbHatch
 10
0.0
 20
0.0
 30
0.0
210
0.0
220
0.0
230
1.0
  2
SOLID
 70
               1
 71
               1
 91
        1
 92
        1
 93
        1
 72
               2
 10
757.90425851128634
 20
-246.63012976480124
 40
1.9998779296875
 50
0.0
 51
360.0
 73
               0
 97
        1
330
126
 75
               0
 76
               1
 98
        1
 10
0.0
 20
0.0
  0
MTEXT
  5
128
100
AcDbEntity
  8
0
390
0
 62
               0
100
AcDbMText
 10
709.51692393725693
 20
-212.75251257730125
 30
0.0
 40
24.432617187500004
 41
0.0
 71
               1
 72
               1
  1
65
  7
ＭＳ ゴシック
 73
               1
 44
0.7828267384257843
  0
POINT
  5
129
100
AcDbEntity
  8
Defpoints
370
               0
390
0
 62
               0
100
AcDbPoint
 10
757.90425851128634
 20
-362.954881625844
 30
0.0
  0
POINT
  5
12A
100
AcDbEntity
  8
Defpoints
370
               0
390
0
 62
               0
100
AcDbPoint
 10
692.87958936322752
 20
-357.954881625844
 30
0.0
  0
POINT
  5
12B
100
AcDbEntity
  8
Defpoints
370
               0
390
0
 62
               0
100
AcDbPoint
 10
692.87958936322752
 20
-246.63012976480124
 30
0.0
  0
ENDBLK
  5
12C
100
AcDbEntity
  8
notes
390
0
100
AcDbBlockEnd
  0
ENDSEC
  0
SECTION
  2
ENTITIES
  0
MTEXT
  5
12D
100
AcDbEntity
  8
template
390
0
 62
               7
100
AcDbMText
 10
-967.99999999975921
 20
-1147.4176292337004
 30
0.0
 40
16.288411458333332
 41
0.0
 71
               1
 72
               1
  1
品名
  7
ＭＳ ゴシック
 73
               1
 44
0.7828267384257843
  0
MTEXT
  5
12E
100
AcDbEntity
  8
template
390
0
 62
               7
100
AcDbMText
 10
-967.99999999975921
 20
-1232.4176292337004
 30
0.0
 40
16.288411458333332
 41
0.0
 71
               1
 72
               1
  1
仕様
  7
ＭＳ ゴシック
 73
               1
 44
0.7828267384257843
  0
MTEXT
  5
12F
100
AcDbEntity
  8
template
390
0
 62
               7
100
AcDbMText
 10
-914.99999999975921
 20
-1176.0000901712006
 30
0.0
 40
24.432617187500004
 41
0.0
 71
               1
 72
               1
  1
洗面器 -CATALANO,Zero-
  7
ＭＳ ゴシック
 73
               1
 44
0.7828267384257843
  0
LINE
  5
130
100
AcDbEntity
  8
template
370
               5
390
0
  6
Continuous
 62
               7
100
AcDbLine
 10
974.99999999975876
 20
-1224.0027073587005
 30
0.0
 11
-975.00000000024124
 21
-1224.0027073587005
 31
0.0
  0
LWPOLYLINE
  5
131
100
AcDbEntity
  8
template
370
               5
390
0
  6
Continuous
 62
               7
100
AcDbPolyline
 90
        5
 70
             128
 10
975.00000000024124
 20
1405.9972926412995
 10
-974.99999999975921
 20
1405.9972926412995
 10
-974.99999999975921
 20
-1394.0027073587003
 10
975.00000000024124
 20
-1394.0027073587003
 10
975.00000000024124
 20
1405.9972926412995
  0
LINE
  5
132
100
AcDbEntity
  8
template
370
               5
390
0
  6
Continuous
 62
               7
100
AcDbLine
 10
974.99999999975876
 20
-1139.0027073587005
 30
0.0
 11
-975.00000000024124
 21
-1139.0027073587005
 31
0.0
  0
LINE
  5
133
100
AcDbEntity
  8
template
370
               5
390
0
  6
Continuous
 62
               7
100
AcDbLine
 10
975.00000000024124
 20
-1309.0027073587005
 30
0.0
 11
222.00000000024124
 21
-1309.0027073587005
 31
0.0
  0
MTEXT
  5
134
100
AcDbEntity
  8
template
390
0
 62
               7
100
AcDbMText
 10
-974.99999999955594
 20
-1405.8565294155574
 30
0.0
 40
21.717881944444446
 41
0.0
 71
               1
 72
               1
  1
100707SH
  7
ＭＳ ゴシック
 73
               1
 44
0.7828267384257843
  0
MTEXT
  5
135
100
AcDbEntity
  8
template
390
0
 62
               7
100
AcDbMText
 10
251.87140625250089
 20
-1338.9131018320081
 30
0.0
 40
24.432617187500004
 41
0.0
 71
               1
 72
               1
  1
大洋金物株式会社 ティーフォルム事業部
  7
ＭＳ ゴシック
 73
               1
 44
0.7828267384257843
  0
INSERT
  5
136
100
AcDbEntity
  8
template
390
0
 62
               7
100
AcDbBlockReference
  2
グループ
 10
104.46270199999999
 20
153.284138125
 30
0.0
  0
MTEXT
  5
137
100
AcDbEntity
  8
template
390
0
 62
               7
100
AcDbMText
 10
784.00000000049999
 20
-1261.0000901712006
 30
0.0
 40
24.432617187500004
 41
0.0
 71
               1
 72
               1
  1
1:10
  7
ＭＳ ゴシック
 73
               1
 44
0.7828267384257843
  0
MTEXT
  5
138
100
AcDbEntity
  8
template
390
0
 62
               7
100
AcDbMText
 10
731.00000000049999
 20
-1232.4176292337004
 30
0.0
 40
16.288411458333332
 41
0.0
 71
               1
 72
               1
  1
縮尺
  7
ＭＳ ゴシック
 73
               1
 44
0.7828267384257843
  0
LINE
  5
139
100
AcDbEntity
  8
template
370
               5
390
0
  6
Continuous
 62
               7
100
AcDbLine
 10
724.00000000049999
 20
-1309.0027073587005
 30
0.0
 11
724.00000000049999
 21
-1224.0027073587005
 31
0.0
  0
MTEXT
  5
13A
100
AcDbEntity
  8
template
390
0
 62
               7
100
AcDbMText
 10
480.00000000049999
 20
-1232.4176292337004
 30
0.0
 40
16.288411458333332
 41
0.0
 71
               1
 72
               1
  1
容量
  7
ＭＳ ゴシック
 73
               1
 44
0.7828267384257843
  0
MTEXT
  5
13B
100
AcDbEntity
  8
template
390
0
 62
               7
100
AcDbMText
 10
533.00000000049999
 20
-1261.0000901712006
 30
0.0
 40
24.432617187500004
 41
0.0
 71
               1
 72
               1
  1
6L
  7
ＭＳ ゴシック
 73
               1
 44
0.7828267384257843
  0
LINE
  5
13C
100
AcDbEntity
  8
template
370
               5
390
0
  6
Continuous
 62
               7
100
AcDbLine
 10
473.00000000049999
 20
-1309.0027073587005
 30
0.0
 11
473.00000000049999
 21
-1224.0027073587005
 31
0.0
  0
MTEXT
  5
13D
100
AcDbEntity
  8
template
390
0
 62
               7
100
AcDbMText
 10
229.00000000049999
 20
-1147.4176292337004
 30
0.0
 40
16.288411458333332
 41
0.0
 71
               1
 72
               1
  1
品番
  7
ＭＳ ゴシック
 73
               1
 44
0.7828267384257843
  0
MTEXT
  5
13E
100
AcDbEntity
  8
template
390
0
 62
               7
100
AcDbMText
 10
229.00000000049999
 20
-1232.4176292337004
 30
0.0
 40
16.288411458333332
 41
0.0
 71
               1
 72
               1
  1
重量
  7
ＭＳ ゴシック
 73
               1
 44
0.7828267384257843
  0
MTEXT
  5
13F
100
AcDbEntity
  8
template
390
0
 62
               7
100
AcDbMText
 10
282.00000000049999
 20
-1176.0000901712006
 30
0.0
 40
24.432617187500004
 41
0.0
 71
               1
 72
               1
  1
ADF70-0020
  7
ＭＳ ゴシック
 73
               1
 44
0.7828267384257843
  0
MTEXT
  5
140
100
AcDbEntity
  8
template
390
0
 62
               7
100
AcDbMText
 10
282.00000000049999
 20
-1261.0000901712006
 30
0.0
 40
24.432617187500004
 41
0.0
 71
               1
 72
               1
  1
14.5kg
  7
ＭＳ ゴシック
 73
               1
 44
0.7828267384257843
  0
LINE
  5
141
100
AcDbEntity
  8
template
370
               5
390
0
  6
Continuous
 62
               7
100
AcDbLine
 10
222.00000000049999
 20
-1394.0027073587005
 30
0.0
 11
222.00000000049999
 21
-1139.0027073587005
 31
0.0
  0
MTEXT
  5
142
100
AcDbEntity
  8
template
390
0
 62
               7
100
AcDbMText
 10
-914.99999999975921
 20
-1261.0000901712006
 30
0.0
 40
24.432617187500004
 41
0.0
 71
               1
 72
               1
  1
壁掛け/オーバーフロー付き/壁取付ボルト付属/\P陶器/ホワイト
  7
ＭＳ ゴシック
 73
               1
 44
1.3047112307096407
  0
DIMENSION
  5
143
100
AcDbEntity
  8
notes
370
               5
390
0
  6
Continuous
 62
               7
100
AcDbDimension
  2
*D4
 10
757.90425851128634
 20
-667.95488162584491
 30
0.0
 11
572.90425851128691
 21
-667.95488162584491
 31
0.0
 71
               5
 72
               1
 41
1.0
 42
0.0
  3
tform線あり
100
AcDbAlignedDimension
 13
387.90425851128754
 23
-514.95488162584491
 33
0.0
 14
757.90425851128634
 24
-514.95488162584491
 34
0.0
100
AcDbRotatedDimension
1001
ACAD
1000
DSTYLE
1002
{
1070
             279
1070
               2
1070
             340
1005
34
1070
             147
1040
5.0
1002
}
  0
DIMENSION
  5
144
100
AcDbEntity
  8
notes
370
               5
390
0
  6
Continuous
 62
               7
100
AcDbDimension
  2
*D5
 10
-555.98605028386157
 20
-618.16300488511695
 30
0.0
 11
-415.98605028386106
 21
-618.16300488511695
 31
0.0
 71
               5
 72
               1
 41
1.0
 42
0.0
  3
tform線あり
100
AcDbAlignedDimension
 13
-275.98605028386038
 23
-518.1114641700666
 33
0.0
 14
-555.98605028386157
 24
-518.1114641700666
 34
0.0
100
AcDbRotatedDimension
1001
ACAD
1000
DSTYLE
1002
{
1070
             279
1070
               2
1070
             340
1005
34
1070
             147
1040
5.0
1002
}
  0
DIMENSION
  5
145
100
AcDbEntity
  8
notes
370
               5
390
0
  6
Continuous
 62
               7
100
AcDbDimension
  2
*D6
 10
-66.35903480792966
 20
-357.95487951766961
 30
0.0
 11
-66.35903480792966
 21
-437.95487951767007
 31
0.0
 71
               5
 72
               1
 41
1.0
 42
0.0
  3
tform線あり
100
AcDbAlignedDimension
 13
-284.03231251693666
 23
-517.95487951767052
 33
0.0
 14
-171.85104806255458
 24
-357.95487951766961
 34
0.0
 50
90.0
100
AcDbRotatedDimension
1001
ACAD
1000
DSTYLE
1002
{
1070
             279
1070
               2
1070
             340
1005
34
1070
             147
1040
5.0
1002
}
  0
DIMENSION
  5
146
100
AcDbEntity
  8
notes
370
               5
390
0
  6
Continuous
 62
               7
100
AcDbDimension
  2
*D7
 10
-765.88901995269202
 20
-357.954881625844
 30
0.0
 11
-765.88901995269202
 21
-377.95488162584422
 31
0.0
 71
               5
 72
               1
 41
1.0
 42
0.0
  3
tform線あり
100
AcDbAlignedDimension
 13
-503.6503538476332
 23
-397.95488162584445
 33
0.0
 14
-660.16697317193552
 24
-357.954881625844
 34
0.0
 50
90.0
100
AcDbRotatedDimension
1001
ACAD
1000
DSTYLE
1002
{
1070
             279
1070
               2
1070
             340
1005
34
1070
             147
1040
5.0
1002
}
  0
DIMENSION
  5
147
100
AcDbEntity
  8
notes
370
               5
390
0
  6
Continuous
 62
               7
100
AcDbDimension
  2
*D8
 10
-481.05238609858424
 20
-257.95488162584434
 30
0.0
 11
-416.05238609858378
 21
-257.95488162584434
 31
0.0
 71
               5
 72
               1
 41
1.0
 42
0.0
  3
tform線あり
100
AcDbAlignedDimension
 13
-351.05238609858327
 23
-389.14190704269515
 33
0.0
 14
-481.05238609858424
 24
-389.14190704269515
 34
0.0
100
AcDbRotatedDimension
1001
ACAD
1000
DSTYLE
1002
{
1070
             279
1070
               2
1070
             340
1005
34
1070
             147
1040
5.0
1002
}
  0
DIMENSION
  5
148
100
AcDbEntity
  8
notes
370
               5
390
0
  6
Continuous
 62
               7
100
AcDbDimension
  2
*D9
 10
-666.13302385955092
 20
957.8923693182029
 30
0.0
 11
-416.13302385955063
 21
957.8923693182029
 31
0.0
 71
               5
 72
               1
 41
1.0
 42
0.0
  3
tform線あり
100
AcDbAlignedDimension
 13
-166.13302385955024
 23
854.88163183548966
 33
0.0
 14
-666.13302385955092
 24
854.88163183548966
 34
0.0
100
AcDbRotatedDimension
1001
ACAD
1000
DSTYLE
1002
{
1070
             279
1070
               2
1070
             340
1005
34
1070
             147
1040
5.0
1002
}
  0
DIMENSION
  5
149
100
AcDbEntity
  8
notes
370
               5
390
0
  6
Continuous
 62
               7
100
AcDbDimension
  2
*D10
 10
-66.133023859550221
 20
857.89236931820335
 30
0.0
 11
-66.133023859550221
 21
607.89236931820381
 31
0.0
 71
               5
 72
               1
 41
1.0
 42
0.0
  3
tform線あり
100
AcDbAlignedDimension
 13
-372.57963274649029
 23
357.89236931820426
 33
0.0
 14
-169.13980062117923
 24
857.89236931820335
 34
0.0
 50
90.0
100
AcDbRotatedDimension
1001
ACAD
1000
DSTYLE
1002
{
1070
             279
1070
               2
1070
             340
1005
34
1070
             147
1040
5.0
1002
}
  0
DIMENSION
  5
14A
100
AcDbEntity
  8
notes
370
               5
390
0
  6
Continuous
 62
               7
100
AcDbDimension
  2
*D11
 10
-621.13137684779883
 20
257.89236931820426
 30
0.0
 11
-416.13137684779866
 21
257.89236931820426
 31
0.0
 71
               5
 72
               1
 41
1.0
 42
0.0
  3
tform線あり
100
AcDbAlignedDimension
 13
-211.13137684779838
 23
464.79583567412624
 33
0.0
 14
-621.13137684779883
 24
464.79583567412624
 34
0.0
100
AcDbRotatedDimension
1001
ACAD
1000
DSTYLE
1002
{
1070
             279
1070
               2
1070
             340
1005
34
1070
             147
1040
5.0
1002
}
  0
DIMENSION
  5
14B
100
AcDbEntity
  8
notes
370
               5
390
0
  6
Continuous
 62
               7
100
AcDbDimension
  2
*D12
 10
-428.55400141725517
 20
780.2811757667738
 30
0.0
 11
-263.67963274649014
 21
881.65554443753831
 31
0.0
 70
               3
 71
               5
 72
               1
 41
1.0
 42
0.0
  3
tform線あり
100
AcDbDiametricDimension
 15
-403.80526407572574
 25
805.02991310830305
 35
0.0
 40
108.36500705120544
1001
ACAD
1000
DSTYLE
1002
{
1070
             172
1070
               0
1070
             289
1070
               0
1070
             342
1005
45
1070
             340
1005
34
1070
              73
1070
               1
1070
              74
1070
               1
1070
              75
1070
               1
1070
              76
1070
               1
1070
               3
1000

1070
             174
1070
               0
1070
             147
1040
5.0
1002
}
  0
DIMENSION
  5
14C
100
AcDbEntity
  8
notes
370
               5
390
0
  6
Continuous
 62
               7
100
AcDbDimension
  2
*D13
 10
-766.13168746054907
 20
857.89236931820335
 30
0.0
 11
-766.13168746054907
 21
792.89236931820324
 31
0.0
 71
               5
 72
               1
 41
1.0
 42
0.0
  3
tform線あり
100
AcDbAlignedDimension
 13
-658.86809551595491
 23
727.89236931820301
 33
0.0
 14
-658.86809551595491
 24
857.89236931820335
 34
0.0
 50
90.0
100
AcDbRotatedDimension
1001
ACAD
1000
DSTYLE
1002
{
1070
             279
1070
               2
1070
             340
1005
34
1070
             147
1040
5.0
1002
}
  0
DIMENSION
  5
14D
100
AcDbEntity
  8
notes
370
               5
390
0
  6
Continuous
 62
               7
100
AcDbDimension
  2
*D14
 10
-766.13168746054907
 20
727.89236931820301
 30
0.0
 11
-766.13168746054907
 21
565.39236931820346
 31
0.0
 71
               5
 72
               1
 41
1.0
 42
0.0
  3
tform線あり
100
AcDbAlignedDimension
 13
-560.70400999432968
 23
402.89236931820392
 33
0.0
 14
-667.28605028386164
 24
727.89236931820301
 34
0.0
 50
90.0
100
AcDbRotatedDimension
1001
ACAD
1000
DSTYLE
1002
{
1070
             279
1070
               2
1070
             340
1005
34
1070
             147
1040
5.0
1002
}
  0
DIMENSION
  5
14E
100
AcDbEntity
  8
notes
370
               5
390
0
  6
Continuous
 62
               7
100
AcDbDimension
  2
*D15
 10
527.90425851128748
 20
-617.95488162584491
 30
0.0
 11
642.90425851128691
 21
-617.95488162584491
 31
0.0
 71
               5
 72
               1
 41
1.0
 42
0.0
  3
tform線あり
100
AcDbAlignedDimension
 13
757.90425851128634
 23
-514.95488162584491
 33
0.0
 14
527.90425851128748
 24
-512.8231113331243
 34
0.0
100
AcDbRotatedDimension
1001
ACAD
1000
DSTYLE
1002
{
1070
             279
1070
               2
1070
             340
1005
34
1070
             147
1040
5.0
1002
}
  0
DIMENSION
  5
14F
100
AcDbEntity
  8
notes
370
               5
390
0
  6
Continuous
 62
               7
100
AcDbDimension
  2
*D16
 10
157.90425851128674
 20
-357.954881625844
 30
0.0
 11
157.90425851128674
 21
-405.45488162584445
 31
0.0
 71
               5
 72
               1
 41
1.0
 42
0.0
  3
tform線あり
100
AcDbAlignedDimension
 13
263.00425851128688
 23
-452.95488162584491
 33
0.0
 14
260.90425851128674
 24
-357.954881625844
 34
0.0
 50
90.0
100
AcDbRotatedDimension
1001
ACAD
1000
DSTYLE
1002
{
1070
             279
1070
               2
1070
             340
1005
34
1070
             147
1040
5.0
1002
}
  0
DIMENSION
  5
150
100
AcDbEntity
  8
notes
370
               5
390
0
  6
Continuous
 62
               7
100
AcDbDimension
  2
*D17
 10
157.90425851128674
 20
-452.95488162584491
 30
0.0
 11
157.90425851128674
 21
-485.45488162584491
 31
0.0
 71
               5
 72
               1
 41
1.0
 42
0.0
  3
tform線あり
100
AcDbAlignedDimension
 13
392.45951526363609
 23
-517.95488162584491
 33
0.0
 14
263.00425851128688
 24
-452.95488162584491
 34
0.0
 50
90.0
100
AcDbRotatedDimension
1001
ACAD
1000
DSTYLE
1002
{
1070
             279
1070
               2
1070
             340
1005
34
1070
             147
1040
5.0
1002
}
  0
DIMENSION
  5
151
100
AcDbEntity
  8
notes
370
               5
390
0
  6
Continuous
 62
               7
100
AcDbDimension
  2
*D18
 10
497.57958936322837
 20
-357.954881625844
 30
0.0
 11
502.57958936322837
 21
-345.82926553768687
 31
0.0
 70
             128
 71
               5
 72
               1
 41
1.0
 42
0.0
  3
tform線あり
100
AcDbAlignedDimension
 13
497.57740622546555
 23
-467.95488162584491
 33
0.0
 14
497.57740622546555
 24
-357.954881625844
 34
0.0
 50
90.0
100
AcDbRotatedDimension
1001
ACAD
1000
DSTYLE
1002
{
1070
             279
1070
               2
1070
             340
1005
34
1070
               3
1000
<>(深さ)
1070
             174
1070
               0
1070
             147
1040
5.0
1002
}
  0
MTEXT
  5
152
100
AcDbEntity
  8
notes
390
0
 62
               7
100
AcDbMText
 10
-286.53460488754655
 20
-278.19658951390772
 30
0.0
 40
24.432617187500004
 41
0.0
 71
               1
 72
               1
  1
壁取付ボルト穴(2ヶ所)
  7
ＭＳ ゴシック
 73
               1
 44
0.7828267384257843
  0
LINE
  5
153
100
AcDbEntity
  8
notes
370
               5
390
0
  6
Continuous
 62
               7
100
AcDbLine
 10
-351.05403067431405
 20
-397.95488162584445
 30
0.0
 11
-265.60797366819122
 21
-312.50882461972117
 31
0.0
  0
DIMENSION
  5
154
100
AcDbEntity
  8
notes
370
               5
390
0
  6
Continuous
 62
               7
100
AcDbDimension
  2
*D19
 10
692.87958936322752
 20
-246.63012976480124
 30
0.0
 11
725.39192393725693
 21
-246.63012976480124
 31
0.0
 71
               5
 72
               1
 41
1.0
 42
0.0
  3
tform線あり
100
AcDbAlignedDimension
 13
757.90425851128634
 23
-362.954881625844
 33
0.0
 14
692.87958936322752
 24
-357.954881625844
 34
0.0
100
AcDbRotatedDimension
1001
ACAD
1000
DSTYLE
1002
{
1070
             279
1070
               2
1070
             340
1005
34
1070
             147
1040
5.0
1002
}
  0
SPLINE
  5
155
100
AcDbEntity
  8
ADF70-0020
370
              15
390
0
  6
Continuous
 62
               7
100
AcDbSpline
210
0.0
220
0.0
230
1.0
 70
               9
 71
               2
 72
              17
 73
              14
 74
               0
 42
0.000001
 43
0.000001
 40
0.0
 40
0.0
 40
0.0
 40
1.0
 40
2.0
 40
3.0
 40
4.0
 40
5.0
 40
6.0
 40
7.0
 40
8.0
 40
9.0
 40
10.0
 40
11.0
 40
12.0
 40
12.0
 40
12.0
 10
-392.57416794938649
 20
628.88856071952137
 30
0.0
 10
-392.57416794938649
 20
635.20113643915386
 30
0.0
 10
-398.88674366901881
 20
646.13483831218286
 30
0.0
 10
-409.82044554204816
 20
652.44741403181524
 30
0.0
 10
-422.44559698131314
 20
652.44741403181547
 30
0.0
 10
-433.37929885434249
 20
646.13483831218286
 30
0.0
 10
-439.69187457397521
 20
635.20113643915386
 30
0.0
 10
-439.69187457397521
 20
622.57598499988899
 30
0.0
 10
-433.37929885434272
 20
611.64228312685975
 30
0.0
 10
-422.44559698131337
 20
605.32970740722772
 30
0.0
 10
-409.82044554204816
 20
605.32970740722737
 30
0.0
 10
-398.88674366901915
 20
611.64228312685975
 30
0.0
 10
-392.57416794938649
 20
622.57598499988876
 30
0.0
 10
-392.57416794938649
 20
628.88856071952137
 30
0.0
  0
SPLINE
  5
156
100
AcDbEntity
  8
ADF70-0020
370
              15
390
0
  6
Continuous
 62
               7
100
AcDbSpline
210
0.0
220
0.0
230
1.0
 70
               9
 71
               2
 72
              17
 73
              14
 74
               0
 42
0.000001
 43
0.000001
 40
0.0
 40
0.0
 40
0.0
 40
1.0
 40
2.0
 40
3.0
 40
4.0
 40
5.0
 40
6.0
 40
7.0
 40
8.0
 40
9.0
 40
10.0
 40
11.0
 40
12.0
 40
12.0
 40
12.0
 10
-375.52760505565504
 20
628.88856071952125
 30
0.0
 10
-375.52760505565504
 20
639.76919242498707
 30
0.0
 10
-386.40823676112086
 20
658.61499935729819
 30
0.0
 10
-405.25404369343244
 20
669.49563106276412
 30
0.0
 10
-427.01530710436424
 20
669.49563106276412
 30
0.0
 10
-445.86111403667616
 20
658.61499935729853
 30
0.0
 10
-456.74174574214209
 20
639.76919242498707
 30
0.0
 10
-456.74174574214209
 20
618.00792901405589
 30
0.0
 10
-445.86111403667616
 20
599.16212208174454
 30
0.0
 10
-427.01530710436469
 20
588.28149037627861
 30
0.0
 10
-405.25404369343278
 20
588.28149037627861
 30
0.0
 10
-386.40823676112103
 20
599.1621220817442
 30
0.0
 10
-375.52760505565504
 20
618.00792901405532
 30
0.0
 10
-375.52760505565504
 20
628.88856071952125
 30
0.0
  0
LINE
  5
157
100
AcDbEntity
  8
ADF70-0020
370
              15
390
0
  6
Continuous
 62
               7
100
AcDbLine
 10
-604.05377542400663
 20
857.89236559984772
 30
0.0
 11
-600.92444421425159
 21
857.89236559984772
 31
0.0
  0
LINE
  5
158
100
AcDbEntity
  8
ADF70-0020
370
              15
390
0
  6
Continuous
 62
               7
100
AcDbLine
 10
-231.3448970220594
 20
857.89236559984772
 30
0.0
 11
-228.21227666084258
 21
857.89236559984772
 31
0.0
  0
SPLINE
  5
159
100
AcDbEntity
  8
ADF70-0020
370
              15
390
0
  6
Continuous
 62
               7
100
AcDbSpline
210
0.0
220
0.0
230
1.0
 70
               9
 71
               2
 72
              55
 73
              52
 74
               0
 42
0.000001
 43
0.000001
 40
0.0
 40
0.0
 40
0.0
 40
1.0
 40
2.0
 40
3.0
 40
4.0
 40
4.0
 40
5.0
 40
5.0
 40
6.0
 40
7.0
 40
8.0
 40
8.0
 40
9.0
 40
9.0
 40
10.0
 40
10.0
 40
11.0
 40
12.0
 40
13.0
 40
14.0
 40
15.0
 40
16.0
 40
17.0
 40
18.0
 40
18.0
 40
19.0
 40
19.0
 40
20.0
 40
21.0
 40
22.0
 40
22.0
 40
23.0
 40
23.0
 40
24.0
 40
25.0
 40
26.0
 40
27.0
 40
27.0
 40
28.0
 40
28.0
 40
29.0
 40
30.0
 40
31.0
 40
32.0
 40
33.0
 40
34.0
 40
35.0
 40
36.0
 40
37.0
 40
37.0
 40
38.0
 40
38.0
 40
38.0
 10
-211.13137684779929
 20
607.73792097223645
 30
0.0
 10
-211.13137684779929
 20
611.54364206827972
 30
0.0
 10
-211.13137684779861
 20
631.49451370552072
 30
0.0
 10
-211.13137684779929
 20
659.93672071471747
 30
0.0
 10
-211.13137684779929
 20
686.58723085051884
 30
0.0
 10
-211.13137684779929
 20
693.5060579592855
 30
0.0
 10
-211.13137684779929
 20
694.46513349014037
 30
0.0
 10
-211.13137684779929
 20
695.42420902099525
 30
0.0
 10
-211.83869881883959
 20
705.53223159512254
 30
0.0
 10
-220.0760144280099
 20
720.4689459894073
 30
0.0
 10
-233.85994685412777
 20
726.73021126536332
 30
0.0
 10
-243.06922839117999
 20
727.89236931820301
 30
0.0
 10
-244.81403698308071
 20
727.89236931820301
 30
0.0
 10
-246.55884557498149
 20
727.89236931820301
 30
0.0
 10
-246.55037126864414
 20
727.89236931820301
 30
0.0
 10
-246.54239675488361
 20
727.89236931820301
 30
0.0
 10
-250.37058010685922
 20
727.89236931820278
 30
0.0
 10
-271.91432786944404
 20
727.89236931820233
 30
0.0
 10
-327.45900578761996
 20
727.89236931820346
 30
0.0
 10
-379.85656423899633
 20
727.89236931820301
 30
0.0
 10
-434.71376974970627
 20
727.89236931820278
 30
0.0
 10
-505.03064303850437
 20
727.89236931820187
 30
0.0
 10
-560.60451175257106
 20
727.89236931820346
 30
0.0
 10
-581.90204288079883
 20
727.89236931820278
 30
0.0
 10
-585.7302262327745
 20
727.89236931820301
 30
0.0
 10
-587.47503482467505
 20
727.89236931820301
 30
0.0
 10
-589.2198434165756
 20
727.89236931820301
 30
0.0
 10
-604.46418929214008
 20
725.77664283453419
 30
0.0
 10
-617.34047172459634
 20
713.39746318919629
 30
0.0
 10
-620.64771853848958
 20
701.38174472810965
 30
0.0
 10
-621.13137684779974
 20
695.42420902099525
 30
0.0
 10
-621.13137684779974
 20
694.46513349014037
 30
0.0
 10
-621.13137684779974
 20
693.5060579592855
 30
0.0
 10
-621.13137684779929
 20
689.700336863242
 30
0.0
 10
-621.13137684779974
 20
669.74946522600089
 30
0.0
 10
-621.13137684779929
 20
641.30725821680448
 30
0.0
 10
-621.13137684779929
 20
614.65674808100277
 30
0.0
 10
-621.13137684779974
 20
607.73792097223645
 30
0.0
 10
-621.13137684779974
 20
602.42391475798206
 30
0.0
 10
-621.13137684779974
 20
597.10990854372778
 30
0.0
 10
-617.94135567713022
 20
566.01733305389064
 30
0.0
 10
-599.63185935395848
 20
507.82227707745142
 30
0.0
 10
-548.92705102329467
 20
446.46183024995719
 30
0.0
 10
-478.77834408586892
 20
407.94656633962938
 30
0.0
 10
-416.14284159557093
 20
401.41769444379111
 30
0.0
 10
-353.4374516516603
 20
408.08735250546363
 30
0.0
 10
-283.20725533399127
 20
446.58122295163093
 30
0.0
 10
-232.5155645809952
 20
507.95000046998712
 30
0.0
 10
-214.32229430251107
 20
566.01733305389064
 30
0.0
 10
-211.13137684779929
 20
597.10990854372778
 30
0.0
 10
-211.13137684779929
 20
602.42391475798206
 30
0.0
 10
-211.13137684779929
 20
607.73792097223645
 30
0.0
  0
SPLINE
  5
15A
100
AcDbEntity
  8
ADF70-0020
370
              15
390
0
  6
Continuous
 62
               7
100
AcDbSpline
210
0.0
220
0.0
230
1.0
 70
               8
 71
               2
 72
              84
 73
              81
 74
               0
 42
0.000001
 43
0.000001
 40
0.0
 40
0.0
 40
0.0
 40
1.0
 40
2.0
 40
3.0
 40
4.0
 40
5.0
 40
6.0
 40
7.0
 40
8.0
 40
8.0
 40
9.0
 40
9.0
 40
10.0
 40
11.0
 40
12.0
 40
12.0
 40
13.0
 40
13.0
 40
14.0
 40
14.0
 40
15.0
 40
16.0
 40
17.0
 40
18.0
 40
18.0
 40
19.0
 40
19.0
 40
20.0
 40
20.0
 40
21.0
 40
22.0
 40
23.0
 40
24.0
 40
24.0
 40
25.0
 40
25.0
 40
26.0
 40
26.0
 40
27.0
 40
28.0
 40
29.0
 40
30.0
 40
30.0
 40
31.0
 40
31.0
 40
32.0
 40
32.0
 40
33.0
 40
34.0
 40
35.0
 40
36.0
 40
36.0
 40
37.0
 40
37.0
 40
38.0
 40
38.0
 40
39.0
 40
40.0
 40
41.0
 40
42.0
 40
42.0
 40
43.0
 40
43.0
 40
44.0
 40
44.0
 40
45.0
 40
46.0
 40
47.0
 40
47.0
 40
48.0
 40
48.0
 40
49.0
 40
49.0
 40
50.0
 40
51.0
 40
52.0
 40
52.0
 40
53.0
 40
53.0
 40
54.0
 40
54.0
 40
54.0
 10
-264.08419293548991
 20
719.19944129097962
 30
0.0
 10
-268.73336311701087
 20
719.19944129097962
 30
0.0
 10
-299.4040012960894
 20
719.19944129097985
 30
0.0
 10
-346.10028031317324
 20
719.19944129097962
 30
0.0
 10
-401.70435065812484
 20
719.19944129097962
 30
0.0
 10
-459.09333349798584
 20
719.19944129097962
 30
0.0
 10
-511.12398471478917
 20
719.19944129097962
 30
0.0
 10
-550.73677800067605
 20
719.19944129097894
 30
0.0
 10
-565.53216701526878
 20
719.19944129097985
 30
0.0
 10
-568.16538466609256
 20
719.19944129097962
 30
0.0
 10
-568.56031455549055
 20
719.17482434747149
 30
0.0
 10
-568.95524444488854
 20
719.15020740396335
 30
0.0
 10
-572.02265004724939
 20
718.99765652738574
 30
0.0
 10
-569.85832056031575
 20
719.1828304902433
 30
0.0
 10
-570.69668633903086
 20
719.04889110746558
 30
0.0
 10
-572.30114881914062
 20
718.86503908346936
 30
0.0
 10
-572.69554931190396
 20
718.82224618884038
 30
0.0
 10
-573.0899498046673
 20
718.77945329421141
 30
0.0
 10
-573.74675456263822
 20
718.58781171249302
 30
0.0
 10
-574.40355932060913
 20
718.39617013077464
 30
0.0
 10
-577.0860566854434
 20
717.64658995744344
 30
0.0
 10
-578.41378021029971
 20
717.41037077141459
 30
0.0
 10
-575.98276667456332
 20
718.2346826396099
 30
0.0
 10
-577.27922243161095
 20
717.57861862204709
 30
0.0
 10
-579.85281534590274
 20
716.5431642660426
 30
0.0
 10
-580.48844423849027
 20
716.29593603769297
 30
0.0
 10
-581.12407313107781
 20
716.04870780934334
 30
0.0
 10
-581.46482809820361
 20
715.83933144036632
 30
0.0
 10
-581.80558306532942
 20
715.6299550713893
 30
0.0
 10
-583.19877046536374
 20
714.7880337678555
 30
0.0
 10
-583.86909089787412
 20
714.44188089787121
 30
0.0
 10
-582.62666249815072
 20
715.25672394323601
 30
0.0
 10
-583.30832970639574
 20
714.72444732474332
 30
0.0
 10
-584.6352668990163
 20
713.79177231242488
 30
0.0
 10
-584.96313988136717
 20
713.5647493889619
 30
0.0
 10
-585.29101286371804
 20
713.33772646549892
 30
0.0
 10
-585.58571032363523
 20
713.06958707008323
 30
0.0
 10
-585.88040778355241
 20
712.80144767466754
 30
0.0
 10
-587.08768179309629
 20
711.718370314499
 30
0.0
 10
-587.67841120693004
 20
711.25220472072874
 30
0.0
 10
-586.61115846143809
 20
712.27556448194082
 30
0.0
 10
-587.17850754872632
 20
711.62806851582673
 30
0.0
 10
-588.30410322036357
 20
710.47057311445315
 30
0.0
 10
-588.58291878124317
 20
710.18796354435892
 30
0.0
 10
-588.86173434212276
 20
709.9053539742647
 30
0.0
 10
-589.15537300877065
 20
709.49427748751225
 30
0.0
 10
-589.44901167541855
 20
709.0832010007598
 30
0.0
 10
-590.65937851072306
 20
707.421455101525
 30
0.0
 10
-591.28239259559803
 20
706.70081085247762
 30
0.0
 10
-590.24405625030397
 20
708.26635141351312
 30
0.0
 10
-590.74571604531127
 20
707.28711295157359
 30
0.0
 10
-591.80270911276841
 20
705.52553797267456
 30
0.0
 10
-592.06652510233505
 20
705.09505027598732
 30
0.0
 10
-592.33034109190169
 20
704.66456257930008
 30
0.0
 10
-592.47433697650774
 20
704.3147196366142
 30
0.0
 10
-592.6183328611138
 20
703.96487669392832
 30
0.0
 10
-593.21325452329404
 20
702.54602812068629
 30
0.0
 10
-593.52489065635757
 20
701.91139126853932
 30
0.0
 10
-593.01751735636105
 20
703.22945250145881
 30
0.0
 10
-593.24606533118174
 20
702.43851532344843
 30
0.0
 10
-593.7484182104007
 20
700.98155019251612
 30
0.0
 10
-593.87441460943103
 20
700.62429569694598
 30
0.0
 10
-594.00041100846136
 20
700.26704120137583
 30
0.0
 10
-594.05935050044491
 20
700.01010736805893
 30
0.0
 10
-594.11828999242846
 20
699.75317353474202
 30
0.0
 10
-594.36362620756438
 20
698.70957792553122
 30
0.0
 10
-594.49999964254255
 20
698.23612027095919
 30
0.0
 10
-594.18002645390277
 20
699.78776872728076
 30
0.0
 10
-594.58380609977064
 20
697.56700072131309
 30
0.0
 10
-594.63303998678668
 20
697.30706697373353
 30
0.0
 10
-594.68227387380273
 20
697.04713322615385
 30
0.0
 10
-594.70680258453831
 20
696.7843760298565
 30
0.0
 10
-594.73133129527389
 20
696.52161883355905
 30
0.0
 10
-594.8358478699962
 20
695.45370660828996
 30
0.0
 10
-594.90537400792471
 20
694.94647365841502
 30
0.0
 10
-594.78474218678446
 20
696.5485489551844
 30
0.0
 10
-594.90709097795491
 20
694.3023293195447
 30
0.0
 10
-594.92314934253739
 20
694.03842509720562
 30
0.0
 10
-594.93920770711986
 20
693.77452087486654
 30
0.0
 10
-594.93920770711986
 20
693.63095874210683
 30
0.0
 10
-594.93920770711986
 20
693.5060579592855
 30
0.0
  0
LINE
  5
15B
100
AcDbEntity
  8
ADF70-0020
370
              15
390
0
  6
Continuous
 62
               7
100
AcDbLine
 10
-284.0323096617704
 20
-518.16300488511695
 30
0.0
 11
-547.98899966179397
 21
-518.16300488511695
 31
0.0
  0
LINE
  5
15C
100
AcDbEntity
  8
ADF70-0020
370
              15
390
0
  6
Continuous
 62
               7
100
AcDbLine
 10
-171.85104700016723
 20
-357.954881625844
 30
0.0
 11
-660.16697317193552
 21
-357.954881625844
 31
0.0
  0
LINE
  5
15D
100
AcDbEntity
  8
ADF70-0020
370
              15
390
0
  6
Continuous
 62
               7
100
AcDbLine
 10
-663.77722413587503
 20
-447.24268061881173
 30
0.0
 11
-666.15221508230456
 21
-364.13446761129228
 31
0.0
  0
SPLINE
  5
15E
100
AcDbEntity
  8
ADF70-0020
370
              15
390
0
  6
Continuous
 62
               7
100
AcDbSpline
210
0.0
220
0.0
230
1.0
 70
               8
 71
               2
 72
              14
 73
              11
 74
               0
 42
0.000001
 43
0.000001
 40
0.0
 40
0.0
 40
0.0
 40
1.0
 40
1.0
 40
2.0
 40
3.0
 40
4.0
 40
5.0
 40
6.0
 40
6.0
 40
7.0
 40
7.0
 40
7.0
 10
-663.77722413587503
 20
-447.24268061881173
 30
0.0
 10
-663.77587658080517
 20
-447.29804267293116
 30
0.0
 10
-663.77452902573532
 20
-447.35340472705059
 30
0.0
 10
-663.67661520440174
 20
-448.78976533841035
 30
0.0
 10
-662.68526243754741
 20
-450.6361916298423
 30
0.0
 10
-661.53646391741427
 20
-451.83066698773598
 30
0.0
 10
-660.09997008751839
 20
-452.67723885667067
 30
0.0
 10
-658.65653165850654
 20
-453.05101548626874
 30
0.0
 10
-657.88634971596616
 20
-453.07969026801231
 30
0.0
 10
-657.83093151371884
 20
-453.07969026801231
 30
0.0
 10
-657.77551331147151
 20
-453.07969026801231
 30
0.0
  0
SPLINE
  5
15F
100
AcDbEntity
  8
ADF70-0020
370
              15
390
0
  6
Continuous
 62
               7
100
AcDbSpline
210
0.0
220
0.0
230
1.0
 70
               8
 71
               2
 72
              19
 73
              16
 74
               0
 42
0.000001
 43
0.000001
 40
0.0
 40
0.0
 40
0.0
 40
1.0
 40
1.0
 40
2.0
 40
3.0
 40
4.0
 40
5.0
 40
6.0
 40
7.0
 40
7.0
 40
8.0
 40
8.0
 40
9.0
 40
10.0
 40
11.0
 40
11.0
 40
11.0
 10
-660.16697437542166
 20
-357.95487951766961
 30
0.0
 10
-660.22301020707596
 20
-357.95487951766961
 30
0.0
 10
-660.27904603873026
 20
-357.95487951766961
 30
0.0
 10
-661.05842361239729
 20
-357.98551981860294
 30
0.0
 10
-662.51782539733858
 20
-358.37667866653589
 30
0.0
 10
-663.96448860136024
 20
-359.2566691203134
 30
0.0
 10
-665.1135176765722
 20
-360.49332115587015
 30
0.0
 10
-665.88901995269202
 20
-362.01086068522261
 30
0.0
 10
-666.13120790751032
 20
-363.30047994596191
 30
0.0
 10
-666.15221508230456
 20
-363.86020272249345
 30
0.0
 10
-666.15221508230456
 20
-363.91663159104326
 30
0.0
 10
-666.15221508230456
 20
-363.97306045959306
 30
0.0
 10
-666.15221508230434
 20
-363.97976017428539
 30
0.0
 10
-666.15221508230388
 20
-364.0612364408222
 30
0.0
 10
-666.15221508230525
 20
-364.13019568863149
 30
0.0
 10
-666.15221508230456
 20
-364.13446761129228
 30
0.0
  0
LINE
  5
160
100
AcDbEntity
  8
ADF70-0020
370
              15
390
0
  6
Continuous
 62
               7
100
AcDbLine
 10
-583.28117414085023
 20
-454.81893882810857
 30
0.0
 11
-556.58311260292885
 21
-513.25820119009916
 31
0.0
  0
LINE
  5
161
100
AcDbEntity
  8
ADF70-0020
370
              15
390
0
  6
Continuous
 62
               7
100
AcDbLine
 10
-168.24079830210121
 20
-447.24268061881173
 30
0.0
 11
-165.85263126165501
 21
-363.97306045959306
 31
0.0
  0
SPLINE
  5
162
100
AcDbEntity
  8
ADF70-0020
370
              15
390
0
  6
Continuous
 62
               7
100
AcDbSpline
210
0.0
220
0.0
230
1.0
 70
               8
 71
               2
 72
              14
 73
              11
 74
               0
 42
0.000001
 43
0.000001
 40
0.0
 40
0.0
 40
0.0
 40
1.0
 40
1.0
 40
2.0
 40
3.0
 40
4.0
 40
5.0
 40
6.0
 40
6.0
 40
7.0
 40
7.0
 40
7.0
 10
-174.22274498548018
 20
-453.07969026801231
 30
0.0
 10
-174.16771982012824
 20
-453.07969026801231
 30
0.0
 10
-174.11269465477631
 20
-453.07969026801231
 30
0.0
 10
-172.68308886693535
 20
-453.01731518161671
 30
0.0
 10
-170.81843468892407
 20
-452.07681341213913
 30
0.0
 10
-169.59653965866096
 20
-450.96286467841912
 30
0.0
 10
-168.7114919914859
 20
-449.55260644026919
 30
0.0
 10
-168.29608300208679
 20
-448.1219178683906
 30
0.0
 10
-168.24416718977591
 20
-447.35340472705059
 30
0.0
 10
-168.24248274593856
 20
-447.29804267293116
 30
0.0
 10
-168.24079830210121
 20
-447.24268061881173
 30
0.0
  0
SPLINE
  5
163
100
AcDbEntity
  8
ADF70-0020
370
              15
390
0
  6
Continuous
 62
               7
100
AcDbSpline
210
0.0
220
0.0
230
1.0
 70
               8
 71
               2
 72
              18
 73
              15
 74
               0
 42
0.000001
 43
0.000001
 40
0.0
 40
0.0
 40
0.0
 40
1.0
 40
1.0
 40
2.0
 40
3.0
 40
4.0
 40
5.0
 40
6.0
 40
6.0
 40
7.0
 40
7.0
 40
8.0
 40
9.0
 40
10.0
 40
10.0
 40
10.0
 10
-165.85263126165501
 20
-364.13446761129228
 30
0.0
 10
-165.85089066968987
 20
-364.07764570584732
 30
0.0
 10
-165.84915007772474
 20
-364.02082380040235
 30
0.0
 10
-165.86927619967719
 20
-362.54506171182663
 30
0.0
 10
-166.78770944646203
 20
-360.62286010809487
 30
0.0
 10
-167.90325940668777
 20
-359.36301698675913
 30
0.0
 10
-169.33170306015199
 20
-358.44877904197745
 30
0.0
 10
-170.79025292493884
 20
-358.01613217413239
 30
0.0
 10
-171.57633398873259
 20
-357.95892218287884
 30
0.0
 10
-171.63298744979409
 20
-357.95690085027422
 30
0.0
 10
-171.68964091085559
 20
-357.95487951766961
 30
0.0
 10
-171.69634062554724
 20
-357.95487951766938
 30
0.0
 10
-171.7778168920845
 20
-357.95487951766938
 30
0.0
 10
-171.84677613989402
 20
-357.95487951767007
 30
0.0
 10
-171.85104806255458
 20
-357.95487951766961
 30
0.0
  0
LINE
  5
164
100
AcDbEntity
  8
ADF70-0020
370
              15
390
0
  6
Continuous
 62
               7
100
AcDbLine
 10
-174.22274511827868
 20
-453.0796948163578
 30
0.0
 11
-657.77551331147151
 21
-453.07969026801231
 31
0.0
  0
LINE
  5
165
100
AcDbEntity
  8
ADF70-0020
370
              15
390
0
  6
Continuous
 62
               7
100
AcDbLine
 10
-248.72038115097024
 20
-454.81893882810857
 30
0.0
 11
-275.42173184035329
 21
-513.25820119009916
 31
0.0
  0
SPLINE
  5
166
100
AcDbEntity
  8
ADF70-0020
370
              15
390
0
  6
Continuous
 62
               7
100
AcDbSpline
210
0.0
220
0.0
230
1.0
 70
               8
 71
               2
 72
              29
 73
              26
 74
               0
 42
0.000001
 43
0.000001
 40
0.0
 40
0.0
 40
0.0
 40
1.0
 40
1.0
 40
2.0
 40
3.0
 40
4.0
 40
5.0
 40
6.0
 40
7.0
 40
8.0
 40
9.0
 40
10.0
 40
11.0
 40
12.0
 40
13.0
 40
14.0
 40
15.0
 40
16.0
 40
17.0
 40
18.0
 40
19.0
 40
20.0
 40
21.0
 40
21.0
 40
22.0
 40
22.0
 40
22.0
 10
-428.64701655361836
 20
723.92472252667289
 30
0.0
 10
-428.64701653833919
 20
723.91018267954144
 30
0.0
 10
-428.64701652306002
 20
723.89564283240998
 30
0.0
 10
-428.60985693634956
 20
723.80685227744289
 30
0.0
 10
-428.06090984360316
 20
723.35864420008238
 30
0.0
 10
-424.10253454211039
 20
722.88986253737562
 30
0.0
 10
-421.32864875397917
 20
722.7202454607318
 30
0.0
 10
-417.80928200788088
 20
722.59807666098413
 30
0.0
 10
-415.01301981671116
 20
722.61263367236688
 30
0.0
 10
-412.67977002390654
 20
722.64500708144487
 30
0.0
 10
-409.80258077888885
 20
722.781562027257
 30
0.0
 10
-407.7095163562995
 20
722.94195948297124
 30
0.0
 10
-404.20678819878094
 20
723.37151089718759
 30
0.0
 10
-403.50109565457785
 20
723.92319202545059
 30
0.0
 10
-404.20550117852645
 20
724.49083980132764
 30
0.0
 10
-408.16350689376594
 20
724.95958272137091
 30
0.0
 10
-410.93739250365314
 20
725.12919982309359
 30
0.0
 10
-414.45675912137068
 20
725.25136866374373
 30
0.0
 10
-417.25302132783753
 20
725.236811684857
 30
0.0
 10
-419.58627115466226
 20
725.20443829524834
 30
0.0
 10
-422.46346054317877
 20
725.06788340810908
 30
0.0
 10
-424.55652513432318
 20
724.90748588652923
 30
0.0
 10
-428.48547100603406
 20
724.41849281701866
 30
0.0
 10
-428.64701652306002
 20
723.9538025117979
 30
0.0
 10
-428.64701653833919
 20
723.93926266466633
 30
0.0
 10
-428.64701655361836
 20
723.92472281753476
 30
0.0
  0
SPLINE
  5
167
100
AcDbEntity
  8
ADF70-0020
370
              15
390
0
  6
Continuous
 62
               7
100
AcDbSpline
210
0.0
220
0.0
230
1.0
 70
               8
 71
               2
 72
              18
 73
              15
 74
               0
 42
0.000001
 43
0.000001
 40
0.0
 40
0.0
 40
0.0
 40
1.0
 40
1.0
 40
2.0
 40
3.0
 40
4.0
 40
5.0
 40
6.0
 40
7.0
 40
8.0
 40
9.0
 40
10.0
 40
10.0
 40
11.0
 40
11.0
 40
11.0
 10
-594.95897184814396
 20
607.73792097223645
 30
0.0
 10
-594.95897184814396
 20
603.1095606034412
 30
0.0
 10
-594.95897184814396
 20
598.48120023464594
 30
0.0
 10
-592.17632353238025
 20
571.39888413864514
 30
0.0
 10
-576.20490165319814
 20
520.70456143011938
 30
0.0
 10
-531.97468047044606
 20
467.24435853780028
 30
0.0
 10
-470.78177515575402
 20
433.68369175876944
 30
0.0
 10
-416.14390267196785
 20
427.99404700088144
 30
0.0
 10
-361.43397269190513
 20
433.80648819700639
 30
0.0
 10
-300.17203668861146
 20
467.34849517956707
 30
0.0
 10
-255.95928617239099
 20
520.81596426284852
 30
0.0
 10
-240.09302673025701
 20
571.39888413864549
 30
0.0
 10
-237.31036989446312
 20
598.48120023464594
 30
0.0
 10
-237.31036989446312
 20
603.1095606034412
 30
0.0
 10
-237.31036989446312
 20
607.73792097223645
 30
0.0
  0
LINE
  5
168
100
AcDbEntity
  8
ADF70-0020
370
              15
390
0
  6
Continuous
 62
               7
100
AcDbLine
 10
-594.95897522620396
 20
607.7379237112043
 30
0.0
 11
-594.93921163297307
 21
693.50605714174549
 31
0.0
  0
SPLINE
  5
169
100
AcDbEntity
  8
ADF70-0020
370
              15
390
0
  6
Continuous
 62
               7
100
AcDbSpline
210
0.0
220
0.0
230
1.0
 70
               8
 71
               2
 72
             103
 73
             100
 74
               0
 42
0.000001
 43
0.000001
 40
0.0
 40
0.0
 40
0.0
 40
1.0
 40
1.0
 40
2.0
 40
3.0
 40
4.0
 40
5.0
 40
6.0
 40
7.0
 40
8.0
 40
8.0
 40
9.0
 40
9.0
 40
10.0
 40
10.0
 40
11.0
 40
12.0
 40
13.0
 40
14.0
 40
15.0
 40
16.0
 40
17.0
 40
18.0
 40
18.0
 40
19.0
 40
19.0
 40
20.0
 40
20.0
 40
21.0
 40
22.0
 40
23.0
 40
24.0
 40
25.0
 40
26.0
 40
27.0
 40
27.0
 40
28.0
 40
28.0
 40
29.0
 40
29.0
 40
30.0
 40
31.0
 40
32.0
 40
33.0
 40
34.0
 40
35.0
 40
36.0
 40
36.0
 40
37.0
 40
37.0
 40
38.0
 40
38.0
 40
39.0
 40
40.0
 40
41.0
 40
42.0
 40
43.0
 40
44.0
 40
45.0
 40
46.0
 40
46.0
 40
47.0
 40
47.0
 40
48.0
 40
48.0
 40
49.0
 40
50.0
 40
51.0
 40
52.0
 40
53.0
 40
54.0
 40
55.0
 40
55.0
 40
56.0
 40
56.0
 40
57.0
 40
57.0
 40
58.0
 40
59.0
 40
60.0
 40
61.0
 40
62.0
 40
63.0
 40
63.0
 40
64.0
 40
64.0
 40
65.0
 40
65.0
 40
66.0
 40
67.0
 40
68.0
 40
69.0
 40
70.0
 40
71.0
 40
71.0
 40
72.0
 40
72.0
 40
73.0
 40
74.0
 40
74.0
 40
74.0
 10
-264.08419293548991
 20
719.19944129097962
 30
0.0
 10
-263.8719184592955
 20
719.18618601370611
 30
0.0
 10
-263.65964398310109
 20
719.17293073643259
 30
0.0
 10
-262.61042969107041
 20
719.11032384344003
 30
0.0
 10
-261.31587591450693
 20
719.04478137690808
 30
0.0
 10
-261.10060802835756
 20
719.06238415936537
 30
0.0
 10
-261.63704022563786
 20
719.12005106050901
 30
0.0
 10
-262.17372712512724
 20
719.15350850496316
 30
0.0
 10
-261.96806706320876
 20
719.09923934937979
 30
0.0
 10
-260.66790519589051
 20
718.94235004630013
 30
0.0
 10
-259.62237475263044
 20
718.82553794996556
 30
0.0
 10
-259.41076541579724
 20
718.80249562208849
 30
0.0
 10
-259.19915607896405
 20
718.77945329421141
 30
0.0
 10
-258.84473181924784
 20
718.67626167328604
 30
0.0
 10
-258.49030755953163
 20
718.57307005236066
 30
0.0
 10
-256.7351186419744
 20
718.07195229165814
 30
0.0
 10
-254.56214139054839
 20
717.49168142259464
 30
0.0
 10
-254.23289472274655
 20
717.47370574249612
 30
0.0
 10
-254.38858562975201
 20
717.56802955651096
 30
0.0
 10
-255.02487629974416
 20
717.81474596998237
 30
0.0
 10
-255.9163989631171
 20
718.07497184065483
 30
0.0
 10
-255.61345732443249
 20
717.84706931301002
 30
0.0
 10
-253.52191696934381
 20
716.98184454910893
 30
0.0
 10
-251.83093227322092
 20
716.31495359371979
 30
0.0
 10
-251.4881004423749
 20
716.18183070153157
 30
0.0
 10
-251.14526861152888
 20
716.04870780934334
 30
0.0
 10
-250.96169014778326
 20
715.93596668758641
 30
0.0
 10
-250.77811168403764
 20
715.82322556582949
 30
0.0
 10
-249.86884562579303
 20
715.26887934640104
 30
0.0
 10
-248.73932328621459
 20
714.59657517351502
 30
0.0
 10
-248.53250424583644
 20
714.51314550520806
 30
0.0
 10
-248.97939908428486
 20
714.82200383307077
 30
0.0
 10
-249.44102314312818
 20
715.10670644146626
 30
0.0
 10
-249.28591193774719
 20
714.95571071696963
 30
0.0
 10
-248.20604319754455
 20
714.18918532120642
 30
0.0
 10
-247.33256309878743
 20
713.58221269076671
 30
0.0
 10
-247.1554459888381
 20
713.45996957813281
 30
0.0
 10
-246.97832887888876
 20
713.33772646549892
 30
0.0
 10
-246.82012073078505
 20
713.19334371412117
 30
0.0
 10
-246.66191258268134
 20
713.04896096274342
 30
0.0
 10
-245.877491272773
 20
712.33758399712656
 30
0.0
 10
-244.9025816914052
 20
711.47158595763631
 30
0.0
 10
-244.71806404816232
 20
711.35073588420641
 30
0.0
 10
-245.09692466460604
 20
711.73244391539697
 30
0.0
 10
-245.49729293892267
 20
712.09518736040059
 30
0.0
 10
-245.37454777870448
 20
711.91479632213259
 30
0.0
 10
-244.46631951371137
 20
710.9642333647048
 30
0.0
 10
-243.7297882378241
 20
710.20970274205865
 30
0.0
 10
-243.58022690141843
 20
710.05752835816168
 30
0.0
 10
-243.43066556501276
 20
709.9053539742647
 30
0.0
 10
-243.27236239700022
 20
709.6840050967827
 30
0.0
 10
-243.11405922898768
 20
709.4626562193007
 30
0.0
 10
-242.32655905315187
 20
708.37167329414888
 30
0.0
 10
-241.3371683368307
 20
707.04198032468685
 30
0.0
 10
-241.12341108624423
 20
706.85269063699934
 30
0.0
 10
-241.37338448914807
 20
707.26587018930832
 30
0.0
 10
-241.57711723567832
 20
707.57580330334258
 30
0.0
 10
-241.86678150515934
 20
707.98432922889106
 30
0.0
 10
-241.77431632794628
 20
707.71982364293103
 30
0.0
 10
-240.92391321444103
 20
706.27703669145853
 30
0.0
 10
-240.2264042014354
 20
705.12816471419387
 30
0.0
 10
-240.0843494378226
 20
704.89636364674698
 30
0.0
 10
-239.94229467420979
 20
704.66456257930008
 30
0.0
 10
-239.86456838883504
 20
704.47618561016145
 30
0.0
 10
-239.78684210346029
 20
704.28780864102282
 30
0.0
 10
-239.39979718818569
 20
703.3579538468166
 30
0.0
 10
-238.91197716795074
 20
702.21903895313631
 30
0.0
 10
-238.80294016019417
 20
702.04339483668377
 30
0.0
 10
-238.97371555373371
 20
702.52817955308956
 30
0.0
 10
-239.16751844351694
 20
703.0034166383175
 30
0.0
 10
-239.12626050543992
 20
702.79572888290591
 30
0.0
 10
-238.71817227073035
 20
701.60373469882029
 30
0.0
 10
-238.38270123824742
 20
700.65177681198952
 30
0.0
 10
-238.3142869039321
 20
700.45940900668268
 30
0.0
 10
-238.24587256961678
 20
700.26704120137583
 30
0.0
 10
-238.21470603953986
 20
700.1286922142051
 30
0.0
 10
-238.18353950946295
 20
699.99034322703437
 30
0.0
 10
-237.83568648481906
 20
698.46655558404439
 30
0.0
 10
-237.78558597449756
 20
698.32947435579899
 30
0.0
 10
-237.85381949280787
 20
698.68134948808472
 30
0.0
 10
-237.93355956948318
 20
699.02834164670844
 30
0.0
 10
-237.92372055999891
 20
698.88341477850372
 30
0.0
 10
-237.76895884498668
 20
698.01938140455593
 30
0.0
 10
-237.63989893808099
 20
697.32706187739325
 30
0.0
 10
-237.61348340344256
 20
697.1870975517736
 30
0.0
 10
-237.58706786880413
 20
697.04713322615385
 30
0.0
 10
-237.57376508157637
 20
696.90564858199355
 30
0.0
 10
-237.56046229434861
 20
696.76416393783325
 30
0.0
 10
-237.4091473255815
 20
695.20516401648388
 30
0.0
 10
-237.37478533366976
 20
695.0626873652734
 30
0.0
 10
-237.39521023851563
 20
695.42186657047887
 30
0.0
 10
-237.42702499999183
 20
695.77860085010889
 30
0.0
 10
-237.43209081709989
 20
695.63626598513804
 30
0.0
 10
-237.3855703569464
 20
694.76120707869029
 30
0.0
 10
-237.34413363537971
 20
694.05872542200063
 30
0.0
 10
-237.33548682368126
 20
693.91662314843359
 30
0.0
 10
-237.32684001198282
 20
693.77452087486654
 30
0.0
 10
-237.32684001198351
 20
693.75278254107434
 30
0.0
 10
-237.32684001198351
 20
693.5384990206644
 30
0.0
 10
-237.32684001198282
 20
693.5060579592855
 30
0.0
  0
LINE
  5
16A
100
AcDbEntity
  8
ADF70-0020
370
              15
390
0
  6
Continuous
 62
               7
100
AcDbLine
 10
-237.31036601010857
 20
607.7379237112043
 30
0.0
 11
-237.32684045187767
 21
693.50605714174549
 31
0.0
  0
SPLINE
  5
16B
100
AcDbEntity
  8
ADF70-0020
370
              15
390
0
  6
Continuous
 62
               7
100
AcDbSpline
210
0.0
220
0.0
230
1.0
 70
               8
 71
               2
 72
              13
 73
              10
 74
               0
 42
0.000001
 43
0.000001
 40
0.0
 40
0.0
 40
0.0
 40
1.0
 40
1.0
 40
2.0
 40
3.0
 40
4.0
 40
5.0
 40
5.0
 40
6.0
 40
6.0
 40
6.0
 10
-556.58311126664489
 20
-513.25820566374603
 30
0.0
 10
-556.5511121811769
 20
-513.31273351710797
 30
0.0
 10
-556.51911309570892
 20
-513.36726137046992
 30
0.0
 10
-555.78276498596983
 20
-514.5468839841916
 30
0.0
 10
-554.18077134820874
 20
-516.0794624449444
 30
0.0
 10
-552.53050438816194
 20
-517.12907664468219
 30
0.0
 10
-550.00829813992686
 20
-518.1114641700666
 30
0.0
 10
-548.11511798727042
 20
-518.16300666129644
 30
0.0
 10
-548.052060965907
 20
-518.16300666129644
 30
0.0
 10
-547.98900394454358
 20
-518.16300666129644
 30
0.0
  0
SPLINE
  5
16C
100
AcDbEntity
  8
ADF70-0020
370
              15
390
0
  6
Continuous
 62
               7
100
AcDbSpline
210
0.0
220
0.0
230
1.0
 70
               8
 71
               2
 72
              13
 73
              10
 74
               0
 42
0.000001
 43
0.000001
 40
0.0
 40
0.0
 40
0.0
 40
1.0
 40
1.0
 40
2.0
 40
3.0
 40
4.0
 40
5.0
 40
5.0
 40
6.0
 40
6.0
 40
6.0
 10
-284.03231251693666
 20
-518.16300666129644
 30
0.0
 10
-283.96896138633178
 20
-518.16300666129644
 30
0.0
 10
-283.90561025572691
 20
-518.16300666129644
 30
0.0
 10
-282.51227301329203
 20
-518.12589725860801
 30
0.0
 10
-280.37073469059629
 20
-517.52808604148061
 30
0.0
 10
-278.62188126772713
 20
-516.64464916882832
 30
0.0
 10
-276.48817832961862
 20
-514.97676434558423
 30
0.0
 10
-275.48549796085803
 20
-513.36726137046992
 30
0.0
 10
-275.45361651908649
 20
-513.31273351710797
 30
0.0
 10
-275.42173507731496
 20
-513.25820566374603
 30
0.0
  0
SPLINE
  5
16D
100
AcDbEntity
  8
ADF70-0020
370
              15
390
0
  6
Continuous
 62
               7
100
AcDbSpline
210
0.0
220
0.0
230
1.0
 70
               9
 71
               2
 72
              54
 73
              51
 74
               0
 42
0.000001
 43
0.000001
 40
0.0
 40
0.0
 40
0.0
 40
1.0
 40
2.0
 40
3.0
 40
4.0
 40
5.0
 40
6.0
 40
7.0
 40
8.0
 40
8.0
 40
9.0
 40
9.0
 40
10.0
 40
10.0
 40
11.0
 40
11.0
 40
12.0
 40
13.0
 40
14.0
 40
15.0
 40
16.0
 40
17.0
 40
17.0
 40
18.0
 40
18.0
 40
19.0
 40
19.0
 40
20.0
 40
21.0
 40
22.0
 40
23.0
 40
24.0
 40
25.0
 40
26.0
 40
27.0
 40
27.0
 40
28.0
 40
28.0
 40
29.0
 40
30.0
 40
31.0
 40
32.0
 40
33.0
 40
34.0
 40
34.0
 40
35.0
 40
35.0
 40
36.0
 40
36.0
 40
37.0
 40
37.0
 40
37.0
 10
-663.14598523858911
 20
857.89236931820335
 30
0.0
 10
-658.86809551595491
 20
857.89236931820335
 30
0.0
 10
-634.59147340130733
 20
857.89236931820335
 30
0.0
 10
-570.2655475372834
 20
857.8923693182029
 30
0.0
 10
-485.72440882052268
 20
857.8923693182029
 30
0.0
 10
-392.49476766294549
 20
857.8923693182029
 30
0.0
 10
-302.16017727002259
 20
857.89236931820335
 30
0.0
 10
-226.29807190011059
 20
857.89236931820358
 30
0.0
 10
-176.50384897920128
 20
857.89236931820335
 30
0.0
 10
-169.13980062117923
 20
857.89236931820335
 30
0.0
 10
-169.01594378849279
 20
857.89236931820335
 30
0.0
 10
-168.89208695580635
 20
857.89236931820335
 30
0.0
 10
-166.62179587526384
 20
857.41304106724431
 30
0.0
 10
-166.13302385955024
 20
855.13164821944804
 30
0.0
 10
-166.13302385955024
 20
855.00664002746885
 30
0.0
 10
-166.13302385955024
 20
854.88163183548966
 30
0.0
 10
-166.13302385955046
 20
850.34081594648285
 30
0.0
 10
-166.13302385955024
 20
825.35077561013816
 30
0.0
 10
-166.13302385954978
 20
764.78773363452672
 30
0.0
 10
-166.13302385955046
 20
695.25770308933386
 30
0.0
 10
-166.13302385955024
 20
634.58997237735605
 30
0.0
 10
-166.13302385955069
 20
609.88040315067087
 30
0.0
 10
-166.13302385955024
 20
605.33958726166566
 30
0.0
 10
-166.15432531969464
 20
605.20504721364807
 30
0.0
 10
-166.1757898309952
 20
605.06947733433242
 30
0.0
 10
-166.1757898309952
 20
598.65354305429298
 30
0.0
 10
-166.1757898309952
 20
592.23760877425343
 30
0.0
 10
-176.40136571282017
 20
503.49116279069699
 30
0.0
 10
-254.22904314863376
 20
410.33903528588564
 30
0.0
 10
-339.77059053791317
 20
363.8305351654933
 30
0.0
 10
-416.14179195118362
 20
355.94641242642501
 30
0.0
 10
-492.61045330356279
 20
364.00059291994296
 30
0.0
 10
-578.24184862058894
 20
410.48325154906911
 30
0.0
 10
-640.04424646606969
 20
484.58511978813874
 30
0.0
 10
-662.22341052421723
 20
554.69692131173815
 30
0.0
 10
-666.11328571888396
 20
592.23760877425343
 30
0.0
 10
-666.11328571888396
 20
598.65354305429298
 30
0.0
 10
-666.11328571888396
 20
605.06947733433242
 30
0.0
 10
-666.11364488586503
 20
609.61520830468953
 30
0.0
 10
-666.11562153445846
 20
634.63229842333021
 30
0.0
 10
-666.12041191695209
 20
695.26089519911545
 30
0.0
 10
-666.12591156542123
 20
764.86618661479667
 30
0.0
 10
-666.13071022852785
 20
825.59958544439439
 30
0.0
 10
-666.1326646925703
 20
850.33590086513129
 30
0.0
 10
-666.13302385955092
 20
854.88163183548966
 30
0.0
 10
-666.13302385955092
 20
855.00664002746885
 30
0.0
 10
-666.13302385955092
 20
855.13164821944804
 30
0.0
 10
-665.64603384973236
 20
857.41109443490757
 30
0.0
 10
-663.39123163637862
 20
857.89236931820335
 30
0.0
 10
-663.26860843748386
 20
857.89236931820335
 30
0.0
 10
-663.14598523858911
 20
857.89236931820335
 30
0.0
  0
LINE
  5
16E
100
AcDbEntity
  8
ADF70-0020
370
              15
390
0
  6
STYLE_12
 62
               7
100
AcDbLine
 10
-481.05403067431502
 20
-377.94528850995664
 30
0.0
 11
-481.05403067431502
 21
-417.91497101964671
 31
0.0
  0
LINE
  5
16F
100
AcDbEntity
  8
ADF70-0020
370
              15
390
0
  6
STYLE_12
 62
               7
100
AcDbLine
 10
-351.05403067431405
 20
-377.94528850995664
 30
0.0
 11
-351.05403067431405
 21
-417.91497101964671
 31
0.0
  0
LINE
  5
170
100
AcDbEntity
  8
ADF70-0020
370
              15
390
0
  6
STYLE_12
 62
               7
100
AcDbLine
 10
304.93761981867681
 20
-362.40348852340776
 30
0.0
 11
325.44369059455556
 21
-439.01360994454728
 31
0.0
  0
CIRCLE
  5
171
100
AcDbEntity
  8
ADF70-0020
370
              15
390
0
  6
Continuous
 62
               7
100
AcDbCircle
 10
-416.17963274649043
 20
792.65554443753842
 30
0.0
 40
17.500000000000057
  0
LINE
  5
172
100
AcDbEntity
  8
ADF70-0020
370
              15
390
0
  6
Continuous
 62
               7
100
AcDbLine
 10
757.90425851128634
 20
-360.954881625844
 30
0.0
 11
757.90425851128634
 21
-514.95488162584491
 31
0.0
  0
LINE
  5
173
100
AcDbEntity
  8
ADF70-0020
370
              15
390
0
  6
Continuous
 62
               7
100
AcDbLine
 10
257.90425851128674
 20
-360.954881625844
 30
0.0
 11
260.00425851128688
 21
-449.95488162584491
 31
0.0
  0
LINE
  5
174
100
AcDbEntity
  8
ADF70-0020
370
              15
390
0
  6
Continuous
 62
               7
100
AcDbLine
 10
263.00425851128688
 20
-452.95488162584491
 30
0.0
 11
757.90425851128634
 21
-452.95488162584491
 31
0.0
  0
ARC
  5
175
100
AcDbEntity
  8
ADF70-0020
370
              15
390
0
  6
Continuous
 62
               7
100
AcDbCircle
 10
754.90425851128634
 20
-360.954881625844
 30
0.0
 40
3.0
100
AcDbArc
 50
0.0
 51
90.0
  0
ARC
  5
176
100
AcDbEntity
  8
ADF70-0020
370
              15
390
0
  6
Continuous
 62
               7
100
AcDbCircle
 10
754.90425851128634
 20
-514.95488162584491
 30
0.0
 40
3.0
100
AcDbArc
 50
270.0
 51
0.0
  0
ARC
  5
177
100
AcDbEntity
  8
ADF70-0020
370
              15
390
0
  6
Continuous
 62
               7
100
AcDbCircle
 10
260.90425851128674
 20
-360.954881625844
 30
0.0
 40
3.0000000000000568
100
AcDbArc
 50
90.0
 51
180.0
  0
ARC
  5
178
100
AcDbEntity
  8
ADF70-0020
370
              15
390
0
  6
Continuous
 62
               7
100
AcDbCircle
 10
263.00425851128688
 20
-449.95488162584491
 30
0.0
 40
3.0
100
AcDbArc
 50
180.0
 51
270.0
  0
LINE
  5
179
100
AcDbEntity
  8
ADF70-0020
370
              15
390
0
  6
Continuous
 62
               7
100
AcDbLine
 10
390.33275704937222
 20
-517.07075012319092
 30
0.0
 11
340.27721381403143
 21
-466.75758657889105
 31
0.0
  0
LINE
  5
17A
100
AcDbEntity
  8
ADF70-0020
370
              15
390
0
  6
Continuous
 62
               7
100
AcDbLine
 10
754.90425851128634
 20
-517.95488162584491
 30
0.0
 11
392.45951526363609
 21
-517.95488162584491
 31
0.0
  0
ARC
  5
17B
100
AcDbEntity
  8
ADF70-0020
370
              15
390
0
  6
Continuous
 62
               7
100
AcDbCircle
 10
346.238063671524
 20
-433.62540962442336
 30
0.0
 40
33.163989167339622
100
AcDbArc
 50
218.13019216960228
 51
257.07725490228989
  0
ARC
  5
17C
100
AcDbEntity
  8
ADF70-0020
370
              15
390
0
  6
Continuous
 62
               7
100
AcDbCircle
 10
317.79111668888316
 20
-455.95488162584479
 30
0.0
 40
2.9999999999997966
100
AcDbArc
 50
38.130192169602189
 51
90.0
  0
ARC
  5
17D
100
AcDbEntity
  8
ADF70-0020
370
              15
390
0
  6
Continuous
 62
               7
100
AcDbCircle
 10
338.1504555997671
 20
-468.87345507623752
 30
0.0
 40
3.0000000000006661
100
AcDbArc
 50
44.852936991229711
 51
77.077254902284125
  0
ARC
  5
17E
100
AcDbEntity
  8
ADF70-0020
370
              15
390
0
  6
Continuous
 62
               7
100
AcDbCircle
 10
392.45951526363609
 20
-514.95488162584491
 30
0.0
 40
3.0000000000000231
100
AcDbArc
 50
224.85293699122968
 51
270.0
  0
LINE
  5
17F
100
AcDbEntity
  8
ADF70-0020
370
              15
390
0
  6
STYLE_12
 62
               7
100
AcDbLine
 10
628.64373103781963
 20
-363.22471716305665
 30
0.0
 11
622.18695128193895
 21
-437.01071235231518
 31
0.0
  0
LINE
  5
180
100
AcDbEntity
  8
ADF70-0020
370
              15
390
0
  6
STYLE_12
 62
               7
100
AcDbLine
 10
603.61555329351984
 20
-460.74937376445052
 30
0.0
 11
567.63246363822645
 21
-467.57222635672815
 31
0.0
  0
LINE
  5
181
100
AcDbEntity
  8
ADF70-0020
370
              15
390
0
  6
STYLE_12
 62
               7
100
AcDbLine
 10
488.17605338434737
 20
-467.57222635672815
 30
0.0
 11
348.25480336019444
 21
-457.77636782369211
 31
0.0
  0
ARC
  5
182
100
AcDbEntity
  8
ADF70-0020
370
              15
390
0
  6
STYLE_12
 62
               7
100
AcDbCircle
 10
350.24070682325981
 20
-432.1242014436782
 30
0.0
 40
25.701188279642441
100
AcDbArc
 50
195.52700345746891
 51
265.57318534314948
  0
ARC
  5
183
100
AcDbEntity
  8
ADF70-0020
370
              15
390
0
  6
STYLE_12
 62
               7
100
AcDbCircle
 10
488.26994714564535
 20
-471.13665835085226
 30
0.0
 40
3.5656684477314089
100
AcDbArc
 50
48.295903570633669
 51
91.508928338363461
  0
LINE
  5
184
100
AcDbEntity
  8
ADF70-0020
370
              15
390
0
  6
STYLE_12
 62
               7
100
AcDbLine
 10
490.64212836736806
 20
-468.47456373749731
 30
0.0
 11
505.71688681364003
 21
-481.13074108107855
 31
0.0
  0
LINE
  5
185
100
AcDbEntity
  8
ADF70-0020
370
              15
390
0
  6
STYLE_12
 62
               7
100
AcDbLine
 10
506.90138379417346
 20
-483.29168384634943
 30
0.0
 11
507.25237447155547
 21
-512.94797081321065
 31
0.0
  0
LINE
  5
186
100
AcDbEntity
  8
ADF70-0020
370
              15
390
0
  6
STYLE_12
 62
               7
100
AcDbLine
 10
548.55762029884158
 20
-512.8231113331243
 30
0.0
 11
507.25089672373275
 21
-512.8231113331243
 31
0.0
  0
ARC
  5
187
100
AcDbEntity
  8
ADF70-0020
370
              15
390
0
  6
STYLE_12
 62
               7
100
AcDbCircle
 10
597.91490073265413
 20
-437.06744288627783
 30
0.0
 40
24.350405680469301
100
AcDbArc
 50
281.772015963012
 51
1.8845477308493059
  0
ARC
  5
188
100
AcDbEntity
  8
ADF70-0020
370
              15
390
0
  6
STYLE_12
 62
               7
100
AcDbCircle
 10
504.85011266044989
 20
-483.01095965899924
 30
0.0
 40
2.0703911063847484
100
AcDbArc
 50
354.74953546943453
 51
65.250464530561828
  0
ARC
  5
189
100
AcDbEntity
  8
ADF70-0020
370
              15
390
0
  6
STYLE_12
 62
               7
100
AcDbCircle
 10
567.53856987692848
 20
-471.13665835085226
 30
0.0
 40
3.5656684477312575
100
AcDbArc
 50
88.491071661636553
 51
131.70409642936363
  0
LINE
  5
18A
100
AcDbEntity
  8
ADF70-0020
370
              15
390
0
  6
STYLE_12
 62
               7
100
AcDbLine
 10
565.16638865520599
 20
-468.47456373749731
 30
0.0
 11
550.09163020893448
 21
-481.13074108107855
 31
0.0
  0
LINE
  5
18B
100
AcDbEntity
  8
ADF70-0020
370
              15
390
0
  6
STYLE_12
 62
               7
100
AcDbLine
 10
548.90713322840111
 20
-483.29168384634943
 30
0.0
 11
548.55614255101909
 21
-512.94797081321065
 31
0.0
  0
ARC
  5
18C
100
AcDbEntity
  8
ADF70-0020
370
              15
390
0
  6
STYLE_12
 62
               7
100
AcDbCircle
 10
550.95840436212438
 20
-483.01095965899924
 30
0.0
 40
2.0703911063845331
100
AcDbArc
 50
114.74953546943244
 51
185.25046453056623
  0
LINE
  5
18D
100
AcDbEntity
  8
ADF70-0020
370
              15
390
0
  6
STYLE_12
 62
               7
100
AcDbLine
 10
565.32732920145077
 20
-468.33944435218132
 30
0.0
 11
490.48118782111214
 21
-468.33944435218132
 31
0.0
  0
LINE
  5
18E
100
AcDbEntity
  8
ADF70-0020
370
              15
390
0
  6
STYLE_12
 62
               7
100
AcDbLine
 10
548.89670023238273
 20
-483.20042051195333
 30
0.0
 11
506.91181679019434
 21
-483.20042051195333
 31
0.0
  0
LINE
  5
18F
100
AcDbEntity
  8
ADF70-0020
370
              15
390
0
  6
STYLE_12
 62
               7
100
AcDbLine
 10
-501.03887192916005
 20
-397.93012976480168
 30
0.0
 11
-461.06918941946998
 21
-397.93012976480168
 31
0.0
  0
CIRCLE
  5
190
100
AcDbEntity
  8
ADF70-0020
370
              15
390
0
  6
STYLE_12
 62
               7
100
AcDbCircle
 10
-481.05403067431502
 20
-397.95488162584445
 30
0.0
 40
10.000000000000114
  0
LINE
  5
191
100
AcDbEntity
  8
ADF70-0020
370
              15
390
0
  6
STYLE_12
 62
               7
100
AcDbLine
 10
-371.03887192915886
 20
-397.93012976480168
 30
0.0
 11
-331.06918941946924
 21
-397.93012976480168
 31
0.0
  0
CIRCLE
  5
192
100
AcDbEntity
  8
ADF70-0020
370
              15
390
0
  6
STYLE_12
 62
               7
100
AcDbCircle
 10
-351.05403067431405
 20
-397.95488162584445
 30
0.0
 40
10.0
  0
LINE
  5
193
100
AcDbEntity
  8
ADF70-0020
370
              15
390
0
  6
STYLE_12
 62
               7
100
AcDbLine
 10
-351.05403067431405
 20
-377.94528850995664
 30
0.0
 11
-351.05403067431405
 21
-417.91497101964671
 31
0.0
  0
LINE
  5
194
100
AcDbEntity
  8
ADF70-0020
370
              15
390
0
  6
Continuous
 62
               7
100
AcDbLine
 10
675.37958936322752
 20
-357.954881625844
 30
0.0
 11
675.37958936322752
 21
-372.95488162584411
 31
0.0
  0
LINE
  5
195
100
AcDbEntity
  8
ADF70-0020
370
              15
390
0
  6
Continuous
 62
               7
100
AcDbLine
 10
710.37958936322752
 20
-357.954881625844
 30
0.0
 11
710.37958936322752
 21
-372.95488162584411
 31
0.0
  0
ARC
  5
196
100
AcDbEntity
  8
ADF70-0020
370
              15
390
0
  6
STYLE_12
 62
               7
100
AcDbCircle
 10
-455.90610623870208
 20
-471.13665835085226
 30
0.0
 40
3.5656684477314089
100
AcDbArc
 50
48.295903570633669
 51
91.508928338363461
  0
LINE
  5
197
100
AcDbEntity
  8
ADF70-0020
370
              15
390
0
  6
STYLE_12
 62
               7
100
AcDbLine
 10
-453.53392501697937
 20
-468.47456373749731
 30
0.0
 11
-438.4591665707074
 21
-481.13074108107855
 31
0.0
  0
LINE
  5
198
100
AcDbEntity
  8
ADF70-0020
370
              15
390
0
  6
STYLE_12
 62
               7
100
AcDbLine
 10
-437.27466959017391
 20
-483.29168384634943
 30
0.0
 11
-436.9236789127919
 21
-512.94797081321065
 31
0.0
  0
LINE
  5
199
100
AcDbEntity
  8
ADF70-0020
370
              15
390
0
  6
STYLE_12
 62
               7
100
AcDbLine
 10
-395.61843308550584
 20
-512.8231113331243
 30
0.0
 11
-436.92515666061462
 21
-512.8231113331243
 31
0.0
  0
ARC
  5
19A
100
AcDbEntity
  8
ADF70-0020
370
              15
390
0
  6
STYLE_12
 62
               7
100
AcDbCircle
 10
-439.32594072389753
 20
-483.01095965899924
 30
0.0
 40
2.0703911063848048
100
AcDbArc
 50
354.74953546943465
 51
65.250464530561828
  0
ARC
  5
19B
100
AcDbEntity
  8
ADF70-0020
370
              15
390
0
  6
STYLE_12
 62
               7
100
AcDbCircle
 10
-376.63748350741895
 20
-471.13665835085226
 30
0.0
 40
3.5656684477312575
100
AcDbArc
 50
88.491071661636553
 51
131.70409642936363
  0
LINE
  5
19C
100
AcDbEntity
  8
ADF70-0020
370
              15
390
0
  6
STYLE_12
 62
               7
100
AcDbLine
 10
-379.00966472914143
 20
-468.47456373749731
 30
0.0
 11
-394.08442317541295
 21
-481.13074108107855
 31
0.0
  0
LINE
  5
19D
100
AcDbEntity
  8
ADF70-0020
370
              15
390
0
  6
STYLE_12
 62
               7
100
AcDbLine
 10
-395.26892015594632
 20
-483.29168384634943
 30
0.0
 11
-395.61991083332833
 21
-512.94797081321065
 31
0.0
  0
ARC
  5
19E
100
AcDbEntity
  8
ADF70-0020
370
              15
390
0
  6
STYLE_12
 62
               7
100
AcDbCircle
 10
-393.21764902222304
 20
-483.01095965899924
 30
0.0
 40
2.0703911063845331
100
AcDbArc
 50
114.74953546943244
 51
185.25046453056623
  0
LINE
  5
19F
100
AcDbEntity
  8
ADF70-0020
370
              15
390
0
  6
STYLE_12
 62
               7
100
AcDbLine
 10
-378.84872418289666
 20
-468.33944435218132
 30
0.0
 11
-453.69486556323528
 21
-468.33944435218132
 31
0.0
  0
LINE
  5
1A0
100
AcDbEntity
  8
ADF70-0020
370
              15
390
0
  6
STYLE_12
 62
               7
100
AcDbLine
 10
-395.2793531519647
 20
-483.20042051195333
 30
0.0
 11
-437.26423659415303
 21
-483.20042051195333
 31
0.0
  0
LINE
  5
1A1
100
AcDbEntity
  8
ADF70-0020
370
              15
390
0
  6
Continuous
 62
               7
100
AcDbLine
 10
754.90426810203599
 20
-357.954881625844
 30
0.0
 11
260.90425851128674
 21
-357.954881625844
 31
0.0
  0
ARC
  5
1A2
100
AcDbEntity
  8
ADF70-0020
370
              15
390
0
  6
STYLE_12
 62
               7
100
AcDbCircle
 10
299.14165747910681
 20
-363.95488162584388
 30
0.0
 40
6.0000000000000071
100
AcDbArc
 50
14.98496201768056
 51
90.0
  0
LINE
  5
1A3
100
AcDbEntity
  8
ADF70-0020
370
              15
390
0
  6
STYLE_12
 62
               7
100
AcDbLine
 10
-614.0334662112698
 20
-362.40348852340776
 30
0.0
 11
-595.41447249294174
 21
-431.96354149944705
 31
0.0
  0
LINE
  5
1A4
100
AcDbEntity
  8
ADF70-0020
370
              15
390
0
  6
STYLE_12
 62
               7
100
AcDbLine
 10
-455.81221247732987
 20
-467.57222635672815
 30
0.0
 11
-574.2495905375248
 21
-450.32056404259026
 31
0.0
  0
ARC
  5
1A5
100
AcDbEntity
  8
ADF70-0020
370
              15
390
0
  6
STYLE_12
 62
               7
100
AcDbCircle
 10
-619.82942855083979
 20
-363.95488162584388
 30
0.0
 40
6.0000000000000071
100
AcDbArc
 50
14.98496201768056
 51
90.0
  0
ARC
  5
1A6
100
AcDbEntity
  8
ADF70-0020
370
              15
390
0
  6
STYLE_12
 62
               7
100
AcDbCircle
 10
-571.26462941139994
 20
-425.49940357262994
 30
0.0
 40
25.000000000000156
100
AcDbArc
 50
194.98496201768026
 51
263.14261358348762
  0
LINE
  5
1A7
100
AcDbEntity
  8
ADF70-0020
370
              15
390
0
  6
STYLE_12
 62
               7
100
AcDbLine
 10
-218.51012353484776
 20
-362.40348852340776
 30
0.0
 11
-237.12911725317582
 21
-431.96354149944705
 31
0.0
  0
LINE
  5
1A8
100
AcDbEntity
  8
ADF70-0020
370
              15
390
0
  6
STYLE_12
 62
               7
100
AcDbLine
 10
-376.73137726878775
 20
-467.57222635672815
 30
0.0
 11
-258.29399920859277
 21
-450.32056404259026
 31
0.0
  0
ARC
  5
1A9
100
AcDbEntity
  8
ADF70-0020
370
              15
390
0
  6
STYLE_12
 62
               7
100
AcDbCircle
 10
-212.71416119527777
 20
-363.95488162584388
 30
0.0
 40
6.0
100
AcDbArc
 50
90.0
 51
165.01503798231946
  0
ARC
  5
1AA
100
AcDbEntity
  8
ADF70-0020
370
              15
390
0
  6
STYLE_12
 62
               7
100
AcDbCircle
 10
-261.27896033471762
 20
-425.49940357262994
 30
0.0
 40
24.999999999999947
100
AcDbArc
 50
276.85738641651238
 51
345.01503798231971
  0
ENDSEC
  0
SECTION
  2
OBJECTS
  0
DICTIONARY
  5
19
100
AcDbDictionary
280
               0
281
               1
  3
ACAD_GROUP
350
1A
  3
ACAD_MLINESTYLE
350
1B
  3
ACAD_LAYOUT
350
1E
  3
ACAD_PLOTSETTINGS
350
22
  3
ACAD_PLOTSTYLENAME
350
1F
  0
DICTIONARY
  5
1A
102
{ACAD_REACTORS
330
19
102
}
100
AcDbDictionary
280
               0
281
               1
  0
DICTIONARY
  5
1B
102
{ACAD_REACTORS
330
19
102
}
100
AcDbDictionary
280
               0
281
               1
  3
Standard
350
1C
  0
MLINESTYLE
  5
1C
102
{ACAD_REACTORS
330
1B
102
}
100
AcDbMlineStyle
  2
Standard
 70
               0
  3

 62
               0
 51
90.0
 52
90.0
 71
               2
 49
0.5
 62
             256
  6
ByLayer
 49
-0.5
 62
             256
  6
ByLayer
  0
ACDBDICTIONARYWDFLT
  5
1F
102
{ACAD_REACTORS
330
19
102
}
100
AcDbDictionary
281
               1
  3
Normal
350
1D
100
AcDbDictionaryWithDefault
340
1D
  0
ACDBPLACEHOLDER
  5
1D
102
{ACAD_REACTORS
330
1F
102
}
  0
LAYOUT
  5
20
102
{ACAD_REACTORS
330
1E
102
}
100
AcDbPlotSettings
  1

  2

  4

  6

 40
0.0
 41
0.0
 42
0.0
 43
0.0
 44
0.0
 45
0.0
 46
0.0
 47
0.0
 48
0.0
 49
0.0
140
0.0
141
0.0
142
1.0
143
1.0
 70
            1024
 72
               0
 73
               0
 74
               0
  7

 75
               0
147
1.0
148
0.0
149
0.0
100
AcDbLayout
  1
Model
 70
               0
 71
               0
 10
0.0
 20
0.0
 11
0.0
 21
0.0
 12
0.0
 22
0.0
 32
0.0
 14
0.0
 24
0.0
 34
0.0
 15
0.0
 25
0.0
 35
0.0
146
0.0
 13
0.0
 23
0.0
 33
0.0
 16
0.0
 26
0.0
 36
0.0
 17
0.0
 27
0.0
 37
0.0
 76
               0
330
A
331
0
345
0
346
0
  0
LAYOUT
  5
21
102
{ACAD_REACTORS
330
1E
102
}
100
AcDbPlotSettings
  1

  2

  4

  6

 40
0.0
 41
0.0
 42
0.0
 43
0.0
 44
0.0
 45
0.0
 46
0.0
 47
0.0
 48
0.0
 49
0.0
140
0.0
141
0.0
142
1.0
143
1.0
 70
               0
 72
               0
 73
               0
 74
               0
  7

 75
               0
147
1.0
148
0.0
149
0.0
100
AcDbLayout
  1
Layout1
 70
               0
 71
               0
 10
0.0
 20
0.0
 11
0.0
 21
0.0
 12
0.0
 22
0.0
 32
0.0
 14
0.0
 24
0.0
 34
0.0
 15
0.0
 25
0.0
 35
0.0
146
0.0
 13
0.0
 23
0.0
 33
0.0
 16
0.0
 26
0.0
 36
0.0
 17
0.0
 27
0.0
 37
0.0
 76
               0
330
B
331
0
345
0
346
0
  0
DICTIONARY
  5
1E
102
{ACAD_REACTORS
330
19
102
}
100
AcDbDictionary
280
               0
281
               1
  3
Layout1
350
21
  3
Model
350
20
  0
DICTIONARY
  5
22
102
{ACAD_REACTORS
330
19
102
}
100
AcDbDictionary
280
               0
281
               1
  0
ENDSEC
  0
EOF
