  0
SECTION
  2
HEADER
  9
$ACADVER
  1
AC1015
  9
$ACADMAINTVER
 70
               6
  9
$DWGCODEPAGE
  3
ANSI_932
  9
$INSBASE
 10
0.0
 20
0.0
 30
0.0
  9
$EXTMIN
 10
-975.00000000024124
 20
-1431.5255224711129
 30
-14.834305555555554
  9
$EXTMAX
 10
975.00000000024124
 20
1405.9972926412995
 30
14.834305555555554
  9
$LIMMIN
 10
0.0
 20
0.0
  9
$LIMMAX
 10
0.0
 20
0.0
  9
$ORTHOMODE
 70
               0
  9
$REGENMODE
 70
               1
  9
$FILLMODE
 70
               1
  9
$QTEXTMODE
 70
               0
  9
$MIRRTEXT
 70
               1
  9
$LTSCALE
 40
127.0
  9
$ATTMODE
 70
               1
  9
$TEXTSIZE
 40
0.2
  9
$TRACEWID
 40
1.0
  9
$TEXTSTYLE
  7
Standard
  9
$CLAYER
  8
template
  9
$CELTYPE
  6
Continuous
  9
$CECOLOR
 62
             256
  9
$CELTSCALE
 40
1.0
  9
$DISPSILH
 70
               0
  9
$DIMSCALE
 40
1.0
  9
$DIMASZ
 40
31.75
  9
$DIMEXO
 40
0.0
  9
$DIMDLI
 40
6.9999999999999396
  9
$DIMRND
 40
0.0
  9
$DIMDLE
 40
0.0
  9
$DIMEXE
 40
19.999999999996199
  9
$DIMTP
 40
0.0
  9
$DIMTM
 40
0.0
  9
$DIMTXT
 40
24.432617187500004
  9
$DIMCEN
 40
0.0
  9
$DIMTSZ
 40
0.0
  9
$DIMTOL
 70
               0
  9
$DIMLIM
 70
               0
  9
$DIMTIH
 70
               0
  9
$DIMTOH
 70
               0
  9
$DIMSE1
 70
               0
  9
$DIMSE2
 70
               0
  9
$DIMTAD
 70
               1
  9
$DIMZIN
 70
              11
  9
$DIMBLK
  1
VW_FILLEDARROW
  9
$DIMASO
 70
               1
  9
$DIMSHO
 70
               1
  9
$DIMPOST
  1
<>
  9
$DIMAPOST
  1
[]
  9
$DIMALT
 70
               0
  9
$DIMALTD
 70
               1
  9
$DIMALTF
 40
1.0
  9
$DIMLFAC
 40
1.0
  9
$DIMTOFL
 70
               0
  9
$DIMTVP
 40
0.0
  9
$DIMTIX
 70
               1
  9
$DIMSOXD
 70
               0
  9
$DIMSAH
 70
               0
  9
$DIMBLK1
  1

  9
$DIMBLK2
  1

  9
$DIMSTYLE
  2
JIS
  9
$DIMCLRD
 70
               0
  9
$DIMCLRE
 70
               0
  9
$DIMCLRT
 70
               0
  9
$DIMTFAC
 40
1.0
  9
$DIMGAP
 40
1.00000000000108
  9
$DIMJUST
 70
               0
  9
$DIMSD1
 70
               0
  9
$DIMSD2
 70
               0
  9
$DIMTOLJ
 70
               1
  9
$DIMTZIN
 70
              11
  9
$DIMALTZ
 70
              11
  9
$DIMALTTZ
 70
              11
  9
$DIMUPT
 70
               0
  9
$DIMDEC
 70
               1
  9
$DIMTDEC
 70
               1
  9
$DIMALTU
 70
               2
  9
$DIMALTTD
 70
               2
  9
$DIMTXSTY
  7
ＭＳ ゴシック
  9
$DIMAUNIT
 70
               0
  9
$DIMADEC
 70
               2
  9
$DIMALTRND
 40
0.0
  9
$DIMAZIN
 70
               0
  9
$DIMDSEP
 70
              46
  9
$DIMATFIT
 70
               0
  9
$DIMFRAC
 70
               2
  9
$DIMLDRBLK
  1

  9
$DIMLUNIT
 70
               2
  9
$DIMLWD
 70
              -2
  9
$DIMLWE
 70
              -2
  9
$DIMTMOVE
 70
               0
  9
$LUNITS
 70
               2
  9
$LUPREC
 70
               4
  9
$SKETCHINC
 40
0.1
  9
$FILLETRAD
 40
0.0
  9
$AUNITS
 70
               0
  9
$AUPREC
 70
               0
  9
$MENU
  1
acad
  9
$ELEVATION
 40
0.0
  9
$PELEVATION
 40
0.0
  9
$THICKNESS
 40
0.0
  9
$LIMCHECK
 70
               0
  9
$CHAMFERA
 40
0.0
  9
$CHAMFERB
 40
0.0
  9
$CHAMFERC
 40
0.0
  9
$CHAMFERD
 40
0.0
  9
$SKPOLY
 70
               0
  9
$TDCREATE
 40
2456010.773101852
  9
$TDUCREATE
 40
0.000000000
  9
$TDUPDATE
 40
2456010.773101852
  9
$TDUUPDATE
 40
0.000000000
  9
$TDINDWG
 40
0.0000000000
  9
$TDUSRTIMER
 40
0.0000000000
  9
$USRTIMER
 70
               1
  9
$ANGBASE
 50
0.0
  9
$ANGDIR
 70
               0
  9
$PDMODE
 70
               1
  9
$PDSIZE
 40
-2.0
  9
$PLINEWID
 40
0.0
  9
$SPLFRAME
 70
               0
  9
$SPLINETYPE
 70
               6
  9
$SPLINESEGS
 70
               8
  9
$HANDSEED
  5
1AF
  9
$SURFTAB1
 70
               6
  9
$SURFTAB2
 70
               6
  9
$SURFTYPE
 70
               6
  9
$SURFU
 70
               6
  9
$SURFV
 70
               6
  9
$UCSBASE
  2

  9
$UCSNAME
  2

  9
$UCSORG
 10
0.0
 20
0.0
 30
0.0
  9
$UCSXDIR
 10
1.0
 20
0.0
 30
0.0
  9
$UCSYDIR
 10
0.0
 20
1.0
 30
0.0
  9
$UCSORTHOREF
  2

  9
$UCSORTHOVIEW
 70
               0
  9
$UCSORGTOP
 10
0.0
 20
0.0
 30
0.0
  9
$UCSORGBOTTOM
 10
0.0
 20
0.0
 30
0.0
  9
$UCSORGLEFT
 10
0.0
 20
0.0
 30
0.0
  9
$UCSORGRIGHT
 10
0.0
 20
0.0
 30
0.0
  9
$UCSORGFRONT
 10
0.0
 20
0.0
 30
0.0
  9
$UCSORGBACK
 10
0.0
 20
0.0
 30
0.0
  9
$PUCSBASE
  2

  9
$PUCSNAME
  2

  9
$PUCSORG
 10
0.0
 20
0.0
 30
0.0
  9
$PUCSXDIR
 10
1.0
 20
0.0
 30
0.0
  9
$PUCSYDIR
 10
0.0
 20
1.0
 30
0.0
  9
$PUCSORTHOREF
  2

  9
$PUCSORTHOVIEW
 70
               0
  9
$PUCSORGTOP
 10
0.0
 20
0.0
 30
0.0
  9
$PUCSORGBOTTOM
 10
0.0
 20
0.0
 30
0.0
  9
$PUCSORGLEFT
 10
0.0
 20
0.0
 30
0.0
  9
$PUCSORGRIGHT
 10
0.0
 20
0.0
 30
0.0
  9
$PUCSORGFRONT
 10
0.0
 20
0.0
 30
0.0
  9
$PUCSORGBACK
 10
0.0
 20
0.0
 30
0.0
  9
$USERI1
 70
               0
  9
$USERI2
 70
               0
  9
$USERI3
 70
               0
  9
$USERI4
 70
               0
  9
$USERI5
 70
               0
  9
$USERR1
 40
0.0
  9
$USERR2
 40
0.0
  9
$USERR3
 40
0.0
  9
$USERR4
 40
0.0
  9
$USERR5
 40
0.0
  9
$WORLDVIEW
 70
               1
  9
$SHADEDGE
 70
               3
  9
$SHADEDIF
 70
              70
  9
$TILEMODE
 70
               1
  9
$MAXACTVP
 70
              64
  9
$PINSBASE
 10
0.0
 20
0.0
 30
0.0
  9
$PLIMCHECK
 70
               0
  9
$PEXTMIN
 10
1.0000000000000000E+20
 20
1.0000000000000000E+20
 30
1.0000000000000000E+20
  9
$PEXTMAX
 10
-1.0000000000000000E+20
 20
-1.0000000000000000E+20
 30
-1.0000000000000000E+20
  9
$PLIMMIN
 10
0.0
 20
0.0
  9
$PLIMMAX
 10
12.0
 20
9.0
  9
$UNITMODE
 70
               0
  9
$VISRETAIN
 70
               0
  9
$PLINEGEN
 70
               1
  9
$PSLTSCALE
 70
               0
  9
$TREEDEPTH
 70
            3020
  9
$CMLSTYLE
  2
Standard
  9
$CMLJUST
 70
               0
  9
$CMLSCALE
 40
1.0
  9
$PROXYGRAPHICS
 70
               0
  9
$MEASUREMENT
 70
               1
  9
$CELWEIGHT
370
               0
  9
$ENDCAPS
280
               0
  9
$JOINSTYLE
280
               0
  9
$LWDISPLAY
290
               1
  9
$INSUNITS
 70
               4
  9
$HYPERLINKBASE
  1

  9
$STYLESHEET
  1

  9
$XEDIT
290
               1
  9
$CEPSNTYPE
380
               0
  9
$PSTYLEMODE
290
               1
  9
$FINGERPRINTGUID
  2

  9
$VERSIONGUID
  2

  9
$EXTNAMES
290
               1
  9
$PSVPSCALE
 40
0.0
  0
ENDSEC
  0
SECTION
  2
CLASSES
  0
CLASS
  1
LWPOLYLINE
  2
AcDbPolyline
  3
AutoCAD 2000
 90
        0
280
               0
281
               1
  0
CLASS
  1
IMAGE
  2
AcDbRasterImage
  3
ISM
 90
      127
280
               0
281
               1
  0
CLASS
  1
OLE2FRAME
  2
AcDbOle2Frame
  3
AutoCAD 2000
 90
        0
280
               0
281
               1
  0
CLASS
  1
HATCH
  2
AcDbHatch
  3
AutoCAD 2000
 90
        0
280
               0
281
               1
  0
CLASS
  1
DICTIONARYVAR
  2
AcDbDictionaryVar
  3
AutoCAD 2000
 90
        0
280
               0
281
               0
  0
CLASS
  1
RASTERVARIABLES
  2
AcDbRasterVariables
  3
ISM
 90
        0
280
               0
281
               0
  0
CLASS
  1
IMAGEDEF
  2
AcDbRasterImageDef
  3
ISM
 90
        0
280
               0
281
               0
  0
CLASS
  1
IMAGEDEF_REACTOR
  2
AcDbRasterImageDefReactor
  3
ISM
 90
        1
280
               0
281
               0
  0
CLASS
  1
IDBUFFER
  2
AcDbIdBuffer
  3
AutoCAD 2000
 90
        0
280
               0
281
               0
  0
CLASS
  1
SPATIAL_FILTER
  2
AcDbSpatialFilter
  3
AutoCAD 2000
 90
        0
280
               0
281
               0
  0
CLASS
  1
XRECORD
  2
AcDbXrecord
  3
AutoCAD 2000
 90
        0
280
               0
281
               0
  0
CLASS
  1
SORTENTSTABLE
  2
AcDbSortentsTable
  3
AutoCAD 2000
 90
        0
280
               0
281
               0
  0
CLASS
  1
LAYER_INDEX
  2
AcDbLayerIndex
  3
AutoCAD 2000
 90
        0
280
               0
281
               0
  0
CLASS
  1
SPATIAL_INDEX
  2
AcDbSpatialIndex
  3
AutoCAD 2000
 90
        0
280
               0
281
               0
  0
CLASS
  1
OBJECT_PTR
  2
CAseDLPNTableRecord
  3
"ASE-LPNTableRecord"
 90
        1
280
               0
281
               0
  0
CLASS
  1
LAYOUT
  2
AcDbLayout
  3
AutoCAD 2000
 90
        0
280
               0
281
               0
  0
CLASS
  1
PLOTSETTINGS
  2
AcDbPlotSettings
  3
AutoCAD 2000
 90
        0
280
               0
281
               0
  0
CLASS
  1
ACDBDICTIONARYWDFLT
  2
AcDbDictionaryWithDefault
  3
AutoCAD 2000
 90
        0
280
               0
281
               0
  0
CLASS
  1
ACDBPLACEHOLDER
  2
AcDbPlaceHolder
  3
AutoCAD 2000
 90
        0
280
               0
281
               0
  0
ENDSEC
  0
SECTION
  2
TABLES
  0
TABLE
  2
VPORT
  5
7
100
AcDbSymbolTable
 70
               1
  0
VPORT
  5
15
100
AcDbSymbolTableRecord
100
AcDbViewportTableRecord
  2
*ACTIVE
 70
               0
 10
0.0
 20
0.0
 11
1.0
 21
1.0
 12
0.0
 22
-12.764114914906713
 13
0.0
 23
0.0
 14
1.0
 24
1.0
 15
0.0
 25
0.0
 16
0.0
 26
0.0
 36
1.0
 17
0.0
 27
0.0
 37
0.0
 40
2837.5228151124124
 41
0.688564
 42
50.0
 43
0.0
 44
0.0
 50
0.0
 51
0.0
 71
               0
 72
            2000
 73
               1
 74
               1
 75
               0
 76
               0
 77
               0
 78
               0
281
               0
 65
               0
110
0.0
120
0.0
130
0.0
111
1.0
121
0.0
131
0.0
112
0.0
122
1.0
132
0.0
345
0
346
0
 79
               0
146
0.0
  0
ENDTAB
  0
TABLE
  2
LTYPE
  5
4
100
AcDbSymbolTable
 70
              17
  0
LTYPE
  5
11
100
AcDbSymbolTableRecord
100
AcDbLinetypeTableRecord
  2
ByBlock
 70
              64
  3

 72
              65
 73
               0
 40
0.0
  0
LTYPE
  5
12
100
AcDbSymbolTableRecord
100
AcDbLinetypeTableRecord
  2
ByLayer
 70
              64
  3

 72
              65
 73
               0
 40
0.0
  0
LTYPE
  5
13
100
AcDbSymbolTableRecord
100
AcDbLinetypeTableRecord
  2
Continuous
 70
              64
  3
Solid line
 72
              65
 73
               0
 40
0.0
  0
LTYPE
  5
37
100
AcDbSymbolTableRecord
100
AcDbLinetypeTableRecord
  2
STYLE_01
 70
               0
  3

 72
              65
 73
               2
 40
0.333312
 49
0.166624
 74
               0
 49
-0.166688
 74
               0
  0
LTYPE
  5
38
100
AcDbSymbolTableRecord
100
AcDbLinetypeTableRecord
  2
STYLE_02
 70
               0
  3

 72
              65
 73
               2
 40
0.5555400000000001
 49
0.388856
 74
               0
 49
-0.1666840000000001
 74
               0
  0
LTYPE
  5
39
100
AcDbSymbolTableRecord
100
AcDbLinetypeTableRecord
  2
STYLE_03
 70
               0
  3

 72
              65
 73
               2
 40
1.0
 49
0.8333120000000002
 74
               0
 49
-0.1666879999999998
 74
               0
  0
LTYPE
  5
3A
100
AcDbSymbolTableRecord
100
AcDbLinetypeTableRecord
  2
STYLE_04
 70
               0
  3

 72
              65
 73
               2
 40
1.2221679999999999
 49
1.0555399999999999
 74
               0
 49
-0.166628
 74
               0
  0
LTYPE
  5
3B
100
AcDbSymbolTableRecord
100
AcDbLinetypeTableRecord
  2
STYLE_05
 70
               0
  3

 72
              65
 73
               2
 40
0.166624
 49
0.05554
 74
               0
 49
-0.111084
 74
               0
  0
LTYPE
  5
3C
100
AcDbSymbolTableRecord
100
AcDbLinetypeTableRecord
  2
STYLE_06
 70
               0
  3

 72
              65
 73
               4
 40
0.8333120000000001
 49
0.5
 74
               0
 49
-0.166624
 74
               0
 49
0.055544
 74
               0
 49
-0.111144
 74
               0
  0
LTYPE
  5
3D
100
AcDbSymbolTableRecord
100
AcDbLinetypeTableRecord
  2
STYLE_07
 70
               0
  3

 72
              65
 73
               6
 40
1.5
 49
0.5
 74
               0
 49
-0.166624
 74
               0
 49
0.5000000000000001
 74
               0
 49
-0.166688
 74
               0
 49
0.055544
 74
               0
 49
-0.1111439999999999
 74
               0
  0
LTYPE
  5
3E
100
AcDbSymbolTableRecord
100
AcDbLinetypeTableRecord
  2
STYLE_08
 70
               0
  3

 72
              65
 73
               6
 40
1.0
 49
0.5
 74
               0
 49
-0.166624
 74
               0
 49
0.055544
 74
               0
 49
-0.111144
 74
               0
 49
0.0555439999999999
 74
               0
 49
-0.111144
 74
               0
  0
LTYPE
  5
3F
100
AcDbSymbolTableRecord
100
AcDbLinetypeTableRecord
  2
STYLE_09
 70
               0
  3

 72
              65
 73
               4
 40
4.0
 49
3.0
 74
               0
 49
-0.2222279999999999
 74
               0
 49
0.5555440000000003
 74
               0
 49
-0.2222279999999999
 74
               0
  0
LTYPE
  5
40
100
AcDbSymbolTableRecord
100
AcDbLinetypeTableRecord
  2
STYLE_10
 70
               0
  3

 72
              65
 73
               6
 40
4.75
 49
3.0
 74
               0
 49
-0.2222279999999999
 74
               0
 49
0.5555440000000003
 74
               0
 49
-0.2222279999999999
 74
               0
 49
0.5
 74
               0
 49
-0.25
 74
               0
  0
LTYPE
  5
41
100
AcDbSymbolTableRecord
100
AcDbLinetypeTableRecord
  2
STYLE_11
 70
               0
  3

 72
              65
 73
               2
 40
0.0277777952755906
 49
0.0138888976377953
 74
               0
 49
-0.0138888976377953
 74
               0
  0
LTYPE
  5
42
100
AcDbSymbolTableRecord
100
AcDbLinetypeTableRecord
  2
STYLE_12
 70
               0
  3

 72
              65
 73
               2
 40
0.1574803149606299
 49
0.078740157480315
 74
               0
 49
-0.078740157480315
 74
               0
  0
LTYPE
  5
43
100
AcDbSymbolTableRecord
100
AcDbLinetypeTableRecord
  2
STYLE_13
 70
               0
  3

 72
              65
 73
               2
 40
0.2362204724409449
 49
0.1181102362204724
 74
               0
 49
-0.1181102362204724
 74
               0
  0
LTYPE
  5
44
100
AcDbSymbolTableRecord
100
AcDbLinetypeTableRecord
  2
STYLE_14
 70
               0
  3

 72
              65
 73
               2
 40
0.7874015748031495
 49
0.3937007874015748
 74
               0
 49
-0.3937007874015748
 74
               0
  0
ENDTAB
  0
TABLE
  2
LAYER
  5
2
100
AcDbSymbolTable
 70
               5
  0
LAYER
  5
14
100
AcDbSymbolTableRecord
100
AcDbLayerTableRecord
  2
0
 70
               0
 62
               7
  6
Continuous
290
               1
370
              -3
390
1D
  0
LAYER
  5
45
100
AcDbSymbolTableRecord
100
AcDbLayerTableRecord
  2
Defpoints
 70
               0
 62
               7
  6
Continuous
290
               0
370
              -3
390
1D
  0
LAYER
  5
46
100
AcDbSymbolTableRecord
100
AcDbLayerTableRecord
  2
template
 70
               0
 62
               7
  6
Continuous
290
               1
370
              -3
390
1D
  0
LAYER
  5
47
100
AcDbSymbolTableRecord
100
AcDbLayerTableRecord
  2
notes
 70
               0
 62
               7
  6
Continuous
290
               1
370
              -3
390
1D
  0
LAYER
  5
48
100
AcDbSymbolTableRecord
100
AcDbLayerTableRecord
  2
ADF70-0005
 70
               0
 62
               7
  6
Continuous
290
               1
370
              -3
390
1D
  0
ENDTAB
  0
TABLE
  2
STYLE
  5
3
100
AcDbSymbolTable
 70
               2
  0
STYLE
  5
17
100
AcDbSymbolTableRecord
100
AcDbTextStyleTableRecord
  2
Standard
 70
               0
 40
0.0
 41
1.0
 50
0.0
 71
               0
 42
0.0
  3
txt
  4
BIGFONT.SHX
  0
STYLE
  5
36
100
AcDbSymbolTableRecord
100
AcDbTextStyleTableRecord
  2
ＭＳ ゴシック
 70
               0
 40
0.0
 41
1.0
 50
0.0
 71
               0
 42
0.0
  3

  4
ＭＳ ゴシック
1001
ACAD
1000
ＭＳ ゴシック
1071
        0
  0
ENDTAB
  0
TABLE
  2
VIEW
  5
5
100
AcDbSymbolTable
 70
               0
  0
ENDTAB
  0
TABLE
  2
UCS
  5
6
100
AcDbSymbolTable
 70
               0
  0
ENDTAB
  0
TABLE
  2
APPID
  5
8
100
AcDbSymbolTable
 70
               1
  0
APPID
  5
16
100
AcDbSymbolTableRecord
100
AcDbRegAppTableRecord
  2
ACAD
 70
               0
  0
ENDTAB
  0
TABLE
  2
DIMSTYLE
  5
9
100
AcDbSymbolTable
 70
               3
100
AcDbDimStyleTable
 71
               0
  0
DIMSTYLE
105
18
100
AcDbSymbolTableRecord
100
AcDbDimStyleTableRecord
  2
Standard
 70
               0
  3

  4

 40
1.0
 41
0.18
 42
0.0625
 43
0.38
 44
0.18
 45
0.0
 46
0.0
 47
0.0
 48
0.0
 71
               0
 72
               0
 73
               1
 74
               1
 75
               0
 76
               0
 77
               0
 78
               0
 79
               0
140
0.18
141
0.09
142
0.0
143
25.399999999999999
144
1.0
145
0.0
146
1.0
147
0.09
148
0.0
170
               0
171
               2
172
               0
173
               0
174
               0
175
               0
176
               0
177
               0
178
               0
179
               0
271
               4
272
               4
273
               2
274
               2
275
               0
276
               0
277
               2
278
              46
279
               0
280
               0
281
               0
282
               0
283
               1
284
               0
285
               0
286
               0
288
               0
289
               3
340
17
341
0
342
0
343
0
344
0
371
              -2
372
              -2
  0
DIMSTYLE
105
51
100
AcDbSymbolTableRecord
100
AcDbDimStyleTableRecord
  2
tfrom線あり
 70
               0
  3
<>
  4
[]
 40
1.0
 41
3.999755859375
 42
24.999999999999996
 43
0.9999999999999999
 44
0.0
 45
0.0
 46
0.0
 47
0.0
 48
0.0
 71
               0
 72
               0
 73
               0
 74
               0
 75
               0
 76
               0
 77
               1
 78
              11
 79
               0
140
24.432617187500004
141
0.0
142
0.0
143
1.0
144
1.0
145
0.0
146
1.0
147
0.4999999999999999
148
0.0
170
               0
171
               1
172
               0
173
               0
174
               1
175
               0
176
               0
177
               0
178
               0
179
               2
271
               1
272
               1
273
               2
274
               2
275
               0
276
               2
277
               2
278
              46
279
               0
280
               0
281
               0
282
               0
283
               1
284
              11
285
              11
286
              11
288
               0
289
               0
340
36
341
49
342
49
343
0
344
0
371
              -2
372
              -2
  0
DIMSTYLE
105
56
100
AcDbSymbolTableRecord
100
AcDbDimStyleTableRecord
  2
JIS
 70
               0
  3
<>
  4
[]
 40
1.0
 41
31.75
 42
0.0
 43
6.9999999999999396
 44
19.999999999996199
 45
0.0
 46
0.0
 47
0.0
 48
0.0
 71
               0
 72
               0
 73
               0
 74
               0
 75
               0
 76
               0
 77
               1
 78
              11
 79
               0
140
24.432617187500004
141
0.0
142
0.0
143
1.0
144
1.0
145
0.0
146
1.0
147
1.00000000000108
148
0.0
170
               0
171
               1
172
               0
173
               0
174
               1
175
               0
176
               0
177
               0
178
               0
179
               2
271
               1
272
               1
273
               2
274
               2
275
               0
276
               2
277
               2
278
              46
279
               0
280
               0
281
               0
282
               0
283
               1
284
              11
285
              11
286
              11
288
               0
289
               0
340
36
341
52
342
52
343
0
344
0
371
              -2
372
              -2
  0
ENDTAB
  0
TABLE
  2
BLOCK_RECORD
  5
1
100
AcDbSymbolTable
 70
              21
  0
BLOCK_RECORD
  5
A
100
AcDbSymbolTableRecord
100
AcDbBlockTableRecord
  2
*MODEL_SPACE
340
20
  0
BLOCK_RECORD
  5
B
100
AcDbSymbolTableRecord
100
AcDbBlockTableRecord
  2
*PAPER_SPACE
340
21
  0
BLOCK_RECORD
  5
49
100
AcDbSymbolTableRecord
100
AcDbBlockTableRecord
  2
_DOT
340
0
  0
BLOCK_RECORD
  5
52
100
AcDbSymbolTableRecord
100
AcDbBlockTableRecord
  2
VW_FILLEDARROW
340
0
  0
BLOCK_RECORD
  5
23
100
AcDbSymbolTableRecord
100
AcDbBlockTableRecord
  2
グループ
340
0
102
{BLKREFS
331
14F
102
}
  0
BLOCK_RECORD
  5
24
100
AcDbSymbolTableRecord
100
AcDbBlockTableRecord
  2
*D3
340
0
  0
BLOCK_RECORD
  5
25
100
AcDbSymbolTableRecord
100
AcDbBlockTableRecord
  2
*D4
340
0
  0
BLOCK_RECORD
  5
26
100
AcDbSymbolTableRecord
100
AcDbBlockTableRecord
  2
*D5
340
0
  0
BLOCK_RECORD
  5
27
100
AcDbSymbolTableRecord
100
AcDbBlockTableRecord
  2
*D6
340
0
  0
BLOCK_RECORD
  5
28
100
AcDbSymbolTableRecord
100
AcDbBlockTableRecord
  2
*D7
340
0
  0
BLOCK_RECORD
  5
29
100
AcDbSymbolTableRecord
100
AcDbBlockTableRecord
  2
*D8
340
0
  0
BLOCK_RECORD
  5
2A
100
AcDbSymbolTableRecord
100
AcDbBlockTableRecord
  2
*D9
340
0
  0
BLOCK_RECORD
  5
2B
100
AcDbSymbolTableRecord
100
AcDbBlockTableRecord
  2
*D10
340
0
  0
BLOCK_RECORD
  5
2C
100
AcDbSymbolTableRecord
100
AcDbBlockTableRecord
  2
*D11
340
0
  0
BLOCK_RECORD
  5
2D
100
AcDbSymbolTableRecord
100
AcDbBlockTableRecord
  2
*D12
340
0
  0
BLOCK_RECORD
  5
2E
100
AcDbSymbolTableRecord
100
AcDbBlockTableRecord
  2
*D13
340
0
  0
BLOCK_RECORD
  5
2F
100
AcDbSymbolTableRecord
100
AcDbBlockTableRecord
  2
*D14
340
0
  0
BLOCK_RECORD
  5
30
100
AcDbSymbolTableRecord
100
AcDbBlockTableRecord
  2
*D15
340
0
  0
BLOCK_RECORD
  5
31
100
AcDbSymbolTableRecord
100
AcDbBlockTableRecord
  2
*D16
340
0
  0
BLOCK_RECORD
  5
32
100
AcDbSymbolTableRecord
100
AcDbBlockTableRecord
  2
*D17
340
0
  0
BLOCK_RECORD
  5
33
100
AcDbSymbolTableRecord
100
AcDbBlockTableRecord
  2
*D18
340
0
  0
BLOCK_RECORD
  5
34
100
AcDbSymbolTableRecord
100
AcDbBlockTableRecord
  2
*D19
340
0
  0
BLOCK_RECORD
  5
35
100
AcDbSymbolTableRecord
100
AcDbBlockTableRecord
  2
*D20
340
0
  0
ENDTAB
  0
ENDSEC
  0
SECTION
  2
BLOCKS
  0
BLOCK
  5
D
100
AcDbEntity
  8
0
390
0
100
AcDbBlockBegin
  2
*MODEL_SPACE
 70
               0
 10
0.0
 20
0.0
 30
0.0
  3
*MODEL_SPACE
  1

  0
ENDBLK
  5
E
100
AcDbEntity
  8
0
390
0
100
AcDbBlockEnd
  0
BLOCK
  5
F
100
AcDbEntity
 67
               1
  8
0
390
0
100
AcDbBlockBegin
  2
*PAPER_SPACE
 70
               0
 10
0.0
 20
0.0
 30
0.0
  3
*PAPER_SPACE
  1

  0
ENDBLK
  5
10
100
AcDbEntity
 67
               1
  8
0
390
0
100
AcDbBlockEnd
  0
BLOCK
  5
4A
100
AcDbEntity
  8
0
390
0
100
AcDbBlockBegin
  2
_DOT
 70
               0
 10
0.0
 20
0.0
 30
0.0
  3
_DOT
  1

  0
POLYLINE
  5
4B
100
AcDbEntity
  8
0
370
              -2
390
0
  6
ByBlock
 62
               0
100
AcDb2dPolyline
 66
               1
 10
0.0
 20
0.0
 30
0.0
 70
               1
 40
0.5
 41
0.5
  0
VERTEX
  5
4C
100
AcDbEntity
  8
0
370
              -2
390
0
  6
ByBlock
 62
               0
100
AcDbVertex
100
AcDb2dVertex
 10
-0.25
 20
0.0
 30
0.0
 42
1.0
  0
VERTEX
  5
4D
100
AcDbEntity
  8
0
370
              -2
390
0
  6
ByBlock
 62
               0
100
AcDbVertex
100
AcDb2dVertex
 10
0.25
 20
0.0
 30
0.0
 42
1.0
  0
SEQEND
  5
4E
100
AcDbEntity
  8
0
390
0
  0
LINE
  5
4F
100
AcDbEntity
  8
0
370
              -2
390
0
  6
ByBlock
 62
               0
100
AcDbLine
 10
-0.5
 20
0.0
 30
0.0
 11
-1.0
 21
0.0
 31
0.0
  0
ENDBLK
  5
50
100
AcDbEntity
  8
0
390
0
100
AcDbBlockEnd
  0
BLOCK
  5
53
100
AcDbEntity
  8
0
370
              -2
390
0
  6
ByBlock
 62
               0
100
AcDbBlockBegin
  2
VW_FILLEDARROW
 70
               0
 10
0.0
 20
0.0
 30
0.0
  3
VW_FILLEDARROW
  1

  0
SOLID
  5
54
100
AcDbEntity
  8
0
370
              -2
390
0
 62
               0
100
AcDbTrace
 10
0.0
 20
0.0
 30
0.0
 11
-0.9921874999999999
 21
-0.2658558393652545
 31
0.0
 12
-0.9921874999999999
 22
0.2658558393652548
 32
0.0
 13
-0.9921874999999999
 23
0.2658558393652548
 33
0.0
  0
ENDBLK
  5
55
100
AcDbEntity
  8
0
390
0
100
AcDbBlockEnd
  0
BLOCK
  5
57
100
AcDbEntity
  8
template
390
0
100
AcDbBlockBegin
  2
グループ
 70
               0
 10
0.0
 20
0.0
 30
0.0
  3
グループ
  1

  0
LWPOLYLINE
  5
58
100
AcDbEntity
  8
0
370
              15
390
0
  6
Continuous
 62
               7
100
AcDbPolyline
 90
        8
 70
             129
 10
890.42850780307504
 20
-1401.4897210236854
 10
890.42850780307504
 20
-1407.4871097172613
 10
880.92731088507173
 20
-1407.4871097172613
 10
880.92731088507173
 20
-1431.9380729807701
 10
872.57193362328894
 20
-1431.9380729807701
 10
872.57193362328894
 20
-1407.4871097172613
 10
863.23897667697952
 20
-1407.4871097172613
 10
863.23897667697952
 20
-1401.4897210236854
  0
LWPOLYLINE
  5
59
100
AcDbEntity
  8
0
370
              15
390
0
  6
Continuous
 62
               7
100
AcDbPolyline
 90
      101
 70
             128
 10
903.15679963363198
 20
-1402.2179695166219
 10
903.17214966241625
 20
-1402.213608759937
 42
-0.022222160781325
 10
903.46215423908802
 20
-1402.1449842946922
 10
903.47794800308111
 20
-1402.1419808715953
 42
-0.0146883565584589
 10
903.74065070830579
 20
-1402.0999776846459
 42
-0.0127458844184661
 10
904.00528967546018
 20
-1402.0724407165733
 10
904.06774475377165
 20
-1402.0675472939852
 42
-0.0198099018564568
 10
904.45859386324764
 20
-1402.0524621365885
 10
904.51040533269224
 20
-1402.0525159122535
 42
-0.0147617382761821
 10
905.00502879366729
 20
-1402.0676359374986
 10
905.07772024853841
 20
-1402.0720085443859
 42
-0.0162624549002512
 10
905.467873878006
 20
-1402.1082414196585
 10
905.58940626927017
 20
-1402.1235279786556
 42
-0.0080020874661774
 10
905.73498530035681
 20
-1402.1442108259234
 10
905.77330477093653
 20
-1402.150282103732
 42
-0.0053821929680638
 10
905.84178887626661
 20
-1402.1618896275561
 10
905.115383177068
 20
-1404.34281808327
 42
0.010866775739159
 10
905.04806610693629
 20
-1404.32963096805
 10
905.01059808374771
 20
-1404.3231332254556
 42
0.0170663203310813
 10
904.86738129683442
 20
-1404.3033036281643
 10
904.79950596414915
 20
-1404.2962564575764
 42
0.022016237527817
 10
904.51912655629064
 20
-1404.2795740968063
 10
904.44127098924287
 20
-1404.2783747295398
 42
0.0282606915785962
 10
904.10563466566384
 20
-1404.2921780065089
 10
904.06172139189005
 20
-1404.2964779965127
 42
0.0169677213688495
 10
903.81579689693262
 20
-1404.3290150460643
 42
0.0190576269866778
 10
903.57288893435259
 20
-1404.3791619181709
 10
903.56662974624169
 20
-1404.3807048922802
 42
0.0213685642849115
 10
903.3162452617612
 20
-1404.4539051773859
 10
903.31075536684773
 20
-1404.4557681734441
 42
0.0237595297600106
 10
903.05726048194867
 20
-1404.5554526953399
 10
903.05215840791936
 20
-1404.5577444708179
 42
0.0261857468819019
 10
902.79998763169147
 20
-1404.6872808081912
 10
902.78956144259973
 20
-1404.6933462826623
 42
0.0272553062024006
 10
902.55313166736391
 20
-1404.8487184886048
 10
902.51836865385633
 20
-1404.8743796366957
 42
0.032599689316688
 10
902.36821331020292
 20
-1405.0011275096685
 10
902.34450388108041
 20
-1405.0239455381809
 42
0.0138050960625286
 10
902.25262072486976
 20
-1405.117395199733
 42
0.012528010380067
 10
902.1657781920361
 20
-1405.2155585263331
 10
902.14209774712788
 20
-1405.2437170245205
 42
0.02052180247355
 10
902.01699767161551
 20
-1405.4055103387475
 10
901.99453133112706
 20
-1405.4371700685765
 42
0.0163110129582582
 10
901.83882095187903
 20
-1405.6725005036412
 10
901.83609705582478
 20
-1405.6769242656319
 42
0.0131897341900647
 10
901.68929653491614
 20
-1405.9300563580016
 10
901.68759643955241
 20
-1405.9331745971322
 42
0.0107895576062979
 10
901.54981973734618
 20
-1406.1993898067581
 10
901.54908684781662
 20
-1406.2008840394137
 42
0.0091371507221009
 10
901.42060689916559
 20
-1406.4754092371766
 10
901.39086126775783
 20
-1406.542115744332
 42
0.0135418326351432
 10
901.21914732868481
 20
-1406.9570535296045
 10
901.18554252025274
 20
-1407.0449196718801
 42
0.0092834542411335
 10
901.0143134603311
 20
-1407.5188181701874
 10
900.98869633260847
 20
-1407.5940592399954
 42
0.0054261043582157
 10
900.88105818432041
 20
-1407.9218232130461
 10
900.86353219811247
 20
-1407.9772113753727
 42
0.0008225090825535
 10
900.79486214631299
 20
-1408.1954801334252
 10
899.81017301437953
 20
-1411.2203714266818
 10
903.0427968544534
 20
-1411.2203714266818
 10
902.53860442459995
 20
-1413.1248497250342
 10
899.28254814261663
 20
-1413.1248497250342
 10
893.45339911026281
 20
-1431.9380727910391
 10
891.6283014999525
 20
-1431.9380727910391
 10
897.46297953545343
 20
-1413.1248497250342
 10
895.05786316641309
 20
-1413.1248497250342
 10
895.56205559626653
 20
-1411.2203714266818
 10
897.99060440721655
 20
-1411.2203714266818
 10
898.85075932540519
 20
-1408.5839584259829
 42
-0.0005863560649197
 10
898.88749400358665
 20
-1408.4671320057619
 10
898.96358183726909
 20
-1408.2261397063057
 42
-0.0087522378927676
 10
899.16304998073031
 20
-1407.630863619147
 10
899.25531425613701
 20
-1407.370723450653
 42
-0.0077400953832419
 10
899.51324791527054
 20
-1406.6777187730981
 10
899.52901288685132
 20
-1406.6372878897073
 42
-0.0082369946331563
 10
899.77609735746137
 20
-1406.0332088235164
 42
-0.008572523836682
 10
900.04334345345978
 20
-1405.4377827842388
 10
900.14497305447458
 20
-1405.2213616822382
 42
-0.0168109410595763
 10
900.43191748320169
 20
-1404.6601541561397
 10
900.55776087362176
 20
-1404.4331901232122
 42
-0.0007817726859802
 10
900.61204522371736
 20
-1404.3356458781113
 10
900.6121735297221
 20
-1404.3354161693974
 42
-0.0036626142164513
 10
900.66706139375583
 20
-1404.2388182894063
 42
-0.0080221150676686
 10
900.72418564916165
 20
-1404.1435390546549
 10
900.75488560052372
 20
-1404.0941481055311
 42
-0.0202139325575844
 10
900.88254134032832
 20
-1403.9061665048528
 10
900.93660880551806
 20
-1403.8330876406089
 42
-0.0249323791800389
 10
901.19577159923779
 20
-1403.5170423984541
 10
901.21991141336423
 20
-1403.4904281255422
 42
-0.0242132121538901
 10
901.55959215490611
 20
-1403.1505446393382
 10
901.60750372765472
 20
-1403.1070355031541
 42
-0.0251017527859981
 10
901.89148542829753
 20
-1402.8740427573871
 10
901.89293090510478
 20
-1402.872973499813
 42
-0.0130868069038146
 10
902.1911915550686
 20
-1402.6641930312658
 10
902.19275337420925
 20
-1402.6631595909921
 42
-0.0290329526390183
 10
902.50386451560462
 20
-1402.4823340893613
 10
902.53371007759335
 20
-1402.4672317065204
 42
-0.0160250190045062
 10
902.79961449135544
 20
-1402.3432155963087
 42
-0.026760037477936
 10
903.07489056882764
 20
-1402.2424672757588
 10
903.101626488345
 20
-1402.2342747169344
 42
-0.0049981587669803
 10
903.15679963363198
 20
-1402.2179695166219
 42
-0.0049981587669803
  0
LWPOLYLINE
  5
5A
100
AcDbEntity
  8
0
370
              15
390
0
  6
Continuous
 62
               7
100
AcDbPolyline
 90
      118
 70
             128
 10
922.97116719807889
 20
-1411.2943547545092
 10
924.84628912257836
 20
-1411.2943547545092
 10
924.00825021697847
 20
-1413.9759212809092
 42
-0.0010587229204016
 10
924.03970603257574
 20
-1413.939016747524
 10
924.0979001231824
 20
-1413.8710344913782
 42
-0.007187474039918
 10
924.24827534129361
 20
-1413.7003937993345
 10
924.38999811454266
 20
-1413.5441576580361
 42
-0.0148118053513741
 10
924.84012740725734
 20
-1413.0765438120211
 10
924.92734974214534
 20
-1412.9911464911811
 42
-0.0086273358697899
 10
925.26289854316565
 20
-1412.6737708571529
 10
925.30673225938244
 20
-1412.633721212828
 42
-0.0103138323117953
 10
925.564755961625
 20
-1412.4075580754816
 10
925.61053036796625
 20
-1412.3690760282095
 42
-0.0060206748563075
 10
925.7833784320643
 20
-1412.2272813774671
 10
925.78540956294046
 20
-1412.2256556718437
 42
-0.0067069027300071
 10
925.9577023776128
 20
-1412.0915050380409
 10
925.96025114353642
 20
-1412.0895748681673
 42
-0.0076184352054608
 10
926.1311564094101
 20
-1411.9641999929217
 42
-0.00896528616725
 10
926.30611737214565
 20
-1411.8445667325882
 10
926.34246909229148
 20
-1411.8206555191048
 42
-0.0156916245939099
 10
926.53842858944972
 20
-1411.7003930326318
 42
-0.0023299011072254
 10
926.73869063339362
 20
-1411.5872150931109
 10
926.75407476580938
 20
-1411.5786150980261
 42
-0.0107669341488379
 10
926.98831159090832
 20
-1411.4542149646779
 10
927.01057639198552
 20
-1411.4429982147267
 42
-0.0078058045898131
 10
927.29416650993653
 20
-1411.3056367590891
 10
927.3040735976474
 20
-1411.3010276312198
 42
-0.018182933047175
 10
927.61438300226121
 20
-1411.1701638901247
 10
927.66843844483139
 20
-1411.14964877018
 42
-0.0208411536029668
 10
928.01752341228007
 20
-1411.0335583076876
 10
928.03187951240477
 20
-1411.029439862735
 42
-0.0222799817144391
 10
928.36059930632473
 20
-1410.9507982965938
 10
928.36948826956336
 20
-1410.9490862860084
 42
-0.0215509523882413
 10
928.68595923784164
 20
-1410.9021705974742
 10
928.72844119889123
 20
-1410.8977330706832
 42
-0.0182545924868037
 10
928.96254997819574
 20
-1410.8818892452925
 10
929.00195099455323
 20
-1410.8806647002132
 42
-0.0072962856533059
 10
929.15787387423279
 20
-1410.8780953716912
 10
929.18697354480855
 20
-1410.8780405362875
 42
-0.0059227516319003
 10
929.28472304394973
 20
-1410.879014248078
 10
929.31396526147421
 20
-1410.8796520146825
 42
-0.0011833111917745
 10
929.35321654515405
 20
-1410.8806010189912
 10
928.55782994954689
 20
-1413.4193349640902
 42
0.0143932051590564
 10
928.5314285671941
 20
-1413.4091359940442
 10
928.52415659477901
 20
-1413.4065647751877
 42
0.0234388603522985
 10
928.48232572884376
 20
-1413.3939455394714
 10
928.4736440659342
 20
-1413.3917645774673
 42
0.0199162742969023
 10
928.41335523185523
 20
-1413.3791478421322
 10
928.39254129404799
 20
-1413.3756506427037
 42
0.0293643550671094
 10
928.28946643528911
 20
-1413.3645005970507
 10
928.26478125456856
 20
-1413.3632889800319
 42
0.0214606686870989
 10
928.11164033861269
 20
-1413.3623504196146
 10
928.10226842779809
 20
-1413.3626953311586
 42
0.0167564054175224
 10
927.93074823668451
 20
-1413.3747723735271
 10
927.92228844393071
 20
-1413.3756537139539
 42
0.0137677553239908
 10
927.73493513066273
 20
-1413.4004030224978
 10
927.72758339115808
 20
-1413.4015809424654
 42
0.0118497261484099
 10
927.52708562705732
 20
-1413.4385982926544
 10
927.52093561980951
 20
-1413.4398851553747
 42
0.0106421143889555
 10
927.31005473252253
 20
-1413.48871753095
 10
927.30514592413545
 20
-1413.4899648736346
 42
0.0099746379704331
 10
927.0866874549763
 20
-1413.5501394019484
 10
927.02513941480265
 20
-1413.56842128058
 42
0.0191613675862489
 10
926.68915495228293
 20
-1413.6823986608686
 10
926.60109517954083
 20
-1413.7160855711913
 42
0.0205274080145767
 10
926.21578840764096
 20
-1413.8819139790176
 10
926.15813912565852
 20
-1413.9095819435902
 42
0.0181256912196083
 10
925.899862184992
 20
-1414.0452657625679
 10
925.84690680167796
 20
-1414.0755833757826
 42
0.0140709242411569
 10
925.70195186704973
 20
-1414.1640780492169
 10
925.67570299844169
 20
-1414.1811348679255
 42
0.0086667884384519
 10
925.5867768368887
 20
-1414.2411375358151
 42
0.0036408192024829
 10
925.49934359884844
 20
-1414.3033183936125
 10
925.46411672438671
 20
-1414.3287593395203
 42
0.0052260781275123
 10
925.30788802699658
 20
-1414.4440917261538
 10
925.29168117073596
 20
-1414.4563198367728
 42
0.0050024435892337
 10
925.10567782769942
 20
-1414.5996024050175
 10
925.09035967116199
 20
-1414.6116484274808
 42
0.0136138710275664
 10
924.87991840284326
 20
-1414.7866149323884
 10
924.84625052704314
 20
-1414.8161939051083
 42
0.0172815186917234
 10
924.5818469853815
 20
-1415.0651905777308
 10
924.57928463953795
 20
-1415.0677763948788
 42
0.0189403857989635
 10
924.32870284096225
 20
-1415.3405816596789
 10
924.296071347419
 20
-1415.3789255911847
 42
0.0185044199507859
 10
924.10411490844285
 20
-1415.6221741723029
 42
0.0088565243902462
 10
923.92565480181349
 20
-1415.8756905924547
 10
923.91647682216592
 20
-1415.8892319722131
 42
0.0157195347232142
 10
923.73325621583069
 20
-1416.1787541815306
 10
923.68717327390186
 20
-1416.2569063785479
 42
0.0095451879781255
 10
923.52208772376332
 20
-1416.5495010209061
 10
923.51093980483063
 20
-1416.5701716930437
 42
0.0100351706263012
 10
923.37889605567443
 20
-1416.8272272535289
 42
0.0086935915416942
 10
923.25656490388246
 20
-1417.0890603989285
 10
923.25324416246588
 20
-1417.0965027219052
 42
0.0072580174865636
 10
923.13289771052018
 20
-1417.3770947134901
 10
923.12963607721463
 20
-1417.385014739506
 42
0.0060005122618496
 10
923.01043540886633
 20
-1417.6846244101259
 10
923.0072244305303
 20
-1417.6929859380161
 42
0.0049017786976845
 10
922.88832427167256
 20
-1418.011914918621
 10
922.88515846528242
 20
-1418.0206678558507
 42
0.0039415167603075
 10
922.76572218722367
 20
-1418.3592099182702
 10
922.76259108457361
 20
-1418.3683131191401
 42
0.0031035838767446
 10
922.64178629888488
 20
-1418.7267529809005
 10
922.63867625435012
 20
-1418.7361736022885
 42
0.002507074715376
 10
922.51577490304157
 20
-1419.114820819211
 10
922.4784810066094
 20
-1419.2317124844853
 42
0.0029081910282974
 10
922.28646270880586
 20
-1419.8458761427528
 10
922.24565954028151
 20
-1419.9790993850529
 42
0.0009266453733463
 10
921.97724216594327
 20
-1420.8613238450544
 10
921.95635469332285
 20
-1420.9304357242236
 42
-0.0005809993666069
 10
921.67901801273501
 20
-1421.8442438308512
 10
921.61273621443024
 20
-1422.0617287631148
 42
-0.0012018708165607
 10
921.4657519050329
 20
-1422.5398914275315
 10
921.4134320535378
 20
-1422.7086505681702
 42
-0.0002691059602009
 10
921.36986257229876
 20
-1422.8489181887394
 10
918.53690667400951
 20
-1431.9380727910391
 10
916.71891778203099
 20
-1431.9380727910391
 10
922.97116719807889
 20
-1411.2943547545092
  0
SPLINE
  5
5B
100
AcDbEntity
  8
0
370
              15
390
0
  6
Continuous
 62
               7
100
AcDbSpline
210
0.0
220
0.0
230
1.0
 70
              13
 71
               2
 72
             782
 73
             779
 74
               0
 42
0.000001
 43
0.000001
 40
0.0
 40
0.0
 40
0.0
 40
1.0
 40
1.0
 40
2.0
 40
2.0
 40
3.0
 40
3.0
 40
4.0
 40
4.0
 40
5.0
 40
5.0
 40
6.0
 40
6.0
 40
7.0
 40
7.0
 40
8.0
 40
8.0
 40
9.0
 40
9.0
 40
10.0
 40
10.0
 40
11.0
 40
11.0
 40
12.0
 40
12.0
 40
13.0
 40
13.0
 40
14.0
 40
14.0
 40
15.0
 40
15.0
 40
16.0
 40
16.0
 40
17.0
 40
17.0
 40
18.0
 40
18.0
 40
19.0
 40
19.0
 40
20.0
 40
20.0
 40
21.0
 40
21.0
 40
22.0
 40
22.0
 40
23.0
 40
23.0
 40
24.0
 40
24.0
 40
25.0
 40
25.0
 40
26.0
 40
26.0
 40
27.0
 40
27.0
 40
28.0
 40
28.0
 40
29.0
 40
29.0
 40
30.0
 40
30.0
 40
31.0
 40
31.0
 40
32.0
 40
32.0
 40
33.0
 40
33.0
 40
34.0
 40
34.0
 40
35.0
 40
35.0
 40
36.0
 40
36.0
 40
37.0
 40
37.0
 40
38.0
 40
38.0
 40
39.0
 40
39.0
 40
40.0
 40
40.0
 40
41.0
 40
41.0
 40
42.0
 40
42.0
 40
43.0
 40
43.0
 40
44.0
 40
44.0
 40
45.0
 40
45.0
 40
46.0
 40
46.0
 40
47.0
 40
47.0
 40
48.0
 40
48.0
 40
49.0
 40
49.0
 40
50.0
 40
50.0
 40
51.0
 40
51.0
 40
52.0
 40
52.0
 40
53.0
 40
53.0
 40
54.0
 40
54.0
 40
55.0
 40
55.0
 40
56.0
 40
56.0
 40
57.0
 40
57.0
 40
58.0
 40
58.0
 40
59.0
 40
59.0
 40
60.0
 40
60.0
 40
61.0
 40
61.0
 40
62.0
 40
62.0
 40
63.0
 40
63.0
 40
64.0
 40
64.0
 40
65.0
 40
65.0
 40
66.0
 40
66.0
 40
67.0
 40
67.0
 40
68.0
 40
68.0
 40
69.0
 40
69.0
 40
70.0
 40
70.0
 40
71.0
 40
71.0
 40
72.0
 40
72.0
 40
73.0
 40
73.0
 40
74.0
 40
74.0
 40
75.0
 40
75.0
 40
76.0
 40
76.0
 40
77.0
 40
77.0
 40
78.0
 40
78.0
 40
79.0
 40
79.0
 40
80.0
 40
80.0
 40
81.0
 40
81.0
 40
82.0
 40
82.0
 40
83.0
 40
83.0
 40
84.0
 40
84.0
 40
85.0
 40
85.0
 40
86.0
 40
86.0
 40
87.0
 40
87.0
 40
88.0
 40
88.0
 40
89.0
 40
89.0
 40
90.0
 40
90.0
 40
91.0
 40
91.0
 40
92.0
 40
92.0
 40
93.0
 40
93.0
 40
94.0
 40
94.0
 40
95.0
 40
95.0
 40
96.0
 40
96.0
 40
97.0
 40
97.0
 40
98.0
 40
98.0
 40
99.0
 40
99.0
 40
100.0
 40
100.0
 40
101.0
 40
101.0
 40
102.0
 40
102.0
 40
103.0
 40
103.0
 40
104.0
 40
104.0
 40
105.0
 40
105.0
 40
106.0
 40
106.0
 40
107.0
 40
107.0
 40
108.0
 40
108.0
 40
109.0
 40
109.0
 40
110.0
 40
110.0
 40
111.0
 40
111.0
 40
112.0
 40
112.0
 40
113.0
 40
113.0
 40
114.0
 40
114.0
 40
115.0
 40
115.0
 40
116.0
 40
116.0
 40
117.0
 40
117.0
 40
118.0
 40
118.0
 40
119.0
 40
119.0
 40
120.0
 40
120.0
 40
121.0
 40
121.0
 40
122.0
 40
122.0
 40
123.0
 40
123.0
 40
124.0
 40
124.0
 40
125.0
 40
125.0
 40
126.0
 40
126.0
 40
127.0
 40
127.0
 40
128.0
 40
128.0
 40
129.0
 40
129.0
 40
130.0
 40
130.0
 40
131.0
 40
131.0
 40
132.0
 40
132.0
 40
133.0
 40
133.0
 40
134.0
 40
134.0
 40
135.0
 40
135.0
 40
136.0
 40
136.0
 40
137.0
 40
137.0
 40
138.0
 40
138.0
 40
139.0
 40
139.0
 40
140.0
 40
140.0
 40
141.0
 40
141.0
 40
142.0
 40
142.0
 40
143.0
 40
143.0
 40
144.0
 40
144.0
 40
145.0
 40
145.0
 40
146.0
 40
146.0
 40
147.0
 40
147.0
 40
148.0
 40
148.0
 40
149.0
 40
149.0
 40
150.0
 40
150.0
 40
151.0
 40
151.0
 40
152.0
 40
152.0
 40
153.0
 40
153.0
 40
154.0
 40
154.0
 40
155.0
 40
155.0
 40
156.0
 40
156.0
 40
157.0
 40
157.0
 40
158.0
 40
158.0
 40
159.0
 40
159.0
 40
160.0
 40
160.0
 40
161.0
 40
161.0
 40
162.0
 40
162.0
 40
163.0
 40
163.0
 40
164.0
 40
164.0
 40
165.0
 40
165.0
 40
166.0
 40
166.0
 40
167.0
 40
167.0
 40
168.0
 40
168.0
 40
169.0
 40
169.0
 40
170.0
 40
170.0
 40
171.0
 40
171.0
 40
172.0
 40
172.0
 40
173.0
 40
173.0
 40
174.0
 40
174.0
 40
175.0
 40
175.0
 40
176.0
 40
176.0
 40
177.0
 40
177.0
 40
178.0
 40
178.0
 40
179.0
 40
179.0
 40
180.0
 40
180.0
 40
181.0
 40
181.0
 40
182.0
 40
182.0
 40
183.0
 40
183.0
 40
184.0
 40
184.0
 40
185.0
 40
185.0
 40
186.0
 40
186.0
 40
187.0
 40
187.0
 40
188.0
 40
188.0
 40
189.0
 40
189.0
 40
190.0
 40
190.0
 40
191.0
 40
191.0
 40
192.0
 40
192.0
 40
193.0
 40
193.0
 40
194.0
 40
194.0
 40
195.0
 40
195.0
 40
196.0
 40
196.0
 40
197.0
 40
197.0
 40
198.0
 40
198.0
 40
199.0
 40
199.0
 40
200.0
 40
200.0
 40
201.0
 40
201.0
 40
202.0
 40
202.0
 40
203.0
 40
203.0
 40
204.0
 40
204.0
 40
205.0
 40
205.0
 40
206.0
 40
206.0
 40
207.0
 40
207.0
 40
208.0
 40
208.0
 40
209.0
 40
209.0
 40
210.0
 40
210.0
 40
211.0
 40
211.0
 40
212.0
 40
212.0
 40
213.0
 40
213.0
 40
214.0
 40
214.0
 40
215.0
 40
215.0
 40
216.0
 40
216.0
 40
217.0
 40
217.0
 40
218.0
 40
218.0
 40
219.0
 40
219.0
 40
220.0
 40
220.0
 40
221.0
 40
221.0
 40
222.0
 40
222.0
 40
223.0
 40
223.0
 40
224.0
 40
224.0
 40
225.0
 40
225.0
 40
226.0
 40
226.0
 40
227.0
 40
227.0
 40
228.0
 40
228.0
 40
229.0
 40
229.0
 40
230.0
 40
230.0
 40
231.0
 40
231.0
 40
232.0
 40
232.0
 40
233.0
 40
233.0
 40
234.0
 40
234.0
 40
235.0
 40
235.0
 40
236.0
 40
236.0
 40
237.0
 40
237.0
 40
238.0
 40
238.0
 40
239.0
 40
239.0
 40
240.0
 40
240.0
 40
241.0
 40
241.0
 40
242.0
 40
242.0
 40
243.0
 40
243.0
 40
244.0
 40
244.0
 40
245.0
 40
245.0
 40
246.0
 40
246.0
 40
247.0
 40
247.0
 40
248.0
 40
248.0
 40
249.0
 40
249.0
 40
250.0
 40
250.0
 40
251.0
 40
251.0
 40
252.0
 40
252.0
 40
253.0
 40
253.0
 40
254.0
 40
254.0
 40
255.0
 40
255.0
 40
256.0
 40
256.0
 40
257.0
 40
257.0
 40
258.0
 40
258.0
 40
259.0
 40
259.0
 40
260.0
 40
260.0
 40
261.0
 40
261.0
 40
262.0
 40
262.0
 40
263.0
 40
263.0
 40
264.0
 40
264.0
 40
265.0
 40
265.0
 40
266.0
 40
266.0
 40
267.0
 40
267.0
 40
268.0
 40
268.0
 40
269.0
 40
269.0
 40
270.0
 40
270.0
 40
271.0
 40
271.0
 40
272.0
 40
272.0
 40
273.0
 40
273.0
 40
274.0
 40
274.0
 40
275.0
 40
275.0
 40
276.0
 40
276.0
 40
277.0
 40
277.0
 40
278.0
 40
278.0
 40
279.0
 40
279.0
 40
280.0
 40
280.0
 40
281.0
 40
281.0
 40
282.0
 40
282.0
 40
283.0
 40
283.0
 40
284.0
 40
284.0
 40
285.0
 40
285.0
 40
286.0
 40
286.0
 40
287.0
 40
287.0
 40
288.0
 40
288.0
 40
289.0
 40
289.0
 40
290.0
 40
290.0
 40
291.0
 40
291.0
 40
292.0
 40
292.0
 40
293.0
 40
293.0
 40
294.0
 40
294.0
 40
295.0
 40
295.0
 40
296.0
 40
296.0
 40
297.0
 40
297.0
 40
298.0
 40
298.0
 40
299.0
 40
299.0
 40
300.0
 40
300.0
 40
301.0
 40
301.0
 40
302.0
 40
302.0
 40
303.0
 40
303.0
 40
304.0
 40
304.0
 40
305.0
 40
305.0
 40
306.0
 40
306.0
 40
307.0
 40
307.0
 40
308.0
 40
308.0
 40
309.0
 40
309.0
 40
310.0
 40
310.0
 40
311.0
 40
311.0
 40
312.0
 40
312.0
 40
313.0
 40
313.0
 40
314.0
 40
314.0
 40
315.0
 40
315.0
 40
316.0
 40
316.0
 40
317.0
 40
317.0
 40
318.0
 40
318.0
 40
319.0
 40
319.0
 40
320.0
 40
320.0
 40
321.0
 40
321.0
 40
322.0
 40
322.0
 40
323.0
 40
323.0
 40
324.0
 40
324.0
 40
325.0
 40
325.0
 40
326.0
 40
326.0
 40
327.0
 40
327.0
 40
328.0
 40
328.0
 40
329.0
 40
329.0
 40
330.0
 40
330.0
 40
331.0
 40
331.0
 40
332.0
 40
332.0
 40
333.0
 40
333.0
 40
334.0
 40
334.0
 40
335.0
 40
335.0
 40
336.0
 40
336.0
 40
337.0
 40
337.0
 40
338.0
 40
338.0
 40
339.0
 40
339.0
 40
340.0
 40
340.0
 40
341.0
 40
341.0
 40
342.0
 40
342.0
 40
343.0
 40
343.0
 40
344.0
 40
344.0
 40
345.0
 40
345.0
 40
346.0
 40
346.0
 40
347.0
 40
347.0
 40
348.0
 40
348.0
 40
349.0
 40
349.0
 40
350.0
 40
350.0
 40
351.0
 40
351.0
 40
352.0
 40
352.0
 40
353.0
 40
353.0
 40
354.0
 40
354.0
 40
355.0
 40
355.0
 40
356.0
 40
356.0
 40
357.0
 40
357.0
 40
358.0
 40
358.0
 40
359.0
 40
359.0
 40
360.0
 40
360.0
 40
361.0
 40
361.0
 40
362.0
 40
362.0
 40
363.0
 40
363.0
 40
364.0
 40
364.0
 40
365.0
 40
365.0
 40
366.0
 40
366.0
 40
367.0
 40
367.0
 40
368.0
 40
368.0
 40
369.0
 40
369.0
 40
370.0
 40
370.0
 40
371.0
 40
371.0
 40
372.0
 40
372.0
 40
373.0
 40
373.0
 40
374.0
 40
374.0
 40
375.0
 40
375.0
 40
376.0
 40
376.0
 40
377.0
 40
377.0
 40
378.0
 40
378.0
 40
379.0
 40
379.0
 40
380.0
 40
380.0
 40
381.0
 40
381.0
 40
382.0
 40
382.0
 40
383.0
 40
383.0
 40
384.0
 40
384.0
 40
385.0
 40
385.0
 40
386.0
 40
386.0
 40
387.0
 40
387.0
 40
388.0
 40
388.0
 40
389.0
 40
389.0
 40
389.0
 10
933.29987164881152
 20
-1411.2834283911468
 30
0.0
 41
1.0
 10
934.118295757532
 20
-1411.2834283911468
 30
0.0
 41
1.0
 10
934.93671986625247
 20
-1411.2834283911468
 30
0.0
 41
1.0
 10
934.52296613073577
 20
-1412.6260546553965
 30
0.0
 41
1.0
 10
934.10921239521895
 20
-1413.9686809196462
 30
0.0
 41
1.0
 10
934.12755189040513
 20
-1413.9399801467066
 30
0.0
 41
0.9999957264428485
 10
934.14605888725487
 20
-1413.9113870965264
 30
0.0
 41
1.0
 10
934.17648821137357
 20
-1413.8643742181794
 30
0.0
 41
1.0
 10
934.20691753549227
 20
-1413.8173613398324
 30
0.0
 41
1.0
 10
934.28628318059771
 20
-1413.6947425329295
 30
0.0
 41
0.9995394069081358
 10
934.37294157214956
 20
-1413.5771644711881
 30
0.0
 41
1.0
 10
934.40869843441021
 20
-1413.5286495785936
 30
0.0
 41
1.0
 10
934.44445529667087
 20
-1413.4801346859988
 30
0.0
 41
1.0
 10
934.57818196448829
 20
-1413.2986944108732
 30
0.0
 41
0.9994460617143337
 10
934.72368244577592
 20
-1413.1265520132238
 30
0.0
 41
1.0
 10
934.72807062674974
 20
-1413.1213603328424
 30
0.0
 41
1.0
 10
934.73245880772367
 20
-1413.1161686524613
 30
0.0
 41
1.0
 10
934.86918292706184
 20
-1412.9544096155764
 30
0.0
 41
0.9994359394934036
 10
935.01645715741529
 20
-1412.8021934144097
 30
0.0
 41
1.0
 10
935.01884051136756
 20
-1412.7997300840375
 30
0.0
 41
1.0
 10
935.02122386531983
 20
-1412.7972667536656
 30
0.0
 41
1.0
 10
935.16373138776498
 20
-1412.6499772132465
 30
0.0
 41
0.9995293688567374
 10
935.31500306874887
 20
-1412.5117040010809
 30
0.0
 41
1.0
 10
935.33429682801182
 20
-1412.4940681154301
 30
0.0
 41
1.0
 10
935.35359058727477
 20
-1412.4764322297792
 30
0.0
 41
1.0
 10
935.46627474973138
 20
-1412.3734307889163
 30
0.0
 41
0.9997087614802621
 10
935.58379763868606
 20
-1412.2759865081189
 30
0.0
 41
1.0
 10
935.60296371185916
 20
-1412.2600949296129
 30
0.0
 41
1.0
 10
935.62212978503226
 20
-1412.244203351107
 30
0.0
 41
1.0
 10
935.7013205276387
 20
-1412.1785422273229
 30
0.0
 41
0.9999595338695726
 10
935.78167979849627
 20
-1412.1143164966661
 30
0.0
 41
1.0
 10
935.8620390693618
 20
-1412.050090766003
 30
0.0
 41
0.9999749417504911
 10
935.94329960372522
 20
-1411.9870092120411
 30
0.0
 41
1.0
 10
935.96428574986192
 20
-1411.9707179247594
 30
0.0
 41
1.0
 10
935.98527189599861
 20
-1411.9544266374778
 30
0.0
 41
1.0
 10
936.06983978131598
 20
-1411.8887776276247
 30
0.0
 41
0.9999792037128434
 10
936.1552473810973
 20
-1411.8242248459719
 30
0.0
 41
1.0
 10
936.176072207076
 20
-1411.8084850236633
 30
0.0
 41
1.0
 10
936.19689703305471
 20
-1411.7927452013548
 30
0.0
 41
1.0
 10
936.24065498092887
 20
-1411.7596720642814
 30
0.0
 41
0.9999993374072019
 10
936.28433666700994
 20
-1411.7264982689044
 30
0.0
 41
1.0
 10
936.32801835316138
 20
-1411.6933244734744
 30
0.0
 41
0.9999160953815551
 10
936.3725447640893
 20
-1411.66129340827
 30
0.0
 41
1.0
 10
936.40536665150057
 20
-1411.6376822526911
 30
0.0
 41
1.0
 10
936.43818853891173
 20
-1411.6140710971122
 30
0.0
 41
1.0
 10
936.54835872467197
 20
-1411.5348177207434
 30
0.0
 41
0.9980964527232967
 10
936.66744771817321
 20
-1411.4697302478869
 30
0.0
 41
1.0
 10
936.70448032510103
 20
-1411.4494902682941
 30
0.0
 41
1.0
 10
936.74151293202897
 20
-1411.429250288701
 30
0.0
 41
1.0
 10
936.9208399453006
 20
-1411.3312400380007
 30
0.0
 41
0.9984572810573049
 10
937.10992851165906
 20
-1411.2537177766544
 30
0.0
 41
1.0
 10
937.11357478105379
 20
-1411.2522228843168
 30
0.0
 41
1.0
 10
937.11722105044839
 20
-1411.2507279919794
 30
0.0
 41
1.0
 10
937.2990170780173
 20
-1411.1761955153083
 30
0.0
 41
0.9987838528034214
 10
937.48726973657722
 20
-1411.1199298751424
 30
0.0
 41
1.0
 10
937.49150768577533
 20
-1411.1186632214522
 30
0.0
 41
1.0
 10
937.49574563497356
 20
-1411.1173965677622
 30
0.0
 41
1.0
 10
937.67552239513566
 20
-1411.0636642349768
 30
0.0
 41
0.9990652816207184
 10
937.85926832685232
 20
-1411.0256605554346
 30
0.0
 41
1.0
 10
937.86445672788534
 20
-1411.0245874523278
 30
0.0
 41
1.0
 10
937.86964512891836
 20
-1411.0235143492209
 30
0.0
 41
1.0
 10
938.04301425857
 20
-1410.9876568758923
 30
0.0
 41
0.9992909934270073
 10
938.21859002502651
 20
-1410.964946443426
 30
0.0
 41
1.0
 10
938.39416579148644
 20
-1410.9422360109595
 30
0.0
 41
0.9994553539448933
 10
938.57085722458089
 20
-1410.931156706753
 30
0.0
 41
1.0
 10
938.60629163237491
 20
-1410.9289348187053
 30
0.0
 41
1.0
 10
938.64172604016892
 20
-1410.9267129306577
 30
0.0
 41
1.0
 10
938.80795180673852
 20
-1410.9162898682459
 30
0.0
 41
0.9990928098292862
 10
938.97446159864126
 20
-1410.9200495094806
 30
0.0
 41
1.0
 10
939.01302343391842
 20
-1410.9209202010138
 30
0.0
 41
1.0
 10
939.05158526919558
 20
-1410.9217908925468
 30
0.0
 41
1.0
 10
939.14097139054923
 20
-1410.9238091507152
 30
0.0
 41
0.9998382089206255
 10
939.23022707333007
 20
-1410.929041277243
 30
0.0
 41
1.0
 10
939.23065697954746
 20
-1410.9290664781452
 30
0.0
 41
1.0
 10
939.23108688576485
 20
-1410.9290916790471
 30
0.0
 41
1.0
 10
939.31948275611376
 20
-1410.9342734037709
 30
0.0
 41
0.9997558016759129
 10
939.40756333331706
 20
-1410.9433559191375
 30
0.0
 41
1.0
 10
939.40803947175027
 20
-1410.9434050166205
 30
0.0
 41
1.0
 10
939.40851561018349
 20
-1410.9434541141034
 30
0.0
 41
1.0
 10
939.49564391052149
 20
-1410.9524384345048
 30
0.0
 41
0.9996565144181543
 10
939.58218176386004
 20
-1410.9659757411932
 30
0.0
 41
1.0
 10
939.58264768923777
 20
-1410.9660486269245
 30
0.0
 41
1.0
 10
939.58311361461563
 20
-1410.9661215126559
 30
0.0
 41
1.0
 10
939.66871961720244
 20
-1410.9795130478822
 30
0.0
 41
0.9995321806867289
 10
939.75334669752999
 20
-1410.9981135363114
 30
0.0
 41
1.0
 10
939.75373589210335
 20
-1410.9981990787776
 30
0.0
 41
1.0
 10
939.75412508667682
 20
-1410.9982846212438
 30
0.0
 41
1.0
 10
939.83797377785947
 20
-1411.0167140247411
 30
0.0
 41
0.9993819199219843
 10
939.92032031205417
 20
-1411.0409894080012
 30
0.0
 41
1.0
 10
939.92055874555103
 20
-1411.0410596971101
 30
0.0
 41
1.0
 10
939.92079717904801
 20
-1411.0411299862192
 30
0.0
 41
1.0
 10
940.0026668462491
 20
-1411.0652647912614
 30
0.0
 41
0.9992088568506166
 10
940.08235936523863
 20
-1411.0958300270563
 30
0.0
 41
1.0
 10
940.16204035611759
 20
-1411.1263896277896
 30
0.0
 41
0.9990226101773204
 10
940.23871102602482
 20
-1411.1638670594043
 30
0.0
 41
1.0
 10
940.31537016782249
 20
-1411.2013388559571
 30
0.0
 41
0.9988424273972142
 10
940.3880737950343
 20
-1411.2460036312098
 30
0.0
 41
1.0
 10
940.38834150341404
 20
-1411.2461680952824
 30
0.0
 41
1.0
 10
940.38860921179389
 20
-1411.2463325593549
 30
0.0
 41
1.0
 10
940.46184825576449
 20
-1411.2913262627521
 30
0.0
 41
0.9986928844491332
 10
940.53011112247418
 20
-1411.3435619970317
 30
0.0
 41
1.0
 10
940.53069241469711
 20
-1411.3440068102595
 30
0.0
 41
1.0
 10
940.53127370692005
 20
-1411.3444516234877
 30
0.0
 41
1.0
 10
940.60069915807583
 20
-1411.3975769842236
 30
0.0
 41
0.998600726227886
 10
940.66412532784204
 20
-1411.4577377539165
 30
0.0
 41
1.0
 10
940.66501974329935
 20
-1411.4585861217515
 30
0.0
 41
1.0
 10
940.66591415875655
 20
-1411.4594344895868
 30
0.0
 41
1.0
 10
940.73112915943796
 20
-1411.5212919949508
 30
0.0
 41
0.998558149138097
 10
940.78933677113992
 20
-1411.5897844852229
 30
0.0
 41
1.0
 10
940.79859522473544
 20
-1411.6006788429243
 30
0.0
 41
1.0
 10
940.80785367833096
 20
-1411.6115732006256
 30
0.0
 41
1.0
 10
940.8845781972243
 20
-1411.7018544063008
 30
0.0
 41
0.9970460233520015
 10
940.94657009838375
 20
-1411.8028214904828
 30
0.0
 41
1.0
 10
940.96103946346307
 20
-1411.8263879495635
 30
0.0
 41
1.0
 10
940.97550882854239
 20
-1411.8499544086444
 30
0.0
 41
1.0
 10
941.01524552855483
 20
-1411.9146741326763
 30
0.0
 41
0.9988468816636134
 10
941.04859189930653
 20
-1411.9829065851043
 30
0.0
 41
1.0
 10
941.0556279217974
 20
-1411.9973035062403
 30
0.0
 41
1.0
 10
941.06266394428826
 20
-1412.0117004273766
 30
0.0
 41
1.0
 10
941.08193827005732
 20
-1412.0511390375302
 30
0.0
 41
0.9998431189998286
 10
941.09980359755309
 20
-1412.0912355919727
 30
0.0
 41
1.0
 10
941.11766892502658
 20
-1412.1313321463649
 30
0.0
 41
0.9999989989949788
 10
941.13564764843068
 20
-1412.1713779839095
 30
0.0
 41
1.0
 10
941.14181996004459
 20
-1412.1851262007658
 30
0.0
 41
1.0
 10
941.1479922716585
 20
-1412.1988744176224
 30
0.0
 41
1.0
 10
941.17831561827052
 20
-1412.2664166888353
 30
0.0
 41
0.9998790356323382
 10
941.20652349840759
 20
-1412.3348694407705
 30
0.0
 41
1.0
 10
941.21335867969174
 20
-1412.3514565421974
 30
0.0
 41
1.0
 10
941.22019386097588
 20
-1412.3680436436243
 30
0.0
 41
1.0
 10
941.24375152335506
 20
-1412.4252115985068
 30
0.0
 41
0.9998227574560884
 10
941.26514027174517
 20
-1412.4832259067866
 30
0.0
 41
1.0
 10
941.28652902013505
 20
-1412.5412402150653
 30
0.0
 41
0.9996797971040835
 10
941.30495530509461
 20
-1412.6002623341849
 30
0.0
 41
1.0
 10
941.30885910781967
 20
-1412.6127667923524
 30
0.0
 41
1.0
 10
941.31276291054473
 20
-1412.62527125052
 30
0.0
 41
1.0
 10
941.33899680095521
 20
-1412.7093022859758
 30
0.0
 41
0.9979274938733375
 10
941.35422132443398
 20
-1412.7960066446346
 30
0.0
 41
1.0
 10
941.35644501169497
 20
-1412.8086706454546
 30
0.0
 41
1.0
 10
941.35866869895597
 20
-1412.8213346462746
 30
0.0
 41
1.0
 10
941.36959863865491
 20
-1412.8835811535687
 30
0.0
 41
0.9994985982137545
 10
941.37656680383179
 20
-1412.9463946547107
 30
0.0
 41
1.0
 10
941.38353496900879
 20
-1413.0092081558523
 30
0.0
 41
0.9996372611201689
 10
941.38711083477676
 20
-1413.0723057345385
 30
0.0
 41
1.0
 10
941.38727941226603
 20
-1413.0752803516189
 30
0.0
 41
1.0
 10
941.38744798975517
 20
-1413.0782549686994
 30
0.0
 41
1.0
 10
941.39136101050156
 20
-1413.1473017815454
 30
0.0
 41
0.9997730630736936
 10
941.39232932398966
 20
-1413.216452605584
 30
0.0
 41
1.0
 10
941.39238643040767
 20
-1413.2205307847237
 30
0.0
 41
1.0
 10
941.39244353682579
 20
-1413.2246089638634
 30
0.0
 41
1.0
 10
941.39352606315038
 20
-1413.3019161461707
 30
0.0
 41
0.9998772614069637
 10
941.39218597641866
 20
-1413.3792192927244
 30
0.0
 41
1.0
 10
941.39209671321976
 20
-1413.38436845657
 30
0.0
 41
1.0
 10
941.39200745002086
 20
-1413.3895176204155
 30
0.0
 41
1.0
 10
941.39048883689179
 20
-1413.4771190946449
 30
0.0
 41
0.9999415567327372
 10
941.38707652664607
 20
-1413.5646672563148
 30
0.0
 41
1.0
 10
941.38683520597056
 20
-1413.570858716057
 30
0.0
 41
1.0
 10
941.38659388529504
 20
-1413.5770501757995
 30
0.0
 41
1.0
 10
941.38269893369886
 20
-1413.6769812569441
 30
0.0
 41
0.9999716810432048
 10
941.37730035058132
 20
-1413.7768423951507
 30
0.0
 41
1.0
 10
941.37408755179217
 20
-1413.8362716448144
 30
0.0
 41
1.0
 10
941.37087475300314
 20
-1413.8957008944781
 30
0.0
 41
1.0
 10
941.36280084385021
 20
-1414.0450492957659
 30
0.0
 41
0.9999819129913303
 10
941.35293105223309
 20
-1414.194289773485
 30
0.0
 41
1.0
 10
941.34306126061654
 20
-1414.3435302511964
 30
0.0
 41
1.0
 10
941.34062194005264
 20
-1414.3807232970457
 30
0.0
 41
1.0
 10
941.36332017387281
 20
-1414.3419822997344
 30
0.0
 41
0.9999982128259581
 10
941.3861647325997
 20
-1414.3033274058246
 30
0.0
 41
1.0
 10
941.41307429250423
 20
-1414.2577941917361
 30
0.0
 41
1.0
 10
941.43998385240877
 20
-1414.2122609776477
 30
0.0
 41
1.0
 10
941.51664753093553
 20
-1414.0825396555765
 30
0.0
 41
0.9998609190058356
 10
941.59759484379913
 20
-1413.9554472736445
 30
0.0
 41
1.0
 10
941.62724316527374
 20
-1413.9088975406983
 30
0.0
 41
1.0
 10
941.65689148674846
 20
-1413.862347807752
 30
0.0
 41
1.0
 10
941.73916370699158
 20
-1413.7331752377472
 30
0.0
 41
0.9999067609734204
 10
941.82493271646103
 20
-1413.6062975482978
 30
0.0
 41
1.0
 10
941.82733741965762
 20
-1413.6027402822492
 30
0.0
 41
1.0
 10
941.82974212285421
 20
-1413.5991830162009
 30
0.0
 41
1.0
 10
941.91070172592151
 20
-1413.4794198588615
 30
0.0
 41
0.9998784952148683
 10
941.9953553356064
 20
-1413.362238642148
 30
0.0
 41
1.0
 10
942.0800089452888
 20
-1413.2450574254378
 30
0.0
 41
0.9998532968283793
 10
942.16862656611227
 20
-1413.1308445169664
 30
0.0
 41
1.0
 10
942.18858835510378
 20
-1413.1051171959457
 30
0.0
 41
1.0
 10
942.20855014409517
 20
-1413.079389874925
 30
0.0
 41
1.0
 10
942.3270341938528
 20
-1412.9266842639584
 30
0.0
 41
0.9991551975795439
 10
942.45765864347504
 20
-1412.7842247018764
 30
0.0
 41
1.0
 10
942.46116825945376
 20
-1412.7803971002531
 30
0.0
 41
1.0
 10
942.46467787543247
 20
-1412.7765694986299
 30
0.0
 41
1.0
 10
942.58828309309706
 20
-1412.6417651397942
 30
0.0
 41
0.9997418144180416
 10
942.71788523279906
 20
-1412.5127157291804
 30
0.0
 41
1.0
 10
942.84748737250254
 20
-1412.3836663185655
 30
0.0
 41
0.9989238204633721
 10
942.98848992075511
 20
-1412.2671813565253
 30
0.0
 41
1.0
 10
943.03373759889416
 20
-1412.229801364917
 30
0.0
 41
1.0
 10
943.07898527703321
 20
-1412.1924213733087
 30
0.0
 41
1.0
 10
943.21922533425243
 20
-1412.0765663200198
 30
0.0
 41
0.9990825084096898
 10
943.36886526685521
 20
-1411.9731373221875
 30
0.0
 41
1.0
 10
943.37891063091183
 20
-1411.9661941091083
 30
0.0
 41
1.0
 10
943.38895599496834
 20
-1411.9592508960291
 30
0.0
 41
1.0
 10
943.5185051994589
 20
-1411.8697083243549
 30
0.0
 41
0.9998164899826753
 10
943.65138940283543
 20
-1411.7851940828382
 30
0.0
 41
1.0
 10
943.66323496335997
 20
-1411.7776603163134
 30
0.0
 41
1.0
 10
943.6750805238845
 20
-1411.7701265497888
 30
0.0
 41
1.0
 10
943.78427360621163
 20
-1411.700679841322
 30
0.0
 41
0.9997473449131442
 10
943.89647756346108
 20
-1411.6362108835062
 30
0.0
 41
1.0
 10
944.00868152071371
 20
-1411.5717419256889
 30
0.0
 41
0.9999327861146403
 10
944.1223501314812
 20
-1411.5098919340051
 30
0.0
 41
1.0
 10
944.12290213403833
 20
-1411.5095915753279
 30
0.0
 41
1.0
 10
944.12345413659546
 20
-1411.5092912166508
 30
0.0
 41
1.0
 10
944.23822675248141
 20
-1411.4468405076107
 30
0.0
 41
0.9996956420484472
 10
944.35594007832265
 20
-1411.3901270406352
 30
0.0
 41
1.0
 10
944.38638048321445
 20
-1411.3754610639057
 30
0.0
 41
1.0
 10
944.41682088810626
 20
-1411.360795087176
 30
0.0
 41
1.0
 10
944.51979799484889
 20
-1411.3111814287333
 30
0.0
 41
0.9998070570176557
 10
944.62464438379072
 20
-1411.2656508418318
 30
0.0
 41
1.0
 10
944.72949077273347
 20
-1411.2201202549302
 30
0.0
 41
0.9997827436147677
 10
944.83614370934481
 20
-1411.1789990836178
 30
0.0
 41
1.0
 10
944.85536655897454
 20
-1411.171587509986
 30
0.0
 41
1.0
 10
944.87458940860438
 20
-1411.1641759363542
 30
0.0
 41
1.0
 10
945.01968804447824
 20
-1411.1082316177772
 30
0.0
 41
0.9988031841976544
 10
945.16955840708476
 20
-1411.0667315536091
 30
0.0
 41
1.0
 10
945.19447565544533
 20
-1411.059831807803
 30
0.0
 41
1.0
 10
945.2193929038059
 20
-1411.0529320619969
 30
0.0
 41
1.0
 10
945.38666292945413
 20
-1411.0066139195894
 30
0.0
 41
0.9984748040549305
 10
945.55801983810431
 20
-1410.9790196873244
 30
0.0
 41
1.0
 10
945.56275897435398
 20
-1410.9782565268108
 30
0.0
 41
1.0
 10
945.56749811060365
 20
-1410.9774933662973
 30
0.0
 41
1.0
 10
945.72937674675438
 20
-1410.9514254550595
 30
0.0
 41
0.9984436495480129
 10
945.89315149047798
 20
-1410.9435475012408
 30
0.0
 41
1.0
 10
945.91484869860892
 20
-1410.9425038140412
 30
0.0
 41
1.0
 10
945.93654590673987
 20
-1410.9414601268415
 30
0.0
 41
1.0
 10
946.05692623420214
 20
-1410.9356695474221
 30
0.0
 41
0.9987954789335144
 10
946.17729447911256
 20
-1410.9417060751643
 30
0.0
 41
1.0
 10
946.19725927160414
 20
-1410.9427073195029
 30
0.0
 41
1.0
 10
946.21722406409572
 20
-1410.9437085638413
 30
0.0
 41
1.0
 10
946.29766272401992
 20
-1410.9477426029064
 30
0.0
 41
0.9997941595877763
 10
946.37787150211682
 20
-1410.9550366688277
 30
0.0
 41
1.0
 10
946.45808028021463
 20
-1410.9623307347492
 30
0.0
 41
0.9998589466237591
 10
946.53799882707278
 20
-1410.9723145891996
 30
0.0
 41
1.0
 10
946.57040502887776
 20
-1410.9763629461186
 30
0.0
 41
1.0
 10
946.60281123068273
 20
-1410.9804113030373
 30
0.0
 41
1.0
 10
946.74754218115243
 20
-1410.9984918713255
 30
0.0
 41
0.9993495063249112
 10
946.89059342491635
 20
-1411.0269575810667
 30
0.0
 41
1.0
 10
946.92352712206957
 20
-1411.0335110442816
 30
0.0
 41
1.0
 10
946.95646081922268
 20
-1411.0400645074967
 30
0.0
 41
1.0
 10
947.06575464242746
 20
-1411.0618128416322
 30
0.0
 41
0.9996788715560688
 10
947.17380621438485
 20
-1411.0890706409955
 30
0.0
 41
1.0
 10
947.17586921692168
 20
-1411.0895910675679
 30
0.0
 41
1.0
 10
947.17793221945863
 20
-1411.0901114941403
 30
0.0
 41
1.0
 10
947.28185778633929
 20
-1411.1163284403578
 30
0.0
 41
0.9995480654492682
 10
947.38402002157068
 20
-1411.1487433969828
 30
0.0
 41
1.0
 10
947.38570966370003
 20
-1411.1492795018967
 30
0.0
 41
1.0
 10
947.38739930582938
 20
-1411.1498156068108
 30
0.0
 41
1.0
 10
947.48618225680093
 20
-1411.1811583536075
 30
0.0
 41
0.9993867959456637
 10
947.58252941524267
 20
-1411.2193377228971
 30
0.0
 41
1.0
 10
947.58377236432796
 20
-1411.2198302647935
 30
0.0
 41
1.0
 10
947.58501531341324
 20
-1411.2203228066899
 30
0.0
 41
1.0
 10
947.67887657368578
 20
-1411.2575170921871
 30
0.0
 41
0.9992050256521916
 10
947.76947624871855
 20
-1411.3020709914256
 30
0.0
 41
1.0
 10
947.77021093143139
 20
-1411.3024322838864
 30
0.0
 41
1.0
 10
947.77094561414413
 20
-1411.3027935763475
 30
0.0
 41
1.0
 10
947.86007592375142
 20
-1411.3466248906639
 30
0.0
 41
0.9990222350741673
 10
947.94498598514565
 20
-1411.3981581583625
 30
0.0
 41
1.0
 10
947.94516987042903
 20
-1411.3982697612678
 30
0.0
 41
1.0
 10
947.94535375571229
 20
-1411.398381364173
 30
0.0
 41
1.0
 10
948.02989604653953
 20
-1411.4496914260612
 30
0.0
 41
0.9988642743805404
 10
948.1091705811582
 20
-1411.5088156135862
 30
0.0
 41
1.0
 10
948.18844511577754
 20
-1411.5679398011118
 30
0.0
 41
0.998768123331087
 10
948.26146890005305
 20
-1411.6346304925119
 30
0.0
 41
1.0
 10
948.2617978280191
 20
-1411.6349308937263
 30
0.0
 41
1.0
 10
948.26212675598504
 20
-1411.6352312949407
 30
0.0
 41
1.0
 10
948.3358083961931
 20
-1411.70252278877
 30
0.0
 41
0.9987496570898773
 10
948.40240220152077
 20
-1411.7768356028573
 30
0.0
 41
1.0
 10
948.40317437128078
 20
-1411.7776972762149
 30
0.0
 41
1.0
 10
948.4039465410408
 20
-1411.7785589495722
 30
0.0
 41
1.0
 10
948.47208468588826
 20
-1411.854595110374
 30
0.0
 41
0.9988147669827171
 10
948.53250694011263
 20
-1411.9368961172154
 30
0.0
 41
1.0
 10
948.53362626619105
 20
-1411.9384207485687
 30
0.0
 41
1.0
 10
948.53474559226936
 20
-1411.9399453799222
 30
0.0
 41
1.0
 10
948.59740649864966
 20
-1412.0252956494696
 30
0.0
 41
0.9989452636216306
 10
948.65197341161229
 20
-1412.1160343386293
 30
0.0
 41
1.0
 10
948.65332213769739
 20
-1412.1182771196545
 30
0.0
 41
1.0
 10
948.65467086378248
 20
-1412.1205199006799
 30
0.0
 41
1.0
 10
948.71193522891519
 20
-1412.2157441518902
 30
0.0
 41
0.9991046436070855
 10
948.76094444223668
 20
-1412.3154685849152
 30
0.0
 41
1.0
 10
948.76240830382676
 20
-1412.3184472649878
 30
0.0
 41
1.0
 10
948.76387216541684
 20
-1412.3214259450606
 30
0.0
 41
1.0
 10
948.81580910191872
 20
-1412.4271077382311
 30
0.0
 41
0.9992763831100741
 10
948.85956223047378
 20
-1412.5364318001871
 30
0.0
 41
1.0
 10
948.86104150013705
 20
-1412.5401279877206
 30
0.0
 41
1.0
 10
948.86252076980031
 20
-1412.543824175254
 30
0.0
 41
1.0
 10
948.90923243768168
 20
-1412.6605406122762
 30
0.0
 41
0.9994163472883333
 10
948.94786546887201
 20
-1412.7801742007421
 30
0.0
 41
1.0
 10
948.94910362111864
 20
-1412.7840083445244
 30
0.0
 41
1.0
 10
948.95034177336538
 20
-1412.787842488307
 30
0.0
 41
1.0
 10
948.99022533438256
 20
-1412.9113485497851
 30
0.0
 41
0.9997268055891577
 10
949.02429339029459
 20
-1413.0365835817358
 30
0.0
 41
1.0
 10
949.02522357056398
 20
-1413.040002947844
 30
0.0
 41
1.0
 10
949.02615375083337
 20
-1413.0434223139521
 30
0.0
 41
1.0
 10
949.05836144620628
 20
-1413.1618186136852
 30
0.0
 41
0.9996701319000428
 10
949.08444706297701
 20
-1413.2817125669499
 30
0.0
 41
1.0
 10
949.11053267974762
 20
-1413.4016065202134
 30
0.0
 41
0.9995785451109124
 10
949.12961625708726
 20
-1413.522812281245
 30
0.0
 41
1.0
 10
949.13383603926104
 20
-1413.5496134360108
 30
0.0
 41
1.0
 10
949.13805582143493
 20
-1413.5764145907765
 30
0.0
 41
1.0
 10
949.16463079737321
 20
-1413.7452005644791
 30
0.0
 41
0.9979925101217299
 10
949.16965638329964
 20
-1413.9159918925698
 30
0.0
 41
1.0
 10
949.17048119572428
 20
-1413.9440226160468
 30
0.0
 41
1.0
 10
949.1713060081488
 20
-1413.9720533395239
 30
0.0
 41
1.0
 10
949.1746819692263
 20
-1414.0867832206548
 30
0.0
 41
0.9995314902262583
 10
949.17103177708748
 20
-1414.2015047044133
 30
0.0
 41
1.0
 10
949.167381584949
 20
-1414.3162261881662
 30
0.0
 41
0.9996245486944108
 10
949.15745248981796
 20
-1414.430575459292
 30
0.0
 41
1.0
 10
949.15728944182388
 20
-1414.432453215426
 30
0.0
 41
1.0
 10
949.15712639382969
 20
-1414.4343309715598
 30
0.0
 41
1.0
 10
949.14687120271003
 20
-1414.5524357549566
 30
0.0
 41
0.9997286095001249
 10
949.13112587913838
 20
-1414.6699346638525
 30
0.0
 41
1.0
 10
949.13073238648826
 20
-1414.6728710885527
 30
0.0
 41
1.0
 10
949.13033889383814
 20
-1414.6758075132527
 30
0.0
 41
1.0
 10
949.11380658496569
 20
-1414.7991792715541
 30
0.0
 41
0.9998265533969193
 10
949.09269112623247
 20
-1414.9218497463448
 30
0.0
 41
1.0
 10
949.09201458409575
 20
-1414.9257801248498
 30
0.0
 41
1.0
 10
949.09133804195903
 20
-1414.9297105033547
 30
0.0
 41
1.0
 10
949.06886949895249
 20
-1415.0602417351561
 30
0.0
 41
0.9999022530855084
 10
949.04276003434177
 20
-1415.1900937037985
 30
0.0
 41
1.0
 10
949.04178139317662
 20
-1415.1949608461848
 30
0.0
 41
1.0
 10
949.04080275201147
 20
-1415.1998279885711
 30
0.0
 41
1.0
 10
949.01273600507182
 20
-1415.3394142419802
 30
0.0
 41
0.9999524761932377
 10
948.981953036238
 20
-1415.4784267351395
 30
0.0
 41
1.0
 10
948.98067692906147
 20
-1415.4841894944466
 30
0.0
 41
1.0
 10
948.97940082188506
 20
-1415.4899522537535
 30
0.0
 41
1.0
 10
948.94606563869877
 20
-1415.6404902655254
 30
0.0
 41
0.999981358871471
 10
948.91089463790195
 20
-1415.7906099781858
 30
0.0
 41
1.0
 10
948.90934071244624
 20
-1415.7972425686046
 30
0.0
 41
1.0
 10
948.90778678699053
 20
-1415.8038751590234
 30
0.0
 41
1.0
 10
948.86950793528604
 20
-1415.9672600525053
 30
0.0
 41
0.9999955237617735
 10
948.8302520573003
 20
-1416.130412956134
 30
0.0
 41
1.0
 10
948.81797042166636
 20
-1416.1814571466552
 30
0.0
 41
1.0
 10
948.80568878603231
 20
-1416.2325013371767
 30
0.0
 41
1.0
 10
948.74186963679119
 20
-1416.4977426217952
 30
0.0
 41
0.999999360434056
 10
948.67745068960505
 20
-1416.7628388725548
 30
0.0
 41
1.0
 10
948.67273185406304
 20
-1416.7822577805744
 30
0.0
 41
1.0
 10
948.66801301852104
 20
-1416.8016766885939
 30
0.0
 41
1.0
 10
948.5941564002602
 20
-1417.105610755355
 30
0.0
 41
0.9999659914725351
 10
948.51529680437477
 20
-1417.4082853019147
 30
0.0
 41
1.0
 10
948.51034411544447
 20
-1417.4272944390959
 30
0.0
 41
1.0
 10
948.50539142651405
 20
-1417.4463035762772
 30
0.0
 41
1.0
 10
948.41662645277074
 20
-1417.7869963971889
 30
0.0
 41
0.9999441976023128
 10
948.32068341980573
 20
-1418.1257378224932
 30
0.0
 41
1.0
 10
948.30398290137987
 20
-1418.184701535022
 30
0.0
 41
1.0
 10
948.28728238295412
 20
-1418.2436652475508
 30
0.0
 41
1.0
 10
948.15793831313374
 20
-1418.700334097924
 30
0.0
 41
0.9999625120733735
 10
948.02070554580848
 20
-1419.1546946319261
 30
0.0
 41
1.0
 10
947.98491560273294
 20
-1419.2731906585286
 30
0.0
 41
1.0
 10
947.9491256596574
 20
-1419.3916866851309
 30
0.0
 41
1.0
 10
947.87460545561089
 20
-1419.6384137632513
 30
0.0
 41
0.9999793386316186
 10
947.79691943247144
 20
-1419.8841624024933
 30
0.0
 41
1.0
 10
947.71923340933392
 20
-1420.1299110417294
 30
0.0
 41
1.0
 10
947.70845385046323
 20
-1420.1639289461041
 30
0.0
 41
1.0
 10
945.85808079719413
 20
-1426.0510008685715
 30
0.0
 41
1.0
 10
944.00770774392493
 20
-1431.9380727910391
 30
0.0
 41
1.0
 10
943.04645105390136
 20
-1431.9380727910391
 30
0.0
 41
1.0
 10
942.0851943638778
 20
-1431.9380727910391
 30
0.0
 41
1.0
 10
943.70413914255619
 20
-1426.7900442892496
 30
0.0
 41
1.0
 10
945.32308392123468
 20
-1421.6420157874602
 30
0.0
 41
1.0
 10
945.36824974440083
 20
-1421.4979845652163
 30
0.0
 41
1.0
 10
945.41341556756709
 20
-1421.3539533429723
 30
0.0
 41
1.0
 10
945.58371998494226
 20
-1420.8108623137698
 30
0.0
 41
0.9999911657902887
 10
945.7494527966262
 20
-1420.2663587823943
 30
0.0
 41
1.0
 10
945.77914874013049
 20
-1420.1687948423312
 30
0.0
 41
1.0
 10
945.80884468363479
 20
-1420.0712309022681
 30
0.0
 41
1.0
 10
945.91518560831003
 20
-1419.721855251019
 30
0.0
 41
0.9999952428146324
 10
946.01936919763148
 20
-1419.3718302266811
 30
0.0
 41
1.0
 10
946.02442866795434
 20
-1419.3548319524384
 30
0.0
 41
1.0
 10
946.0294881382772
 20
-1419.3378336781955
 30
0.0
 41
1.0
 10
946.12355278694895
 20
-1419.0218052023556
 30
0.0
 41
0.9999931687486382
 10
946.21527862483003
 20
-1418.705089989061
 30
0.0
 41
1.0
 10
946.22021388929215
 20
-1418.6880492797809
 30
0.0
 41
1.0
 10
946.22514915375427
 20
-1418.6710085705008
 30
0.0
 41
1.0
 10
946.30700446270293
 20
-1418.388374775793
 30
0.0
 41
0.9999893840806022
 10
946.38625168916053
 20
-1418.1049986465439
 30
0.0
 41
1.0
 10
946.46549891561199
 20
-1417.8216225173169
 30
0.0
 41
0.9999833980073897
 10
946.54147515635123
 20
-1417.5373519342984
 30
0.0
 41
1.0
 10
946.55047909307848
 20
-1417.5036630558013
 30
0.0
 41
1.0
 10
946.55948302980573
 20
-1417.4699741773043
 30
0.0
 41
1.0
 10
946.62844757867242
 20
-1417.2119383450063
 30
0.0
 41
0.9999233658069567
 10
946.69100254989087
 20
-1416.9522741862909
 30
0.0
 41
1.0
 10
946.75355752111113
 20
-1416.6926100275684
 30
0.0
 41
1.0
 10
946.79304093996871
 20
-1416.5288033631423
 30
0.0
 41
1.0
 10
946.79801954394338
 20
-1416.5081484012831
 30
0.0
 41
1.0
 10
946.80299814791795
 20
-1416.4874934394238
 30
0.0
 41
1.0
 10
946.83252435882434
 20
-1416.3649966987246
 30
0.0
 41
0.9999868670846409
 10
946.86079344282246
 20
-1416.2422037530707
 30
0.0
 41
1.0
 10
946.86469092997822
 20
-1416.2252741656625
 30
0.0
 41
1.0
 10
946.86858841713388
 20
-1416.2083445782544
 30
0.0
 41
1.0
 10
946.88906252681591
 20
-1416.1194108074371
 30
0.0
 41
0.999977817334143
 10
946.90835012493403
 20
-1416.0302121901948
 30
0.0
 41
1.0
 10
946.92763772305
 20
-1415.9410135729615
 30
0.0
 41
0.9999602692858179
 10
946.94533208168002
 20
-1415.8514852845394
 30
0.0
 41
1.0
 10
946.94853591375772
 20
-1415.8352748296529
 30
0.0
 41
1.0
 10
946.95173974583554
 20
-1415.8190643747666
 30
0.0
 41
1.0
 10
946.97584176862085
 20
-1415.697115176572
 30
0.0
 41
0.9995617985321057
 10
946.99268511583989
 20
-1415.5739534288657
 30
0.0
 41
1.0
 10
946.99514960574652
 20
-1415.5559326114972
 30
0.0
 41
1.0
 10
946.99761409565315
 20
-1415.5379117941288
 30
0.0
 41
1.0
 10
947.01789735670116
 20
-1415.3895967444307
 30
0.0
 41
0.9991121410639622
 10
947.02562271028933
 20
-1415.2401006456244
 30
0.0
 41
1.0
 10
947.0265415003139
 20
-1415.2223208090484
 30
0.0
 41
1.0
 10
947.02746029033847
 20
-1415.2045409724724
 30
0.0
 41
1.0
 10
947.03334806387761
 20
-1415.0906045468182
 30
0.0
 41
0.9989792494905623
 10
947.02892897176025
 20
-1414.9766017109196
 30
0.0
 41
1.0
 10
947.02828099989165
 20
-1414.9598854649921
 30
0.0
 41
1.0
 10
947.02763302802293
 20
-1414.9431692190647
 30
0.0
 41
1.0
 10
947.02450987964312
 20
-1414.8625988750234
 30
0.0
 41
0.9997820295393439
 10
947.01802588226724
 20
-1414.7822291532773
 30
0.0
 41
1.0
 10
947.01154188489124
 20
-1414.7018594315291
 30
0.0
 41
0.9998335105973554
 10
947.00212968937956
 20
-1414.621779815081
 30
0.0
 41
1.0
 10
947.00053476470339
 20
-1414.608210084599
 30
0.0
 41
1.0
 10
946.99893984002711
 20
-1414.594640354117
 30
0.0
 41
1.0
 10
946.98633779516331
 20
-1414.4874212767049
 30
0.0
 41
0.9996876457879355
 10
946.96839388236492
 20
-1414.3809658489884
 30
0.0
 41
1.0
 10
946.96616221921943
 20
-1414.3677261137452
 30
0.0
 41
1.0
 10
946.96393055607393
 20
-1414.3544863785021
 30
0.0
 41
1.0
 10
946.95013473465247
 20
-1414.2726402345413
 30
0.0
 41
0.9995547496494371
 10
946.93148141276015
 20
-1414.1917627373518
 30
0.0
 41
1.0
 10
946.93110745588888
 20
-1414.1901413266467
 30
0.0
 41
1.0
 10
946.93073349901772
 20
-1414.1885199159415
 30
0.0
 41
1.0
 10
946.91282809086715
 20
-1414.1108852401594
 30
0.0
 41
0.9994899427175132
 10
946.89000318218814
 20
-1414.0345519573261
 30
0.0
 41
1.0
 10
946.88954465544703
 20
-1414.0330185075363
 30
0.0
 41
1.0
 10
946.88908612870603
 20
-1414.0314850577467
 30
0.0
 41
1.0
 10
946.86717827350822
 20
-1413.9582186744894
 30
0.0
 41
0.9993784877590118
 10
946.84016263840226
 20
-1413.8866779693328
 30
0.0
 41
1.0
 10
946.83963094742535
 20
-1413.8852699866125
 30
0.0
 41
1.0
 10
946.83909925644855
 20
-1413.8838620038921
 30
0.0
 41
1.0
 10
946.81314700329597
 20
-1413.8151372641748
 30
0.0
 41
0.9992430832255062
 10
946.78193046813635
 20
-1413.7486381121055
 30
0.0
 41
1.0
 10
946.78134835207925
 20
-1413.7473980569871
 30
0.0
 41
1.0
 10
946.78076623602226
 20
-1413.7461580018689
 30
0.0
 41
1.0
 10
946.75071393297605
 20
-1413.6821389600352
 30
0.0
 41
0.9990789632798334
 10
946.71528330620026
 20
-1413.6209323482876
 30
0.0
 41
1.0
 10
946.71468760001881
 20
-1413.6199032624295
 30
0.0
 41
1.0
 10
946.71409189383735
 20
-1413.6188741765711
 30
0.0
 41
1.0
 10
946.67985267942413
 20
-1413.5597257365389
 30
0.0
 41
0.99888748011204
 10
946.64019340339155
 20
-1413.5040660241202
 30
0.0
 41
1.0
 10
946.639637877327
 20
-1413.503286372445
 30
0.0
 41
1.0
 10
946.63908235126246
 20
-1413.50250672077
 30
0.0
 41
1.0
 10
946.60053412735897
 20
-1413.4484063117018
 30
0.0
 41
0.9986762060692656
 10
946.55663165608325
 20
-1413.398552597263
 30
0.0
 41
1.0
 10
946.55618769575096
 20
-1413.3980484554463
 30
0.0
 41
1.0
 10
946.55574373541867
 20
-1413.3975443136296
 30
0.0
 41
1.0
 10
946.51272918480697
 20
-1413.3486988828238
 30
0.0
 41
0.9984621642488587
 10
946.46457162802926
 20
-1413.3049155823528
 30
0.0
 41
1.0
 10
946.46432499351215
 20
-1413.3046913501889
 30
0.0
 41
1.0
 10
946.46407835899504
 20
-1413.3044671180248
 30
0.0
 41
1.0
 10
946.41641407125087
 20
-1413.2611322818811
 30
0.0
 41
0.9982724693850237
 10
946.36399543941002
 20
-1413.2236879313641
 30
0.0
 41
1.0
 10
946.31157680756883
 20
-1413.1862435808464
 30
0.0
 41
0.998139918015724
 10
946.2549907441753
 20
-1413.155457061403
 30
0.0
 41
1.0
 10
946.25494508209681
 20
-1413.1554322182458
 30
0.0
 41
1.0
 10
946.25489942001832
 20
-1413.1554073750885
 30
0.0
 41
1.0
 10
946.19822203246781
 20
-1413.1245711693305
 30
0.0
 41
0.9980927086836061
 10
946.13817668140086
 20
-1413.100954360478
 30
0.0
 41
1.0
 10
946.13773651168958
 20
-1413.1007812346031
 30
0.0
 41
1.0
 10
946.1372963419783
 20
-1413.1006081087282
 30
0.0
 41
1.0
 10
946.07637065148856
 20
-1413.0766450481258
 30
0.0
 41
0.9981411356561892
 10
946.0129821300892
 20
-1413.0602724066202
 30
0.0
 41
1.0
 10
946.01210001338768
 20
-1413.0600445644147
 30
0.0
 41
1.0
 10
946.01121789668628
 20
-1413.0598167222092
 30
0.0
 41
1.0
 10
945.94606514188467
 20
-1413.0429883962929
 30
0.0
 41
0.9983031812935307
 10
945.87939771289041
 20
-1413.0338490351166
 30
0.0
 41
1.0
 10
945.87052668748652
 20
-1413.0326329164454
 30
0.0
 41
1.0
 10
945.86165566208274
 20
-1413.031416797774
 30
0.0
 41
1.0
 10
945.80730601957794
 20
-1413.0239660677828
 30
0.0
 41
0.9983887708264347
 10
945.7524621702845
 20
-1413.0227213941494
 30
0.0
 41
1.0
 10
945.74439876507051
 20
-1413.0225383962747
 30
0.0
 41
1.0
 10
945.73633535985653
 20
-1413.0223553983999
 30
0.0
 41
1.0
 10
945.69761832099516
 20
-1413.0214767205161
 30
0.0
 41
0.9998869563080483
 10
945.65889236778901
 20
-1413.0217625898758
 30
0.0
 41
1.0
 10
945.62016641456376
 20
-1413.0220484592357
 30
0.0
 41
0.9999972320192316
 10
945.58144223533066
 20
-1413.0225165587651
 30
0.0
 41
1.0
 10
945.56208921877305
 20
-1413.0227504988543
 30
0.0
 41
1.0
 10
945.54273620221556
 20
-1413.0229844389432
 30
0.0
 41
1.0
 10
945.4653059898427
 20
-1413.0239204186512
 30
0.0
 41
0.9997304945086832
 10
945.38800268360274
 20
-1413.0284495124376
 30
0.0
 41
1.0
 10
945.37895304190079
 20
-1413.0289797184273
 30
0.0
 41
1.0
 10
945.36990340019872
 20
-1413.0295099244172
 30
0.0
 41
1.0
 10
945.2745008105486
 20
-1413.0350994301832
 30
0.0
 41
0.9997888306414693
 10
945.1794084747022
 20
-1413.0446043946729
 30
0.0
 41
1.0
 10
945.17068741313335
 20
-1413.0454761093047
 30
0.0
 41
1.0
 10
945.1619663515645
 20
-1413.0463478239362
 30
0.0
 41
1.0
 10
945.04943189257597
 20
-1413.0575962176897
 30
0.0
 41
0.9984170238190909
 10
944.93887274522467
 20
-1413.0814122996255
 30
0.0
 41
1.0
 10
944.90249161423867
 20
-1413.0892493354315
 30
0.0
 41
1.0
 10
944.86611048325256
 20
-1413.0970863712375
 30
0.0
 41
1.0
 10
944.75091941483095
 20
-1413.1219002377472
 30
0.0
 41
0.9976592854199593
 10
944.64019124842571
 20
-1413.1621989148944
 30
0.0
 41
1.0
 10
944.52946308201695
 20
-1413.2024975920428
 30
0.0
 41
0.9993255074352067
 10
944.42199128322397
 20
-1413.2508144905366
 30
0.0
 41
1.0
 10
944.41736610430371
 20
-1413.2528938667351
 30
0.0
 41
1.0
 10
944.41274092538333
 20
-1413.2549732429334
 30
0.0
 41
1.0
 10
944.29601876874574
 20
-1413.3074488938255
 30
0.0
 41
0.9976475078275363
 10
944.18757142443496
 20
-1413.3753968834842
 30
0.0
 41
1.0
 10
944.16922903029911
 20
-1413.3868893622994
 30
0.0
 41
1.0
 10
944.15088663616325
 20
-1413.3983818411145
 30
0.0
 41
1.0
 10
944.06668444461241
 20
-1413.4511389618822
 30
0.0
 41
0.999513133640654
 10
943.98593672965637
 20
-1413.5090451738345
 30
0.0
 41
1.0
 10
943.90518901469864
 20
-1413.5669513857879
 30
0.0
 41
0.9995810107606002
 10
943.82792736696922
 20
-1413.6294330682545
 30
0.0
 41
1.0
 10
943.82495733575956
 20
-1413.6318349397186
 30
0.0
 41
1.0
 10
943.82198730455002
 20
-1413.6342368111827
 30
0.0
 41
1.0
 10
943.73878559439754
 20
-1413.7015222365806
 30
0.0
 41
0.9996617837954798
 10
943.65919490725662
 20
-1413.7730426921457
 30
0.0
 41
1.0
 10
943.6470641563842
 20
-1413.7839434251323
 30
0.0
 41
1.0
 10
943.6349334055119
 20
-1413.7948441581188
 30
0.0
 41
1.0
 10
943.56665787811414
 20
-1413.8561967735923
 30
0.0
 41
0.9997267750053323
 10
943.50132436983063
 20
-1413.9206733101173
 30
0.0
 41
1.0
 10
943.43599086154438
 20
-1413.9851498466451
 30
0.0
 41
0.9999667288958962
 10
943.37171791839478
 20
-1414.0506836535426
 30
0.0
 41
1.0
 10
943.3028904706224
 20
-1414.1208613122981
 30
0.0
 41
1.0
 10
943.23406302285002
 20
-1414.1910389710538
 30
0.0
 41
1.0
 10
943.03213518415271
 20
-1414.3969280954648
 30
0.0
 41
0.9988205335174762
 10
942.8511295671716
 20
-1414.6214323275278
 30
0.0
 41
1.0
 10
942.82048960226803
 20
-1414.6594355779564
 30
0.0
 41
1.0
 10
942.78984963736434
 20
-1414.697438828385
 30
0.0
 41
1.0
 10
942.54756409057541
 20
-1414.9979495613054
 30
0.0
 41
0.999707782675488
 10
942.3200861394705
 20
-1415.3098193555213
 30
0.0
 41
1.0
 10
942.31836272433986
 20
-1415.3121821389011
 30
0.0
 41
1.0
 10
942.31663930920922
 20
-1415.3145449222809
 30
0.0
 41
1.0
 10
942.08571452784383
 20
-1415.6311402832553
 30
0.0
 41
0.998914756707896
 10
941.88525102495953
 20
-1415.9678497444413
 30
0.0
 41
1.0
 10
941.86050987965382
 20
-1416.0094063249917
 30
0.0
 41
1.0
 10
941.83576873434822
 20
-1416.0509629055418
 30
0.0
 41
1.0
 10
941.68055743570937
 20
-1416.311664289997
 30
0.0
 41
0.999747659818171
 10
941.53721244819872
 20
-1416.5790740385812
 30
0.0
 41
1.0
 10
941.39386746068737
 20
-1416.8464837871668
 30
0.0
 41
0.9996258967109173
 10
941.26535920875449
 20
-1417.1213317237941
 30
0.0
 41
1.0
 10
941.25215929930664
 20
-1417.1495631238854
 30
0.0
 41
1.0
 10
941.23895938985891
 20
-1417.1777945239769
 30
0.0
 41
1.0
 10
941.09875066886013
 20
-1417.4776669219275
 30
0.0
 41
0.9998735413944359
 10
940.96814932213761
 20
-1417.7818465214
 30
0.0
 41
1.0
 10
940.96470649407456
 20
-1417.7898651068706
 30
0.0
 41
1.0
 10
940.96126366601152
 20
-1417.7978836923412
 30
0.0
 41
1.0
 10
940.83754797541519
 20
-1418.0860261208727
 30
0.0
 41
0.9999377418858177
 10
940.72029317324245
 20
-1418.3768575885429
 30
0.0
 41
1.0
 10
940.60303837106835
 20
-1418.6676890562162
 30
0.0
 41
0.9999508299509102
 10
940.49157442768944
 20
-1418.9607887330415
 30
0.0
 41
1.0
 10
940.4884936590272
 20
-1418.9688897590045
 30
0.0
 41
1.0
 10
940.48541289036507
 20
-1418.9769907849677
 30
0.0
 41
1.0
 10
940.36778740966361
 20
-1419.2862925137144
 30
0.0
 41
0.9999609228430062
 10
940.2556488067894
 20
-1419.5976255297305
 30
0.0
 41
1.0
 10
940.25269279643942
 20
-1419.6058323701409
 30
0.0
 41
1.0
 10
940.24973678608944
 20
-1419.6140392105513
 30
0.0
 41
1.0
 10
940.13168616252187
 20
-1419.9417859073706
 30
0.0
 41
0.9999674607404708
 10
940.0189386364533
 20
-1420.2713945273654
 30
0.0
 41
1.0
 10
939.96754024588893
 20
-1420.4216537230627
 30
0.0
 41
1.0
 10
939.91614185532455
 20
-1420.5719129187603
 30
0.0
 41
1.0
 10
939.80013124856737
 20
-1420.9110609012614
 30
0.0
 41
0.9999287532307984
 10
939.69224984459447
 20
-1421.2528816402437
 30
0.0
 41
1.0
 10
939.64577258849692
 20
-1421.4001441844825
 30
0.0
 41
1.0
 10
939.59929533239938
 20
-1421.5474067287216
 30
0.0
 41
1.0
 10
939.58436844066136
 20
-1421.5947023791
 30
0.0
 41
0.9999998222999179
 10
939.56949793189324
 20
-1421.6420157874602
 30
0.0
 41
1.0
 10
937.94884179509779
 20
-1426.7900442892496
 30
0.0
 41
1.0
 10
936.32818565830235
 20
-1431.9380727910391
 30
0.0
 41
1.0
 10
935.42287721441141
 20
-1431.9380727910391
 30
0.0
 41
1.0
 10
934.51756877052048
 20
-1431.9380727910391
 30
0.0
 41
1.0
 10
936.36965318190653
 20
-1426.0510008685715
 30
0.0
 41
1.0
 10
938.22173759329257
 20
-1420.1639289461041
 30
0.0
 41
1.0
 10
938.23185935159529
 20
-1420.1318857326544
 30
0.0
 41
1.0
 10
938.30446702044503
 20
-1419.9015861908285
 30
0.0
 41
1.0
 10
938.3770746892892
 20
-1419.6712866490207
 30
0.0
 41
0.9999825681968035
 10
938.4469577284957
 20
-1419.4401457539725
 30
0.0
 41
1.0
 10
938.49524879065734
 20
-1419.280421170474
 30
0.0
 41
1.0
 10
938.54353985281887
 20
-1419.1206965869756
 30
0.0
 41
1.0
 10
938.64069220613919
 20
-1418.7993613651888
 30
0.0
 41
0.9999672528959227
 10
938.73263101176713
 20
-1418.4764958195879
 30
0.0
 41
1.0
 10
938.73541989543264
 20
-1418.4667019742128
 30
0.0
 41
1.0
 10
938.73820877909804
 20
-1418.456908128838
 30
0.0
 41
1.0
 10
938.82456981739051
 20
-1418.1536302740014
 30
0.0
 41
0.9999899749169957
 10
938.90821142692516
 20
-1417.8495911855489
 30
0.0
 41
1.0
 10
938.91831734594382
 20
-1417.8128559478664
 30
0.0
 41
1.0
 10
938.92842326496248
 20
-1417.7761207101839
 30
0.0
 41
1.0
 10
938.99185303646027
 20
-1417.5455520970945
 30
0.0
 41
0.9999214200503327
 10
939.04948246483764
 20
-1417.3134657548871
 30
0.0
 41
1.0
 10
939.06224831702025
 20
-1417.2620548694827
 30
0.0
 41
1.0
 10
939.07501416920286
 20
-1417.2106439840779
 30
0.0
 41
1.0
 10
939.10711189321478
 20
-1417.08137941268
 30
0.0
 41
0.9999828681660428
 10
939.13769414521073
 20
-1416.9517479382105
 30
0.0
 41
1.0
 10
939.16827639720645
 20
-1416.8221164637421
 30
0.0
 41
0.9999389844476053
 10
939.19598738599586
 20
-1416.6918410078408
 30
0.0
 41
1.0
 10
939.20312512971577
 20
-1416.6582849040046
 30
0.0
 41
1.0
 10
939.21026287343579
 20
-1416.6247288001682
 30
0.0
 41
1.0
 10
939.25224934966627
 20
-1416.4273411365891
 30
0.0
 41
0.9998933699441296
 10
939.28845361406786
 20
-1416.2288115288338
 30
0.0
 41
1.0
 10
939.28982643928407
 20
-1416.2212835081377
 30
0.0
 41
1.0
 10
939.29119926450039
 20
-1416.2137554874414
 30
0.0
 41
1.0
 10
939.33014917933531
 20
-1416.0001698382898
 30
0.0
 41
0.999685030519332
 10
939.3583328555934
 20
-1415.7848988328578
 30
0.0
 41
1.0
 10
939.36032788896296
 20
-1415.7696604787334
 30
0.0
 41
1.0
 10
939.36232292233262
 20
-1415.7544221246092
 30
0.0
 41
1.0
 10
939.38973078479171
 20
-1415.5450768974542
 30
0.0
 41
0.999469793670703
 10
939.40345534401126
 20
-1415.3343917021239
 30
0.0
 41
1.0
 10
939.40393241326115
 20
-1415.3270682299103
 30
0.0
 41
1.0
 10
939.40440948251091
 20
-1415.319744757697
 30
0.0
 41
1.0
 10
939.41717990323093
 20
-1415.1237065067924
 30
0.0
 41
0.999180489313658
 10
939.41405158695807
 20
-1414.9272776568196
 30
0.0
 41
1.0
 10
939.41396770813594
 20
-1414.9220108554073
 30
0.0
 41
1.0
 10
939.41388382931382
 20
-1414.9167440539948
 30
0.0
 41
1.0
 10
939.41092327068532
 20
-1414.7308488068463
 30
0.0
 41
0.99884483293216
 10
939.39013172506156
 20
-1414.5460962170127
 30
0.0
 41
1.0
 10
939.38853765135866
 20
-1414.5319313612424
 30
0.0
 41
1.0
 10
939.38694357765576
 20
-1414.5177665054721
 30
0.0
 41
1.0
 10
939.36934017943793
 20
-1414.3613436271805
 30
0.0
 41
0.998550320945888
 10
939.33502390713829
 20
-1414.2077194430901
 30
0.0
 41
1.0
 10
939.32743791506687
 20
-1414.1737591156889
 30
0.0
 41
1.0
 10
939.31985192299544
 20
-1414.1397987882879
 30
0.0
 41
1.0
 10
939.30070763483832
 20
-1414.054095259
 30
0.0
 41
0.9991036781370583
 10
939.27438277318743
 20
-1413.9703181716759
 30
0.0
 41
1.0
 10
939.27040054773079
 20
-1413.9576450091633
 30
0.0
 41
1.0
 10
939.26641832227426
 20
-1413.9449718466508
 30
0.0
 41
1.0
 10
939.2480579115346
 20
-1413.8865410843453
 30
0.0
 41
0.9998874504368119
 10
939.22795270385791
 20
-1413.8286874821276
 30
0.0
 41
1.0
 10
939.20784749617962
 20
-1413.7708338799046
 30
0.0
 41
0.999404163754328
 10
939.18379888324534
 20
-1413.7145051760151
 30
0.0
 41
1.0
 10
939.17960209902117
 20
-1413.7046751115329
 30
0.0
 41
1.0
 10
939.17540531479699
 20
-1413.6948450470506
 30
0.0
 41
1.0
 10
939.14752648380284
 20
-1413.6295448810845
 30
0.0
 41
0.9991846840702332
 10
939.11447012710948
 20
-1413.5667068498033
 30
0.0
 41
1.0
 10
939.11333352071415
 20
-1413.5645462333482
 30
0.0
 41
1.0
 10
939.11219691431893
 20
-1413.5623856168929
 30
0.0
 41
1.0
 10
939.08141377041625
 20
-1413.5038688185225
 30
0.0
 41
0.9989253167921778
 10
939.04534434636139
 20
-1413.4484538901329
 30
0.0
 41
1.0
 10
939.04429022168688
 20
-1413.4468343953704
 30
0.0
 41
1.0
 10
939.04323609701248
 20
-1413.4452149006077
 30
0.0
 41
1.0
 10
939.00927492230676
 20
-1413.3930389617433
 30
0.0
 41
0.9986467172836753
 10
938.97007776966916
 20
-1413.3446729281131
 30
0.0
 41
1.0
 10
938.96920364096832
 20
-1413.3435943258346
 30
0.0
 41
1.0
 10
938.96832951226747
 20
-1413.3425157235563
 30
0.0
 41
1.0
 10
938.93088061703133
 20
-1413.2963068944832
 30
0.0
 41
0.9984001104269022
 10
938.88845388651453
 20
-1413.2546217871145
 30
0.0
 41
1.0
 10
938.88786674840526
 20
-1413.2540449122334
 30
0.0
 41
1.0
 10
938.88727961029588
 20
-1413.2534680373521
 30
0.0
 41
1.0
 10
938.84602715599715
 20
-1413.2129366797456
 30
0.0
 41
0.998244215908228
 10
938.80027105466183
 20
-1413.1775681184856
 30
0.0
 41
1.0
 10
938.80005625920057
 20
-1413.1774020858429
 30
0.0
 41
1.0
 10
938.79984146373931
 20
-1413.1772360532
 30
0.0
 41
1.0
 10
938.75451495332675
 20
-1413.1421995572259
 30
0.0
 41
0.9982450060836581
 10
938.7053639742544
 20
-1413.112767774192
 30
0.0
 41
1.0
 10
938.65621299518284
 20
-1413.0833359911585
 30
0.0
 41
0.9983922639634083
 10
938.60404668901833
 20
-1413.0596563565045
 30
0.0
 41
1.0
 10
938.6038198116936
 20
-1413.059553371023
 30
0.0
 41
1.0
 10
938.60359293436886
 20
-1413.0594503855414
 30
0.0
 41
1.0
 10
938.55097287355534
 20
-1413.0355647799245
 30
0.0
 41
0.9986517147149927
 10
938.49615990068742
 20
-1413.0172636608029
 30
0.0
 41
1.0
 10
938.49548197925947
 20
-1413.0170373143715
 30
0.0
 41
1.0
 10
938.49480405783152
 20
-1413.0168109679398
 30
0.0
 41
1.0
 10
938.4386352421069
 20
-1412.9980571559547
 30
0.0
 41
0.9989435598955854
 10
938.38098185495494
 20
-1412.9845394537203
 30
0.0
 41
1.0
 10
938.37990173537401
 20
-1412.9842862034675
 30
0.0
 41
1.0
 10
938.37882161579296
 20
-1412.9840329532146
 30
0.0
 41
1.0
 10
938.31900798947834
 20
-1412.9700087504741
 30
0.0
 41
0.9992249241239762
 10
938.25827648058112
 20
-1412.9607334077591
 30
0.0
 41
1.0
 10
938.25686279228989
 20
-1412.9605174993512
 30
0.0
 41
1.0
 10
938.25544910399879
 20
-1412.9603015909433
 30
0.0
 41
1.0
 10
938.19189021851878
 20
-1412.9505944314124
 30
0.0
 41
0.9994396597833787
 10
938.12782428198136
 20
-1412.9451615090663
 30
0.0
 41
1.0
 10
938.10868361450412
 20
-1412.9435383413479
 30
0.0
 41
1.0
 10
938.08954294702676
 20
-1412.9419151736292
 30
0.0
 41
1.0
 10
937.98719567553496
 20
-1412.9332359158464
 30
0.0
 41
0.9987693403121819
 10
937.88449205194877
 20
-1412.934738979299
 30
0.0
 41
1.0
 10
937.87423771772137
 20
-1412.9348890510732
 30
0.0
 41
1.0
 10
937.86398338349409
 20
-1412.9350391228475
 30
0.0
 41
1.0
 10
937.7544276173146
 20
-1412.9366424671348
 30
0.0
 41
0.9989753644966172
 10
937.6454656172973
 20
-1412.9481454740599
 30
0.0
 41
1.0
 10
937.53650361728103
 20
-1412.9596484809852
 30
0.0
 41
0.9983190067306098
 10
937.42960480631643
 20
-1412.9836834727719
 30
0.0
 41
1.0
 10
937.42070385470947
 20
-1412.9856847513347
 30
0.0
 41
1.0
 10
937.4118029031024
 20
-1412.9876860298973
 30
0.0
 41
1.0
 10
937.28710218892422
 20
-1413.0157235788092
 30
0.0
 41
0.9985539388303362
 10
937.16613243524591
 20
-1413.0569872548549
 30
0.0
 41
1.0
 10
937.16378700428572
 20
-1413.0577872986707
 30
0.0
 41
1.0
 10
937.16144157332542
 20
-1413.0585873424866
 30
0.0
 41
1.0
 10
937.0357809577273
 20
-1413.1014511061637
 30
0.0
 41
0.998846874649411
 10
936.91481061542652
 20
-1413.1561691912264
 30
0.0
 41
1.0
 10
936.9116277934379
 20
-1413.1576088657862
 30
0.0
 41
1.0
 10
936.90844497144917
 20
-1413.1590485403462
 30
0.0
 41
1.0
 10
936.7811089851707
 20
-1413.2166459745288
 30
0.0
 41
0.9991322885919215
 10
936.65900840111397
 20
-1413.2846413067107
 30
0.0
 41
1.0
 10
936.64140639007076
 20
-1413.2944435087002
 30
0.0
 41
1.0
 10
936.62380437902755
 20
-1413.3042457106897
 30
0.0
 41
1.0
 10
936.52162769797019
 20
-1413.3611458264704
 30
0.0
 41
0.9993860037849293
 10
936.42368669389623
 20
-1413.4250618420592
 30
0.0
 41
1.0
 10
936.41806838104503
 20
-1413.4287283367535
 30
0.0
 41
1.0
 10
936.41245006819383
 20
-1413.4323948314475
 30
0.0
 41
1.0
 10
936.32574568982204
 20
-1413.4889778576483
 30
0.0
 41
0.9998821494952584
 10
936.24081931400997
 20
-1413.5481960877246
 30
0.0
 41
1.0
 10
936.15589293819971
 20
-1413.6074143177993
 30
0.0
 41
0.9997976482743726
 10
936.07341730779569
 20
-1413.6700007258414
 30
0.0
 41
1.0
 10
936.05878104298972
 20
-1413.6811074156221
 30
0.0
 41
1.0
 10
936.04414477818375
 20
-1413.6922141054026
 30
0.0
 41
1.0
 10
935.93239661816403
 20
-1413.7770138930089
 30
0.0
 41
0.9998091630800917
 10
935.82404634013369
 20
-1413.8661142437129
 30
0.0
 41
1.0
 10
935.81104058766084
 20
-1413.8768093441554
 30
0.0
 41
1.0
 10
935.79803483518799
 20
-1413.8875044445977
 30
0.0
 41
1.0
 10
935.66367305220194
 20
-1413.9979949961944
 30
0.0
 41
0.9995035112317475
 10
935.53653717443683
 20
-1414.116728813211
 30
0.0
 41
1.0
 10
935.52688986405099
 20
-1414.1257385593676
 30
0.0
 41
1.0
 10
935.51724255366514
 20
-1414.1347483055242
 30
0.0
 41
1.0
 10
935.39381949090046
 20
-1414.2500146772795
 30
0.0
 41
0.9994630424298603
 10
935.27821108511853
 20
-1414.3731174205127
 30
0.0
 41
1.0
 10
935.27452824634565
 20
-1414.3770390000273
 30
0.0
 41
1.0
 10
935.27084540757289
 20
-1414.3809605795418
 30
0.0
 41
1.0
 10
935.16260267933342
 20
-1414.4962201637491
 30
0.0
 41
0.9995160693749933
 10
935.06173664980258
 20
-1414.6179875816206
 30
0.0
 41
1.0
 10
935.05980292972049
 20
-1414.6203220058303
 30
0.0
 41
1.0
 10
935.0578692096384
 20
-1414.62265643004
 30
0.0
 41
1.0
 10
934.96087062026857
 20
-1414.7397549994953
 30
0.0
 41
0.9996561470514402
 10
934.87014440160476
 20
-1414.8617777619422
 30
0.0
 41
1.0
 10
934.86398673570329
 20
-1414.870059550984
 30
0.0
 41
1.0
 10
934.85782906980171
 20
-1414.8783413400256
 30
0.0
 41
1.0
 10
934.77941818293891
 20
-1414.9838005243914
 30
0.0
 41
0.9998349055174275
 10
934.70489090100659
 20
-1415.0920391080549
 30
0.0
 41
1.0
 10
934.63036361907848
 20
-1415.2002776917125
 30
0.0
 41
0.999972810957092
 10
934.55744072317361
 20
-1415.3096036172594
 30
0.0
 41
1.0
 10
934.5561255077572
 20
-1415.3115753867689
 30
0.0
 41
1.0
 10
934.55481029234079
 20
-1415.3135471562784
 30
0.0
 41
1.0
 10
934.47925696558877
 20
-1415.426816620866
 30
0.0
 41
0.9999972147347519
 10
934.40423915522126
 20
-1415.5404414636926
 30
0.0
 41
1.0
 10
934.39926761260483
 20
-1415.547971552156
 30
0.0
 41
1.0
 10
934.3942960699884
 20
-1415.5555016406192
 30
0.0
 41
1.0
 10
934.30933517436847
 20
-1415.6841866604013
 30
0.0
 41
0.9999371979007298
 10
934.22727982496895
 20
-1415.8147435741712
 30
0.0
 41
1.0
 10
934.22377094060516
 20
-1415.8203265022394
 30
0.0
 41
1.0
 10
934.22026205624138
 20
-1415.8259094303078
 30
0.0
 41
1.0
 10
934.13118893811463
 20
-1415.9676322002135
 30
0.0
 41
0.9998272025611297
 10
934.04744554723118
 20
-1416.112568076958
 30
0.0
 41
1.0
 10
934.03223037520684
 20
-1416.1389011914152
 30
0.0
 41
1.0
 10
934.01701520318261
 20
-1416.1652343058722
 30
0.0
 41
1.0
 10
933.90284146825229
 20
-1416.3628364115284
 30
0.0
 41
0.9995217214838663
 10
933.80110177869642
 20
-1416.5671187393907
 30
0.0
 41
1.0
 10
933.79345821606239
 20
-1416.5824661890915
 30
0.0
 41
1.0
 10
933.78581465342847
 20
-1416.5978136387923
 30
0.0
 41
1.0
 10
933.69890936083686
 20
-1416.7723100968778
 30
0.0
 41
0.9998269762607963
 10
933.61855489456502
 20
-1416.9499183836008
 30
0.0
 41
1.0
 10
933.53820042828829
 20
-1417.1275266703346
 30
0.0
 41
0.9998944747388336
 10
933.46303963372213
 20
-1417.3073943959682
 30
0.0
 41
1.0
 10
933.45808596413269
 20
-1417.3192490508814
 30
0.0
 41
1.0
 10
933.45313229454325
 20
-1417.3311037057947
 30
0.0
 41
1.0
 10
933.37248523398978
 20
-1417.524100645815
 30
0.0
 41
0.9999506734407735
 10
933.29568770508922
 20
-1417.7186614506636
 30
0.0
 41
1.0
 10
933.28108773981967
 20
-1417.7556493724662
 30
0.0
 41
1.0
 10
933.26648777455011
 20
-1417.7926372942688
 30
0.0
 41
1.0
 10
933.21889017618435
 20
-1417.9132222555231
 30
0.0
 41
0.9999912393921372
 10
933.17230373216307
 20
-1418.0342014582156
 30
0.0
 41
1.0
 10
933.12571728814817
 20
-1418.1551806608916
 30
0.0
 41
0.9999927113940963
 10
933.08005599375258
 20
-1418.2765120683973
 30
0.0
 41
1.0
 10
933.06608756235187
 20
-1418.3136290504044
 30
0.0
 41
1.0
 10
933.05211913095104
 20
-1418.3507460324113
 30
0.0
 41
1.0
 10
932.97852097376403
 20
-1418.5463114039037
 30
0.0
 41
0.9999487550952622
 10
932.90889734879534
 20
-1418.7433267690778
 30
0.0
 41
1.0
 10
932.88530373885283
 20
-1418.8100900793861
 30
0.0
 41
1.0
 10
932.86171012891043
 20
-1418.8768533896946
 30
0.0
 41
1.0
 10
932.76702449454024
 20
-1419.144787224518
 30
0.0
 41
0.9999808436948442
 10
932.67566290590389
 20
-1419.4138726557685
 30
0.0
 41
1.0
 10
932.5843013172597
 20
-1419.6829580870412
 30
0.0
 41
0.9999873932903139
 10
932.49564660853935
 20
-1419.9529474420619
 30
0.0
 41
1.0
 10
932.47555425167252
 20
-1420.014136774807
 30
0.0
 41
1.0
 10
932.45546189480569
 20
-1420.0753261075522
 30
0.0
 41
1.0
 10
932.32662247234794
 20
-1420.4676941280745
 30
0.0
 41
0.9999794883034351
 10
932.20281968738709
 20
-1420.8616803343607
 30
0.0
 41
1.0
 10
932.1916674279687
 20
-1420.897170944537
 30
0.0
 41
1.0
 10
932.18051516855019
 20
-1420.9326615547134
 30
0.0
 41
1.0
 10
932.03795700463024
 20
-1421.3863343068724
 30
0.0
 41
0.9999982761705766
 10
931.89708456460312
 20
-1421.8405333290325
 30
0.0
 41
1.0
 10
930.30894423203051
 20
-1426.8893030600357
 30
0.0
 41
1.0
 10
928.72080389945791
 20
-1431.9380727910391
 30
0.0
 41
1.0
 10
927.77205328798152
 20
-1431.9380727910391
 30
0.0
 41
1.0
 10
926.82330267650514
 20
-1431.9380727910391
 30
0.0
 41
1.0
 10
930.06158716265827
 20
-1421.6107505910929
 30
0.0
 41
1.0
 10
933.29987164881152
 20
-1411.2834283911468
 30
0.0
 41
1.0
  0
LWPOLYLINE
  5
5C
100
AcDbEntity
  8
0
370
              15
390
0
  6
Continuous
 62
               7
100
AcDbPolyline
 90
      232
 70
             128
 10
907.59632587498447
 20
-1412.367771222662
 42
0.000437080069307
 10
907.54344870092939
 20
-1412.4364378618961
 10
907.504164469785
 20
-1412.4875449748147
 42
0.0030481992176672
 10
907.3738257526519
 20
-1412.6592666671777
 10
907.3353140809154
 20
-1412.7106534509471
 42
0.0042058245754133
 10
907.13132903023541
 20
-1412.9876591960347
 10
907.07892390774487
 20
-1413.0600920428014
 42
0.0120948898743353
 10
906.78287999098268
 20
-1413.490841647352
 10
906.68668749186247
 20
-1413.638322382574
 42
0.0141601263947342
 10
906.38304344493952
 20
-1414.1339917193109
 10
906.34350617750943
 20
-1414.2028356867499
 42
0.0071131081301515
 10
906.13823385427509
 20
-1414.5723384855808
 42
0.0068458791002251
 10
905.94335432742753
 20
-1414.9474300490656
 10
905.93654246497431
 20
-1414.9609917627804
 42
0.0064120880289266
 10
905.73840021492686
 20
-1415.368416237706
 10
905.73086552941299
 20
-1415.3844280944206
 42
0.0058857236450181
 10
905.52811013754138
 20
-1415.8288042054555
 10
905.51993521124734
 20
-1415.8472943590896
 42
0.0053189741895465
 10
905.3112308985767
 20
-1416.3332578330151
 10
905.30248309289846
 20
-1416.3542397112037
 42
0.0047503650419223
 10
905.08650936675292
 20
-1416.8864391444001
 10
905.07724111839957
 20
-1416.9099155205213
 42
0.0042071762170697
 10
904.85269373466997
 20
-1417.4930091145961
 10
904.84294433232321
 20
-1417.5189752894607
 42
0.003668008648458
 10
904.60848968901007
 20
-1418.1576106739947
 10
904.59828190916335
 20
-1418.1860592083362
 42
0.003257314262851
 10
904.35264962318854
 20
-1418.8849118681132
 10
904.28399910234691
 20
-1419.0843749521691
 42
0.0026133366651422
 10
903.93555390359802
 20
-1420.1142382358146
 10
903.87229711610087
 20
-1420.304469071197
 42
0.0020592950740205
 10
903.65843404713019
 20
-1420.9565727238207
 10
903.65538225596674
 20
-1420.9660092122315
 42
0.0025609928532275
 10
903.45356175448126
 20
-1421.6011544345963
 10
903.45097038734821
 20
-1421.6094567755572
 42
0.003136235624408
 10
903.26147960167759
 20
-1422.2302196317164
 10
903.25934855874686
 20
-1422.2373609379385
 42
0.0037229918031893
 10
903.08254817182387
 20
-1422.8463462399018
 10
903.08086958262106
 20
-1422.8522931300636
 42
0.0043077623708104
 10
902.91712878055239
 20
-1423.452111861845
 42
0.0047654161822743
 10
902.76430005803638
 20
-1424.0547979507473
 10
902.72983544919725
 20
-1424.1963597278973
 42
0.0112969368444256
 10
902.53397109105344
 20
-1425.0880518885224
 10
902.50596470195705
 20
-1425.2308799346192
 42
0.0130056762571974
 10
902.30512745831038
 20
-1426.4178210062641
 10
902.2845877081628
 20
-1426.561899119745
 42
0.0138721532147298
 10
902.18088470362545
 20
-1427.4687286055669
 10
902.16158921571753
 20
-1427.6922263274923
 42
0.0071254697007697
 10
902.12824256979502
 20
-1428.1554133363393
 10
902.12328159563026
 20
-1428.2414173309257
 42
0.0028881799209252
 10
902.10814330234189
 20
-1428.5331590407418
 42
0.0060297297133903
 10
902.09821110256644
 20
-1428.8251079768518
 10
902.09714882089918
 20
-1428.8735003487898
 42
0.0229523164156412
 10
902.10487984868496
 20
-1429.1962551950733
 10
902.10910562220522
 20
-1429.2566587290878
 42
0.0123673300674501
 10
902.12818426872366
 20
-1429.4577794542643
 42
0.012857767447023
 10
902.15737965913002
 20
-1429.6576773041913
 10
902.16450553251696
 20
-1429.699006118788
 42
0.0285717853763807
 10
902.22899953421268
 20
-1429.9771222701015
 10
902.24266805787909
 20
-1430.0237770395786
 42
0.0316283099160087
 10
902.35847863779327
 20
-1430.3427915414045
 10
902.36152732954884
 20
-1430.3497779137301
 42
0.0338984824238437
 10
902.51095904051601
 20
-1430.6373438779192
 10
902.51326776988503
 20
-1430.6411349071936
 42
0.0350228718354814
 10
902.69562806055944
 20
-1430.898186891872
 10
902.69651331233558
 20
-1430.8992659696376
 42
0.0347476747525375
 10
902.91093799957457
 20
-1431.1264510168562
 42
0.0331337701910248
 10
903.15418132532091
 20
-1431.3225796789334
 10
903.1552814238371
 20
-1431.3233523821059
 42
0.0305233319080302
 10
903.42382611941014
 20
-1431.4884805521972
 10
903.42705616391163
 20
-1431.4902045640602
 42
0.0273744481151401
 10
903.71960987548391
 20
-1431.6263427079496
 10
903.72471441062351
 20
-1431.6283862924201
 42
0.0240964406198037
 10
904.04019148627094
 20
-1431.737370018702
 10
904.04677481547924
 20
-1431.7392947583767
 42
0.0209636179810103
 10
904.3841749681352
 20
-1431.8227629063094
 10
904.39180742858048
 20
-1431.8243148193101
 42
0.0181388704692406
 10
904.75012982057774
 20
-1431.8837309125238
 10
904.75841066895714
 20
-1431.8847970963411
 42
0.0156086547588355
 10
905.13659803314783
 20
-1431.9215332829178
 10
905.1797932854721
 20
-1431.9243717853967
 42
0.0137148329020124
 10
905.50746643077184
 20
-1431.9368920406482
 10
905.55340262071411
 20
-1431.9373864737634
 42
0.0051057823887318
 10
905.78954820729007
 20
-1431.9375167281723
 42
0.0052256693314022
 10
906.02564549108058
 20
-1431.9327679037081
 10
906.09587227481813
 20
-1431.9306209376941
 42
0.0161507179047111
 10
906.4716093529172
 20
-1431.9069705673678
 10
906.49162231329251
 20
-1431.90506037208
 42
0.0101216737832178
 10
906.9056495347744
 20
-1431.8570674417156
 10
906.93970282420992
 20
-1431.8524197449049
 42
0.0245291776397937
 10
907.41649247976056
 20
-1431.7633446668287
 10
907.50131579528306
 20
-1431.7431487464833
 42
0.0143509212555185
 10
907.85794689922466
 20
-1431.6473441127041
 42
0.0156557857035091
 10
908.20816296395481
 20
-1431.5303328968844
 10
908.21566417844656
 20
-1431.5275627351311
 42
0.0170137333626009
 10
908.57226017412256
 20
-1431.3819051202622
 10
908.57936409653541
 20
-1431.3787172846962
 42
0.0183105364413369
 10
908.93871376470224
 20
-1431.2013822428714
 10
908.94566052934044
 20
-1431.1976318079996
 42
0.0194899958153397
 10
909.30414127032236
 20
-1430.9856528261103
 10
909.31115514966109
 20
-1430.9811274838139
 42
0.0204869852953152
 10
909.66516945175215
 20
-1430.7316074687303
 10
909.67243506034208
 20
-1430.7260274033797
 42
0.0212516938555756
 10
910.01842499144743
 20
-1430.4361234064877
 10
910.06494168552365
 20
-1430.3936560963934
 42
0.0215248918250037
 10
910.32496785441344
 20
-1430.1348918173971
 10
910.36999758879608
 20
-1430.0860476960452
 42
0.0114578554959442
 10
910.52478974247128
 20
-1429.9102247625888
 10
910.5359842784452
 20
-1429.8969059990586
 42
0.0061531305130377
 10
910.66245892445238
 20
-1429.7426164657377
 42
0.0006325587129405
 10
910.78683740877534
 20
-1429.5866130898469
 10
910.8098775436556
 20
-1429.5576395694027
 42
0.0041897761560185
 10
910.9783329476378
 20
-1429.3421201933286
 10
911.03679506752053
 20
-1429.2660188463556
 42
0.0092993880040589
 10
911.31340699474856
 20
-1428.8917400824657
 10
911.39580148794346
 20
-1428.7758030789028
 42
0.0159321727086178
 10
911.74240797058553
 20
-1428.2536288581471
 10
911.78676410597598
 20
-1428.1819492938948
 42
0.0085547317021521
 10
912.0212758713003
 20
-1427.7880743446724
 42
0.0084601156890395
 10
912.24225204874574
 20
-1427.3864474956342
 10
912.25036752257279
 20
-1427.3710878133672
 42
0.0081429654285274
 10
912.47361679301116
 20
-1426.9313663008247
 10
912.48247695719431
 20
-1426.913187458807
 42
0.007657458132885
 10
912.70888446776439
 20
-1426.4300045835469
 10
912.71836410848471
 20
-1426.4089401052511
 42
0.0070682724201288
 10
912.94880901629358
 20
-1425.8769028004647
 10
912.9587993002732
 20
-1425.852913611458
 42
0.0064559514449038
 10
913.19413250845457
 20
-1425.2666013449398
 10
913.20454186661982
 20
-1425.2396664194971
 42
0.0058311413907422
 10
913.44558860338282
 20
-1424.5936343251126
 10
913.45634368077015
 20
-1424.5637499839527
 42
0.0052312425819044
 10
913.70392495880981
 20
-1423.8525475701217
 10
913.71496879519077
 20
-1423.8197208580486
 42
0.004668054479531
 10
913.96989722292267
 20
-1423.037894542302
 10
914.01188937297513
 20
-1422.9049113049816
 42
0.0041666856446589
 10
914.21517538536386
 20
-1422.2419425299961
 10
914.25283782604015
 20
-1422.1153614223006
 42
0.0015170975154119
 10
914.37402440444066
 20
-1421.7034930708487
 42
-0.0004887993114898
 10
914.49436417755317
 20
-1421.2913746588429
 10
914.57084143505881
 20
-1421.0304172728656
 42
0.0002583378928656
 10
914.84405600517607
 20
-1420.0963605695051
 10
914.92582885472336
 20
-1419.8162613100224
 42
0.0006636169676125
 10
915.11969661471107
 20
-1419.1489083865165
 10
915.12479326903713
 20
-1419.1312768037092
 42
0.0010589131321493
 10
915.30624196997474
 20
-1418.4985454605876
 10
915.31122404047585
 20
-1418.4810325534952
 42
0.0015655524461926
 10
915.47949424763806
 20
-1417.8824158743666
 10
915.48432444804689
 20
-1417.8650237154529
 42
0.002164044047533
 10
915.63861442003895
 20
-1417.2999966974126
 10
915.64324863947274
 20
-1417.2827319674043
 42
0.0028763871854415
 10
915.78276435752196
 20
-1416.7507640165718
 10
915.78715022168944
 20
-1416.7336400384161
 42
0.0037310511943278
 10
915.91110691352605
 20
-1416.2341924443936
 10
915.91518213381585
 20
-1416.2172321731446
 42
0.0047652197773167
 10
916.02280603432348
 20
-1415.7497544048429
 10
916.02649663364855
 20
-1415.7329948496852
 42
0.006027669930284
 10
916.11702673280047
 20
-1415.2969190545487
 10
916.12024542309018
 20
-1415.2804178402366
 42
0.0075824337755681
 10
916.19293473250514
 20
-1414.8751506758133
 10
916.19558010988487
 20
-1414.8589957283662
 42
0.009513062460556
 10
916.24969534551656
 20
-1414.4839063752911
 10
916.2566815693998
 20
-1414.4279728171691
 42
0.0121054653235305
 10
916.28327289997708
 20
-1414.1630769887006
 10
916.28413938973586
 20
-1414.1516735457808
 42
0.0069050827383544
 10
916.29922820777438
 20
-1413.9087323189274
 10
916.30036350744331
 20
-1413.8852060618735
 42
0.0169063976701301
 10
916.3031907864231
 20
-1413.6890133345819
 10
916.30202013489202
 20
-1413.6286775732401
 42
0.0052007732895448
 10
916.29976668629888
 20
-1413.5530841830805
 42
0.0054038123300077
 10
916.2798031744594
 20
-1413.4330658870672
 10
916.27471731858964
 20
-1413.4044074004894
 42
0.0112050460474516
 10
916.23933295652955
 20
-1413.2280809621438
 10
916.22150799449037
 20
-1413.1485393754297
 42
0.0240764468013
 10
916.13061062834402
 20
-1412.8183023399279
 10
916.11205186553127
 20
-1412.7616821749359
 42
0.0256812331832704
 10
915.96868894534123
 20
-1412.3899579686772
 10
915.96327951951912
 20
-1412.3778266336858
 42
0.0268360501219216
 10
915.79385227866999
 20
-1412.0468334996665
 10
915.78831587103502
 20
-1412.0373138293544
 42
0.0274670231729555
 10
915.59611489462168
 20
-1411.7450264544368
 10
915.59073359465947
 20
-1411.7377473068959
 42
0.0275035967098041
 10
915.37916071509721
 20
-1411.4822314165915
 10
915.37409121413123
 20
-1411.4767523289618
 42
0.0269557673528018
 10
915.14668767069111
 20
-1411.2561100429989
 10
915.14194461290924
 20
-1411.2519800885389
 42
0.0259124802209855
 10
914.90238978147772
 20
-1411.0642895613855
 10
914.89785893629505
 20
-1411.0611040590547
 42
0.0245162153002316
 10
914.64994258320098
 20
-1410.904371049945
 10
914.64541603687803
 20
-1410.9018108527448
 42
0.0229282588841301
 10
914.39299648004942
 20
-1410.7739426602452
 10
914.38821598621325
 20
-1410.7717903604835
 42
0.0212984135700984
 10
914.13517803375089
 20
-1410.6705914432409
 10
914.12987374878651
 20
-1410.6687278804827
 42
0.0197555462344196
 10
913.88009541105839
 20
-1410.5919124625161
 42
0.018351189679645
 10
913.62516668559022
 20
-1410.5343295555497
 10
913.53880148887345
 20
-1410.5181267651658
 42
0.0338057877146453
 10
913.25329413961197
 20
-1410.4843183600251
 10
913.16228873456919
 20
-1410.4797387047636
 42
0.0091990524487971
 10
913.05644162593603
 20
-1410.4763628488417
 42
0.0028333980783703
 10
912.95052770995562
 20
-1410.4755347413252
 10
912.94961225689372
 20
-1410.4755327715011
 42
-0.0023619827803277
 10
912.84186624179404
 20
-1410.4747919304225
 10
912.80546107161194
 20
-1410.4743696239593
 42
0.0008824598471459
 10
912.62490508176882
 20
-1410.4725938457211
 10
912.58104364935616
 20
-1410.4722398841955
 42
0.0038132665763979
 10
912.31276075348558
 20
-1410.4721209481288
 10
912.29622709868386
 20
-1410.4722397142725
 42
0.0060665569335602
 10
911.99494660708581
 20
-1410.4780600136935
 10
911.9806962750672
 20
-1410.4785083216609
 42
0.008035695333502
 10
911.65123755873572
 20
-1410.4941760437273
 10
911.63916754364072
 20
-1410.4949446266683
 42
0.0098996399109143
 10
911.28640445898213
 20
-1410.5244298558673
 10
911.27635874961516
 20
-1410.5254701520646
 42
0.0117740981366613
 10
910.90520189127494
 20
-1410.5727623995933
 10
910.89697919478385
 20
-1410.5740075161652
 42
0.0137435215139385
 10
910.51239037529024
 20
-1410.6431044897288
 10
910.50573333617535
 20
-1410.6444903859606
 42
0.0158359869388497
 10
910.11273624236924
 20
-1410.7393824744422
 10
910.10732305550573
 20
-1410.7408724153117
 42
0.0180554124026422
 10
909.71100801089631
 20
-1410.8655104315494
 10
909.70645122280996
 20
-1410.8671264678169
 42
0.0203657431285006
 10
909.3119737049941
 20
-1411.0253868093343
 10
909.30783016599128
 20
-1411.0272484307743
 42
0.022681968465723
 10
908.92039410978623
 20
-1411.2228910094464
 10
908.9161943187695
 20
-1411.2252566013653
 42
0.0248634984607424
 10
908.54101237758562
 20
-1411.4618832473141
 10
908.49281744880795
 20
-1411.4957402891355
 42
0.0267044190882126
 10
908.2185247518878
 20
-1411.7111806650064
 42
0.0139303002199774
 10
907.96235758595105
 20
-1411.9484195059163
 10
907.95750420022807
 20
-1411.9531721687783
 42
0.028346096344479
 10
907.71343160599986
 20
-1412.2209028292245
 10
907.67376310084433
 20
-1412.2697044066965
 42
0.0070695364819138
 10
907.59632587498447
 20
-1412.367771222662
 42
0.0070695364819138
  0
LWPOLYLINE
  5
5D
100
AcDbEntity
  8
0
370
              15
390
0
  6
Continuous
 62
               7
100
AcDbPolyline
 90
      226
 70
             128
 10
904.06750543773808
 20
-1428.0893600288459
 42
-0.0026277636665284
 10
904.06742755393793
 20
-1428.0225881031381
 10
904.06764491217007
 20
-1427.9694328856599
 42
-0.0088680296723883
 10
904.07142152846347
 20
-1427.7964171032474
 10
904.07376788757551
 20
-1427.7371370778033
 42
-0.0077381705617845
 10
904.08981399833806
 20
-1427.4458765820143
 10
904.09068190951177
 20
-1427.43358834832
 42
-0.0068872530530202
 10
904.11731398925986
 20
-1427.1183665962515
 10
904.11851821344601
 20
-1427.106125617232
 42
-0.0062130021487767
 10
904.15611193027496
 20
-1426.767255925984
 10
904.1576158338089
 20
-1426.7550820540771
 42
-0.0056726929666843
 10
904.20653769331136
 20
-1426.3928868319631
 10
904.20831113895565
 20
-1426.3807930317184
 42
-0.0052341884491361
 10
904.26892172521968
 20
-1425.9955997761758
 10
904.27093971399222
 20
-1425.983594846208
 42
-0.0049768450174991
 10
904.34367839541562
 20
-1425.5757502787917
 10
904.3679274101404
 20
-1425.4472022957693
 42
-0.0089029805621789
 10
904.50500826193695
 20
-1424.7854268483388
 10
904.53775363725367
 20
-1424.6403954178236
 42
-0.0080318257099506
 10
904.76730225159486
 20
-1423.6946857859682
 10
904.77928717804264
 20
-1423.6485551507799
 42
-0.0074265721317852
 10
905.06329871689206
 20
-1422.618490572401
 10
905.08317826000746
 20
-1422.5503565118161
 42
-0.0069711922701887
 10
905.41048283851592
 20
-1421.4840887714818
 10
905.47043478562193
 20
-1421.2980674131095
 42
-0.0052070422892372
 10
905.69986001088068
 20
-1420.6107953360799
 10
905.71714120306569
 20
-1420.560768055426
 42
-0.000916700444809
 10
905.92023309034244
 20
-1419.9763122073086
 42
-0.0025162726943297
 10
906.12733072060178
 20
-1419.3932709431551
 10
906.16455533241719
 20
-1419.290121397222
 42
-0.0028212681456844
 10
906.41273125137354
 20
-1418.6143907650699
 10
906.42256201412647
 20
-1418.5880833203871
 42
-0.0031964916824845
 10
906.65885427178648
 20
-1417.967878558266
 10
906.66848872578328
 20
-1417.9430685681284
 42
-0.0036281836452041
 10
906.89359468688667
 20
-1417.3756278872297
 10
906.90303309704427
 20
-1417.3523304557266
 42
-0.0041269166832261
 10
907.11765079370332
 20
-1416.8348895597485
 10
907.15028375012469
 20
-1416.7580111133861
 42
-0.0047472213058582
 10
907.30732855567771
 20
-1416.397589645504
 10
907.31422263689956
 20
-1416.3821690481413
 42
-0.0025651659992799
 10
907.46258067073609
 20
-1416.0548409924236
 42
-0.0057144634995133
 10
907.6163303645028
 20
-1415.7300313190703
 10
907.64436106990706
 20
-1415.6725229366698
 42
-0.0065388068374062
 10
907.82782809764842
 20
-1415.3082904400019
 10
907.83628655342022
 20
-1415.2920308606451
 42
-0.007451084302312
 10
908.01246879930477
 20
-1414.9653425795095
 10
908.02064846983717
 20
-1414.9507018022382
 42
-0.0084648979855673
 10
908.1902823229359
 20
-1414.6587927912797
 10
908.19813844942882
 20
-1414.6457857996209
 42
-0.009563854279891
 10
908.36197389701817
 20
-1414.3858969276503
 10
908.36944884069044
 20
-1414.374527566194
 42
-0.0107191626806701
 10
908.52825042107747
 20
-1414.1439163316509
 10
908.53526715481314
 20
-1414.1341802392799
 42
-0.0118458573903189
 10
908.68981525332106
 20
-1413.9301080439755
 42
-0.0129184518193946
 10
908.85426787691949
 20
-1413.7339475278086
 10
908.88441264928576
 20
-1413.6998214489054
 42
-0.0217742579635432
 10
909.06102497162101
 20
-1413.5166146786555
 10
909.07177051607664
 20
-1413.5063978454571
 42
-0.0097266568653531
 10
909.23782813493722
 20
-1413.3545502710151
 42
-0.018772090571565
 10
909.41217571082962
 20
-1413.2124814176238
 10
909.44288170149957
 20
-1413.1893223352308
 42
-0.0179428207521564
 10
909.67530242149701
 20
-1413.0267701581181
 10
909.67895474841134
 20
-1413.0244062232314
 42
-0.0170047877698795
 10
909.91471838594316
 20
-1412.8829457090787
 10
909.91850137468703
 20
-1412.8808474040438
 42
-0.0160190788362761
 10
910.15540992232502
 20
-1412.7591961020544
 42
-0.0151102861493551
 10
910.39944170477099
 20
-1412.6525133260002
 10
910.45182820698346
 20
-1412.6314731931052
 42
-0.0271945441885943
 10
910.81049076604302
 20
-1412.5096083823989
 10
910.87955556653185
 20
-1412.4902588411323
 42
-0.0237596594022416
 10
911.29535241355234
 20
-1412.3948081291514
 10
911.36341526728597
 20
-1412.3825534410241
 42
-0.0213715440553734
 10
911.64929019872807
 20
-1412.3436064095147
 10
911.70943736494132
 20
-1412.3380166948143
 42
-0.0101465655828077
 10
911.87692989694017
 20
-1412.3258731515498
 10
911.88627028313647
 20
-1412.3253862365525
 42
-0.0100375910880726
 10
912.03542438370096
 20
-1412.3206104186272
 10
912.04568365338241
 20
-1412.3204879796128
 42
-0.0103625633382728
 10
912.17439164803613
 20
-1412.3216194131394
 10
912.19665729930523
 20
-1412.3222767716043
 42
-0.011568925023322
 10
912.28070803683102
 20
-1412.3267062778496
 42
-0.0072438037440814
 10
912.36454631627385
 20
-1412.3342954775992
 10
912.38134682574298
 20
-1412.336062020323
 42
-0.0217917313132601
 10
912.49791658905497
 20
-1412.3534819130437
 10
912.5635166796252
 20
-1412.3662285214587
 42
-0.0332943556751822
 10
912.76790884465163
 20
-1412.4202688127657
 10
912.79808141320098
 20
-1412.4304368898838
 42
-0.0184824084801502
 10
912.93658646966719
 20
-1412.4828879052707
 42
-0.0198002050699065
 10
913.07066081016501
 20
-1412.5457719654692
 10
913.07254744754346
 20
-1412.5467497523498
 42
-0.0212242342977932
 10
913.20468638994487
 20
-1412.6225124911425
 10
913.20650168548877
 20
-1412.6236582933511
 42
-0.0226090605780852
 10
913.33500558670937
 20
-1412.7131379369146
 10
913.336850028448
 20
-1412.7145501899031
 42
-0.0238457052236145
 10
913.46003210974072
 20
-1412.8185460857653
 10
913.46198483829994
 20
-1412.8203609635316
 42
-0.0248160564149452
 10
913.57818634559976
 20
-1412.9396355647395
 10
913.5802899790026
 20
-1412.9420208984448
 42
-0.0254109591447344
 10
913.68789519686879
 20
-1413.0773092844092
 10
913.69014321878262
 20
-1413.0804508328097
 42
-0.0255528488290507
 10
913.78758989758057
 20
-1413.2324778870454
 10
913.78992099749598
 20
-1413.2365594986518
 42
-0.0252146793220216
 10
913.87570202350526
 20
-1413.4060617446489
 10
913.87800426266267
 20
-1413.4112438265615
 42
-0.0244265635940753
 10
913.95065895642426
 20
-1413.5989903986083
 10
913.95990535789213
 20
-1413.6268558169447
 42
-0.0231319612897317
 10
914.00582813688459
 20
-1413.7901568637476
 42
-0.0112130424351993
 10
914.04046415942241
 20
-1413.9563604639334
 10
914.04166668453536
 20
-1413.9628570508235
 42
-0.0210527881225047
 10
914.06735315990636
 20
-1414.1439126962669
 10
914.07086375472795
 20
-1414.1793182448121
 42
-0.0190029892425544
 10
914.08630522827252
 20
-1414.4328540910815
 10
914.08711520471661
 20
-1414.4683297054535
 42
-0.0137974553663728
 10
914.0855663518812
 20
-1414.7933611121816
 10
914.08472089692543
 20
-1414.8194798567806
 42
-0.0081336634217513
 10
914.06986156170296
 20
-1415.1248273243789
 42
-0.0073526923569761
 10
914.04555302832796
 20
-1415.4295755686687
 10
914.04429160454561
 20
-1415.4429122433301
 42
-0.0066886138692078
 10
914.00855601849867
 20
-1415.7734982868308
 10
914.00689892902915
 20
-1415.7871199058186
 42
-0.00613591873533
 10
913.95904832697704
 20
-1416.1438838859269
 10
913.9570108259054
 20
-1416.1577786887478
 42
-0.0056698610060487
 10
913.89636049513695
 20
-1416.5410572575945
 10
913.8939550618154
 20
-1416.5552163768166
 42
-0.0052721077276589
 10
913.81982286101538
 20
-1416.9653437164961
 10
913.817059712174
 20
-1416.9797603518805
 42
-0.0049289272179459
 10
913.72876559407621
 20
-1417.4170688629924
 10
913.72565309939137
 20
-1417.4317377158188
 42
-0.0047415956714235
 10
913.62241510785555
 20
-1417.8965344732444
 10
913.58764689749933
 20
-1418.0463415686127
 42
-0.0084404470901069
 10
913.39763045392397
 20
-1418.8065655931571
 10
913.39150376594182
 20
-1418.8294297172972
 42
-0.0039635940257379
 10
913.17005008165756
 20
-1419.6304185815457
 10
913.15667328647828
 20
-1419.6773501981365
 42
-0.0072475040836294
 10
912.88922639861471
 20
-1420.5665699145284
 10
912.81901407179612
 20
-1420.7883102644726
 42
-0.0051345458828775
 10
912.53225469972892
 20
-1421.6626354523098
 10
912.51072843296174
 20
-1421.7260617194388
 42
-0.0019150016601997
 10
912.25519502609473
 20
-1422.4696108396658
 10
912.24872742169794
 20
-1422.4881983045889
 42
-0.0021524362752881
 10
912.00024937063472
 20
-1423.1925241262952
 10
911.99103894993618
 20
-1423.2182777046025
 42
-0.0024331286818417
 10
911.75478369090229
 20
-1423.8688770127151
 10
911.74573573834402
 20
-1423.8934203190904
 42
-0.0027449721784936
 10
911.5211211675163
 20
-1424.4925501979938
 10
911.51223116012977
 20
-1424.5158727878309
 42
-0.0031083229768914
 10
911.29868867351411
 20
-1425.0657968254257
 10
911.28995254182826
 20
-1425.0878865413094
 42
-0.0035311343279358
 10
911.08691135624667
 20
-1425.5908696670135
 10
911.07832601710288
 20
-1425.6117123905146
 42
-0.0040245640951033
 10
910.88521421330461
 20
-1426.0700217131161
 10
910.87677809970478
 20
-1426.0896010811807
 42
-0.004601513585202
 10
910.69302180653779
 20
-1426.5055061108305
 10
910.68473562870781
 20
-1426.5238032502866
 42
-0.0052768638271367
 10
910.50975810975388
 20
-1426.8995761345529
 10
910.50162589912463
 20
-1426.9165694731009
 42
-0.0060672675644261
 10
910.33484628636097
 20
-1427.2544850962104
 10
910.32687680588504
 20
-1427.2701503551968
 42
-0.0069904648874602
 10
910.16770841187804
 20
-1427.5724861618714
 10
910.15991701227085
 20
-1427.5867967110921
 42
-0.0080637022766208
 10
910.00776515192138
 20
-1427.8558320142517
 10
910.00017611929388
 20
-1427.868759879846
 42
-0.0093006455665483
 10
909.85443544275859
 20
-1428.1067742783557
 10
909.8470847760176
 20
-1428.1182922475248
 42
-0.0107060778050939
 10
909.70713623257643
 20
-1428.3275625649078
 10
909.70007446429236
 20
-1428.3376481074802
 42
-0.0122723111405576
 10
909.56528074609878
 20
-1428.5204414369628
 10
909.56495452254796
 20
-1428.5208618247682
 42
-0.0141836319628226
 10
909.42137291957056
 20
-1428.6954315826019
 10
909.41442516392146
 20
-1428.7034065828634
 42
-0.0175957477207272
 10
909.27451899588391
 20
-1428.8530274712714
 42
-0.0080466359675404
 10
909.1270552308622
 20
-1428.9953499994147
 10
909.08102068633627
 20
-1429.0383704375138
 42
-0.026960026039306
 10
908.82774044035227
 20
-1429.2506936960237
 10
908.76117330405748
 20
-1429.300645110646
 42
-0.0178362839756205
 10
908.5212288144005
 20
-1429.4676630368992
 10
908.51398384340098
 20
-1429.4723315491035
 42
-0.0174650732650821
 10
908.27764764595872
 20
-1429.6131925140633
 42
-0.0169240130166456
 10
908.03218140010188
 20
-1429.7374847738404
 10
907.9861952445433
 20
-1429.7588467294079
 42
-0.0318883036843224
 10
907.63584438892588
 20
-1429.8951850389171
 10
907.56747885375626
 20
-1429.9168856593942
 42
-0.0284435909897554
 10
907.1914287274675
 20
-1430.0131030948683
 10
907.15627056697258
 20
-1430.019996690696
 42
-0.0243909341015412
 10
906.84282710604998
 20
-1430.0657177217267
 10
906.7925463792767
 20
-1430.0705632686286
 42
-0.0196639292929141
 10
906.57695080175154
 20
-1430.0828115541419
 10
906.5251267305855
 20
-1430.0837148148787
 42
-0.010050151068204
 10
906.41270344892382
 20
-1430.0834144165256
 10
906.38104358759028
 20
-1430.0826933446406
 42
-0.0019752031129379
 10
906.33195125089844
 20
-1430.0813811844305
 10
906.32919094767112
 20
-1430.081296492604
 42
0.0065378751985321
 10
906.2856143729216
 20
-1430.0805296013893
 42
-0.0167974694638872
 10
906.24208354998984
 20
-1430.0788697028634
 10
906.23800421072769
 20
-1430.0785766919685
 42
-0.0081283276279567
 10
906.18644441299307
 20
-1430.0740296983308
 10
906.17470483911052
 20
-1430.0728017807521
 42
-0.0126703440191862
 10
906.09998654332082
 20
-1430.0630669896811
 10
906.07719867564037
 20
-1430.0595087337654
 42
-0.0117852088441548
 10
905.95765968981436
 20
-1430.0379457386096
 10
905.90227923804491
 20
-1430.0266021983737
 42
-0.0251774592296471
 10
905.67543519903677
 20
-1429.9681041889405
 10
905.63071600918511
 20
-1429.9541373696052
 42
-0.0146525199888614
 10
905.44432302164751
 20
-1429.8898708424072
 42
-0.0166929435867143
 10
905.26234536552295
 20
-1429.8140637093536
 10
905.25768873424772
 20
-1429.8119388087387
 42
-0.0191684358427683
 10
905.072505102999
 20
-1429.7187027249493
 10
905.06917251724144
 20
-1429.7168614773955
 42
-0.0221181781809715
 10
904.88586221334026
 20
-1429.6047279790253
 10
904.88351240933082
 20
-1429.6031436810335
 42
-0.0254984685384282
 10
904.70722225894519
 20
-1429.4707325310637
 10
904.68474011124363
 20
-1429.4519802221278
 42
-0.029249264880422
 10
904.55997117240054
 20
-1429.3348874224846
 42
-0.0159048957500307
 10
904.44613117495101
 20
-1429.2068674308862
 10
904.44481238437106
 20
-1429.2052858178654
 42
-0.0343813379568724
 10
904.34217512274506
 20
-1429.0634144920962
 10
904.31068359138487
 20
-1429.0129111000033
 42
-0.0369117275705244
 10
904.22479108948676
 20
-1428.8494338590535
 42
-0.0191751379908599
 10
904.15759770392981
 20
-1428.6770292530477
 10
904.15583438017029
 20
-1428.6719359083727
 42
-0.0378178042241517
 10
904.10603966138626
 20
-1428.4829951322927
 10
904.10004436565521
 20
-1428.4504345140917
 42
-0.0184846046455365
 10
904.07932716636128
 20
-1428.3086816935495
 42
-0.0179866351316603
 10
904.06899416128772
 20
-1428.1657908804705
 10
904.06893771884188
 20
-1428.1642331938558
 42
-0.008549718613925
 10
904.06750543773808
 20
-1428.0893600288459
 42
-0.008549718613925
  0
ENDBLK
  5
5E
100
AcDbEntity
  8
template
390
0
100
AcDbBlockEnd
  0
BLOCK
  5
5F
100
AcDbEntity
  8
notes
390
0
100
AcDbBlockBegin
  2
*D3
 70
               1
 10
0.0
 20
0.0
 30
0.0
  3
*D3
  1

  0
LINE
  5
60
100
AcDbEntity
  8
0
370
              -2
390
0
  6
Continuous
 62
               0
100
AcDbLine
 10
-48.247567325469674
 20
-372.1674202463542
 30
0.0
 11
26.755256720696366
 21
-372.1674202463542
 31
0.0
  0
LINE
  5
61
100
AcDbEntity
  8
0
370
              -2
390
0
  6
Continuous
 62
               0
100
AcDbLine
 10
-192.73353425092625
 20
-722.16818505803076
 30
0.0
 11
26.755256720696366
 21
-722.16818505803076
 31
0.0
  0
LINE
  5
62
100
AcDbEntity
  8
0
370
              -2
390
0
  6
Continuous
 62
               0
100
AcDbLine
 10
26.755256720696366
 20
-372.1674202463542
 30
0.0
 11
26.755256720696366
 21
-722.16818505803076
 31
0.0
  0
CIRCLE
  5
63
102
{ACAD_REACTORS
330
64
102
}
100
AcDbEntity
  8
0
370
              -2
390
0
  6
Continuous
 62
               0
100
AcDbCircle
 10
26.755256720696366
 20
-372.1674202463542
 30
0.0
 40
1.9998779296875
  0
HATCH
  5
64
100
AcDbEntity
  8
0
370
              -2
390
0
  6
Continuous
 62
               0
100
AcDbHatch
 10
0.0
 20
0.0
 30
0.0
210
0.0
220
0.0
230
1.0
  2
SOLID
 70
               1
 71
               1
 91
        1
 92
        1
 93
        1
 72
               2
 10
26.755256720696366
 20
-372.1674202463542
 40
1.9998779296875
 50
0.0
 51
360.0
 73
               0
 97
        1
330
63
 75
               0
 76
               1
 98
        1
 10
0.0
 20
0.0
  0
CIRCLE
  5
65
102
{ACAD_REACTORS
330
66
102
}
100
AcDbEntity
  8
0
370
              -2
390
0
  6
Continuous
 62
               0
100
AcDbCircle
 10
26.755256720696366
 20
-722.16818505803076
 30
0.0
 40
1.9998779296875
  0
HATCH
  5
66
100
AcDbEntity
  8
0
370
              -2
390
0
  6
Continuous
 62
               0
100
AcDbHatch
 10
0.0
 20
0.0
 30
0.0
210
0.0
220
0.0
230
1.0
  2
SOLID
 70
               1
 71
               1
 91
        1
 92
        1
 93
        1
 72
               2
 10
26.755256720696366
 20
-722.16818505803076
 40
1.9998779296875
 50
0.0
 51
360.0
 73
               0
 97
        1
330
65
 75
               0
 76
               1
 98
        1
 10
0.0
 20
0.0
  0
MTEXT
  5
67
100
AcDbEntity
  8
0
390
0
 62
               0
100
AcDbMText
 10
-7.1223604668036415
 20
-570.98030433436793
 30
0.0
 40
24.432617187500004
 41
0.0
 71
               1
 72
               1
  1
350
  7
ＭＳ ゴシック
 11
0.0
 21
1.0
 31
0.0
 73
               1
 44
0.7828267384257843
  0
POINT
  5
68
100
AcDbEntity
  8
Defpoints
370
               0
390
0
 62
               0
100
AcDbPoint
 10
-217.73353425092625
 20
-722.16818505803076
 30
0.0
  0
POINT
  5
69
100
AcDbEntity
  8
Defpoints
370
               0
390
0
 62
               0
100
AcDbPoint
 10
-73.247567325469674
 20
-372.1674202463542
 30
0.0
  0
POINT
  5
6A
100
AcDbEntity
  8
Defpoints
370
               0
390
0
 62
               0
100
AcDbPoint
 10
26.755256720696366
 20
-372.1674202463542
 30
0.0
  0
ENDBLK
  5
6B
100
AcDbEntity
  8
notes
390
0
100
AcDbBlockEnd
  0
BLOCK
  5
6C
100
AcDbEntity
  8
notes
390
0
100
AcDbBlockBegin
  2
*D4
 70
               1
 10
0.0
 20
0.0
 30
0.0
  3
*D4
  1

  0
LINE
  5
6D
100
AcDbEntity
  8
0
370
              -2
390
0
  6
Continuous
 62
               0
100
AcDbLine
 10
258.34581429207697
 20
-372.16742024635425
 30
0.0
 11
183.34581429207697
 21
-372.16742024635425
 31
0.0
  0
LINE
  5
6E
100
AcDbEntity
  8
0
370
              -2
390
0
  6
Continuous
 62
               0
100
AcDbLine
 10
498.04235104790223
 20
-597.16742024635425
 30
0.0
 11
183.34581429207697
 21
-597.16742024635425
 31
0.0
  0
LINE
  5
6F
100
AcDbEntity
  8
0
370
              -2
390
0
  6
Continuous
 62
               0
100
AcDbLine
 10
183.34581429207697
 20
-372.16742024635425
 30
0.0
 11
183.34581429207697
 21
-597.16742024635425
 31
0.0
  0
CIRCLE
  5
70
102
{ACAD_REACTORS
330
71
102
}
100
AcDbEntity
  8
0
370
              -2
390
0
  6
Continuous
 62
               0
100
AcDbCircle
 10
183.34581429207697
 20
-372.16742024635425
 30
0.0
 40
1.9998779296875
  0
HATCH
  5
71
100
AcDbEntity
  8
0
370
              -2
390
0
  6
Continuous
 62
               0
100
AcDbHatch
 10
0.0
 20
0.0
 30
0.0
210
0.0
220
0.0
230
1.0
  2
SOLID
 70
               1
 71
               1
 91
        1
 92
        1
 93
        1
 72
               2
 10
183.34581429207697
 20
-372.16742024635425
 40
1.9998779296875
 50
0.0
 51
360.0
 73
               0
 97
        1
330
70
 75
               0
 76
               1
 98
        1
 10
0.0
 20
0.0
  0
CIRCLE
  5
72
102
{ACAD_REACTORS
330
73
102
}
100
AcDbEntity
  8
0
370
              -2
390
0
  6
Continuous
 62
               0
100
AcDbCircle
 10
183.34581429207697
 20
-597.16742024635425
 30
0.0
 40
1.9998779296875
  0
HATCH
  5
73
100
AcDbEntity
  8
0
370
              -2
390
0
  6
Continuous
 62
               0
100
AcDbHatch
 10
0.0
 20
0.0
 30
0.0
210
0.0
220
0.0
230
1.0
  2
SOLID
 70
               1
 71
               1
 91
        1
 92
        1
 93
        1
 72
               2
 10
183.34581429207697
 20
-597.16742024635425
 40
1.9998779296875
 50
0.0
 51
360.0
 73
               0
 97
        1
330
72
 75
               0
 76
               1
 98
        1
 10
0.0
 20
0.0
  0
MTEXT
  5
74
100
AcDbEntity
  8
0
390
0
 62
               0
100
AcDbMText
 10
149.46819710457697
 20
-508.47992192852973
 30
0.0
 40
24.432617187500004
 41
0.0
 71
               1
 72
               1
  1
225
  7
ＭＳ ゴシック
 11
0.0
 21
1.0
 31
0.0
 73
               1
 44
0.7828267384257843
  0
POINT
  5
75
100
AcDbEntity
  8
Defpoints
370
               0
390
0
 62
               0
100
AcDbPoint
 10
523.04235104790223
 20
-597.16742024635425
 30
0.0
  0
POINT
  5
76
100
AcDbEntity
  8
Defpoints
370
               0
390
0
 62
               0
100
AcDbPoint
 10
283.34581429207697
 20
-372.16742024635425
 30
0.0
  0
POINT
  5
77
100
AcDbEntity
  8
Defpoints
370
               0
390
0
 62
               0
100
AcDbPoint
 10
183.34581429207697
 20
-372.16742024635425
 30
0.0
  0
ENDBLK
  5
78
100
AcDbEntity
  8
notes
390
0
100
AcDbBlockEnd
  0
BLOCK
  5
79
100
AcDbEntity
  8
notes
390
0
100
AcDbBlockBegin
  2
*D5
 70
               1
 10
0.0
 20
0.0
 30
0.0
  3
*D5
  1

  0
LINE
  5
7A
100
AcDbEntity
  8
0
370
              -2
390
0
  6
Continuous
 62
               0
100
AcDbLine
 10
571.4554404317073
 20
-372.16742024635425
 30
0.0
 11
548.5804404317073
 21
-372.16742024635425
 31
0.0
  0
LINE
  5
7B
100
AcDbEntity
  8
0
370
              -2
390
0
  6
Continuous
 62
               0
100
AcDbLine
 10
571.4554404317073
 20
-552.16742024635425
 30
0.0
 11
548.5804404317073
 21
-552.16742024635425
 31
0.0
  0
LINE
  5
7C
100
AcDbEntity
  8
0
370
              -2
390
0
  6
Continuous
 62
               0
100
AcDbLine
 10
548.5804404317073
 20
-372.16742024635425
 30
0.0
 11
548.5804404317073
 21
-196.59996125349176
 31
0.0
  0
LINE
  5
7D
100
AcDbEntity
  8
0
370
              -2
390
0
  6
Continuous
 62
               0
100
AcDbLine
 10
548.5804404317073
 20
-372.16742024635425
 30
0.0
 11
548.5804404317073
 21
-552.16742024635425
 31
0.0
  0
CIRCLE
  5
7E
102
{ACAD_REACTORS
330
7F
102
}
100
AcDbEntity
  8
0
370
              -2
390
0
  6
Continuous
 62
               0
100
AcDbCircle
 10
548.5804404317073
 20
-372.16742024635425
 30
0.0
 40
1.9998779296875
  0
HATCH
  5
7F
100
AcDbEntity
  8
0
370
              -2
390
0
  6
Continuous
 62
               0
100
AcDbHatch
 10
0.0
 20
0.0
 30
0.0
210
0.0
220
0.0
230
1.0
  2
SOLID
 70
               1
 71
               1
 91
        1
 92
        1
 93
        1
 72
               2
 10
548.5804404317073
 20
-372.16742024635425
 40
1.9998779296875
 50
0.0
 51
360.0
 73
               0
 97
        1
330
7E
 75
               0
 76
               1
 98
        1
 10
0.0
 20
0.0
  0
CIRCLE
  5
80
102
{ACAD_REACTORS
330
81
102
}
100
AcDbEntity
  8
0
370
              -2
390
0
  6
Continuous
 62
               0
100
AcDbCircle
 10
548.5804404317073
 20
-552.16742024635425
 30
0.0
 40
1.9998779296875
  0
HATCH
  5
81
100
AcDbEntity
  8
0
370
              -2
390
0
  6
Continuous
 62
               0
100
AcDbHatch
 10
0.0
 20
0.0
 30
0.0
210
0.0
220
0.0
230
1.0
  2
SOLID
 70
               1
 71
               1
 91
        1
 92
        1
 93
        1
 72
               2
 10
548.5804404317073
 20
-552.16742024635425
 40
1.9998779296875
 50
0.0
 51
360.0
 73
               0
 97
        1
330
80
 75
               0
 76
               1
 98
        1
 10
0.0
 20
0.0
  0
MTEXT
  5
82
100
AcDbEntity
  8
0
390
0
 62
               0
100
AcDbMText
 10
514.70282324420725
 20
-339.47496125349176
 30
0.0
 40
24.432617187500004
 41
0.0
 71
               1
 72
               1
  1
180(深さ)
  7
ＭＳ ゴシック
 11
0.0
 21
1.0
 31
0.0
 73
               1
 44
0.7828267384257843
  0
POINT
  5
83
100
AcDbEntity
  8
Defpoints
370
               0
390
0
 62
               0
100
AcDbPoint
 10
546.4554404317073
 20
-552.16742024635425
 30
0.0
  0
POINT
  5
84
100
AcDbEntity
  8
Defpoints
370
               0
390
0
 62
               0
100
AcDbPoint
 10
546.4554404317073
 20
-372.16742024635425
 30
0.0
  0
POINT
  5
85
100
AcDbEntity
  8
Defpoints
370
               0
390
0
 62
               0
100
AcDbPoint
 10
548.5804404317073
 20
-372.16742024635425
 30
0.0
  0
ENDBLK
  5
86
100
AcDbEntity
  8
notes
390
0
100
AcDbBlockEnd
  0
BLOCK
  5
87
100
AcDbEntity
  8
notes
390
0
100
AcDbBlockBegin
  2
*D6
 70
               1
 10
0.0
 20
0.0
 30
0.0
  3
*D6
  1

  0
LINE
  5
88
100
AcDbEntity
  8
0
370
              -2
390
0
  6
Continuous
 62
               0
100
AcDbLine
 10
-411.20272879849188
 20
784.40382851150662
 30
0.0
 11
-311.32050807568811
 21
884.7633378308642
 31
0.0
  0
CIRCLE
  5
89
102
{ACAD_REACTORS
330
8A
102
}
100
AcDbEntity
  8
0
370
              -2
390
0
  6
Continuous
 62
               0
100
AcDbCircle
 10
-411.20272879849188
 20
784.40382851150662
 30
0.0
 40
1.9998779296875
  0
HATCH
  5
8A
100
AcDbEntity
  8
0
370
              -2
390
0
  6
Continuous
 62
               0
100
AcDbHatch
 10
0.0
 20
0.0
 30
0.0
210
0.0
220
0.0
230
1.0
  2
SOLID
 70
               1
 71
               1
 91
        1
 92
        1
 93
        1
 72
               2
 10
-411.20272879849188
 20
784.40382851150662
 40
1.9998779296875
 50
0.0
 51
360.0
 73
               0
 97
        1
330
89
 75
               0
 76
               1
 98
        1
 10
0.0
 20
0.0
  0
LINE
  5
8B
100
AcDbEntity
  8
0
370
              -2
390
0
  6
Continuous
 62
               0
100
AcDbLine
 10
-311.32050807568811
 20
884.7633378308642
 30
0.0
 11
-187.82050807568811
 21
884.7633378308642
 31
0.0
  0
MTEXT
  5
8C
100
AcDbEntity
  8
0
390
0
 62
               0
100
AcDbMText
 10
-251.32050807568811
 20
918.64095501836425
 30
0.0
 40
24.432617187500004
 41
0.0
 71
               1
 72
               1
  1
φ35
  7
ＭＳ ゴシック
 73
               1
 44
0.7828267384257843
  0
POINT
  5
8D
100
AcDbEntity
  8
Defpoints
370
               0
390
0
 62
               0
100
AcDbPoint
 10
-435.8924058524459
 20
759.59617148849338
 30
0.0
  0
POINT
  5
8E
100
AcDbEntity
  8
Defpoints
370
               0
390
0
 62
               0
100
AcDbPoint
 10
-411.20272879849188
 20
784.40382851150662
 30
0.0
  0
ENDBLK
  5
8F
100
AcDbEntity
  8
notes
390
0
100
AcDbBlockEnd
  0
BLOCK
  5
90
100
AcDbEntity
  8
notes
390
0
100
AcDbBlockBegin
  2
*D7
 70
               1
 10
0.0
 20
0.0
 30
0.0
  3
*D7
  1

  0
LINE
  5
91
100
AcDbEntity
  8
0
370
              -2
390
0
  6
Continuous
 62
               0
100
AcDbLine
 10
-673.54756732546889
 20
863.73648589726326
 30
0.0
 11
-673.54756732546889
 21
990.73648589726326
 31
0.0
  0
LINE
  5
92
100
AcDbEntity
  8
0
370
              -2
390
0
  6
Continuous
 62
               0
100
AcDbLine
 10
-173.5475673254698
 20
863.73648589726281
 30
0.0
 11
-173.5475673254698
 21
990.73648589726326
 31
0.0
  0
LINE
  5
93
100
AcDbEntity
  8
0
370
              -2
390
0
  6
Continuous
 62
               0
100
AcDbLine
 10
-673.54756732546889
 20
990.73648589726326
 30
0.0
 11
-173.5475673254698
 21
990.73648589726326
 31
0.0
  0
CIRCLE
  5
94
102
{ACAD_REACTORS
330
95
102
}
100
AcDbEntity
  8
0
370
              -2
390
0
  6
Continuous
 62
               0
100
AcDbCircle
 10
-673.54756732546889
 20
990.73648589726326
 30
0.0
 40
1.9998779296875
  0
HATCH
  5
95
100
AcDbEntity
  8
0
370
              -2
390
0
  6
Continuous
 62
               0
100
AcDbHatch
 10
0.0
 20
0.0
 30
0.0
210
0.0
220
0.0
230
1.0
  2
SOLID
 70
               1
 71
               1
 91
        1
 92
        1
 93
        1
 72
               2
 10
-673.54756732546889
 20
990.73648589726326
 40
1.9998779296875
 50
0.0
 51
360.0
 73
               0
 97
        1
330
94
 75
               0
 76
               1
 98
        1
 10
0.0
 20
0.0
  0
CIRCLE
  5
96
102
{ACAD_REACTORS
330
97
102
}
100
AcDbEntity
  8
0
370
              -2
390
0
  6
Continuous
 62
               0
100
AcDbCircle
 10
-173.5475673254698
 20
990.73648589726326
 30
0.0
 40
1.9998779296875
  0
HATCH
  5
97
100
AcDbEntity
  8
0
370
              -2
390
0
  6
Continuous
 62
               0
100
AcDbHatch
 10
0.0
 20
0.0
 30
0.0
210
0.0
220
0.0
230
1.0
  2
SOLID
 70
               1
 71
               1
 91
        1
 92
        1
 93
        1
 72
               2
 10
-173.5475673254698
 20
990.73648589726326
 40
1.9998779296875
 50
0.0
 51
360.0
 73
               0
 97
        1
330
96
 75
               0
 76
               1
 98
        1
 10
0.0
 20
0.0
  0
MTEXT
  5
98
100
AcDbEntity
  8
0
390
0
 62
               0
100
AcDbMText
 10
-447.36006900764488
 20
1024.6141030847634
 30
0.0
 40
24.432617187500004
 41
0.0
 71
               1
 72
               1
  1
500
  7
ＭＳ ゴシック
 73
               1
 44
0.7828267384257843
  0
POINT
  5
99
100
AcDbEntity
  8
Defpoints
370
               0
390
0
 62
               0
100
AcDbPoint
 10
-173.5475673254698
 20
838.73648589726281
 30
0.0
  0
POINT
  5
9A
100
AcDbEntity
  8
Defpoints
370
               0
390
0
 62
               0
100
AcDbPoint
 10
-673.54756732546889
 20
838.73648589726326
 30
0.0
  0
POINT
  5
9B
100
AcDbEntity
  8
Defpoints
370
               0
390
0
 62
               0
100
AcDbPoint
 10
-673.54756732546889
 20
990.73648589726326
 30
0.0
  0
ENDBLK
  5
9C
100
AcDbEntity
  8
notes
390
0
100
AcDbBlockEnd
  0
BLOCK
  5
9D
100
AcDbEntity
  8
notes
390
0
100
AcDbBlockBegin
  2
*D8
 70
               1
 10
0.0
 20
0.0
 30
0.0
  3
*D8
  1

  0
LINE
  5
9E
100
AcDbEntity
  8
0
370
              -2
390
0
  6
Continuous
 62
               0
100
AcDbLine
 10
-523.54756732546889
 20
818.23666216913648
 30
0.0
 11
-523.54756732546889
 21
940.73648589726326
 31
0.0
  0
LINE
  5
9F
100
AcDbEntity
  8
0
370
              -2
390
0
  6
Continuous
 62
               0
100
AcDbLine
 10
-423.54756732546889
 20
819.73666216913648
 30
0.0
 11
-423.54756732546889
 21
940.73648589726326
 31
0.0
  0
LINE
  5
A0
100
AcDbEntity
  8
0
370
              -2
390
0
  6
Continuous
 62
               0
100
AcDbLine
 10
-523.54756732546889
 20
940.73648589726326
 30
0.0
 11
-423.54756732546889
 21
940.73648589726326
 31
0.0
  0
CIRCLE
  5
A1
102
{ACAD_REACTORS
330
A2
102
}
100
AcDbEntity
  8
0
370
              -2
390
0
  6
Continuous
 62
               0
100
AcDbCircle
 10
-523.54756732546889
 20
940.73648589726326
 30
0.0
 40
1.9998779296875
  0
HATCH
  5
A2
100
AcDbEntity
  8
0
370
              -2
390
0
  6
Continuous
 62
               0
100
AcDbHatch
 10
0.0
 20
0.0
 30
0.0
210
0.0
220
0.0
230
1.0
  2
SOLID
 70
               1
 71
               1
 91
        1
 92
        1
 93
        1
 72
               2
 10
-523.54756732546889
 20
940.73648589726326
 40
1.9998779296875
 50
0.0
 51
360.0
 73
               0
 97
        1
330
A1
 75
               0
 76
               1
 98
        1
 10
0.0
 20
0.0
  0
CIRCLE
  5
A3
102
{ACAD_REACTORS
330
A4
102
}
100
AcDbEntity
  8
0
370
              -2
390
0
  6
Continuous
 62
               0
100
AcDbCircle
 10
-423.54756732546889
 20
940.73648589726326
 30
0.0
 40
1.9998779296875
  0
HATCH
  5
A4
100
AcDbEntity
  8
0
370
              -2
390
0
  6
Continuous
 62
               0
100
AcDbHatch
 10
0.0
 20
0.0
 30
0.0
210
0.0
220
0.0
230
1.0
  2
SOLID
 70
               1
 71
               1
 91
        1
 92
        1
 93
        1
 72
               2
 10
-423.54756732546889
 20
940.73648589726326
 40
1.9998779296875
 50
0.0
 51
360.0
 73
               0
 97
        1
330
A3
 75
               0
 76
               1
 98
        1
 10
0.0
 20
0.0
  0
MTEXT
  5
A5
100
AcDbEntity
  8
0
390
0
 62
               0
100
AcDbMText
 10
-497.36006900764443
 20
974.61410308476331
 30
0.0
 40
24.432617187500004
 41
0.0
 71
               1
 72
               1
  1
100
  7
ＭＳ ゴシック
 73
               1
 44
0.7828267384257843
  0
POINT
  5
A6
100
AcDbEntity
  8
Defpoints
370
               0
390
0
 62
               0
100
AcDbPoint
 10
-423.54756732546889
 20
794.73666216913648
 30
0.0
  0
POINT
  5
A7
100
AcDbEntity
  8
Defpoints
370
               0
390
0
 62
               0
100
AcDbPoint
 10
-523.54756732546889
 20
793.23666216913648
 30
0.0
  0
POINT
  5
A8
100
AcDbEntity
  8
Defpoints
370
               0
390
0
 62
               0
100
AcDbPoint
 10
-523.54756732546889
 20
940.73648589726326
 30
0.0
  0
ENDBLK
  5
A9
100
AcDbEntity
  8
notes
390
0
100
AcDbBlockEnd
  0
BLOCK
  5
AA
100
AcDbEntity
  8
notes
390
0
100
AcDbBlockBegin
  2
*D9
 70
               1
 10
0.0
 20
0.0
 30
0.0
  3
*D9
  1

  0
LINE
  5
AB
100
AcDbEntity
  8
0
370
              -2
390
0
  6
Continuous
 62
               0
100
AcDbLine
 10
-423.54756732546889
 20
819.73666216913648
 30
0.0
 11
-423.54756732546889
 21
940.73648589726326
 31
0.0
  0
LINE
  5
AC
100
AcDbEntity
  8
0
370
              -2
390
0
  6
Continuous
 62
               0
100
AcDbLine
 10
-323.54756732546889
 20
818.23666216913648
 30
0.0
 11
-323.54756732546889
 21
940.73648589726326
 31
0.0
  0
LINE
  5
AD
100
AcDbEntity
  8
0
370
              -2
390
0
  6
Continuous
 62
               0
100
AcDbLine
 10
-423.54756732546889
 20
940.73648589726326
 30
0.0
 11
-323.54756732546889
 21
940.73648589726326
 31
0.0
  0
CIRCLE
  5
AE
102
{ACAD_REACTORS
330
AF
102
}
100
AcDbEntity
  8
0
370
              -2
390
0
  6
Continuous
 62
               0
100
AcDbCircle
 10
-423.54756732546889
 20
940.73648589726326
 30
0.0
 40
1.9998779296875
  0
HATCH
  5
AF
100
AcDbEntity
  8
0
370
              -2
390
0
  6
Continuous
 62
               0
100
AcDbHatch
 10
0.0
 20
0.0
 30
0.0
210
0.0
220
0.0
230
1.0
  2
SOLID
 70
               1
 71
               1
 91
        1
 92
        1
 93
        1
 72
               2
 10
-423.54756732546889
 20
940.73648589726326
 40
1.9998779296875
 50
0.0
 51
360.0
 73
               0
 97
        1
330
AE
 75
               0
 76
               1
 98
        1
 10
0.0
 20
0.0
  0
CIRCLE
  5
B0
102
{ACAD_REACTORS
330
B1
102
}
100
AcDbEntity
  8
0
370
              -2
390
0
  6
Continuous
 62
               0
100
AcDbCircle
 10
-323.54756732546889
 20
940.73648589726326
 30
0.0
 40
1.9998779296875
  0
HATCH
  5
B1
100
AcDbEntity
  8
0
370
              -2
390
0
  6
Continuous
 62
               0
100
AcDbHatch
 10
0.0
 20
0.0
 30
0.0
210
0.0
220
0.0
230
1.0
  2
SOLID
 70
               1
 71
               1
 91
        1
 92
        1
 93
        1
 72
               2
 10
-323.54756732546889
 20
940.73648589726326
 40
1.9998779296875
 50
0.0
 51
360.0
 73
               0
 97
        1
330
B0
 75
               0
 76
               1
 98
        1
 10
0.0
 20
0.0
  0
MTEXT
  5
B2
100
AcDbEntity
  8
0
390
0
 62
               0
100
AcDbMText
 10
-397.36006900764443
 20
974.61410308476331
 30
0.0
 40
24.432617187500004
 41
0.0
 71
               1
 72
               1
  1
100
  7
ＭＳ ゴシック
 73
               1
 44
0.7828267384257843
  0
POINT
  5
B3
100
AcDbEntity
  8
Defpoints
370
               0
390
0
 62
               0
100
AcDbPoint
 10
-323.54756732546889
 20
793.23666216913648
 30
0.0
  0
POINT
  5
B4
100
AcDbEntity
  8
Defpoints
370
               0
390
0
 62
               0
100
AcDbPoint
 10
-423.54756732546889
 20
794.73666216913648
 30
0.0
  0
POINT
  5
B5
100
AcDbEntity
  8
Defpoints
370
               0
390
0
 62
               0
100
AcDbPoint
 10
-423.54756732546889
 20
940.73648589726326
 30
0.0
  0
ENDBLK
  5
B6
100
AcDbEntity
  8
notes
390
0
100
AcDbBlockEnd
  0
BLOCK
  5
B7
100
AcDbEntity
  8
notes
390
0
100
AcDbBlockBegin
  2
*D10
 70
               1
 10
0.0
 20
0.0
 30
0.0
  3
*D10
  1

  0
LINE
  5
B8
100
AcDbEntity
  8
0
370
              -2
390
0
  6
Continuous
 62
               0
100
AcDbLine
 10
-773.54785736672443
 20
579.92403346342542
 30
0.0
 11
-773.54785736672443
 21
1040.7364858972633
 31
0.0
  0
LINE
  5
B9
100
AcDbEntity
  8
0
370
              -2
390
0
  6
Continuous
 62
               0
100
AcDbLine
 10
-73.547857366725339
 20
579.92403346332935
 30
0.0
 11
-73.547857366725339
 21
1040.7364858972633
 31
0.0
  0
LINE
  5
BA
100
AcDbEntity
  8
0
370
              -2
390
0
  6
Continuous
 62
               0
100
AcDbLine
 10
-773.54785736672443
 20
1040.7364858972633
 30
0.0
 11
-73.547857366725339
 21
1040.7364858972633
 31
0.0
  0
CIRCLE
  5
BB
102
{ACAD_REACTORS
330
BC
102
}
100
AcDbEntity
  8
0
370
              -2
390
0
  6
Continuous
 62
               0
100
AcDbCircle
 10
-773.54785736672443
 20
1040.7364858972633
 30
0.0
 40
1.9998779296875
  0
HATCH
  5
BC
100
AcDbEntity
  8
0
370
              -2
390
0
  6
Continuous
 62
               0
100
AcDbHatch
 10
0.0
 20
0.0
 30
0.0
210
0.0
220
0.0
230
1.0
  2
SOLID
 70
               1
 71
               1
 91
        1
 92
        1
 93
        1
 72
               2
 10
-773.54785736672443
 20
1040.7364858972633
 40
1.9998779296875
 50
0.0
 51
360.0
 73
               0
 97
        1
330
BB
 75
               0
 76
               1
 98
        1
 10
0.0
 20
0.0
  0
CIRCLE
  5
BD
102
{ACAD_REACTORS
330
BE
102
}
100
AcDbEntity
  8
0
370
              -2
390
0
  6
Continuous
 62
               0
100
AcDbCircle
 10
-73.547857366725339
 20
1040.7364858972633
 30
0.0
 40
1.9998779296875
  0
HATCH
  5
BE
100
AcDbEntity
  8
0
370
              -2
390
0
  6
Continuous
 62
               0
100
AcDbHatch
 10
0.0
 20
0.0
 30
0.0
210
0.0
220
0.0
230
1.0
  2
SOLID
 70
               1
 71
               1
 91
        1
 92
        1
 93
        1
 72
               2
 10
-73.547857366725339
 20
1040.7364858972633
 40
1.9998779296875
 50
0.0
 51
360.0
 73
               0
 97
        1
330
BD
 75
               0
 76
               1
 98
        1
 10
0.0
 20
0.0
  0
MTEXT
  5
BF
100
AcDbEntity
  8
0
390
0
 62
               0
100
AcDbMText
 10
-447.36035904890042
 20
1074.6141030847634
 30
0.0
 40
24.432617187500004
 41
0.0
 71
               1
 72
               1
  1
700
  7
ＭＳ ゴシック
 73
               1
 44
0.7828267384257843
  0
POINT
  5
C0
100
AcDbEntity
  8
Defpoints
370
               0
390
0
 62
               0
100
AcDbPoint
 10
-73.547857366725339
 20
554.92403346332935
 30
0.0
  0
POINT
  5
C1
100
AcDbEntity
  8
Defpoints
370
               0
390
0
 62
               0
100
AcDbPoint
 10
-773.54785736672443
 20
554.92403346342542
 30
0.0
  0
POINT
  5
C2
100
AcDbEntity
  8
Defpoints
370
               0
390
0
 62
               0
100
AcDbPoint
 10
-773.54785736672443
 20
1040.7364858972633
 30
0.0
  0
ENDBLK
  5
C3
100
AcDbEntity
  8
notes
390
0
100
AcDbBlockEnd
  0
BLOCK
  5
C4
100
AcDbEntity
  8
notes
390
0
100
AcDbBlockBegin
  2
*D11
 70
               1
 10
0.0
 20
0.0
 30
0.0
  3
*D11
  1

  0
LINE
  5
C5
100
AcDbEntity
  8
0
370
              -2
390
0
  6
Continuous
 62
               0
100
AcDbLine
 10
-152.5475673254698
 20
842.73648589726281
 30
0.0
 11
26.452142633274661
 21
842.73648589726281
 31
0.0
  0
LINE
  5
C6
100
AcDbEntity
  8
0
370
              -2
390
0
  6
Continuous
 62
               0
100
AcDbLine
 10
-373.54785736672534
 20
342.73648589726258
 30
0.0
 11
26.452142633274661
 21
342.73648589726258
 31
0.0
  0
LINE
  5
C7
100
AcDbEntity
  8
0
370
              -2
390
0
  6
Continuous
 62
               0
100
AcDbLine
 10
26.452142633274661
 20
842.73648589726281
 30
0.0
 11
26.452142633274661
 21
342.73648589726258
 31
0.0
  0
CIRCLE
  5
C8
102
{ACAD_REACTORS
330
C9
102
}
100
AcDbEntity
  8
0
370
              -2
390
0
  6
Continuous
 62
               0
100
AcDbCircle
 10
26.452142633274661
 20
842.73648589726281
 30
0.0
 40
1.9998779296875
  0
HATCH
  5
C9
100
AcDbEntity
  8
0
370
              -2
390
0
  6
Continuous
 62
               0
100
AcDbHatch
 10
0.0
 20
0.0
 30
0.0
210
0.0
220
0.0
230
1.0
  2
SOLID
 70
               1
 71
               1
 91
        1
 92
        1
 93
        1
 72
               2
 10
26.452142633274661
 20
842.73648589726281
 40
1.9998779296875
 50
0.0
 51
360.0
 73
               0
 97
        1
330
C8
 75
               0
 76
               1
 98
        1
 10
0.0
 20
0.0
  0
CIRCLE
  5
CA
102
{ACAD_REACTORS
330
CB
102
}
100
AcDbEntity
  8
0
370
              -2
390
0
  6
Continuous
 62
               0
100
AcDbCircle
 10
26.452142633274661
 20
342.73648589726258
 30
0.0
 40
1.9998779296875
  0
HATCH
  5
CB
100
AcDbEntity
  8
0
370
              -2
390
0
  6
Continuous
 62
               0
100
AcDbHatch
 10
0.0
 20
0.0
 30
0.0
210
0.0
220
0.0
230
1.0
  2
SOLID
 70
               1
 71
               1
 91
        1
 92
        1
 93
        1
 72
               2
 10
26.452142633274661
 20
342.73648589726258
 40
1.9998779296875
 50
0.0
 51
360.0
 73
               0
 97
        1
330
CA
 75
               0
 76
               1
 98
        1
 10
0.0
 20
0.0
  0
MTEXT
  5
CC
100
AcDbEntity
  8
0
390
0
 62
               0
100
AcDbMText
 10
-7.425474554225346
 20
568.9239842150871
 30
0.0
 40
24.432617187500004
 41
0.0
 71
               1
 72
               1
  1
500
  7
ＭＳ ゴシック
 11
0.0
 21
1.0
 31
0.0
 73
               1
 44
0.7828267384257843
  0
POINT
  5
CD
100
AcDbEntity
  8
Defpoints
370
               0
390
0
 62
               0
100
AcDbPoint
 10
-398.54785736672534
 20
342.73648589726258
 30
0.0
  0
POINT
  5
CE
100
AcDbEntity
  8
Defpoints
370
               0
390
0
 62
               0
100
AcDbPoint
 10
-177.5475673254698
 20
842.73648589726281
 30
0.0
  0
POINT
  5
CF
100
AcDbEntity
  8
Defpoints
370
               0
390
0
 62
               0
100
AcDbPoint
 10
26.452142633274661
 20
842.73648589726281
 30
0.0
  0
ENDBLK
  5
D0
100
AcDbEntity
  8
notes
390
0
100
AcDbBlockEnd
  0
BLOCK
  5
D1
100
AcDbEntity
  8
notes
390
0
100
AcDbBlockBegin
  2
*D12
 70
               1
 10
0.0
 20
0.0
 30
0.0
  3
*D12
  1

  0
LINE
  5
D2
100
AcDbEntity
  8
0
370
              -2
390
0
  6
Continuous
 62
               0
100
AcDbLine
 10
-718.5475673254698
 20
413.0
 30
0.0
 11
-718.5475673254698
 21
242.73648589726258
 31
0.0
  0
LINE
  5
D3
100
AcDbEntity
  8
0
370
              -2
390
0
  6
Continuous
 62
               0
100
AcDbLine
 10
-128.5475673254698
 20
413.0
 30
0.0
 11
-128.5475673254698
 21
242.73648589726258
 31
0.0
  0
LINE
  5
D4
100
AcDbEntity
  8
0
370
              -2
390
0
  6
Continuous
 62
               0
100
AcDbLine
 10
-718.5475673254698
 20
242.73648589726258
 30
0.0
 11
-128.5475673254698
 21
242.73648589726258
 31
0.0
  0
CIRCLE
  5
D5
102
{ACAD_REACTORS
330
D6
102
}
100
AcDbEntity
  8
0
370
              -2
390
0
  6
Continuous
 62
               0
100
AcDbCircle
 10
-718.5475673254698
 20
242.73648589726258
 30
0.0
 40
1.9998779296875
  0
HATCH
  5
D6
100
AcDbEntity
  8
0
370
              -2
390
0
  6
Continuous
 62
               0
100
AcDbHatch
 10
0.0
 20
0.0
 30
0.0
210
0.0
220
0.0
230
1.0
  2
SOLID
 70
               1
 71
               1
 91
        1
 92
        1
 93
        1
 72
               2
 10
-718.5475673254698
 20
242.73648589726258
 40
1.9998779296875
 50
0.0
 51
360.0
 73
               0
 97
        1
330
D5
 75
               0
 76
               1
 98
        1
 10
0.0
 20
0.0
  0
CIRCLE
  5
D7
102
{ACAD_REACTORS
330
D8
102
}
100
AcDbEntity
  8
0
370
              -2
390
0
  6
Continuous
 62
               0
100
AcDbCircle
 10
-128.5475673254698
 20
242.73648589726258
 30
0.0
 40
1.9998779296875
  0
HATCH
  5
D8
100
AcDbEntity
  8
0
370
              -2
390
0
  6
Continuous
 62
               0
100
AcDbHatch
 10
0.0
 20
0.0
 30
0.0
210
0.0
220
0.0
230
1.0
  2
SOLID
 70
               1
 71
               1
 91
        1
 92
        1
 93
        1
 72
               2
 10
-128.5475673254698
 20
242.73648589726258
 40
1.9998779296875
 50
0.0
 51
360.0
 73
               0
 97
        1
330
D7
 75
               0
 76
               1
 98
        1
 10
0.0
 20
0.0
  0
MTEXT
  5
D9
100
AcDbEntity
  8
0
390
0
 62
               0
100
AcDbMText
 10
-447.36006900764534
 20
276.61410308476258
 30
0.0
 40
24.432617187500004
 41
0.0
 71
               1
 72
               1
  1
590
  7
ＭＳ ゴシック
 73
               1
 44
0.7828267384257843
  0
POINT
  5
DA
100
AcDbEntity
  8
Defpoints
370
               0
390
0
 62
               0
100
AcDbPoint
 10
-128.5475673254698
 20
438.0
 30
0.0
  0
POINT
  5
DB
100
AcDbEntity
  8
Defpoints
370
               0
390
0
 62
               0
100
AcDbPoint
 10
-718.5475673254698
 20
438.0
 30
0.0
  0
POINT
  5
DC
100
AcDbEntity
  8
Defpoints
370
               0
390
0
 62
               0
100
AcDbPoint
 10
-718.5475673254698
 20
242.73648589726258
 30
0.0
  0
ENDBLK
  5
DD
100
AcDbEntity
  8
notes
390
0
100
AcDbBlockEnd
  0
BLOCK
  5
DE
100
AcDbEntity
  8
notes
390
0
100
AcDbBlockBegin
  2
*D13
 70
               1
 10
0.0
 20
0.0
 30
0.0
  3
*D13
  1

  0
LINE
  5
DF
100
AcDbEntity
  8
0
370
              -2
390
0
  6
Continuous
 62
               0
100
AcDbLine
 10
-651.0
 20
382.73648589733534
 30
0.0
 11
-873.54785736672443
 21
382.73648589733534
 31
0.0
  0
LINE
  5
E0
100
AcDbEntity
  8
0
370
              -2
390
0
  6
Continuous
 62
               0
100
AcDbLine
 10
-473.54785736672534
 20
342.73648589726258
 30
0.0
 11
-873.54785736672443
 21
342.73648589726258
 31
0.0
  0
LINE
  5
E1
100
AcDbEntity
  8
0
370
              -2
390
0
  6
Continuous
 62
               0
100
AcDbLine
 10
-873.54785736672443
 20
382.73648589733534
 30
0.0
 11
-873.54785736672443
 21
342.73648589726258
 31
0.0
  0
CIRCLE
  5
E2
102
{ACAD_REACTORS
330
E3
102
}
100
AcDbEntity
  8
0
370
              -2
390
0
  6
Continuous
 62
               0
100
AcDbCircle
 10
-873.54785736672443
 20
382.73648589733534
 30
0.0
 40
1.9998779296875
  0
HATCH
  5
E3
100
AcDbEntity
  8
0
370
              -2
390
0
  6
Continuous
 62
               0
100
AcDbHatch
 10
0.0
 20
0.0
 30
0.0
210
0.0
220
0.0
230
1.0
  2
SOLID
 70
               1
 71
               1
 91
        1
 92
        1
 93
        1
 72
               2
 10
-873.54785736672443
 20
382.73648589733534
 40
1.9998779296875
 50
0.0
 51
360.0
 73
               0
 97
        1
330
E2
 75
               0
 76
               1
 98
        1
 10
0.0
 20
0.0
  0
CIRCLE
  5
E4
102
{ACAD_REACTORS
330
E5
102
}
100
AcDbEntity
  8
0
370
              -2
390
0
  6
Continuous
 62
               0
100
AcDbCircle
 10
-873.54785736672443
 20
342.73648589726258
 30
0.0
 40
1.9998779296875
  0
HATCH
  5
E5
100
AcDbEntity
  8
0
370
              -2
390
0
  6
Continuous
 62
               0
100
AcDbHatch
 10
0.0
 20
0.0
 30
0.0
210
0.0
220
0.0
230
1.0
  2
SOLID
 70
               1
 71
               1
 91
        1
 92
        1
 93
        1
 72
               2
 10
-873.54785736672443
 20
342.73648589726258
 40
1.9998779296875
 50
0.0
 51
360.0
 73
               0
 97
        1
330
E4
 75
               0
 76
               1
 98
        1
 10
0.0
 20
0.0
  0
MTEXT
  5
E6
100
AcDbEntity
  8
0
390
0
 62
               0
100
AcDbMText
 10
-907.42547455422448
 20
346.86148589729896
 30
0.0
 40
24.432617187500004
 41
0.0
 71
               1
 72
               1
  1
40
  7
ＭＳ ゴシック
 11
0.0
 21
1.0
 31
0.0
 73
               1
 44
0.7828267384257843
  0
POINT
  5
E7
100
AcDbEntity
  8
Defpoints
370
               0
390
0
 62
               0
100
AcDbPoint
 10
-448.54785736672534
 20
342.73648589726258
 30
0.0
  0
POINT
  5
E8
100
AcDbEntity
  8
Defpoints
370
               0
390
0
 62
               0
100
AcDbPoint
 10
-626.0
 20
382.73648589733534
 30
0.0
  0
POINT
  5
E9
100
AcDbEntity
  8
Defpoints
370
               0
390
0
 62
               0
100
AcDbPoint
 10
-873.54785736672443
 20
382.73648589733534
 30
0.0
  0
ENDBLK
  5
EA
100
AcDbEntity
  8
notes
390
0
100
AcDbBlockEnd
  0
BLOCK
  5
EB
100
AcDbEntity
  8
notes
390
0
100
AcDbBlockBegin
  2
*D14
 70
               1
 10
0.0
 20
0.0
 30
0.0
  3
*D14
  1

  0
LINE
  5
EC
100
AcDbEntity
  8
0
370
              -2
390
0
  6
Continuous
 62
               0
100
AcDbLine
 10
-651.0
 20
382.73648589733534
 30
0.0
 11
-873.54785736672443
 21
382.73648589733534
 31
0.0
  0
LINE
  5
ED
100
AcDbEntity
  8
0
370
              -2
390
0
  6
Continuous
 62
               0
100
AcDbLine
 10
-717.0
 20
712.73648589733534
 30
0.0
 11
-873.54785736672443
 21
712.73648589733534
 31
0.0
  0
LINE
  5
EE
100
AcDbEntity
  8
0
370
              -2
390
0
  6
Continuous
 62
               0
100
AcDbLine
 10
-873.54785736672443
 20
382.73648589733534
 30
0.0
 11
-873.54785736672443
 21
712.73648589733534
 31
0.0
  0
CIRCLE
  5
EF
102
{ACAD_REACTORS
330
F0
102
}
100
AcDbEntity
  8
0
370
              -2
390
0
  6
Continuous
 62
               0
100
AcDbCircle
 10
-873.54785736672443
 20
382.73648589733534
 30
0.0
 40
1.9998779296875
  0
HATCH
  5
F0
100
AcDbEntity
  8
0
370
              -2
390
0
  6
Continuous
 62
               0
100
AcDbHatch
 10
0.0
 20
0.0
 30
0.0
210
0.0
220
0.0
230
1.0
  2
SOLID
 70
               1
 71
               1
 91
        1
 92
        1
 93
        1
 72
               2
 10
-873.54785736672443
 20
382.73648589733534
 40
1.9998779296875
 50
0.0
 51
360.0
 73
               0
 97
        1
330
EF
 75
               0
 76
               1
 98
        1
 10
0.0
 20
0.0
  0
CIRCLE
  5
F1
102
{ACAD_REACTORS
330
F2
102
}
100
AcDbEntity
  8
0
370
              -2
390
0
  6
Continuous
 62
               0
100
AcDbCircle
 10
-873.54785736672443
 20
712.73648589733534
 30
0.0
 40
1.9998779296875
  0
HATCH
  5
F2
100
AcDbEntity
  8
0
370
              -2
390
0
  6
Continuous
 62
               0
100
AcDbHatch
 10
0.0
 20
0.0
 30
0.0
210
0.0
220
0.0
230
1.0
  2
SOLID
 70
               1
 71
               1
 91
        1
 92
        1
 93
        1
 72
               2
 10
-873.54785736672443
 20
712.73648589733534
 40
1.9998779296875
 50
0.0
 51
360.0
 73
               0
 97
        1
330
F1
 75
               0
 76
               1
 98
        1
 10
0.0
 20
0.0
  0
MTEXT
  5
F3
100
AcDbEntity
  8
0
390
0
 62
               0
100
AcDbMText
 10
-907.42547455422448
 20
523.92398421515986
 30
0.0
 40
24.432617187500004
 41
0.0
 71
               1
 72
               1
  1
330
  7
ＭＳ ゴシック
 11
0.0
 21
1.0
 31
0.0
 73
               1
 44
0.7828267384257843
  0
POINT
  5
F4
100
AcDbEntity
  8
Defpoints
370
               0
390
0
 62
               0
100
AcDbPoint
 10
-692.0
 20
712.73648589733534
 30
0.0
  0
POINT
  5
F5
100
AcDbEntity
  8
Defpoints
370
               0
390
0
 62
               0
100
AcDbPoint
 10
-626.0
 20
382.73648589733534
 30
0.0
  0
POINT
  5
F6
100
AcDbEntity
  8
Defpoints
370
               0
390
0
 62
               0
100
AcDbPoint
 10
-873.54785736672443
 20
382.73648589733534
 30
0.0
  0
ENDBLK
  5
F7
100
AcDbEntity
  8
notes
390
0
100
AcDbBlockEnd
  0
BLOCK
  5
F8
100
AcDbEntity
  8
notes
390
0
100
AcDbBlockBegin
  2
*D15
 70
               1
 10
0.0
 20
0.0
 30
0.0
  3
*D15
  1

  0
LINE
  5
F9
100
AcDbEntity
  8
0
370
              -2
390
0
  6
Continuous
 62
               0
100
AcDbLine
 10
-694.54756732546889
 20
842.73648589726326
 30
0.0
 11
-873.54785736672443
 21
842.73648589726326
 31
0.0
  0
LINE
  5
FA
100
AcDbEntity
  8
0
370
              -2
390
0
  6
Continuous
 62
               0
100
AcDbLine
 10
-721.0
 20
712.73648589726326
 30
0.0
 11
-873.54785736672443
 21
712.73648589726326
 31
0.0
  0
LINE
  5
FB
100
AcDbEntity
  8
0
370
              -2
390
0
  6
Continuous
 62
               0
100
AcDbLine
 10
-873.54785736672443
 20
842.73648589726326
 30
0.0
 11
-873.54785736672443
 21
712.73648589726326
 31
0.0
  0
CIRCLE
  5
FC
102
{ACAD_REACTORS
330
FD
102
}
100
AcDbEntity
  8
0
370
              -2
390
0
  6
Continuous
 62
               0
100
AcDbCircle
 10
-873.54785736672443
 20
842.73648589726326
 30
0.0
 40
1.9998779296875
  0
HATCH
  5
FD
100
AcDbEntity
  8
0
370
              -2
390
0
  6
Continuous
 62
               0
100
AcDbHatch
 10
0.0
 20
0.0
 30
0.0
210
0.0
220
0.0
230
1.0
  2
SOLID
 70
               1
 71
               1
 91
        1
 92
        1
 93
        1
 72
               2
 10
-873.54785736672443
 20
842.73648589726326
 40
1.9998779296875
 50
0.0
 51
360.0
 73
               0
 97
        1
330
FC
 75
               0
 76
               1
 98
        1
 10
0.0
 20
0.0
  0
CIRCLE
  5
FE
102
{ACAD_REACTORS
330
FF
102
}
100
AcDbEntity
  8
0
370
              -2
390
0
  6
Continuous
 62
               0
100
AcDbCircle
 10
-873.54785736672443
 20
712.73648589726326
 30
0.0
 40
1.9998779296875
  0
HATCH
  5
FF
100
AcDbEntity
  8
0
370
              -2
390
0
  6
Continuous
 62
               0
100
AcDbHatch
 10
0.0
 20
0.0
 30
0.0
210
0.0
220
0.0
230
1.0
  2
SOLID
 70
               1
 71
               1
 91
        1
 92
        1
 93
        1
 72
               2
 10
-873.54785736672443
 20
712.73648589726326
 40
1.9998779296875
 50
0.0
 51
360.0
 73
               0
 97
        1
330
FE
 75
               0
 76
               1
 98
        1
 10
0.0
 20
0.0
  0
MTEXT
  5
100
100
AcDbEntity
  8
0
390
0
 62
               0
100
AcDbMText
 10
-907.42547455422448
 20
753.92398421508778
 30
0.0
 40
24.432617187500004
 41
0.0
 71
               1
 72
               1
  1
130
  7
ＭＳ ゴシック
 11
0.0
 21
1.0
 31
0.0
 73
               1
 44
0.7828267384257843
  0
POINT
  5
101
100
AcDbEntity
  8
Defpoints
370
               0
390
0
 62
               0
100
AcDbPoint
 10
-696.0
 20
712.73648589726326
 30
0.0
  0
POINT
  5
102
100
AcDbEntity
  8
Defpoints
370
               0
390
0
 62
               0
100
AcDbPoint
 10
-669.54756732546889
 20
842.73648589726326
 30
0.0
  0
POINT
  5
103
100
AcDbEntity
  8
Defpoints
370
               0
390
0
 62
               0
100
AcDbPoint
 10
-873.54785736672443
 20
842.73648589726326
 30
0.0
  0
ENDBLK
  5
104
100
AcDbEntity
  8
notes
390
0
100
AcDbBlockEnd
  0
BLOCK
  5
105
100
AcDbEntity
  8
notes
390
0
100
AcDbBlockBegin
  2
*D16
 70
               1
 10
0.0
 20
0.0
 30
0.0
  3
*D16
  1

  0
LINE
  5
106
100
AcDbEntity
  8
0
370
              -2
390
0
  6
Continuous
 62
               0
100
AcDbLine
 10
710.0
 20
-347.16742024635425
 30
0.0
 11
710.0
 21
-272.16742024635425
 31
0.0
  0
LINE
  5
107
100
AcDbEntity
  8
0
370
              -2
390
0
  6
Continuous
 62
               0
100
AcDbLine
 10
780.0
 20
-347.13407080837129
 30
0.0
 11
780.0
 21
-272.16742024635425
 31
0.0
  0
LINE
  5
108
100
AcDbEntity
  8
0
370
              -2
390
0
  6
Continuous
 62
               0
100
AcDbLine
 10
710.0
 20
-272.16742024635425
 30
0.0
 11
780.0
 21
-272.16742024635425
 31
0.0
  0
CIRCLE
  5
109
102
{ACAD_REACTORS
330
10A
102
}
100
AcDbEntity
  8
0
370
              -2
390
0
  6
Continuous
 62
               0
100
AcDbCircle
 10
710.0
 20
-272.16742024635425
 30
0.0
 40
1.9998779296875
  0
HATCH
  5
10A
100
AcDbEntity
  8
0
370
              -2
390
0
  6
Continuous
 62
               0
100
AcDbHatch
 10
0.0
 20
0.0
 30
0.0
210
0.0
220
0.0
230
1.0
  2
SOLID
 70
               1
 71
               1
 91
        1
 92
        1
 93
        1
 72
               2
 10
710.0
 20
-272.16742024635425
 40
1.9998779296875
 50
0.0
 51
360.0
 73
               0
 97
        1
330
109
 75
               0
 76
               1
 98
        1
 10
0.0
 20
0.0
  0
CIRCLE
  5
10B
102
{ACAD_REACTORS
330
10C
102
}
100
AcDbEntity
  8
0
370
              -2
390
0
  6
Continuous
 62
               0
100
AcDbCircle
 10
780.0
 20
-272.16742024635425
 30
0.0
 40
1.9998779296875
  0
HATCH
  5
10C
100
AcDbEntity
  8
0
370
              -2
390
0
  6
Continuous
 62
               0
100
AcDbHatch
 10
0.0
 20
0.0
 30
0.0
210
0.0
220
0.0
230
1.0
  2
SOLID
 70
               1
 71
               1
 91
        1
 92
        1
 93
        1
 72
               2
 10
780.0
 20
-272.16742024635425
 40
1.9998779296875
 50
0.0
 51
360.0
 73
               0
 97
        1
330
10B
 75
               0
 76
               1
 98
        1
 10
0.0
 20
0.0
  0
MTEXT
  5
10D
100
AcDbEntity
  8
0
390
0
 62
               0
100
AcDbMText
 10
729.125
 20
-238.28980305885426
 30
0.0
 40
24.432617187500004
 41
0.0
 71
               1
 72
               1
  1
70
  7
ＭＳ ゴシック
 73
               1
 44
0.7828267384257843
  0
POINT
  5
10E
100
AcDbEntity
  8
Defpoints
370
               0
390
0
 62
               0
100
AcDbPoint
 10
780.0
 20
-372.13407080837129
 30
0.0
  0
POINT
  5
10F
100
AcDbEntity
  8
Defpoints
370
               0
390
0
 62
               0
100
AcDbPoint
 10
710.0
 20
-372.16742024635425
 30
0.0
  0
POINT
  5
110
100
AcDbEntity
  8
Defpoints
370
               0
390
0
 62
               0
100
AcDbPoint
 10
710.0
 20
-272.16742024635425
 30
0.0
  0
ENDBLK
  5
111
100
AcDbEntity
  8
notes
390
0
100
AcDbBlockEnd
  0
BLOCK
  5
112
100
AcDbEntity
  8
notes
390
0
100
AcDbBlockBegin
  2
*D17
 70
               1
 10
0.0
 20
0.0
 30
0.0
  3
*D17
  1

  0
LINE
  5
113
100
AcDbEntity
  8
0
370
              -2
390
0
  6
Continuous
 62
               0
100
AcDbLine
 10
-563.547567325469
 20
-367.19999999999999
 30
0.0
 11
-563.547567325469
 21
-229.89999999999998
 31
0.0
  0
LINE
  5
114
100
AcDbEntity
  8
0
370
              -2
390
0
  6
Continuous
 62
               0
100
AcDbLine
 10
-283.547567325469
 20
-367.19999999999999
 30
0.0
 11
-283.547567325469
 21
-229.89999999999998
 31
0.0
  0
LINE
  5
115
100
AcDbEntity
  8
0
370
              -2
390
0
  6
Continuous
 62
               0
100
AcDbLine
 10
-563.547567325469
 20
-229.89999999999998
 30
0.0
 11
-283.547567325469
 21
-229.89999999999998
 31
0.0
  0
CIRCLE
  5
116
102
{ACAD_REACTORS
330
117
102
}
100
AcDbEntity
  8
0
370
              -2
390
0
  6
Continuous
 62
               0
100
AcDbCircle
 10
-563.547567325469
 20
-229.89999999999998
 30
0.0
 40
1.9998779296875
  0
HATCH
  5
117
100
AcDbEntity
  8
0
370
              -2
390
0
  6
Continuous
 62
               0
100
AcDbHatch
 10
0.0
 20
0.0
 30
0.0
210
0.0
220
0.0
230
1.0
  2
SOLID
 70
               1
 71
               1
 91
        1
 92
        1
 93
        1
 72
               2
 10
-563.547567325469
 20
-229.89999999999998
 40
1.9998779296875
 50
0.0
 51
360.0
 73
               0
 97
        1
330
116
 75
               0
 76
               1
 98
        1
 10
0.0
 20
0.0
  0
CIRCLE
  5
118
102
{ACAD_REACTORS
330
119
102
}
100
AcDbEntity
  8
0
370
              -2
390
0
  6
Continuous
 62
               0
100
AcDbCircle
 10
-283.547567325469
 20
-229.89999999999998
 30
0.0
 40
1.9998779296875
  0
HATCH
  5
119
100
AcDbEntity
  8
0
370
              -2
390
0
  6
Continuous
 62
               0
100
AcDbHatch
 10
0.0
 20
0.0
 30
0.0
210
0.0
220
0.0
230
1.0
  2
SOLID
 70
               1
 71
               1
 91
        1
 92
        1
 93
        1
 72
               2
 10
-283.547567325469
 20
-229.89999999999998
 40
1.9998779296875
 50
0.0
 51
360.0
 73
               0
 97
        1
330
118
 75
               0
 76
               1
 98
        1
 10
0.0
 20
0.0
  0
MTEXT
  5
11A
100
AcDbEntity
  8
0
390
0
 62
               0
100
AcDbMText
 10
-447.36006900764454
 20
-196.02238281249998
 30
0.0
 40
24.432617187500004
 41
0.0
 71
               1
 72
               1
  1
280
  7
ＭＳ ゴシック
 73
               1
 44
0.7828267384257843
  0
POINT
  5
11B
100
AcDbEntity
  8
Defpoints
370
               0
390
0
 62
               0
100
AcDbPoint
 10
-283.547567325469
 20
-392.19999999999999
 30
0.0
  0
POINT
  5
11C
100
AcDbEntity
  8
Defpoints
370
               0
390
0
 62
               0
100
AcDbPoint
 10
-563.547567325469
 20
-392.19999999999999
 30
0.0
  0
POINT
  5
11D
100
AcDbEntity
  8
Defpoints
370
               0
390
0
 62
               0
100
AcDbPoint
 10
-563.547567325469
 20
-229.89999999999998
 30
0.0
  0
ENDBLK
  5
11E
100
AcDbEntity
  8
notes
390
0
100
AcDbBlockEnd
  0
BLOCK
  5
11F
100
AcDbEntity
  8
notes
390
0
100
AcDbBlockBegin
  2
*D18
 70
               1
 10
0.0
 20
0.0
 30
0.0
  3
*D18
  1

  0
LINE
  5
120
100
AcDbEntity
  8
0
370
              -2
390
0
  6
Continuous
 62
               0
100
AcDbLine
 10
805.0
 20
-372.13407080837129
 30
0.0
 11
880.0
 21
-372.13407080837129
 31
0.0
  0
LINE
  5
121
100
AcDbEntity
  8
0
370
              -2
390
0
  6
Continuous
 62
               0
100
AcDbLine
 10
805.0
 20
-652.13407080837123
 30
0.0
 11
880.0
 21
-652.13407080837123
 31
0.0
  0
LINE
  5
122
100
AcDbEntity
  8
0
370
              -2
390
0
  6
Continuous
 62
               0
100
AcDbLine
 10
880.0
 20
-372.13407080837129
 30
0.0
 11
880.0
 21
-652.13407080837123
 31
0.0
  0
CIRCLE
  5
123
102
{ACAD_REACTORS
330
124
102
}
100
AcDbEntity
  8
0
370
              -2
390
0
  6
Continuous
 62
               0
100
AcDbCircle
 10
880.0
 20
-372.13407080837129
 30
0.0
 40
1.9998779296875
  0
HATCH
  5
124
100
AcDbEntity
  8
0
370
              -2
390
0
  6
Continuous
 62
               0
100
AcDbHatch
 10
0.0
 20
0.0
 30
0.0
210
0.0
220
0.0
230
1.0
  2
SOLID
 70
               1
 71
               1
 91
        1
 92
        1
 93
        1
 72
               2
 10
880.0
 20
-372.13407080837129
 40
1.9998779296875
 50
0.0
 51
360.0
 73
               0
 97
        1
330
123
 75
               0
 76
               1
 98
        1
 10
0.0
 20
0.0
  0
CIRCLE
  5
125
102
{ACAD_REACTORS
330
126
102
}
100
AcDbEntity
  8
0
370
              -2
390
0
  6
Continuous
 62
               0
100
AcDbCircle
 10
880.0
 20
-652.13407080837123
 30
0.0
 40
1.9998779296875
  0
HATCH
  5
126
100
AcDbEntity
  8
0
370
              -2
390
0
  6
Continuous
 62
               0
100
AcDbHatch
 10
0.0
 20
0.0
 30
0.0
210
0.0
220
0.0
230
1.0
  2
SOLID
 70
               1
 71
               1
 91
        1
 92
        1
 93
        1
 72
               2
 10
880.0
 20
-652.13407080837123
 40
1.9998779296875
 50
0.0
 51
360.0
 73
               0
 97
        1
330
125
 75
               0
 76
               1
 98
        1
 10
0.0
 20
0.0
  0
MTEXT
  5
127
100
AcDbEntity
  8
0
390
0
 62
               0
100
AcDbMText
 10
846.12238281249995
 20
-535.94657249054671
 30
0.0
 40
24.432617187500004
 41
0.0
 71
               1
 72
               1
  1
280
  7
ＭＳ ゴシック
 11
0.0
 21
1.0
 31
0.0
 73
               1
 44
0.7828267384257843
  0
POINT
  5
128
100
AcDbEntity
  8
Defpoints
370
               0
390
0
 62
               0
100
AcDbPoint
 10
780.0
 20
-652.13407080837123
 30
0.0
  0
POINT
  5
129
100
AcDbEntity
  8
Defpoints
370
               0
390
0
 62
               0
100
AcDbPoint
 10
780.0
 20
-372.13407080837129
 30
0.0
  0
POINT
  5
12A
100
AcDbEntity
  8
Defpoints
370
               0
390
0
 62
               0
100
AcDbPoint
 10
880.0
 20
-372.13407080837129
 30
0.0
  0
ENDBLK
  5
12B
100
AcDbEntity
  8
notes
390
0
100
AcDbBlockEnd
  0
BLOCK
  5
12C
100
AcDbEntity
  8
notes
390
0
100
AcDbBlockBegin
  2
*D19
 70
               1
 10
0.0
 20
0.0
 30
0.0
  3
*D19
  1

  0
LINE
  5
12D
100
AcDbEntity
  8
0
370
              -2
390
0
  6
Continuous
 62
               0
100
AcDbLine
 10
545.04235104790268
 20
-622.16742024635425
 30
0.0
 11
545.04235104790268
 21
-822.13407080837123
 31
0.0
  0
LINE
  5
12E
100
AcDbEntity
  8
0
370
              -2
390
0
  6
Continuous
 62
               0
100
AcDbLine
 10
780.0
 20
-677.13407080837123
 30
0.0
 11
780.0
 21
-822.13407080837123
 31
0.0
  0
LINE
  5
12F
100
AcDbEntity
  8
0
370
              -2
390
0
  6
Continuous
 62
               0
100
AcDbLine
 10
545.04235104790268
 20
-822.13407080837123
 30
0.0
 11
780.0
 21
-822.13407080837123
 31
0.0
  0
CIRCLE
  5
130
102
{ACAD_REACTORS
330
131
102
}
100
AcDbEntity
  8
0
370
              -2
390
0
  6
Continuous
 62
               0
100
AcDbCircle
 10
545.04235104790268
 20
-822.13407080837123
 30
0.0
 40
1.9998779296875
  0
HATCH
  5
131
100
AcDbEntity
  8
0
370
              -2
390
0
  6
Continuous
 62
               0
100
AcDbHatch
 10
0.0
 20
0.0
 30
0.0
210
0.0
220
0.0
230
1.0
  2
SOLID
 70
               1
 71
               1
 91
        1
 92
        1
 93
        1
 72
               2
 10
545.04235104790268
 20
-822.13407080837123
 40
1.9998779296875
 50
0.0
 51
360.0
 73
               0
 97
        1
330
130
 75
               0
 76
               1
 98
        1
 10
0.0
 20
0.0
  0
CIRCLE
  5
132
102
{ACAD_REACTORS
330
133
102
}
100
AcDbEntity
  8
0
370
              -2
390
0
  6
Continuous
 62
               0
100
AcDbCircle
 10
780.0
 20
-822.13407080837123
 30
0.0
 40
1.9998779296875
  0
HATCH
  5
133
100
AcDbEntity
  8
0
370
              -2
390
0
  6
Continuous
 62
               0
100
AcDbHatch
 10
0.0
 20
0.0
 30
0.0
210
0.0
220
0.0
230
1.0
  2
SOLID
 70
               1
 71
               1
 91
        1
 92
        1
 93
        1
 72
               2
 10
780.0
 20
-822.13407080837123
 40
1.9998779296875
 50
0.0
 51
360.0
 73
               0
 97
        1
330
132
 75
               0
 76
               1
 98
        1
 10
0.0
 20
0.0
  0
MTEXT
  5
134
100
AcDbEntity
  8
0
390
0
 62
               0
100
AcDbMText
 10
638.70867384177586
 20
-788.25645362087118
 30
0.0
 40
24.432617187500004
 41
0.0
 71
               1
 72
               1
  1
235
  7
ＭＳ ゴシック
 73
               1
 44
0.7828267384257843
  0
POINT
  5
135
100
AcDbEntity
  8
Defpoints
370
               0
390
0
 62
               0
100
AcDbPoint
 10
780.0
 20
-652.13407080837123
 30
0.0
  0
POINT
  5
136
100
AcDbEntity
  8
Defpoints
370
               0
390
0
 62
               0
100
AcDbPoint
 10
545.04235104790268
 20
-597.16742024635425
 30
0.0
  0
POINT
  5
137
100
AcDbEntity
  8
Defpoints
370
               0
390
0
 62
               0
100
AcDbPoint
 10
545.04235104790268
 20
-822.13407080837123
 30
0.0
  0
ENDBLK
  5
138
100
AcDbEntity
  8
notes
390
0
100
AcDbBlockEnd
  0
BLOCK
  5
139
100
AcDbEntity
  8
notes
390
0
100
AcDbBlockBegin
  2
*D20
 70
               1
 10
0.0
 20
0.0
 30
0.0
  3
*D20
  1

  0
LINE
  5
13A
100
AcDbEntity
  8
0
370
              -2
390
0
  6
Continuous
 62
               0
100
AcDbLine
 10
-638.20890841598111
 20
-412.16742024635425
 30
0.0
 11
-845.1089084159812
 21
-412.16742024635425
 31
0.0
  0
LINE
  5
13B
100
AcDbEntity
  8
0
370
              -2
390
0
  6
Continuous
 62
               0
100
AcDbLine
 10
-798.24474327930363
 20
-372.1674202463542
 30
0.0
 11
-845.1089084159812
 21
-372.1674202463542
 31
0.0
  0
LINE
  5
13C
100
AcDbEntity
  8
0
370
              -2
390
0
  6
Continuous
 62
               0
100
AcDbLine
 10
-845.1089084159812
 20
-412.16742024635425
 30
0.0
 11
-845.1089084159812
 21
-372.1674202463542
 31
0.0
  0
CIRCLE
  5
13D
102
{ACAD_REACTORS
330
13E
102
}
100
AcDbEntity
  8
0
370
              -2
390
0
  6
Continuous
 62
               0
100
AcDbCircle
 10
-845.1089084159812
 20
-412.16742024635425
 30
0.0
 40
1.9998779296875
  0
HATCH
  5
13E
100
AcDbEntity
  8
0
370
              -2
390
0
  6
Continuous
 62
               0
100
AcDbHatch
 10
0.0
 20
0.0
 30
0.0
210
0.0
220
0.0
230
1.0
  2
SOLID
 70
               1
 71
               1
 91
        1
 92
        1
 93
        1
 72
               2
 10
-845.1089084159812
 20
-412.16742024635425
 40
1.9998779296875
 50
0.0
 51
360.0
 73
               0
 97
        1
330
13D
 75
               0
 76
               1
 98
        1
 10
0.0
 20
0.0
  0
CIRCLE
  5
13F
102
{ACAD_REACTORS
330
140
102
}
100
AcDbEntity
  8
0
370
              -2
390
0
  6
Continuous
 62
               0
100
AcDbCircle
 10
-845.1089084159812
 20
-372.1674202463542
 30
0.0
 40
1.9998779296875
  0
HATCH
  5
140
100
AcDbEntity
  8
0
370
              -2
390
0
  6
Continuous
 62
               0
100
AcDbHatch
 10
0.0
 20
0.0
 30
0.0
210
0.0
220
0.0
230
1.0
  2
SOLID
 70
               1
 71
               1
 91
        1
 92
        1
 93
        1
 72
               2
 10
-845.1089084159812
 20
-372.1674202463542
 40
1.9998779296875
 50
0.0
 51
360.0
 73
               0
 97
        1
330
13F
 75
               0
 76
               1
 98
        1
 10
0.0
 20
0.0
  0
MTEXT
  5
141
100
AcDbEntity
  8
0
390
0
 62
               0
100
AcDbMText
 10
-878.98652560348125
 20
-408.04242024635425
 30
0.0
 40
24.432617187500004
 41
0.0
 71
               1
 72
               1
  1
40
  7
ＭＳ ゴシック
 11
0.0
 21
1.0
 31
0.0
 73
               1
 44
0.7828267384257843
  0
POINT
  5
142
100
AcDbEntity
  8
Defpoints
370
               0
390
0
 62
               0
100
AcDbPoint
 10
-773.24474327930363
 20
-372.1674202463542
 30
0.0
  0
POINT
  5
143
100
AcDbEntity
  8
Defpoints
370
               0
390
0
 62
               0
100
AcDbPoint
 10
-613.20890841598111
 20
-412.16742024635425
 30
0.0
  0
POINT
  5
144
100
AcDbEntity
  8
Defpoints
370
               0
390
0
 62
               0
100
AcDbPoint
 10
-845.1089084159812
 20
-412.16742024635425
 30
0.0
  0
ENDBLK
  5
145
100
AcDbEntity
  8
notes
390
0
100
AcDbBlockEnd
  0
ENDSEC
  0
SECTION
  2
ENTITIES
  0
MTEXT
  5
146
100
AcDbEntity
  8
template
390
0
 62
               7
100
AcDbMText
 10
-967.99999999975921
 20
-1147.4176292337004
 30
0.0
 40
16.288411458333332
 41
0.0
 71
               1
 72
               1
  1
品名
  7
ＭＳ ゴシック
 73
               1
 44
0.7828267384257843
  0
MTEXT
  5
147
100
AcDbEntity
  8
template
390
0
 62
               7
100
AcDbMText
 10
-967.99999999975921
 20
-1232.4176292337004
 30
0.0
 40
16.288411458333332
 41
0.0
 71
               1
 72
               1
  1
仕様
  7
ＭＳ ゴシック
 73
               1
 44
0.7828267384257843
  0
MTEXT
  5
148
100
AcDbEntity
  8
template
390
0
 62
               7
100
AcDbMText
 10
-914.99999999975921
 20
-1176.0000901712006
 30
0.0
 40
24.432617187500004
 41
0.0
 71
               1
 72
               1
  1
洗面器 -CATALANO,Zero-
  7
ＭＳ ゴシック
 73
               1
 44
0.7828267384257843
  0
LINE
  5
149
100
AcDbEntity
  8
template
370
               5
390
0
  6
Continuous
 62
               7
100
AcDbLine
 10
974.99999999975876
 20
-1224.0027073587005
 30
0.0
 11
-975.00000000024124
 21
-1224.0027073587005
 31
0.0
  0
LWPOLYLINE
  5
14A
100
AcDbEntity
  8
template
370
               5
390
0
  6
Continuous
 62
               7
100
AcDbPolyline
 90
        5
 70
             128
 10
975.00000000024124
 20
1405.9972926412995
 10
-974.99999999975921
 20
1405.9972926412995
 10
-974.99999999975921
 20
-1394.0027073587005
 10
975.00000000024124
 20
-1394.0027073587005
 10
975.00000000024124
 20
1405.9972926412995
  0
LINE
  5
14B
100
AcDbEntity
  8
template
370
               5
390
0
  6
Continuous
 62
               7
100
AcDbLine
 10
974.99999999975876
 20
-1139.0027073587005
 30
0.0
 11
-975.00000000024124
 21
-1139.0027073587005
 31
0.0
  0
LINE
  5
14C
100
AcDbEntity
  8
template
370
               5
390
0
  6
Continuous
 62
               7
100
AcDbLine
 10
975.00000000024124
 20
-1309.0027073587005
 30
0.0
 11
222.00000000024124
 21
-1309.0027073587005
 31
0.0
  0
MTEXT
  5
14D
100
AcDbEntity
  8
template
390
0
 62
               7
100
AcDbMText
 10
-974.99999999955594
 20
-1405.8565294155574
 30
0.0
 40
21.717881944444446
 41
0.0
 71
               1
 72
               1
  1
100707SH
  7
ＭＳ ゴシック
 73
               1
 44
0.7828267384257843
  0
MTEXT
  5
14E
100
AcDbEntity
  8
template
390
0
 62
               7
100
AcDbMText
 10
251.87140625250089
 20
-1338.9131018320081
 30
0.0
 40
24.432617187500004
 41
0.0
 71
               1
 72
               1
  1
大洋金物株式会社 ティーフォルム事業部
  7
ＭＳ ゴシック
 73
               1
 44
0.7828267384257843
  0
INSERT
  5
14F
100
AcDbEntity
  8
template
390
0
 62
               7
100
AcDbBlockReference
  2
グループ
 10
-3.0000000000002274
 20
66.999999999999545
 30
0.0
  0
MTEXT
  5
150
100
AcDbEntity
  8
template
390
0
 62
               7
100
AcDbMText
 10
784.00000000049999
 20
-1261.0000901712006
 30
0.0
 40
24.432617187500004
 41
0.0
 71
               1
 72
               1
  1
1:10
  7
ＭＳ ゴシック
 73
               1
 44
0.7828267384257843
  0
MTEXT
  5
151
100
AcDbEntity
  8
template
390
0
 62
               7
100
AcDbMText
 10
731.00000000049999
 20
-1232.4176292337004
 30
0.0
 40
16.288411458333332
 41
0.0
 71
               1
 72
               1
  1
縮尺
  7
ＭＳ ゴシック
 73
               1
 44
0.7828267384257843
  0
LINE
  5
152
100
AcDbEntity
  8
template
370
               5
390
0
  6
Continuous
 62
               7
100
AcDbLine
 10
724.00000000049999
 20
-1309.0027073587005
 30
0.0
 11
724.00000000049999
 21
-1224.0027073587005
 31
0.0
  0
MTEXT
  5
153
100
AcDbEntity
  8
template
390
0
 62
               7
100
AcDbMText
 10
480.00000000049999
 20
-1232.4176292337004
 30
0.0
 40
16.288411458333332
 41
0.0
 71
               1
 72
               1
  1
容量
  7
ＭＳ ゴシック
 73
               1
 44
0.7828267384257843
  0
MTEXT
  5
154
100
AcDbEntity
  8
template
390
0
 62
               7
100
AcDbMText
 10
533.00000000049999
 20
-1261.0000901712006
 30
0.0
 40
24.432617187500004
 41
0.0
 71
               1
 72
               1
  1
12.5L
  7
ＭＳ ゴシック
 73
               1
 44
0.7828267384257843
  0
LINE
  5
155
100
AcDbEntity
  8
template
370
               5
390
0
  6
Continuous
 62
               7
100
AcDbLine
 10
473.00000000049999
 20
-1309.0027073587005
 30
0.0
 11
473.00000000049999
 21
-1224.0027073587005
 31
0.0
  0
MTEXT
  5
156
100
AcDbEntity
  8
template
390
0
 62
               7
100
AcDbMText
 10
229.00000000049999
 20
-1147.4176292337004
 30
0.0
 40
16.288411458333332
 41
0.0
 71
               1
 72
               1
  1
品番
  7
ＭＳ ゴシック
 73
               1
 44
0.7828267384257843
  0
MTEXT
  5
157
100
AcDbEntity
  8
template
390
0
 62
               7
100
AcDbMText
 10
229.00000000049999
 20
-1232.4176292337004
 30
0.0
 40
16.288411458333332
 41
0.0
 71
               1
 72
               1
  1
重量
  7
ＭＳ ゴシック
 73
               1
 44
0.7828267384257843
  0
MTEXT
  5
158
100
AcDbEntity
  8
template
390
0
 62
               7
100
AcDbMText
 10
282.00000000049999
 20
-1176.0000901712006
 30
0.0
 40
24.432617187500004
 41
0.0
 71
               1
 72
               1
  1
ADF70-0106
  7
ＭＳ ゴシック
 73
               1
 44
0.7828267384257843
  0
MTEXT
  5
159
100
AcDbEntity
  8
template
390
0
 62
               7
100
AcDbMText
 10
282.00000000049999
 20
-1261.0000901712006
 30
0.0
 40
24.432617187500004
 41
0.0
 71
               1
 72
               1
  1
29kg
  7
ＭＳ ゴシック
 73
               1
 44
0.7828267384257843
  0
LINE
  5
15A
100
AcDbEntity
  8
template
370
               5
390
0
  6
Continuous
 62
               7
100
AcDbLine
 10
222.00000000049999
 20
-1394.0027073587005
 30
0.0
 11
222.00000000049999
 21
-1139.0027073587005
 31
0.0
  0
MTEXT
  5
15B
100
AcDbEntity
  8
template
390
0
 62
               7
100
AcDbMText
 10
-914.99999999975921
 20
-1261.0000901712006
 30
0.0
 40
24.432617187500004
 41
0.0
 71
               1
 72
               1
  1
壁掛け/オーバーフロー付き/壁取付ボルト付属/\P陶器/ホワイト
  7
ＭＳ ゴシック
 73
               1
 44
1.3047112307096407
  0
MTEXT
  5
15C
100
AcDbEntity
  8
notes
390
0
 62
               7
100
AcDbMText
 10
-794.03870705782026
 20
190.46736567478808
 30
0.0
 40
24.432617187500004
 41
834.03870705782026
 71
               1
 72
               1
  1
＝φ30もしくはφ35の水栓取付用穴あけ加工を承ります。\P   必要な場合、ご注文の際にご指示ください。
  7
ＭＳ ゴシック
 73
               1
 44
1.0437689845677123
  0
MTEXT
  5
15D
100
AcDbEntity
  8
notes
390
0
 62
               7
100
AcDbMText
 10
-217.02978611443203
 20
-295.83689340060585
 30
0.0
 40
24.432617187500004
 41
0.0
 71
               1
 72
               1
  1
壁取付ボルト穴(2ヶ所)
  7
ＭＳ ゴシック
 73
               1
 44
0.7828267384257843
  0
LINE
  5
15E
100
AcDbEntity
  8
notes
370
               5
390
0
  6
Continuous
 62
               7
100
AcDbLine
 10
-283.547567325469
 20
-412.14675240676939
 30
0.0
 11
-193.30675023806165
 21
-331.14912850641923
 31
0.0
  0
DIMENSION
  5
15F
100
AcDbEntity
  8
notes
370
               5
390
0
  6
Continuous
 62
               7
100
AcDbDimension
  2
*D3
 10
26.755256720696366
 20
-372.1674202463542
 30
0.0
 11
26.755256720696366
 21
-547.16780265219245
 31
0.0
 71
               5
 72
               1
 41
1.0
 42
0.0
  3
tfrom線あり
100
AcDbAlignedDimension
 13
-217.73353425092625
 23
-722.16818505803076
 33
0.0
 14
-73.247567325469674
 24
-372.1674202463542
 34
0.0
 50
90.0
100
AcDbRotatedDimension
1001
ACAD
1000
DSTYLE
1002
{
1070
             279
1070
               2
1070
             340
1005
36
1070
             147
1040
5.0
1002
}
  0
DIMENSION
  5
160
100
AcDbEntity
  8
notes
370
               5
390
0
  6
Continuous
 62
               7
100
AcDbDimension
  2
*D4
 10
183.34581429207697
 20
-372.16742024635425
 30
0.0
 11
183.34581429207697
 21
-484.66742024635425
 31
0.0
 71
               5
 72
               1
 41
1.0
 42
0.0
  3
tfrom線あり
100
AcDbAlignedDimension
 13
523.04235104790223
 23
-597.16742024635425
 33
0.0
 14
283.34581429207697
 24
-372.16742024635425
 34
0.0
 50
90.0
100
AcDbRotatedDimension
1001
ACAD
1000
DSTYLE
1002
{
1070
             279
1070
               2
1070
             340
1005
36
1070
             147
1040
5.0
1002
}
  0
DIMENSION
  5
161
100
AcDbEntity
  8
notes
370
               5
390
0
  6
Continuous
 62
               7
100
AcDbDimension
  2
*D5
 10
548.5804404317073
 20
-372.16742024635425
 30
0.0
 11
553.5804404317073
 21
-339.47496125349176
 31
0.0
 70
             128
 71
               5
 72
               1
 41
1.0
 42
0.0
  3
tfrom線あり
100
AcDbAlignedDimension
 13
546.4554404317073
 23
-552.16742024635425
 33
0.0
 14
546.4554404317073
 24
-372.16742024635425
 34
0.0
 50
90.0
100
AcDbRotatedDimension
1001
ACAD
1000
DSTYLE
1002
{
1070
             279
1070
               2
1070
             340
1005
36
1070
               3
1000
<>(深さ)
1070
             174
1070
               0
1070
             147
1040
5.0
1002
}
  0
DIMENSION
  5
162
100
AcDbEntity
  8
notes
370
               5
390
0
  6
Continuous
 62
               7
100
AcDbDimension
  2
*D6
 10
-435.8924058524459
 20
759.59617148849338
 30
0.0
 11
-251.32050807568794
 21
884.76333783086409
 31
0.0
 70
               3
 71
               5
 72
               1
 41
1.0
 42
0.0
  3
tfrom線あり
100
AcDbDiametricDimension
 15
-411.20272879849188
 25
784.40382851150662
 35
0.0
 40
141.59268740772282
1001
ACAD
1000
DSTYLE
1002
{
1070
             289
1070
               0
1070
             342
1005
49
1070
             340
1005
36
1070
              73
1070
               1
1070
              74
1070
               1
1070
              75
1070
               1
1070
              76
1070
               1
1070
               3
1000

1070
             174
1070
               0
1070
             147
1040
5.0
1002
}
  0
DIMENSION
  5
163
100
AcDbEntity
  8
notes
370
               5
390
0
  6
Continuous
 62
               7
100
AcDbDimension
  2
*D7
 10
-673.54756732546889
 20
990.73648589726326
 30
0.0
 11
-423.54756732546934
 21
990.73648589726326
 31
0.0
 71
               5
 72
               1
 41
1.0
 42
0.0
  3
tfrom線あり
100
AcDbAlignedDimension
 13
-173.5475673254698
 23
838.73648589726281
 33
0.0
 14
-673.54756732546889
 24
838.73648589726326
 34
0.0
100
AcDbRotatedDimension
1001
ACAD
1000
DSTYLE
1002
{
1070
             279
1070
               2
1070
             340
1005
36
1070
             147
1040
5.0
1002
}
  0
DIMENSION
  5
164
100
AcDbEntity
  8
notes
370
               5
390
0
  6
Continuous
 62
               7
100
AcDbDimension
  2
*D8
 10
-523.54756732546889
 20
940.73648589726326
 30
0.0
 11
-473.54756732546889
 21
940.73648589726326
 31
0.0
 71
               5
 72
               1
 41
1.0
 42
0.0
  3
tfrom線あり
100
AcDbAlignedDimension
 13
-423.54756732546889
 23
794.73666216913648
 33
0.0
 14
-523.54756732546889
 24
793.23666216913648
 34
0.0
100
AcDbRotatedDimension
1001
ACAD
1000
DSTYLE
1002
{
1070
             279
1070
               2
1070
             340
1005
36
1070
             147
1040
5.0
1002
}
  0
DIMENSION
  5
165
100
AcDbEntity
  8
notes
370
               5
390
0
  6
Continuous
 62
               7
100
AcDbDimension
  2
*D9
 10
-423.54756732546889
 20
940.73648589726326
 30
0.0
 11
-373.54756732546889
 21
940.73648589726326
 31
0.0
 71
               5
 72
               1
 41
1.0
 42
0.0
  3
tfrom線あり
100
AcDbAlignedDimension
 13
-323.54756732546889
 23
793.23666216913648
 33
0.0
 14
-423.54756732546889
 24
794.73666216913648
 34
0.0
100
AcDbRotatedDimension
1001
ACAD
1000
DSTYLE
1002
{
1070
             279
1070
               2
1070
             340
1005
36
1070
             147
1040
5.0
1002
}
  0
DIMENSION
  5
166
100
AcDbEntity
  8
notes
370
               5
390
0
  6
Continuous
 62
               7
100
AcDbDimension
  2
*D10
 10
-773.54785736672443
 20
1040.7364858972633
 30
0.0
 11
-423.54785736672488
 21
1040.7364858972633
 31
0.0
 71
               5
 72
               1
 41
1.0
 42
0.0
  3
tfrom線あり
100
AcDbAlignedDimension
 13
-73.547857366725339
 23
554.92403346332935
 33
0.0
 14
-773.54785736672443
 24
554.92403346342542
 34
0.0
100
AcDbRotatedDimension
1001
ACAD
1000
DSTYLE
1002
{
1070
             279
1070
               2
1070
             340
1005
36
1070
             147
1040
5.0
1002
}
  0
DIMENSION
  5
167
100
AcDbEntity
  8
notes
370
               5
390
0
  6
Continuous
 62
               7
100
AcDbDimension
  2
*D11
 10
26.452142633274661
 20
842.73648589726281
 30
0.0
 11
26.452142633274661
 21
592.7364858972627
 31
0.0
 71
               5
 72
               1
 41
1.0
 42
0.0
  3
tfrom線あり
100
AcDbAlignedDimension
 13
-398.54785736672534
 23
342.73648589726258
 33
0.0
 14
-177.5475673254698
 24
842.73648589726281
 34
0.0
 50
90.0
100
AcDbRotatedDimension
1001
ACAD
1000
DSTYLE
1002
{
1070
             279
1070
               2
1070
             340
1005
36
1070
             147
1040
5.0
1002
}
  0
DIMENSION
  5
168
100
AcDbEntity
  8
notes
370
               5
390
0
  6
Continuous
 62
               7
100
AcDbDimension
  2
*D12
 10
-718.5475673254698
 20
242.73648589726258
 30
0.0
 11
-423.5475673254698
 21
242.73648589726258
 31
0.0
 71
               5
 72
               1
 41
1.0
 42
0.0
  3
tfrom線あり
100
AcDbAlignedDimension
 13
-128.5475673254698
 23
438.0
 33
0.0
 14
-718.5475673254698
 24
438.0
 34
0.0
100
AcDbRotatedDimension
1001
ACAD
1000
DSTYLE
1002
{
1070
             279
1070
               2
1070
             340
1005
36
1070
             147
1040
5.0
1002
}
  0
DIMENSION
  5
169
100
AcDbEntity
  8
notes
370
               5
390
0
  6
Continuous
 62
               7
100
AcDbDimension
  2
*D13
 10
-873.54785736672443
 20
382.73648589733534
 30
0.0
 11
-873.54785736672443
 21
362.73648589729896
 31
0.0
 71
               5
 72
               1
 41
1.0
 42
0.0
  3
tfrom線あり
100
AcDbAlignedDimension
 13
-448.54785736672534
 23
342.73648589726258
 33
0.0
 14
-626.0
 24
382.73648589733534
 34
0.0
 50
90.0
100
AcDbRotatedDimension
1001
ACAD
1000
DSTYLE
1002
{
1070
             279
1070
               2
1070
             340
1005
36
1070
             147
1040
5.0
1002
}
  0
DIMENSION
  5
16A
100
AcDbEntity
  8
notes
370
               5
390
0
  6
Continuous
 62
               7
100
AcDbDimension
  2
*D14
 10
-873.54785736672443
 20
382.73648589733534
 30
0.0
 11
-873.54785736672443
 21
547.73648589733534
 31
0.0
 71
               5
 72
               1
 41
1.0
 42
0.0
  3
tfrom線あり
100
AcDbAlignedDimension
 13
-692.0
 23
712.73648589733534
 33
0.0
 14
-626.0
 24
382.73648589733534
 34
0.0
 50
90.0
100
AcDbRotatedDimension
1001
ACAD
1000
DSTYLE
1002
{
1070
             279
1070
               2
1070
             340
1005
36
1070
             147
1040
5.0
1002
}
  0
DIMENSION
  5
16B
100
AcDbEntity
  8
notes
370
               5
390
0
  6
Continuous
 62
               7
100
AcDbDimension
  2
*D15
 10
-873.54785736672443
 20
842.73648589726326
 30
0.0
 11
-873.54785736672443
 21
777.73648589726326
 31
0.0
 71
               5
 72
               1
 41
1.0
 42
0.0
  3
tfrom線あり
100
AcDbAlignedDimension
 13
-696.0
 23
712.73648589726326
 33
0.0
 14
-669.54756732546889
 24
842.73648589726326
 34
0.0
 50
90.0
100
AcDbRotatedDimension
1001
ACAD
1000
DSTYLE
1002
{
1070
             279
1070
               2
1070
             340
1005
36
1070
             147
1040
5.0
1002
}
  0
CIRCLE
  5
16C
100
AcDbEntity
  8
notes
370
               5
390
0
  6
STYLE_12
 62
               7
100
AcDbCircle
 10
-814.1089084159812
 20
175.69152867698648
 30
0.0
 40
17.500000000000114
  0
DIMENSION
  5
16D
100
AcDbEntity
  8
notes
370
               5
390
0
  6
Continuous
 62
               7
100
AcDbDimension
  2
*D16
 10
710.0
 20
-272.16742024635425
 30
0.0
 11
745.0
 21
-272.16742024635425
 31
0.0
 71
               5
 72
               1
 41
1.0
 42
0.0
  3
tfrom線あり
100
AcDbAlignedDimension
 13
780.0
 23
-372.13407080837129
 33
0.0
 14
710.0
 24
-372.16742024635425
 34
0.0
100
AcDbRotatedDimension
1001
ACAD
1000
DSTYLE
1002
{
1070
             279
1070
               2
1070
             340
1005
36
1070
             147
1040
5.0
1002
}
  0
DIMENSION
  5
16E
100
AcDbEntity
  8
notes
370
               5
390
0
  6
Continuous
 62
               7
100
AcDbDimension
  2
*D17
 10
-563.547567325469
 20
-229.89999999999998
 30
0.0
 11
-423.547567325469
 21
-229.89999999999998
 31
0.0
 71
               5
 72
               1
 41
1.0
 42
0.0
  3
tfrom線あり
100
AcDbAlignedDimension
 13
-283.547567325469
 23
-392.19999999999999
 33
0.0
 14
-563.547567325469
 24
-392.19999999999999
 34
0.0
100
AcDbRotatedDimension
1001
ACAD
1000
DSTYLE
1002
{
1070
             279
1070
               2
1070
             340
1005
36
1070
             147
1040
5.0
1002
}
  0
DIMENSION
  5
16F
100
AcDbEntity
  8
notes
370
               5
390
0
  6
Continuous
 62
               7
100
AcDbDimension
  2
*D18
 10
880.0
 20
-372.13407080837129
 30
0.0
 11
880.0
 21
-512.13407080837123
 31
0.0
 71
               5
 72
               1
 41
1.0
 42
0.0
  3
tfrom線あり
100
AcDbAlignedDimension
 13
780.0
 23
-652.13407080837123
 33
0.0
 14
780.0
 24
-372.13407080837129
 34
0.0
 50
90.0
100
AcDbRotatedDimension
1001
ACAD
1000
DSTYLE
1002
{
1070
             279
1070
               2
1070
             340
1005
36
1070
             147
1040
5.0
1002
}
  0
DIMENSION
  5
170
100
AcDbEntity
  8
notes
370
               5
390
0
  6
Continuous
 62
               7
100
AcDbDimension
  2
*D19
 10
545.04235104790268
 20
-822.13407080837123
 30
0.0
 11
662.52117552395134
 21
-822.13407080837123
 31
0.0
 71
               5
 72
               1
 41
1.0
 42
0.0
  3
tfrom線あり
100
AcDbAlignedDimension
 13
780.0
 23
-652.13407080837123
 33
0.0
 14
545.04235104790268
 24
-597.16742024635425
 34
0.0
100
AcDbRotatedDimension
1001
ACAD
1000
DSTYLE
1002
{
1070
             279
1070
               2
1070
             340
1005
36
1070
             147
1040
5.0
1002
}
  0
DIMENSION
  5
171
100
AcDbEntity
  8
notes
370
               5
390
0
  6
Continuous
 62
               7
100
AcDbDimension
  2
*D20
 10
-845.1089084159812
 20
-412.16742024635425
 30
0.0
 11
-845.1089084159812
 21
-392.16742024635425
 31
0.0
 71
               5
 72
               1
 41
1.0
 42
0.0
  3
tfrom線あり
100
AcDbAlignedDimension
 13
-773.24474327930363
 23
-372.1674202463542
 33
0.0
 14
-613.20890841598111
 24
-412.16742024635425
 34
0.0
 50
90.0
100
AcDbRotatedDimension
1001
ACAD
1000
DSTYLE
1002
{
1070
             279
1070
               2
1070
             340
1005
36
1070
             147
1040
5.0
1002
}
  0
LINE
  5
172
100
AcDbEntity
  8
ADF70-0005
370
              15
390
0
  6
Continuous
 62
               7
100
AcDbLine
 10
-773.24474327930363
 20
-372.1674202463542
 30
0.0
 11
-73.244743279303634
 21
-372.1674202463542
 31
0.0
  0
ARC
  5
173
100
AcDbEntity
  8
ADF70-0005
370
              15
390
0
  6
Continuous
 62
               7
100
AcDbCircle
 10
-358.33147311876144
 20
-346.52453388373164
 30
0.0
 40
415.70491863378459
100
AcDbArc
 50
183.53655309659968
 51
205.69010738486045
  0
LINE
  5
174
100
AcDbEntity
  8
ADF70-0005
370
              15
390
0
  6
Continuous
 62
               7
100
AcDbLine
 10
-628.7587763538462
 20
-722.16818505803076
 30
0.0
 11
-217.73353425092625
 21
-722.16818505803076
 31
0.0
  0
ARC
  5
175
100
AcDbEntity
  8
ADF70-0005
370
              15
390
0
  6
STYLE_12
 62
               7
100
AcDbCircle
 10
-401.84282916920927
 20
-383.1550143860299
 30
0.0
 40
314.29403378461262
100
AcDbArc
 50
177.99655415246752
 51
198.47157020321998
  0
ARC
  5
176
100
AcDbEntity
  8
ADF70-0005
370
              15
390
0
  6
STYLE_12
 62
               7
100
AcDbCircle
 10
-607.89245135560611
 20
-440.97318060457684
 30
0.0
 40
101.08212699783081
100
AcDbArc
 50
204.40212603989229
 51
265.43092620192226
  0
LINE
  5
177
100
AcDbEntity
  8
ADF70-0005
370
              15
390
0
  6
STYLE_12
 62
               7
100
AcDbLine
 10
-615.94474327930345
 20
-541.73407080102743
 30
0.0
 11
-462.94474327930345
 21
-546.73407080102743
 31
0.0
  0
LINE
  5
178
100
AcDbEntity
  8
ADF70-0005
370
              15
390
0
  6
STYLE_12
 62
               7
100
AcDbLine
 10
-462.94474327930345
 20
-546.73407080102743
 30
0.0
 11
-445.21099889989313
 21
-559.23704513912003
 31
0.0
  0
ARC
  5
179
100
AcDbEntity
  8
ADF70-0005
370
              15
390
0
  6
Continuous
 62
               7
100
AcDbCircle
 10
268.41271520014914
 20
-118.39803902230256
 30
0.0
 40
1081.4134614018933
100
AcDbArc
 50
202.18477450318738
 51
213.93939909018999
  0
ARC
  5
17A
100
AcDbEntity
  8
ADF70-0005
370
              15
390
0
  6
Continuous
 62
               7
100
AcDbCircle
 10
-488.16083748601102
 20
-346.52453388373164
 30
0.0
 40
415.70491863378373
100
AcDbArc
 50
334.30989261513946
 51
356.46344690340032
  0
ARC
  5
17B
100
AcDbEntity
  8
ADF70-0005
370
              15
390
0
  6
STYLE_12
 62
               7
100
AcDbCircle
 10
-444.6494814355641
 20
-383.1550143860299
 30
0.0
 40
314.29403378461262
100
AcDbArc
 50
341.52842979678002
 51
2.0034458475324191
  0
ARC
  5
17C
100
AcDbEntity
  8
ADF70-0005
370
              15
390
0
  6
STYLE_12
 62
               7
100
AcDbCircle
 10
-238.59985924916634
 20
-440.97318060457684
 30
0.0
 40
101.0821269978309
100
AcDbArc
 50
274.56907379807768
 51
335.59787396010745
  0
LINE
  5
17D
100
AcDbEntity
  8
ADF70-0005
370
              15
390
0
  6
STYLE_12
 62
               7
100
AcDbLine
 10
-230.547567325469
 20
-541.73407080102743
 30
0.0
 11
-383.547567325469
 21
-546.73407080102743
 31
0.0
  0
LINE
  5
17E
100
AcDbEntity
  8
ADF70-0005
370
              15
390
0
  6
STYLE_12
 62
               7
100
AcDbLine
 10
-383.547567325469
 20
-546.73407080102743
 30
0.0
 11
-401.18900110010685
 21
-559.23704513912003
 31
0.0
  0
ARC
  5
17F
100
AcDbEntity
  8
ADF70-0005
370
              15
390
0
  6
Continuous
 62
               7
100
AcDbCircle
 10
-1114.9050258049213
 20
-118.39803902230256
 30
0.0
 40
1081.4134614018935
100
AcDbArc
 50
326.06060090981003
 51
337.81522549681256
  0
ARC
  5
180
100
AcDbEntity
  8
ADF70-0005
370
              15
390
0
  6
STYLE_12
 62
               7
100
AcDbCircle
 10
-206.09499889940867
 20
-344.69464236272461
 30
0.0
 40
857.52140954558365
100
AcDbArc
 50
348.76735076802493
 51
358.19304572866116
  0
ARC
  5
181
100
AcDbEntity
  8
ADF70-0005
370
              15
390
0
  6
STYLE_12
 62
               7
100
AcDbCircle
 10
590.51969396429558
 20
-501.14679395940561
 30
0.0
 40
45.722948899940484
100
AcDbArc
 50
265.58507676612885
 51
346.61149116808775
  0
ARC
  5
182
100
AcDbEntity
  8
ADF70-0005
370
              15
390
0
  6
STYLE_12
 62
               7
100
AcDbCircle
 10
868.81290468302996
 20
-279.12866499599363
 30
0.0
 40
553.61312132589615
100
AcDbArc
 50
189.62939538103819
 51
201.57849890907522
  0
LINE
  5
183
100
AcDbEntity
  8
ADF70-0005
370
              15
390
0
  6
STYLE_12
 62
               7
100
AcDbLine
 10
505.35685245478976
 20
-546.73407080102743
 30
0.0
 11
420.0
 21
-531.73407080837126
 31
0.0
  0
ARC
  5
184
100
AcDbEntity
  8
ADF70-0005
370
              15
390
0
  6
STYLE_12
 62
               7
100
AcDbCircle
 10
439.56785555720035
 20
-436.4283878129591
 30
0.0
 40
97.293752021028851
100
AcDbArc
 50
208.42036653735752
 51
258.39745692784356
  0
LINE
  5
185
100
AcDbEntity
  8
ADF70-0005
370
              15
390
0
  6
Continuous
 62
               7
100
AcDbLine
 10
780.0
 20
-372.13407080837129
 30
0.0
 11
780.0
 21
-652.13407080837123
 31
0.0
  0
LINE
  5
186
100
AcDbEntity
  8
ADF70-0005
370
              15
390
0
  6
Continuous
 62
               7
100
AcDbLine
 10
780.0
 20
-652.13407080837123
 30
0.0
 11
672.39490951263178
 21
-652.13407080837123
 31
0.0
  0
LINE
  5
187
100
AcDbEntity
  8
ADF70-0005
370
              15
390
0
  6
Continuous
 62
               7
100
AcDbLine
 10
779.34581429207719
 20
-372.16742024635425
 30
0.0
 11
283.34581429207719
 21
-372.16742024635425
 31
0.0
  0
LINE
  5
188
100
AcDbEntity
  8
ADF70-0005
370
              15
390
0
  6
STYLE_12
 62
               7
100
AcDbLine
 10
567.04235104790314
 20
-597.16742024635425
 30
0.0
 11
523.04235104790223
 21
-597.16742024635425
 31
0.0
  0
LINE
  5
189
100
AcDbEntity
  8
ADF70-0005
370
              15
390
0
  6
STYLE_12
 62
               7
100
AcDbLine
 10
523.04235104790223
 20
-559.23704513912003
 30
0.0
 11
505.35685245478976
 21
-546.73407080102743
 31
0.0
  0
LINE
  5
18A
100
AcDbEntity
  8
ADF70-0005
370
              15
390
0
  6
STYLE_12
 62
               7
100
AcDbLine
 10
567.06434884768851
 20
-559.23704513912003
 30
0.0
 11
585.04235104790314
 21
-546.73407080837126
 31
0.0
  0
ARC
  5
18B
100
AcDbEntity
  8
ADF70-0005
370
              15
390
0
  6
Continuous
 62
               7
100
AcDbCircle
 10
682.09735888529394
 20
-376.99525401832454
 30
0.0
 40
398.78076971489747
100
AcDbArc
 50
179.30633250680307
 51
198.07687915114343
  0
ARC
  5
18C
100
AcDbEntity
  8
ADF70-0005
370
              15
390
0
  6
Continuous
 62
               7
100
AcDbCircle
 10
1694.6285989842327
 20
-95.175823449543657
 30
0.0
 40
1449.519799627305
100
AcDbArc
 50
196.24755236606336
 51
205.65442306454574
  0
ARC
  5
18D
100
AcDbEntity
  8
ADF70-0005
370
              15
390
0
  6
Continuous
 62
               7
100
AcDbCircle
 10
346.82090749957842
 20
-376.65464928431891
 30
0.0
 40
398.78076971489639
100
AcDbArc
 50
341.92312084885651
 51
0.6936674931968696
  0
ARC
  5
18E
100
AcDbEntity
  8
ADF70-0005
370
              15
390
0
  6
Continuous
 62
               7
100
AcDbCircle
 10
-665.71033259936053
 20
-94.835218715538019
 30
0.0
 40
1449.5197996273043
100
AcDbArc
 50
334.34557693545423
 51
343.75244763393664
  0
LINE
  5
18F
100
AcDbEntity
  8
ADF70-0005
370
              15
390
0
  6
Continuous
 62
               7
100
AcDbLine
 10
640.91826638487146
 20
-722.13407080837123
 30
0.0
 11
387.0
 21
-722.13407080837123
 31
0.0
  0
LINE
  5
190
100
AcDbEntity
  8
ADF70-0005
370
              15
390
0
  6
STYLE_12
 62
               7
100
AcDbLine
 10
-283.547567325469
 20
-432.19999999999999
 30
0.0
 11
-283.547567325469
 21
-392.19999999999999
 31
0.0
  0
LINE
  5
191
100
AcDbEntity
  8
ADF70-0005
370
              15
390
0
  6
STYLE_12
 62
               7
100
AcDbLine
 10
-563.547567325469
 20
-432.19999999999999
 30
0.0
 11
-563.547567325469
 21
-392.19999999999999
 31
0.0
  0
LINE
  5
192
100
AcDbEntity
  8
ADF70-0005
370
              15
390
0
  6
STYLE_12
 62
               7
100
AcDbLine
 10
523.04235104790223
 20
-597.16742024635425
 30
0.0
 11
523.04235104790223
 21
-559.23704513912003
 31
0.0
  0
LINE
  5
193
100
AcDbEntity
  8
ADF70-0005
370
              15
390
0
  6
STYLE_12
 62
               7
100
AcDbLine
 10
567.06434884768851
 20
-597.0
 30
0.0
 11
567.06434884768851
 21
-559.23704513912003
 31
0.0
  0
CIRCLE
  5
194
100
AcDbEntity
  8
ADF70-0005
370
              15
390
0
  6
Continuous
 62
               7
100
AcDbCircle
 10
-423.54756732546889
 20
772.0
 30
0.0
 40
17.5
  0
CIRCLE
  5
195
100
AcDbEntity
  8
ADF70-0005
370
              15
390
0
  6
STYLE_12
 62
               7
100
AcDbCircle
 10
-523.54756732546889
 20
772.0
 30
0.0
 40
17.5
  0
LINE
  5
196
100
AcDbEntity
  8
ADF70-0005
370
              15
390
0
  6
STYLE_12
 62
               7
100
AcDbLine
 10
-543.547567325469
 20
-412.19999999999999
 30
0.0
 11
-583.547567325469
 21
-412.19999999999999
 31
0.0
  0
CIRCLE
  5
197
100
AcDbEntity
  8
ADF70-0005
370
              15
390
0
  6
STYLE_12
 62
               7
100
AcDbCircle
 10
-563.547567325469
 20
-412.19999999999999
 30
0.0
 40
10.0
  0
LINE
  5
198
100
AcDbEntity
  8
ADF70-0005
370
              15
390
0
  6
STYLE_12
 62
               7
100
AcDbLine
 10
-263.547567325469
 20
-412.19999999999999
 30
0.0
 11
-303.547567325469
 21
-412.19999999999999
 31
0.0
  0
CIRCLE
  5
199
100
AcDbEntity
  8
ADF70-0005
370
              15
390
0
  6
STYLE_12
 62
               7
100
AcDbCircle
 10
-283.547567325469
 20
-412.19999999999999
 30
0.0
 40
10.0
  0
LINE
  5
19A
100
AcDbEntity
  8
ADF70-0005
370
              15
390
0
  6
Continuous
 62
               7
100
AcDbLine
 10
692.5
 20
-372.16742024635425
 30
0.0
 11
692.5
 21
-387.16742024635425
 31
0.0
  0
LINE
  5
19B
100
AcDbEntity
  8
ADF70-0005
370
              15
390
0
  6
Continuous
 62
               7
100
AcDbLine
 10
727.5
 20
-372.16742024635425
 30
0.0
 11
727.5
 21
-387.16742024635425
 31
0.0
  0
LINE
  5
19C
100
AcDbEntity
  8
ADF70-0005
370
              15
390
0
  6
STYLE_12
 62
               7
100
AcDbLine
 10
-462.94474327930345
 20
-546.73407080102743
 30
0.0
 11
-383.54756732546787
 21
-546.73407080102743
 31
0.0
  0
LINE
  5
19D
100
AcDbEntity
  8
ADF70-0005
370
              15
390
0
  6
STYLE_12
 62
               7
100
AcDbLine
 10
-445.21099889989313
 20
-559.23704513912003
 30
0.0
 11
-401.18900110010685
 21
-559.23704513912003
 31
0.0
  0
LINE
  5
19E
100
AcDbEntity
  8
ADF70-0005
370
              15
390
0
  6
STYLE_12
 62
               7
100
AcDbLine
 10
-445.17800220021462
 20
-597.16742024635425
 30
0.0
 11
-401.17800220021371
 21
-597.16742024635425
 31
0.0
  0
LINE
  5
19F
100
AcDbEntity
  8
ADF70-0005
370
              15
390
0
  6
STYLE_12
 62
               7
100
AcDbLine
 10
-401.17800220021371
 20
-597.16742024635425
 30
0.0
 11
-401.17800220021371
 21
-559.23704513912003
 31
0.0
  0
LINE
  5
1A0
100
AcDbEntity
  8
ADF70-0005
370
              15
390
0
  6
STYLE_12
 62
               7
100
AcDbLine
 10
-445.17800220021462
 20
-597.16742024635425
 30
0.0
 11
-445.19999999999999
 21
-559.23704513912003
 31
0.0
  0
LINE
  5
1A1
100
AcDbEntity
  8
ADF70-0005
370
              15
390
0
  6
STYLE_13
 62
               7
100
AcDbLine
 10
584.75402840862478
 20
-546.73407080102743
 30
0.0
 11
505.35685245478976
 21
-546.73407080102743
 31
0.0
  0
LINE
  5
1A2
100
AcDbEntity
  8
ADF70-0005
370
              15
390
0
  6
STYLE_13
 62
               7
100
AcDbLine
 10
567.06434884768851
 20
-559.23704513912003
 30
0.0
 11
523.04235104790223
 21
-559.23704513912003
 31
0.0
  0
CIRCLE
  5
1A3
100
AcDbEntity
  8
ADF70-0005
370
              15
390
0
  6
STYLE_12
 62
               7
100
AcDbCircle
 10
-323.54756732546889
 20
773.0
 30
0.0
 40
17.5
  0
SPLINE
  5
1A4
100
AcDbEntity
  8
ADF70-0005
370
              15
390
0
  6
Continuous
 62
               7
100
AcDbSpline
210
0.0
220
0.0
230
1.0
 70
               9
 71
               2
 72
              17
 73
              14
 74
               0
 42
0.000001
 43
0.000001
 40
0.0
 40
0.0
 40
0.0
 40
1.0
 40
2.0
 40
3.0
 40
4.0
 40
5.0
 40
6.0
 40
7.0
 40
8.0
 40
9.0
 40
10.0
 40
11.0
 40
12.0
 40
12.0
 40
12.0
 10
-570.91729215026066
 20
685.96561401223448
 30
0.0
 10
-502.69435472501073
 20
707.73648589726326
 30
0.0
 10
-345.1402295755106
 20
707.73648589726326
 30
0.0
 10
-208.69435472501073
 20
664.19474212720581
 30
0.0
 10
-129.91729215026066
 20
588.77822966732072
 30
0.0
 10
-129.91729215026066
 20
501.69474212720581
 30
0.0
 10
-208.69435472501073
 20
426.27822966732072
 30
0.0
 10
-345.1402295755106
 20
382.73648589726326
 30
0.0
 10
-502.69435472501073
 20
382.73648589726326
 30
0.0
 10
-639.1402295755106
 20
426.27822966732072
 30
0.0
 10
-717.91729215026066
 20
501.69474212720581
 30
0.0
 10
-717.91729215026066
 20
588.77822966732072
 30
0.0
 10
-639.1402295755106
 20
664.19474212720581
 30
0.0
 10
-570.91729215026066
 20
685.96561401223448
 30
0.0
  0
LINE
  5
1A5
100
AcDbEntity
  8
ADF70-0005
370
              15
390
0
  6
Continuous
 62
               7
100
AcDbLine
 10
-668.54785736672488
 20
842.73648589726326
 30
0.0
 11
-178.54785736672488
 21
842.73648589726326
 31
0.0
  0
LINE
  5
1A6
100
AcDbEntity
  8
ADF70-0005
370
              15
390
0
  6
Continuous
 62
               7
100
AcDbLine
 10
-673.54785736672488
 20
837.73648589726326
 30
0.0
 11
-673.54785736672488
 21
730.58872222366358
 31
0.0
  0
LINE
  5
1A7
100
AcDbEntity
  8
ADF70-0005
370
              15
390
0
  6
Continuous
 62
               7
100
AcDbLine
 10
-173.54785736672488
 20
837.73648589726326
 30
0.0
 11
-173.54785736672488
 21
730.05039648806269
 31
0.0
  0
SPLINE
  5
1A8
100
AcDbEntity
  8
ADF70-0005
370
              15
390
0
  6
Continuous
 62
               7
100
AcDbSpline
210
0.0
220
0.0
230
1.0
 70
               8
 71
               2
 72
               8
 73
               5
 74
               0
 42
0.000001
 43
0.000001
 40
0.0
 40
0.0
 40
0.0
 40
1.0
 40
1.0
 40
2.0
 40
2.0
 40
2.0
 10
-73.917292150260664
 20
555.14226041170718
 30
0.0
 10
-73.917292150260664
 20
622.12955852864741
 30
0.0
 10
-120.80840083767148
 20
680.14226042650921
 30
0.0
 10
-143.24770443957763
 20
707.90369893995796
 30
0.0
 10
-173.54785736672491
 20
730.05024507708254
 30
0.0
  0
SPLINE
  5
1A9
100
AcDbEntity
  8
ADF70-0005
370
              15
390
0
  6
Continuous
 62
               7
100
AcDbSpline
210
0.0
220
0.0
230
1.0
 70
               8
 71
               2
 72
               8
 73
               5
 74
               0
 42
0.000001
 43
0.000001
 40
0.0
 40
0.0
 40
0.0
 40
1.0
 40
1.0
 40
2.0
 40
2.0
 40
2.0
 10
-673.54785736672488
 20
730.58860536299107
 30
0.0
 10
-704.31371991711524
 20
708.24164675316968
 30
0.0
 10
-727.02618353463595
 20
680.14226033769705
 30
0.0
 10
-773.9172921887307
 20
622.12955842609585
 30
0.0
 10
-773.91729215026066
 20
555.14226030915552
 30
0.0
  0
SPLINE
  5
1AA
100
AcDbEntity
  8
ADF70-0005
370
              15
390
0
  6
Continuous
 62
               7
100
AcDbSpline
210
0.0
220
0.0
230
1.0
 70
               8
 71
               2
 72
              11
 73
               8
 74
               0
 42
0.000001
 43
0.000001
 40
0.0
 40
0.0
 40
0.0
 40
1.0
 40
2.0
 40
3.0
 40
4.0
 40
5.0
 40
6.0
 40
6.0
 40
6.0
 10
-773.91729215026066
 20
555.14226032453826
 30
0.0
 10
-773.91729211179063
 20
498.20305694071038
 30
0.0
 10
-680.13507471819435
 20
399.58146375688659
 30
0.0
 10
-517.69950941654417
 20
342.64226040002876
 30
0.0
 10
-330.13507474040512
 20
342.64226042338555
 30
0.0
 10
-167.69950947722515
 20
399.5814638206985
 30
0.0
 10
-73.917292150260778
 20
498.20305702787891
 30
0.0
 10
-73.917292150260664
 20
555.14226041170718
 30
0.0
  0
ARC
  5
1AB
100
AcDbEntity
  8
ADF70-0005
370
              15
390
0
  6
Continuous
 62
               7
100
AcDbCircle
 10
-668.54785736672488
 20
837.73648589726326
 30
0.0
 40
5.0
100
AcDbArc
 50
90.0
 51
180.0
  0
ARC
  5
1AC
100
AcDbEntity
  8
ADF70-0005
370
              15
390
0
  6
Continuous
 62
               7
100
AcDbCircle
 10
-178.54785736672488
 20
837.73648589726326
 30
0.0
 40
5.0
100
AcDbArc
 50
0.0
 51
90.0
  0
CIRCLE
  5
1AD
100
AcDbEntity
  8
ADF70-0005
370
              15
390
0
  6
Continuous
 62
               7
100
AcDbCircle
 10
-423.54785736672488
 20
607.41060744805236
 30
0.0
 40
40.0
  0
CIRCLE
  5
1AE
100
AcDbEntity
  8
ADF70-0005
370
              15
390
0
  6
Continuous
 62
               7
100
AcDbCircle
 10
-423.54785736672488
 20
607.41060744805236
 30
0.0
 40
22.5
  0
ENDSEC
  0
SECTION
  2
OBJECTS
  0
DICTIONARY
  5
19
100
AcDbDictionary
280
               0
281
               1
  3
ACAD_GROUP
350
1A
  3
ACAD_MLINESTYLE
350
1B
  3
ACAD_LAYOUT
350
1E
  3
ACAD_PLOTSETTINGS
350
22
  3
ACAD_PLOTSTYLENAME
350
1F
  0
DICTIONARY
  5
1A
102
{ACAD_REACTORS
330
19
102
}
100
AcDbDictionary
280
               0
281
               1
  0
DICTIONARY
  5
1B
102
{ACAD_REACTORS
330
19
102
}
100
AcDbDictionary
280
               0
281
               1
  3
Standard
350
1C
  0
MLINESTYLE
  5
1C
102
{ACAD_REACTORS
330
1B
102
}
100
AcDbMlineStyle
  2
Standard
 70
               0
  3

 62
               0
 51
90.0
 52
90.0
 71
               2
 49
0.5
 62
             256
  6
ByLayer
 49
-0.5
 62
             256
  6
ByLayer
  0
ACDBDICTIONARYWDFLT
  5
1F
102
{ACAD_REACTORS
330
19
102
}
100
AcDbDictionary
281
               1
  3
Normal
350
1D
100
AcDbDictionaryWithDefault
340
1D
  0
ACDBPLACEHOLDER
  5
1D
102
{ACAD_REACTORS
330
1F
102
}
  0
LAYOUT
  5
20
102
{ACAD_REACTORS
330
1E
102
}
100
AcDbPlotSettings
  1

  2

  4

  6

 40
0.0
 41
0.0
 42
0.0
 43
0.0
 44
0.0
 45
0.0
 46
0.0
 47
0.0
 48
0.0
 49
0.0
140
0.0
141
0.0
142
1.0
143
1.0
 70
            1024
 72
               0
 73
               0
 74
               0
  7

 75
               0
147
1.0
148
0.0
149
0.0
100
AcDbLayout
  1
Model
 70
               0
 71
               0
 10
0.0
 20
0.0
 11
0.0
 21
0.0
 12
0.0
 22
0.0
 32
0.0
 14
0.0
 24
0.0
 34
0.0
 15
0.0
 25
0.0
 35
0.0
146
0.0
 13
0.0
 23
0.0
 33
0.0
 16
0.0
 26
0.0
 36
0.0
 17
0.0
 27
0.0
 37
0.0
 76
               0
330
A
331
0
345
0
346
0
  0
LAYOUT
  5
21
102
{ACAD_REACTORS
330
1E
102
}
100
AcDbPlotSettings
  1

  2

  4

  6

 40
0.0
 41
0.0
 42
0.0
 43
0.0
 44
0.0
 45
0.0
 46
0.0
 47
0.0
 48
0.0
 49
0.0
140
0.0
141
0.0
142
1.0
143
1.0
 70
               0
 72
               0
 73
               0
 74
               0
  7

 75
               0
147
1.0
148
0.0
149
0.0
100
AcDbLayout
  1
Layout1
 70
               0
 71
               0
 10
0.0
 20
0.0
 11
0.0
 21
0.0
 12
0.0
 22
0.0
 32
0.0
 14
0.0
 24
0.0
 34
0.0
 15
0.0
 25
0.0
 35
0.0
146
0.0
 13
0.0
 23
0.0
 33
0.0
 16
0.0
 26
0.0
 36
0.0
 17
0.0
 27
0.0
 37
0.0
 76
               0
330
B
331
0
345
0
346
0
  0
DICTIONARY
  5
1E
102
{ACAD_REACTORS
330
19
102
}
100
AcDbDictionary
280
               0
281
               1
  3
Layout1
350
21
  3
Model
350
20
  0
DICTIONARY
  5
22
102
{ACAD_REACTORS
330
19
102
}
100
AcDbDictionary
280
               0
281
               1
  0
ENDSEC
  0
EOF
