  0
SECTION
  2
HEADER
  9
$ACADVER
  1
AC1015
  9
$ACADMAINTVER
 70
               6
  9
$DWGCODEPAGE
  3
ANSI_932
  9
$INSBASE
 10
0.0
 20
0.0
 30
0.0
  9
$EXTMIN
 10
-975.00000000024124
 20
-1431.5255224711129
 30
-14.834305555555554
  9
$EXTMAX
 10
975.00000000024124
 20
1405.9972926412995
 30
14.834305555555554
  9
$LIMMIN
 10
0.0
 20
0.0
  9
$LIMMAX
 10
0.0
 20
0.0
  9
$ORTHOMODE
 70
               0
  9
$REGENMODE
 70
               1
  9
$FILLMODE
 70
               1
  9
$QTEXTMODE
 70
               0
  9
$MIRRTEXT
 70
               1
  9
$LTSCALE
 40
50.799999999999997
  9
$ATTMODE
 70
               1
  9
$TEXTSIZE
 40
0.2
  9
$TRACEWID
 40
1.0
  9
$TEXTSTYLE
  7
Standard
  9
$CLAYER
  8
notes
  9
$CELTYPE
  6
Continuous
  9
$CECOLOR
 62
             256
  9
$CELTSCALE
 40
1.0
  9
$DISPSILH
 70
               0
  9
$DIMSCALE
 40
1.0
  9
$DIMASZ
 40
31.75
  9
$DIMEXO
 40
0.0
  9
$DIMDLI
 40
6.9999999999999396
  9
$DIMRND
 40
0.0
  9
$DIMDLE
 40
0.0
  9
$DIMEXE
 40
19.999999999996199
  9
$DIMTP
 40
0.0
  9
$DIMTM
 40
0.0
  9
$DIMTXT
 40
24.432617187500004
  9
$DIMCEN
 40
0.0
  9
$DIMTSZ
 40
0.0
  9
$DIMTOL
 70
               0
  9
$DIMLIM
 70
               0
  9
$DIMTIH
 70
               0
  9
$DIMTOH
 70
               0
  9
$DIMSE1
 70
               0
  9
$DIMSE2
 70
               0
  9
$DIMTAD
 70
               1
  9
$DIMZIN
 70
              11
  9
$DIMBLK
  1
VW_FILLEDARROW
  9
$DIMASO
 70
               1
  9
$DIMSHO
 70
               1
  9
$DIMPOST
  1
<>
  9
$DIMAPOST
  1
[]
  9
$DIMALT
 70
               0
  9
$DIMALTD
 70
               1
  9
$DIMALTF
 40
1.0
  9
$DIMLFAC
 40
1.0
  9
$DIMTOFL
 70
               0
  9
$DIMTVP
 40
0.0
  9
$DIMTIX
 70
               1
  9
$DIMSOXD
 70
               0
  9
$DIMSAH
 70
               0
  9
$DIMBLK1
  1

  9
$DIMBLK2
  1

  9
$DIMSTYLE
  2
JIS
  9
$DIMCLRD
 70
               0
  9
$DIMCLRE
 70
               0
  9
$DIMCLRT
 70
               0
  9
$DIMTFAC
 40
1.0
  9
$DIMGAP
 40
1.00000000000108
  9
$DIMJUST
 70
               0
  9
$DIMSD1
 70
               0
  9
$DIMSD2
 70
               0
  9
$DIMTOLJ
 70
               1
  9
$DIMTZIN
 70
              11
  9
$DIMALTZ
 70
              11
  9
$DIMALTTZ
 70
              11
  9
$DIMUPT
 70
               0
  9
$DIMDEC
 70
               1
  9
$DIMTDEC
 70
               1
  9
$DIMALTU
 70
               2
  9
$DIMALTTD
 70
               2
  9
$DIMTXSTY
  7
ＭＳ ゴシック
  9
$DIMAUNIT
 70
               0
  9
$DIMADEC
 70
               2
  9
$DIMALTRND
 40
0.0
  9
$DIMAZIN
 70
               0
  9
$DIMDSEP
 70
              46
  9
$DIMATFIT
 70
               0
  9
$DIMFRAC
 70
               2
  9
$DIMLDRBLK
  1

  9
$DIMLUNIT
 70
               2
  9
$DIMLWD
 70
              -2
  9
$DIMLWE
 70
              -2
  9
$DIMTMOVE
 70
               0
  9
$LUNITS
 70
               2
  9
$LUPREC
 70
               4
  9
$SKETCHINC
 40
0.1
  9
$FILLETRAD
 40
0.0
  9
$AUNITS
 70
               0
  9
$AUPREC
 70
               0
  9
$MENU
  1
acad
  9
$ELEVATION
 40
0.0
  9
$PELEVATION
 40
0.0
  9
$THICKNESS
 40
0.0
  9
$LIMCHECK
 70
               0
  9
$CHAMFERA
 40
0.0
  9
$CHAMFERB
 40
0.0
  9
$CHAMFERC
 40
0.0
  9
$CHAMFERD
 40
0.0
  9
$SKPOLY
 70
               0
  9
$TDCREATE
 40
2455995.605300926
  9
$TDUCREATE
 40
0.000000000
  9
$TDUPDATE
 40
2455995.605300926
  9
$TDUUPDATE
 40
0.000000000
  9
$TDINDWG
 40
0.0000000000
  9
$TDUSRTIMER
 40
0.0000000000
  9
$USRTIMER
 70
               1
  9
$ANGBASE
 50
0.0
  9
$ANGDIR
 70
               0
  9
$PDMODE
 70
               1
  9
$PDSIZE
 40
-2.0
  9
$PLINEWID
 40
0.0
  9
$SPLFRAME
 70
               0
  9
$SPLINETYPE
 70
               6
  9
$SPLINESEGS
 70
               8
  9
$HANDSEED
  5
116
  9
$SURFTAB1
 70
               6
  9
$SURFTAB2
 70
               6
  9
$SURFTYPE
 70
               6
  9
$SURFU
 70
               6
  9
$SURFV
 70
               6
  9
$UCSBASE
  2

  9
$UCSNAME
  2

  9
$UCSORG
 10
0.0
 20
0.0
 30
0.0
  9
$UCSXDIR
 10
1.0
 20
0.0
 30
0.0
  9
$UCSYDIR
 10
0.0
 20
1.0
 30
0.0
  9
$UCSORTHOREF
  2

  9
$UCSORTHOVIEW
 70
               0
  9
$UCSORGTOP
 10
0.0
 20
0.0
 30
0.0
  9
$UCSORGBOTTOM
 10
0.0
 20
0.0
 30
0.0
  9
$UCSORGLEFT
 10
0.0
 20
0.0
 30
0.0
  9
$UCSORGRIGHT
 10
0.0
 20
0.0
 30
0.0
  9
$UCSORGFRONT
 10
0.0
 20
0.0
 30
0.0
  9
$UCSORGBACK
 10
0.0
 20
0.0
 30
0.0
  9
$PUCSBASE
  2

  9
$PUCSNAME
  2

  9
$PUCSORG
 10
0.0
 20
0.0
 30
0.0
  9
$PUCSXDIR
 10
1.0
 20
0.0
 30
0.0
  9
$PUCSYDIR
 10
0.0
 20
1.0
 30
0.0
  9
$PUCSORTHOREF
  2

  9
$PUCSORTHOVIEW
 70
               0
  9
$PUCSORGTOP
 10
0.0
 20
0.0
 30
0.0
  9
$PUCSORGBOTTOM
 10
0.0
 20
0.0
 30
0.0
  9
$PUCSORGLEFT
 10
0.0
 20
0.0
 30
0.0
  9
$PUCSORGRIGHT
 10
0.0
 20
0.0
 30
0.0
  9
$PUCSORGFRONT
 10
0.0
 20
0.0
 30
0.0
  9
$PUCSORGBACK
 10
0.0
 20
0.0
 30
0.0
  9
$USERI1
 70
               0
  9
$USERI2
 70
               0
  9
$USERI3
 70
               0
  9
$USERI4
 70
               0
  9
$USERI5
 70
               0
  9
$USERR1
 40
0.0
  9
$USERR2
 40
0.0
  9
$USERR3
 40
0.0
  9
$USERR4
 40
0.0
  9
$USERR5
 40
0.0
  9
$WORLDVIEW
 70
               1
  9
$SHADEDGE
 70
               3
  9
$SHADEDIF
 70
              70
  9
$TILEMODE
 70
               1
  9
$MAXACTVP
 70
              64
  9
$PINSBASE
 10
0.0
 20
0.0
 30
0.0
  9
$PLIMCHECK
 70
               0
  9
$PEXTMIN
 10
1.0000000000000000E+20
 20
1.0000000000000000E+20
 30
1.0000000000000000E+20
  9
$PEXTMAX
 10
-1.0000000000000000E+20
 20
-1.0000000000000000E+20
 30
-1.0000000000000000E+20
  9
$PLIMMIN
 10
0.0
 20
0.0
  9
$PLIMMAX
 10
12.0
 20
9.0
  9
$UNITMODE
 70
               0
  9
$VISRETAIN
 70
               0
  9
$PLINEGEN
 70
               1
  9
$PSLTSCALE
 70
               0
  9
$TREEDEPTH
 70
            3020
  9
$CMLSTYLE
  2
Standard
  9
$CMLJUST
 70
               0
  9
$CMLSCALE
 40
1.0
  9
$PROXYGRAPHICS
 70
               0
  9
$MEASUREMENT
 70
               1
  9
$CELWEIGHT
370
               0
  9
$ENDCAPS
280
               0
  9
$JOINSTYLE
280
               0
  9
$LWDISPLAY
290
               1
  9
$INSUNITS
 70
               4
  9
$HYPERLINKBASE
  1

  9
$STYLESHEET
  1

  9
$XEDIT
290
               1
  9
$CEPSNTYPE
380
               0
  9
$PSTYLEMODE
290
               1
  9
$FINGERPRINTGUID
  2

  9
$VERSIONGUID
  2

  9
$EXTNAMES
290
               1
  9
$PSVPSCALE
 40
0.0
  0
ENDSEC
  0
SECTION
  2
CLASSES
  0
CLASS
  1
LWPOLYLINE
  2
AcDbPolyline
  3
AutoCAD 2000
 90
        0
280
               0
281
               1
  0
CLASS
  1
IMAGE
  2
AcDbRasterImage
  3
ISM
 90
      127
280
               0
281
               1
  0
CLASS
  1
OLE2FRAME
  2
AcDbOle2Frame
  3
AutoCAD 2000
 90
        0
280
               0
281
               1
  0
CLASS
  1
HATCH
  2
AcDbHatch
  3
AutoCAD 2000
 90
        0
280
               0
281
               1
  0
CLASS
  1
DICTIONARYVAR
  2
AcDbDictionaryVar
  3
AutoCAD 2000
 90
        0
280
               0
281
               0
  0
CLASS
  1
RASTERVARIABLES
  2
AcDbRasterVariables
  3
ISM
 90
        0
280
               0
281
               0
  0
CLASS
  1
IMAGEDEF
  2
AcDbRasterImageDef
  3
ISM
 90
        0
280
               0
281
               0
  0
CLASS
  1
IMAGEDEF_REACTOR
  2
AcDbRasterImageDefReactor
  3
ISM
 90
        1
280
               0
281
               0
  0
CLASS
  1
IDBUFFER
  2
AcDbIdBuffer
  3
AutoCAD 2000
 90
        0
280
               0
281
               0
  0
CLASS
  1
SPATIAL_FILTER
  2
AcDbSpatialFilter
  3
AutoCAD 2000
 90
        0
280
               0
281
               0
  0
CLASS
  1
XRECORD
  2
AcDbXrecord
  3
AutoCAD 2000
 90
        0
280
               0
281
               0
  0
CLASS
  1
SORTENTSTABLE
  2
AcDbSortentsTable
  3
AutoCAD 2000
 90
        0
280
               0
281
               0
  0
CLASS
  1
LAYER_INDEX
  2
AcDbLayerIndex
  3
AutoCAD 2000
 90
        0
280
               0
281
               0
  0
CLASS
  1
SPATIAL_INDEX
  2
AcDbSpatialIndex
  3
AutoCAD 2000
 90
        0
280
               0
281
               0
  0
CLASS
  1
OBJECT_PTR
  2
CAseDLPNTableRecord
  3
"ASE-LPNTableRecord"
 90
        1
280
               0
281
               0
  0
CLASS
  1
LAYOUT
  2
AcDbLayout
  3
AutoCAD 2000
 90
        0
280
               0
281
               0
  0
CLASS
  1
PLOTSETTINGS
  2
AcDbPlotSettings
  3
AutoCAD 2000
 90
        0
280
               0
281
               0
  0
CLASS
  1
ACDBDICTIONARYWDFLT
  2
AcDbDictionaryWithDefault
  3
AutoCAD 2000
 90
        0
280
               0
281
               0
  0
CLASS
  1
ACDBPLACEHOLDER
  2
AcDbPlaceHolder
  3
AutoCAD 2000
 90
        0
280
               0
281
               0
  0
ENDSEC
  0
SECTION
  2
TABLES
  0
TABLE
  2
VPORT
  5
7
100
AcDbSymbolTable
 70
               1
  0
VPORT
  5
15
100
AcDbSymbolTableRecord
100
AcDbViewportTableRecord
  2
*ACTIVE
 70
               0
 10
0.0
 20
0.0
 11
1.0
 21
1.0
 12
0.0
 22
-12.764114914906713
 13
0.0
 23
0.0
 14
1.0
 24
1.0
 15
0.0
 25
0.0
 16
0.0
 26
0.0
 36
1.0
 17
0.0
 27
0.0
 37
0.0
 40
2837.5228151124124
 41
0.688564
 42
50.0
 43
0.0
 44
0.0
 50
0.0
 51
0.0
 71
               0
 72
            2000
 73
               1
 74
               1
 75
               0
 76
               0
 77
               0
 78
               0
281
               0
 65
               0
110
0.0
120
0.0
130
0.0
111
1.0
121
0.0
131
0.0
112
0.0
122
1.0
132
0.0
345
0
346
0
 79
               0
146
0.0
  0
ENDTAB
  0
TABLE
  2
LTYPE
  5
4
100
AcDbSymbolTable
 70
              17
  0
LTYPE
  5
11
100
AcDbSymbolTableRecord
100
AcDbLinetypeTableRecord
  2
ByBlock
 70
              64
  3

 72
              65
 73
               0
 40
0.0
  0
LTYPE
  5
12
100
AcDbSymbolTableRecord
100
AcDbLinetypeTableRecord
  2
ByLayer
 70
              64
  3

 72
              65
 73
               0
 40
0.0
  0
LTYPE
  5
13
100
AcDbSymbolTableRecord
100
AcDbLinetypeTableRecord
  2
Continuous
 70
              64
  3
Solid line
 72
              65
 73
               0
 40
0.0
  0
LTYPE
  5
2E
100
AcDbSymbolTableRecord
100
AcDbLinetypeTableRecord
  2
STYLE_01
 70
               0
  3

 72
              65
 73
               2
 40
0.516732283464567
 49
0.344488188976378
 74
               0
 49
-0.172244094488189
 74
               0
  0
LTYPE
  5
2F
100
AcDbSymbolTableRecord
100
AcDbLinetypeTableRecord
  2
STYLE_02
 70
               0
  3

 72
              65
 73
               2
 40
0.6944250000000001
 49
0.48607
 74
               0
 49
-0.2083550000000001
 74
               0
  0
LTYPE
  5
30
100
AcDbSymbolTableRecord
100
AcDbLinetypeTableRecord
  2
STYLE_03
 70
               0
  3

 72
              65
 73
               2
 40
1.25
 49
1.0416400000000001
 74
               0
 49
-0.2083599999999999
 74
               0
  0
LTYPE
  5
31
100
AcDbSymbolTableRecord
100
AcDbLinetypeTableRecord
  2
STYLE_04
 70
               0
  3

 72
              65
 73
               2
 40
1.5277099999999999
 49
1.3194249999999998
 74
               0
 49
-0.208285
 74
               0
  0
LTYPE
  5
32
100
AcDbSymbolTableRecord
100
AcDbLinetypeTableRecord
  2
STYLE_05
 70
               0
  3

 72
              65
 73
               2
 40
0.20828
 49
0.069425
 74
               0
 49
-0.138855
 74
               0
  0
LTYPE
  5
33
100
AcDbSymbolTableRecord
100
AcDbLinetypeTableRecord
  2
STYLE_06
 70
               0
  3

 72
              65
 73
               4
 40
1.0416400000000001
 49
0.625
 74
               0
 49
-0.20828
 74
               0
 49
0.06943
 74
               0
 49
-0.13893
 74
               0
  0
LTYPE
  5
34
100
AcDbSymbolTableRecord
100
AcDbLinetypeTableRecord
  2
STYLE_07
 70
               0
  3

 72
              65
 73
               6
 40
1.875
 49
0.625
 74
               0
 49
-0.20828
 74
               0
 49
0.6250000000000001
 74
               0
 49
-0.2083599999999999
 74
               0
 49
0.06943
 74
               0
 49
-0.1389299999999999
 74
               0
  0
LTYPE
  5
35
100
AcDbSymbolTableRecord
100
AcDbLinetypeTableRecord
  2
STYLE_08
 70
               0
  3

 72
              65
 73
               6
 40
1.25
 49
0.625
 74
               0
 49
-0.20828
 74
               0
 49
0.06943
 74
               0
 49
-0.13893
 74
               0
 49
0.0694299999999999
 74
               0
 49
-0.13893
 74
               0
  0
LTYPE
  5
36
100
AcDbSymbolTableRecord
100
AcDbLinetypeTableRecord
  2
STYLE_09
 70
               0
  3

 72
              65
 73
               4
 40
5.0
 49
3.75
 74
               0
 49
-0.2777849999999998
 74
               0
 49
0.6944300000000003
 74
               0
 49
-0.2777849999999998
 74
               0
  0
LTYPE
  5
37
100
AcDbSymbolTableRecord
100
AcDbLinetypeTableRecord
  2
STYLE_10
 70
               0
  3

 72
              65
 73
               6
 40
5.9375
 49
3.75
 74
               0
 49
-0.2777849999999998
 74
               0
 49
0.6944300000000003
 74
               0
 49
-0.2777849999999998
 74
               0
 49
0.625
 74
               0
 49
-0.3125
 74
               0
  0
LTYPE
  5
38
100
AcDbSymbolTableRecord
100
AcDbLinetypeTableRecord
  2
STYLE_11
 70
               0
  3

 72
              65
 73
               2
 40
0.0694444881889764
 49
0.0347222440944882
 74
               0
 49
-0.0347222440944882
 74
               0
  0
LTYPE
  5
39
100
AcDbSymbolTableRecord
100
AcDbLinetypeTableRecord
  2
STYLE_12
 70
               0
  3

 72
              65
 73
               2
 40
0.1875
 49
0.125
 74
               0
 49
-0.0625
 74
               0
  0
LTYPE
  5
3A
100
AcDbSymbolTableRecord
100
AcDbLinetypeTableRecord
  2
STYLE_13
 70
               0
  3

 72
              65
 73
               2
 40
1.0416666666666667
 49
0.6944444444444444
 74
               0
 49
-0.3472222222222222
 74
               0
  0
LTYPE
  5
3B
100
AcDbSymbolTableRecord
100
AcDbLinetypeTableRecord
  2
STYLE_14
 70
               0
  3

 72
              65
 73
               2
 40
0.6944444444444444
 49
0.3472222222222222
 74
               0
 49
-0.3472222222222222
 74
               0
  0
ENDTAB
  0
TABLE
  2
LAYER
  5
2
100
AcDbSymbolTable
 70
               5
  0
LAYER
  5
14
100
AcDbSymbolTableRecord
100
AcDbLayerTableRecord
  2
0
 70
               0
 62
               7
  6
Continuous
290
               1
370
              -3
390
1D
  0
LAYER
  5
3C
100
AcDbSymbolTableRecord
100
AcDbLayerTableRecord
  2
Defpoints
 70
               0
 62
               7
  6
Continuous
290
               0
370
              -3
390
1D
  0
LAYER
  5
3D
100
AcDbSymbolTableRecord
100
AcDbLayerTableRecord
  2
template
 70
               0
 62
               7
  6
Continuous
290
               1
370
              -3
390
1D
  0
LAYER
  5
3E
100
AcDbSymbolTableRecord
100
AcDbLayerTableRecord
  2
notes
 70
               0
 62
               7
  6
Continuous
290
               1
370
              -3
390
1D
  0
LAYER
  5
3F
100
AcDbSymbolTableRecord
100
AcDbLayerTableRecord
  2
ADF70-0107
 70
               0
 62
               7
  6
Continuous
290
               1
370
              -3
390
1D
  0
ENDTAB
  0
TABLE
  2
STYLE
  5
3
100
AcDbSymbolTable
 70
               2
  0
STYLE
  5
17
100
AcDbSymbolTableRecord
100
AcDbTextStyleTableRecord
  2
Standard
 70
               0
 40
0.0
 41
1.0
 50
0.0
 71
               0
 42
0.0
  3
txt
  4
BIGFONT.SHX
  0
STYLE
  5
2D
100
AcDbSymbolTableRecord
100
AcDbTextStyleTableRecord
  2
ＭＳ ゴシック
 70
               0
 40
0.0
 41
1.0
 50
0.0
 71
               0
 42
0.0
  3

  4
ＭＳ ゴシック
1001
ACAD
1000
ＭＳ ゴシック
1071
        0
  0
ENDTAB
  0
TABLE
  2
VIEW
  5
5
100
AcDbSymbolTable
 70
               0
  0
ENDTAB
  0
TABLE
  2
UCS
  5
6
100
AcDbSymbolTable
 70
               0
  0
ENDTAB
  0
TABLE
  2
APPID
  5
8
100
AcDbSymbolTable
 70
               1
  0
APPID
  5
16
100
AcDbSymbolTableRecord
100
AcDbRegAppTableRecord
  2
ACAD
 70
               0
  0
ENDTAB
  0
TABLE
  2
DIMSTYLE
  5
9
100
AcDbSymbolTable
 70
               3
100
AcDbDimStyleTable
 71
               0
  0
DIMSTYLE
105
18
100
AcDbSymbolTableRecord
100
AcDbDimStyleTableRecord
  2
Standard
 70
               0
  3

  4

 40
1.0
 41
0.18
 42
0.0625
 43
0.38
 44
0.18
 45
0.0
 46
0.0
 47
0.0
 48
0.0
 71
               0
 72
               0
 73
               1
 74
               1
 75
               0
 76
               0
 77
               0
 78
               0
 79
               0
140
0.18
141
0.09
142
0.0
143
25.399999999999999
144
1.0
145
0.0
146
1.0
147
0.09
148
0.0
170
               0
171
               2
172
               0
173
               0
174
               0
175
               0
176
               0
177
               0
178
               0
179
               0
271
               4
272
               4
273
               2
274
               2
275
               0
276
               0
277
               2
278
              46
279
               0
280
               0
281
               0
282
               0
283
               1
284
               0
285
               0
286
               0
288
               0
289
               3
340
17
341
0
342
0
343
0
344
0
371
              -2
372
              -2
  0
DIMSTYLE
105
48
100
AcDbSymbolTableRecord
100
AcDbDimStyleTableRecord
  2
tfrom線あり
 70
               0
  3
<>
  4
[]
 40
1.0
 41
3.999755859375
 42
24.999999999999996
 43
0.9999999999999999
 44
0.0
 45
0.0
 46
0.0
 47
0.0
 48
0.0
 71
               0
 72
               0
 73
               0
 74
               0
 75
               0
 76
               0
 77
               1
 78
              11
 79
               0
140
24.432617187500004
141
0.0
142
0.0
143
1.0
144
1.0
145
0.0
146
1.0
147
0.4999999999999999
148
0.0
170
               0
171
               1
172
               0
173
               0
174
               1
175
               0
176
               0
177
               0
178
               0
179
               2
271
               1
272
               1
273
               2
274
               2
275
               0
276
               2
277
               2
278
              46
279
               0
280
               0
281
               0
282
               0
283
               1
284
              11
285
              11
286
              11
288
               0
289
               0
340
2D
341
40
342
40
343
0
344
0
371
              -2
372
              -2
  0
DIMSTYLE
105
4D
100
AcDbSymbolTableRecord
100
AcDbDimStyleTableRecord
  2
JIS
 70
               0
  3
<>
  4
[]
 40
1.0
 41
31.75
 42
0.0
 43
6.9999999999999396
 44
19.999999999996199
 45
0.0
 46
0.0
 47
0.0
 48
0.0
 71
               0
 72
               0
 73
               0
 74
               0
 75
               0
 76
               0
 77
               1
 78
              11
 79
               0
140
24.432617187500004
141
0.0
142
0.0
143
1.0
144
1.0
145
0.0
146
1.0
147
1.00000000000108
148
0.0
170
               0
171
               1
172
               0
173
               0
174
               1
175
               0
176
               0
177
               0
178
               0
179
               2
271
               1
272
               1
273
               2
274
               2
275
               0
276
               2
277
               2
278
              46
279
               0
280
               0
281
               0
282
               0
283
               1
284
              11
285
              11
286
              11
288
               0
289
               0
340
2D
341
49
342
49
343
0
344
0
371
              -2
372
              -2
  0
ENDTAB
  0
TABLE
  2
BLOCK_RECORD
  5
1
100
AcDbSymbolTable
 70
              12
  0
BLOCK_RECORD
  5
A
100
AcDbSymbolTableRecord
100
AcDbBlockTableRecord
  2
*MODEL_SPACE
340
20
  0
BLOCK_RECORD
  5
B
100
AcDbSymbolTableRecord
100
AcDbBlockTableRecord
  2
*PAPER_SPACE
340
21
  0
BLOCK_RECORD
  5
40
100
AcDbSymbolTableRecord
100
AcDbBlockTableRecord
  2
_DOT
340
0
  0
BLOCK_RECORD
  5
49
100
AcDbSymbolTableRecord
100
AcDbBlockTableRecord
  2
VW_FILLEDARROW
340
0
  0
BLOCK_RECORD
  5
23
100
AcDbSymbolTableRecord
100
AcDbBlockTableRecord
  2
グループ
340
0
102
{BLKREFS
331
D1
102
}
  0
BLOCK_RECORD
  5
24
100
AcDbSymbolTableRecord
100
AcDbBlockTableRecord
  2
*D3
340
0
  0
BLOCK_RECORD
  5
25
100
AcDbSymbolTableRecord
100
AcDbBlockTableRecord
  2
*D4
340
0
  0
BLOCK_RECORD
  5
26
100
AcDbSymbolTableRecord
100
AcDbBlockTableRecord
  2
*D5
340
0
  0
BLOCK_RECORD
  5
27
100
AcDbSymbolTableRecord
100
AcDbBlockTableRecord
  2
*D6
340
0
  0
BLOCK_RECORD
  5
28
100
AcDbSymbolTableRecord
100
AcDbBlockTableRecord
  2
*D7
340
0
  0
BLOCK_RECORD
  5
29
100
AcDbSymbolTableRecord
100
AcDbBlockTableRecord
  2
*D8
340
0
  0
BLOCK_RECORD
  5
2A
100
AcDbSymbolTableRecord
100
AcDbBlockTableRecord
  2
*D9
340
0
  0
BLOCK_RECORD
  5
2B
100
AcDbSymbolTableRecord
100
AcDbBlockTableRecord
  2
*D10
340
0
  0
BLOCK_RECORD
  5
2C
100
AcDbSymbolTableRecord
100
AcDbBlockTableRecord
  2
*D11
340
0
  0
ENDTAB
  0
ENDSEC
  0
SECTION
  2
BLOCKS
  0
BLOCK
  5
D
100
AcDbEntity
  8
0
390
0
100
AcDbBlockBegin
  2
*MODEL_SPACE
 70
               0
 10
0.0
 20
0.0
 30
0.0
  3
*MODEL_SPACE
  1

  0
ENDBLK
  5
E
100
AcDbEntity
  8
0
390
0
100
AcDbBlockEnd
  0
BLOCK
  5
F
100
AcDbEntity
 67
               1
  8
0
390
0
100
AcDbBlockBegin
  2
*PAPER_SPACE
 70
               0
 10
0.0
 20
0.0
 30
0.0
  3
*PAPER_SPACE
  1

  0
ENDBLK
  5
10
100
AcDbEntity
 67
               1
  8
0
390
0
100
AcDbBlockEnd
  0
BLOCK
  5
41
100
AcDbEntity
  8
0
390
0
100
AcDbBlockBegin
  2
_DOT
 70
               0
 10
0.0
 20
0.0
 30
0.0
  3
_DOT
  1

  0
POLYLINE
  5
42
100
AcDbEntity
  8
0
370
              -2
390
0
  6
ByBlock
 62
               0
100
AcDb2dPolyline
 66
               1
 10
0.0
 20
0.0
 30
0.0
 70
               1
 40
0.5
 41
0.5
  0
VERTEX
  5
43
100
AcDbEntity
  8
0
370
              -2
390
0
  6
ByBlock
 62
               0
100
AcDbVertex
100
AcDb2dVertex
 10
-0.25
 20
0.0
 30
0.0
 42
1.0
  0
VERTEX
  5
44
100
AcDbEntity
  8
0
370
              -2
390
0
  6
ByBlock
 62
               0
100
AcDbVertex
100
AcDb2dVertex
 10
0.25
 20
0.0
 30
0.0
 42
1.0
  0
SEQEND
  5
45
100
AcDbEntity
  8
0
390
0
  0
LINE
  5
46
100
AcDbEntity
  8
0
370
              -2
390
0
  6
ByBlock
 62
               0
100
AcDbLine
 10
-0.5
 20
0.0
 30
0.0
 11
-1.0
 21
0.0
 31
0.0
  0
ENDBLK
  5
47
100
AcDbEntity
  8
0
390
0
100
AcDbBlockEnd
  0
BLOCK
  5
4A
100
AcDbEntity
  8
0
370
              -2
390
0
  6
ByBlock
 62
               0
100
AcDbBlockBegin
  2
VW_FILLEDARROW
 70
               0
 10
0.0
 20
0.0
 30
0.0
  3
VW_FILLEDARROW
  1

  0
SOLID
  5
4B
100
AcDbEntity
  8
0
370
              -2
390
0
 62
               0
100
AcDbTrace
 10
0.0
 20
0.0
 30
0.0
 11
-0.9921874999999999
 21
-0.2658558393652545
 31
0.0
 12
-0.9921874999999999
 22
0.2658558393652548
 32
0.0
 13
-0.9921874999999999
 23
0.2658558393652548
 33
0.0
  0
ENDBLK
  5
4C
100
AcDbEntity
  8
0
390
0
100
AcDbBlockEnd
  0
BLOCK
  5
4E
100
AcDbEntity
  8
template
390
0
100
AcDbBlockBegin
  2
グループ
 70
               0
 10
0.0
 20
0.0
 30
0.0
  3
グループ
  1

  0
LWPOLYLINE
  5
4F
100
AcDbEntity
  8
0
370
              15
390
0
  6
Continuous
 62
               7
100
AcDbPolyline
 90
        8
 70
             129
 10
-1129.6804006129062
 20
-1831.3364734304548
 10
-1129.6804006129062
 20
-1837.3338621240307
 10
-1139.1815975309096
 20
-1837.3338621240307
 10
-1139.1815975309096
 20
-1861.7848253875395
 10
-1147.5369747926923
 20
-1861.7848253875395
 10
-1147.5369747926923
 20
-1837.3338621240307
 10
-1156.8699317390017
 20
-1837.3338621240307
 10
-1156.8699317390017
 20
-1831.3364734304548
  0
LWPOLYLINE
  5
50
100
AcDbEntity
  8
0
370
              15
390
0
  6
Continuous
 62
               7
100
AcDbPolyline
 90
      101
 70
             128
 10
-1116.9521087823491
 20
-1832.0647219233913
 10
-1116.9367587535658
 20
-1832.0603611667066
 42
-0.0222221607814276
 10
-1116.646754176893
 20
-1831.9917367014616
 10
-1116.6309604129015
 20
-1831.9887332783651
 42
-0.0146883565589265
 10
-1116.3682577076752
 20
-1831.9467300914152
 42
-0.0127458844185848
 10
-1116.103618740525
 20
-1831.9191931233429
 10
-1116.0411636622096
 20
-1831.9142997007546
 42
-0.0198099018570718
 10
-1115.6503145527395
 20
-1831.8992145433581
 10
-1115.598503083289
 20
-1831.8992683190231
 42
-0.0147617382761934
 10
-1115.1038796223115
 20
-1831.914388344268
 10
-1115.0311881674395
 20
-1831.9187609511557
 42
-0.0162624549004524
 10
-1114.6410345379752
 20
-1831.9549938264279
 10
-1114.5195021467209
 20
-1831.9702803854238
 42
-0.0080020874670361
 10
-1114.3739231156244
 20
-1831.9909632326928
 10
-1114.3356036450282
 20
-1831.9970345105041
 42
-0.0053821929680187
 10
-1114.2671195397147
 20
-1832.0086420343255
 10
-1114.9935252389132
 20
-1834.1895704900394
 42
0.0108667757399473
 10
-1115.0608423090437
 20
-1834.1763833748196
 10
-1115.0983103322335
 20
-1834.169885632225
 42
0.0170663203304341
 10
-1115.2415271191453
 20
-1834.1500560349336
 10
-1115.3094024518321
 20
-1834.1430088643458
 42
0.0220162375272432
 10
-1115.589781859685
 20
-1834.1263265035757
 10
-1115.6676374267424
 20
-1834.1251271363092
 42
0.0282606915786607
 10
-1116.0032737503175
 20
-1834.1389304132781
 10
-1116.0471870240881
 20
-1834.1432304032817
 42
0.0169677213687422
 10
-1116.2931115190486
 20
-1834.175767452834
 42
0.0190576269873411
 10
-1116.5360194816324
 20
-1834.2259143249412
 10
-1116.5422786697395
 20
-1834.2274572990495
 42
0.0213685642839587
 10
-1116.7926631542152
 20
-1834.3006575841534
 10
-1116.7981530491334
 20
-1834.3025205802132
 42
0.0237595297586489
 10
-1117.0516479340292
 20
-1834.4022051021075
 10
-1117.0567500080617
 20
-1834.404496877587
 42
0.0261857468808156
 10
-1117.3089207842895
 20
-1834.5340332149601
 10
-1117.3193469733785
 20
-1834.5400986894299
 42
0.027255306202249
 10
-1117.5557767486173
 20
-1834.6954708953745
 10
-1117.5905397621273
 20
-1834.7211320434669
 42
0.0325996893177675
 10
-1117.7406951057783
 20
-1834.8478799164379
 10
-1117.764404534905
 20
-1834.8706979449544
 42
0.0138050960647761
 10
-1117.8562876911114
 20
-1834.9641476065026
 42
0.0125280103809111
 10
-1117.9431302239443
 20
-1835.0623109331018
 10
-1117.9668106688532
 20
-1835.0904694312899
 42
0.0205218024736455
 10
-1118.0919107443676
 20
-1835.2522627455196
 10
-1118.1143770848541
 20
-1835.2839224753459
 42
0.0163110129580495
 10
-1118.2700874641046
 20
-1835.5192529104143
 10
-1118.2728113601565
 20
-1835.5236766724013
 42
0.0131897341894414
 10
-1118.4196118810598
 20
-1835.7768087647612
 10
-1118.4213119764288
 20
-1835.7799270039013
 42
0.0107895576062046
 10
-1118.5590886786401
 20
-1836.0461422135377
 10
-1118.5598215681646
 20
-1836.0476364461831
 42
0.0091371507216436
 10
-1118.6883015168153
 20
-1836.3221616439453
 10
-1118.7180471482234
 20
-1836.3888681511016
 42
0.0135418326353262
 10
-1118.8897610872955
 20
-1836.8038059363719
 10
-1118.9233658957296
 20
-1836.8916720786526
 42
0.0092834542411395
 10
-1119.0945949556503
 20
-1837.365570576957
 10
-1119.1202120833684
 20
-1837.4408116467519
 42
0.0054261043583896
 10
-1119.2278502316608
 20
-1837.7685756198152
 10
-1119.2453762178536
 20
-1837.8239637820943
 42
0.0008225090816846
 10
-1119.3140462696683
 20
-1838.0422325401946
 10
-1120.2987354016018
 20
-1841.0671238334512
 10
-1117.0661115615278
 20
-1841.0671238334512
 10
-1117.5703039913813
 20
-1842.9716021318036
 10
-1120.8263602733646
 20
-1842.9716021318036
 10
-1126.6555093057184
 20
-1861.7848251978085
 10
-1128.4806069160286
 20
-1861.7848251978085
 10
-1122.6459288805277
 20
-1842.9716021318036
 10
-1125.0510452495682
 20
-1842.9716021318036
 10
-1124.5468528197148
 20
-1841.0671238334512
 10
-1122.1183040087647
 20
-1841.0671238334512
 10
-1121.2581490905759
 20
-1838.4307108327523
 42
-0.0005863560654167
 10
-1121.2214144123996
 20
-1838.3138844125467
 10
-1121.1453265787122
 20
-1838.0728921130751
 42
-0.0087522378928477
 10
-1120.9458584352556
 20
-1837.47761602593
 10
-1120.8535941598416
 20
-1837.2174758574154
 42
-0.0077400953831065
 10
-1120.5956605007107
 20
-1836.5244711798673
 10
-1120.5798955291334
 20
-1836.4840402964853
 42
-0.008236994633008
 10
-1120.3328110585198
 20
-1835.8799612302855
 42
-0.0085725238363047
 10
-1120.0655649625157
 20
-1835.2845351909957
 10
-1119.9639353615103
 20
-1835.0681140890149
 42
-0.0168109410596338
 10
-1119.6769909327795
 20
-1834.5069065629091
 10
-1119.551147542337
 20
-1834.2799425299415
 42
-0.000781772686424
 10
-1119.4968631922638
 20
-1834.1823982848805
 10
-1119.4967348862497
 20
-1834.1821685761495
 42
-0.0036626142154035
 10
-1119.4418470222254
 20
-1834.0855706961756
 42
-0.0080221150682171
 10
-1119.3847227668216
 20
-1833.9902914614277
 10
-1119.3540228154575
 20
-1833.9409005123007
 42
-0.0202139325576948
 10
-1119.2263670756513
 20
-1833.7529189116201
 10
-1119.1722996104631
 20
-1833.6798400473783
 42
-0.024932379179862
 10
-1118.9131368167448
 20
-1833.3637948052246
 10
-1118.8889970026171
 20
-1833.3371805323113
 42
-0.0242132121535707
 10
-1118.5493162610751
 20
-1832.9972970461074
 10
-1118.5014046883241
 20
-1832.9537879099212
 42
-0.0251017527860037
 10
-1118.2174229876837
 20
-1832.7207951641567
 10
-1118.2159775108655
 20
-1832.7197259065745
 42
-0.0130868069034501
 10
-1117.9177168609126
 20
-1832.5109454380352
 10
-1117.9161550417689
 20
-1832.5099119977594
 42
-0.029032952638947
 10
-1117.6050439003766
 20
-1832.3290864961309
 10
-1117.5751983383882
 20
-1832.3139841132902
 42
-0.0160250190046588
 10
-1117.3092939246258
 20
-1832.1899680030779
 42
-0.0267600374782478
 10
-1117.0340178471574
 20
-1832.0892196825296
 10
-1117.0072819276361
 20
-1832.0810271237037
 42
-0.0049981587669928
 10
-1116.9521087823491
 20
-1832.0647219233913
 42
-0.0049981587669928
  0
LWPOLYLINE
  5
51
100
AcDbEntity
  8
0
370
              15
390
0
  6
Continuous
 62
               7
100
AcDbPolyline
 90
      118
 70
             128
 10
-1097.1377412179022
 20
-1841.1411071612786
 10
-1095.2626192934028
 20
-1841.1411071612786
 10
-1096.1006581990027
 20
-1843.8226736876786
 42
-0.001058722924262
 10
-1096.0692023834288
 20
-1843.7857691543206
 10
-1096.011008292799
 20
-1843.7177868981476
 42
-0.0071874740408314
 10
-1095.8606330747045
 20
-1843.5471462061228
 10
-1095.7189103014384
 20
-1843.3909100648052
 42
-0.0148118053511753
 10
-1095.2687810087277
 20
-1842.9232962187939
 10
-1095.1815586738251
 20
-1842.8378988979396
 42
-0.0086273358691471
 10
-1094.8460098728156
 20
-1842.5205232639223
 10
-1094.8021761565901
 20
-1842.4804736195897
 42
-0.0103138323116109
 10
-1094.5441524543562
 20
-1842.254310482251
 10
-1094.4983780480286
 20
-1842.2158284349903
 42
-0.0060206748562049
 10
-1094.3255299839168
 20
-1842.0740337842362
 10
-1094.3234988530298
 20
-1842.0724080786042
 42
-0.0067069027289268
 10
-1094.1512060383684
 20
-1841.93825744481
 10
-1094.1486572724466
 20
-1841.9363272749379
 42
-0.0076184352046509
 10
-1093.9777520065711
 20
-1841.8109523996909
 42
-0.0089652861668815
 10
-1093.8027910438343
 20
-1841.6913191393569
 10
-1093.7664393236948
 20
-1841.6674079258776
 42
-0.0156916245938576
 10
-1093.5704798265315
 20
-1841.547145439401
 42
-0.0023299011061801
 10
-1093.3702177825508
 20
-1841.4339674998596
 10
-1093.3548336501719
 20
-1841.4253675047955
 42
-0.0107669341485156
 10
-1093.1205968250649
 20
-1841.3009673714432
 10
-1093.0983320239957
 20
-1841.2897506214961
 42
-0.0078058045896975
 10
-1092.8147419060474
 20
-1841.1523891658596
 10
-1092.8048348183338
 20
-1841.1477800379892
 42
-0.0181829330474051
 10
-1092.4945254137203
 20
-1841.0169162968944
 10
-1092.4404699711533
 20
-1840.9964011769507
 42
-0.0208411536030498
 10
-1092.0913850037011
 20
-1840.8803107144568
 10
-1092.077028903574
 20
-1840.8761922695035
 42
-0.0222799817135569
 10
-1091.7483091096565
 20
-1840.797550703363
 10
-1091.7394201464194
 20
-1840.7958386927778
 42
-0.0215509523882023
 10
-1091.4229491781398
 20
-1840.7489230042438
 10
-1091.3804672170897
 20
-1840.7444854774528
 42
-0.0182545924873259
 10
-1091.1463584377855
 20
-1840.7286416520619
 10
-1091.1069574214464
 20
-1840.727417106983
 42
-0.0072962856538034
 10
-1090.9510345417484
 20
-1840.7248477784606
 10
-1090.9219348711702
 20
-1840.7247929430569
 42
-0.0059227516306103
 10
-1090.8241853720315
 20
-1840.7257666548471
 10
-1090.7949431544764
 20
-1840.7264044214523
 42
-0.0011833111881741
 10
-1090.7556918708271
 20
-1840.7273534257606
 10
-1091.5510784664343
 20
-1843.2660873708596
 42
0.0143932051571293
 10
-1091.5774798487885
 20
-1843.2558884008131
 10
-1091.5847518212022
 20
-1843.2533171819568
 42
0.0234388603487646
 10
-1091.6265826871311
 20
-1843.2406979462426
 10
-1091.635264350047
 20
-1843.2385169842366
 42
0.0199162742979666
 10
-1091.695553184127
 20
-1843.2259002489016
 10
-1091.7163671219332
 20
-1843.2224030494731
 42
0.0293643550671364
 10
-1091.8194419806935
 20
-1843.2112530038198
 10
-1091.8441271614126
 20
-1843.2100413868013
 42
0.0214606686870396
 10
-1091.9972680773651
 20
-1843.209102826384
 10
-1092.006639988183
 20
-1843.2094477379283
 42
0.0167564054188686
 10
-1092.1781601792968
 20
-1843.2215247802967
 10
-1092.1866199720507
 20
-1843.2224061207235
 42
0.0137677553249128
 10
-1092.3739732853212
 20
-1843.2471554292677
 10
-1092.3813250248231
 20
-1843.2483333492348
 42
0.0118497261485353
 10
-1092.5818227889249
 20
-1843.285350699424
 10
-1092.5879727961717
 20
-1843.2866375621441
 42
0.010642114389249
 10
-1092.7988536834596
 20
-1843.3354699377196
 10
-1092.8037624918459
 20
-1843.3367172804039
 42
0.0099746379700816
 10
-1093.0222209610047
 20
-1843.3968918087176
 10
-1093.0837690011786
 20
-1843.4151736873494
 42
0.0191613675861615
 10
-1093.4197534636958
 20
-1843.529151067637
 10
-1093.5078132364408
 20
-1843.562837977961
 42
0.0205274080144683
 10
-1093.8931200083402
 20
-1843.7286663857869
 10
-1093.9507692903187
 20
-1843.7563343503575
 42
0.0181256912188493
 10
-1094.2090462309893
 20
-1843.892018169337
 10
-1094.262001614303
 20
-1843.9223357825517
 42
0.0140709242408795
 10
-1094.4069565489315
 20
-1844.0108304559863
 10
-1094.43320541755
 20
-1844.0278872747017
 42
0.0086667884395258
 10
-1094.5221315790925
 20
-1844.0878899425845
 42
0.0036408192027326
 10
-1094.6095648171331
 20
-1844.1500708003821
 10
-1094.6447916915945
 20
-1844.1755117462897
 42
0.0052260781271724
 10
-1094.8010203889796
 20
-1844.2908441329193
 10
-1094.8172272452452
 20
-1844.3030722435419
 42
0.0050024435890034
 10
-1095.0032305882971
 20
-1844.4463548117988
 10
-1095.0185487448193
 20
-1844.4584008342499
 42
0.0136138710276235
 10
-1095.2289900131452
 20
-1844.6333673391639
 10
-1095.2626578889381
 20
-1844.6629463118775
 42
0.0172815186909548
 10
-1095.5270614305987
 20
-1844.9119429844989
 10
-1095.5296237764433
 20
-1844.914528801648
 42
0.0189403857991495
 10
-1095.7802055750217
 20
-1845.1873340664517
 10
-1095.8128370685574
 20
-1845.2256779979484
 42
0.0185044199505118
 10
-1096.0047935075384
 20
-1845.4689265790726
 42
0.0088565243899029
 10
-1096.1832536141658
 20
-1845.7224429992209
 10
-1096.1924315938154
 20
-1845.7359843789825
 42
0.0157195347228041
 10
-1096.3756522001499
 20
-1846.0255065882991
 10
-1096.4217351420778
 20
-1846.1036587853146
 42
0.0095451879781531
 10
-1096.5868206922178
 20
-1846.3962534276757
 10
-1096.5979686111482
 20
-1846.416924099809
 42
0.0100351706258903
 10
-1096.7300123603068
 20
-1846.6739796602983
 42
0.008693591542578
 10
-1096.8523435120987
 20
-1846.9358128056981
 10
-1096.8556642535154
 20
-1846.9432551286745
 42
0.0072580174864594
 10
-1096.9760107054576
 20
-1847.2238471202509
 10
-1096.9792723387668
 20
-1847.2317671462756
 42
0.0060005122609996
 10
-1097.0984730071091
 20
-1847.5313768168799
 10
-1097.101683985451
 20
-1847.5397383447853
 42
0.004901778697904
 10
-1097.2205841443094
 20
-1847.8586673253928
 10
-1097.2237499506987
 20
-1847.8674202626203
 42
0.0039415167605522
 10
-1097.3431862287555
 20
-1848.2059623250334
 10
-1097.3463173314076
 20
-1848.2150655259095
 42
0.0031035838765747
 10
-1097.4671221170984
 20
-1848.5735053876756
 10
-1097.4702321616312
 20
-1848.5829260090577
 42
0.0025070747153068
 10
-1097.5931335129419
 20
-1848.9615732259874
 10
-1097.6304274093718
 20
-1849.0784648912547
 42
0.0029081910284859
 10
-1097.8224457071874
 20
-1849.6926285495615
 10
-1097.8632488756998
 20
-1849.8258517918223
 42
0.0009266453732565
 10
-1098.1316662500133
 20
-1850.7080762517417
 10
-1098.1525537226503
 20
-1850.7771881309659
 42
-0.0005809993666188
 10
-1098.4298904032462
 20
-1851.6909962376208
 10
-1098.4961722015237
 20
-1851.9084811697949
 42
-0.0012018708166704
 10
-1098.6431565109483
 20
-1852.3866438343011
 10
-1098.6954763625072
 20
-1852.5554029751456
 42
-0.0002691059606393
 10
-1098.7390458436826
 20
-1852.6956705955088
 10
-1101.5720017419717
 20
-1861.7848251978085
 10
-1103.3899906339502
 20
-1861.7848251978085
 10
-1097.1377412179022
 20
-1841.1411071612786
  0
SPLINE
  5
52
100
AcDbEntity
  8
0
370
              15
390
0
  6
Continuous
 62
               7
100
AcDbSpline
210
0.0
220
0.0
230
1.0
 70
              13
 71
               2
 72
             782
 73
             779
 74
               0
 42
0.000001
 43
0.000001
 40
0.0
 40
0.0
 40
0.0
 40
1.0
 40
1.0
 40
2.0
 40
2.0
 40
3.0
 40
3.0
 40
4.0
 40
4.0
 40
5.0
 40
5.0
 40
6.0
 40
6.0
 40
7.0
 40
7.0
 40
8.0
 40
8.0
 40
9.0
 40
9.0
 40
10.0
 40
10.0
 40
11.0
 40
11.0
 40
12.0
 40
12.0
 40
13.0
 40
13.0
 40
14.0
 40
14.0
 40
15.0
 40
15.0
 40
16.0
 40
16.0
 40
17.0
 40
17.0
 40
18.0
 40
18.0
 40
19.0
 40
19.0
 40
20.0
 40
20.0
 40
21.0
 40
21.0
 40
22.0
 40
22.0
 40
23.0
 40
23.0
 40
24.0
 40
24.0
 40
25.0
 40
25.0
 40
26.0
 40
26.0
 40
27.0
 40
27.0
 40
28.0
 40
28.0
 40
29.0
 40
29.0
 40
30.0
 40
30.0
 40
31.0
 40
31.0
 40
32.0
 40
32.0
 40
33.0
 40
33.0
 40
34.0
 40
34.0
 40
35.0
 40
35.0
 40
36.0
 40
36.0
 40
37.0
 40
37.0
 40
38.0
 40
38.0
 40
39.0
 40
39.0
 40
40.0
 40
40.0
 40
41.0
 40
41.0
 40
42.0
 40
42.0
 40
43.0
 40
43.0
 40
44.0
 40
44.0
 40
45.0
 40
45.0
 40
46.0
 40
46.0
 40
47.0
 40
47.0
 40
48.0
 40
48.0
 40
49.0
 40
49.0
 40
50.0
 40
50.0
 40
51.0
 40
51.0
 40
52.0
 40
52.0
 40
53.0
 40
53.0
 40
54.0
 40
54.0
 40
55.0
 40
55.0
 40
56.0
 40
56.0
 40
57.0
 40
57.0
 40
58.0
 40
58.0
 40
59.0
 40
59.0
 40
60.0
 40
60.0
 40
61.0
 40
61.0
 40
62.0
 40
62.0
 40
63.0
 40
63.0
 40
64.0
 40
64.0
 40
65.0
 40
65.0
 40
66.0
 40
66.0
 40
67.0
 40
67.0
 40
68.0
 40
68.0
 40
69.0
 40
69.0
 40
70.0
 40
70.0
 40
71.0
 40
71.0
 40
72.0
 40
72.0
 40
73.0
 40
73.0
 40
74.0
 40
74.0
 40
75.0
 40
75.0
 40
76.0
 40
76.0
 40
77.0
 40
77.0
 40
78.0
 40
78.0
 40
79.0
 40
79.0
 40
80.0
 40
80.0
 40
81.0
 40
81.0
 40
82.0
 40
82.0
 40
83.0
 40
83.0
 40
84.0
 40
84.0
 40
85.0
 40
85.0
 40
86.0
 40
86.0
 40
87.0
 40
87.0
 40
88.0
 40
88.0
 40
89.0
 40
89.0
 40
90.0
 40
90.0
 40
91.0
 40
91.0
 40
92.0
 40
92.0
 40
93.0
 40
93.0
 40
94.0
 40
94.0
 40
95.0
 40
95.0
 40
96.0
 40
96.0
 40
97.0
 40
97.0
 40
98.0
 40
98.0
 40
99.0
 40
99.0
 40
100.0
 40
100.0
 40
101.0
 40
101.0
 40
102.0
 40
102.0
 40
103.0
 40
103.0
 40
104.0
 40
104.0
 40
105.0
 40
105.0
 40
106.0
 40
106.0
 40
107.0
 40
107.0
 40
108.0
 40
108.0
 40
109.0
 40
109.0
 40
110.0
 40
110.0
 40
111.0
 40
111.0
 40
112.0
 40
112.0
 40
113.0
 40
113.0
 40
114.0
 40
114.0
 40
115.0
 40
115.0
 40
116.0
 40
116.0
 40
117.0
 40
117.0
 40
118.0
 40
118.0
 40
119.0
 40
119.0
 40
120.0
 40
120.0
 40
121.0
 40
121.0
 40
122.0
 40
122.0
 40
123.0
 40
123.0
 40
124.0
 40
124.0
 40
125.0
 40
125.0
 40
126.0
 40
126.0
 40
127.0
 40
127.0
 40
128.0
 40
128.0
 40
129.0
 40
129.0
 40
130.0
 40
130.0
 40
131.0
 40
131.0
 40
132.0
 40
132.0
 40
133.0
 40
133.0
 40
134.0
 40
134.0
 40
135.0
 40
135.0
 40
136.0
 40
136.0
 40
137.0
 40
137.0
 40
138.0
 40
138.0
 40
139.0
 40
139.0
 40
140.0
 40
140.0
 40
141.0
 40
141.0
 40
142.0
 40
142.0
 40
143.0
 40
143.0
 40
144.0
 40
144.0
 40
145.0
 40
145.0
 40
146.0
 40
146.0
 40
147.0
 40
147.0
 40
148.0
 40
148.0
 40
149.0
 40
149.0
 40
150.0
 40
150.0
 40
151.0
 40
151.0
 40
152.0
 40
152.0
 40
153.0
 40
153.0
 40
154.0
 40
154.0
 40
155.0
 40
155.0
 40
156.0
 40
156.0
 40
157.0
 40
157.0
 40
158.0
 40
158.0
 40
159.0
 40
159.0
 40
160.0
 40
160.0
 40
161.0
 40
161.0
 40
162.0
 40
162.0
 40
163.0
 40
163.0
 40
164.0
 40
164.0
 40
165.0
 40
165.0
 40
166.0
 40
166.0
 40
167.0
 40
167.0
 40
168.0
 40
168.0
 40
169.0
 40
169.0
 40
170.0
 40
170.0
 40
171.0
 40
171.0
 40
172.0
 40
172.0
 40
173.0
 40
173.0
 40
174.0
 40
174.0
 40
175.0
 40
175.0
 40
176.0
 40
176.0
 40
177.0
 40
177.0
 40
178.0
 40
178.0
 40
179.0
 40
179.0
 40
180.0
 40
180.0
 40
181.0
 40
181.0
 40
182.0
 40
182.0
 40
183.0
 40
183.0
 40
184.0
 40
184.0
 40
185.0
 40
185.0
 40
186.0
 40
186.0
 40
187.0
 40
187.0
 40
188.0
 40
188.0
 40
189.0
 40
189.0
 40
190.0
 40
190.0
 40
191.0
 40
191.0
 40
192.0
 40
192.0
 40
193.0
 40
193.0
 40
194.0
 40
194.0
 40
195.0
 40
195.0
 40
196.0
 40
196.0
 40
197.0
 40
197.0
 40
198.0
 40
198.0
 40
199.0
 40
199.0
 40
200.0
 40
200.0
 40
201.0
 40
201.0
 40
202.0
 40
202.0
 40
203.0
 40
203.0
 40
204.0
 40
204.0
 40
205.0
 40
205.0
 40
206.0
 40
206.0
 40
207.0
 40
207.0
 40
208.0
 40
208.0
 40
209.0
 40
209.0
 40
210.0
 40
210.0
 40
211.0
 40
211.0
 40
212.0
 40
212.0
 40
213.0
 40
213.0
 40
214.0
 40
214.0
 40
215.0
 40
215.0
 40
216.0
 40
216.0
 40
217.0
 40
217.0
 40
218.0
 40
218.0
 40
219.0
 40
219.0
 40
220.0
 40
220.0
 40
221.0
 40
221.0
 40
222.0
 40
222.0
 40
223.0
 40
223.0
 40
224.0
 40
224.0
 40
225.0
 40
225.0
 40
226.0
 40
226.0
 40
227.0
 40
227.0
 40
228.0
 40
228.0
 40
229.0
 40
229.0
 40
230.0
 40
230.0
 40
231.0
 40
231.0
 40
232.0
 40
232.0
 40
233.0
 40
233.0
 40
234.0
 40
234.0
 40
235.0
 40
235.0
 40
236.0
 40
236.0
 40
237.0
 40
237.0
 40
238.0
 40
238.0
 40
239.0
 40
239.0
 40
240.0
 40
240.0
 40
241.0
 40
241.0
 40
242.0
 40
242.0
 40
243.0
 40
243.0
 40
244.0
 40
244.0
 40
245.0
 40
245.0
 40
246.0
 40
246.0
 40
247.0
 40
247.0
 40
248.0
 40
248.0
 40
249.0
 40
249.0
 40
250.0
 40
250.0
 40
251.0
 40
251.0
 40
252.0
 40
252.0
 40
253.0
 40
253.0
 40
254.0
 40
254.0
 40
255.0
 40
255.0
 40
256.0
 40
256.0
 40
257.0
 40
257.0
 40
258.0
 40
258.0
 40
259.0
 40
259.0
 40
260.0
 40
260.0
 40
261.0
 40
261.0
 40
262.0
 40
262.0
 40
263.0
 40
263.0
 40
264.0
 40
264.0
 40
265.0
 40
265.0
 40
266.0
 40
266.0
 40
267.0
 40
267.0
 40
268.0
 40
268.0
 40
269.0
 40
269.0
 40
270.0
 40
270.0
 40
271.0
 40
271.0
 40
272.0
 40
272.0
 40
273.0
 40
273.0
 40
274.0
 40
274.0
 40
275.0
 40
275.0
 40
276.0
 40
276.0
 40
277.0
 40
277.0
 40
278.0
 40
278.0
 40
279.0
 40
279.0
 40
280.0
 40
280.0
 40
281.0
 40
281.0
 40
282.0
 40
282.0
 40
283.0
 40
283.0
 40
284.0
 40
284.0
 40
285.0
 40
285.0
 40
286.0
 40
286.0
 40
287.0
 40
287.0
 40
288.0
 40
288.0
 40
289.0
 40
289.0
 40
290.0
 40
290.0
 40
291.0
 40
291.0
 40
292.0
 40
292.0
 40
293.0
 40
293.0
 40
294.0
 40
294.0
 40
295.0
 40
295.0
 40
296.0
 40
296.0
 40
297.0
 40
297.0
 40
298.0
 40
298.0
 40
299.0
 40
299.0
 40
300.0
 40
300.0
 40
301.0
 40
301.0
 40
302.0
 40
302.0
 40
303.0
 40
303.0
 40
304.0
 40
304.0
 40
305.0
 40
305.0
 40
306.0
 40
306.0
 40
307.0
 40
307.0
 40
308.0
 40
308.0
 40
309.0
 40
309.0
 40
310.0
 40
310.0
 40
311.0
 40
311.0
 40
312.0
 40
312.0
 40
313.0
 40
313.0
 40
314.0
 40
314.0
 40
315.0
 40
315.0
 40
316.0
 40
316.0
 40
317.0
 40
317.0
 40
318.0
 40
318.0
 40
319.0
 40
319.0
 40
320.0
 40
320.0
 40
321.0
 40
321.0
 40
322.0
 40
322.0
 40
323.0
 40
323.0
 40
324.0
 40
324.0
 40
325.0
 40
325.0
 40
326.0
 40
326.0
 40
327.0
 40
327.0
 40
328.0
 40
328.0
 40
329.0
 40
329.0
 40
330.0
 40
330.0
 40
331.0
 40
331.0
 40
332.0
 40
332.0
 40
333.0
 40
333.0
 40
334.0
 40
334.0
 40
335.0
 40
335.0
 40
336.0
 40
336.0
 40
337.0
 40
337.0
 40
338.0
 40
338.0
 40
339.0
 40
339.0
 40
340.0
 40
340.0
 40
341.0
 40
341.0
 40
342.0
 40
342.0
 40
343.0
 40
343.0
 40
344.0
 40
344.0
 40
345.0
 40
345.0
 40
346.0
 40
346.0
 40
347.0
 40
347.0
 40
348.0
 40
348.0
 40
349.0
 40
349.0
 40
350.0
 40
350.0
 40
351.0
 40
351.0
 40
352.0
 40
352.0
 40
353.0
 40
353.0
 40
354.0
 40
354.0
 40
355.0
 40
355.0
 40
356.0
 40
356.0
 40
357.0
 40
357.0
 40
358.0
 40
358.0
 40
359.0
 40
359.0
 40
360.0
 40
360.0
 40
361.0
 40
361.0
 40
362.0
 40
362.0
 40
363.0
 40
363.0
 40
364.0
 40
364.0
 40
365.0
 40
365.0
 40
366.0
 40
366.0
 40
367.0
 40
367.0
 40
368.0
 40
368.0
 40
369.0
 40
369.0
 40
370.0
 40
370.0
 40
371.0
 40
371.0
 40
372.0
 40
372.0
 40
373.0
 40
373.0
 40
374.0
 40
374.0
 40
375.0
 40
375.0
 40
376.0
 40
376.0
 40
377.0
 40
377.0
 40
378.0
 40
378.0
 40
379.0
 40
379.0
 40
380.0
 40
380.0
 40
381.0
 40
381.0
 40
382.0
 40
382.0
 40
383.0
 40
383.0
 40
384.0
 40
384.0
 40
385.0
 40
385.0
 40
386.0
 40
386.0
 40
387.0
 40
387.0
 40
388.0
 40
388.0
 40
389.0
 40
389.0
 40
389.0
 10
-1086.8090367671698
 20
-1841.1301807979162
 30
0.0
 41
1.0
 10
-1085.9906126584492
 20
-1841.1301807979162
 30
0.0
 41
1.0
 10
-1085.1721885497286
 20
-1841.1301807979162
 30
0.0
 41
1.0
 10
-1085.5859422852454
 20
-1842.4728070621659
 30
0.0
 41
1.0
 10
-1085.9996960207623
 20
-1843.8154333264156
 30
0.0
 41
1.0
 10
-1085.9813565256031
 20
-1843.7867325535176
 30
0.0
 41
0.9999957264359382
 10
-1085.9628495287802
 20
-1843.7581395033794
 30
0.0
 41
1.0
 10
-1085.9324202046346
 20
-1843.7111266249906
 30
0.0
 41
1.0
 10
-1085.9019908804889
 20
-1843.6641137466017
 30
0.0
 41
1.0
 10
-1085.8226252353829
 20
-1843.5414949396982
 30
0.0
 41
0.9995394069081226
 10
-1085.7359668438305
 20
-1843.4239168779559
 30
0.0
 41
1.0
 10
-1085.7002099815704
 20
-1843.3754019853623
 30
0.0
 41
1.0
 10
-1085.6644531193106
 20
-1843.3268870927684
 30
0.0
 41
1.0
 10
-1085.5307264514931
 20
-1843.1454468176428
 30
0.0
 41
0.9994460617143288
 10
-1085.3852259702053
 20
-1842.9733044199934
 30
0.0
 41
1.0
 10
-1085.3808377892308
 20
-1842.9681127396116
 30
0.0
 41
1.0
 10
-1085.3764496082563
 20
-1842.9629210592295
 30
0.0
 41
1.0
 10
-1085.2397254889179
 20
-1842.8011620223442
 30
0.0
 41
0.9994359394933989
 10
-1085.0924512585659
 20
-1842.648945821179
 30
0.0
 41
1.0
 10
-1085.0900679046117
 20
-1842.6464824908048
 30
0.0
 41
1.0
 10
-1085.0876845506573
 20
-1842.6440191604306
 30
0.0
 41
1.0
 10
-1084.9451770282139
 20
-1842.4967296200139
 30
0.0
 41
0.9995293688567734
 10
-1084.7939053472323
 20
-1842.3584564078501
 30
0.0
 41
1.0
 10
-1084.77461158797
 20
-1842.3408205221997
 30
0.0
 41
1.0
 10
-1084.7553178287073
 20
-1842.3231846365493
 30
0.0
 41
1.0
 10
-1084.6426336662503
 20
-1842.2201831956861
 30
0.0
 41
0.9997087614803542
 10
-1084.5251107772951
 20
-1842.1227389148883
 30
0.0
 41
1.0
 10
-1084.5059447041181
 20
-1842.1068473363789
 30
0.0
 41
1.0
 10
-1084.4867786309408
 20
-1842.0909557578696
 30
0.0
 41
1.0
 10
-1084.4075878883384
 20
-1842.0252946340891
 30
0.0
 41
0.9999595338699493
 10
-1084.3272286174852
 20
-1841.9610689034353
 30
0.0
 41
1.0
 10
-1084.2468693466287
 20
-1841.8968431727794
 30
0.0
 41
0.9999749417499931
 10
-1084.1656088122822
 20
-1841.8337616188307
 30
0.0
 41
1.0
 10
-1084.1446226661169
 20
-1841.8174703315271
 30
0.0
 41
1.0
 10
-1084.1236365199518
 20
-1841.8011790442233
 30
0.0
 41
1.0
 10
-1084.0390686346541
 20
-1841.7355300343856
 30
0.0
 41
0.9999792037115601
 10
-1083.9536610348841
 20
-1841.6709772527415
 30
0.0
 41
1.0
 10
-1083.9328362089846
 20
-1841.6552374304929
 30
0.0
 41
1.0
 10
-1083.912011383085
 20
-1841.639497608244
 30
0.0
 41
1.0
 10
-1083.8682534351315
 20
-1841.6064244711106
 30
0.0
 41
0.9999993374159522
 10
-1083.8245717489713
 20
-1841.5732506756738
 30
0.0
 41
1.0
 10
-1083.7808900628293
 20
-1841.5400768802506
 30
0.0
 41
0.9999160953814811
 10
-1083.7363636519103
 20
-1841.5080458150528
 30
0.0
 41
1.0
 10
-1083.70354176449
 20
-1841.4844346594673
 30
0.0
 41
1.0
 10
-1083.6707198770696
 20
-1841.4608235038818
 30
0.0
 41
1.0
 10
-1083.5605496913092
 20
-1841.381570127513
 30
0.0
 41
0.9980964527232012
 10
-1083.4414606978075
 20
-1841.3164826546563
 30
0.0
 41
1.0
 10
-1083.4044280908811
 20
-1841.2962426750641
 30
0.0
 41
1.0
 10
-1083.3673954839546
 20
-1841.276002695472
 30
0.0
 41
1.0
 10
-1083.1880684706814
 20
-1841.1779924447703
 30
0.0
 41
0.9984572810572252
 10
-1082.9989799043221
 20
-1841.100470183424
 30
0.0
 41
1.0
 10
-1082.9953336349258
 20
-1841.0989752910859
 30
0.0
 41
1.0
 10
-1082.9916873655293
 20
-1841.0974803987476
 30
0.0
 41
1.0
 10
-1082.8098913379627
 20
-1841.0229479220773
 30
0.0
 41
0.9987838528033918
 10
-1082.621638679404
 20
-1840.9666822819117
 30
0.0
 41
1.0
 10
-1082.6174007302061
 20
-1840.9654156282218
 30
0.0
 41
1.0
 10
-1082.6131627810082
 20
-1840.9641489745318
 30
0.0
 41
1.0
 10
-1082.4333860208458
 20
-1840.9104166417462
 30
0.0
 41
0.9990652816207273
 10
-1082.2496400891289
 20
-1840.872412962204
 30
0.0
 41
1.0
 10
-1082.2444516880973
 20
-1840.8713398590974
 30
0.0
 41
1.0
 10
-1082.2392632870656
 20
-1840.8702667559908
 30
0.0
 41
1.0
 10
-1082.0658941574127
 20
-1840.8344092826619
 30
0.0
 41
0.9992909934270354
 10
-1081.8903183909547
 20
-1840.8116988501954
 30
0.0
 41
1.0
 10
-1081.714742624499
 20
-1840.7889884177291
 30
0.0
 41
0.9994553539448255
 10
-1081.5380511914084
 20
-1840.777909113523
 30
0.0
 41
1.0
 10
-1081.5026167836099
 20
-1840.7756872254749
 30
0.0
 41
1.0
 10
-1081.4671823758115
 20
-1840.7734653374271
 30
0.0
 41
1.0
 10
-1081.3009566092419
 20
-1840.7630422750153
 30
0.0
 41
0.9990928098293033
 10
-1081.1344468173402
 20
-1840.7668019162497
 30
0.0
 41
1.0
 10
-1081.0958849820686
 20
-1840.7676726077827
 30
0.0
 41
1.0
 10
-1081.0573231467968
 20
-1840.7685432993158
 30
0.0
 41
1.0
 10
-1080.9679370254378
 20
-1840.7705615574844
 30
0.0
 41
0.9998382089204733
 10
-1080.8786813426511
 20
-1840.7757936840126
 30
0.0
 41
1.0
 10
-1080.8782514364329
 20
-1840.7758188849148
 30
0.0
 41
1.0
 10
-1080.877821530215
 20
-1840.775844085817
 30
0.0
 41
1.0
 10
-1080.789425659867
 20
-1840.7810258105403
 30
0.0
 41
0.9997558016758906
 10
-1080.7013450826641
 20
-1840.7901083259071
 30
0.0
 41
1.0
 10
-1080.7008689442343
 20
-1840.7901574233897
 30
0.0
 41
1.0
 10
-1080.7003928058045
 20
-1840.7902065208723
 30
0.0
 41
1.0
 10
-1080.6132645054633
 20
-1840.7991908412735
 30
0.0
 41
0.9996565144181316
 10
-1080.5267266521214
 20
-1840.8127281479624
 30
0.0
 41
1.0
 10
-1080.5262607267407
 20
-1840.8128010336941
 30
0.0
 41
1.0
 10
-1080.52579480136
 20
-1840.812873919426
 30
0.0
 41
1.0
 10
-1080.440188798776
 20
-1840.8262654546522
 30
0.0
 41
0.9995321806868035
 10
-1080.3555617184511
 20
-1840.8448659430808
 30
0.0
 41
1.0
 10
-1080.3551725238826
 20
-1840.8449514855461
 30
0.0
 41
1.0
 10
-1080.3547833293139
 20
-1840.8450370280111
 30
0.0
 41
1.0
 10
-1080.2709346381264
 20
-1840.8634664315091
 30
0.0
 41
0.9993819199218772
 10
-1080.188588103927
 20
-1840.8877418147708
 30
0.0
 41
1.0
 10
-1080.1883496704306
 20
-1840.8878121038797
 30
0.0
 41
1.0
 10
-1080.1881112369342
 20
-1840.8878823929886
 30
0.0
 41
1.0
 10
-1080.1062415697324
 20
-1840.9120171980308
 30
0.0
 41
0.9992088568504839
 10
-1080.0265490507427
 20
-1840.9425824338259
 30
0.0
 41
1.0
 10
-1079.9468680598636
 20
-1840.9731420345588
 30
0.0
 41
0.9990226101772984
 10
-1079.8701973899565
 20
-1841.0106194661735
 30
0.0
 41
1.0
 10
-1079.793538248161
 20
-1841.0480912627252
 30
0.0
 41
0.9988424273971138
 10
-1079.7208346209516
 20
-1841.0927560379766
 30
0.0
 41
1.0
 10
-1079.7205669125694
 20
-1841.0929205020507
 30
0.0
 41
1.0
 10
-1079.7202992041873
 20
-1841.0930849661245
 30
0.0
 41
1.0
 10
-1079.6470601602159
 20
-1841.1380786695222
 30
0.0
 41
0.9986928844490777
 10
-1079.5787972935054
 20
-1841.1903144038024
 30
0.0
 41
1.0
 10
-1079.5782160012832
 20
-1841.1907592170298
 30
0.0
 41
1.0
 10
-1079.5776347090612
 20
-1841.1912040302573
 30
0.0
 41
1.0
 10
-1079.5082092579078
 20
-1841.2443293909907
 30
0.0
 41
0.9986007262276966
 10
-1079.4447830881429
 20
-1841.3044901606827
 30
0.0
 41
1.0
 10
-1079.4438886726839
 20
-1841.3053385285195
 30
0.0
 41
1.0
 10
-1079.4429942572247
 20
-1841.3061868963564
 30
0.0
 41
1.0
 10
-1079.3777792565436
 20
-1841.3680444017198
 30
0.0
 41
0.9985581491380079
 10
-1079.3195716448417
 20
-1841.4365368919919
 30
0.0
 41
1.0
 10
-1079.310313191246
 20
-1841.4474312496936
 30
0.0
 41
1.0
 10
-1079.3010547376502
 20
-1841.4583256073952
 30
0.0
 41
1.0
 10
-1079.2243302187569
 20
-1841.5486068130701
 30
0.0
 41
0.9970460233519919
 10
-1079.1623383175972
 20
-1841.6495738972524
 30
0.0
 41
1.0
 10
-1079.147868952517
 20
-1841.6731403563349
 30
0.0
 41
1.0
 10
-1079.1333995874368
 20
-1841.6967068154172
 30
0.0
 41
1.0
 10
-1079.0936628874254
 20
-1841.7614265394475
 30
0.0
 41
0.998846881663675
 10
-1079.0603165166747
 20
-1841.8296589918737
 30
0.0
 41
1.0
 10
-1079.0532804941827
 20
-1841.8440559130122
 30
0.0
 41
1.0
 10
-1079.0462444716907
 20
-1841.8584528341505
 30
0.0
 41
1.0
 10
-1079.0269701459229
 20
-1841.8978914443019
 30
0.0
 41
0.9998431189997519
 10
-1079.0091048184281
 20
-1841.9379879987421
 30
0.0
 41
1.0
 10
-1078.9912394909086
 20
-1841.9780845532377
 30
0.0
 41
0.9999989989939965
 10
-1078.9732607674607
 20
-1842.0181303908789
 30
0.0
 41
1.0
 10
-1078.9670884558918
 20
-1842.0318786076355
 30
0.0
 41
1.0
 10
-1078.9609161443227
 20
-1842.045626824392
 30
0.0
 41
1.0
 10
-1078.9305927977123
 20
-1842.1131690956013
 30
0.0
 41
0.9998790356322345
 10
-1078.902384917574
 20
-1842.1816218475392
 30
0.0
 41
1.0
 10
-1078.8955497362899
 20
-1842.1982089489657
 30
0.0
 41
1.0
 10
-1078.8887145550059
 20
-1842.2147960503921
 30
0.0
 41
1.0
 10
-1078.8651568926255
 20
-1842.2719640052778
 30
0.0
 41
0.999822757456121
 10
-1078.843768144236
 20
-1842.3299783135558
 30
0.0
 41
1.0
 10
-1078.8223793958471
 20
-1842.3879926218324
 30
0.0
 41
0.9996797971042287
 10
-1078.8039531108882
 20
-1842.4470147409495
 30
0.0
 41
1.0
 10
-1078.8000493081622
 20
-1842.4595191991193
 30
0.0
 41
1.0
 10
-1078.7961455054365
 20
-1842.4720236572894
 30
0.0
 41
1.0
 10
-1078.7699116150261
 20
-1842.5560546927454
 30
0.0
 41
0.9979274938733547
 10
-1078.7546870915471
 20
-1842.6427590514058
 30
0.0
 41
1.0
 10
-1078.7524634042859
 20
-1842.655423052227
 30
0.0
 41
1.0
 10
-1078.7502397170247
 20
-1842.6680870530479
 30
0.0
 41
1.0
 10
-1078.7393097773263
 20
-1842.7303335603378
 30
0.0
 41
0.9994985982136991
 10
-1078.7323416121494
 20
-1842.7931470614803
 30
0.0
 41
1.0
 10
-1078.7253734469723
 20
-1842.8559605626233
 30
0.0
 41
0.999637261120057
 10
-1078.7217975812046
 20
-1842.9190581413072
 30
0.0
 41
1.0
 10
-1078.7216290037154
 20
-1842.922032758388
 30
0.0
 41
1.0
 10
-1078.721460426226
 20
-1842.9250073754688
 30
0.0
 41
1.0
 10
-1078.7175474054798
 20
-1842.9940541883154
 30
0.0
 41
0.9997730630735959
 10
-1078.7165790919917
 20
-1843.0632050123493
 30
0.0
 41
1.0
 10
-1078.7165219855735
 20
-1843.067283191491
 30
0.0
 41
1.0
 10
-1078.7164648791554
 20
-1843.0713613706328
 30
0.0
 41
1.0
 10
-1078.7153823528311
 20
-1843.1486685529526
 30
0.0
 41
0.9998772614072181
 10
-1078.716722439563
 20
-1843.2259716995188
 30
0.0
 41
1.0
 10
-1078.7168117027618
 20
-1843.2311208633519
 30
0.0
 41
1.0
 10
-1078.7169009659603
 20
-1843.2362700271849
 30
0.0
 41
1.0
 10
-1078.7184195790896
 20
-1843.3238715014195
 30
0.0
 41
0.9999415567324476
 10
-1078.7218318893356
 20
-1843.4114196630946
 30
0.0
 41
1.0
 10
-1078.7220732100109
 20
-1843.4176111228317
 30
0.0
 41
1.0
 10
-1078.7223145306862
 20
-1843.4238025825689
 30
0.0
 41
1.0
 10
-1078.7262094822827
 20
-1843.5237336637183
 30
0.0
 41
0.9999716810434094
 10
-1078.7316080654011
 20
-1843.623594801945
 30
0.0
 41
1.0
 10
-1078.7348208641888
 20
-1843.6830240515851
 30
0.0
 41
1.0
 10
-1078.7380336629767
 20
-1843.7424533012252
 30
0.0
 41
1.0
 10
-1078.7461075721303
 20
-1843.8918017025239
 30
0.0
 41
0.9999819129908837
 10
-1078.7559773637481
 20
-1844.0410421802544
 30
0.0
 41
1.0
 10
-1078.7658471553646
 20
-1844.1902826579658
 30
0.0
 41
1.0
 10
-1078.7682864759286
 20
-1844.2274757038151
 30
0.0
 41
1.0
 10
-1078.7455882421023
 20
-1844.1887347064935
 30
0.0
 41
0.9999982128118727
 10
-1078.7227436833412
 20
-1844.1500798125255
 30
0.0
 41
1.0
 10
-1078.6958341234567
 20
-1844.1045465984712
 30
0.0
 41
1.0
 10
-1078.6689245635725
 20
-1844.0590133844171
 30
0.0
 41
1.0
 10
-1078.5922608850478
 20
-1843.9292920623493
 30
0.0
 41
0.9998609190059152
 10
-1078.5113135721863
 20
-1843.8021996804202
 30
0.0
 41
1.0
 10
-1078.4816652507052
 20
-1843.7556499474638
 30
0.0
 41
1.0
 10
-1078.4520169292239
 20
-1843.7091002145073
 30
0.0
 41
1.0
 10
-1078.3697447089851
 20
-1843.5799276445098
 30
0.0
 41
0.9999067609732107
 10
-1078.2839756995204
 20
-1843.4530499550674
 30
0.0
 41
1.0
 10
-1078.2815709963199
 20
-1843.4494926890134
 30
0.0
 41
1.0
 10
-1078.2791662931195
 20
-1843.4459354229591
 30
0.0
 41
1.0
 10
-1078.1982066900573
 20
-1843.3261722656275
 30
0.0
 41
0.999878495215041
 10
-1078.1135530803749
 20
-1843.2089910489171
 30
0.0
 41
1.0
 10
-1078.0288994706943
 20
-1843.0918098322095
 30
0.0
 41
0.9998532968283184
 10
-1077.9402818498727
 20
-1842.9775969237405
 30
0.0
 41
1.0
 10
-1077.9203200608799
 20
-1842.9518696027183
 30
0.0
 41
1.0
 10
-1077.9003582718872
 20
-1842.926142281696
 30
0.0
 41
1.0
 10
-1077.7818742221291
 20
-1842.7734366707286
 30
0.0
 41
0.9991551975795472
 10
-1077.6512497725062
 20
-1842.6309771086458
 30
0.0
 41
1.0
 10
-1077.6477401565271
 20
-1842.6271495070223
 30
0.0
 41
1.0
 10
-1077.6442305405483
 20
-1842.6233219053988
 30
0.0
 41
1.0
 10
-1077.5206253228839
 20
-1842.4885175465636
 30
0.0
 41
0.9997418144180179
 10
-1077.3910231831819
 20
-1842.3594681359498
 30
0.0
 41
1.0
 10
-1077.2614210434817
 20
-1842.2304187253376
 30
0.0
 41
0.9989238204632878
 10
-1077.1204184952312
 20
-1842.1139337632992
 30
0.0
 41
1.0
 10
-1077.0751708170906
 20
-1842.0765537716895
 30
0.0
 41
1.0
 10
-1077.0299231389499
 20
-1842.0391737800799
 30
0.0
 41
1.0
 10
-1076.8896830817293
 20
-1841.9233187267896
 30
0.0
 41
0.9990825084096453
 10
-1076.740043149126
 20
-1841.8198897289572
 30
0.0
 41
1.0
 10
-1076.7299977850694
 20
-1841.8129465158777
 30
0.0
 41
1.0
 10
-1076.7199524210127
 20
-1841.8060033027984
 30
0.0
 41
1.0
 10
-1076.5904032165224
 20
-1841.7164607311242
 30
0.0
 41
0.9998164899825534
 10
-1076.4575190131459
 20
-1841.6319464896078
 30
0.0
 41
1.0
 10
-1076.4456734526234
 20
-1841.6244127230843
 30
0.0
 41
1.0
 10
-1076.4338278921007
 20
-1841.6168789565606
 30
0.0
 41
1.0
 10
-1076.3246348097725
 20
-1841.5474322480932
 30
0.0
 41
0.9997473449131875
 10
-1076.2124308525201
 20
-1841.4829632902756
 30
0.0
 41
1.0
 10
-1076.1002268952686
 20
-1841.4184943324587
 30
0.0
 41
0.9999327861142927
 10
-1075.9865582845014
 20
-1841.3566443407753
 30
0.0
 41
1.0
 10
-1075.9860062819434
 20
-1841.3563439820978
 30
0.0
 41
1.0
 10
-1075.9854542793857
 20
-1841.3560436234202
 30
0.0
 41
1.0
 10
-1075.8706816634974
 20
-1841.2935929143789
 30
0.0
 41
0.9996956420483525
 10
-1075.7529683376538
 20
-1841.2368794474025
 30
0.0
 41
1.0
 10
-1075.722527932762
 20
-1841.2222134706731
 30
0.0
 41
1.0
 10
-1075.6920875278702
 20
-1841.2075474939434
 30
0.0
 41
1.0
 10
-1075.5891104211289
 20
-1841.1579338355011
 30
0.0
 41
0.999807057017752
 10
-1075.4842640321906
 20
-1841.1124032486014
 30
0.0
 41
1.0
 10
-1075.37941764325
 20
-1841.0668726617005
 30
0.0
 41
0.9997827436146574
 10
-1075.2727647066404
 20
-1841.0257514903888
 30
0.0
 41
1.0
 10
-1075.2535418570087
 20
-1841.0183399167563
 30
0.0
 41
1.0
 10
-1075.2343190073771
 20
-1841.0109283431236
 30
0.0
 41
1.0
 10
-1075.0892203715039
 20
-1840.9549840245468
 30
0.0
 41
0.9988031841976609
 10
-1074.9393500088984
 20
-1840.9134839603789
 30
0.0
 41
1.0
 10
-1074.9144327605361
 20
-1840.9065842145724
 30
0.0
 41
1.0
 10
-1074.8895155121738
 20
-1840.8996844687656
 30
0.0
 41
1.0
 10
-1074.7222454865262
 20
-1840.8533663263586
 30
0.0
 41
0.9984748040549895
 10
-1074.5508885778768
 20
-1840.8257720940937
 30
0.0
 41
1.0
 10
-1074.5461494416277
 20
-1840.8250089335802
 30
0.0
 41
1.0
 10
-1074.5414103053783
 20
-1840.8242457730667
 30
0.0
 41
1.0
 10
-1074.3795316692278
 20
-1840.7981778618289
 30
0.0
 41
0.9984436495480188
 10
-1074.2157569255032
 20
-1840.7902999080102
 30
0.0
 41
1.0
 10
-1074.1940597173721
 20
-1840.7892562208106
 30
0.0
 41
1.0
 10
-1074.1723625092411
 20
-1840.7882125336109
 30
0.0
 41
1.0
 10
-1074.0519821817788
 20
-1840.7824219541915
 30
0.0
 41
0.9987954789335291
 10
-1073.9316139368686
 20
-1840.7884584819337
 30
0.0
 41
1.0
 10
-1073.9116491443719
 20
-1840.7894597262725
 30
0.0
 41
1.0
 10
-1073.8916843518755
 20
-1840.7904609706111
 30
0.0
 41
1.0
 10
-1073.8112456919566
 20
-1840.7944950096762
 30
0.0
 41
0.9997941595877213
 10
-1073.7310369138643
 20
-1840.8017890755971
 30
0.0
 41
1.0
 10
-1073.6508281357749
 20
-1840.8090831415175
 30
0.0
 41
0.9998589466235798
 10
-1073.5709095889251
 20
-1840.819066995967
 30
0.0
 41
1.0
 10
-1073.5385033871116
 20
-1840.8231153528868
 30
0.0
 41
1.0
 10
-1073.5060971852984
 20
-1840.8271637098067
 30
0.0
 41
1.0
 10
-1073.3613662348282
 20
-1840.8452442780949
 30
0.0
 41
0.9993495063248715
 10
-1073.2183149910638
 20
-1840.8737099878365
 30
0.0
 41
1.0
 10
-1073.1853812939084
 20
-1840.8802634510521
 30
0.0
 41
1.0
 10
-1073.1524475967528
 20
-1840.8868169142675
 30
0.0
 41
1.0
 10
-1073.0431537735506
 20
-1840.9085652484023
 30
0.0
 41
0.9996788715561434
 10
-1072.9351022015962
 20
-1840.9358230477649
 30
0.0
 41
1.0
 10
-1072.9330391990563
 20
-1840.9363434743382
 30
0.0
 41
1.0
 10
-1072.9309761965164
 20
-1840.9368639009112
 30
0.0
 41
1.0
 10
-1072.8270506296387
 20
-1840.9630808471284
 30
0.0
 41
0.9995480654492092
 10
-1072.7248883944105
 20
-1840.9954958037524
 30
0.0
 41
1.0
 10
-1072.7231987522832
 20
-1840.9960319086658
 30
0.0
 41
1.0
 10
-1072.7215091101561
 20
-1840.996568013579
 30
0.0
 41
1.0
 10
-1072.622726159183
 20
-1841.027910760376
 30
0.0
 41
0.9993867959455649
 10
-1072.5263790007386
 20
-1841.0660901296665
 30
0.0
 41
1.0
 10
-1072.5251360516552
 20
-1841.0665826715622
 30
0.0
 41
1.0
 10
-1072.5238931025717
 20
-1841.0670752134579
 30
0.0
 41
1.0
 10
-1072.4300318422977
 20
-1841.1042694989555
 30
0.0
 41
0.9992050256521609
 10
-1072.3394321672627
 20
-1841.148823398195
 30
0.0
 41
1.0
 10
-1072.3386974845507
 20
-1841.1491846906556
 30
0.0
 41
1.0
 10
-1072.3379628018388
 20
-1841.149545983116
 30
0.0
 41
1.0
 10
-1072.2488324922299
 20
-1841.1933772974332
 30
0.0
 41
0.9990222350741383
 10
-1072.1639224308356
 20
-1841.2449105651322
 30
0.0
 41
1.0
 10
-1072.1637385455529
 20
-1841.2450221680369
 30
0.0
 41
1.0
 10
-1072.1635546602699
 20
-1841.2451337709419
 30
0.0
 41
1.0
 10
-1072.0790123694417
 20
-1841.2964438328304
 30
0.0
 41
0.9988642743804879
 10
-1071.999737834823
 20
-1841.3555680203556
 30
0.0
 41
1.0
 10
-1071.9204633002025
 20
-1841.4146922078824
 30
0.0
 41
0.9987681233311646
 10
-1071.8474395159244
 20
-1841.4813828992847
 30
0.0
 41
1.0
 10
-1071.8471105879603
 20
-1841.4816833004973
 30
0.0
 41
1.0
 10
-1071.8467816599964
 20
-1841.4819837017099
 30
0.0
 41
1.0
 10
-1071.7731000197898
 20
-1841.5492751955378
 30
0.0
 41
0.9987496570898719
 10
-1071.7065062144634
 20
-1841.6235880096231
 30
0.0
 41
1.0
 10
-1071.7057340447018
 20
-1841.6244496829822
 30
0.0
 41
1.0
 10
-1071.7049618749402
 20
-1841.6253113563416
 30
0.0
 41
1.0
 10
-1071.6368237300915
 20
-1841.701347517145
 30
0.0
 41
0.9988147669827345
 10
-1071.5764014758656
 20
-1841.7836485239886
 30
0.0
 41
1.0
 10
-1071.5752821497886
 20
-1841.7851731553401
 30
0.0
 41
1.0
 10
-1071.5741628237117
 20
-1841.7866977866915
 30
0.0
 41
1.0
 10
-1071.5115019173322
 20
-1841.8720480562376
 30
0.0
 41
0.998945263621544
 10
-1071.4569350043719
 20
-1841.9627867453939
 30
0.0
 41
1.0
 10
-1071.4555862782854
 20
-1841.9650295264214
 30
0.0
 41
1.0
 10
-1071.4542375521987
 20
-1841.9672723074491
 30
0.0
 41
1.0
 10
-1071.3969731870664
 20
-1842.0624965586589
 30
0.0
 41
0.9991046436071226
 10
-1071.347963973745
 20
-1842.1622209916834
 30
0.0
 41
1.0
 10
-1071.3465001121547
 20
-1842.1651996717565
 30
0.0
 41
1.0
 10
-1071.3450362505644
 20
-1842.1681783518297
 30
0.0
 41
1.0
 10
-1071.2930993140637
 20
-1842.2738601449978
 30
0.0
 41
0.9992763831100675
 10
-1071.2493461855095
 20
-1842.3831842069512
 30
0.0
 41
1.0
 10
-1071.2478669158452
 20
-1842.3868803944874
 30
0.0
 41
1.0
 10
-1071.2463876461809
 20
-1842.3905765820234
 30
0.0
 41
1.0
 10
-1071.1996759782992
 20
-1842.5072930190468
 30
0.0
 41
0.9994163472883147
 10
-1071.1610429471093
 20
-1842.6269266075108
 30
0.0
 41
1.0
 10
-1071.1598047948628
 20
-1842.6307607512927
 30
0.0
 41
1.0
 10
-1071.1585666426163
 20
-1842.6345948950748
 30
0.0
 41
1.0
 10
-1071.1186830815989
 20
-1842.7581009565538
 30
0.0
 41
0.9997268055889922
 10
-1071.0846150256866
 20
-1842.8833359885052
 30
0.0
 41
1.0
 10
-1071.0836848454173
 20
-1842.8867553546133
 30
0.0
 41
1.0
 10
-1071.0827546651478
 20
-1842.8901747207217
 30
0.0
 41
1.0
 10
-1071.0505469697748
 20
-1843.0085710204548
 30
0.0
 41
0.9996701319000139
 10
-1071.0244613530042
 20
-1843.1284649737195
 30
0.0
 41
1.0
 10
-1070.9983757362343
 20
-1843.2483589269805
 30
0.0
 41
0.9995785451109569
 10
-1070.9792921588946
 20
-1843.3695646880101
 30
0.0
 41
1.0
 10
-1070.9750723767206
 20
-1843.396365842777
 30
0.0
 41
1.0
 10
-1070.9708525945466
 20
-1843.4231669975436
 30
0.0
 41
1.0
 10
-1070.9442776186079
 20
-1843.5919529712476
 30
0.0
 41
0.99799251012168
 10
-1070.9392520326815
 20
-1843.7627442993391
 30
0.0
 41
1.0
 10
-1070.9384272202567
 20
-1843.7907750228287
 30
0.0
 41
1.0
 10
-1070.9376024078319
 20
-1843.818805746318
 30
0.0
 41
1.0
 10
-1070.9342264467555
 20
-1843.9335356274387
 30
0.0
 41
0.9995314902263816
 10
-1070.9378766388936
 20
-1844.0482571111829
 30
0.0
 41
1.0
 10
-1070.9415268310327
 20
-1844.162978594939
 30
0.0
 41
0.9996245486944571
 10
-1070.9514559261638
 20
-1844.2773278660679
 30
0.0
 41
1.0
 10
-1070.9516189741576
 20
-1844.2792056221986
 30
0.0
 41
1.0
 10
-1070.9517820221515
 20
-1844.2810833783292
 30
0.0
 41
1.0
 10
-1070.9620372132706
 20
-1844.3991881617221
 30
0.0
 41
0.9997286095001479
 10
-1070.9777825368417
 20
-1844.5166870706141
 30
0.0
 41
1.0
 10
-1070.9781760294923
 20
-1844.5196234953182
 30
0.0
 41
1.0
 10
-1070.9785695221431
 20
-1844.5225599200221
 30
0.0
 41
1.0
 10
-1070.9951018310151
 20
-1844.6459316783196
 30
0.0
 41
0.9998265533969603
 10
-1071.0162172897474
 20
-1844.7686021531065
 30
0.0
 41
1.0
 10
-1071.0168938318848
 20
-1844.7725325316151
 30
0.0
 41
1.0
 10
-1071.0175703740222
 20
-1844.7764629101239
 30
0.0
 41
1.0
 10
-1071.0400389170295
 20
-1844.9069941419293
 30
0.0
 41
0.9999022530850397
 10
-1071.0661483816393
 20
-1845.0368461105677
 30
0.0
 41
1.0
 10
-1071.0671270228045
 20
-1845.0417132529542
 30
0.0
 41
1.0
 10
-1071.0681056639696
 20
-1845.0465803953405
 30
0.0
 41
1.0
 10
-1071.0961724109093
 20
-1845.186166648748
 30
0.0
 41
0.9999524761935903
 10
-1071.1269553797424
 20
-1845.3251791419057
 30
0.0
 41
1.0
 10
-1071.1282314869193
 20
-1845.3309419012144
 30
0.0
 41
1.0
 10
-1071.1295075940961
 20
-1845.3367046605231
 30
0.0
 41
1.0
 10
-1071.1628427772789
 20
-1845.48724267228
 30
0.0
 41
0.9999813588727108
 10
-1071.1980137780722
 20
-1845.6373623849245
 30
0.0
 41
1.0
 10
-1071.1995677035316
 20
-1845.6439949753585
 30
0.0
 41
1.0
 10
-1071.2011216289907
 20
-1845.6506275657928
 30
0.0
 41
1.0
 10
-1071.2394004806972
 20
-1845.8140124592835
 30
0.0
 41
0.9999955237656851
 10
-1071.2786563586753
 20
-1845.9771653628802
 30
0.0
 41
1.0
 10
-1071.2909379943121
 20
-1846.028209553413
 30
0.0
 41
1.0
 10
-1071.3032196299489
 20
-1846.0792537439461
 30
0.0
 41
1.0
 10
-1071.3670387791931
 20
-1846.3444950285771
 30
0.0
 41
0.9999993604525527
 10
-1071.4314577263567
 20
-1846.6095912792437
 30
0.0
 41
1.0
 10
-1071.4361765619085
 20
-1846.6290101873037
 30
0.0
 41
1.0
 10
-1071.4408953974603
 20
-1846.6484290953636
 30
0.0
 41
1.0
 10
-1071.5147520157209
 20
-1846.9523631621232
 30
0.0
 41
0.9999659914724385
 10
-1071.5936116116061
 20
-1847.2550377086823
 30
0.0
 41
1.0
 10
-1071.5985643005365
 20
-1847.2740468458644
 30
0.0
 41
1.0
 10
-1071.6035169894672
 20
-1847.2930559830465
 30
0.0
 41
1.0
 10
-1071.692281963213
 20
-1847.6337488039676
 30
0.0
 41
0.9999441976024778
 10
-1071.7882249961779
 20
-1847.9724902292712
 30
0.0
 41
1.0
 10
-1071.8049255146025
 20
-1848.0314539417955
 30
0.0
 41
1.0
 10
-1071.8216260330271
 20
-1848.0904176543199
 30
0.0
 41
1.0
 10
-1071.950970102841
 20
-1848.5470865046723
 30
0.0
 41
0.9999625120733142
 10
-1072.088202870164
 20
-1849.0014470386666
 30
0.0
 41
1.0
 10
-1072.1239928132486
 20
-1849.1199430652996
 30
0.0
 41
1.0
 10
-1072.1597827563335
 20
-1849.2384390919324
 30
0.0
 41
1.0
 10
-1072.2343029603726
 20
-1849.4851661700282
 30
0.0
 41
0.9999793386321638
 10
-1072.3119889835098
 20
-1849.7309148092627
 30
0.0
 41
1.0
 10
-1072.3896750066474
 20
-1849.9766634484988
 30
0.0
 41
1.0
 10
-1072.400454565518
 20
-1850.0106813528735
 30
0.0
 41
1.0
 10
-1074.2508276187871
 20
-1855.8977532753411
 30
0.0
 41
1.0
 10
-1076.1012006720562
 20
-1861.7848251978085
 30
0.0
 41
1.0
 10
-1077.0624573620798
 20
-1861.7848251978085
 30
0.0
 41
1.0
 10
-1078.0237140521035
 20
-1861.7848251978085
 30
0.0
 41
1.0
 10
-1076.404769273425
 20
-1856.636796696019
 30
0.0
 41
1.0
 10
-1074.7858244947465
 20
-1851.4887681942296
 30
0.0
 41
1.0
 10
-1074.7406586715674
 20
-1851.344736971944
 30
0.0
 41
1.0
 10
-1074.6954928483881
 20
-1851.2007057496585
 30
0.0
 41
1.0
 10
-1074.5251884310296
 20
-1850.6576147205096
 30
0.0
 41
0.9999911657881275
 10
-1074.3594556193548
 20
-1850.1131111891636
 30
0.0
 41
1.0
 10
-1074.3297596758543
 20
-1850.0155472491133
 30
0.0
 41
1.0
 10
-1074.3000637323539
 20
-1849.9179833090627
 30
0.0
 41
1.0
 10
-1074.1937228076749
 20
-1849.5686076578008
 30
0.0
 41
0.9999952428132686
 10
-1074.0895392183497
 20
-1849.2185826334503
 30
0.0
 41
1.0
 10
-1074.0844797480204
 20
-1849.2015843591857
 30
0.0
 41
1.0
 10
-1074.079420277691
 20
-1849.184586084921
 30
0.0
 41
1.0
 10
-1073.9853556290259
 20
-1848.8685576091043
 30
0.0
 41
0.9999931687498076
 10
-1073.8936297911512
 20
-1848.5518423958304
 30
0.0
 41
1.0
 10
-1073.8886945266936
 20
-1848.5348016865657
 30
0.0
 41
1.0
 10
-1073.8837592622358
 20
-1848.5177609773011
 30
0.0
 41
1.0
 10
-1073.801903953279
 20
-1848.2351271825653
 30
0.0
 41
0.9999893840799805
 10
-1073.7226567268206
 20
-1847.9517510533133
 30
0.0
 41
1.0
 10
-1073.6434095003638
 20
-1847.6683749240669
 30
0.0
 41
0.9999833980081054
 10
-1073.5674332596238
 20
-1847.3841043410446
 30
0.0
 41
1.0
 10
-1073.5584293228994
 20
-1847.3504154625584
 30
0.0
 41
1.0
 10
-1073.549425386175
 20
-1847.3167265840723
 30
0.0
 41
1.0
 10
-1073.4804608373097
 20
-1847.0586907517793
 30
0.0
 41
0.9999233658068285
 10
-1073.4179058660902
 20
-1846.7990265930603
 30
0.0
 41
1.0
 10
-1073.3553508948701
 20
-1846.5393624343378
 30
0.0
 41
1.0
 10
-1073.3158674760125
 20
-1846.3755557699117
 30
0.0
 41
1.0
 10
-1073.3108888720351
 20
-1846.3549008080408
 30
0.0
 41
1.0
 10
-1073.3059102680577
 20
-1846.33424584617
 30
0.0
 41
1.0
 10
-1073.276384057154
 20
-1846.2117491054819
 30
0.0
 41
0.999986867084611
 10
-1073.2481149731589
 20
-1846.0889561598401
 30
0.0
 41
1.0
 10
-1073.2442174859989
 20
-1846.072026572414
 30
0.0
 41
1.0
 10
-1073.2403199988391
 20
-1846.0550969849878
 30
0.0
 41
1.0
 10
-1073.2198458891612
 20
-1845.9661632141883
 30
0.0
 41
0.9999778173353237
 10
-1073.2005582910472
 20
-1845.8769645969642
 30
0.0
 41
1.0
 10
-1073.1812706929322
 20
-1845.7877659797362
 30
0.0
 41
0.9999602692863407
 10
-1073.1635763343008
 20
-1845.6982376913065
 30
0.0
 41
1.0
 10
-1073.1603725022233
 20
-1845.6820272364212
 30
0.0
 41
1.0
 10
-1073.1571686701457
 20
-1845.665816781536
 30
0.0
 41
1.0
 10
-1073.1330666473598
 20
-1845.5438675833393
 30
0.0
 41
0.9995617985320502
 10
-1073.1162233001412
 20
-1845.4207058356346
 30
0.0
 41
1.0
 10
-1073.1137588102347
 20
-1845.4026850182663
 30
0.0
 41
1.0
 10
-1073.1112943203282
 20
-1845.384664200898
 30
0.0
 41
1.0
 10
-1073.0910110592799
 20
-1845.2363491511987
 30
0.0
 41
0.9991121410639063
 10
-1073.0832857056919
 20
-1845.0868530523935
 30
0.0
 41
1.0
 10
-1073.0823669156671
 20
-1845.0690732158155
 30
0.0
 41
1.0
 10
-1073.0814481256425
 20
-1845.0512933792374
 30
0.0
 41
1.0
 10
-1073.0755603521036
 20
-1844.9373569535855
 30
0.0
 41
0.9989792494905144
 10
-1073.079979444221
 20
-1844.8233541176892
 30
0.0
 41
1.0
 10
-1073.0806274160896
 20
-1844.8066378717613
 30
0.0
 41
1.0
 10
-1073.0812753879584
 20
-1844.7899216258336
 30
0.0
 41
1.0
 10
-1073.0843985363383
 20
-1844.7093512817898
 30
0.0
 41
0.9997820295395026
 10
-1073.090882533714
 20
-1844.6289815600467
 30
0.0
 41
1.0
 10
-1073.0973665310894
 20
-1844.5486118383051
 30
0.0
 41
0.9998335105972176
 10
-1073.1067787266009
 20
-1844.4685322218572
 30
0.0
 41
1.0
 10
-1073.1083736512774
 20
-1844.454962491372
 30
0.0
 41
1.0
 10
-1073.1099685759541
 20
-1844.4413927608866
 30
0.0
 41
1.0
 10
-1073.1225706208186
 20
-1844.3341736834689
 30
0.0
 41
0.9996876457878459
 10
-1073.1405145336173
 20
-1844.2277182557516
 30
0.0
 41
1.0
 10
-1073.1427461967623
 20
-1844.2144785205114
 30
0.0
 41
1.0
 10
-1073.1449778599074
 20
-1844.201238785271
 30
0.0
 41
1.0
 10
-1073.1587736813285
 20
-1844.1193926413125
 30
0.0
 41
0.9995547496495237
 10
-1073.1774270032211
 20
-1844.0385151441212
 30
0.0
 41
1.0
 10
-1073.1778009600928
 20
-1844.0368937334142
 30
0.0
 41
1.0
 10
-1073.1781749169645
 20
-1844.035272322707
 30
0.0
 41
1.0
 10
-1073.1960803251138
 20
-1843.9576376469286
 30
0.0
 41
0.9994899427174371
 10
-1073.2189052337931
 20
-1843.8813043640957
 30
0.0
 41
1.0
 10
-1073.2193637605335
 20
-1843.8797709143082
 30
0.0
 41
1.0
 10
-1073.2198222872739
 20
-1843.8782374645205
 30
0.0
 41
1.0
 10
-1073.2417301424719
 20
-1843.8049710812627
 30
0.0
 41
0.9993784877590799
 10
-1073.2687457775789
 20
-1843.7334303761022
 30
0.0
 41
1.0
 10
-1073.2692774685561
 20
-1843.7320223933814
 30
0.0
 41
1.0
 10
-1073.269809159533
 20
-1843.7306144106606
 30
0.0
 41
1.0
 10
-1073.2957614126858
 20
-1843.6618896709424
 30
0.0
 41
0.999243083225394
 10
-1073.3269779478451
 20
-1843.5953905188749
 30
0.0
 41
1.0
 10
-1073.3275600639006
 20
-1843.5941504637599
 30
0.0
 41
1.0
 10
-1073.3281421799561
 20
-1843.5929104086449
 30
0.0
 41
1.0
 10
-1073.3581944830032
 20
-1843.5288913668089
 30
0.0
 41
0.9990789632799259
 10
-1073.3936251097809
 20
-1843.467684755057
 30
0.0
 41
1.0
 10
-1073.3942208159624
 20
-1843.4666556691989
 30
0.0
 41
1.0
 10
-1073.3948165221436
 20
-1843.4656265833407
 30
0.0
 41
1.0
 10
-1073.4290557365571
 20
-1843.406478143308
 30
0.0
 41
0.9988874801120854
 10
-1073.4687150125897
 20
-1843.3508184308894
 30
0.0
 41
1.0
 10
-1073.4692705386542
 20
-1843.3500387792142
 30
0.0
 41
1.0
 10
-1073.469826064719
 20
-1843.3492591275387
 30
0.0
 41
1.0
 10
-1073.5083742886222
 20
-1843.2951587184712
 30
0.0
 41
0.9986762060692882
 10
-1073.5522767598979
 20
-1843.2453050040326
 30
0.0
 41
1.0
 10
-1073.552720720229
 20
-1843.2448008622173
 30
0.0
 41
1.0
 10
-1073.55316468056
 20
-1843.244296720402
 30
0.0
 41
1.0
 10
-1073.596179231173
 20
-1843.1954512895948
 30
0.0
 41
0.9984621642489063
 10
-1073.6443367879519
 20
-1843.1516679891222
 30
0.0
 41
1.0
 10
-1073.6445834224687
 20
-1843.1514437569585
 30
0.0
 41
1.0
 10
-1073.6448300569853
 20
-1843.1512195247949
 30
0.0
 41
1.0
 10
-1073.6924943447298
 20
-1843.107884688651
 30
0.0
 41
0.9982724693851868
 10
-1073.7449129765712
 20
-1843.0704403381333
 30
0.0
 41
1.0
 10
-1073.7973316084131
 20
-1843.0329959876155
 30
0.0
 41
0.9981399180159332
 10
-1073.853917671807
 20
-1843.0022094681717
 30
0.0
 41
1.0
 10
-1073.8539633338851
 20
-1843.0021846250147
 30
0.0
 41
1.0
 10
-1073.8540089959629
 20
-1843.0021597818579
 30
0.0
 41
1.0
 10
-1073.9106863835138
 20
-1842.9713235760996
 30
0.0
 41
0.9980927086836763
 10
-1073.970731734581
 20
-1842.9477067672469
 30
0.0
 41
1.0
 10
-1073.9711719042921
 20
-1842.9475336413723
 30
0.0
 41
1.0
 10
-1073.9716120740029
 20
-1842.9473605154976
 30
0.0
 41
1.0
 10
-1074.0325377644917
 20
-1842.9233974548956
 30
0.0
 41
0.9981411356562483
 10
-1074.0959262858903
 20
-1842.9070248133901
 30
0.0
 41
1.0
 10
-1074.0968084025926
 20
-1842.9067969711843
 30
0.0
 41
1.0
 10
-1074.0976905192949
 20
-1842.9065691289786
 30
0.0
 41
1.0
 10
-1074.1628432740972
 20
-1842.8897408030621
 30
0.0
 41
0.9983031812935309
 10
-1074.229510703092
 20
-1842.8806014418858
 30
0.0
 41
1.0
 10
-1074.2383817284958
 20
-1842.8793853232146
 30
0.0
 41
1.0
 10
-1074.2472527538998
 20
-1842.8781692045432
 30
0.0
 41
1.0
 10
-1074.301602396404
 20
-1842.8707184745522
 30
0.0
 41
0.9983887708263121
 10
-1074.3564462456966
 20
-1842.869473800919
 30
0.0
 41
1.0
 10
-1074.3645096509154
 20
-1842.8692908030441
 30
0.0
 41
1.0
 10
-1074.3725730561343
 20
-1842.8691078051693
 30
0.0
 41
1.0
 10
-1074.4112900949904
 20
-1842.8682291272855
 30
0.0
 41
0.9998869563080355
 10
-1074.4500160481921
 20
-1842.8685149966452
 30
0.0
 41
1.0
 10
-1074.488742001424
 20
-1842.8688008660051
 30
0.0
 41
0.9999972320084059
 10
-1074.5274661806645
 20
-1842.8692689655347
 30
0.0
 41
1.0
 10
-1074.546819197215
 20
-1842.8695029056239
 30
0.0
 41
1.0
 10
-1074.5661722137656
 20
-1842.8697368457129
 30
0.0
 41
1.0
 10
-1074.6436024261332
 20
-1842.8706728254206
 30
0.0
 41
0.9997304945087098
 10
-1074.7209057323676
 20
-1842.8752019192061
 30
0.0
 41
1.0
 10
-1074.729955374075
 20
-1842.8757321251962
 30
0.0
 41
1.0
 10
-1074.7390050157824
 20
-1842.8762623311864
 30
0.0
 41
1.0
 10
-1074.8344076054263
 20
-1842.8818518369524
 30
0.0
 41
0.9997888306414959
 10
-1074.9294999412666
 20
-1842.8913568014411
 30
0.0
 41
1.0
 10
-1074.9382210028416
 20
-1842.8922285160734
 30
0.0
 41
1.0
 10
-1074.9469420644168
 20
-1842.8931002307058
 30
0.0
 41
1.0
 10
-1075.0594765234048
 20
-1842.9043486244591
 30
0.0
 41
0.9984170238190858
 10
-1075.1700356707559
 20
-1842.9281647063947
 30
0.0
 41
1.0
 10
-1075.2064168017428
 20
-1842.9360017422009
 30
0.0
 41
1.0
 10
-1075.2427979327297
 20
-1842.9438387780071
 30
0.0
 41
1.0
 10
-1075.3579890011506
 20
-1842.9686526445166
 30
0.0
 41
0.9976592854198892
 10
-1075.4687171675555
 20
-1843.008951321664
 30
0.0
 41
1.0
 10
-1075.5794453339604
 20
-1843.0492499988109
 30
0.0
 41
0.9993255074351887
 10
-1075.6869171327514
 20
-1843.0975668973035
 30
0.0
 41
1.0
 10
-1075.6915423116748
 20
-1843.0996462735034
 30
0.0
 41
1.0
 10
-1075.6961674905979
 20
-1843.101725649703
 30
0.0
 41
1.0
 10
-1075.8128896472347
 20
-1843.1542013005947
 30
0.0
 41
0.997647507827524
 10
-1075.9213369915446
 20
-1843.2221492902524
 30
0.0
 41
1.0
 10
-1075.939679385679
 20
-1843.2336417690667
 30
0.0
 41
1.0
 10
-1075.9580217798132
 20
-1843.245134247881
 30
0.0
 41
1.0
 10
-1076.0422239713657
 20
-1843.2978913686495
 30
0.0
 41
0.9995131336407086
 10
-1076.1229716863249
 20
-1843.3557975806038
 30
0.0
 41
1.0
 10
-1076.2037194012812
 20
-1843.4137037925561
 30
0.0
 41
0.9995810107606823
 10
-1076.2809810490089
 20
-1843.4761854750211
 30
0.0
 41
1.0
 10
-1076.28395108022
 20
-1843.4785873464866
 30
0.0
 41
1.0
 10
-1076.2869211114312
 20
-1843.4809892179519
 30
0.0
 41
1.0
 10
-1076.3701228215793
 20
-1843.5482746433463
 30
0.0
 41
0.9996617837955477
 10
-1076.4497135087142
 20
-1843.6197950989056
 30
0.0
 41
1.0
 10
-1076.4618442595904
 20
-1843.6306958318955
 30
0.0
 41
1.0
 10
-1076.4739750104666
 20
-1843.6415965648855
 30
0.0
 41
1.0
 10
-1076.542250537866
 20
-1843.7029491803607
 30
0.0
 41
0.9997267750053256
 10
-1076.6075840461508
 20
-1843.7674257168869
 30
0.0
 41
1.0
 10
-1076.6729175544342
 20
-1843.831902253412
 30
0.0
 41
0.9999667288964317
 10
-1076.7371904975817
 20
-1843.8974360603072
 30
0.0
 41
1.0
 10
-1076.8060179453564
 20
-1843.967613719065
 30
0.0
 41
1.0
 10
-1076.8748453931312
 20
-1844.0377913778229
 30
0.0
 41
1.0
 10
-1077.0767732318284
 20
-1844.2436805022342
 30
0.0
 41
0.9988205335175207
 10
-1077.2577788488084
 20
-1844.4681847342954
 30
0.0
 41
1.0
 10
-1077.2884188137127
 20
-1844.5061879847249
 30
0.0
 41
1.0
 10
-1077.3190587786171
 20
-1844.5441912351544
 30
0.0
 41
1.0
 10
-1077.5613443254042
 20
-1844.844701968073
 30
0.0
 41
0.9997077826755085
 10
-1077.7888222765075
 20
-1845.1565717622864
 30
0.0
 41
1.0
 10
-1077.7905456916396
 20
-1845.1589345456682
 30
0.0
 41
1.0
 10
-1077.792269106772
 20
-1845.1612973290503
 30
0.0
 41
1.0
 10
-1078.0231938881384
 20
-1845.477892690026
 30
0.0
 41
0.9989147567078996
 10
-1078.223657391022
 20
-1845.8146021512111
 30
0.0
 41
1.0
 10
-1078.2483985363278
 20
-1845.8561587317618
 30
0.0
 41
1.0
 10
-1078.2731396816339
 20
-1845.8977153123126
 30
0.0
 41
1.0
 10
-1078.4283509802724
 20
-1846.1584166967673
 30
0.0
 41
0.9997476598181998
 10
-1078.5716959677825
 20
-1846.4258264453506
 30
0.0
 41
1.0
 10
-1078.7150409552924
 20
-1846.6932361939334
 30
0.0
 41
0.9996258967109577
 10
-1078.8435492072242
 20
-1846.9680841305581
 30
0.0
 41
1.0
 10
-1078.8567491166752
 20
-1846.9963155306566
 30
0.0
 41
1.0
 10
-1078.8699490261263
 20
-1847.0245469307552
 30
0.0
 41
1.0
 10
-1079.0101577471246
 20
-1847.3244193287046
 30
0.0
 41
0.9998735413945423
 10
-1079.1407590938436
 20
-1847.6285989281696
 30
0.0
 41
1.0
 10
-1079.1442019219044
 20
-1847.636617513635
 30
0.0
 41
1.0
 10
-1079.1476447499651
 20
-1847.6446360991004
 30
0.0
 41
1.0
 10
-1079.2713604405637
 20
-1847.9327785276366
 30
0.0
 41
0.9999377418859098
 10
-1079.3886152427385
 20
-1848.223609995312
 30
0.0
 41
1.0
 10
-1079.505870044914
 20
-1848.5144414629885
 30
0.0
 41
0.9999508299505339
 10
-1079.6173339882905
 20
-1848.8075411398079
 30
0.0
 41
1.0
 10
-1079.6204147569533
 20
-1848.8156421657727
 30
0.0
 41
1.0
 10
-1079.6234955256161
 20
-1848.8237431917373
 30
0.0
 41
1.0
 10
-1079.7411210063185
 20
-1849.1330449204861
 30
0.0
 41
0.9999609228434694
 10
-1079.8532596091936
 20
-1849.4443779365049
 30
0.0
 41
1.0
 10
-1079.8562156195426
 20
-1849.4525847769128
 30
0.0
 41
1.0
 10
-1079.8591716298918
 20
-1849.4607916173209
 30
0.0
 41
1.0
 10
-1079.9772222534637
 20
-1849.7885383141515
 30
0.0
 41
0.9999674607402617
 10
-1080.0899697795317
 20
-1850.1181469341461
 30
0.0
 41
1.0
 10
-1080.1413681700953
 20
-1850.2684061298414
 30
0.0
 41
1.0
 10
-1080.192766560659
 20
-1850.4186653255367
 30
0.0
 41
1.0
 10
-1080.3087771674166
 20
-1850.7578133080387
 30
0.0
 41
0.9999287532306245
 10
-1080.416658571387
 20
-1851.0996340470128
 30
0.0
 41
1.0
 10
-1080.4631358275053
 20
-1851.2468965913181
 30
0.0
 41
1.0
 10
-1080.5096130836237
 20
-1851.3941591356233
 30
0.0
 41
1.0
 10
-1080.5245399753439
 20
-1851.4414547859449
 30
0.0
 41
0.9999998224708983
 10
-1080.539410484088
 20
-1851.4887681942296
 30
0.0
 41
1.0
 10
-1082.1600666208833
 20
-1856.636796696019
 30
0.0
 41
1.0
 10
-1083.7807227576789
 20
-1861.7848251978085
 30
0.0
 41
1.0
 10
-1084.6860312015697
 20
-1861.7848251978085
 30
0.0
 41
1.0
 10
-1085.5913396454607
 20
-1861.7848251978085
 30
0.0
 41
1.0
 10
-1083.7392552340748
 20
-1855.8977532753411
 30
0.0
 41
1.0
 10
-1081.8871708226886
 20
-1850.0106813528735
 30
0.0
 41
1.0
 10
-1081.877049064386
 20
-1849.9786381394238
 30
0.0
 41
1.0
 10
-1081.8044413955363
 20
-1849.7483385975979
 30
0.0
 41
1.0
 10
-1081.7318337266888
 20
-1849.5180390557798
 30
0.0
 41
0.9999825681969594
 10
-1081.661950687479
 20
-1849.2868981607205
 30
0.0
 41
1.0
 10
-1081.6136596253173
 20
-1849.1271735772207
 30
0.0
 41
1.0
 10
-1081.5653685631553
 20
-1848.9674489937211
 30
0.0
 41
1.0
 10
-1081.4682162098384
 20
-1848.6461137719461
 30
0.0
 41
0.9999672528962453
 10
-1081.3762774042141
 20
-1848.323248226357
 30
0.0
 41
1.0
 10
-1081.3734885205458
 20
-1848.3134543809729
 30
0.0
 41
1.0
 10
-1081.3706996368778
 20
-1848.3036605355887
 30
0.0
 41
1.0
 10
-1081.2843385985911
 20
-1848.0003826807724
 30
0.0
 41
0.9999899749139805
 10
-1081.200696989056
 20
-1847.6963435923185
 30
0.0
 41
1.0
 10
-1081.1905910700391
 20
-1847.6596083546419
 30
0.0
 41
1.0
 10
-1081.1804851510221
 20
-1847.6228731169654
 30
0.0
 41
1.0
 10
-1081.1170553795225
 20
-1847.3923045038698
 30
0.0
 41
0.999921420050539
 10
-1081.0594259511436
 20
-1847.1602181616568
 30
0.0
 41
1.0
 10
-1081.0466600989625
 20
-1847.1088072762582
 30
0.0
 41
1.0
 10
-1081.0338942467813
 20
-1847.0573963908596
 30
0.0
 41
1.0
 10
-1081.0017965227657
 20
-1846.9281318194464
 30
0.0
 41
0.9999828681673484
 10
-1080.9712142707704
 20
-1846.7985003449799
 30
0.0
 41
1.0
 10
-1080.9406320187741
 20
-1846.6688688705085
 30
0.0
 41
0.9999389844477765
 10
-1080.9129210299841
 20
-1846.5385934146043
 30
0.0
 41
1.0
 10
-1080.9057832862648
 20
-1846.5050373107708
 30
0.0
 41
1.0
 10
-1080.8986455425454
 20
-1846.4714812069374
 30
0.0
 41
1.0
 10
-1080.8566590663158
 20
-1846.2740935433628
 30
0.0
 41
0.9998933699441296
 10
-1080.8204548019135
 20
-1846.0755639356041
 30
0.0
 41
1.0
 10
-1080.8190819766971
 20
-1846.0680359149073
 30
0.0
 41
1.0
 10
-1080.8177091514808
 20
-1846.0605078942108
 30
0.0
 41
1.0
 10
-1080.7787592366456
 20
-1845.8469222450576
 30
0.0
 41
0.9996850305193613
 10
-1080.7505755603866
 20
-1845.6316512396195
 30
0.0
 41
1.0
 10
-1080.7485805270176
 20
-1845.6164128855007
 30
0.0
 41
1.0
 10
-1080.7465854936488
 20
-1845.6011745313822
 30
0.0
 41
1.0
 10
-1080.7191776311897
 20
-1845.3918293042252
 30
0.0
 41
0.999469793670694
 10
-1080.7054530719697
 20
-1845.181144108893
 30
0.0
 41
1.0
 10
-1080.7049760027198
 20
-1845.1738206366813
 30
0.0
 41
1.0
 10
-1080.7044989334702
 20
-1845.1664971644695
 30
0.0
 41
1.0
 10
-1080.6917285127502
 20
-1844.970458913562
 30
0.0
 41
0.9991804893136926
 10
-1080.6948568290231
 20
-1844.774030063589
 30
0.0
 41
1.0
 10
-1080.6949407078453
 20
-1844.7687632621764
 30
0.0
 41
1.0
 10
-1080.6950245866674
 20
-1844.7634964607637
 30
0.0
 41
1.0
 10
-1080.6979851452959
 20
-1844.5776012136155
 30
0.0
 41
0.9988448329321722
 10
-1080.7187766909196
 20
-1844.3928486237821
 30
0.0
 41
1.0
 10
-1080.7203707646227
 20
-1844.378683768012
 30
0.0
 41
1.0
 10
-1080.7219648383254
 20
-1844.3645189122419
 30
0.0
 41
1.0
 10
-1080.7395682365432
 20
-1844.2080960339501
 30
0.0
 41
0.9985503209458922
 10
-1080.7738845088429
 20
-1844.0544718498595
 30
0.0
 41
1.0
 10
-1080.7814705009143
 20
-1844.0205115224585
 30
0.0
 41
1.0
 10
-1080.7890564929858
 20
-1843.9865511950577
 30
0.0
 41
1.0
 10
-1080.8082007811429
 20
-1843.9008476657696
 30
0.0
 41
0.9991036781370436
 10
-1080.8345256427938
 20
-1843.8170705784453
 30
0.0
 41
1.0
 10
-1080.8385078682486
 20
-1843.8043974159386
 30
0.0
 41
1.0
 10
-1080.8424900937034
 20
-1843.7917242534318
 30
0.0
 41
1.0
 10
-1080.8608505044438
 20
-1843.7332934911237
 30
0.0
 41
0.9998874504370213
 10
-1080.8809557121233
 20
-1843.675439888897
 30
0.0
 41
1.0
 10
-1080.9010609198017
 20
-1843.6175862866735
 30
0.0
 41
0.999404163754349
 10
-1080.9251095327363
 20
-1843.5612575827831
 30
0.0
 41
1.0
 10
-1080.92930631696
 20
-1843.5514275183018
 30
0.0
 41
1.0
 10
-1080.9335031011838
 20
-1843.5415974538205
 30
0.0
 41
1.0
 10
-1080.9613819321785
 20
-1843.476297287853
 30
0.0
 41
0.9991846840702284
 10
-1080.9944382888716
 20
-1843.4134592565727
 30
0.0
 41
1.0
 10
-1080.9955748952675
 20
-1843.411298640116
 30
0.0
 41
1.0
 10
-1080.9967115016636
 20
-1843.4091380236596
 30
0.0
 41
1.0
 10
-1081.0274946455656
 20
-1843.3506212252905
 30
0.0
 41
0.9989253167922523
 10
-1081.0635640696196
 20
-1843.2952062969021
 30
0.0
 41
1.0
 10
-1081.064618194293
 20
-1843.2935868021414
 30
0.0
 41
1.0
 10
-1081.0656723189661
 20
-1843.2919673073804
 30
0.0
 41
1.0
 10
-1081.0996334936738
 20
-1843.2397913685134
 30
0.0
 41
0.9986467172837482
 10
-1081.1388306463123
 20
-1843.1914253348823
 30
0.0
 41
1.0
 10
-1081.1397047750131
 20
-1843.1903467326038
 30
0.0
 41
1.0
 10
-1081.140578903714
 20
-1843.1892681303254
 30
0.0
 41
1.0
 10
-1081.1780277989499
 20
-1843.1430593012526
 30
0.0
 41
0.998400110426804
 10
-1081.2204545294667
 20
-1843.1013741938841
 30
0.0
 41
1.0
 10
-1081.2210416675744
 20
-1843.1007973190044
 30
0.0
 41
1.0
 10
-1081.2216288056823
 20
-1843.1002204441247
 30
0.0
 41
1.0
 10
-1081.2628812599821
 20
-1843.0596890865168
 30
0.0
 41
0.9982442159082725
 10
-1081.3086373613194
 20
-1843.024320525255
 30
0.0
 41
1.0
 10
-1081.3088521567831
 20
-1843.0241544926103
 30
0.0
 41
1.0
 10
-1081.3090669522469
 20
-1843.0239884599655
 30
0.0
 41
1.0
 10
-1081.3543934626571
 20
-1842.9889519639933
 30
0.0
 41
0.9982450060835563
 10
-1081.4035444417268
 20
-1842.9595201809611
 30
0.0
 41
1.0
 10
-1081.4526954207965
 20
-1842.9300883979288
 30
0.0
 41
0.9983922639636479
 10
-1081.5048617269592
 20
-1842.9064087632755
 30
0.0
 41
1.0
 10
-1081.5050886042859
 20
-1842.906305777793
 30
0.0
 41
1.0
 10
-1081.5053154816123
 20
-1842.9062027923108
 30
0.0
 41
1.0
 10
-1081.5579355424281
 20
-1842.8823171866929
 30
0.0
 41
0.9986517147148999
 10
-1081.6127485152983
 20
-1842.8640160675707
 30
0.0
 41
1.0
 10
-1081.613426436724
 20
-1842.8637897211399
 30
0.0
 41
1.0
 10
-1081.6141043581497
 20
-1842.8635633747092
 30
0.0
 41
1.0
 10
-1081.6702731738717
 20
-1842.844809562725
 30
0.0
 41
0.9989435598956469
 10
-1081.7279265610216
 20
-1842.8312918604909
 30
0.0
 41
1.0
 10
-1081.7290066806049
 20
-1842.8310386102376
 30
0.0
 41
1.0
 10
-1081.730086800188
 20
-1842.830785359984
 30
0.0
 41
1.0
 10
-1081.7899004265046
 20
-1842.816761157243
 30
0.0
 41
0.9992249241239557
 10
-1081.8506319354037
 20
-1842.8074858145278
 30
0.0
 41
1.0
 10
-1081.8520456236931
 20
-1842.8072699061202
 30
0.0
 41
1.0
 10
-1081.8534593119825
 20
-1842.8070539977125
 30
0.0
 41
1.0
 10
-1081.9170181974596
 20
-1842.797346838182
 30
0.0
 41
0.9994396597834225
 10
-1081.981084133994
 20
-1842.7919139158366
 30
0.0
 41
1.0
 10
-1082.0002248014744
 20
-1842.7902907481177
 30
0.0
 41
1.0
 10
-1082.0193654689544
 20
-1842.7886675803989
 30
0.0
 41
1.0
 10
-1082.1217127404479
 20
-1842.7799883226157
 30
0.0
 41
0.9987693403120928
 10
-1082.224416364036
 20
-1842.7814913860684
 30
0.0
 41
1.0
 10
-1082.2346706982607
 20
-1842.7816414578424
 30
0.0
 41
1.0
 10
-1082.2449250324853
 20
-1842.7817915296166
 30
0.0
 41
1.0
 10
-1082.3544807986657
 20
-1842.7833948739042
 30
0.0
 41
0.998975364496648
 10
-1082.4634427986839
 20
-1842.7948978808295
 30
0.0
 41
1.0
 10
-1082.5724047986992
 20
-1842.8064008877545
 30
0.0
 41
0.9983190067306103
 10
-1082.6793036096633
 20
-1842.8304358795408
 30
0.0
 41
1.0
 10
-1082.688204561271
 20
-1842.8324371581039
 30
0.0
 41
1.0
 10
-1082.6971055128788
 20
-1842.8344384366667
 30
0.0
 41
1.0
 10
-1082.8218062270596
 20
-1842.8624759855793
 30
0.0
 41
0.9985539388302298
 10
-1082.9427759807395
 20
-1842.9037396616259
 30
0.0
 41
1.0
 10
-1082.9451214116978
 20
-1842.904539705441
 30
0.0
 41
1.0
 10
-1082.947466842656
 20
-1842.9053397492562
 30
0.0
 41
1.0
 10
-1083.0731274582538
 20
-1842.9482035129331
 30
0.0
 41
0.9988468746493597
 10
-1083.1940978005534
 20
-1843.0029215979953
 30
0.0
 41
1.0
 10
-1083.1972806225426
 20
-1843.0043612725553
 30
0.0
 41
1.0
 10
-1083.200463444532
 20
-1843.0058009471156
 30
0.0
 41
1.0
 10
-1083.32779943081
 20
-1843.0633983812979
 30
0.0
 41
0.9991322885919172
 10
-1083.4499000148676
 20
-1843.1313937134805
 30
0.0
 41
1.0
 10
-1083.4675020259128
 20
-1843.1411959154709
 30
0.0
 41
1.0
 10
-1083.4851040369579
 20
-1843.1509981174613
 30
0.0
 41
1.0
 10
-1083.5872807180133
 20
-1843.2078982332409
 30
0.0
 41
0.9993860037848972
 10
-1083.6852217220849
 20
-1843.2718142488286
 30
0.0
 41
1.0
 10
-1083.6908400349384
 20
-1843.2754807435244
 30
0.0
 41
1.0
 10
-1083.6964583477923
 20
-1843.2791472382203
 30
0.0
 41
1.0
 10
-1083.7831627261601
 20
-1843.3357302644181
 30
0.0
 41
0.9998821494953218
 10
-1083.8680891019712
 20
-1843.3949484944937
 30
0.0
 41
1.0
 10
-1083.9530154777824
 20
-1843.4541667245694
 30
0.0
 41
0.9997976482744341
 10
-1084.0354911081847
 20
-1843.5167531326101
 30
0.0
 41
1.0
 10
-1084.050127372991
 20
-1843.5278598223911
 30
0.0
 41
1.0
 10
-1084.0647636377976
 20
-1843.538966512172
 30
0.0
 41
1.0
 10
-1084.1765117978111
 20
-1843.6237662997735
 30
0.0
 41
0.9998091630799221
 10
-1084.2848620758384
 20
-1843.7128666504746
 30
0.0
 41
1.0
 10
-1084.2978678283157
 20
-1843.7235617509207
 30
0.0
 41
1.0
 10
-1084.3108735807932
 20
-1843.7342568513668
 30
0.0
 41
1.0
 10
-1084.445235363776
 20
-1843.8447474029608
 30
0.0
 41
0.9995035112317162
 10
-1084.5723712415397
 20
-1843.9634812199761
 30
0.0
 41
1.0
 10
-1084.582018551926
 20
-1843.9724909661331
 30
0.0
 41
1.0
 10
-1084.5916658623123
 20
-1843.98150071229
 30
0.0
 41
1.0
 10
-1084.7150889250777
 20
-1844.0967670840462
 30
0.0
 41
0.999463042429937
 10
-1084.8306973308627
 20
-1844.2198698272821
 30
0.0
 41
1.0
 10
-1084.8343801696356
 20
-1844.2237914067966
 30
0.0
 41
1.0
 10
-1084.8380630084082
 20
-1844.2277129863112
 30
0.0
 41
1.0
 10
-1084.9463057366477
 20
-1844.3429725705182
 30
0.0
 41
0.9995160693749512
 10
-1085.0471717661785
 20
-1844.4647399883897
 30
0.0
 41
1.0
 10
-1085.0491054862603
 20
-1844.4670744125992
 30
0.0
 41
1.0
 10
-1085.051039206342
 20
-1844.4694088368085
 30
0.0
 41
1.0
 10
-1085.1480377957121
 20
-1844.5865074062642
 30
0.0
 41
0.9996561470514732
 10
-1085.2387640143766
 20
-1844.7085301687116
 30
0.0
 41
1.0
 10
-1085.2449216802797
 20
-1844.7168119577555
 30
0.0
 41
1.0
 10
-1085.2510793461827
 20
-1844.7250937467993
 30
0.0
 41
1.0
 10
-1085.329490233044
 20
-1844.8305529311631
 30
0.0
 41
0.9998349055174147
 10
-1085.4040175149746
 20
-1844.9387915148241
 30
0.0
 41
1.0
 10
-1085.4785447969052
 20
-1845.047030098485
 30
0.0
 41
0.9999728109565457
 10
-1085.5514676928124
 20
-1845.1563560240361
 30
0.0
 41
1.0
 10
-1085.5527829082264
 20
-1845.158327793542
 30
0.0
 41
1.0
 10
-1085.5540981236404
 20
-1845.1602995630478
 30
0.0
 41
1.0
 10
-1085.6296514503642
 20
-1845.2735690275938
 30
0.0
 41
0.9999972147283939
 10
-1085.7046692607307
 20
-1845.3871938704178
 30
0.0
 41
1.0
 10
-1085.7096408033617
 20
-1845.3947239589031
 30
0.0
 41
1.0
 10
-1085.7146123459927
 20
-1845.4022540473884
 30
0.0
 41
1.0
 10
-1085.7995732416105
 20
-1845.5309390671673
 30
0.0
 41
0.9999371979010541
 10
-1085.8816285910125
 20
-1845.6614959809413
 30
0.0
 41
1.0
 10
-1085.8851374753763
 20
-1845.6670789090092
 30
0.0
 41
1.0
 10
-1085.8886463597398
 20
-1845.6726618370772
 30
0.0
 41
1.0
 10
-1085.9777194778685
 20
-1845.8143846069856
 30
0.0
 41
0.9998272025609387
 10
-1086.0614628687511
 20
-1845.9593204837288
 30
0.0
 41
1.0
 10
-1086.0766780407748
 20
-1845.9856535981851
 30
0.0
 41
1.0
 10
-1086.0918932127986
 20
-1846.0119867126414
 30
0.0
 41
1.0
 10
-1086.2060669477296
 20
-1846.2095888182985
 30
0.0
 41
0.9995217214837794
 10
-1086.3078066372855
 20
-1846.4138711461619
 30
0.0
 41
1.0
 10
-1086.3154501999211
 20
-1846.4292185958661
 30
0.0
 41
1.0
 10
-1086.3230937625567
 20
-1846.4445660455701
 30
0.0
 41
1.0
 10
-1086.4099990551451
 20
-1846.6190625036488
 30
0.0
 41
0.9998269762607708
 10
-1086.4903535214162
 20
-1846.7966707903702
 30
0.0
 41
1.0
 10
-1086.5707079876877
 20
-1846.9742790770922
 30
0.0
 41
0.999894474738956
 10
-1086.6458687822521
 20
-1847.1541468027208
 30
0.0
 41
1.0
 10
-1086.6508224518457
 20
-1847.1660014576441
 30
0.0
 41
1.0
 10
-1086.6557761214394
 20
-1847.1778561125675
 30
0.0
 41
1.0
 10
-1086.7364231819902
 20
-1847.3708530525812
 30
0.0
 41
0.9999506734411936
 10
-1086.813220710892
 20
-1847.5654138574332
 30
0.0
 41
1.0
 10
-1086.8278206761609
 20
-1847.6024017792342
 30
0.0
 41
1.0
 10
-1086.8424206414297
 20
-1847.639389701035
 30
0.0
 41
1.0
 10
-1086.8900182397963
 20
-1847.7599746622909
 30
0.0
 41
0.999991239393053
 10
-1086.9366046838181
 20
-1847.880953864985
 30
0.0
 41
1.0
 10
-1086.9831911278384
 20
-1848.0019330676746
 30
0.0
 41
0.9999927113946335
 10
-1087.0288524222299
 20
-1848.1232644751697
 30
0.0
 41
1.0
 10
-1087.04282085363
 20
-1848.1603814571752
 30
0.0
 41
1.0
 10
-1087.0567892850304
 20
-1848.1974984391807
 30
0.0
 41
1.0
 10
-1087.1303874422188
 20
-1848.3930638106772
 30
0.0
 41
0.9999487550949187
 10
-1087.2000110671886
 20
-1848.5900791758545
 30
0.0
 41
1.0
 10
-1087.2236046771286
 20
-1848.6568424861562
 30
0.0
 41
1.0
 10
-1087.2471982870686
 20
-1848.7236057964576
 30
0.0
 41
1.0
 10
-1087.3418839214369
 20
-1848.9915396312761
 30
0.0
 41
0.9999808436927523
 10
-1087.4332455100773
 20
-1849.2606250625379
 30
0.0
 41
1.0
 10
-1087.5246070987187
 20
-1849.5297104938022
 30
0.0
 41
0.9999873932908983
 10
-1087.6132618074355
 20
-1849.7996998488122
 30
0.0
 41
1.0
 10
-1087.6333541643055
 20
-1849.860889181567
 30
0.0
 41
1.0
 10
-1087.6534465211755
 20
-1849.9220785143216
 30
0.0
 41
1.0
 10
-1087.7822859436317
 20
-1850.3144465348389
 30
0.0
 41
0.9999794883032693
 10
-1087.9060887285912
 20
-1850.7084327411214
 30
0.0
 41
1.0
 10
-1087.9172409880262
 20
-1850.7439233513505
 30
0.0
 41
1.0
 10
-1087.9283932474611
 20
-1850.7794139615796
 30
0.0
 41
1.0
 10
-1088.0709514113566
 20
-1851.2330867136593
 30
0.0
 41
0.9999982761815065
 10
-1088.2118238513781
 20
-1851.6872857358019
 30
0.0
 41
1.0
 10
-1089.7999641839506
 20
-1856.7360554668053
 30
0.0
 41
1.0
 10
-1091.3881045165233
 20
-1861.7848251978085
 30
0.0
 41
1.0
 10
-1092.3368551279996
 20
-1861.7848251978085
 30
0.0
 41
1.0
 10
-1093.2856057394761
 20
-1861.7848251978085
 30
0.0
 41
1.0
 10
-1090.0473212533229
 20
-1851.4575029978623
 30
0.0
 41
1.0
 10
-1086.8090367671698
 20
-1841.1301807979162
 30
0.0
 41
1.0
  0
LWPOLYLINE
  5
53
100
AcDbEntity
  8
0
370
              15
390
0
  6
Continuous
 62
               7
100
AcDbPolyline
 90
      232
 70
             128
 10
-1112.5125825409968
 20
-1842.2145236294314
 42
0.0004370800698468
 10
-1112.5654597150651
 20
-1842.2831902686828
 10
-1112.6047439461963
 20
-1842.3342973815843
 42
0.0030481992175876
 10
-1112.735082663316
 20
-1842.5060190739291
 10
-1112.7735943350658
 20
-1842.5574058577165
 42
0.0042058245757087
 10
-1112.977579385738
 20
-1842.8344116027936
 10
-1113.0299845082363
 20
-1842.9068444495711
 42
0.0120948898743663
 10
-1113.326028424998
 20
-1843.3375940541202
 10
-1113.4222209241193
 20
-1843.4850747893443
 42
0.0141601263947038
 10
-1113.7258649710416
 20
-1843.9807441260803
 10
-1113.7654022384681
 20
-1844.0495880935132
 42
0.0071131081303711
 10
-1113.9706745617059
 20
-1844.4190908923501
 42
0.0068458791003843
 10
-1114.1655540885458
 20
-1844.7941824558195
 10
-1114.1723659510069
 20
-1844.80774416955
 42
0.0064120880291734
 10
-1114.370508201054
 20
-1845.2151686444747
 10
-1114.3780428865682
 20
-1845.23118050119
 42
0.0058857236446939
 10
-1114.5807982784365
 20
-1845.6755566122172
 10
-1114.588973204734
 20
-1845.694046765859
 42
0.0053189741893339
 10
-1114.7976775173979
 20
-1846.1800102397685
 10
-1114.8064253230827
 20
-1846.2009921179729
 42
0.0047503650416914
 10
-1115.0223990492345
 20
-1846.7331915511847
 10
-1115.0316672975816
 20
-1846.7566679272904
 42
0.004207176217365
 10
-1115.2562146813104
 20
-1847.3397615213632
 10
-1115.265964083658
 20
-1847.3657276962299
 42
0.0036680086483275
 10
-1115.5004187269665
 20
-1848.004363080752
 10
-1115.5106265068177
 20
-1848.0328116151059
 42
0.0032573142627764
 10
-1115.7562587927816
 20
-1848.731664274851
 10
-1115.8249093136253
 20
-1848.9311273589128
 42
0.0026133366649828
 10
-1116.1733545123832
 20
-1849.960990642584
 10
-1116.2366112998893
 20
-1850.1512214779932
 42
0.0020592950739834
 10
-1116.450474368851
 20
-1850.8033251305901
 10
-1116.4535261600138
 20
-1850.8127616189986
 42
0.0025609928535066
 10
-1116.6553466615001
 20
-1851.4479068413657
 10
-1116.6579380286287
 20
-1851.4562091823125
 42
0.0031362356242752
 10
-1116.8474288143036
 20
-1852.0769720384858
 10
-1116.8495598572267
 20
-1852.0841133446827
 42
0.0037229918027942
 10
-1117.0263602441573
 20
-1852.6930986466709
 10
-1117.0280388333588
 20
-1852.6990455368277
 42
0.0043077623707331
 10
-1117.1917796354287
 20
-1853.2988642686146
 42
0.0047654161824884
 10
-1117.3446083579399
 20
-1853.9015503574969
 10
-1117.379072966784
 20
-1854.0431121346664
 42
0.0112969368443506
 10
-1117.5749373249264
 20
-1854.9348042952852
 10
-1117.6029437140241
 20
-1855.0776323413886
 42
0.0130056762571969
 10
-1117.8037809576708
 20
-1856.2645734130335
 10
-1117.8243207078176
 20
-1856.4086515265085
 42
0.013872153214432
 10
-1117.9280237123558
 20
-1857.3154810123362
 10
-1117.9473192002633
 20
-1857.5389787342579
 42
0.0071254697008184
 10
-1117.9806658461862
 20
-1858.0021657431084
 10
-1117.98562682035
 20
-1858.0881697376799
 42
0.0028881799200723
 10
-1118.0007651136393
 20
-1858.3799114475114
 42
0.0060297297131958
 10
-1118.010697313415
 20
-1858.6718603836241
 10
-1118.0117595950821
 20
-1858.7202527555585
 42
0.0229523164152065
 10
-1118.0040285672962
 20
-1859.0430076018429
 10
-1117.9998027937759
 20
-1859.1034111358601
 42
0.0123673300664811
 10
-1117.9807241472577
 20
-1859.3045318610339
 42
0.0128577674473281
 10
-1117.9515287568515
 20
-1859.5044297109582
 10
-1117.9444028834641
 20
-1859.5457585255576
 42
0.02857178537731
 10
-1117.8799088817673
 20
-1859.8238746768752
 10
-1117.8662403581025
 20
-1859.8705294463466
 42
0.0316283099158415
 10
-1117.7504297781879
 20
-1860.1895439481739
 10
-1117.7473810864324
 20
-1860.1965303204995
 42
0.033898482423482
 10
-1117.5979493754651
 20
-1860.4840962846886
 10
-1117.5956406460946
 20
-1860.4878873139655
 42
0.0350228718356072
 10
-1117.4132803554216
 20
-1860.7449392986414
 10
-1117.4123951036481
 20
-1860.7460183764035
 42
0.0347476747526906
 10
-1117.1979704164066
 20
-1860.9732034236254
 42
0.0331337701918924
 10
-1116.9547270906564
 20
-1861.1693320857057
 10
-1116.9536269921441
 20
-1861.1701047888755
 42
0.0305233319087243
 10
-1116.685082296566
 20
-1861.3352329589691
 10
-1116.6818522520693
 20
-1861.3369569708293
 42
0.0273744481157141
 10
-1116.3892985404962
 20
-1861.4730951147194
 10
-1116.3841940053576
 20
-1861.4751386991895
 42
0.0240964406195913
 10
-1116.0687169297173
 20
-1861.5841224254691
 10
-1116.062133600502
 20
-1861.5860471651458
 42
0.0209636179812703
 10
-1115.72473344785
 20
-1861.6695153130779
 10
-1115.7171009874007
 20
-1861.6710672260795
 42
0.0181388704692012
 10
-1115.3587785954028
 20
-1861.7304833192934
 10
-1115.3504977470243
 20
-1861.7315495031105
 42
0.0156086547587648
 10
-1114.9723103828337
 20
-1861.7682856896872
 10
-1114.929115130506
 20
-1861.7711241921663
 42
0.0137148329024129
 10
-1114.6014419852095
 20
-1861.7836444474174
 10
-1114.555505795277
 20
-1861.7841388805325
 42
0.0051057823882968
 10
-1114.3193602086913
 20
-1861.784269134942
 42
0.005225669331199
 10
-1114.0832629249071
 20
-1861.7795203104774
 10
-1114.013036141163
 20
-1861.7773733444635
 42
0.0161507179046904
 10
-1113.6372990630639
 20
-1861.7537229741372
 10
-1113.6172861026889
 20
-1861.7518127788494
 42
0.0101216737833974
 10
-1113.2032588811885
 20
-1861.7038198484827
 10
-1113.1692055917713
 20
-1861.6991721516742
 42
0.024529177639822
 10
-1112.692415936222
 20
-1861.6100970735984
 10
-1112.6075926206927
 20
-1861.5899011532513
 42
0.0143509212561127
 10
-1112.2509615167564
 20
-1861.4940965194733
 42
0.0156557857041058
 10
-1111.9007454520304
 20
-1861.3770853036549
 10
-1111.8932442375346
 20
-1861.3743151419003
 42
0.0170137333632914
 10
-1111.536648241851
 20
-1861.2286575270282
 10
-1111.5295443194459
 20
-1861.2254696914656
 42
0.0183105364411881
 10
-1111.1701946512778
 20
-1861.0481346496404
 10
-1111.1632478866409
 20
-1861.0443842147693
 42
0.0194899958148911
 10
-1110.8047671456579
 20
-1860.8324052328792
 10
-1110.7977532663201
 20
-1860.8278798905835
 42
0.0204869852947368
 10
-1110.4437389642278
 20
-1860.5783598754988
 10
-1110.4364733556392
 20
-1860.5727798101493
 42
0.0212516938554804
 10
-1110.0904834245316
 20
-1860.282875813255
 10
-1110.0439667304561
 20
-1860.2404085031612
 42
0.021524891825264
 10
-1109.7839405615678
 20
-1859.9816442241663
 10
-1109.7389108271846
 20
-1859.9328001028139
 42
0.0114578554952316
 10
-1109.5841186735097
 20
-1859.7569771693584
 10
-1109.5729241375245
 20
-1859.7436584058148
 42
0.0061531305126813
 10
-1109.4464494915287
 20
-1859.5893688725073
 42
0.0006325587121177
 10
-1109.3220710073952
 20
-1859.4333654968541
 10
-1109.2990308723256
 20
-1859.4043919761721
 42
0.0041897761558993
 10
-1109.1305754683456
 20
-1859.1888726001007
 10
-1109.0721133484608
 20
-1859.1127712531252
 42
0.0092993880036185
 10
-1108.7955014212366
 20
-1858.7384924892408
 10
-1108.7131069280406
 20
-1858.6225554856762
 42
0.0159321727083802
 10
-1108.3665004453958
 20
-1858.1003812649165
 10
-1108.322144310004
 20
-1858.0287017006619
 42
0.0085547317022365
 10
-1108.0876325446809
 20
-1857.6348267514418
 42
0.008460115689028
 10
-1107.8666563672371
 20
-1857.2331999024066
 10
-1107.8585408934084
 20
-1857.2178402201366
 42
0.0081429654285086
 10
-1107.635291622971
 20
-1856.7781187075959
 10
-1107.626431458787
 20
-1856.7599398655766
 42
0.0076574581329964
 10
-1107.4000239482189
 20
-1856.2767569903206
 10
-1107.3905443074964
 20
-1856.2556925120202
 42
0.0070682724200728
 10
-1107.1600993996879
 20
-1855.723655207235
 10
-1107.1501091157079
 20
-1855.6996660182276
 42
0.0064559514446684
 10
-1106.9147759075272
 20
-1855.1133537517103
 10
-1106.9043665493614
 20
-1855.0864188262663
 42
0.0058311413907815
 10
-1106.6633198125978
 20
-1854.4403867318808
 10
-1106.6525647352109
 20
-1854.4105023907223
 42
0.005231242581854
 10
-1106.4049834571695
 20
-1853.6992999768859
 10
-1106.3939396207902
 20
-1853.6664732648178
 42
0.004668054479595
 10
-1106.1390111930598
 20
-1852.8846469490747
 10
-1106.0970190430107
 20
-1852.751663711766
 42
0.0041666856445923
 10
-1105.8937330306176
 20
-1852.0886949367655
 10
-1105.8560705899508
 20
-1851.9621138291022
 42
0.0015170975154759
 10
-1105.7348840115405
 20
-1851.5502454776181
 42
-0.0004887993112769
 10
-1105.6145442384288
 20
-1851.1381270656154
 10
-1105.5380669809224
 20
-1850.877169679635
 42
0.0002583378927582
 10
-1105.2648524108611
 20
-1849.9431129764664
 10
-1105.1830795612973
 20
-1849.6630137169277
 42
0.0006636169670793
 10
-1104.9892118012701
 20
-1848.9956607932859
 10
-1104.9841151469213
 20
-1848.9780292103999
 42
0.0010589131322934
 10
-1104.8026664460065
 20
-1848.345297867357
 10
-1104.7976843755121
 20
-1848.327784960288
 42
0.0015655524462547
 10
-1104.6294141683431
 20
-1847.729168281136
 10
-1104.624583967942
 20
-1847.7117761222498
 42
0.0021640440476388
 10
-1104.470293995942
 20
-1847.1467491041822
 10
-1104.4656597765149
 20
-1847.1294843741989
 42
0.0028763871849493
 10
-1104.3261440584592
 20
-1846.5975164233412
 10
-1104.3217581942927
 20
-1846.5803924451889
 42
0.0037310511943817
 10
-1104.1978015024551
 20
-1846.0809448511627
 10
-1104.1937262821641
 20
-1846.0639845799089
 42
0.0047652197772119
 10
-1104.0861023816578
 20
-1845.5965068116122
 10
-1104.0824117823336
 20
-1845.5797472564577
 42
0.0060276699304786
 10
-1103.9918816831807
 20
-1845.143671461318
 10
-1103.9886629928917
 20
-1845.1271702470092
 42
0.0075824337755727
 10
-1103.9159736834761
 20
-1844.7219030825827
 10
-1103.9133283060953
 20
-1844.7057481351299
 42
0.0095130624610704
 10
-1103.8592130704646
 20
-1844.3306587820603
 10
-1103.8522268465822
 20
-1844.2747252239453
 42
0.0121054653228939
 10
-1103.8256355160042
 20
-1844.00982939547
 10
-1103.8247690262442
 20
-1843.9984259525354
 42
0.0069050827387766
 10
-1103.8096802082068
 20
-1843.7554847256965
 10
-1103.8085449085384
 20
-1843.7319584686536
 42
0.0169063976696284
 10
-1103.8057176295579
 20
-1843.535765741351
 10
-1103.8068882810894
 20
-1843.4754299799981
 42
0.0052007732903748
 10
-1103.8091417296823
 20
-1843.3998365898499
 42
0.0054038123306459
 10
-1103.8291052415234
 20
-1843.2798182938279
 10
-1103.8341910973916
 20
-1843.2511598072588
 42
0.0112050460472224
 10
-1103.8695754594507
 20
-1843.0748333689173
 10
-1103.8874004214908
 20
-1842.9952917821988
 42
0.0240764468012003
 10
-1103.9782977876375
 20
-1842.6650547466963
 10
-1103.9968565504516
 20
-1842.6084345817007
 42
0.0256812331840203
 10
-1104.14021947064
 20
-1842.2367103754466
 10
-1104.1456288964616
 20
-1842.2245790404561
 42
0.0268360501214616
 10
-1104.3150561373113
 20
-1841.8935859064359
 10
-1104.320592544947
 20
-1841.8840662361224
 42
0.0274670231728212
 10
-1104.5127935213595
 20
-1841.5917788612064
 10
-1104.5181748213192
 20
-1841.5844997136689
 42
0.0275035967099397
 10
-1104.7297477008842
 20
-1841.3289838233609
 10
-1104.7348172018499
 20
-1841.3235047357316
 42
0.0269557673526797
 10
-1104.9622207452903
 20
-1841.1028624497681
 10
-1104.9669638030739
 20
-1841.0987324953064
 42
0.0259124802211764
 10
-1105.2065186345035
 20
-1840.9110419681551
 10
-1105.2110494796825
 20
-1840.9078564658269
 42
0.0245162152997487
 10
-1105.4589658327802
 20
-1840.7511234567141
 10
-1105.4634923791098
 20
-1840.7485632595103
 42
0.0229282588842078
 10
-1105.7159119359317
 20
-1840.6206950670144
 10
-1105.7206924297675
 20
-1840.6185427672528
 42
0.0212984135693477
 10
-1105.9737303822303
 20
-1840.5173438500101
 10
-1105.9790346671998
 20
-1840.5154802872501
 42
0.0197555462339032
 10
-1106.2288130049228
 20
-1840.4386648692853
 42
0.0183511896788623
 10
-1106.4837417303893
 20
-1840.3810819623193
 10
-1106.5701069271099
 20
-1840.3648791719347
 42
0.0338057877151422
 10
-1106.8556142763691
 20
-1840.3310707667947
 10
-1106.9466196814139
 20
-1840.326491111533
 42
0.009199052449532
 10
-1107.0524667900452
 20
-1840.3231152556111
 42
0.0028333980773172
 10
-1107.158380706026
 20
-1840.3222871480943
 10
-1107.1592961590873
 20
-1840.3222851782702
 42
-0.0023619827803306
 10
-1107.2670421742012
 20
-1840.3215443371919
 10
-1107.303447344369
 20
-1840.3211220307289
 42
0.0008824598487814
 10
-1107.4840033342259
 20
-1840.3193462524907
 10
-1107.527864766625
 20
-1840.3189922909651
 42
0.0038132665768219
 10
-1107.7961476624885
 20
-1840.3188733548982
 10
-1107.8126813172973
 20
-1840.3189921210419
 42
0.0060665569336861
 10
-1108.113961808891
 20
-1840.3248124204629
 10
-1108.128212140914
 20
-1840.3252607284303
 42
0.0080356953336921
 10
-1108.4576708572522
 20
-1840.3409284504971
 10
-1108.4697408723405
 20
-1840.3416970334376
 42
0.0098996399108231
 10
-1108.8225039569943
 20
-1840.3711822626362
 10
-1108.832549666366
 20
-1840.372222558834
 42
0.0117740981368158
 10
-1109.2037065247143
 20
-1840.4195148063638
 10
-1109.2119292211974
 20
-1840.4207599229346
 42
0.0137435215135171
 10
-1109.5965180406804
 20
-1840.4898568964959
 10
-1109.6031750798056
 20
-1840.4912427927297
 42
0.0158359869382427
 10
-1109.9961721736045
 20
-1840.5861348812095
 10
-1110.0015853604755
 20
-1840.5876248220811
 42
0.018055412402277
 10
-1110.3979004050843
 20
-1840.7122628383183
 10
-1110.4024571931714
 20
-1840.713878874586
 42
0.0203657431281798
 10
-1110.7969347109822
 20
-1840.8721392161017
 10
-1110.80107824999
 20
-1840.8740008375439
 42
0.0226819684655185
 10
-1111.1885143061932
 20
-1841.0696434162146
 10
-1111.1927140972116
 20
-1841.0720090081345
 42
0.0248634984602209
 10
-1111.5678960383898
 20
-1841.3086356540796
 10
-1111.6160909671776
 20
-1841.342492695908
 42
0.0267044190885386
 10
-1111.8903836640934
 20
-1841.5579330717756
 42
0.0139303002196982
 10
-1112.1465508300325
 20
-1841.7951719126879
 10
-1112.1514042157532
 20
-1841.7999245755477
 42
0.0283460963441603
 10
-1112.39547680998
 20
-1842.0676552359923
 10
-1112.4351453151369
 20
-1842.1164568134659
 42
0.0070695364819099
 10
-1112.5125825409968
 20
-1842.2145236294314
 42
0.0070695364819099
  0
LWPOLYLINE
  5
54
100
AcDbEntity
  8
0
370
              15
390
0
  6
Continuous
 62
               7
100
AcDbPolyline
 90
      226
 70
             128
 10
-1116.0414029782432
 20
-1857.9361124356153
 42
-0.0026277636645479
 10
-1116.0414808620433
 20
-1857.8693405099034
 10
-1116.0412635038113
 20
-1857.8161852924291
 42
-0.0088680296728305
 10
-1116.0374868875183
 20
-1857.6431695100275
 10
-1116.0351405284057
 20
-1857.5838894845724
 42
-0.007738170561441
 10
-1116.0190944176427
 20
-1857.2926289887762
 10
-1116.0182265064695
 20
-1857.2803407550891
 42
-0.0068872530529577
 10
-1115.9915944267213
 20
-1856.9651190030206
 10
-1115.9903902025353
 20
-1856.9528780240016
 42
-0.0062130021485019
 10
-1115.9527964857073
 20
-1856.6140083327618
 10
-1115.9512925821723
 20
-1856.6018344608465
 42
-0.005672692966902
 10
-1115.90237072267
 20
-1856.239639238732
 10
-1115.9005972770256
 20
-1856.2275454384876
 42
-0.0052341884492461
 10
-1115.8399866907646
 20
-1855.842352182965
 10
-1115.8379687019888
 20
-1855.8303472529774
 42
-0.0049768450169957
 10
-1115.76523002056
 20
-1855.4225026855315
 10
-1115.7409810058407
 20
-1855.2939547025389
 42
-0.0089029805625508
 10
-1115.603900154046
 20
-1854.6321792551157
 10
-1115.5711547787275
 20
-1854.487147824593
 42
-0.0080318257099756
 10
-1115.3416061643879
 20
-1853.5414381927435
 10
-1115.3296212379387
 20
-1853.495307557549
 42
-0.0074265721316684
 10
-1115.0456096990881
 20
-1852.4652429791661
 10
-1115.0257301559711
 20
-1852.3971089185761
 42
-0.0069711922703609
 10
-1114.6984255774653
 20
-1851.3308411782514
 10
-1114.6384736303619
 20
-1851.1448198198875
 42
-0.0052070422894824
 10
-1114.4090484051003
 20
-1850.4575477428493
 10
-1114.3917672129344
 20
-1850.4075204622502
 42
-0.0009167004448393
 10
-1114.188675325639
 20
-1849.8230646140782
 42
-0.002516272694269
 10
-1113.9815776953681
 20
-1849.2400233498925
 10
-1113.9443530835674
 20
-1849.1368738040003
 42
-0.0028212681456844
 10
-1113.6961771646079
 20
-1848.461143171839
 10
-1113.6863464018556
 20
-1848.4348357271583
 42
-0.003196491682009
 10
-1113.4500541441948
 20
-1847.8146309650353
 10
-1113.4404196901953
 20
-1847.7898209748907
 42
-0.0036281836450837
 10
-1113.2153137290945
 20
-1847.2223802939989
 10
-1113.2058753189328
 20
-1847.1990828624855
 42
-0.0041269166832127
 10
-1112.9912576222778
 20
-1846.6816419665179
 10
-1112.9586246658582
 20
-1846.6047635201596
 42
-0.0047472213058128
 10
-1112.8015798603035
 20
-1846.2443420522734
 10
-1112.7946857790953
 20
-1846.2289214549412
 42
-0.0025651659994936
 10
-1112.6463277452451
 20
-1845.901593399193
 42
-0.0057144634992036
 10
-1112.4925780514723
 20
-1845.576783725827
 10
-1112.4645473460762
 20
-1845.5192753434437
 42
-0.0065388068374359
 10
-1112.2810803183327
 20
-1845.1550428467713
 10
-1112.2726218625535
 20
-1845.1387832674006
 42
-0.007451084302489
 10
-1112.0964396166764
 20
-1844.8120949862791
 10
-1112.0882599461438
 20
-1844.7974542090076
 42
-0.0084648979861552
 10
-1111.9186260930455
 20
-1844.505545198049
 10
-1111.9107699665562
 20
-1844.4925382063961
 42
-0.0095638542802967
 10
-1111.7469345189629
 20
-1844.2326493344196
 10
-1111.739459575291
 20
-1844.2212799729639
 42
-0.0107191626805276
 10
-1111.5806579949037
 20
-1843.99066873842
 10
-1111.5736412611736
 20
-1843.9809326460568
 42
-0.0118458573902873
 10
-1111.4190931626601
 20
-1843.7768604507448
 42
-0.0129184518194601
 10
-1111.2546405390578
 20
-1843.5806999345739
 10
-1111.2244957666942
 20
-1843.5465738556736
 42
-0.021774257963268
 10
-1111.0478834443602
 20
-1843.3633670854247
 10
-1111.0371378999023
 20
-1843.3531502522242
 42
-0.0097266568647258
 10
-1110.8710802810442
 20
-1843.2013026777845
 42
-0.0187720905721306
 10
-1110.6967327051559
 20
-1843.0592338243964
 10
-1110.6660267144812
 20
-1843.0360747419998
 42
-0.0179428207519667
 10
-1110.4336059944842
 20
-1842.8735225648875
 10
-1110.4299536675678
 20
-1842.8711586299994
 42
-0.0170047877700115
 10
-1110.194190030038
 20
-1842.7296981158484
 10
-1110.1904070412882
 20
-1842.7275998108103
 42
-0.0160190788366087
 10
-1109.9534984936563
 20
-1842.605948508824
 42
-0.0151102861488026
 10
-1109.7094667112051
 20
-1842.4992657327673
 10
-1109.6570802089977
 20
-1842.4782255998746
 42
-0.0271945441888827
 10
-1109.2984176499406
 20
-1842.356360789169
 10
-1109.2293528494497
 20
-1842.3370112479017
 42
-0.0237596594018989
 10
-1108.8135560024289
 20
-1842.2415605359206
 10
-1108.7454931486991
 20
-1842.229305847794
 42
-0.0213715440553051
 10
-1108.4596182172531
 20
-1842.1903588162841
 10
-1108.3994710510331
 20
-1842.184769101583
 42
-0.0101465655815468
 10
-1108.2319785190411
 20
-1842.1726255583189
 10
-1108.2226381328483
 20
-1842.1721386433219
 42
-0.0100375910877158
 10
-1108.0734840322802
 20
-1842.1673628253966
 10
-1108.0632247625961
 20
-1842.167240386382
 42
-0.010362563337294
 10
-1107.9345167679451
 20
-1842.1683718199088
 10
-1107.9122511166793
 20
-1842.1690291783736
 42
-0.0115689250229379
 10
-1107.8282003791503
 20
-1842.1734586846187
 42
-0.0072438037430686
 10
-1107.7443620997194
 20
-1842.1810478843672
 10
-1107.7275615902383
 20
-1842.1828144270924
 42
-0.0217917313132001
 10
-1107.6109918269212
 20
-1842.2002343198142
 10
-1107.5453917363516
 20
-1842.2129809282292
 42
-0.0332943556747246
 10
-1107.3409995713296
 20
-1842.2670212195349
 10
-1107.3108270027756
 20
-1842.2771892966546
 42
-0.018482408478919
 10
-1107.172321946314
 20
-1842.3296403120398
 42
-0.0198002050701726
 10
-1107.0382476058207
 20
-1842.3925243722363
 10
-1107.0363609684377
 20
-1842.3935021591192
 42
-0.0212242342983559
 10
-1106.9042220260371
 20
-1842.4692648979114
 10
-1106.9024067304922
 20
-1842.4704107001207
 42
-0.0226090605801866
 10
-1106.7739028292719
 20
-1842.5598903436844
 10
-1106.7720583875334
 20
-1842.5613025966727
 42
-0.0238457052235419
 10
-1106.6488763062396
 20
-1842.6652984925356
 10
-1106.6469235776813
 20
-1842.6671133703012
 42
-0.0248160564159231
 10
-1106.5307220703794
 20
-1842.7863879715112
 10
-1106.5286184369784
 20
-1842.7887733052144
 42
-0.0254109591440428
 10
-1106.4210132191101
 20
-1842.9240616911818
 10
-1106.4187651971984
 20
-1842.9272032395793
 42
-0.0255528488287697
 10
-1106.3213185184022
 20
-1843.0792302938116
 10
-1106.3189874184852
 20
-1843.0833119054209
 42
-0.0252146793214665
 10
-1106.2332063924744
 20
-1843.2528141514222
 10
-1106.2309041533185
 20
-1843.2579962333309
 42
-0.0244265635949657
 10
-1106.1582494595575
 20
-1843.4457428053756
 10
-1106.1490030580883
 20
-1843.4736082237164
 42
-0.0231319612896547
 10
-1106.1030802790965
 20
-1843.636909270517
 42
-0.011213042435099
 10
-1106.0684442565571
 20
-1843.8031128707123
 10
-1106.0672417314458
 20
-1843.8096094575931
 42
-0.0210527881226259
 10
-1106.0415552560748
 20
-1843.9906651030365
 10
-1106.0380446612533
 20
-1844.0260706515814
 42
-0.0190029892424385
 10
-1106.0226031877087
 20
-1844.2796064978559
 10
-1106.0217932112646
 20
-1844.3150821122226
 42
-0.0137974553657597
 10
-1106.0233420641007
 20
-1844.640113518969
 10
-1106.0241875190554
 20
-1844.6662322635423
 42
-0.0081336634216275
 10
-1106.0390468542782
 20
-1844.9715797311483
 42
-0.0073526923572479
 10
-1106.0633553876526
 20
-1845.2763279754304
 10
-1106.0646168114356
 20
-1845.2896646500994
 42
-0.0066886138693312
 10
-1106.1003523974823
 20
-1845.6202506935979
 10
-1106.1020094869521
 20
-1845.6338723125882
 42
-0.0061359187350778
 10
-1106.1498600890031
 20
-1845.9906362926902
 10
-1106.1518975900758
 20
-1846.0045310955175
 42
-0.0056698610064196
 10
-1106.2125479208435
 20
-1846.3878096643596
 10
-1106.2149533541658
 20
-1846.4019687835862
 42
-0.0052721077275036
 10
-1106.2890855549656
 20
-1846.8120961232648
 10
-1106.2918487038071
 20
-1846.8265127586501
 42
-0.0049289272179713
 10
-1106.3801428219078
 20
-1847.2638212697748
 10
-1106.3832553165898
 20
-1847.2784901225882
 42
-0.0047415956710181
 10
-1106.486493308124
 20
-1847.743286880007
 10
-1106.5212615184819
 20
-1847.893093975382
 42
-0.0084404470903511
 10
-1106.7112779620554
 20
-1848.6533179999187
 10
-1106.7174046500395
 20
-1848.6761821240666
 42
-0.0039635940259148
 10
-1106.9388583343271
 20
-1849.4771709883264
 10
-1106.9522351295029
 20
-1849.5241026049057
 42
-0.0072475040836619
 10
-1107.2196820173651
 20
-1850.4133223212937
 10
-1107.2898943441912
 20
-1850.6350626712617
 42
-0.0051345458826991
 10
-1107.5766537162522
 20
-1851.5093878590792
 10
-1107.5981799830131
 20
-1851.5728141261895
 42
-0.0019150016602178
 10
-1107.8537133898865
 20
-1852.3163632464352
 10
-1107.860180994285
 20
-1852.3349507113628
 42
-0.0021524362752172
 10
-1108.1086590453465
 20
-1853.0392765330648
 10
-1108.1178694660427
 20
-1853.0650301113658
 42
-0.0024331286821754
 10
-1108.3541247250789
 20
-1853.7156294194842
 10
-1108.3631726776334
 20
-1853.7401727258496
 42
-0.0027449721786326
 10
-1108.5877872484648
 20
-1854.3393026047631
 10
-1108.5966772558604
 20
-1854.3626251946243
 42
-0.0031083229766793
 10
-1108.8102197424671
 20
-1854.912549232195
 10
-1108.8189558741431
 20
-1854.9346389480536
 42
-0.0035311343282895
 10
-1109.0219970597345
 20
-1855.4376220737829
 10
-1109.0305823988811
 20
-1855.4584647972906
 42
-0.0040245640949601
 10
-1109.2236942026766
 20
-1855.9167741198858
 10
-1109.2321303162801
 20
-1855.9363534879587
 42
-0.0046015135850256
 10
-1109.4158866094435
 20
-1856.3522585175999
 10
-1109.424172787267
 20
-1856.3705556570415
 42
-0.0052768638270854
 10
-1109.5991503062273
 20
-1856.7463285413223
 10
-1109.6072825168537
 20
-1856.7633218798644
 42
-0.0060672675643724
 10
-1109.7740621296202
 20
-1857.1012375029798
 10
-1109.7820316100995
 20
-1857.1169027619724
 42
-0.0069904648872467
 10
-1109.9412000041034
 20
-1857.4192385686406
 10
-1109.9489914037142
 20
-1857.4335491178679
 42
-0.0080637022770064
 10
-1110.1011432640598
 20
-1857.7025844210211
 10
-1110.1087322966916
 20
-1857.7155122866229
 42
-0.0093006455663438
 10
-1110.2544729732226
 20
-1857.9535266851249
 10
-1110.2618236399676
 20
-1857.9650446542998
 42
-0.0107060778059622
 10
-1110.4017721834048
 20
-1858.1743149716772
 10
-1110.4088339516854
 20
-1858.1844005142448
 42
-0.012272311141069
 10
-1110.5436276698824
 20
-1858.3671938437319
 10
-1110.5439538934386
 20
-1858.3676142315444
 42
-0.014183631962142
 10
-1110.6875354964106
 20
-1858.5421839893711
 10
-1110.6944832520619
 20
-1858.5501589896351
 42
-0.0175957477209902
 10
-1110.8343894200973
 20
-1858.6997798780408
 42
-0.0080466359675887
 10
-1110.9818531851236
 20
-1858.8421024061881
 10
-1111.027887729645
 20
-1858.8851228442832
 42
-0.0269600260397193
 10
-1111.281167975626
 20
-1859.0974461027909
 10
-1111.3477351119272
 20
-1859.1473975174181
 42
-0.017836283975118
 10
-1111.5876796015807
 20
-1859.3144154436686
 10
-1111.5949245725808
 20
-1859.3190839558733
 42
-0.0174650732650113
 10
-1111.8312607700225
 20
-1859.4599449208326
 42
-0.0169240130162774
 10
-1112.0767270158813
 20
-1859.5842371806107
 10
-1112.1227131714381
 20
-1859.6055991361773
 42
-0.0318883036842224
 10
-1112.4730640270564
 20
-1859.741937445687
 10
-1112.5414295622243
 20
-1859.7636380661634
 42
-0.028443590990029
 10
-1112.9174796885136
 20
-1859.8598555016374
 10
-1112.952637849012
 20
-1859.8667490974658
 42
-0.0243909341016108
 10
-1113.2660813099312
 20
-1859.9124701284961
 10
-1113.3163620367009
 20
-1859.9173156753977
 42
-0.0196639292929972
 10
-1113.5319576142297
 20
-1859.9295639609113
 10
-1113.5837816853948
 20
-1859.9304672216481
 42
-0.0100501510681487
 10
-1113.6962049670574
 20
-1859.9301668232949
 10
-1113.7278648283875
 20
-1859.92944575141
 42
-0.0019752031116135
 10
-1113.7769571650829
 20
-1859.9281335912001
 10
-1113.7797174683133
 20
-1859.9280488993736
 42
0.0065378752028228
 10
-1113.8232940430598
 20
-1859.9272820081587
 42
-0.016797469464785
 10
-1113.8668248659931
 20
-1859.9256221096325
 10
-1113.8709042052537
 20
-1859.9253290987376
 42
-0.008128327630567
 10
-1113.9224640029838
 20
-1859.9207821051007
 10
-1113.9342035768705
 20
-1859.9195541875215
 42
-0.0126703440176781
 10
-1114.0089218726653
 20
-1859.9098193964498
 10
-1114.0317097403408
 20
-1859.9062611405348
 42
-0.0117852088427038
 10
-1114.1512487261764
 20
-1859.8846981453771
 10
-1114.2066291779363
 20
-1859.873354605143
 42
-0.0251774592299188
 10
-1114.4334732169384
 20
-1859.8148565957119
 10
-1114.4781924067922
 20
-1859.8008897763759
 42
-0.0146525199882514
 10
-1114.6645853943337
 20
-1859.7366232491768
 42
-0.0166929435850181
 10
-1114.8465630504677
 20
-1859.6608161161187
 10
-1114.8512196817335
 20
-1859.658691215508
 42
-0.0191684358439447
 10
-1115.036403312979
 20
-1859.56545513172
 10
-1115.0397358987398
 20
-1859.5636138841646
 42
-0.0221181781820557
 10
-1115.2230462026378
 20
-1859.4514803857967
 10
-1115.2253960066505
 20
-1859.4498960878029
 42
-0.0254984685385183
 10
-1115.4016861570342
 20
-1859.3174849378345
 10
-1115.424168304738
 20
-1859.2987326288967
 42
-0.0292492648805796
 10
-1115.5489372435807
 20
-1859.181639829254
 42
-0.015904895750225
 10
-1115.6627772410291
 20
-1859.0536198376569
 10
-1115.6640960316101
 20
-1859.052038224635
 42
-0.0343813379552084
 10
-1115.766733293239
 20
-1858.9101668988615
 10
-1115.7982248245983
 20
-1858.8596635067697
 42
-0.0369117275699296
 10
-1115.8841173264946
 20
-1858.6961862658229
 42
-0.0191751379917279
 10
-1115.9513107120499
 20
-1858.5237816598212
 10
-1115.9530740358109
 20
-1858.5186883151421
 42
-0.0378178042224787
 10
-1116.0028687545955
 20
-1858.3297475390596
 10
-1116.0088640503254
 20
-1858.2971869208643
 42
-0.0184846046470168
 10
-1116.0295812496197
 20
-1858.1554341003189
 42
-0.017986635131619
 10
-1116.0399142546937
 20
-1858.0125432872339
 10
-1116.0399706971393
 20
-1858.0109856006252
 42
-0.0085497186109026
 10
-1116.0414029782432
 20
-1857.9361124356153
 42
-0.0085497186109026
  0
ENDBLK
  5
55
100
AcDbEntity
  8
template
390
0
100
AcDbBlockEnd
  0
BLOCK
  5
56
100
AcDbEntity
  8
notes
390
0
100
AcDbBlockBegin
  2
*D3
 70
               1
 10
0.0
 20
0.0
 30
0.0
  3
*D3
  1

  0
LINE
  5
57
100
AcDbEntity
  8
0
370
              -2
390
0
  6
Continuous
 62
               0
100
AcDbLine
 10
-104.2040527800857
 20
-464.94431612505218
 30
0.0
 11
-29.248917245918847
 21
-464.94431612505218
 31
0.0
  0
LINE
  5
58
100
AcDbEntity
  8
0
370
              -2
390
0
  6
Continuous
 62
               0
100
AcDbLine
 10
-192.79543371206614
 20
-644.93142229295631
 30
0.0
 11
-29.248917245918847
 21
-644.93142229295631
 31
0.0
  0
LINE
  5
59
100
AcDbEntity
  8
0
370
              -2
390
0
  6
Continuous
 62
               0
100
AcDbLine
 10
-29.248917245918847
 20
-464.94431612505218
 30
0.0
 11
-29.248917245918847
 21
-644.93142229295631
 31
0.0
  0
CIRCLE
  5
5A
102
{ACAD_REACTORS
330
5B
102
}
100
AcDbEntity
  8
0
370
              -2
390
0
  6
Continuous
 62
               0
100
AcDbCircle
 10
-29.248917245918847
 20
-464.94431612505218
 30
0.0
 40
1.9998779296875
  0
HATCH
  5
5B
100
AcDbEntity
  8
0
370
              -2
390
0
  6
Continuous
 62
               0
100
AcDbHatch
 10
0.0
 20
0.0
 30
0.0
210
0.0
220
0.0
230
1.0
  2
SOLID
 70
               1
 71
               1
 91
        1
 92
        1
 93
        1
 72
               2
 10
-29.248917245918847
 20
-464.94431612505218
 40
1.9998779296875
 50
0.0
 51
360.0
 73
               0
 97
        1
330
5A
 75
               0
 76
               1
 98
        1
 10
0.0
 20
0.0
  0
CIRCLE
  5
5C
102
{ACAD_REACTORS
330
5D
102
}
100
AcDbEntity
  8
0
370
              -2
390
0
  6
Continuous
 62
               0
100
AcDbCircle
 10
-29.248917245918847
 20
-644.93142229295631
 30
0.0
 40
1.9998779296875
  0
HATCH
  5
5D
100
AcDbEntity
  8
0
370
              -2
390
0
  6
Continuous
 62
               0
100
AcDbHatch
 10
0.0
 20
0.0
 30
0.0
210
0.0
220
0.0
230
1.0
  2
SOLID
 70
               1
 71
               1
 91
        1
 92
        1
 93
        1
 72
               2
 10
-29.248917245918847
 20
-644.93142229295631
 40
1.9998779296875
 50
0.0
 51
360.0
 73
               0
 97
        1
330
5C
 75
               0
 76
               1
 98
        1
 10
0.0
 20
0.0
  0
MTEXT
  5
5E
100
AcDbEntity
  8
0
390
0
 62
               0
100
AcDbMText
 10
-63.12653443341901
 20
-578.75037089117973
 30
0.0
 40
24.432617187500004
 41
0.0
 71
               1
 72
               1
  1
180
  7
ＭＳ ゴシック
 11
0.0
 21
1.0
 31
0.0
 73
               1
 44
0.7828267384257843
  0
POINT
  5
5F
100
AcDbEntity
  8
Defpoints
370
               0
390
0
 62
               0
100
AcDbPoint
 10
-217.79543371206614
 20
-644.93142229295631
 30
0.0
  0
POINT
  5
60
100
AcDbEntity
  8
Defpoints
370
               0
390
0
 62
               0
100
AcDbPoint
 10
-129.2040527800857
 20
-464.94431612505218
 30
0.0
  0
POINT
  5
61
100
AcDbEntity
  8
Defpoints
370
               0
390
0
 62
               0
100
AcDbPoint
 10
-29.248917245918847
 20
-464.94431612505218
 30
0.0
  0
ENDBLK
  5
62
100
AcDbEntity
  8
notes
390
0
100
AcDbBlockEnd
  0
BLOCK
  5
63
100
AcDbEntity
  8
notes
390
0
100
AcDbBlockBegin
  2
*D4
 70
               1
 10
0.0
 20
0.0
 30
0.0
  3
*D4
  1

  0
LINE
  5
64
100
AcDbEntity
  8
0
370
              -2
390
0
  6
Continuous
 62
               0
100
AcDbLine
 10
-634.2040527800857
 20
-669.94431612505173
 30
0.0
 11
-634.2040527800857
 21
-744.94467242326095
 31
0.0
  0
LINE
  5
65
100
AcDbEntity
  8
0
370
              -2
390
0
  6
Continuous
 62
               0
100
AcDbLine
 10
-224.2040527800857
 20
-669.94431612505173
 30
0.0
 11
-224.2040527800857
 21
-744.94467242326095
 31
0.0
  0
LINE
  5
66
100
AcDbEntity
  8
0
370
              -2
390
0
  6
Continuous
 62
               0
100
AcDbLine
 10
-634.2040527800857
 20
-744.94467242326095
 30
0.0
 11
-224.2040527800857
 21
-744.94467242326095
 31
0.0
  0
CIRCLE
  5
67
102
{ACAD_REACTORS
330
68
102
}
100
AcDbEntity
  8
0
370
              -2
390
0
  6
Continuous
 62
               0
100
AcDbCircle
 10
-634.2040527800857
 20
-744.94467242326095
 30
0.0
 40
1.9998779296875
  0
HATCH
  5
68
100
AcDbEntity
  8
0
370
              -2
390
0
  6
Continuous
 62
               0
100
AcDbHatch
 10
0.0
 20
0.0
 30
0.0
210
0.0
220
0.0
230
1.0
  2
SOLID
 70
               1
 71
               1
 91
        1
 92
        1
 93
        1
 72
               2
 10
-634.2040527800857
 20
-744.94467242326095
 40
1.9998779296875
 50
0.0
 51
360.0
 73
               0
 97
        1
330
67
 75
               0
 76
               1
 98
        1
 10
0.0
 20
0.0
  0
CIRCLE
  5
69
102
{ACAD_REACTORS
330
6A
102
}
100
AcDbEntity
  8
0
370
              -2
390
0
  6
Continuous
 62
               0
100
AcDbCircle
 10
-224.2040527800857
 20
-744.94467242326095
 30
0.0
 40
1.9998779296875
  0
HATCH
  5
6A
100
AcDbEntity
  8
0
370
              -2
390
0
  6
Continuous
 62
               0
100
AcDbHatch
 10
0.0
 20
0.0
 30
0.0
210
0.0
220
0.0
230
1.0
  2
SOLID
 70
               1
 71
               1
 91
        1
 92
        1
 93
        1
 72
               2
 10
-224.2040527800857
 20
-744.94467242326095
 40
1.9998779296875
 50
0.0
 51
360.0
 73
               0
 97
        1
330
69
 75
               0
 76
               1
 98
        1
 10
0.0
 20
0.0
  0
MTEXT
  5
6B
100
AcDbEntity
  8
0
390
0
 62
               0
100
AcDbMText
 10
-453.01655446226118
 20
-711.06705523576102
 30
0.0
 40
24.432617187500004
 41
0.0
 71
               1
 72
               1
  1
410
  7
ＭＳ ゴシック
 73
               1
 44
0.7828267384257843
  0
POINT
  5
6C
100
AcDbEntity
  8
Defpoints
370
               0
390
0
 62
               0
100
AcDbPoint
 10
-224.2040527800857
 20
-644.94431612505173
 30
0.0
  0
POINT
  5
6D
100
AcDbEntity
  8
Defpoints
370
               0
390
0
 62
               0
100
AcDbPoint
 10
-634.2040527800857
 20
-644.94431612505173
 30
0.0
  0
POINT
  5
6E
100
AcDbEntity
  8
Defpoints
370
               0
390
0
 62
               0
100
AcDbPoint
 10
-634.2040527800857
 20
-744.94467242326095
 30
0.0
  0
ENDBLK
  5
6F
100
AcDbEntity
  8
notes
390
0
100
AcDbBlockEnd
  0
BLOCK
  5
70
100
AcDbEntity
  8
notes
390
0
100
AcDbBlockBegin
  2
*D5
 70
               1
 10
0.0
 20
0.0
 30
0.0
  3
*D5
  1

  0
LINE
  5
71
100
AcDbEntity
  8
0
370
              -2
390
0
  6
Continuous
 62
               0
100
AcDbLine
 10
510.77724122062023
 20
-464.93689888053837
 30
0.0
 11
501.77724122062023
 21
-464.93689888053837
 31
0.0
  0
LINE
  5
72
100
AcDbEntity
  8
0
370
              -2
390
0
  6
Continuous
 62
               0
100
AcDbLine
 10
510.77724122062023
 20
-619.95952949577213
 30
0.0
 11
501.77724122062023
 21
-619.95952949577213
 31
0.0
  0
LINE
  5
73
100
AcDbEntity
  8
0
370
              -2
390
0
  6
Continuous
 62
               0
100
AcDbLine
 10
501.77724122062023
 20
-464.93689888053837
 30
0.0
 11
501.77724122062023
 21
-296.72293930101864
 31
0.0
  0
LINE
  5
74
100
AcDbEntity
  8
0
370
              -2
390
0
  6
Continuous
 62
               0
100
AcDbLine
 10
501.77724122062023
 20
-464.93689888053837
 30
0.0
 11
501.77724122062023
 21
-619.95952949577213
 31
0.0
  0
CIRCLE
  5
75
102
{ACAD_REACTORS
330
76
102
}
100
AcDbEntity
  8
0
370
              -2
390
0
  6
Continuous
 62
               0
100
AcDbCircle
 10
501.77724122062023
 20
-464.93689888053837
 30
0.0
 40
1.9998779296875
  0
HATCH
  5
76
100
AcDbEntity
  8
0
370
              -2
390
0
  6
Continuous
 62
               0
100
AcDbHatch
 10
0.0
 20
0.0
 30
0.0
210
0.0
220
0.0
230
1.0
  2
SOLID
 70
               1
 71
               1
 91
        1
 92
        1
 93
        1
 72
               2
 10
501.77724122062023
 20
-464.93689888053837
 40
1.9998779296875
 50
0.0
 51
360.0
 73
               0
 97
        1
330
75
 75
               0
 76
               1
 98
        1
 10
0.0
 20
0.0
  0
CIRCLE
  5
77
102
{ACAD_REACTORS
330
78
102
}
100
AcDbEntity
  8
0
370
              -2
390
0
  6
Continuous
 62
               0
100
AcDbCircle
 10
501.77724122062023
 20
-619.95952949577213
 30
0.0
 40
1.9998779296875
  0
HATCH
  5
78
100
AcDbEntity
  8
0
370
              -2
390
0
  6
Continuous
 62
               0
100
AcDbHatch
 10
0.0
 20
0.0
 30
0.0
210
0.0
220
0.0
230
1.0
  2
SOLID
 70
               1
 71
               1
 91
        1
 92
        1
 93
        1
 72
               2
 10
501.77724122062023
 20
-619.95952949577213
 40
1.9998779296875
 50
0.0
 51
360.0
 73
               0
 97
        1
330
77
 75
               0
 76
               1
 98
        1
 10
0.0
 20
0.0
  0
MTEXT
  5
79
100
AcDbEntity
  8
0
390
0
 62
               0
100
AcDbMText
 10
467.89962403312029
 20
-439.59793930101864
 30
0.0
 40
24.432617187500004
 41
0.0
 71
               1
 72
               1
  1
155(深さ)
  7
ＭＳ ゴシック
 11
0.0
 21
1.0
 31
0.0
 73
               1
 44
0.7828267384257843
  0
POINT
  5
7A
100
AcDbEntity
  8
Defpoints
370
               0
390
0
 62
               0
100
AcDbPoint
 10
485.77724122062023
 20
-619.95952949577213
 30
0.0
  0
POINT
  5
7B
100
AcDbEntity
  8
Defpoints
370
               0
390
0
 62
               0
100
AcDbPoint
 10
485.77724122062023
 20
-464.93689888053837
 30
0.0
  0
POINT
  5
7C
100
AcDbEntity
  8
Defpoints
370
               0
390
0
 62
               0
100
AcDbPoint
 10
501.77724122062023
 20
-464.93689888053837
 30
0.0
  0
ENDBLK
  5
7D
100
AcDbEntity
  8
notes
390
0
100
AcDbBlockEnd
  0
BLOCK
  5
7E
100
AcDbEntity
  8
notes
390
0
100
AcDbBlockBegin
  2
*D6
 70
               1
 10
0.0
 20
0.0
 30
0.0
  3
*D6
  1

  0
LINE
  5
7F
100
AcDbEntity
  8
0
370
              -2
390
0
  6
Continuous
 62
               0
100
AcDbLine
 10
-728.18873138470758
 20
574.86222403192619
 30
0.0
 11
-728.18873138470758
 21
852.40206069898159
 31
0.0
  0
LINE
  5
80
100
AcDbEntity
  8
0
370
              -2
390
0
  6
Continuous
 62
               0
100
AcDbLine
 10
-128.18873138470758
 20
574.86222403192619
 30
0.0
 11
-128.18873138470758
 21
852.40206069898159
 31
0.0
  0
LINE
  5
81
100
AcDbEntity
  8
0
370
              -2
390
0
  6
Continuous
 62
               0
100
AcDbLine
 10
-728.18873138470758
 20
852.40206069898159
 30
0.0
 11
-128.18873138470758
 21
852.40206069898159
 31
0.0
  0
CIRCLE
  5
82
102
{ACAD_REACTORS
330
83
102
}
100
AcDbEntity
  8
0
370
              -2
390
0
  6
Continuous
 62
               0
100
AcDbCircle
 10
-728.18873138470758
 20
852.40206069898159
 30
0.0
 40
1.9998779296875
  0
HATCH
  5
83
100
AcDbEntity
  8
0
370
              -2
390
0
  6
Continuous
 62
               0
100
AcDbHatch
 10
0.0
 20
0.0
 30
0.0
210
0.0
220
0.0
230
1.0
  2
SOLID
 70
               1
 71
               1
 91
        1
 92
        1
 93
        1
 72
               2
 10
-728.18873138470758
 20
852.40206069898159
 40
1.9998779296875
 50
0.0
 51
360.0
 73
               0
 97
        1
330
82
 75
               0
 76
               1
 98
        1
 10
0.0
 20
0.0
  0
CIRCLE
  5
84
102
{ACAD_REACTORS
330
85
102
}
100
AcDbEntity
  8
0
370
              -2
390
0
  6
Continuous
 62
               0
100
AcDbCircle
 10
-128.18873138470758
 20
852.40206069898159
 30
0.0
 40
1.9998779296875
  0
HATCH
  5
85
100
AcDbEntity
  8
0
370
              -2
390
0
  6
Continuous
 62
               0
100
AcDbHatch
 10
0.0
 20
0.0
 30
0.0
210
0.0
220
0.0
230
1.0
  2
SOLID
 70
               1
 71
               1
 91
        1
 92
        1
 93
        1
 72
               2
 10
-128.18873138470758
 20
852.40206069898159
 40
1.9998779296875
 50
0.0
 51
360.0
 73
               0
 97
        1
330
84
 75
               0
 76
               1
 98
        1
 10
0.0
 20
0.0
  0
MTEXT
  5
86
100
AcDbEntity
  8
0
390
0
 62
               0
100
AcDbMText
 10
-452.00123306688306
 20
886.27967788648152
 30
0.0
 40
24.432617187500004
 41
0.0
 71
               1
 72
               1
  1
600
  7
ＭＳ ゴシック
 73
               1
 44
0.7828267384257843
  0
POINT
  5
87
100
AcDbEntity
  8
Defpoints
370
               0
390
0
 62
               0
100
AcDbPoint
 10
-128.18873138470758
 20
549.86222403192619
 30
0.0
  0
POINT
  5
88
100
AcDbEntity
  8
Defpoints
370
               0
390
0
 62
               0
100
AcDbPoint
 10
-728.18873138470758
 20
549.86222403192619
 30
0.0
  0
POINT
  5
89
100
AcDbEntity
  8
Defpoints
370
               0
390
0
 62
               0
100
AcDbPoint
 10
-728.18873138470758
 20
852.40206069898159
 30
0.0
  0
ENDBLK
  5
8A
100
AcDbEntity
  8
notes
390
0
100
AcDbBlockEnd
  0
BLOCK
  5
8B
100
AcDbEntity
  8
notes
390
0
100
AcDbBlockBegin
  2
*D7
 70
               1
 10
0.0
 20
0.0
 30
0.0
  3
*D7
  1

  0
LINE
  5
8C
100
AcDbEntity
  8
0
370
              -2
390
0
  6
Continuous
 62
               0
100
AcDbLine
 10
350.7495684911255
 20
-669.96952746126703
 30
0.0
 11
350.7495684911255
 21
-744.94467242326095
 31
0.0
  0
LINE
  5
8D
100
AcDbEntity
  8
0
370
              -2
390
0
  6
Continuous
 62
               0
100
AcDbLine
 10
620.7495684911255
 20
-669.96952746126703
 30
0.0
 11
620.7495684911255
 21
-744.94467242326095
 31
0.0
  0
LINE
  5
8E
100
AcDbEntity
  8
0
370
              -2
390
0
  6
Continuous
 62
               0
100
AcDbLine
 10
350.7495684911255
 20
-744.94467242326095
 30
0.0
 11
620.7495684911255
 21
-744.94467242326095
 31
0.0
  0
CIRCLE
  5
8F
102
{ACAD_REACTORS
330
90
102
}
100
AcDbEntity
  8
0
370
              -2
390
0
  6
Continuous
 62
               0
100
AcDbCircle
 10
350.7495684911255
 20
-744.94467242326095
 30
0.0
 40
1.9998779296875
  0
HATCH
  5
90
100
AcDbEntity
  8
0
370
              -2
390
0
  6
Continuous
 62
               0
100
AcDbHatch
 10
0.0
 20
0.0
 30
0.0
210
0.0
220
0.0
230
1.0
  2
SOLID
 70
               1
 71
               1
 91
        1
 92
        1
 93
        1
 72
               2
 10
350.7495684911255
 20
-744.94467242326095
 40
1.9998779296875
 50
0.0
 51
360.0
 73
               0
 97
        1
330
8F
 75
               0
 76
               1
 98
        1
 10
0.0
 20
0.0
  0
CIRCLE
  5
91
102
{ACAD_REACTORS
330
92
102
}
100
AcDbEntity
  8
0
370
              -2
390
0
  6
Continuous
 62
               0
100
AcDbCircle
 10
620.7495684911255
 20
-744.94467242326095
 30
0.0
 40
1.9998779296875
  0
HATCH
  5
92
100
AcDbEntity
  8
0
370
              -2
390
0
  6
Continuous
 62
               0
100
AcDbHatch
 10
0.0
 20
0.0
 30
0.0
210
0.0
220
0.0
230
1.0
  2
SOLID
 70
               1
 71
               1
 91
        1
 92
        1
 93
        1
 72
               2
 10
620.7495684911255
 20
-744.94467242326095
 40
1.9998779296875
 50
0.0
 51
360.0
 73
               0
 97
        1
330
91
 75
               0
 76
               1
 98
        1
 10
0.0
 20
0.0
  0
MTEXT
  5
93
100
AcDbEntity
  8
0
390
0
 62
               0
100
AcDbMText
 10
461.93706680895002
 20
-711.06705523576102
 30
0.0
 40
24.432617187500004
 41
0.0
 71
               1
 72
               1
  1
270
  7
ＭＳ ゴシック
 73
               1
 44
0.7828267384257843
  0
POINT
  5
94
100
AcDbEntity
  8
Defpoints
370
               0
390
0
 62
               0
100
AcDbPoint
 10
620.7495684911255
 20
-644.96952746126703
 30
0.0
  0
POINT
  5
95
100
AcDbEntity
  8
Defpoints
370
               0
390
0
 62
               0
100
AcDbPoint
 10
350.7495684911255
 20
-644.96952746126703
 30
0.0
  0
POINT
  5
96
100
AcDbEntity
  8
Defpoints
370
               0
390
0
 62
               0
100
AcDbPoint
 10
350.7495684911255
 20
-744.94467242326095
 30
0.0
  0
ENDBLK
  5
97
100
AcDbEntity
  8
notes
390
0
100
AcDbBlockEnd
  0
BLOCK
  5
98
100
AcDbEntity
  8
notes
390
0
100
AcDbBlockBegin
  2
*D8
 70
               1
 10
0.0
 20
0.0
 30
0.0
  3
*D8
  1

  0
LINE
  5
99
100
AcDbEntity
  8
0
370
              -2
390
0
  6
Continuous
 62
               0
100
AcDbLine
 10
524.80579555587315
 20
573.32995227454262
 30
0.0
 11
568.11595780135508
 21
608.01193636907919
 31
0.0
  0
CIRCLE
  5
9A
102
{ACAD_REACTORS
330
9B
102
}
100
AcDbEntity
  8
0
370
              -2
390
0
  6
Continuous
 62
               0
100
AcDbCircle
 10
524.80579555587315
 20
573.32995227454262
 30
0.0
 40
1.9998779296875
  0
HATCH
  5
9B
100
AcDbEntity
  8
0
370
              -2
390
0
  6
Continuous
 62
               0
100
AcDbHatch
 10
0.0
 20
0.0
 30
0.0
210
0.0
220
0.0
230
1.0
  2
SOLID
 70
               1
 71
               1
 91
        1
 92
        1
 93
        1
 72
               2
 10
524.80579555587315
 20
573.32995227454262
 40
1.9998779296875
 50
0.0
 51
360.0
 73
               0
 97
        1
330
9A
 75
               0
 76
               1
 98
        1
 10
0.0
 20
0.0
  0
LINE
  5
9C
100
AcDbEntity
  8
0
370
              -2
390
0
  6
Continuous
 62
               0
100
AcDbLine
 10
568.11595780135508
 20
608.01193636907919
 30
0.0
 11
707.49095780135508
 21
608.01193636907919
 31
0.0
  0
MTEXT
  5
9D
100
AcDbEntity
  8
0
390
0
 62
               0
100
AcDbMText
 10
628.11595780135508
 20
641.88955355657913
 30
0.0
 40
24.432617187500004
 41
0.0
 71
               1
 72
               1
  1
φ100
  7
ＭＳ ゴシック
 73
               1
 44
0.7828267384257843
  0
POINT
  5
9E
100
AcDbEntity
  8
Defpoints
370
               0
390
0
 62
               0
100
AcDbPoint
 10
446.74868687877574
 20
510.82325035409417
 30
0.0
  0
POINT
  5
9F
100
AcDbEntity
  8
Defpoints
370
               0
390
0
 62
               0
100
AcDbPoint
 10
524.80579555587315
 20
573.32995227454262
 30
0.0
  0
ENDBLK
  5
A0
100
AcDbEntity
  8
notes
390
0
100
AcDbBlockEnd
  0
BLOCK
  5
A1
100
AcDbEntity
  8
notes
390
0
100
AcDbBlockBegin
  2
*D9
 70
               1
 10
0.0
 20
0.0
 30
0.0
  3
*D9
  1

  0
LINE
  5
A2
100
AcDbEntity
  8
0
370
              -2
390
0
  6
Continuous
 62
               0
100
AcDbLine
 10
-688.18873138470758
 20
413.34355674884119
 30
0.0
 11
-688.18873138470758
 21
232.12472403192533
 31
0.0
  0
LINE
  5
A3
100
AcDbEntity
  8
0
370
              -2
390
0
  6
Continuous
 62
               0
100
AcDbLine
 10
-168.18873138470758
 20
413.34355674884119
 30
0.0
 11
-168.18873138470758
 21
232.12472403192533
 31
0.0
  0
LINE
  5
A4
100
AcDbEntity
  8
0
370
              -2
390
0
  6
Continuous
 62
               0
100
AcDbLine
 10
-688.18873138470758
 20
232.12472403192533
 30
0.0
 11
-168.18873138470758
 21
232.12472403192533
 31
0.0
  0
CIRCLE
  5
A5
102
{ACAD_REACTORS
330
A6
102
}
100
AcDbEntity
  8
0
370
              -2
390
0
  6
Continuous
 62
               0
100
AcDbCircle
 10
-688.18873138470758
 20
232.12472403192533
 30
0.0
 40
1.9998779296875
  0
HATCH
  5
A6
100
AcDbEntity
  8
0
370
              -2
390
0
  6
Continuous
 62
               0
100
AcDbHatch
 10
0.0
 20
0.0
 30
0.0
210
0.0
220
0.0
230
1.0
  2
SOLID
 70
               1
 71
               1
 91
        1
 92
        1
 93
        1
 72
               2
 10
-688.18873138470758
 20
232.12472403192533
 40
1.9998779296875
 50
0.0
 51
360.0
 73
               0
 97
        1
330
A5
 75
               0
 76
               1
 98
        1
 10
0.0
 20
0.0
  0
CIRCLE
  5
A7
102
{ACAD_REACTORS
330
A8
102
}
100
AcDbEntity
  8
0
370
              -2
390
0
  6
Continuous
 62
               0
100
AcDbCircle
 10
-168.18873138470758
 20
232.12472403192533
 30
0.0
 40
1.9998779296875
  0
HATCH
  5
A8
100
AcDbEntity
  8
0
370
              -2
390
0
  6
Continuous
 62
               0
100
AcDbHatch
 10
0.0
 20
0.0
 30
0.0
210
0.0
220
0.0
230
1.0
  2
SOLID
 70
               1
 71
               1
 91
        1
 92
        1
 93
        1
 72
               2
 10
-168.18873138470758
 20
232.12472403192533
 40
1.9998779296875
 50
0.0
 51
360.0
 73
               0
 97
        1
330
A7
 75
               0
 76
               1
 98
        1
 10
0.0
 20
0.0
  0
MTEXT
  5
A9
100
AcDbEntity
  8
0
390
0
 62
               0
100
AcDbMText
 10
-452.00123306688306
 20
266.00234121942532
 30
0.0
 40
24.432617187500004
 41
0.0
 71
               1
 72
               1
  1
520
  7
ＭＳ ゴシック
 73
               1
 44
0.7828267384257843
  0
POINT
  5
AA
100
AcDbEntity
  8
Defpoints
370
               0
390
0
 62
               0
100
AcDbPoint
 10
-168.18873138470758
 20
438.34355674884119
 30
0.0
  0
POINT
  5
AB
100
AcDbEntity
  8
Defpoints
370
               0
390
0
 62
               0
100
AcDbPoint
 10
-688.18873138470758
 20
438.34355674884119
 30
0.0
  0
POINT
  5
AC
100
AcDbEntity
  8
Defpoints
370
               0
390
0
 62
               0
100
AcDbPoint
 10
-688.18873138470758
 20
232.12472403192533
 30
0.0
  0
ENDBLK
  5
AD
100
AcDbEntity
  8
notes
390
0
100
AcDbBlockEnd
  0
BLOCK
  5
AE
100
AcDbEntity
  8
notes
390
0
100
AcDbBlockBegin
  2
*D10
 70
               1
 10
0.0
 20
0.0
 30
0.0
  3
*D10
  1

  0
LINE
  5
AF
100
AcDbEntity
  8
0
370
              -2
390
0
  6
Continuous
 62
               0
100
AcDbLine
 10
-352.31075622869889
 20
752.12472403192612
 30
0.0
 11
-28.18873138470758
 21
752.12472403192612
 31
0.0
  0
LINE
  5
B0
100
AcDbEntity
  8
0
370
              -2
390
0
  6
Continuous
 62
               0
100
AcDbLine
 10
-352.31075622869889
 20
332.12472403192612
 30
0.0
 11
-28.18873138470758
 21
332.12472403192612
 31
0.0
  0
LINE
  5
B1
100
AcDbEntity
  8
0
370
              -2
390
0
  6
Continuous
 62
               0
100
AcDbLine
 10
-28.18873138470758
 20
752.12472403192612
 30
0.0
 11
-28.18873138470758
 21
332.12472403192612
 31
0.0
  0
CIRCLE
  5
B2
102
{ACAD_REACTORS
330
B3
102
}
100
AcDbEntity
  8
0
370
              -2
390
0
  6
Continuous
 62
               0
100
AcDbCircle
 10
-28.18873138470758
 20
752.12472403192612
 30
0.0
 40
1.9998779296875
  0
HATCH
  5
B3
100
AcDbEntity
  8
0
370
              -2
390
0
  6
Continuous
 62
               0
100
AcDbHatch
 10
0.0
 20
0.0
 30
0.0
210
0.0
220
0.0
230
1.0
  2
SOLID
 70
               1
 71
               1
 91
        1
 92
        1
 93
        1
 72
               2
 10
-28.18873138470758
 20
752.12472403192612
 40
1.9998779296875
 50
0.0
 51
360.0
 73
               0
 97
        1
330
B2
 75
               0
 76
               1
 98
        1
 10
0.0
 20
0.0
  0
CIRCLE
  5
B4
102
{ACAD_REACTORS
330
B5
102
}
100
AcDbEntity
  8
0
370
              -2
390
0
  6
Continuous
 62
               0
100
AcDbCircle
 10
-28.18873138470758
 20
332.12472403192612
 30
0.0
 40
1.9998779296875
  0
HATCH
  5
B5
100
AcDbEntity
  8
0
370
              -2
390
0
  6
Continuous
 62
               0
100
AcDbHatch
 10
0.0
 20
0.0
 30
0.0
210
0.0
220
0.0
230
1.0
  2
SOLID
 70
               1
 71
               1
 91
        1
 92
        1
 93
        1
 72
               2
 10
-28.18873138470758
 20
332.12472403192612
 40
1.9998779296875
 50
0.0
 51
360.0
 73
               0
 97
        1
330
B4
 75
               0
 76
               1
 98
        1
 10
0.0
 20
0.0
  0
MTEXT
  5
B6
100
AcDbEntity
  8
0
390
0
 62
               0
100
AcDbMText
 10
-62.066348572207744
 20
518.31222234975064
 30
0.0
 40
24.432617187500004
 41
0.0
 71
               1
 72
               1
  1
420
  7
ＭＳ ゴシック
 11
0.0
 21
1.0
 31
0.0
 73
               1
 44
0.7828267384257843
  0
POINT
  5
B7
100
AcDbEntity
  8
Defpoints
370
               0
390
0
 62
               0
100
AcDbPoint
 10
-377.31075622869889
 20
332.12472403192612
 30
0.0
  0
POINT
  5
B8
100
AcDbEntity
  8
Defpoints
370
               0
390
0
 62
               0
100
AcDbPoint
 10
-377.31075622869889
 20
752.12472403192612
 30
0.0
  0
POINT
  5
B9
100
AcDbEntity
  8
Defpoints
370
               0
390
0
 62
               0
100
AcDbPoint
 10
-28.18873138470758
 20
752.12472403192612
 30
0.0
  0
ENDBLK
  5
BA
100
AcDbEntity
  8
notes
390
0
100
AcDbBlockEnd
  0
BLOCK
  5
BB
100
AcDbEntity
  8
notes
390
0
100
AcDbBlockBegin
  2
*D11
 70
               1
 10
0.0
 20
0.0
 30
0.0
  3
*D11
  1

  0
LINE
  5
BC
100
AcDbEntity
  8
0
370
              -2
390
0
  6
Continuous
 62
               0
100
AcDbLine
 10
-631.18873138470758
 20
712.12472403192612
 30
0.0
 11
-827.78689763250009
 21
712.12472403192612
 31
0.0
  0
LINE
  5
BD
100
AcDbEntity
  8
0
370
              -2
390
0
  6
Continuous
 62
               0
100
AcDbLine
 10
-631.18873138470758
 20
372.12472403192612
 30
0.0
 11
-827.78689763250009
 21
372.12472403192612
 31
0.0
  0
LINE
  5
BE
100
AcDbEntity
  8
0
370
              -2
390
0
  6
Continuous
 62
               0
100
AcDbLine
 10
-827.78689763250009
 20
712.12472403192612
 30
0.0
 11
-827.78689763250009
 21
372.12472403192612
 31
0.0
  0
CIRCLE
  5
BF
102
{ACAD_REACTORS
330
C0
102
}
100
AcDbEntity
  8
0
370
              -2
390
0
  6
Continuous
 62
               0
100
AcDbCircle
 10
-827.78689763250009
 20
712.12472403192612
 30
0.0
 40
1.9998779296875
  0
HATCH
  5
C0
100
AcDbEntity
  8
0
370
              -2
390
0
  6
Continuous
 62
               0
100
AcDbHatch
 10
0.0
 20
0.0
 30
0.0
210
0.0
220
0.0
230
1.0
  2
SOLID
 70
               1
 71
               1
 91
        1
 92
        1
 93
        1
 72
               2
 10
-827.78689763250009
 20
712.12472403192612
 40
1.9998779296875
 50
0.0
 51
360.0
 73
               0
 97
        1
330
BF
 75
               0
 76
               1
 98
        1
 10
0.0
 20
0.0
  0
CIRCLE
  5
C1
102
{ACAD_REACTORS
330
C2
102
}
100
AcDbEntity
  8
0
370
              -2
390
0
  6
Continuous
 62
               0
100
AcDbCircle
 10
-827.78689763250009
 20
372.12472403192612
 30
0.0
 40
1.9998779296875
  0
HATCH
  5
C2
100
AcDbEntity
  8
0
370
              -2
390
0
  6
Continuous
 62
               0
100
AcDbHatch
 10
0.0
 20
0.0
 30
0.0
210
0.0
220
0.0
230
1.0
  2
SOLID
 70
               1
 71
               1
 91
        1
 92
        1
 93
        1
 72
               2
 10
-827.78689763250009
 20
372.12472403192612
 40
1.9998779296875
 50
0.0
 51
360.0
 73
               0
 97
        1
330
C1
 75
               0
 76
               1
 98
        1
 10
0.0
 20
0.0
  0
MTEXT
  5
C3
100
AcDbEntity
  8
0
390
0
 62
               0
100
AcDbMText
 10
-861.66451482000025
 20
518.31222234975064
 30
0.0
 40
24.432617187500004
 41
0.0
 71
               1
 72
               1
  1
340
  7
ＭＳ ゴシック
 11
0.0
 21
1.0
 31
0.0
 73
               1
 44
0.7828267384257843
  0
POINT
  5
C4
100
AcDbEntity
  8
Defpoints
370
               0
390
0
 62
               0
100
AcDbPoint
 10
-606.18873138470758
 20
372.12472403192612
 30
0.0
  0
POINT
  5
C5
100
AcDbEntity
  8
Defpoints
370
               0
390
0
 62
               0
100
AcDbPoint
 10
-606.18873138470758
 20
712.12472403192612
 30
0.0
  0
POINT
  5
C6
100
AcDbEntity
  8
Defpoints
370
               0
390
0
 62
               0
100
AcDbPoint
 10
-827.78689763250009
 20
712.12472403192612
 30
0.0
  0
ENDBLK
  5
C7
100
AcDbEntity
  8
notes
390
0
100
AcDbBlockEnd
  0
ENDSEC
  0
SECTION
  2
ENTITIES
  0
MTEXT
  5
C8
100
AcDbEntity
  8
template
390
0
 62
               7
100
AcDbMText
 10
-967.99999999975921
 20
-1147.4176292337004
 30
0.0
 40
16.288411458333332
 41
0.0
 71
               1
 72
               1
  1
品名
  7
ＭＳ ゴシック
 73
               1
 44
0.7828267384257843
  0
MTEXT
  5
C9
100
AcDbEntity
  8
template
390
0
 62
               7
100
AcDbMText
 10
-967.99999999975921
 20
-1232.4176292337004
 30
0.0
 40
16.288411458333332
 41
0.0
 71
               1
 72
               1
  1
仕様
  7
ＭＳ ゴシック
 73
               1
 44
0.7828267384257843
  0
MTEXT
  5
CA
100
AcDbEntity
  8
template
390
0
 62
               7
100
AcDbMText
 10
-914.99999999975921
 20
-1176.0000901712006
 30
0.0
 40
24.432617187500004
 41
0.0
 71
               1
 72
               1
  1
洗面器 -CATALANO,Zero-
  7
ＭＳ ゴシック
 73
               1
 44
0.7828267384257843
  0
LINE
  5
CB
100
AcDbEntity
  8
template
370
               5
390
0
  6
Continuous
 62
               7
100
AcDbLine
 10
974.99999999975876
 20
-1224.0027073587005
 30
0.0
 11
-975.00000000024124
 21
-1224.0027073587005
 31
0.0
  0
LWPOLYLINE
  5
CC
100
AcDbEntity
  8
template
370
               5
390
0
  6
Continuous
 62
               7
100
AcDbPolyline
 90
        5
 70
             128
 10
975.00000000024124
 20
1405.9972926412995
 10
-974.99999999975921
 20
1405.9972926412995
 10
-974.99999999975921
 20
-1394.0027073587005
 10
975.00000000024124
 20
-1394.0027073587005
 10
975.00000000024124
 20
1405.9972926412995
  0
LINE
  5
CD
100
AcDbEntity
  8
template
370
               5
390
0
  6
Continuous
 62
               7
100
AcDbLine
 10
974.99999999975876
 20
-1139.0027073587005
 30
0.0
 11
-975.00000000024124
 21
-1139.0027073587005
 31
0.0
  0
LINE
  5
CE
100
AcDbEntity
  8
template
370
               5
390
0
  6
Continuous
 62
               7
100
AcDbLine
 10
975.00000000024124
 20
-1309.0027073587005
 30
0.0
 11
222.00000000024124
 21
-1309.0027073587005
 31
0.0
  0
MTEXT
  5
CF
100
AcDbEntity
  8
template
390
0
 62
               7
100
AcDbMText
 10
-974.99999999955594
 20
-1405.8565294155574
 30
0.0
 40
21.717881944444446
 41
0.0
 71
               1
 72
               1
  1
100707SH
  7
ＭＳ ゴシック
 73
               1
 44
0.7828267384257843
  0
MTEXT
  5
D0
100
AcDbEntity
  8
template
390
0
 62
               7
100
AcDbMText
 10
251.87140625250095
 20
-1338.9131018320081
 30
0.0
 40
24.432617187500004
 41
0.0
 71
               1
 72
               1
  1
大洋金物株式会社 ティーフォルム事業部
  7
ＭＳ ゴシック
 73
               1
 44
0.7828267384257843
  0
INSERT
  5
D1
100
AcDbEntity
  8
template
390
0
 62
               7
100
AcDbBlockReference
  2
グループ
 10
2017.108908415981
 20
496.84675240676893
 30
0.0
  0
MTEXT
  5
D2
100
AcDbEntity
  8
template
390
0
 62
               7
100
AcDbMText
 10
784.00000000049999
 20
-1261.0000901712006
 30
0.0
 40
24.432617187500004
 41
0.0
 71
               1
 72
               1
  1
1:10
  7
ＭＳ ゴシック
 73
               1
 44
0.7828267384257843
  0
MTEXT
  5
D3
100
AcDbEntity
  8
template
390
0
 62
               7
100
AcDbMText
 10
731.00000000049999
 20
-1232.4176292337004
 30
0.0
 40
16.288411458333332
 41
0.0
 71
               1
 72
               1
  1
縮尺
  7
ＭＳ ゴシック
 73
               1
 44
0.7828267384257843
  0
LINE
  5
D4
100
AcDbEntity
  8
template
370
               5
390
0
  6
Continuous
 62
               7
100
AcDbLine
 10
724.00000000049999
 20
-1309.0027073587005
 30
0.0
 11
724.00000000049999
 21
-1224.0027073587005
 31
0.0
  0
MTEXT
  5
D5
100
AcDbEntity
  8
template
390
0
 62
               7
100
AcDbMText
 10
480.00000000049999
 20
-1232.4176292337004
 30
0.0
 40
16.288411458333332
 41
0.0
 71
               1
 72
               1
  1
容量
  7
ＭＳ ゴシック
 73
               1
 44
0.7828267384257843
  0
MTEXT
  5
D6
100
AcDbEntity
  8
template
390
0
 62
               7
100
AcDbMText
 10
533.00000000049999
 20
-1261.0000901712006
 30
0.0
 40
24.432617187500004
 41
0.0
 71
               1
 72
               1
  1
15.5L
  7
ＭＳ ゴシック
 73
               1
 44
0.7828267384257843
  0
LINE
  5
D7
100
AcDbEntity
  8
template
370
               5
390
0
  6
Continuous
 62
               7
100
AcDbLine
 10
473.00000000049999
 20
-1309.0027073587005
 30
0.0
 11
473.00000000049999
 21
-1224.0027073587005
 31
0.0
  0
MTEXT
  5
D8
100
AcDbEntity
  8
template
390
0
 62
               7
100
AcDbMText
 10
229.00000000049999
 20
-1147.4176292337004
 30
0.0
 40
16.288411458333332
 41
0.0
 71
               1
 72
               1
  1
品番
  7
ＭＳ ゴシック
 73
               1
 44
0.7828267384257843
  0
MTEXT
  5
D9
100
AcDbEntity
  8
template
390
0
 62
               7
100
AcDbMText
 10
229.00000000049999
 20
-1232.4176292337004
 30
0.0
 40
16.288411458333332
 41
0.0
 71
               1
 72
               1
  1
重量
  7
ＭＳ ゴシック
 73
               1
 44
0.7828267384257843
  0
MTEXT
  5
DA
100
AcDbEntity
  8
template
390
0
 62
               7
100
AcDbMText
 10
282.00000000049999
 20
-1176.0000901712006
 30
0.0
 40
24.432617187500004
 41
0.0
 71
               1
 72
               1
  1
ADF70-0107
  7
ＭＳ ゴシック
 73
               1
 44
0.7828267384257843
  0
MTEXT
  5
DB
100
AcDbEntity
  8
template
390
0
 62
               7
100
AcDbMText
 10
282.00000000049999
 20
-1261.0000901712006
 30
0.0
 40
24.432617187500004
 41
0.0
 71
               1
 72
               1
  1
11.5kg
  7
ＭＳ ゴシック
 73
               1
 44
0.7828267384257843
  0
LINE
  5
DC
100
AcDbEntity
  8
template
370
               5
390
0
  6
Continuous
 62
               7
100
AcDbLine
 10
222.00000000049999
 20
-1394.0027073587005
 30
0.0
 11
222.00000000049999
 21
-1139.0027073587005
 31
0.0
  0
MTEXT
  5
DD
100
AcDbEntity
  8
notes
390
0
 62
               7
100
AcDbMText
 10
336.93020672390003
 20
973.75470860502924
 30
0.0
 40
24.432617187500004
 41
0.0
 71
               1
 72
               1
  1
カウンター切込寸法
  7
ＭＳ ゴシック
 73
               1
 44
0.7828267384257843
  0
DIMENSION
  5
DE
100
AcDbEntity
  8
notes
370
               5
390
0
  6
Continuous
 62
               7
100
AcDbDimension
  2
*D3
 10
-29.248917245918847
 20
-464.94431612505218
 30
0.0
 11
-29.248917245918847
 21
-554.93786920900425
 31
0.0
 71
               5
 72
               1
 41
1.0
 42
0.0
  3
tfrom線あり
100
AcDbAlignedDimension
 13
-217.79543371206614
 23
-644.93142229295631
 33
0.0
 14
-129.2040527800857
 24
-464.94431612505218
 34
0.0
 50
90.0
100
AcDbRotatedDimension
1001
ACAD
1000
DSTYLE
1002
{
1070
             279
1070
               2
1070
             340
1005
2D
1070
             147
1040
5.0
1002
}
  0
DIMENSION
  5
DF
100
AcDbEntity
  8
notes
370
               5
390
0
  6
Continuous
 62
               7
100
AcDbDimension
  2
*D4
 10
-634.2040527800857
 20
-744.94467242326095
 30
0.0
 11
-429.2040527800857
 21
-744.94467242326095
 31
0.0
 71
               5
 72
               1
 41
1.0
 42
0.0
  3
tfrom線あり
100
AcDbAlignedDimension
 13
-224.2040527800857
 23
-644.94431612505173
 33
0.0
 14
-634.2040527800857
 24
-644.94431612505173
 34
0.0
100
AcDbRotatedDimension
1001
ACAD
1000
DSTYLE
1002
{
1070
             279
1070
               2
1070
             340
1005
2D
1070
             147
1040
5.0
1002
}
  0
DIMENSION
  5
E0
100
AcDbEntity
  8
notes
370
               5
390
0
  6
Continuous
 62
               7
100
AcDbDimension
  2
*D5
 10
501.77724122062023
 20
-464.93689888053837
 30
0.0
 11
506.77724122062023
 21
-439.59793930101864
 31
0.0
 70
             128
 71
               5
 72
               1
 41
1.0
 42
0.0
  3
tfrom線あり
100
AcDbAlignedDimension
 13
485.77724122062023
 23
-619.95952949577213
 33
0.0
 14
485.77724122062023
 24
-464.93689888053837
 34
0.0
 50
90.0
100
AcDbRotatedDimension
1001
ACAD
1000
DSTYLE
1002
{
1070
             279
1070
               2
1070
             340
1005
2D
1070
               3
1000
<>(深さ)
1070
             174
1070
               0
1070
             147
1040
5.0
1002
}
  0
DIMENSION
  5
E1
100
AcDbEntity
  8
notes
370
               5
390
0
  6
Continuous
 62
               7
100
AcDbDimension
  2
*D6
 10
-728.18873138470758
 20
852.40206069898159
 30
0.0
 11
-428.18873138470758
 21
857.40206069898159
 31
0.0
 70
             128
 71
               5
 72
               1
 41
1.0
 42
0.0
  3
tfrom線あり
100
AcDbAlignedDimension
 13
-128.18873138470758
 23
549.86222403192619
 33
0.0
 14
-728.18873138470758
 24
549.86222403192619
 34
0.0
100
AcDbRotatedDimension
1001
ACAD
1000
DSTYLE
1002
{
1070
             279
1070
               2
1070
             340
1005
2D
1070
             147
1040
5.0
1002
}
  0
DIMENSION
  5
E2
100
AcDbEntity
  8
notes
370
               5
390
0
  6
Continuous
 62
               7
100
AcDbDimension
  2
*D7
 10
350.7495684911255
 20
-744.94467242326095
 30
0.0
 11
485.7495684911255
 21
-744.94467242326095
 31
0.0
 71
               5
 72
               1
 41
1.0
 42
0.0
  3
tfrom線あり
100
AcDbAlignedDimension
 13
620.7495684911255
 23
-644.96952746126703
 33
0.0
 14
350.7495684911255
 24
-644.96952746126703
 34
0.0
100
AcDbRotatedDimension
1001
ACAD
1000
DSTYLE
1002
{
1070
             279
1070
               2
1070
             340
1005
2D
1070
             147
1040
5.0
1002
}
  0
DIMENSION
  5
E3
100
AcDbEntity
  8
notes
370
               5
390
0
  6
Continuous
 62
               7
100
AcDbDimension
  2
*D8
 10
446.74868687877574
 20
510.82325035409417
 30
0.0
 11
628.11595780135508
 21
608.01193636907919
 31
0.0
 70
               3
 71
               5
 72
               1
 41
1.0
 42
0.0
  3
tfrom線あり
100
AcDbDiametricDimension
 15
524.80579555587315
 25
573.32995227454262
 35
0.0
 40
55.485224830252392
1001
ACAD
1000
DSTYLE
1002
{
1070
             289
1070
               0
1070
             342
1005
40
1070
             340
1005
2D
1070
              73
1070
               1
1070
              74
1070
               1
1070
               3
1000

1070
             174
1070
               0
1070
             147
1040
5.0
1002
}
  0
DIMENSION
  5
E4
100
AcDbEntity
  8
notes
370
               5
390
0
  6
Continuous
 62
               7
100
AcDbDimension
  2
*D9
 10
-688.18873138470758
 20
232.12472403192533
 30
0.0
 11
-428.18873138470758
 21
237.12472403192533
 31
0.0
 70
             128
 71
               5
 72
               1
 41
1.0
 42
0.0
  3
tfrom線あり
100
AcDbAlignedDimension
 13
-168.18873138470758
 23
438.34355674884119
 33
0.0
 14
-688.18873138470758
 24
438.34355674884119
 34
0.0
100
AcDbRotatedDimension
1001
ACAD
1000
DSTYLE
1002
{
1070
             279
1070
               2
1070
             340
1005
2D
1070
             147
1040
5.0
1002
}
  0
DIMENSION
  5
E5
100
AcDbEntity
  8
notes
370
               5
390
0
  6
Continuous
 62
               7
100
AcDbDimension
  2
*D10
 10
-28.18873138470758
 20
752.12472403192612
 30
0.0
 11
-28.18873138470758
 21
542.12472403192612
 31
0.0
 71
               5
 72
               1
 41
1.0
 42
0.0
  3
tfrom線あり
100
AcDbAlignedDimension
 13
-377.31075622869889
 23
332.12472403192612
 33
0.0
 14
-377.31075622869889
 24
752.12472403192612
 34
0.0
 50
90.0
100
AcDbRotatedDimension
1001
ACAD
1000
DSTYLE
1002
{
1070
             279
1070
               2
1070
             340
1005
2D
1070
             147
1040
5.0
1002
}
  0
DIMENSION
  5
E6
100
AcDbEntity
  8
notes
370
               5
390
0
  6
Continuous
 62
               7
100
AcDbDimension
  2
*D11
 10
-827.78689763250009
 20
712.12472403192612
 30
0.0
 11
-827.78689763250009
 21
542.12472403192612
 31
0.0
 71
               5
 72
               1
 41
1.0
 42
0.0
  3
tfrom線あり
100
AcDbAlignedDimension
 13
-606.18873138470758
 23
372.12472403192612
 33
0.0
 14
-606.18873138470758
 24
712.12472403192612
 34
0.0
 50
90.0
100
AcDbRotatedDimension
1001
ACAD
1000
DSTYLE
1002
{
1070
             279
1070
               2
1070
             340
1005
2D
1070
             147
1040
5.0
1002
}
  0
MTEXT
  5
E7
100
AcDbEntity
  8
notes
390
0
 62
               7
100
AcDbMText
 10
-914.99999999975921
 20
-1261.0000901712006
 30
0.0
 40
24.432617187500004
 41
0.0
 71
               1
 72
               1
  1
カウンター置き/オーバーフローなし/\P陶器/ホワイト
  7
ＭＳ ゴシック
 73
               1
 44
1.3047112307096407
  0
LINE
  5
E8
100
AcDbEntity
  8
ADF70-0107
370
              15
390
0
  6
Continuous
 62
               7
100
AcDbLine
 10
691.54604429844039
 20
-464.93689888053837
 30
0.0
 11
485.77724122062023
 21
-464.93689888053837
 31
0.0
  0
LINE
  5
E9
100
AcDbEntity
  8
ADF70-0107
370
              15
390
0
  6
STYLE_14
 62
               7
100
AcDbLine
 10
509.47432190909171
 20
-639.95153918001711
 30
0.0
 11
460.0
 21
-639.95153918001711
 31
0.0
  0
LINE
  5
EA
100
AcDbEntity
  8
ADF70-0107
370
              15
390
0
  6
Continuous
 62
               7
100
AcDbLine
 10
350.57410079779106
 20
-644.96952746126749
 30
0.0
 11
619.26126404776301
 21
-644.96952746126749
 31
0.0
  0
LINE
  5
EB
100
AcDbEntity
  8
ADF70-0107
370
              15
390
0
  6
STYLE_14
 62
               7
100
AcDbLine
 10
444.0
 20
-619.95952949577213
 30
0.0
 11
525.57985047354464
 21
-619.95952949577213
 31
0.0
  0
LINE
  5
EC
100
AcDbEntity
  8
ADF70-0107
370
              15
390
0
  6
Continuous
 62
               7
100
AcDbLine
 10
278.36551045616488
 20
-464.93689888053893
 30
0.0
 11
485.77724122062023
 21
-464.93689888053837
 31
0.0
  0
LINE
  5
ED
100
AcDbEntity
  8
ADF70-0107
370
              15
390
0
  6
STYLE_14
 62
               7
100
AcDbLine
 10
509.47432190909171
 20
-629.44205146842819
 30
0.0
 11
460.37448185574863
 21
-629.44205146842819
 31
0.0
  0
SPLINE
  5
EE
100
AcDbEntity
  8
ADF70-0107
370
              15
390
0
  6
Continuous
 62
               7
100
AcDbSpline
210
0.0
220
0.0
230
1.0
 70
               9
 71
               2
 72
              33
 73
              30
 74
               0
 42
0.000001
 43
0.000001
 40
0.0
 40
0.0
 40
0.0
 40
1.0
 40
1.0
 40
2.0
 40
3.0
 40
4.0
 40
5.0
 40
6.0
 40
7.0
 40
8.0
 40
8.0
 40
9.0
 40
9.0
 40
10.0
 40
11.0
 40
11.0
 40
12.0
 40
12.0
 40
13.0
 40
14.0
 40
15.0
 40
16.0
 40
17.0
 40
18.0
 40
19.0
 40
19.0
 40
20.0
 40
20.0
 40
21.0
 40
21.0
 40
21.0
 10
-224.10405278008579
 20
-644.94431612505173
 30
0.0
 10
-217.29652348572859
 20
-641.49431612505191
 30
0.0
 10
-210.48899419137092
 20
-638.04431612505186
 30
0.0
 10
-176.35308875016449
 20
-601.19059848617394
 30
0.0
 10
-149.26237850027678
 20
-547.64018131698026
 30
0.0
 10
-136.36429837183528
 20
-511.37719746362814
 30
0.0
 10
-129.24891724591885
 20
-473.1370448235707
 30
0.0
 10
-129.35074874570341
 20
-470.95197198090887
 30
0.0
 10
-129.22645420221011
 20
-468.41019537564989
 30
0.0
 10
-130.99945002824347
 20
-465.23772680362276
 30
0.0
 10
-133.9712541851361
 20
-464.93689888053837
 30
0.0
 10
-134.0796996045176
 20
-464.93689888053837
 30
0.0
 10
-134.18814502389864
 20
-464.93689888053837
 30
0.0
 10
-136.96496642346733
 20
-464.93689888053882
 30
0.0
 10
-721.48656665552221
 20
-464.93689888053814
 30
0.0
 10
-724.27061251947066
 20
-464.93689888053837
 30
0.0
 10
-724.37986208920779
 20
-464.93689888053837
 30
0.0
 10
-724.48911165894447
 20
-464.93689888053837
 30
0.0
 10
-727.49979194959701
 20
-465.27801846571265
 30
0.0
 10
-729.22645420221011
 20
-467.87325002877242
 30
0.0
 10
-729.06837715609458
 20
-470.95197198090841
 30
0.0
 10
-728.43523250538624
 20
-474.18058193134152
 30
0.0
 10
-722.09823647016242
 20
-511.37719746362814
 30
0.0
 10
-709.19683802722443
 20
-547.64018131698003
 30
0.0
 10
-682.05595535800944
 20
-601.21633441035829
 30
0.0
 10
-647.90405278008552
 20
-638.04431612505186
 30
0.0
 10
-641.07235378607697
 20
-641.49705441884248
 30
0.0
 10
-634.24065479206888
 20
-644.94979271263333
 30
0.0
 10
-429.17235378607734
 20
-644.94705441884253
 30
0.0
 10
-224.10405278008579
 20
-644.94431612505173
 30
0.0
  0
ARC
  5
EF
100
AcDbEntity
  8
ADF70-0107
370
              15
390
0
  6
STYLE_01
 62
               7
100
AcDbCircle
 10
-456.27491970432106
 20
-434.89751312932594
 30
0.0
 40
235.23965921787695
100
AcDbArc
 50
188.31608072889526
 51
219.29480238800383
  0
ARC
  5
F0
100
AcDbEntity
  8
ADF70-0107
370
              15
390
0
  6
STYLE_01
 62
               7
100
AcDbCircle
 10
-693.98851532455069
 20
-469.64431612505246
 30
0.0
 40
5.0000000000004974
100
AcDbArc
 50
8.3160807288959582
 51
90.0
  0
LINE
  5
F1
100
AcDbEntity
  8
ADF70-0107
370
              15
390
0
  6
STYLE_01
 62
               7
100
AcDbLine
 10
-562.17481231128636
 20
-619.95952949577236
 30
0.0
 11
-430.82039337882065
 21
-619.95952949577236
 31
0.0
  0
ARC
  5
F2
100
AcDbEntity
  8
ADF70-0107
370
              15
390
0
  6
STYLE_01
 62
               7
100
AcDbCircle
 10
-164.46301775443931
 20
-469.64431612505246
 30
0.0
 40
5.0000000000002274
100
AcDbArc
 50
90.0
 51
171.68391927110406
  0
SPLINE
  5
F3
100
AcDbEntity
  8
ADF70-0107
370
              15
390
0
  6
Continuous
 62
               7
100
AcDbSpline
210
0.0
220
0.0
230
1.0
 70
               9
 71
               2
 72
              31
 73
              28
 74
               0
 42
0.000001
 43
0.000001
 40
0.0
 40
0.0
 40
0.0
 40
1.0
 40
1.0
 40
2.0
 40
3.0
 40
4.0
 40
5.0
 40
6.0
 40
7.0
 40
8.0
 40
9.0
 40
10.0
 40
11.0
 40
12.0
 40
13.0
 40
14.0
 40
15.0
 40
16.0
 40
17.0
 40
18.0
 40
19.0
 40
20.0
 40
21.0
 40
22.0
 40
23.0
 40
23.0
 40
24.0
 40
24.0
 40
24.0
 10
-728.23496943484884
 20
542.0766013143184
 30
0.0
 10
-728.23496943484884
 20
538.72399191290538
 30
0.0
 10
-728.23496943484884
 20
535.37138251149236
 30
0.0
 10
-724.28229033817911
 20
486.19730239039529
 30
0.0
 10
-672.70249340600526
 20
416.97326099391046
 30
0.0
 10
-608.31556877650087
 20
372.07788559280982
 30
0.0
 10
-529.50685357966518
 20
343.31086762152461
 30
0.0
 10
-448.54427695651407
 20
332.07660130718875
 30
0.0
 10
-390.08860537344094
 20
334.77847658305325
 30
0.0
 10
-328.78911222208376
 20
343.26384187123676
 30
0.0
 10
-249.98133197871289
 20
372.14976237806229
 30
0.0
 10
-185.59198860367519
 20
417.11164509932826
 30
0.0
 10
-144.33692523543073
 20
472.11091306071523
 30
0.0
 10
-128.23496943484884
 20
528.59815869632428
 30
0.0
 10
-132.10753890193541
 20
569.38243233520575
 30
0.0
 10
-144.31361943343495
 20
612.19449469420192
 30
0.0
 10
-185.74903967369733
 20
667.17930680382995
 30
0.0
 10
-250.13596430320172
 20
712.07537060435698
 30
0.0
 10
-328.94467950003695
 20
740.84233517325583
 30
0.0
 10
-409.90725612318852
 20
752.07660130718955
 30
0.0
 10
-468.36292770626119
 20
749.37472604190441
 30
0.0
 10
-529.66242085761883
 20
740.88955886481415
 30
0.0
 10
-608.47020110099015
 20
712.00262258181738
 30
0.0
 10
-672.85954447602739
 20
667.04491425686319
 30
0.0
 10
-724.07506043971784
 20
597.48317409010554
 30
0.0
 10
-728.23496943484884
 20
548.78182011714443
 30
0.0
 10
-728.23496943484884
 20
545.42921071573141
 30
0.0
 10
-728.23496943484884
 20
542.0766013143184
 30
0.0
  0
SPLINE
  5
F4
100
AcDbEntity
  8
ADF70-0107
370
              15
390
0
  6
Continuous
 62
               7
100
AcDbSpline
210
0.0
220
0.0
230
1.0
 70
               9
 71
               2
 72
              28
 73
              25
 74
               0
 42
0.000001
 43
0.000001
 40
0.0
 40
0.0
 40
0.0
 40
1.0
 40
1.0
 40
2.0
 40
3.0
 40
4.0
 40
5.0
 40
6.0
 40
7.0
 40
8.0
 40
9.0
 40
10.0
 40
11.0
 40
12.0
 40
13.0
 40
14.0
 40
15.0
 40
16.0
 40
17.0
 40
18.0
 40
19.0
 40
20.0
 40
20.0
 40
21.0
 40
21.0
 40
21.0
 10
-686.253358671672
 20
542.07305605038334
 30
0.0
 10
-686.253358671672
 20
541.11187207786077
 30
0.0
 10
-686.253358671672
 20
540.15068810533819
 30
0.0
 10
-685.33596954118661
 20
507.30985175249543
 30
0.0
 10
-655.77562413763258
 20
461.3801620789269
 30
0.0
 10
-618.49398029062445
 20
425.41251545838543
 30
0.0
 10
-542.71668224963355
 20
386.18586053750801
 30
0.0
 10
-462.18883886886738
 20
373.10025728994071
 30
0.0
 10
-407.16342516252939
 20
372.31170594041441
 30
0.0
 10
-325.45573324505381
 20
383.13952763910754
 30
0.0
 10
-236.01180468298912
 20
426.08436846001973
 30
0.0
 10
-195.66798366864691
 20
470.4824616773609
 30
0.0
 10
-160.253358671672
 20
535.84805054058654
 30
0.0
 10
-194.27656236915914
 20
617.56610505112349
 30
0.0
 10
-243.13611446593791
 20
659.30906919759627
 30
0.0
 10
-305.7816139713093
 20
694.55251441916698
 30
0.0
 10
-385.38225700700173
 20
709.9404151004037
 30
0.0
 10
-440.30205166636347
 20
712.31170594041532
 30
0.0
 10
-494.69001776557548
 20
706.77486289240051
 30
0.0
 10
-572.25317254478273
 20
686.80251564547461
 30
0.0
 10
-648.80330602522622
 20
635.30282982777135
 30
0.0
 10
-686.195205626507
 20
573.6518630850469
 30
0.0
 10
-686.253358671672
 20
542.45525940485845
 30
0.0
 10
-686.253358671672
 20
542.26415772762084
 30
0.0
 10
-686.253358671672
 20
542.07305605038334
 30
0.0
  0
CIRCLE
  5
F5
100
AcDbEntity
  8
ADF70-0107
370
              15
390
0
  6
Continuous
 62
               7
100
AcDbCircle
 10
-429.22576653985129
 20
542.0766013143184
 30
0.0
 40
23.0
  0
CIRCLE
  5
F6
100
AcDbEntity
  8
ADF70-0107
370
              15
390
0
  6
Continuous
 62
               7
100
AcDbCircle
 10
-429.22576653985129
 20
542.0766013143184
 30
0.0
 40
38.871196376349872
  0
SPLINE
  5
F7
100
AcDbEntity
  8
ADF70-0107
370
               5
390
0
  6
STYLE_01
 62
               7
100
AcDbSpline
210
0.0
220
0.0
230
1.0
 70
               9
 71
               2
 72
              31
 73
              28
 74
               0
 42
0.000001
 43
0.000001
 40
0.0
 40
0.0
 40
0.0
 40
1.0
 40
1.0
 40
2.0
 40
3.0
 40
4.0
 40
5.0
 40
6.0
 40
7.0
 40
8.0
 40
9.0
 40
10.0
 40
11.0
 40
12.0
 40
13.0
 40
14.0
 40
15.0
 40
16.0
 40
17.0
 40
18.0
 40
19.0
 40
20.0
 40
21.0
 40
22.0
 40
23.0
 40
23.0
 40
24.0
 40
24.0
 40
24.0
 10
186.7680383223269
 20
542.0766013143184
 30
0.0
 10
186.7680383223269
 20
538.72399191290538
 30
0.0
 10
186.7680383223269
 20
535.37138251149236
 30
0.0
 10
190.72071741899663
 20
486.19730239039529
 30
0.0
 10
242.30051435117025
 20
416.97326099391046
 30
0.0
 10
306.68743898067464
 20
372.07788559280982
 30
0.0
 10
385.49615417751056
 20
343.31086762152461
 30
0.0
 10
466.45873080066167
 20
332.07660130718875
 30
0.0
 10
524.9144023837348
 20
334.77847658305325
 30
0.0
 10
586.21389553509198
 20
343.26384187123676
 30
0.0
 10
665.02167577846285
 20
372.14976237806229
 30
0.0
 10
729.41101915350055
 20
417.11164509932826
 30
0.0
 10
770.66608252174501
 20
472.11091306071523
 30
0.0
 10
786.7680383223269
 20
528.59815869632428
 30
0.0
 10
782.89546885524032
 20
569.38243233520575
 30
0.0
 10
770.68938832374079
 20
612.19449469420192
 30
0.0
 10
729.25396808347841
 20
667.17930680382995
 30
0.0
 10
664.86704345397402
 20
712.07537060435698
 30
0.0
 10
586.05832825713878
 20
740.84233517325583
 30
0.0
 10
505.09575163398722
 20
752.07660130718955
 30
0.0
 10
446.64008005091455
 20
749.37472604190441
 30
0.0
 10
385.34058689955691
 20
740.88955886481415
 30
0.0
 10
306.53280665618581
 20
712.00262258181738
 30
0.0
 10
242.14346328114834
 20
667.04491425686319
 30
0.0
 10
190.92794731745767
 20
597.48317409010554
 30
0.0
 10
186.7680383223269
 20
548.78182011714443
 30
0.0
 10
186.7680383223269
 20
545.42921071573141
 30
0.0
 10
186.7680383223269
 20
542.0766013143184
 30
0.0
  0
CIRCLE
  5
F8
100
AcDbEntity
  8
ADF70-0107
370
               5
390
0
  6
STYLE_01
 62
               7
100
AcDbCircle
 10
485.77724121732444
 20
542.0766013143184
 30
0.0
 40
23.0
  0
CIRCLE
  5
F9
100
AcDbEntity
  8
ADF70-0107
370
              15
390
0
  6
Continuous
 62
               7
100
AcDbCircle
 10
485.77724121732444
 20
542.0766013143184
 30
0.0
 40
50.0
  0
LINE
  5
FA
100
AcDbEntity
  8
ADF70-0107
370
              15
390
0
  6
Continuous
 62
               7
100
AcDbLine
 10
350.48673191678358
 20
-644.96952746126749
 30
0.0
 11
350.58753971707642
 21
-644.96952746126749
 31
0.0
  0
SPLINE
  5
FB
100
AcDbEntity
  8
ADF70-0107
370
              15
390
0
  6
Continuous
 62
               7
100
AcDbSpline
210
0.0
220
0.0
230
1.0
 70
               8
 71
               2
 72
               6
 73
               3
 74
               0
 42
0.000001
 43
0.000001
 40
0.0
 40
0.0
 40
0.0
 40
1.0
 40
1.0
 40
1.0
 10
348.25556319526663
 20
-643.80485694938557
 30
0.0
 10
349.11774981885515
 20
-644.85594023648059
 30
0.0
 10
350.48673191678358
 20
-644.96952746126749
 30
0.0
  0
LINE
  5
FC
100
AcDbEntity
  8
ADF70-0107
370
              15
390
0
  6
Continuous
 62
               7
100
AcDbLine
 10
348.20153548530584
 20
-643.72117988639752
 30
0.0
 11
348.25556319526663
 21
-643.80485694938557
 31
0.0
  0
LINE
  5
FD
100
AcDbEntity
  8
ADF70-0107
370
              15
390
0
  6
Continuous
 62
               7
100
AcDbLine
 10
344.21929793647746
 20
-638.17115043693479
 30
0.0
 11
348.20153548530584
 21
-643.72117988639752
 31
0.0
  0
SPLINE
  5
FE
100
AcDbEntity
  8
ADF70-0107
370
              15
390
0
  6
STYLE_14
 62
               7
100
AcDbSpline
210
0.0
220
0.0
230
1.0
 70
               8
 71
               2
 72
              19
 73
              16
 74
               0
 42
0.000001
 43
0.000001
 40
0.0
 40
0.0
 40
0.0
 40
1.0
 40
2.0
 40
2.0
 40
3.0
 40
3.0
 40
4.0
 40
5.0
 40
6.0
 40
7.0
 40
8.0
 40
9.0
 40
10.0
 40
11.0
 40
12.0
 40
12.0
 40
12.0
 10
444.26895329129525
 20
-619.95952949577236
 30
0.0
 10
443.84331505695741
 20
-619.95952949577281
 30
0.0
 10
441.6562060999911
 20
-619.95952949577236
 30
0.0
 10
441.28029850613871
 20
-619.95952949577236
 30
0.0
 10
439.48124165189074
 20
-619.95952949577236
 30
0.0
 10
437.68218479764278
 20
-619.95952949577236
 30
0.0
 10
412.54370591063457
 20
-618.04664351496308
 30
0.0
 10
381.60032027524426
 20
-601.42715856106611
 30
0.0
 10
366.37975445602547
 20
-586.59064751747269
 30
0.0
 10
357.97186206133506
 20
-575.57942818430888
 30
0.0
 10
336.06431583035669
 20
-540.08923406841018
 30
0.0
 10
323.80449420398077
 20
-501.12410395359404
 30
0.0
 10
319.91260237905885
 20
-485.79764712033659
 30
0.0
 10
316.82266609508383
 20
-468.62394439919728
 30
0.0
 10
315.15386240869861
 20
-464.97948227469567
 30
0.0
 10
312.23972538602152
 20
-464.93689888053871
 30
0.0
  0
SPLINE
  5
FF
100
AcDbEntity
  8
ADF70-0107
370
              15
390
0
  6
STYLE_14
 62
               7
100
AcDbSpline
210
0.0
220
0.0
230
1.0
 70
               8
 71
               2
 72
               9
 73
               6
 74
               0
 42
0.000001
 43
0.000001
 40
0.0
 40
0.0
 40
0.0
 40
1.0
 40
2.0
 40
3.0
 40
4.0
 40
4.0
 40
4.0
 10
460.37448185574817
 20
-629.44205146842864
 30
0.0
 10
459.6598440896289
 20
-629.02129108837676
 30
0.0
 10
455.91347225124014
 20
-626.8155234767712
 30
0.0
 10
448.61966095887806
 20
-622.52111453716748
 30
0.0
 10
444.98359105741497
 20
-620.38028987582516
 30
0.0
 10
444.26895329129525
 20
-619.95952949577236
 30
0.0
  0
SPLINE
  5
100
100
AcDbEntity
  8
ADF70-0107
370
              15
390
0
  6
STYLE_14
 62
               7
100
AcDbSpline
210
0.0
220
0.0
230
1.0
 70
               8
 71
               2
 72
               8
 73
               5
 74
               0
 42
0.000001
 43
0.000001
 40
0.0
 40
0.0
 40
0.0
 40
1.0
 40
2.0
 40
3.0
 40
3.0
 40
3.0
 10
460.37448185574817
 20
-639.95153918001756
 30
0.0
 10
460.37448185574863
 20
-638.43184171598682
 30
0.0
 10
460.37448185574772
 20
-632.28105849550025
 30
0.0
 10
460.37448185574863
 20
-629.90838057965425
 30
0.0
 10
460.37448185574817
 20
-629.44205146842864
 30
0.0
  0
LINE
  5
101
100
AcDbEntity
  8
ADF70-0107
370
              15
390
0
  6
Continuous
 62
               7
100
AcDbLine
 10
619.36207184805676
 20
-644.96952746126749
 30
0.0
 11
619.26126404776392
 21
-644.96952746126749
 31
0.0
  0
SPLINE
  5
102
100
AcDbEntity
  8
ADF70-0107
370
              15
390
0
  6
Continuous
 62
               7
100
AcDbSpline
210
0.0
220
0.0
230
1.0
 70
               8
 71
               2
 72
               6
 73
               3
 74
               0
 42
0.000001
 43
0.000001
 40
0.0
 40
0.0
 40
0.0
 40
1.0
 40
1.0
 40
1.0
 10
621.59324056957371
 20
-643.80485694938557
 30
0.0
 10
620.7310539459852
 20
-644.85594023648059
 30
0.0
 10
619.36207184805676
 20
-644.96952746126749
 30
0.0
  0
LINE
  5
103
100
AcDbEntity
  8
ADF70-0107
370
              15
390
0
  6
Continuous
 62
               7
100
AcDbLine
 10
621.6472682795345
 20
-643.72117988639752
 30
0.0
 11
621.59324056957371
 21
-643.80485694938557
 31
0.0
  0
LINE
  5
104
100
AcDbEntity
  8
ADF70-0107
370
              15
390
0
  6
Continuous
 62
               7
100
AcDbLine
 10
625.62950582836288
 20
-638.17115043693479
 30
0.0
 11
621.6472682795345
 21
-643.72117988639752
 31
0.0
  0
SPLINE
  5
105
100
AcDbEntity
  8
ADF70-0107
370
              15
390
0
  6
Continuous
 62
               7
100
AcDbSpline
210
0.0
220
0.0
230
1.0
 70
               8
 71
               2
 72
              10
 73
               7
 74
               0
 42
0.000001
 43
0.000001
 40
0.0
 40
0.0
 40
0.0
 40
1.0
 40
1.0
 40
2.0
 40
3.0
 40
4.0
 40
4.0
 40
4.0
 10
695.01384381468029
 20
-469.24061268923413
 30
0.0
 10
693.58711988253549
 20
-476.39852381492597
 30
0.0
 10
692.16039595039092
 20
-483.55643494061781
 30
0.0
 10
689.44261882132309
 20
-497.1915935799376
 30
0.0
 10
682.30443355257989
 20
-522.47674866983459
 30
0.0
 10
659.85834733842171
 20
-587.0666859284886
 30
0.0
 10
625.62950582836288
 20
-638.17115043693479
 30
0.0
  0
SPLINE
  5
106
100
AcDbEntity
  8
ADF70-0107
370
              15
390
0
  6
STYLE_14
 62
               7
100
AcDbSpline
210
0.0
220
0.0
230
1.0
 70
               8
 71
               2
 72
              19
 73
              16
 74
               0
 42
0.000001
 43
0.000001
 40
0.0
 40
0.0
 40
0.0
 40
1.0
 40
2.0
 40
2.0
 40
3.0
 40
3.0
 40
4.0
 40
5.0
 40
6.0
 40
7.0
 40
8.0
 40
9.0
 40
10.0
 40
11.0
 40
12.0
 40
12.0
 40
12.0
 10
525.57985047354509
 20
-619.95952949577236
 30
0.0
 10
526.00548870788293
 20
-619.95952949577281
 30
0.0
 10
528.19259766484925
 20
-619.95952949577236
 30
0.0
 10
528.56850525870163
 20
-619.95952949577236
 30
0.0
 10
530.3675621129496
 20
-619.95952949577236
 30
0.0
 10
532.16661896719756
 20
-619.95952949577236
 30
0.0
 10
557.30509785420577
 20
-618.04664351496308
 30
0.0
 10
588.24848348959608
 20
-601.42715856106611
 30
0.0
 10
603.46904930881487
 20
-586.59064751747269
 30
0.0
 10
611.87694170350528
 20
-575.57942818430888
 30
0.0
 10
633.78448793448365
 20
-540.08923406841018
 30
0.0
 10
646.04430956085957
 20
-501.12410395359404
 30
0.0
 10
649.93620138578149
 20
-485.79764712033659
 30
0.0
 10
653.02613766975651
 20
-468.62394439919728
 30
0.0
 10
654.69494135614173
 20
-464.97948227469567
 30
0.0
 10
657.60907837881882
 20
-464.93689888053871
 30
0.0
  0
SPLINE
  5
107
100
AcDbEntity
  8
ADF70-0107
370
              15
390
0
  6
STYLE_14
 62
               7
100
AcDbSpline
210
0.0
220
0.0
230
1.0
 70
               8
 71
               2
 72
               9
 73
               6
 74
               0
 42
0.000001
 43
0.000001
 40
0.0
 40
0.0
 40
0.0
 40
1.0
 40
2.0
 40
3.0
 40
4.0
 40
4.0
 40
4.0
 10
509.47432190909217
 20
-629.44205146842864
 30
0.0
 10
510.18895967521144
 20
-629.02129108837676
 30
0.0
 10
513.9353315136002
 20
-626.8155234767712
 30
0.0
 10
521.22914280596228
 20
-622.52111453716748
 30
0.0
 10
524.86521270742537
 20
-620.38028987582516
 30
0.0
 10
525.57985047354509
 20
-619.95952949577236
 30
0.0
  0
SPLINE
  5
108
100
AcDbEntity
  8
ADF70-0107
370
              15
390
0
  6
STYLE_14
 62
               7
100
AcDbSpline
210
0.0
220
0.0
230
1.0
 70
               8
 71
               2
 72
               8
 73
               5
 74
               0
 42
0.000001
 43
0.000001
 40
0.0
 40
0.0
 40
0.0
 40
1.0
 40
2.0
 40
3.0
 40
3.0
 40
3.0
 10
509.47432190909217
 20
-639.95153918001756
 30
0.0
 10
509.47432190909171
 20
-638.43184171598682
 30
0.0
 10
509.47432190909262
 20
-632.28105849550025
 30
0.0
 10
509.47432190909171
 20
-629.90838057965425
 30
0.0
 10
509.47432190909217
 20
-629.44205146842864
 30
0.0
  0
ARC
  5
109
100
AcDbEntity
  8
ADF70-0107
370
              15
390
0
  6
Continuous
 62
               7
100
AcDbCircle
 10
691.48329330867523
 20
-468.53689888053896
 30
0.0
 40
3.6000000000001142
100
AcDbArc
 50
348.72746509069412
 51
89.999999999996419
  0
SPLINE
  5
10A
100
AcDbEntity
  8
ADF70-0107
370
              15
390
0
  6
Continuous
 62
               7
100
AcDbSpline
210
0.0
220
0.0
230
1.0
 70
               8
 71
               2
 72
              10
 73
               7
 74
               0
 42
0.000001
 43
0.000001
 40
0.0
 40
0.0
 40
0.0
 40
1.0
 40
1.0
 40
2.0
 40
3.0
 40
4.0
 40
4.0
 40
4.0
 10
274.83495995016006
 20
-469.24061268923413
 30
0.0
 10
276.26168388230485
 20
-476.39852381492597
 30
0.0
 10
277.68840781444942
 20
-483.55643494061781
 30
0.0
 10
280.40618494351725
 20
-497.1915935799376
 30
0.0
 10
287.54437021226045
 20
-522.47674866983459
 30
0.0
 10
309.99045642641863
 20
-587.0666859284886
 30
0.0
 10
344.21929793647746
 20
-638.17115043693479
 30
0.0
  0
ARC
  5
10B
100
AcDbEntity
  8
ADF70-0107
370
              15
390
0
  6
Continuous
 62
               7
100
AcDbCircle
 10
278.36551045616511
 20
-468.53689888053896
 30
0.0
 40
3.6000000000000227
100
AcDbArc
 50
90.000000000003624
 51
191.27253490930582
  0
LINE
  5
10C
100
AcDbEntity
  8
ADF70-0107
370
              15
390
0
  6
STYLE_14
 62
               7
100
AcDbLine
 10
-404.67584651317952
 20
-639.95153918001711
 30
0.0
 11
-454.15016842227146
 21
-639.95153918001711
 31
0.0
  0
LINE
  5
10D
100
AcDbEntity
  8
ADF70-0107
370
              15
390
0
  6
STYLE_14
 62
               7
100
AcDbLine
 10
-404.67584651317952
 20
-629.44205146842819
 30
0.0
 11
-453.77568656652261
 21
-629.44205146842819
 31
0.0
  0
SPLINE
  5
10E
100
AcDbEntity
  8
ADF70-0107
370
              15
390
0
  6
STYLE_14
 62
               7
100
AcDbSpline
210
0.0
220
0.0
230
1.0
 70
               8
 71
               2
 72
               9
 73
               6
 74
               0
 42
0.000001
 43
0.000001
 40
0.0
 40
0.0
 40
0.0
 40
1.0
 40
2.0
 40
3.0
 40
4.0
 40
4.0
 40
4.0
 10
-453.77568656652306
 20
-629.44205146842864
 30
0.0
 10
-454.49032433264233
 20
-629.02129108837676
 30
0.0
 10
-458.2366961710311
 20
-626.8155234767712
 30
0.0
 10
-465.53050746339318
 20
-622.52111453716748
 30
0.0
 10
-469.16657736485627
 20
-620.38028987582516
 30
0.0
 10
-469.88121513097599
 20
-619.95952949577236
 30
0.0
  0
SPLINE
  5
10F
100
AcDbEntity
  8
ADF70-0107
370
              15
390
0
  6
STYLE_14
 62
               7
100
AcDbSpline
210
0.0
220
0.0
230
1.0
 70
               8
 71
               2
 72
               8
 73
               5
 74
               0
 42
0.000001
 43
0.000001
 40
0.0
 40
0.0
 40
0.0
 40
1.0
 40
2.0
 40
3.0
 40
3.0
 40
3.0
 10
-453.77568656652306
 20
-639.95153918001756
 30
0.0
 10
-453.77568656652261
 20
-638.43184171598682
 30
0.0
 10
-453.77568656652352
 20
-632.28105849550025
 30
0.0
 10
-453.77568656652261
 20
-629.90838057965425
 30
0.0
 10
-453.77568656652306
 20
-629.44205146842864
 30
0.0
  0
SPLINE
  5
110
100
AcDbEntity
  8
ADF70-0107
370
              15
390
0
  6
STYLE_14
 62
               7
100
AcDbSpline
210
0.0
220
0.0
230
1.0
 70
               8
 71
               2
 72
               9
 73
               6
 74
               0
 42
0.000001
 43
0.000001
 40
0.0
 40
0.0
 40
0.0
 40
1.0
 40
2.0
 40
3.0
 40
4.0
 40
4.0
 40
4.0
 10
-404.67584651317907
 20
-629.44205146842864
 30
0.0
 10
-403.9612087470598
 20
-629.02129108837676
 30
0.0
 10
-400.21483690867103
 20
-626.8155234767712
 30
0.0
 10
-392.92102561630895
 20
-622.52111453716748
 30
0.0
 10
-389.28495571484586
 20
-620.38028987582516
 30
0.0
 10
-388.57031794872614
 20
-619.95952949577236
 30
0.0
  0
SPLINE
  5
111
100
AcDbEntity
  8
ADF70-0107
370
              15
390
0
  6
STYLE_14
 62
               7
100
AcDbSpline
210
0.0
220
0.0
230
1.0
 70
               8
 71
               2
 72
               8
 73
               5
 74
               0
 42
0.000001
 43
0.000001
 40
0.0
 40
0.0
 40
0.0
 40
1.0
 40
2.0
 40
3.0
 40
3.0
 40
3.0
 10
-404.67584651317907
 20
-639.95153918001756
 30
0.0
 10
-404.67584651317952
 20
-638.43184171598682
 30
0.0
 10
-404.67584651317861
 20
-632.28105849550025
 30
0.0
 10
-404.67584651317952
 20
-629.90838057965425
 30
0.0
 10
-404.67584651317907
 20
-629.44205146842864
 30
0.0
  0
ARC
  5
112
100
AcDbEntity
  8
ADF70-0107
370
              15
390
0
  6
STYLE_14
 62
               7
100
AcDbCircle
 10
-562.17481231128636
 20
-521.55952949577591
 30
0.0
 40
98.399999999996538
100
AcDbArc
 50
219.29480238800232
 51
270.0
  0
ARC
  5
113
100
AcDbEntity
  8
ADF70-0107
370
              15
390
0
  6
STYLE_01
 62
               7
100
AcDbCircle
 10
-402.13318585585034
 20
-434.89751312932594
 30
0.0
 40
235.23965921787689
100
AcDbArc
 50
320.70519761199614
 51
351.68391927110474
  0
LINE
  5
114
100
AcDbEntity
  8
ADF70-0107
370
              15
390
0
  6
STYLE_01
 62
               7
100
AcDbLine
 10
-296.23329324888505
 20
-619.95952949577236
 30
0.0
 11
-427.58771218135075
 21
-619.95952949577236
 31
0.0
  0
ARC
  5
115
100
AcDbEntity
  8
ADF70-0107
370
              15
390
0
  6
STYLE_14
 62
               7
100
AcDbCircle
 10
-296.23329324888505
 20
-521.55952949577591
 30
0.0
 40
98.399999999996453
100
AcDbArc
 50
270.0
 51
320.70519761199768
  0
ENDSEC
  0
SECTION
  2
OBJECTS
  0
DICTIONARY
  5
19
100
AcDbDictionary
280
               0
281
               1
  3
ACAD_GROUP
350
1A
  3
ACAD_MLINESTYLE
350
1B
  3
ACAD_LAYOUT
350
1E
  3
ACAD_PLOTSETTINGS
350
22
  3
ACAD_PLOTSTYLENAME
350
1F
  0
DICTIONARY
  5
1A
102
{ACAD_REACTORS
330
19
102
}
100
AcDbDictionary
280
               0
281
               1
  0
DICTIONARY
  5
1B
102
{ACAD_REACTORS
330
19
102
}
100
AcDbDictionary
280
               0
281
               1
  3
Standard
350
1C
  0
MLINESTYLE
  5
1C
102
{ACAD_REACTORS
330
1B
102
}
100
AcDbMlineStyle
  2
Standard
 70
               0
  3

 62
               0
 51
90.0
 52
90.0
 71
               2
 49
0.5
 62
             256
  6
ByLayer
 49
-0.5
 62
             256
  6
ByLayer
  0
ACDBDICTIONARYWDFLT
  5
1F
102
{ACAD_REACTORS
330
19
102
}
100
AcDbDictionary
281
               1
  3
Normal
350
1D
100
AcDbDictionaryWithDefault
340
1D
  0
ACDBPLACEHOLDER
  5
1D
102
{ACAD_REACTORS
330
1F
102
}
  0
LAYOUT
  5
20
102
{ACAD_REACTORS
330
1E
102
}
100
AcDbPlotSettings
  1

  2

  4

  6

 40
0.0
 41
0.0
 42
0.0
 43
0.0
 44
0.0
 45
0.0
 46
0.0
 47
0.0
 48
0.0
 49
0.0
140
0.0
141
0.0
142
1.0
143
1.0
 70
            1024
 72
               0
 73
               0
 74
               0
  7

 75
               0
147
1.0
148
0.0
149
0.0
100
AcDbLayout
  1
Model
 70
               0
 71
               0
 10
0.0
 20
0.0
 11
0.0
 21
0.0
 12
0.0
 22
0.0
 32
0.0
 14
0.0
 24
0.0
 34
0.0
 15
0.0
 25
0.0
 35
0.0
146
0.0
 13
0.0
 23
0.0
 33
0.0
 16
0.0
 26
0.0
 36
0.0
 17
0.0
 27
0.0
 37
0.0
 76
               0
330
A
331
0
345
0
346
0
  0
LAYOUT
  5
21
102
{ACAD_REACTORS
330
1E
102
}
100
AcDbPlotSettings
  1

  2

  4

  6

 40
0.0
 41
0.0
 42
0.0
 43
0.0
 44
0.0
 45
0.0
 46
0.0
 47
0.0
 48
0.0
 49
0.0
140
0.0
141
0.0
142
1.0
143
1.0
 70
               0
 72
               0
 73
               0
 74
               0
  7

 75
               0
147
1.0
148
0.0
149
0.0
100
AcDbLayout
  1
Layout1
 70
               0
 71
               0
 10
0.0
 20
0.0
 11
0.0
 21
0.0
 12
0.0
 22
0.0
 32
0.0
 14
0.0
 24
0.0
 34
0.0
 15
0.0
 25
0.0
 35
0.0
146
0.0
 13
0.0
 23
0.0
 33
0.0
 16
0.0
 26
0.0
 36
0.0
 17
0.0
 27
0.0
 37
0.0
 76
               0
330
B
331
0
345
0
346
0
  0
DICTIONARY
  5
1E
102
{ACAD_REACTORS
330
19
102
}
100
AcDbDictionary
280
               0
281
               1
  3
Layout1
350
21
  3
Model
350
20
  0
DICTIONARY
  5
22
102
{ACAD_REACTORS
330
19
102
}
100
AcDbDictionary
280
               0
281
               1
  0
ENDSEC
  0
EOF
