  0
SECTION
  2
HEADER
  9
$ACADVER
  1
AC1015
  9
$ACADMAINTVER
 70
               6
  9
$DWGCODEPAGE
  3
ANSI_932
  9
$INSBASE
 10
0.0
 20
0.0
 30
0.0
  9
$EXTMIN
 10
-975.00000000024124
 20
-1431.5255224711129
 30
-14.834305555555556
  9
$EXTMAX
 10
975.00000000024124
 20
1405.9972926412995
 30
14.834305555555556
  9
$LIMMIN
 10
0.0
 20
0.0
  9
$LIMMAX
 10
0.0
 20
0.0
  9
$ORTHOMODE
 70
               0
  9
$REGENMODE
 70
               1
  9
$FILLMODE
 70
               1
  9
$QTEXTMODE
 70
               0
  9
$MIRRTEXT
 70
               1
  9
$LTSCALE
 40
50.799999999999997
  9
$ATTMODE
 70
               1
  9
$TEXTSIZE
 40
0.2
  9
$TRACEWID
 40
1.0
  9
$TEXTSTYLE
  7
Standard
  9
$CLAYER
  8
notes
  9
$CELTYPE
  6
Continuous
  9
$CECOLOR
 62
             256
  9
$CELTSCALE
 40
1.0
  9
$DISPSILH
 70
               0
  9
$DIMSCALE
 40
1.0
  9
$DIMASZ
 40
31.75
  9
$DIMEXO
 40
0.0
  9
$DIMDLI
 40
6.9999999999999396
  9
$DIMRND
 40
0.0
  9
$DIMDLE
 40
0.0
  9
$DIMEXE
 40
19.999999999996199
  9
$DIMTP
 40
0.0
  9
$DIMTM
 40
0.0
  9
$DIMTXT
 40
24.432617187500004
  9
$DIMCEN
 40
0.0
  9
$DIMTSZ
 40
0.0
  9
$DIMTOL
 70
               0
  9
$DIMLIM
 70
               0
  9
$DIMTIH
 70
               0
  9
$DIMTOH
 70
               0
  9
$DIMSE1
 70
               0
  9
$DIMSE2
 70
               0
  9
$DIMTAD
 70
               1
  9
$DIMZIN
 70
              11
  9
$DIMBLK
  1
VW_FILLEDARROW
  9
$DIMASO
 70
               1
  9
$DIMSHO
 70
               1
  9
$DIMPOST
  1
<>
  9
$DIMAPOST
  1
[]
  9
$DIMALT
 70
               0
  9
$DIMALTD
 70
               1
  9
$DIMALTF
 40
1.0
  9
$DIMLFAC
 40
1.0
  9
$DIMTOFL
 70
               0
  9
$DIMTVP
 40
0.0
  9
$DIMTIX
 70
               1
  9
$DIMSOXD
 70
               0
  9
$DIMSAH
 70
               0
  9
$DIMBLK1
  1

  9
$DIMBLK2
  1

  9
$DIMSTYLE
  2
JIS
  9
$DIMCLRD
 70
               0
  9
$DIMCLRE
 70
               0
  9
$DIMCLRT
 70
               0
  9
$DIMTFAC
 40
1.0
  9
$DIMGAP
 40
1.00000000000108
  9
$DIMJUST
 70
               0
  9
$DIMSD1
 70
               0
  9
$DIMSD2
 70
               0
  9
$DIMTOLJ
 70
               1
  9
$DIMTZIN
 70
              11
  9
$DIMALTZ
 70
              11
  9
$DIMALTTZ
 70
              11
  9
$DIMUPT
 70
               0
  9
$DIMDEC
 70
               1
  9
$DIMTDEC
 70
               1
  9
$DIMALTU
 70
               2
  9
$DIMALTTD
 70
               2
  9
$DIMTXSTY
  7
ＭＳ ゴシック
  9
$DIMAUNIT
 70
               0
  9
$DIMADEC
 70
               2
  9
$DIMALTRND
 40
0.0
  9
$DIMAZIN
 70
               0
  9
$DIMDSEP
 70
              46
  9
$DIMATFIT
 70
               0
  9
$DIMFRAC
 70
               2
  9
$DIMLDRBLK
  1

  9
$DIMLUNIT
 70
               2
  9
$DIMLWD
 70
              -2
  9
$DIMLWE
 70
              -2
  9
$DIMTMOVE
 70
               0
  9
$LUNITS
 70
               2
  9
$LUPREC
 70
               4
  9
$SKETCHINC
 40
0.1
  9
$FILLETRAD
 40
0.0
  9
$AUNITS
 70
               0
  9
$AUPREC
 70
               0
  9
$MENU
  1
acad
  9
$ELEVATION
 40
0.0
  9
$PELEVATION
 40
0.0
  9
$THICKNESS
 40
0.0
  9
$LIMCHECK
 70
               0
  9
$CHAMFERA
 40
0.0
  9
$CHAMFERB
 40
0.0
  9
$CHAMFERC
 40
0.0
  9
$CHAMFERD
 40
0.0
  9
$SKPOLY
 70
               0
  9
$TDCREATE
 40
2455995.597233797
  9
$TDUCREATE
 40
0.000000000
  9
$TDUPDATE
 40
2455995.597233797
  9
$TDUUPDATE
 40
0.000000000
  9
$TDINDWG
 40
0.0000000000
  9
$TDUSRTIMER
 40
0.0000000000
  9
$USRTIMER
 70
               1
  9
$ANGBASE
 50
0.0
  9
$ANGDIR
 70
               0
  9
$PDMODE
 70
               1
  9
$PDSIZE
 40
-2.0
  9
$PLINEWID
 40
0.0
  9
$SPLFRAME
 70
               0
  9
$SPLINETYPE
 70
               6
  9
$SPLINESEGS
 70
               8
  9
$HANDSEED
  5
1D0
  9
$SURFTAB1
 70
               6
  9
$SURFTAB2
 70
               6
  9
$SURFTYPE
 70
               6
  9
$SURFU
 70
               6
  9
$SURFV
 70
               6
  9
$UCSBASE
  2

  9
$UCSNAME
  2

  9
$UCSORG
 10
0.0
 20
0.0
 30
0.0
  9
$UCSXDIR
 10
1.0
 20
0.0
 30
0.0
  9
$UCSYDIR
 10
0.0
 20
1.0
 30
0.0
  9
$UCSORTHOREF
  2

  9
$UCSORTHOVIEW
 70
               0
  9
$UCSORGTOP
 10
0.0
 20
0.0
 30
0.0
  9
$UCSORGBOTTOM
 10
0.0
 20
0.0
 30
0.0
  9
$UCSORGLEFT
 10
0.0
 20
0.0
 30
0.0
  9
$UCSORGRIGHT
 10
0.0
 20
0.0
 30
0.0
  9
$UCSORGFRONT
 10
0.0
 20
0.0
 30
0.0
  9
$UCSORGBACK
 10
0.0
 20
0.0
 30
0.0
  9
$PUCSBASE
  2

  9
$PUCSNAME
  2

  9
$PUCSORG
 10
0.0
 20
0.0
 30
0.0
  9
$PUCSXDIR
 10
1.0
 20
0.0
 30
0.0
  9
$PUCSYDIR
 10
0.0
 20
1.0
 30
0.0
  9
$PUCSORTHOREF
  2

  9
$PUCSORTHOVIEW
 70
               0
  9
$PUCSORGTOP
 10
0.0
 20
0.0
 30
0.0
  9
$PUCSORGBOTTOM
 10
0.0
 20
0.0
 30
0.0
  9
$PUCSORGLEFT
 10
0.0
 20
0.0
 30
0.0
  9
$PUCSORGRIGHT
 10
0.0
 20
0.0
 30
0.0
  9
$PUCSORGFRONT
 10
0.0
 20
0.0
 30
0.0
  9
$PUCSORGBACK
 10
0.0
 20
0.0
 30
0.0
  9
$USERI1
 70
               0
  9
$USERI2
 70
               0
  9
$USERI3
 70
               0
  9
$USERI4
 70
               0
  9
$USERI5
 70
               0
  9
$USERR1
 40
0.0
  9
$USERR2
 40
0.0
  9
$USERR3
 40
0.0
  9
$USERR4
 40
0.0
  9
$USERR5
 40
0.0
  9
$WORLDVIEW
 70
               1
  9
$SHADEDGE
 70
               3
  9
$SHADEDIF
 70
              70
  9
$TILEMODE
 70
               1
  9
$MAXACTVP
 70
              64
  9
$PINSBASE
 10
0.0
 20
0.0
 30
0.0
  9
$PLIMCHECK
 70
               0
  9
$PEXTMIN
 10
1.0000000000000000E+20
 20
1.0000000000000000E+20
 30
1.0000000000000000E+20
  9
$PEXTMAX
 10
-1.0000000000000000E+20
 20
-1.0000000000000000E+20
 30
-1.0000000000000000E+20
  9
$PLIMMIN
 10
0.0
 20
0.0
  9
$PLIMMAX
 10
12.0
 20
9.0
  9
$UNITMODE
 70
               0
  9
$VISRETAIN
 70
               0
  9
$PLINEGEN
 70
               1
  9
$PSLTSCALE
 70
               0
  9
$TREEDEPTH
 70
            3020
  9
$CMLSTYLE
  2
Standard
  9
$CMLJUST
 70
               0
  9
$CMLSCALE
 40
1.0
  9
$PROXYGRAPHICS
 70
               0
  9
$MEASUREMENT
 70
               1
  9
$CELWEIGHT
370
               0
  9
$ENDCAPS
280
               0
  9
$JOINSTYLE
280
               0
  9
$LWDISPLAY
290
               1
  9
$INSUNITS
 70
               4
  9
$HYPERLINKBASE
  1

  9
$STYLESHEET
  1

  9
$XEDIT
290
               1
  9
$CEPSNTYPE
380
               0
  9
$PSTYLEMODE
290
               1
  9
$FINGERPRINTGUID
  2

  9
$VERSIONGUID
  2

  9
$EXTNAMES
290
               1
  9
$PSVPSCALE
 40
0.0
  0
ENDSEC
  0
SECTION
  2
CLASSES
  0
CLASS
  1
LWPOLYLINE
  2
AcDbPolyline
  3
AutoCAD 2000
 90
        0
280
               0
281
               1
  0
CLASS
  1
IMAGE
  2
AcDbRasterImage
  3
ISM
 90
      127
280
               0
281
               1
  0
CLASS
  1
OLE2FRAME
  2
AcDbOle2Frame
  3
AutoCAD 2000
 90
        0
280
               0
281
               1
  0
CLASS
  1
HATCH
  2
AcDbHatch
  3
AutoCAD 2000
 90
        0
280
               0
281
               1
  0
CLASS
  1
DICTIONARYVAR
  2
AcDbDictionaryVar
  3
AutoCAD 2000
 90
        0
280
               0
281
               0
  0
CLASS
  1
RASTERVARIABLES
  2
AcDbRasterVariables
  3
ISM
 90
        0
280
               0
281
               0
  0
CLASS
  1
IMAGEDEF
  2
AcDbRasterImageDef
  3
ISM
 90
        0
280
               0
281
               0
  0
CLASS
  1
IMAGEDEF_REACTOR
  2
AcDbRasterImageDefReactor
  3
ISM
 90
        1
280
               0
281
               0
  0
CLASS
  1
IDBUFFER
  2
AcDbIdBuffer
  3
AutoCAD 2000
 90
        0
280
               0
281
               0
  0
CLASS
  1
SPATIAL_FILTER
  2
AcDbSpatialFilter
  3
AutoCAD 2000
 90
        0
280
               0
281
               0
  0
CLASS
  1
XRECORD
  2
AcDbXrecord
  3
AutoCAD 2000
 90
        0
280
               0
281
               0
  0
CLASS
  1
SORTENTSTABLE
  2
AcDbSortentsTable
  3
AutoCAD 2000
 90
        0
280
               0
281
               0
  0
CLASS
  1
LAYER_INDEX
  2
AcDbLayerIndex
  3
AutoCAD 2000
 90
        0
280
               0
281
               0
  0
CLASS
  1
SPATIAL_INDEX
  2
AcDbSpatialIndex
  3
AutoCAD 2000
 90
        0
280
               0
281
               0
  0
CLASS
  1
OBJECT_PTR
  2
CAseDLPNTableRecord
  3
"ASE-LPNTableRecord"
 90
        1
280
               0
281
               0
  0
CLASS
  1
LAYOUT
  2
AcDbLayout
  3
AutoCAD 2000
 90
        0
280
               0
281
               0
  0
CLASS
  1
PLOTSETTINGS
  2
AcDbPlotSettings
  3
AutoCAD 2000
 90
        0
280
               0
281
               0
  0
CLASS
  1
ACDBDICTIONARYWDFLT
  2
AcDbDictionaryWithDefault
  3
AutoCAD 2000
 90
        0
280
               0
281
               0
  0
CLASS
  1
ACDBPLACEHOLDER
  2
AcDbPlaceHolder
  3
AutoCAD 2000
 90
        0
280
               0
281
               0
  0
ENDSEC
  0
SECTION
  2
TABLES
  0
TABLE
  2
VPORT
  5
7
100
AcDbSymbolTable
 70
               1
  0
VPORT
  5
15
100
AcDbSymbolTableRecord
100
AcDbViewportTableRecord
  2
*ACTIVE
 70
               0
 10
0.0
 20
0.0
 11
1.0
 21
1.0
 12
0.0
 22
-12.764114914906713
 13
0.0
 23
0.0
 14
1.0
 24
1.0
 15
0.0
 25
0.0
 16
0.0
 26
0.0
 36
1.0
 17
0.0
 27
0.0
 37
0.0
 40
2837.5228151124124
 41
0.688564
 42
50.0
 43
0.0
 44
0.0
 50
0.0
 51
0.0
 71
               0
 72
            2000
 73
               1
 74
               1
 75
               0
 76
               0
 77
               0
 78
               0
281
               0
 65
               0
110
0.0
120
0.0
130
0.0
111
1.0
121
0.0
131
0.0
112
0.0
122
1.0
132
0.0
345
0
346
0
 79
               0
146
0.0
  0
ENDTAB
  0
TABLE
  2
LTYPE
  5
4
100
AcDbSymbolTable
 70
              20
  0
LTYPE
  5
11
100
AcDbSymbolTableRecord
100
AcDbLinetypeTableRecord
  2
ByBlock
 70
              64
  3

 72
              65
 73
               0
 40
0.0
  0
LTYPE
  5
12
100
AcDbSymbolTableRecord
100
AcDbLinetypeTableRecord
  2
ByLayer
 70
              64
  3

 72
              65
 73
               0
 40
0.0
  0
LTYPE
  5
13
100
AcDbSymbolTableRecord
100
AcDbLinetypeTableRecord
  2
Continuous
 70
              64
  3
Solid line
 72
              65
 73
               0
 40
0.0
  0
LTYPE
  5
38
100
AcDbSymbolTableRecord
100
AcDbLinetypeTableRecord
  2
STYLE_01
 70
               0
  3

 72
              65
 73
               2
 40
0.375
 49
0.25
 74
               0
 49
-0.125
 74
               0
  0
LTYPE
  5
39
100
AcDbSymbolTableRecord
100
AcDbLinetypeTableRecord
  2
STYLE_02
 70
               0
  3

 72
              65
 73
               2
 40
0.6944250000000001
 49
0.48607
 74
               0
 49
-0.2083550000000001
 74
               0
  0
LTYPE
  5
3A
100
AcDbSymbolTableRecord
100
AcDbLinetypeTableRecord
  2
STYLE_03
 70
               0
  3

 72
              65
 73
               2
 40
1.25
 49
1.0416400000000001
 74
               0
 49
-0.2083599999999999
 74
               0
  0
LTYPE
  5
3B
100
AcDbSymbolTableRecord
100
AcDbLinetypeTableRecord
  2
STYLE_04
 70
               0
  3

 72
              65
 73
               2
 40
1.5277099999999999
 49
1.3194249999999998
 74
               0
 49
-0.208285
 74
               0
  0
LTYPE
  5
3C
100
AcDbSymbolTableRecord
100
AcDbLinetypeTableRecord
  2
STYLE_05
 70
               0
  3

 72
              65
 73
               2
 40
0.20828
 49
0.069425
 74
               0
 49
-0.138855
 74
               0
  0
LTYPE
  5
3D
100
AcDbSymbolTableRecord
100
AcDbLinetypeTableRecord
  2
STYLE_06
 70
               0
  3

 72
              65
 73
               4
 40
1.0416400000000001
 49
0.625
 74
               0
 49
-0.20828
 74
               0
 49
0.06943
 74
               0
 49
-0.13893
 74
               0
  0
LTYPE
  5
3E
100
AcDbSymbolTableRecord
100
AcDbLinetypeTableRecord
  2
STYLE_07
 70
               0
  3

 72
              65
 73
               6
 40
1.875
 49
0.625
 74
               0
 49
-0.20828
 74
               0
 49
0.6250000000000001
 74
               0
 49
-0.2083599999999999
 74
               0
 49
0.06943
 74
               0
 49
-0.1389299999999999
 74
               0
  0
LTYPE
  5
3F
100
AcDbSymbolTableRecord
100
AcDbLinetypeTableRecord
  2
STYLE_08
 70
               0
  3

 72
              65
 73
               6
 40
1.25
 49
0.625
 74
               0
 49
-0.20828
 74
               0
 49
0.06943
 74
               0
 49
-0.13893
 74
               0
 49
0.0694299999999999
 74
               0
 49
-0.13893
 74
               0
  0
LTYPE
  5
40
100
AcDbSymbolTableRecord
100
AcDbLinetypeTableRecord
  2
STYLE_09
 70
               0
  3

 72
              65
 73
               4
 40
5.0
 49
3.75
 74
               0
 49
-0.2777849999999998
 74
               0
 49
0.6944300000000003
 74
               0
 49
-0.2777849999999998
 74
               0
  0
LTYPE
  5
41
100
AcDbSymbolTableRecord
100
AcDbLinetypeTableRecord
  2
STYLE_10
 70
               0
  3

 72
              65
 73
               6
 40
5.9375
 49
3.75
 74
               0
 49
-0.2777849999999998
 74
               0
 49
0.6944300000000003
 74
               0
 49
-0.2777849999999998
 74
               0
 49
0.625
 74
               0
 49
-0.3125
 74
               0
  0
LTYPE
  5
42
100
AcDbSymbolTableRecord
100
AcDbLinetypeTableRecord
  2
STYLE_11
 70
               0
  3

 72
              65
 73
               2
 40
0.0694444881889764
 49
0.0347222440944882
 74
               0
 49
-0.0347222440944882
 74
               0
  0
LTYPE
  5
43
100
AcDbSymbolTableRecord
100
AcDbLinetypeTableRecord
  2
STYLE_12
 70
               0
  3

 72
              65
 73
               2
 40
0.1875
 49
0.125
 74
               0
 49
-0.0625
 74
               0
  0
LTYPE
  5
44
100
AcDbSymbolTableRecord
100
AcDbLinetypeTableRecord
  2
STYLE_13
 70
               0
  3

 72
              65
 73
               2
 40
1.0416666666666667
 49
0.6944444444444444
 74
               0
 49
-0.3472222222222222
 74
               0
  0
LTYPE
  5
45
100
AcDbSymbolTableRecord
100
AcDbLinetypeTableRecord
  2
STYLE_14
 70
               0
  3

 72
              65
 73
               2
 40
0.6944444444444444
 49
0.3472222222222222
 74
               0
 49
-0.3472222222222222
 74
               0
  0
LTYPE
  5
46
100
AcDbSymbolTableRecord
100
AcDbLinetypeTableRecord
  2
STYLE_15
 70
               0
  3

 72
              65
 73
               2
 40
9.375
 49
6.25
 74
               0
 49
-3.125
 74
               0
  0
LTYPE
  5
47
100
AcDbSymbolTableRecord
100
AcDbLinetypeTableRecord
  2
STYLE_16
 70
               0
  3

 72
              65
 73
               2
 40
0.3937007874015748
 49
0.1968503937007874
 74
               0
 49
-0.1968503937007874
 74
               0
  0
LTYPE
  5
48
100
AcDbSymbolTableRecord
100
AcDbLinetypeTableRecord
  2
STYLE_17
 70
               0
  3

 72
              65
 73
               2
 40
0.3690944881889764
 49
0.2460629921259843
 74
               0
 49
-0.1230314960629922
 74
               0
  0
ENDTAB
  0
TABLE
  2
LAYER
  5
2
100
AcDbSymbolTable
 70
               5
  0
LAYER
  5
14
100
AcDbSymbolTableRecord
100
AcDbLayerTableRecord
  2
0
 70
               0
 62
               7
  6
Continuous
290
               1
370
              -3
390
1D
  0
LAYER
  5
49
100
AcDbSymbolTableRecord
100
AcDbLayerTableRecord
  2
Defpoints
 70
               0
 62
               7
  6
Continuous
290
               0
370
              -3
390
1D
  0
LAYER
  5
4A
100
AcDbSymbolTableRecord
100
AcDbLayerTableRecord
  2
template
 70
               0
 62
               7
  6
Continuous
290
               1
370
              -3
390
1D
  0
LAYER
  5
4B
100
AcDbSymbolTableRecord
100
AcDbLayerTableRecord
  2
notes
 70
               0
 62
               7
  6
Continuous
290
               1
370
              -3
390
1D
  0
LAYER
  5
4C
100
AcDbSymbolTableRecord
100
AcDbLayerTableRecord
  2
ADF70-0108
 70
               0
 62
               7
  6
Continuous
290
               1
370
              -3
390
1D
  0
ENDTAB
  0
TABLE
  2
STYLE
  5
3
100
AcDbSymbolTable
 70
               2
  0
STYLE
  5
17
100
AcDbSymbolTableRecord
100
AcDbTextStyleTableRecord
  2
Standard
 70
               0
 40
0.0
 41
1.0
 50
0.0
 71
               0
 42
0.0
  3
txt
  4
BIGFONT.SHX
  0
STYLE
  5
37
100
AcDbSymbolTableRecord
100
AcDbTextStyleTableRecord
  2
ＭＳ ゴシック
 70
               0
 40
0.0
 41
1.0
 50
0.0
 71
               0
 42
0.0
  3

  4
ＭＳ ゴシック
1001
ACAD
1000
ＭＳ ゴシック
1071
        0
  0
ENDTAB
  0
TABLE
  2
VIEW
  5
5
100
AcDbSymbolTable
 70
               0
  0
ENDTAB
  0
TABLE
  2
UCS
  5
6
100
AcDbSymbolTable
 70
               0
  0
ENDTAB
  0
TABLE
  2
APPID
  5
8
100
AcDbSymbolTable
 70
               1
  0
APPID
  5
16
100
AcDbSymbolTableRecord
100
AcDbRegAppTableRecord
  2
ACAD
 70
               0
  0
ENDTAB
  0
TABLE
  2
DIMSTYLE
  5
9
100
AcDbSymbolTable
 70
               3
100
AcDbDimStyleTable
 71
               0
  0
DIMSTYLE
105
18
100
AcDbSymbolTableRecord
100
AcDbDimStyleTableRecord
  2
Standard
 70
               0
  3

  4

 40
1.0
 41
0.18
 42
0.0625
 43
0.38
 44
0.18
 45
0.0
 46
0.0
 47
0.0
 48
0.0
 71
               0
 72
               0
 73
               1
 74
               1
 75
               0
 76
               0
 77
               0
 78
               0
 79
               0
140
0.18
141
0.09
142
0.0
143
25.399999999999999
144
1.0
145
0.0
146
1.0
147
0.09
148
0.0
170
               0
171
               2
172
               0
173
               0
174
               0
175
               0
176
               0
177
               0
178
               0
179
               0
271
               4
272
               4
273
               2
274
               2
275
               0
276
               0
277
               2
278
              46
279
               0
280
               0
281
               0
282
               0
283
               1
284
               0
285
               0
286
               0
288
               0
289
               3
340
17
341
0
342
0
343
0
344
0
371
              -2
372
              -2
  0
DIMSTYLE
105
55
100
AcDbSymbolTableRecord
100
AcDbDimStyleTableRecord
  2
tform線あり
 70
               0
  3
<>
  4
[]
 40
1.0
 41
3.999755859375
 42
24.999999999999996
 43
0.9999999999999999
 44
0.0
 45
0.0
 46
0.0
 47
0.0
 48
0.0
 71
               0
 72
               0
 73
               0
 74
               0
 75
               0
 76
               0
 77
               1
 78
              11
 79
               0
140
24.432617187500004
141
0.0
142
0.0
143
1.0
144
1.0
145
0.0
146
1.0
147
0.4999999999999999
148
0.0
170
               0
171
               1
172
               0
173
               0
174
               1
175
               0
176
               0
177
               0
178
               0
179
               2
271
               1
272
               1
273
               2
274
               2
275
               0
276
               2
277
               2
278
              46
279
               0
280
               0
281
               0
282
               0
283
               1
284
              11
285
              11
286
              11
288
               0
289
               0
340
37
341
4D
342
4D
343
0
344
0
371
              -2
372
              -2
  0
DIMSTYLE
105
5A
100
AcDbSymbolTableRecord
100
AcDbDimStyleTableRecord
  2
JIS
 70
               0
  3
<>
  4
[]
 40
1.0
 41
31.75
 42
0.0
 43
6.9999999999999396
 44
19.999999999996199
 45
0.0
 46
0.0
 47
0.0
 48
0.0
 71
               0
 72
               0
 73
               0
 74
               0
 75
               0
 76
               0
 77
               1
 78
              11
 79
               0
140
24.432617187500004
141
0.0
142
0.0
143
1.0
144
1.0
145
0.0
146
1.0
147
1.00000000000108
148
0.0
170
               0
171
               1
172
               0
173
               0
174
               1
175
               0
176
               0
177
               0
178
               0
179
               2
271
               1
272
               1
273
               2
274
               2
275
               0
276
               2
277
               2
278
              46
279
               0
280
               0
281
               0
282
               0
283
               1
284
              11
285
              11
286
              11
288
               0
289
               0
340
37
341
56
342
56
343
0
344
0
371
              -2
372
              -2
  0
ENDTAB
  0
TABLE
  2
BLOCK_RECORD
  5
1
100
AcDbSymbolTable
 70
              22
  0
BLOCK_RECORD
  5
A
100
AcDbSymbolTableRecord
100
AcDbBlockTableRecord
  2
*MODEL_SPACE
340
20
  0
BLOCK_RECORD
  5
B
100
AcDbSymbolTableRecord
100
AcDbBlockTableRecord
  2
*PAPER_SPACE
340
21
  0
BLOCK_RECORD
  5
4D
100
AcDbSymbolTableRecord
100
AcDbBlockTableRecord
  2
_DOT
340
0
  0
BLOCK_RECORD
  5
56
100
AcDbSymbolTableRecord
100
AcDbBlockTableRecord
  2
VW_FILLEDARROW
340
0
  0
BLOCK_RECORD
  5
23
100
AcDbSymbolTableRecord
100
AcDbBlockTableRecord
  2
グループ
340
0
102
{BLKREFS
331
15D
102
}
  0
BLOCK_RECORD
  5
24
100
AcDbSymbolTableRecord
100
AcDbBlockTableRecord
  2
*D3
340
0
  0
BLOCK_RECORD
  5
25
100
AcDbSymbolTableRecord
100
AcDbBlockTableRecord
  2
*D4
340
0
  0
BLOCK_RECORD
  5
26
100
AcDbSymbolTableRecord
100
AcDbBlockTableRecord
  2
*D5
340
0
  0
BLOCK_RECORD
  5
27
100
AcDbSymbolTableRecord
100
AcDbBlockTableRecord
  2
*D6
340
0
  0
BLOCK_RECORD
  5
28
100
AcDbSymbolTableRecord
100
AcDbBlockTableRecord
  2
*D7
340
0
  0
BLOCK_RECORD
  5
29
100
AcDbSymbolTableRecord
100
AcDbBlockTableRecord
  2
*D8
340
0
  0
BLOCK_RECORD
  5
2A
100
AcDbSymbolTableRecord
100
AcDbBlockTableRecord
  2
*D9
340
0
  0
BLOCK_RECORD
  5
2B
100
AcDbSymbolTableRecord
100
AcDbBlockTableRecord
  2
*D10
340
0
  0
BLOCK_RECORD
  5
2C
100
AcDbSymbolTableRecord
100
AcDbBlockTableRecord
  2
*D11
340
0
  0
BLOCK_RECORD
  5
2D
100
AcDbSymbolTableRecord
100
AcDbBlockTableRecord
  2
*D12
340
0
  0
BLOCK_RECORD
  5
2E
100
AcDbSymbolTableRecord
100
AcDbBlockTableRecord
  2
*D13
340
0
  0
BLOCK_RECORD
  5
2F
100
AcDbSymbolTableRecord
100
AcDbBlockTableRecord
  2
*D14
340
0
  0
BLOCK_RECORD
  5
30
100
AcDbSymbolTableRecord
100
AcDbBlockTableRecord
  2
*D15
340
0
  0
BLOCK_RECORD
  5
31
100
AcDbSymbolTableRecord
100
AcDbBlockTableRecord
  2
*D16
340
0
  0
BLOCK_RECORD
  5
32
100
AcDbSymbolTableRecord
100
AcDbBlockTableRecord
  2
*D17
340
0
  0
BLOCK_RECORD
  5
33
100
AcDbSymbolTableRecord
100
AcDbBlockTableRecord
  2
*D18
340
0
  0
BLOCK_RECORD
  5
34
100
AcDbSymbolTableRecord
100
AcDbBlockTableRecord
  2
*D19
340
0
  0
BLOCK_RECORD
  5
35
100
AcDbSymbolTableRecord
100
AcDbBlockTableRecord
  2
*D20
340
0
  0
BLOCK_RECORD
  5
36
100
AcDbSymbolTableRecord
100
AcDbBlockTableRecord
  2
グループ-1
340
0
102
{BLKREFS
331
1C9
102
}
  0
ENDTAB
  0
ENDSEC
  0
SECTION
  2
BLOCKS
  0
BLOCK
  5
D
100
AcDbEntity
  8
0
390
0
100
AcDbBlockBegin
  2
*MODEL_SPACE
 70
               0
 10
0.0
 20
0.0
 30
0.0
  3
*MODEL_SPACE
  1

  0
ENDBLK
  5
E
100
AcDbEntity
  8
0
390
0
100
AcDbBlockEnd
  0
BLOCK
  5
F
100
AcDbEntity
 67
               1
  8
0
390
0
100
AcDbBlockBegin
  2
*PAPER_SPACE
 70
               0
 10
0.0
 20
0.0
 30
0.0
  3
*PAPER_SPACE
  1

  0
ENDBLK
  5
10
100
AcDbEntity
 67
               1
  8
0
390
0
100
AcDbBlockEnd
  0
BLOCK
  5
4E
100
AcDbEntity
  8
0
390
0
100
AcDbBlockBegin
  2
_DOT
 70
               0
 10
0.0
 20
0.0
 30
0.0
  3
_DOT
  1

  0
POLYLINE
  5
4F
100
AcDbEntity
  8
0
370
              -2
390
0
  6
ByBlock
 62
               0
100
AcDb2dPolyline
 66
               1
 10
0.0
 20
0.0
 30
0.0
 70
               1
 40
0.5
 41
0.5
  0
VERTEX
  5
50
100
AcDbEntity
  8
0
370
              -2
390
0
  6
ByBlock
 62
               0
100
AcDbVertex
100
AcDb2dVertex
 10
-0.25
 20
0.0
 30
0.0
 42
1.0
  0
VERTEX
  5
51
100
AcDbEntity
  8
0
370
              -2
390
0
  6
ByBlock
 62
               0
100
AcDbVertex
100
AcDb2dVertex
 10
0.25
 20
0.0
 30
0.0
 42
1.0
  0
SEQEND
  5
52
100
AcDbEntity
  8
0
390
0
  0
LINE
  5
53
100
AcDbEntity
  8
0
370
              -2
390
0
  6
ByBlock
 62
               0
100
AcDbLine
 10
-0.5
 20
0.0
 30
0.0
 11
-1.0
 21
0.0
 31
0.0
  0
ENDBLK
  5
54
100
AcDbEntity
  8
0
390
0
100
AcDbBlockEnd
  0
BLOCK
  5
57
100
AcDbEntity
  8
0
370
              -2
390
0
  6
ByBlock
 62
               0
100
AcDbBlockBegin
  2
VW_FILLEDARROW
 70
               0
 10
0.0
 20
0.0
 30
0.0
  3
VW_FILLEDARROW
  1

  0
SOLID
  5
58
100
AcDbEntity
  8
0
370
              -2
390
0
 62
               0
100
AcDbTrace
 10
0.0
 20
0.0
 30
0.0
 11
-0.9921874999999999
 21
-0.2658558393652545
 31
0.0
 12
-0.9921874999999999
 22
0.2658558393652548
 32
0.0
 13
-0.9921874999999999
 23
0.2658558393652548
 33
0.0
  0
ENDBLK
  5
59
100
AcDbEntity
  8
0
390
0
100
AcDbBlockEnd
  0
BLOCK
  5
5B
100
AcDbEntity
  8
template
390
0
100
AcDbBlockBegin
  2
グループ
 70
               0
 10
0.0
 20
0.0
 30
0.0
  3
グループ
  1

  0
LWPOLYLINE
  5
5C
100
AcDbEntity
  8
0
370
              15
390
0
  6
Continuous
 62
               7
100
AcDbPolyline
 90
        8
 70
             129
 10
414.51732131620253
 20
-720.26523752090179
 10
414.51732131620253
 20
-726.26262621447768
 10
405.01612439819922
 20
-726.26262621447768
 10
405.01612439819922
 20
-750.71358947798649
 10
396.66074713641643
 20
-750.71358947798649
 10
396.66074713641643
 20
-726.26262621447768
 10
387.32779019010701
 20
-726.26262621447768
 10
387.32779019010701
 20
-720.26523752090179
  0
LWPOLYLINE
  5
5D
100
AcDbEntity
  8
0
370
              15
390
0
  6
Continuous
 62
               7
100
AcDbPolyline
 90
      101
 70
             128
 10
427.24561314675947
 20
-720.99348601383826
 10
427.26096317554277
 20
-720.98912525715366
 42
-0.0222221607814592
 10
427.55096775221557
 20
-720.92050079190858
 10
427.56676151620724
 20
-720.91749736881195
 42
-0.0146883565588074
 10
427.82946422143334
 20
-720.87549418186222
 42
-0.0127458844185685
 10
428.09410318858824
 20
-720.84795721378964
 10
428.15655826689914
 20
-720.84306379120153
 42
-0.0198099018566511
 10
428.54740737637121
 20
-720.82797863380483
 10
428.59921884581979
 20
-720.82803240946998
 42
-0.0147617382762094
 10
429.09384230679575
 20
-720.84315243471497
 10
429.16653376167142
 20
-720.84752504160269
 42
-0.0162624549001833
 10
429.55668739113349
 20
-720.88375791687486
 10
429.67821978239277
 20
-720.89904447587139
 42
-0.0080020874665321
 10
429.82379881348425
 20
-720.9197273231398
 10
429.86211828407278
 20
-720.92579860094986
 42
-0.0053821929680264
 10
429.9306023893941
 20
-720.93740612477245
 10
429.20419669019549
 20
-723.11833458048636
 42
0.0108667757398566
 10
429.13687962006424
 20
-723.10514746526644
 10
429.09941159687514
 20
-723.09864972267201
 42
0.017066320330951
 10
428.95619480995896
 20
-723.07882012538016
 10
428.88831947727664
 20
-723.07177295479278
 42
0.022016237527564
 10
428.60794006942092
 20
-723.05509059402266
 10
428.53008450236968
 20
-723.05389122675615
 42
0.0282606915785166
 10
428.19444817879133
 20
-723.06769450372519
 10
428.15053490501805
 20
-723.07199449372899
 42
0.0169677213688503
 10
427.90461041006006
 20
-723.10453154328081
 42
0.0190576269867216
 10
427.66170244747985
 20
-723.15467841538725
 10
427.65544325936918
 20
-723.15622138949652
 42
0.0213685642845462
 10
427.40505877489124
 20
-723.22942167460133
 10
427.39956887997522
 20
-723.23128467066033
 42
0.0237595297594617
 10
427.14607399507713
 20
-723.3309691925557
 10
427.14097192104686
 20
-723.3332609680341
 42
0.026185746881642
 10
426.88880114481617
 20
-723.46279730540903
 10
426.87837495573126
 20
-723.46886277987619
 42
0.0272553062020314
 10
426.64194518049146
 20
-723.62423498582132
 10
426.60718216698103
 20
-723.64989613391424
 42
0.0325996893175601
 10
426.45702682333047
 20
-723.77664400688491
 10
426.43331739420495
 20
-723.79946203539998
 42
0.0138050960638505
 10
426.34143423799725
 20
-723.89291169694945
 42
0.0125280103801845
 10
426.25459170516581
 20
-723.99107502354707
 10
426.23091126025537
 20
-724.01923352173685
 42
0.0205218024736743
 10
426.10581118474079
 20
-724.18102683596715
 10
426.08334484425455
 20
-724.21268656579286
 42
0.0163110129579937
 10
425.92763446500464
 20
-724.44801700086043
 10
425.92491056895227
 20
-724.45244076284825
 42
0.0131897341896799
 10
425.77811004804727
 20
-724.70557285521102
 10
425.7764099526799
 20
-724.70869109434841
 42
0.0107895576062168
 10
425.63863325046862
 20
-724.97490630398454
 10
425.63790036094406
 20
-724.97640053663008
 42
0.0091371507215547
 10
425.50942041229581
 20
-725.25092573438678
 10
425.47967478088538
 20
-725.31763224154849
 42
0.0135418326353344
 10
425.30796084181316
 20
-725.73257002681873
 10
425.27435603337983
 20
-725.82043616909732
 42
0.0092834542409937
 10
425.10312697345853
 20
-726.29433466740386
 10
425.0775098457421
 20
-726.36957573719371
 42
0.0054261043583129
 10
424.96987169744796
 20
-726.69733971026233
 10
424.95234571125735
 20
-726.75272787253402
 42
0.0008225090818364
 10
424.88367565944048
 20
-726.97099663064159
 10
423.89898652750702
 20
-729.99588792389818
 10
427.13161036758089
 20
-729.99588792389818
 10
426.62741793772744
 20
-731.90036622225057
 10
423.37136165574412
 20
-731.90036622225057
 10
417.5422126233903
 20
-750.71358928825543
 10
415.71711501307999
 20
-750.71358928825543
 10
421.55179304858092
 20
-731.90036622225057
 10
419.14667667954058
 20
-731.90036622225057
 10
419.65086910939402
 20
-729.99588792389818
 10
422.07941792034404
 20
-729.99588792389818
 10
422.93957283853268
 20
-727.35947492319929
 42
-0.0005863560647659
 10
422.97630751670289
 20
-727.24264850301324
 10
423.05239535039658
 20
-727.00165620352209
 42
-0.0087522378927295
 10
423.25186349385331
 20
-726.406380116376
 10
423.3441277692682
 20
-726.14623994785893
 42
-0.0077400953830509
 10
423.60206142839803
 20
-725.45323527031439
 10
423.61782639997961
 20
-725.41280438692149
 42
-0.0082369946329776
 10
423.86491087058886
 20
-724.80872532073261
 42
-0.0085725238364659
 10
424.13215696659103
 20
-724.21329928144701
 10
424.23378656759922
 20
-723.99687817946028
 42
-0.0168109410597003
 10
424.52073099632912
 20
-723.43567065335606
 10
424.64657438678381
 20
-723.20870662036646
 42
-0.0007817726875867
 10
424.70085873684479
 20
-723.11116237532758
 10
424.70098704285414
 20
-723.11093266660532
 42
-0.0036626142159871
 10
424.75587490688332
 20
-723.01433478662261
 42
-0.0080221150672905
 10
424.81299916229153
 20
-722.91905555186736
 10
424.84369911365121
 20
-722.86966460274755
 42
-0.0202139325571684
 10
424.97135485345797
 20
-722.68168300206605
 10
425.02542231864555
 20
-722.6086041378253
 42
-0.024932379179934
 10
425.28458511236448
 20
-722.29255889567116
 10
425.30872492649172
 20
-722.26594462275841
 42
-0.0242132121539367
 10
425.64840566803269
 20
-721.9260611365554
 10
425.69631724078556
 20
-721.88255200036724
 42
-0.0251017527858995
 10
425.98029894142508
 20
-721.64955925460356
 10
425.98174441823454
 20
-721.64848999702781
 42
-0.0130868069041558
 10
426.28000506819615
 20
-721.43970952848213
 10
426.28156688733907
 20
-721.43867608820699
 42
-0.0290329526390521
 10
426.59267802873217
 20
-721.25785058657777
 10
426.62252359071886
 20
-721.24274820373785
 42
-0.0160250190049253
 10
426.88842800448288
 20
-721.11873209352495
 42
-0.0267600374780226
 10
427.1637040819528
 20
-721.01798377297598
 10
427.1904400014725
 20
-721.00979121415071
 42
-0.0049981587669873
 10
427.24561314675947
 20
-720.99348601383826
 42
-0.0049981587669873
  0
LWPOLYLINE
  5
5E
100
AcDbEntity
  8
0
370
              15
390
0
  6
Continuous
 62
               7
100
AcDbPolyline
 90
      118
 70
             128
 10
447.05998071120638
 20
-730.06987125172554
 10
448.93510263570585
 20
-730.06987125172554
 10
448.09706373010596
 20
-732.75143777812559
 42
-0.0010587229257825
 10
448.12851954563075
 20
-732.71453324482536
 10
448.18671363630983
 20
-732.64655098859453
 42
-0.0071874740407658
 10
448.33708885440802
 20
-732.4759102965653
 10
448.47881162767015
 20
-732.3196741552523
 42
-0.0148118053512466
 10
448.92894092038068
 20
-731.85206030924144
 10
449.01616325528926
 20
-731.76666298838131
 42
-0.0086273358692686
 10
449.35171205629308
 20
-731.44928735436929
 10
449.39554577251562
 20
-731.40923771003929
 42
-0.010313832311444
 10
449.65356947475249
 20
-731.18307457269793
 10
449.69934388108254
 20
-731.1445925254352
 42
-0.0060206748564239
 10
449.87219194519179
 20
-731.00279787468332
 10
449.87422307607187
 20
-731.00117216905676
 42
-0.006706902729767
 10
450.04651589074024
 20
-730.86702153525709
 10
450.04906465667159
 20
-730.86509136537768
 42
-0.0076184352044095
 10
450.21996992253759
 20
-730.73971649013799
 42
-0.0089652861669821
 10
450.39493088527649
 20
-730.6200832298025
 10
450.43128260541465
 20
-730.59617201632398
 42
-0.0156916245936708
 10
450.62724210257716
 20
-730.47590952984808
 42
-0.0023299011064779
 10
450.82750414655146
 20
-730.36273159031032
 10
450.84288827893687
 20
-730.35413159524251
 42
-0.0107669341486781
 10
451.07712510403741
 20
-730.22973146189338
 10
451.09938990511307
 20
-730.21851471194304
 42
-0.0078058045897624
 10
451.38298002306459
 20
-730.08115325630513
 10
451.39288711077495
 20
-730.07654412843613
 42
-0.0181829330470271
 10
451.7031965153912
 20
-729.94568038734019
 10
451.75725195795508
 20
-729.9251652673978
 42
-0.0208411536030912
 10
452.10633692540756
 20
-729.80907480490384
 10
452.12069302553584
 20
-729.8049563599501
 42
-0.0222799817137083
 10
452.44941281945228
 20
-729.72631479381005
 10
452.45830178268869
 20
-729.72460278322512
 42
-0.0215509523884332
 10
452.77477275096908
 20
-729.67768709469067
 10
452.81725471201941
 20
-729.67324956789969
 42
-0.0182545924871615
 10
453.05136349132329
 20
-729.6574057425089
 10
453.09076450767247
 20
-729.65618119742965
 42
-0.0072962856532279
 10
453.24668738736023
 20
-729.65361186890755
 10
453.27578705792786
 20
-729.65355703350383
 42
-0.005922751631714
 10
453.37353655707722
 20
-729.65453074529421
 10
453.40277877454344
 20
-729.65516851189739
 42
-0.0011833111910298
 10
453.44203005828155
 20
-729.65611751620759
 10
452.64664346267438
 20
-732.1948514613066
 42
0.0143932051579524
 10
452.62024208032335
 20
-732.1846524912612
 10
452.61297010790651
 20
-732.18208127240393
 42
0.0234388603513583
 10
452.57113924197205
 20
-732.16946203668806
 10
452.56245757906169
 20
-732.16728107468361
 42
0.0199162742978968
 10
452.50216874498147
 20
-732.15466433934841
 10
452.48135480717548
 20
-732.15116713992006
 42
0.0293643550667134
 10
452.37827994841649
 20
-732.14001709426691
 10
452.35359476769599
 20
-732.1388054772483
 42
0.0214606686866137
 10
452.20045385174495
 20
-732.13786691683083
 10
452.19108194092559
 20
-732.13821182837512
 42
0.0167564054183997
 10
452.0195617498145
 20
-732.15028887074345
 10
452.01110195705814
 20
-732.15117021117032
 42
0.0137677553243313
 10
451.82374864379358
 20
-732.17591951971372
 10
451.81639690428563
 20
-732.1770974396818
 42
0.0118497261484463
 10
451.61589914018356
 20
-732.21411478987102
 10
451.60974913293705
 20
-732.21540165259103
 42
0.0106421143891446
 10
451.39886824564951
 20
-732.26423402816647
 10
451.39395943726294
 20
-732.26548137085092
 42
0.0099746379703586
 10
451.17550096809674
 20
-732.32565589916669
 10
451.1139529279302
 20
-732.34393777779633
 42
0.0191613675859323
 10
450.77796846541554
 20
-732.45791515808298
 10
450.68990869266878
 20
-732.49160206840747
 42
0.0205274080144544
 10
450.3046019207685
 20
-732.65743047623391
 10
450.24695263878704
 20
-732.68509844080597
 42
0.0181256912194055
 10
449.98867569811949
 20
-732.8207822597841
 10
449.93572031480471
 20
-732.85109987299938
 42
0.0140709242413967
 10
449.79076538017716
 20
-732.93959454643323
 10
449.76451651156503
 20
-732.95665136514447
 42
0.0086667884392712
 10
449.67559035001614
 20
-733.0166540330315
 42
0.0036408192027173
 10
449.58815711197201
 20
-733.07883489083156
 10
449.55293023751415
 20
-733.10427583673663
 42
0.0052260781275402
 10
449.39670154011839
 20
-733.21960822337439
 10
449.3804946838635
 20
-733.23183633398901
 42
0.0050024435894474
 10
449.19449134081617
 20
-733.37511890224221
 10
449.17917318428948
 20
-733.387164924697
 42
0.013613871027981
 10
448.9687319159645
 20
-733.56213142961008
 10
448.93506404017057
 20
-733.59171040232457
 42
0.0172815186916149
 10
448.67066049850825
 20
-733.84070707494777
 10
448.66809815266549
 20
-733.84329289209506
 42
0.0189403857992636
 10
448.41751635408599
 20
-734.11609815689974
 10
448.38488486055178
 20
-734.15444208839483
 42
0.0185044199504352
 10
448.19292842157034
 20
-734.39769066951942
 42
0.0088565243900166
 10
448.01446831494002
 20
-734.65120708967231
 10
448.00529033529341
 20
-734.66474846942947
 42
0.0157195347228271
 10
447.82206972895858
 20
-734.9542706787463
 10
447.77598678703004
 20
-735.03242287576325
 42
0.0095451879781182
 10
447.61090123689081
 20
-735.32501751812254
 10
447.59975331795869
 20
-735.34568819025912
 42
0.0100351706258516
 10
447.46770956880187
 20
-735.60274375074528
 42
0.0086935915421987
 10
447.34537841700734
 20
-735.86457689615088
 10
447.34205767559337
 20
-735.87201921912151
 42
0.0072580174865168
 10
447.22171122364739
 20
-736.15261121070694
 10
447.21844959034206
 20
-736.16053123672248
 42
0.0060005122614634
 10
447.09924892199666
 20
-736.4601409073349
 10
447.09603794365779
 20
-736.46850243523238
 42
0.004901778698064
 10
446.9771377847996
 20
-736.7874314158388
 10
446.97397197840991
 20
-736.79618435306713
 42
0.0039415167603093
 10
446.85453570035179
 20
-737.13472641548447
 10
446.85140459770105
 20
-737.14382961635647
 42
0.0031035838762214
 10
446.73059981201231
 20
-737.502269478117
 10
446.72748976747761
 20
-737.51169009950479
 42
0.0025070747153538
 10
446.60458841616423
 20
-737.89033731644247
 10
446.56729451973683
 20
-738.0072289817017
 42
0.0029081910285265
 10
446.3752762219205
 20
-738.62139264001121
 10
446.334473053409
 20
-738.75461588226926
 42
0.0009266453733613
 10
446.06605567908827
 20
-739.63684034221251
 10
446.04516820642823
 20
-739.70595222151258
 42
-0.0005809993664994
 10
445.7678315258625
 20
-740.61976032806763
 10
445.7015497275961
 20
-740.8372452602058
 42
-0.001201870816861
 10
445.55456541816034
 20
-741.315407924748
 10
445.50224556658162
 20
-741.48416706565615
 42
-0.0002691059608198
 10
445.45867608542625
 20
-741.62443468595575
 10
442.62572018713701
 20
-750.71358928825543
 10
440.80773129515848
 20
-750.71358928825543
 10
447.05998071120638
 20
-730.06987125172554
  0
SPLINE
  5
5F
100
AcDbEntity
  8
0
370
              15
390
0
  6
Continuous
 62
               7
100
AcDbSpline
210
0.0
220
0.0
230
1.0
 70
              13
 71
               2
 72
             782
 73
             779
 74
               0
 42
0.000001
 43
0.000001
 40
0.0
 40
0.0
 40
0.0
 40
1.0
 40
1.0
 40
2.0
 40
2.0
 40
3.0
 40
3.0
 40
4.0
 40
4.0
 40
5.0
 40
5.0
 40
6.0
 40
6.0
 40
7.0
 40
7.0
 40
8.0
 40
8.0
 40
9.0
 40
9.0
 40
10.0
 40
10.0
 40
11.0
 40
11.0
 40
12.0
 40
12.0
 40
13.0
 40
13.0
 40
14.0
 40
14.0
 40
15.0
 40
15.0
 40
16.0
 40
16.0
 40
17.0
 40
17.0
 40
18.0
 40
18.0
 40
19.0
 40
19.0
 40
20.0
 40
20.0
 40
21.0
 40
21.0
 40
22.0
 40
22.0
 40
23.0
 40
23.0
 40
24.0
 40
24.0
 40
25.0
 40
25.0
 40
26.0
 40
26.0
 40
27.0
 40
27.0
 40
28.0
 40
28.0
 40
29.0
 40
29.0
 40
30.0
 40
30.0
 40
31.0
 40
31.0
 40
32.0
 40
32.0
 40
33.0
 40
33.0
 40
34.0
 40
34.0
 40
35.0
 40
35.0
 40
36.0
 40
36.0
 40
37.0
 40
37.0
 40
38.0
 40
38.0
 40
39.0
 40
39.0
 40
40.0
 40
40.0
 40
41.0
 40
41.0
 40
42.0
 40
42.0
 40
43.0
 40
43.0
 40
44.0
 40
44.0
 40
45.0
 40
45.0
 40
46.0
 40
46.0
 40
47.0
 40
47.0
 40
48.0
 40
48.0
 40
49.0
 40
49.0
 40
50.0
 40
50.0
 40
51.0
 40
51.0
 40
52.0
 40
52.0
 40
53.0
 40
53.0
 40
54.0
 40
54.0
 40
55.0
 40
55.0
 40
56.0
 40
56.0
 40
57.0
 40
57.0
 40
58.0
 40
58.0
 40
59.0
 40
59.0
 40
60.0
 40
60.0
 40
61.0
 40
61.0
 40
62.0
 40
62.0
 40
63.0
 40
63.0
 40
64.0
 40
64.0
 40
65.0
 40
65.0
 40
66.0
 40
66.0
 40
67.0
 40
67.0
 40
68.0
 40
68.0
 40
69.0
 40
69.0
 40
70.0
 40
70.0
 40
71.0
 40
71.0
 40
72.0
 40
72.0
 40
73.0
 40
73.0
 40
74.0
 40
74.0
 40
75.0
 40
75.0
 40
76.0
 40
76.0
 40
77.0
 40
77.0
 40
78.0
 40
78.0
 40
79.0
 40
79.0
 40
80.0
 40
80.0
 40
81.0
 40
81.0
 40
82.0
 40
82.0
 40
83.0
 40
83.0
 40
84.0
 40
84.0
 40
85.0
 40
85.0
 40
86.0
 40
86.0
 40
87.0
 40
87.0
 40
88.0
 40
88.0
 40
89.0
 40
89.0
 40
90.0
 40
90.0
 40
91.0
 40
91.0
 40
92.0
 40
92.0
 40
93.0
 40
93.0
 40
94.0
 40
94.0
 40
95.0
 40
95.0
 40
96.0
 40
96.0
 40
97.0
 40
97.0
 40
98.0
 40
98.0
 40
99.0
 40
99.0
 40
100.0
 40
100.0
 40
101.0
 40
101.0
 40
102.0
 40
102.0
 40
103.0
 40
103.0
 40
104.0
 40
104.0
 40
105.0
 40
105.0
 40
106.0
 40
106.0
 40
107.0
 40
107.0
 40
108.0
 40
108.0
 40
109.0
 40
109.0
 40
110.0
 40
110.0
 40
111.0
 40
111.0
 40
112.0
 40
112.0
 40
113.0
 40
113.0
 40
114.0
 40
114.0
 40
115.0
 40
115.0
 40
116.0
 40
116.0
 40
117.0
 40
117.0
 40
118.0
 40
118.0
 40
119.0
 40
119.0
 40
120.0
 40
120.0
 40
121.0
 40
121.0
 40
122.0
 40
122.0
 40
123.0
 40
123.0
 40
124.0
 40
124.0
 40
125.0
 40
125.0
 40
126.0
 40
126.0
 40
127.0
 40
127.0
 40
128.0
 40
128.0
 40
129.0
 40
129.0
 40
130.0
 40
130.0
 40
131.0
 40
131.0
 40
132.0
 40
132.0
 40
133.0
 40
133.0
 40
134.0
 40
134.0
 40
135.0
 40
135.0
 40
136.0
 40
136.0
 40
137.0
 40
137.0
 40
138.0
 40
138.0
 40
139.0
 40
139.0
 40
140.0
 40
140.0
 40
141.0
 40
141.0
 40
142.0
 40
142.0
 40
143.0
 40
143.0
 40
144.0
 40
144.0
 40
145.0
 40
145.0
 40
146.0
 40
146.0
 40
147.0
 40
147.0
 40
148.0
 40
148.0
 40
149.0
 40
149.0
 40
150.0
 40
150.0
 40
151.0
 40
151.0
 40
152.0
 40
152.0
 40
153.0
 40
153.0
 40
154.0
 40
154.0
 40
155.0
 40
155.0
 40
156.0
 40
156.0
 40
157.0
 40
157.0
 40
158.0
 40
158.0
 40
159.0
 40
159.0
 40
160.0
 40
160.0
 40
161.0
 40
161.0
 40
162.0
 40
162.0
 40
163.0
 40
163.0
 40
164.0
 40
164.0
 40
165.0
 40
165.0
 40
166.0
 40
166.0
 40
167.0
 40
167.0
 40
168.0
 40
168.0
 40
169.0
 40
169.0
 40
170.0
 40
170.0
 40
171.0
 40
171.0
 40
172.0
 40
172.0
 40
173.0
 40
173.0
 40
174.0
 40
174.0
 40
175.0
 40
175.0
 40
176.0
 40
176.0
 40
177.0
 40
177.0
 40
178.0
 40
178.0
 40
179.0
 40
179.0
 40
180.0
 40
180.0
 40
181.0
 40
181.0
 40
182.0
 40
182.0
 40
183.0
 40
183.0
 40
184.0
 40
184.0
 40
185.0
 40
185.0
 40
186.0
 40
186.0
 40
187.0
 40
187.0
 40
188.0
 40
188.0
 40
189.0
 40
189.0
 40
190.0
 40
190.0
 40
191.0
 40
191.0
 40
192.0
 40
192.0
 40
193.0
 40
193.0
 40
194.0
 40
194.0
 40
195.0
 40
195.0
 40
196.0
 40
196.0
 40
197.0
 40
197.0
 40
198.0
 40
198.0
 40
199.0
 40
199.0
 40
200.0
 40
200.0
 40
201.0
 40
201.0
 40
202.0
 40
202.0
 40
203.0
 40
203.0
 40
204.0
 40
204.0
 40
205.0
 40
205.0
 40
206.0
 40
206.0
 40
207.0
 40
207.0
 40
208.0
 40
208.0
 40
209.0
 40
209.0
 40
210.0
 40
210.0
 40
211.0
 40
211.0
 40
212.0
 40
212.0
 40
213.0
 40
213.0
 40
214.0
 40
214.0
 40
215.0
 40
215.0
 40
216.0
 40
216.0
 40
217.0
 40
217.0
 40
218.0
 40
218.0
 40
219.0
 40
219.0
 40
220.0
 40
220.0
 40
221.0
 40
221.0
 40
222.0
 40
222.0
 40
223.0
 40
223.0
 40
224.0
 40
224.0
 40
225.0
 40
225.0
 40
226.0
 40
226.0
 40
227.0
 40
227.0
 40
228.0
 40
228.0
 40
229.0
 40
229.0
 40
230.0
 40
230.0
 40
231.0
 40
231.0
 40
232.0
 40
232.0
 40
233.0
 40
233.0
 40
234.0
 40
234.0
 40
235.0
 40
235.0
 40
236.0
 40
236.0
 40
237.0
 40
237.0
 40
238.0
 40
238.0
 40
239.0
 40
239.0
 40
240.0
 40
240.0
 40
241.0
 40
241.0
 40
242.0
 40
242.0
 40
243.0
 40
243.0
 40
244.0
 40
244.0
 40
245.0
 40
245.0
 40
246.0
 40
246.0
 40
247.0
 40
247.0
 40
248.0
 40
248.0
 40
249.0
 40
249.0
 40
250.0
 40
250.0
 40
251.0
 40
251.0
 40
252.0
 40
252.0
 40
253.0
 40
253.0
 40
254.0
 40
254.0
 40
255.0
 40
255.0
 40
256.0
 40
256.0
 40
257.0
 40
257.0
 40
258.0
 40
258.0
 40
259.0
 40
259.0
 40
260.0
 40
260.0
 40
261.0
 40
261.0
 40
262.0
 40
262.0
 40
263.0
 40
263.0
 40
264.0
 40
264.0
 40
265.0
 40
265.0
 40
266.0
 40
266.0
 40
267.0
 40
267.0
 40
268.0
 40
268.0
 40
269.0
 40
269.0
 40
270.0
 40
270.0
 40
271.0
 40
271.0
 40
272.0
 40
272.0
 40
273.0
 40
273.0
 40
274.0
 40
274.0
 40
275.0
 40
275.0
 40
276.0
 40
276.0
 40
277.0
 40
277.0
 40
278.0
 40
278.0
 40
279.0
 40
279.0
 40
280.0
 40
280.0
 40
281.0
 40
281.0
 40
282.0
 40
282.0
 40
283.0
 40
283.0
 40
284.0
 40
284.0
 40
285.0
 40
285.0
 40
286.0
 40
286.0
 40
287.0
 40
287.0
 40
288.0
 40
288.0
 40
289.0
 40
289.0
 40
290.0
 40
290.0
 40
291.0
 40
291.0
 40
292.0
 40
292.0
 40
293.0
 40
293.0
 40
294.0
 40
294.0
 40
295.0
 40
295.0
 40
296.0
 40
296.0
 40
297.0
 40
297.0
 40
298.0
 40
298.0
 40
299.0
 40
299.0
 40
300.0
 40
300.0
 40
301.0
 40
301.0
 40
302.0
 40
302.0
 40
303.0
 40
303.0
 40
304.0
 40
304.0
 40
305.0
 40
305.0
 40
306.0
 40
306.0
 40
307.0
 40
307.0
 40
308.0
 40
308.0
 40
309.0
 40
309.0
 40
310.0
 40
310.0
 40
311.0
 40
311.0
 40
312.0
 40
312.0
 40
313.0
 40
313.0
 40
314.0
 40
314.0
 40
315.0
 40
315.0
 40
316.0
 40
316.0
 40
317.0
 40
317.0
 40
318.0
 40
318.0
 40
319.0
 40
319.0
 40
320.0
 40
320.0
 40
321.0
 40
321.0
 40
322.0
 40
322.0
 40
323.0
 40
323.0
 40
324.0
 40
324.0
 40
325.0
 40
325.0
 40
326.0
 40
326.0
 40
327.0
 40
327.0
 40
328.0
 40
328.0
 40
329.0
 40
329.0
 40
330.0
 40
330.0
 40
331.0
 40
331.0
 40
332.0
 40
332.0
 40
333.0
 40
333.0
 40
334.0
 40
334.0
 40
335.0
 40
335.0
 40
336.0
 40
336.0
 40
337.0
 40
337.0
 40
338.0
 40
338.0
 40
339.0
 40
339.0
 40
340.0
 40
340.0
 40
341.0
 40
341.0
 40
342.0
 40
342.0
 40
343.0
 40
343.0
 40
344.0
 40
344.0
 40
345.0
 40
345.0
 40
346.0
 40
346.0
 40
347.0
 40
347.0
 40
348.0
 40
348.0
 40
349.0
 40
349.0
 40
350.0
 40
350.0
 40
351.0
 40
351.0
 40
352.0
 40
352.0
 40
353.0
 40
353.0
 40
354.0
 40
354.0
 40
355.0
 40
355.0
 40
356.0
 40
356.0
 40
357.0
 40
357.0
 40
358.0
 40
358.0
 40
359.0
 40
359.0
 40
360.0
 40
360.0
 40
361.0
 40
361.0
 40
362.0
 40
362.0
 40
363.0
 40
363.0
 40
364.0
 40
364.0
 40
365.0
 40
365.0
 40
366.0
 40
366.0
 40
367.0
 40
367.0
 40
368.0
 40
368.0
 40
369.0
 40
369.0
 40
370.0
 40
370.0
 40
371.0
 40
371.0
 40
372.0
 40
372.0
 40
373.0
 40
373.0
 40
374.0
 40
374.0
 40
375.0
 40
375.0
 40
376.0
 40
376.0
 40
377.0
 40
377.0
 40
378.0
 40
378.0
 40
379.0
 40
379.0
 40
380.0
 40
380.0
 40
381.0
 40
381.0
 40
382.0
 40
382.0
 40
383.0
 40
383.0
 40
384.0
 40
384.0
 40
385.0
 40
385.0
 40
386.0
 40
386.0
 40
387.0
 40
387.0
 40
388.0
 40
388.0
 40
389.0
 40
389.0
 40
389.0
 10
457.38868516193901
 20
-730.05894488836316
 30
0.0
 41
1.0
 10
458.20710927065949
 20
-730.05894488836316
 30
0.0
 41
1.0
 10
459.02553337937997
 20
-730.05894488836316
 30
0.0
 41
1.0
 10
458.6117796438632
 20
-731.40157115261286
 30
0.0
 41
1.0
 10
458.19802590834644
 20
-732.74419741686256
 30
0.0
 41
1.0
 10
458.21636540351574
 20
-732.71549664394888
 30
0.0
 41
0.9999957264408237
 10
458.23487240034882
 20
-732.6869035937948
 30
0.0
 41
1.0
 10
458.26530172448429
 20
-732.63989071542176
 30
0.0
 41
1.0
 10
458.2957310486197
 20
-732.59287783704872
 30
0.0
 41
1.0
 10
458.3750966937256
 20
-732.47025903014571
 30
0.0
 41
0.9995394069081717
 10
458.46175508527767
 20
-732.35268096840377
 30
0.0
 41
1.0
 10
458.49751194753753
 20
-732.30416607581014
 30
0.0
 41
1.0
 10
458.53326880979739
 20
-732.25565118321663
 30
0.0
 41
1.0
 10
458.66699547761482
 20
-732.07421090809055
 30
0.0
 41
0.9994460617142987
 10
458.81249595890341
 20
-731.90206851044024
 30
0.0
 41
1.0
 10
458.81688413987945
 20
-731.89687683005639
 30
0.0
 41
1.0
 10
458.82127232085554
 20
-731.89168514967253
 30
0.0
 41
1.0
 10
458.95799644019257
 20
-731.72992611278937
 30
0.0
 41
0.999435939493427
 10
459.10527067054272
 20
-731.57770991162602
 30
0.0
 41
1.0
 10
459.10765402449681
 20
-731.57524658125203
 30
0.0
 41
1.0
 10
459.1100373784509
 20
-731.57278325087816
 30
0.0
 41
1.0
 10
459.25254490089486
 20
-731.42549371046073
 30
0.0
 41
0.9995293688567698
 10
459.40381658187636
 20
-731.28722049829719
 30
0.0
 41
1.0
 10
459.42311034113823
 20
-731.26958461264735
 30
0.0
 41
1.0
 10
459.4424041004001
 20
-731.25194872699751
 30
0.0
 41
1.0
 10
459.55508826285723
 20
-731.14894728613422
 30
0.0
 41
0.9997087614804051
 10
459.6726111518135
 20
-731.05150300533523
 30
0.0
 41
1.0
 10
459.69177722499001
 20
-731.03561142682656
 30
0.0
 41
1.0
 10
459.71094329816646
 20
-731.01971984831778
 30
0.0
 41
1.0
 10
459.79013404077114
 20
-730.95405872453534
 30
0.0
 41
0.99995953386985
 10
459.8704933116237
 20
-730.88983299388235
 30
0.0
 41
1.0
 10
459.95085258248116
 20
-730.82560726322561
 30
0.0
 41
0.9999749417508941
 10
460.03211311682867
 20
-730.76252570927602
 30
0.0
 41
1.0
 10
460.05309926299304
 20
-730.74623442197299
 30
0.0
 41
1.0
 10
460.07408540915742
 20
-730.72994313466984
 30
0.0
 41
1.0
 10
460.15865329445512
 20
-730.66429412483205
 30
0.0
 41
0.9999792037114579
 10
460.24406089422473
 20
-730.59974134318838
 30
0.0
 41
1.0
 10
460.26488572013307
 20
-730.58400152093304
 30
0.0
 41
1.0
 10
460.2857105460414
 20
-730.5682616986777
 30
0.0
 41
1.0
 10
460.32946849399849
 20
-730.53518856154164
 30
0.0
 41
0.9999993374208753
 10
460.37315018013743
 20
-730.50201476612074
 30
0.0
 41
1.0
 10
460.41683186627847
 20
-730.46884097069824
 30
0.0
 41
0.9999160953814406
 10
460.46135827719411
 20
-730.43680990550297
 30
0.0
 41
1.0
 10
460.49418016461664
 20
-730.41319874991586
 30
0.0
 41
1.0
 10
460.52700205203922
 20
-730.38958759432865
 30
0.0
 41
1.0
 10
460.6371722377973
 20
-730.31033421796087
 30
0.0
 41
0.9980964527231461
 10
460.75626123129814
 20
-730.24524674510485
 30
0.0
 41
1.0
 10
460.79329383822642
 20
-730.22500676551158
 30
0.0
 41
1.0
 10
460.83032644515464
 20
-730.20476678591842
 30
0.0
 41
1.0
 10
461.00965345842781
 20
-730.10675653521719
 30
0.0
 41
0.9984572810572824
 10
461.1987420247865
 20
-730.02923427387088
 30
0.0
 41
1.0
 10
461.20238829418247
 20
-730.02773938153291
 30
0.0
 41
1.0
 10
461.20603456357844
 20
-730.02624448919482
 30
0.0
 41
1.0
 10
461.38783059114559
 20
-729.95171201252447
 30
0.0
 41
0.9987838528034075
 10
461.57608324970465
 20
-729.89544637235872
 30
0.0
 41
1.0
 10
461.58032119890316
 20
-729.89417971866851
 30
0.0
 41
1.0
 10
461.58455914810168
 20
-729.89291306497842
 30
0.0
 41
1.0
 10
461.76433590826372
 20
-729.83918073219297
 30
0.0
 41
0.9990652816207321
 10
461.94808183997975
 20
-729.80117705265093
 30
0.0
 41
1.0
 10
461.95327024101096
 20
-729.80010394954445
 30
0.0
 41
1.0
 10
461.95845864204222
 20
-729.79903084643797
 30
0.0
 41
1.0
 10
462.13182777169544
 20
-729.76317337310888
 30
0.0
 41
0.9992909934270295
 10
462.30740353815395
 20
-729.74046294064237
 30
0.0
 41
1.0
 10
462.48297930461149
 20
-729.71775250817586
 30
0.0
 41
0.9994553539448264
 10
462.65967073770383
 20
-729.70667320396967
 30
0.0
 41
1.0
 10
462.69510514550041
 20
-729.7044513159218
 30
0.0
 41
1.0
 10
462.73053955329698
 20
-729.70222942787393
 30
0.0
 41
1.0
 10
462.8967653198664
 20
-729.6918063654623
 30
0.0
 41
0.999092809829302
 10
463.06327511176869
 20
-729.69556600669682
 30
0.0
 41
1.0
 10
463.10183694704074
 20
-729.69643669822972
 30
0.0
 41
1.0
 10
463.14039878231273
 20
-729.69730738976273
 30
0.0
 41
1.0
 10
463.22978490367154
 20
-729.69932564793135
 30
0.0
 41
0.9998382089205797
 10
463.31904058645756
 20
-729.70455777445943
 30
0.0
 41
1.0
 10
463.31947049267905
 20
-729.70458297536175
 30
0.0
 41
1.0
 10
463.31990039890053
 20
-729.70460817626417
 30
0.0
 41
1.0
 10
463.40829626924545
 20
-729.70978990098763
 30
0.0
 41
0.9997558016758562
 10
463.49637684644455
 20
-729.71887241635397
 30
0.0
 41
1.0
 10
463.49685298487412
 20
-729.71892151383656
 30
0.0
 41
1.0
 10
463.4973291233037
 20
-729.71897061131915
 30
0.0
 41
1.0
 10
463.58445742364512
 20
-729.72795493172043
 30
0.0
 41
0.9996565144181419
 10
463.67099527698747
 20
-729.74149223840948
 30
0.0
 41
1.0
 10
463.67146120236464
 20
-729.74156512414083
 30
0.0
 41
1.0
 10
463.67192712774175
 20
-729.74163800987208
 30
0.0
 41
1.0
 10
463.75753313032919
 20
-729.75502954509841
 30
0.0
 41
0.9995321806866773
 10
463.84216021065748
 20
-729.77363003352775
 30
0.0
 41
1.0
 10
463.84254940522942
 20
-729.77371557599361
 30
0.0
 41
1.0
 10
463.8429385998013
 20
-729.77380111845946
 30
0.0
 41
1.0
 10
463.92678729098566
 20
-729.79223052195709
 30
0.0
 41
0.9993819199219713
 10
464.00913382518166
 20
-729.8165059052177
 30
0.0
 41
1.0
 10
464.00937225868029
 20
-729.81657619432724
 30
0.0
 41
1.0
 10
464.00961069217897
 20
-729.81664648343678
 30
0.0
 41
1.0
 10
464.09148035937858
 20
-729.84078128847864
 30
0.0
 41
0.9992088568505445
 10
464.17117287836612
 20
-729.87134652427278
 30
0.0
 41
1.0
 10
464.25085386924519
 20
-729.90190612500601
 30
0.0
 41
0.9990226101773315
 10
464.32752453915231
 20
-729.93938355662056
 30
0.0
 41
1.0
 10
464.4041836809505
 20
-729.97685535317396
 30
0.0
 41
0.9988424273972323
 10
464.47688730816247
 20
-730.0215201284268
 30
0.0
 41
1.0
 10
464.47715501654193
 20
-730.02168459249901
 30
0.0
 41
1.0
 10
464.47742272492138
 20
-730.02184905657134
 30
0.0
 41
1.0
 10
464.55066176889227
 20
-730.06684275996872
 30
0.0
 41
0.9986928844491277
 10
464.61892463560253
 20
-730.1190784942487
 30
0.0
 41
1.0
 10
464.61950592782506
 20
-730.11952330747636
 30
0.0
 41
1.0
 10
464.62008722004759
 20
-730.11996812070413
 30
0.0
 41
1.0
 10
464.68951267120275
 20
-730.17309348143931
 30
0.0
 41
0.9986007262278075
 10
464.75293884096914
 20
-730.23325425113262
 30
0.0
 41
1.0
 10
464.75383325642656
 20
-730.23410261896788
 30
0.0
 41
1.0
 10
464.75472767188404
 20
-730.23495098680326
 30
0.0
 41
1.0
 10
464.81994267256528
 20
-730.29680849216709
 30
0.0
 41
0.9985581491381335
 10
464.87815028426706
 20
-730.36530098243884
 30
0.0
 41
1.0
 10
464.88740873786276
 20
-730.37619534014038
 30
0.0
 41
1.0
 10
464.8966671914585
 20
-730.38708969784204
 30
0.0
 41
1.0
 10
464.97339171035179
 20
-730.47737090351723
 30
0.0
 41
0.9970460233520683
 10
465.03538361151129
 20
-730.578337987699
 30
0.0
 41
1.0
 10
465.04985297659113
 20
-730.60190444678074
 30
0.0
 41
1.0
 10
465.06432234167096
 20
-730.62547090586247
 30
0.0
 41
1.0
 10
465.10405904168306
 20
-730.69019062989412
 30
0.0
 41
0.9988468816636662
 10
465.13740541243402
 20
-730.75842308232063
 30
0.0
 41
1.0
 10
465.14444143492545
 20
-730.77282000345804
 30
0.0
 41
1.0
 10
465.15147745741689
 20
-730.78721692459533
 30
0.0
 41
1.0
 10
465.17075178318464
 20
-730.82665553474646
 30
0.0
 41
0.9998431189998792
 10
465.18861711068053
 20
-730.86675208918905
 30
0.0
 41
1.0
 10
465.2064824381734
 20
-730.90684864362493
 30
0.0
 41
0.9999989989772224
 10
465.22446116159711
 20
-730.94689448121267
 30
0.0
 41
1.0
 10
465.23063347319157
 20
-730.96064269802582
 30
0.0
 41
1.0
 10
465.23680578478599
 20
-730.97439091483886
 30
0.0
 41
1.0
 10
465.26712913139579
 20
-731.04193318604621
 30
0.0
 41
0.9998790356322693
 10
465.29533701153457
 20
-731.1103859379856
 30
0.0
 41
1.0
 10
465.30217219281906
 20
-731.12697303941343
 30
0.0
 41
1.0
 10
465.30900737410354
 20
-731.14356014084126
 30
0.0
 41
1.0
 10
465.332565036483
 20
-731.20072809572446
 30
0.0
 41
0.999822757456168
 10
465.35395378487266
 20
-731.25874240400287
 30
0.0
 41
1.0
 10
465.37534253326208
 20
-731.31675671228061
 30
0.0
 41
0.9996797971041704
 10
465.3937688182213
 20
-731.37577883139886
 30
0.0
 41
1.0
 10
465.39767262094676
 20
-731.38828328956765
 30
0.0
 41
1.0
 10
465.40157642367228
 20
-731.40078774773633
 30
0.0
 41
1.0
 10
465.42781031408259
 20
-731.48481878319251
 30
0.0
 41
0.9979274938734464
 10
465.4430348375617
 20
-731.57152314185237
 30
0.0
 41
1.0
 10
465.44525852482275
 20
-731.58418714267259
 30
0.0
 41
1.0
 10
465.44748221208374
 20
-731.59685114349281
 30
0.0
 41
1.0
 10
465.45841215178223
 20
-731.65909765078413
 30
0.0
 41
0.9994985982137338
 10
465.46538031695934
 20
-731.7219111519272
 30
0.0
 41
1.0
 10
465.47234848213623
 20
-731.78472465306913
 30
0.0
 41
0.9996372611201245
 10
465.47592434790408
 20
-731.84782223175205
 30
0.0
 41
1.0
 10
465.47609292539335
 20
-731.85079684883385
 30
0.0
 41
1.0
 10
465.47626150288266
 20
-731.85377146591577
 30
0.0
 41
1.0
 10
465.48017452362893
 20
-731.92281827875968
 30
0.0
 41
0.9997730630736705
 10
465.48114283711709
 20
-731.99196910279397
 30
0.0
 41
1.0
 10
465.48119994353522
 20
-731.99604728193685
 30
0.0
 41
1.0
 10
465.48125704995334
 20
-732.00012546107973
 30
0.0
 41
1.0
 10
465.4823395762777
 20
-732.07743264339467
 30
0.0
 41
0.9998772614070075
 10
465.48099948954592
 20
-732.15473578995977
 30
0.0
 41
1.0
 10
465.48091022634719
 20
-732.15988495379588
 30
0.0
 41
1.0
 10
465.4808209631484
 20
-732.16503411763188
 30
0.0
 41
1.0
 10
465.47930235001911
 20
-732.25263559186897
 30
0.0
 41
0.9999415567323612
 10
465.47589003977305
 20
-732.34018375354663
 30
0.0
 41
1.0
 10
465.47564871909782
 20
-732.34637521328125
 30
0.0
 41
1.0
 10
465.47540739842259
 20
-732.35256667301587
 30
0.0
 41
1.0
 10
465.47151244682556
 20
-732.45249775417346
 30
0.0
 41
0.9999716810428037
 10
465.46611386370711
 20
-732.55235889240066
 30
0.0
 41
1.0
 10
465.46290106491847
 20
-732.61178814205527
 30
0.0
 41
1.0
 10
465.45968826612983
 20
-732.67121739170989
 30
0.0
 41
1.0
 10
465.45161435697702
 20
-732.82056579299467
 30
0.0
 41
0.9999819129897545
 10
465.44174456536064
 20
-732.96980627070138
 30
0.0
 41
1.0
 10
465.43187477374403
 20
-733.11904674841276
 30
0.0
 41
1.0
 10
465.42943545318013
 20
-733.15623979426209
 30
0.0
 41
1.0
 10
465.45213368702343
 20
-733.1174987969116
 30
0.0
 41
0.9999982128039908
 10
465.47497824578682
 20
-733.07884390294009
 30
0.0
 41
1.0
 10
465.50188780566157
 20
-733.03331068890202
 30
0.0
 41
1.0
 10
465.52879736553626
 20
-732.98777747486406
 30
0.0
 41
1.0
 10
465.6054610440616
 20
-732.85805615279514
 30
0.0
 41
0.9998609190055723
 10
465.68640835692401
 20
-732.73096377086483
 30
0.0
 41
1.0
 10
465.71605667840504
 20
-732.68441403790871
 30
0.0
 41
1.0
 10
465.74570499988602
 20
-732.6378643049527
 30
0.0
 41
1.0
 10
465.8279772201243
 20
-732.50869173495585
 30
0.0
 41
0.9999067609732859
 10
465.91374622958847
 20
-732.38181404551426
 30
0.0
 41
1.0
 10
465.91615093279063
 20
-732.37825677945762
 30
0.0
 41
1.0
 10
465.91855563599279
 20
-732.37469951340086
 30
0.0
 41
1.0
 10
465.99951523905406
 20
-732.25493635607086
 30
0.0
 41
0.9998784952148444
 10
466.0841688487339
 20
-732.13775513936423
 30
0.0
 41
1.0
 10
466.16882245841418
 20
-732.02057392265692
 30
0.0
 41
0.9998532968283372
 10
466.25744007923709
 20
-731.90636101418613
 30
0.0
 41
1.0
 10
466.27740186822871
 20
-731.88063369316535
 30
0.0
 41
1.0
 10
466.29736365722033
 20
-731.85490637214457
 30
0.0
 41
1.0
 10
466.41584770697898
 20
-731.70220076117619
 30
0.0
 41
0.9991551975795355
 10
466.54647215660248
 20
-731.55974119909274
 30
0.0
 41
1.0
 10
466.54998177258369
 20
-731.55591359746677
 30
0.0
 41
1.0
 10
466.55349138856485
 20
-731.55208599584091
 30
0.0
 41
1.0
 10
466.67709660622785
 20
-731.41728163700725
 30
0.0
 41
0.9997418144180957
 10
466.80669874592661
 20
-731.28823222639676
 30
0.0
 41
1.0
 10
466.93630088562713
 20
-731.15918281578433
 30
0.0
 41
0.9989238204633238
 10
467.07730343387726
 20
-731.04269785374618
 30
0.0
 41
1.0
 10
467.12255111201807
 20
-731.00531786213639
 30
0.0
 41
1.0
 10
467.16779879015883
 20
-730.96793787052661
 30
0.0
 41
1.0
 10
467.30803884737986
 20
-730.85208281723624
 30
0.0
 41
0.9990825084096815
 10
467.4576787799827
 20
-730.74865381940401
 30
0.0
 41
1.0
 10
467.46772414403557
 20
-730.74171060632727
 30
0.0
 41
1.0
 10
467.47776950808844
 20
-730.73476739325054
 30
0.0
 41
1.0
 10
467.60731871258258
 20
-730.64522482157361
 30
0.0
 41
0.999816489982521
 10
467.74020291596293
 20
-730.56071058005466
 30
0.0
 41
1.0
 10
467.75204847648934
 20
-730.55317681352869
 30
0.0
 41
1.0
 10
467.7638940370158
 20
-730.54564304700273
 30
0.0
 41
1.0
 10
467.87308711933997
 20
-730.47619633853787
 30
0.0
 41
0.9997473449130199
 10
467.98529107658862
 20
-730.4117273807226
 30
0.0
 41
1.0
 10
468.09749503384035
 20
-730.34725842290561
 30
0.0
 41
0.9999327861143287
 10
468.21116364460948
 20
-730.28540843122107
 30
0.0
 41
1.0
 10
468.21171564716622
 20
-730.28510807254406
 30
0.0
 41
1.0
 10
468.21226764972295
 20
-730.28480771386717
 30
0.0
 41
1.0
 10
468.32704026560651
 20
-730.22235700482815
 30
0.0
 41
0.9996956420483047
 10
468.44475359144633
 20
-730.1656435378535
 30
0.0
 41
1.0
 10
468.47519399633978
 20
-730.15097756112311
 30
0.0
 41
1.0
 10
468.50563440123324
 20
-730.13631158439273
 30
0.0
 41
1.0
 10
468.6086115079778
 20
-730.08669792594901
 30
0.0
 41
0.9998070570176376
 10
468.71345789691821
 20
-730.04116733904823
 30
0.0
 41
1.0
 10
468.81830428585818
 20
-729.99563675214756
 30
0.0
 41
0.9997827436147708
 10
468.92495722246684
 20
-729.95451558083619
 30
0.0
 41
1.0
 10
468.94418007209936
 20
-729.94710400720339
 30
0.0
 41
1.0
 10
468.96340292173181
 20
-729.9396924335706
 30
0.0
 41
1.0
 10
469.10850155760534
 20
-729.88374811499364
 30
0.0
 41
0.9988031841976534
 10
469.25837192021072
 20
-729.84224805082579
 30
0.0
 41
1.0
 10
469.28328916857379
 20
-729.8353483050189
 30
0.0
 41
1.0
 10
469.30820641693691
 20
-729.82844855921212
 30
0.0
 41
1.0
 10
469.47547644258344
 20
-729.78213041680544
 30
0.0
 41
0.9984748040549893
 10
469.64683335123181
 20
-729.75453618454071
 30
0.0
 41
1.0
 10
469.65157248748011
 20
-729.7537730240274
 30
0.0
 41
1.0
 10
469.65631162372841
 20
-729.75300986351397
 30
0.0
 41
1.0
 10
469.81819025988023
 20
-729.72694195227587
 30
0.0
 41
0.9984436495479936
 10
469.98196500360552
 20
-729.71906399845716
 30
0.0
 41
1.0
 10
470.00366221173704
 20
-729.71802031125753
 30
0.0
 41
1.0
 10
470.02535941986855
 20
-729.71697662405779
 30
0.0
 41
1.0
 10
470.14573974733031
 20
-729.71118604463845
 30
0.0
 41
0.9987954789335486
 10
470.26610799224005
 20
-729.71722257238071
 30
0.0
 41
1.0
 10
470.28607278473567
 20
-729.71822381671927
 30
0.0
 41
1.0
 10
470.30603757723134
 20
-729.71922506105795
 30
0.0
 41
1.0
 10
470.38647623715104
 20
-729.72325910012307
 30
0.0
 41
0.9997941595877037
 10
470.46668501524431
 20
-729.73055316604405
 30
0.0
 41
1.0
 10
470.54689379333678
 20
-729.73784723196491
 30
0.0
 41
0.9998589466238277
 10
470.62681234018999
 20
-729.74783108641475
 30
0.0
 41
1.0
 10
470.65921854200008
 20
-729.75187944333425
 30
0.0
 41
1.0
 10
470.69162474381022
 20
-729.75592780025363
 30
0.0
 41
1.0
 10
470.83635569428128
 20
-729.77400836854213
 30
0.0
 41
0.9993495063249531
 10
470.97940693804668
 20
-729.80247407828369
 30
0.0
 41
1.0
 10
471.01234063519922
 20
-729.80902754149861
 30
0.0
 41
1.0
 10
471.04527433235177
 20
-729.81558100471352
 30
0.0
 41
1.0
 10
471.15456815555626
 20
-729.83732933884892
 30
0.0
 41
0.9996788715561055
 10
471.26261972751234
 20
-729.86458713821185
 30
0.0
 41
1.0
 10
471.26468273005185
 20
-729.86510756478492
 30
0.0
 41
1.0
 10
471.26674573259129
 20
-729.865627991358
 30
0.0
 41
1.0
 10
471.37067129946968
 20
-729.89184493757523
 30
0.0
 41
0.9995480654492864
 10
471.47283353469817
 20
-729.92425989419928
 30
0.0
 41
1.0
 10
471.47452317682666
 20
-729.92479599911303
 30
0.0
 41
1.0
 10
471.4762128189551
 20
-729.92533210402678
 30
0.0
 41
1.0
 10
471.57499576992717
 20
-729.95667485082345
 30
0.0
 41
0.9993867959455894
 10
471.67134292837017
 20
-729.99485422011344
 30
0.0
 41
1.0
 10
471.67258587745596
 20
-729.99534676201006
 30
0.0
 41
1.0
 10
471.67382882654169
 20
-729.99583930390668
 30
0.0
 41
1.0
 10
471.76769008681356
 20
-730.03303358940366
 30
0.0
 41
0.9992050256522124
 10
471.85828976184604
 20
-730.07758748864194
 30
0.0
 41
1.0
 10
471.85902444455826
 20
-730.07794878110258
 30
0.0
 41
1.0
 10
471.85975912727048
 20
-730.07831007356333
 30
0.0
 41
1.0
 10
471.94888943687909
 20
-730.12214138788056
 30
0.0
 41
0.9990222350742046
 10
472.03379949827308
 20
-730.17367465557902
 30
0.0
 41
1.0
 10
472.03398338355601
 20
-730.17378625848391
 30
0.0
 41
1.0
 10
472.03416726883893
 20
-730.17389786138892
 30
0.0
 41
1.0
 10
472.11870955966708
 20
-730.22520792327759
 30
0.0
 41
0.9988642743805197
 10
472.19798409428574
 20
-730.28433211080255
 30
0.0
 41
1.0
 10
472.27725862890435
 20
-730.3434562983274
 30
0.0
 41
0.99876812333105
 10
472.35028241318088
 20
-730.41014698972867
 30
0.0
 41
1.0
 10
472.35061134114665
 20
-730.41044739094286
 30
0.0
 41
1.0
 10
472.35094026911247
 20
-730.41074779215694
 30
0.0
 41
1.0
 10
472.42462190932042
 20
-730.47803928598637
 30
0.0
 41
0.9987496570898616
 10
472.49121571464735
 20
-730.55235210007277
 30
0.0
 41
1.0
 10
472.49198788440788
 20
-730.55321377343068
 30
0.0
 41
1.0
 10
472.49276005416834
 20
-730.5540754467886
 30
0.0
 41
1.0
 10
472.56089819901609
 20
-730.63011160759061
 30
0.0
 41
0.998814766982677
 10
472.62132045324125
 20
-730.71241261443333
 30
0.0
 41
1.0
 10
472.62243977931905
 20
-730.71393724578593
 30
0.0
 41
1.0
 10
472.62355910539685
 20
-730.71546187713852
 30
0.0
 41
1.0
 10
472.68622001177749
 20
-730.80081214668633
 30
0.0
 41
0.9989452636216245
 10
472.74078692473921
 20
-730.89155083584478
 30
0.0
 41
1.0
 10
472.74213565082459
 20
-730.89379361687043
 30
0.0
 41
1.0
 10
472.74348437690998
 20
-730.89603639789618
 30
0.0
 41
1.0
 10
472.80074874204246
 20
-730.99126064910581
 30
0.0
 41
0.9991046436070269
 10
472.84975795536423
 20
-731.09098508213162
 30
0.0
 41
1.0
 10
472.85122181695431
 20
-731.09396376220423
 30
0.0
 41
1.0
 10
472.85268567854433
 20
-731.09694244227683
 30
0.0
 41
1.0
 10
472.90462261504587
 20
-731.20262423544682
 30
0.0
 41
0.999276383110088
 10
472.94837574360122
 20
-731.31194829740343
 30
0.0
 41
1.0
 10
472.94985501326448
 20
-731.31564448493691
 30
0.0
 41
1.0
 10
472.95133428292775
 20
-731.31934067247039
 30
0.0
 41
1.0
 10
472.99804595080963
 20
-731.43605710949385
 30
0.0
 41
0.9994163472883682
 10
473.03667898199893
 20
-731.55569069795649
 30
0.0
 41
1.0
 10
473.03791713424579
 20
-731.55952484173952
 30
0.0
 41
1.0
 10
473.03915528649264
 20
-731.56335898552254
 30
0.0
 41
1.0
 10
473.07903884750993
 20
-731.68686504700111
 30
0.0
 41
0.9997268055891205
 10
473.11310690342208
 20
-731.8121000789522
 30
0.0
 41
1.0
 10
473.11403708369198
 20
-731.81551944506236
 30
0.0
 41
1.0
 10
473.11496726396189
 20
-731.81893881117242
 30
0.0
 41
1.0
 10
473.14717495933445
 20
-731.93733511090477
 30
0.0
 41
0.9996701319000478
 10
473.17326057610455
 20
-732.05722906416634
 30
0.0
 41
1.0
 10
473.19934619287477
 20
-732.17712301742836
 30
0.0
 41
0.9995785451109135
 10
473.21842977021475
 20
-732.29832877846115
 30
0.0
 41
1.0
 10
473.22264955238836
 20
-732.32512993322564
 30
0.0
 41
1.0
 10
473.22686933456202
 20
-732.35193108799012
 30
0.0
 41
1.0
 10
473.25344431050081
 20
-732.52071706169363
 30
0.0
 41
0.9979925101216502
 10
473.25846989642713
 20
-732.69150838978612
 30
0.0
 41
1.0
 10
473.25929470885177
 20
-732.71953911326727
 30
0.0
 41
1.0
 10
473.26011952127641
 20
-732.74756983674843
 30
0.0
 41
1.0
 10
473.26349548235345
 20
-732.86229971787725
 30
0.0
 41
0.9995314902263452
 10
473.25984529021497
 20
-732.97702120162978
 30
0.0
 41
1.0
 10
473.25619509807643
 20
-733.09174268538209
 30
0.0
 41
0.9996245486944198
 10
473.24626600294545
 20
-733.20609195650729
 30
0.0
 41
1.0
 10
473.24610295495131
 20
-733.20796971264167
 30
0.0
 41
1.0
 10
473.24593990695712
 20
-733.20984746877616
 30
0.0
 41
1.0
 10
473.23568471583798
 20
-733.32795225216933
 30
0.0
 41
0.9997286095001102
 10
473.21993939226684
 20
-733.44545116106167
 30
0.0
 41
1.0
 10
473.21954589961626
 20
-733.44838758576543
 30
0.0
 41
1.0
 10
473.21915240696563
 20
-733.45132401046908
 30
0.0
 41
1.0
 10
473.20262009809346
 20
-733.57469576876792
 30
0.0
 41
0.9998265533968948
 10
473.18150463936075
 20
-733.69736624355676
 30
0.0
 41
1.0
 10
473.18082809722364
 20
-733.70129662206386
 30
0.0
 41
1.0
 10
473.18015155508658
 20
-733.70522700057097
 30
0.0
 41
1.0
 10
473.15768301207964
 20
-733.83575823237447
 30
0.0
 41
0.9999022530853134
 10
473.13157354747085
 20
-733.96561020100694
 30
0.0
 41
1.0
 10
473.13059490630491
 20
-733.97047734339719
 30
0.0
 41
1.0
 10
473.12961626513896
 20
-733.97534448578745
 30
0.0
 41
1.0
 10
473.10154951819936
 20
-734.11493073919564
 30
0.0
 41
0.9999524761939406
 10
473.07076654936594
 20
-734.253943232354
 30
0.0
 41
1.0
 10
473.06949044218925
 20
-734.25970599166203
 30
0.0
 41
1.0
 10
473.06821433501256
 20
-734.26546875096994
 30
0.0
 41
1.0
 10
473.03487915182552
 20
-734.41600676274493
 30
0.0
 41
0.9999813588721431
 10
472.99970815102796
 20
-734.5661264754084
 30
0.0
 41
1.0
 10
472.99815422557299
 20
-734.57275906582413
 30
0.0
 41
1.0
 10
472.99660030011802
 20
-734.57939165623975
 30
0.0
 41
1.0
 10
472.95832144840909
 20
-734.74277654974048
 30
0.0
 41
0.9999955237647989
 10
472.91906557042779
 20
-734.90592945335027
 30
0.0
 41
1.0
 10
472.90678393479379
 20
-734.95697364387161
 30
0.0
 41
1.0
 10
472.8945022991598
 20
-735.00801783439306
 30
0.0
 41
1.0
 10
472.83068314990226
 20
-735.2732591190794
 30
0.0
 41
0.9999993604582635
 10
472.76626420274056
 20
-735.53835536973793
 30
0.0
 41
1.0
 10
472.76154536719457
 20
-735.55777427777412
 30
0.0
 41
1.0
 10
472.75682653164853
 20
-735.57719318581042
 30
0.0
 41
1.0
 10
472.68296991338639
 20
-735.88112725257588
 30
0.0
 41
0.999965991472461
 10
472.60411031749965
 20
-736.18380179914084
 30
0.0
 41
1.0
 10
472.59915762857054
 20
-736.20281093631718
 30
0.0
 41
1.0
 10
472.59420493964149
 20
-736.22182007349352
 30
0.0
 41
1.0
 10
472.50543996589715
 20
-736.56251289440911
 30
0.0
 41
0.9999441976027176
 10
472.40949693293385
 20
-736.90125431970728
 30
0.0
 41
1.0
 10
472.3927964145077
 20
-736.96021803223721
 30
0.0
 41
1.0
 10
472.37609589608155
 20
-737.01918174476702
 30
0.0
 41
1.0
 10
472.24675182626714
 20
-737.47585059512062
 30
0.0
 41
0.9999625120730111
 10
472.10951905894211
 20
-737.93021112912197
 30
0.0
 41
1.0
 10
472.07372911585969
 20
-738.04870715574748
 30
0.0
 41
1.0
 10
472.03793917277721
 20
-738.16720318237287
 30
0.0
 41
1.0
 10
471.96341896873702
 20
-738.4139302604724
 30
0.0
 41
0.9999793386308945
 10
471.88573294559899
 20
-738.65967889970966
 30
0.0
 41
1.0
 10
471.80804692246141
 20
-738.90542753894579
 30
0.0
 41
1.0
 10
471.79726736359072
 20
-738.93944544332044
 30
0.0
 41
1.0
 10
469.94689431032157
 20
-744.82651736578794
 30
0.0
 41
1.0
 10
468.09652125705242
 20
-750.71358928825543
 30
0.0
 41
1.0
 10
467.13526456702886
 20
-750.71358928825543
 30
0.0
 41
1.0
 10
466.17400787700529
 20
-750.71358928825543
 30
0.0
 41
1.0
 10
467.79295265568373
 20
-745.56556078646599
 30
0.0
 41
1.0
 10
469.41189743436217
 20
-740.41753228467655
 30
0.0
 41
1.0
 10
469.4570632575315
 20
-740.27350106242261
 30
0.0
 41
1.0
 10
469.50222908070083
 20
-740.12946984016867
 30
0.0
 41
1.0
 10
469.67253349807152
 20
-739.5863788109807
 30
0.0
 41
0.9999911657888301
 10
469.83826630975375
 20
-739.04187527961062
 30
0.0
 41
1.0
 10
469.86796225325747
 20
-738.94431133954947
 30
0.0
 41
1.0
 10
469.89765819676114
 20
-738.84674739948832
 30
0.0
 41
1.0
 10
470.00399912143394
 20
-738.49737174824691
 30
0.0
 41
0.9999952428125999
 10
470.10818271075891
 20
-738.14734672389739
 30
0.0
 41
1.0
 10
470.11324218109024
 20
-738.13034844962601
 30
0.0
 41
1.0
 10
470.11830165142158
 20
-738.11335017535464
 30
0.0
 41
1.0
 10
470.21236630008201
 20
-737.79732169955423
 30
0.0
 41
0.9999931687542902
 10
470.30409213795753
 20
-737.48060648627734
 30
0.0
 41
1.0
 10
470.30902740241845
 20
-737.46356577700135
 30
0.0
 41
1.0
 10
470.31396266687943
 20
-737.44652506772547
 30
0.0
 41
1.0
 10
470.39581797583116
 20
-737.16389127300658
 30
0.0
 41
0.999989384081548
 10
470.47506520228802
 20
-736.88051514376025
 30
0.0
 41
1.0
 10
470.55431242874374
 20
-736.59713901451778
 30
0.0
 41
0.9999833980075356
 10
470.63028866948235
 20
-736.3128684315011
 30
0.0
 41
1.0
 10
470.63929260620637
 20
-736.27917955301632
 30
0.0
 41
1.0
 10
470.64829654293032
 20
-736.24549067453142
 30
0.0
 41
1.0
 10
470.71726109179787
 20
-735.98745484223036
 30
0.0
 41
0.9999233658066364
 10
470.77981606301836
 20
-735.72779068350724
 30
0.0
 41
1.0
 10
470.84237103423862
 20
-735.46812652478479
 30
0.0
 41
1.0
 10
470.8818544530962
 20
-735.30431986035865
 30
0.0
 41
1.0
 10
470.88683305707218
 20
-735.2836648984935
 30
0.0
 41
1.0
 10
470.89181166104822
 20
-735.26300993662835
 30
0.0
 41
1.0
 10
470.92133787195439
 20
-735.14051319592954
 30
0.0
 41
0.9999868670870018
 10
470.94960695594995
 20
-735.01772025028708
 30
0.0
 41
1.0
 10
470.95350444310679
 20
-735.0007906628739
 30
0.0
 41
1.0
 10
470.95740193026364
 20
-734.9838610754606
 30
0.0
 41
1.0
 10
470.97787603994556
 20
-734.89492730464417
 30
0.0
 41
0.9999778173348131
 10
470.99716363806158
 20
-734.80572868741115
 30
0.0
 41
1.0
 10
471.01645123617772
 20
-734.7165300701771
 30
0.0
 41
0.9999602692857318
 10
471.03414559481149
 20
-734.62700178173577
 30
0.0
 41
1.0
 10
471.03734942688726
 20
-734.61079132685938
 30
0.0
 41
1.0
 10
471.04055325896303
 20
-734.594580871983
 30
0.0
 41
1.0
 10
471.0646552817492
 20
-734.47263167378458
 30
0.0
 41
0.999561798532044
 10
471.08149862896767
 20
-734.34946992608025
 30
0.0
 41
1.0
 10
471.08396311887418
 20
-734.33144910871283
 30
0.0
 41
1.0
 10
471.08642760878064
 20
-734.3134282913453
 30
0.0
 41
1.0
 10
471.10671086982865
 20
-734.16511324164583
 30
0.0
 41
0.9991121410639434
 10
471.11443622341682
 20
-734.0156171428406
 30
0.0
 41
1.0
 10
471.11535501344144
 20
-733.99783730626314
 30
0.0
 41
1.0
 10
471.11627380346607
 20
-733.98005746968579
 30
0.0
 41
1.0
 10
471.12216157700516
 20
-733.86612104403309
 30
0.0
 41
0.9989792494905151
 10
471.11774248488774
 20
-733.75211820813604
 30
0.0
 41
1.0
 10
471.11709451301914
 20
-733.73540196220983
 30
0.0
 41
1.0
 10
471.11644654115054
 20
-733.71868571628363
 30
0.0
 41
1.0
 10
471.11332339277044
 20
-733.63811537223853
 30
0.0
 41
0.9997820295393585
 10
471.10683939539473
 20
-733.55774565049364
 30
0.0
 41
1.0
 10
471.10035539801919
 20
-733.47737592875092
 30
0.0
 41
0.9998335105972405
 10
471.09094320250762
 20
-733.39729631230193
 30
0.0
 41
1.0
 10
471.08934827783116
 20
-733.38372658181765
 30
0.0
 41
1.0
 10
471.08775335315465
 20
-733.37015685133349
 30
0.0
 41
1.0
 10
471.07515130828995
 20
-733.2629377739147
 30
0.0
 41
0.9996876457879227
 10
471.05720739549139
 20
-733.15648234619823
 30
0.0
 41
1.0
 10
471.05497573234629
 20
-733.14324261095794
 30
0.0
 41
1.0
 10
471.05274406920125
 20
-733.13000287571754
 30
0.0
 41
1.0
 10
471.03894824778047
 20
-733.04815673176017
 30
0.0
 41
0.9995547496494628
 10
471.02029492588764
 20
-732.9672792345682
 30
0.0
 41
1.0
 10
471.01992096901631
 20
-732.96565782386278
 30
0.0
 41
1.0
 10
471.01954701214504
 20
-732.96403641315737
 30
0.0
 41
1.0
 10
471.0016416039951
 20
-732.88640173737724
 30
0.0
 41
0.9994899427175742
 10
470.97881669531569
 20
-732.8100684545426
 30
0.0
 41
1.0
 10
470.97835816857457
 20
-732.80853500475291
 30
0.0
 41
1.0
 10
470.97789964183352
 20
-732.80700155496322
 30
0.0
 41
1.0
 10
470.9559917866361
 20
-732.73373517170751
 30
0.0
 41
0.9993784877590648
 10
470.92897615152975
 20
-732.66219446654918
 30
0.0
 41
1.0
 10
470.92844446055312
 20
-732.66078648382927
 30
0.0
 41
1.0
 10
470.92791276957644
 20
-732.65937850110936
 30
0.0
 41
1.0
 10
470.90196051642323
 20
-732.59065376139029
 30
0.0
 41
0.999243083225447
 10
470.87074398126379
 20
-732.52415460932184
 30
0.0
 41
1.0
 10
470.87016186520714
 20
-732.52291455420459
 30
0.0
 41
1.0
 10
470.86957974915055
 20
-732.52167449908723
 30
0.0
 41
1.0
 10
470.83952744610451
 20
-732.45765545725374
 30
0.0
 41
0.9990789632798616
 10
470.80409681932775
 20
-732.39644884550398
 30
0.0
 41
1.0
 10
470.80350111314607
 20
-732.39541975964539
 30
0.0
 41
1.0
 10
470.80290540696438
 20
-732.39439067378669
 30
0.0
 41
1.0
 10
470.768666192551
 20
-732.33524223375423
 30
0.0
 41
0.998887480112064
 10
470.72900691651898
 20
-732.27958252133647
 30
0.0
 41
1.0
 10
470.72845139045478
 20
-732.27880286966183
 30
0.0
 41
1.0
 10
470.72789586439063
 20
-732.2780232179872
 30
0.0
 41
1.0
 10
470.6893476404872
 20
-732.22392280891893
 30
0.0
 41
0.9986762060693154
 10
470.6454451692108
 20
-732.17406909447948
 30
0.0
 41
1.0
 10
470.64500120887863
 20
-732.1735649526629
 30
0.0
 41
1.0
 10
470.6445572485465
 20
-732.17306081084632
 30
0.0
 41
1.0
 10
470.60154269793486
 20
-732.1242153800406
 30
0.0
 41
0.9984621642488394
 10
470.55338514115681
 20
-732.08043207956916
 30
0.0
 41
1.0
 10
470.55313850664021
 20
-732.08020784740563
 30
0.0
 41
1.0
 10
470.55289187212361
 20
-732.0799836152421
 30
0.0
 41
1.0
 10
470.50522758437899
 20
-732.03664877909807
 30
0.0
 41
0.998272469385167
 10
470.45280895253757
 20
-731.99920442858036
 30
0.0
 41
1.0
 10
470.40039032069637
 20
-731.96176007806287
 30
0.0
 41
0.9981399180158814
 10
470.34380425730308
 20
-731.93097355861937
 30
0.0
 41
1.0
 10
470.34375859522447
 20
-731.93094871546214
 30
0.0
 41
1.0
 10
470.34371293314587
 20
-731.9309238723049
 30
0.0
 41
1.0
 10
470.28703554559542
 20
-731.90008766654694
 30
0.0
 41
0.9980927086836433
 10
470.22699019452887
 20
-731.87647085769447
 30
0.0
 41
1.0
 10
470.22655002481736
 20
-731.87629773181948
 30
0.0
 41
1.0
 10
470.22610985510585
 20
-731.8761246059446
 30
0.0
 41
1.0
 10
470.16518416461611
 20
-731.85216154534214
 30
0.0
 41
0.9981411356561889
 10
470.10179564321635
 20
-731.83578890383649
 30
0.0
 41
1.0
 10
470.10091352651511
 20
-731.8355610616311
 30
0.0
 41
1.0
 10
470.10003140981382
 20
-731.83533321942559
 30
0.0
 41
1.0
 10
470.03487865501125
 20
-731.81850489350893
 30
0.0
 41
0.9983031812934919
 10
469.96821122601636
 20
-731.80936553233278
 30
0.0
 41
1.0
 10
469.95934020061293
 20
-731.80814941366157
 30
0.0
 41
1.0
 10
469.95046917520955
 20
-731.80693329499024
 30
0.0
 41
1.0
 10
469.8961195327052
 20
-731.79948256499915
 30
0.0
 41
0.9983887708263666
 10
469.84127568341199
 20
-731.79823789136583
 30
0.0
 41
1.0
 10
469.83321227819664
 20
-731.7980548934911
 30
0.0
 41
1.0
 10
469.82514887298129
 20
-731.79787189561625
 30
0.0
 41
1.0
 10
469.78643183412129
 20
-731.79699321773251
 30
0.0
 41
0.9998869563080061
 10
469.7477058809165
 20
-731.79727908709219
 30
0.0
 41
1.0
 10
469.70897992770529
 20
-731.79756495645199
 30
0.0
 41
0.9999972320148666
 10
469.67025574848492
 20
-731.79803305598114
 30
0.0
 41
1.0
 10
469.65090273191402
 20
-731.79826699607042
 30
0.0
 41
1.0
 10
469.63154971534306
 20
-731.79850093615971
 30
0.0
 41
1.0
 10
469.55411950297128
 20
-731.79943691586755
 30
0.0
 41
0.9997304945087313
 10
469.47681619673261
 20
-731.80396600965366
 30
0.0
 41
1.0
 10
469.46776655502941
 20
-731.80449621564355
 30
0.0
 41
1.0
 10
469.45871691332621
 20
-731.80502642163344
 30
0.0
 41
1.0
 10
469.36331432368115
 20
-731.81061592739934
 30
0.0
 41
0.999788830641567
 10
469.26822198783975
 20
-731.82012089188822
 30
0.0
 41
1.0
 10
469.2595009262659
 20
-731.82099260652046
 30
0.0
 41
1.0
 10
469.25077986469199
 20
-731.8218643211527
 30
0.0
 41
1.0
 10
469.138245405703
 20
-731.83311271490606
 30
0.0
 41
0.9984170238190857
 10
469.02768625835103
 20
-731.856928796842
 30
0.0
 41
1.0
 10
468.99130512736565
 20
-731.86476583264789
 30
0.0
 41
1.0
 10
468.95492399638022
 20
-731.8726028684539
 30
0.0
 41
1.0
 10
468.83973292795844
 20
-731.8974167349636
 30
0.0
 41
0.9976592854199075
 10
468.7290047615532
 20
-731.93771541211083
 30
0.0
 41
1.0
 10
468.6182765951479
 20
-731.97801408925807
 30
0.0
 41
0.9993255074352117
 10
468.51080479635743
 20
-732.02633098775038
 30
0.0
 41
1.0
 10
468.5061796174341
 20
-732.02841036395012
 30
0.0
 41
1.0
 10
468.50155443851082
 20
-732.03048974014985
 30
0.0
 41
1.0
 10
468.38483228187431
 20
-732.0829653910414
 30
0.0
 41
0.9976475078275375
 10
468.2763849375649
 20
-732.15091338069897
 30
0.0
 41
1.0
 10
468.25804254342813
 20
-732.16240585951482
 30
0.0
 41
1.0
 10
468.23970014929142
 20
-732.17389833833056
 30
0.0
 41
1.0
 10
468.15549795774098
 20
-732.22665545909786
 30
0.0
 41
0.9995131336406898
 10
468.07475024278386
 20
-732.28456167105082
 30
0.0
 41
1.0
 10
467.99400252782573
 20
-732.34246788300459
 30
0.0
 41
0.9995810107606213
 10
467.91674088009688
 20
-732.40494956547059
 30
0.0
 41
1.0
 10
467.91377084888722
 20
-732.40735143693473
 30
0.0
 41
1.0
 10
467.91080081767751
 20
-732.40975330839899
 30
0.0
 41
1.0
 10
467.82759910752759
 20
-732.47703873379476
 30
0.0
 41
0.9996617837954767
 10
467.74800842038985
 20
-732.54855918935698
 30
0.0
 41
1.0
 10
467.73587766951709
 20
-732.55945992234388
 30
0.0
 41
1.0
 10
467.72374691864439
 20
-732.57036065533066
 30
0.0
 41
1.0
 10
467.6554713912434
 20
-732.63171327080704
 30
0.0
 41
0.9997267750053365
 10
467.59013788295806
 20
-732.69618980733378
 30
0.0
 41
1.0
 10
467.52480437467017
 20
-732.76066634386325
 30
0.0
 41
0.999966728896644
 10
467.46053143151892
 20
-732.82620015076247
 30
0.0
 41
1.0
 10
467.39170398374819
 20
-732.89637780951625
 30
0.0
 41
1.0
 10
467.32287653597746
 20
-732.96655546827003
 30
0.0
 41
1.0
 10
467.12094869728088
 20
-733.17244459268056
 30
0.0
 41
0.9988205335175296
 10
466.93994308030153
 20
-733.39694882474112
 30
0.0
 41
1.0
 10
466.90930311539665
 20
-733.43495207517117
 30
0.0
 41
1.0
 10
466.87866315049178
 20
-733.47295532560133
 30
0.0
 41
1.0
 10
466.63637760370284
 20
-733.77346605852176
 30
0.0
 41
0.9997077826754708
 10
466.40889965259782
 20
-734.0853358527379
 30
0.0
 41
1.0
 10
466.4071762374673
 20
-734.08769863611758
 30
0.0
 41
1.0
 10
466.40545282233671
 20
-734.09006141949726
 30
0.0
 41
1.0
 10
466.17452804097127
 20
-734.40665678047174
 30
0.0
 41
0.9989147567079048
 10
465.97406453808742
 20
-734.74336624165687
 30
0.0
 41
1.0
 10
465.94932339278046
 20
-734.7849228222093
 30
0.0
 41
1.0
 10
465.92458224747355
 20
-734.82647940276172
 30
0.0
 41
1.0
 10
465.76937094883567
 20
-735.0871807872154
 30
0.0
 41
0.9997476598182216
 10
465.62602596132621
 20
-735.35459053579757
 30
0.0
 41
1.0
 10
465.48268097381651
 20
-735.62200028438008
 30
0.0
 41
0.9996258967110553
 10
465.35417272188482
 20
-735.89684822100423
 30
0.0
 41
1.0
 10
465.34097281243362
 20
-735.92507962110312
 30
0.0
 41
1.0
 10
465.32777290298236
 20
-735.95331102120201
 30
0.0
 41
1.0
 10
465.1875641819837
 20
-736.25318341915272
 30
0.0
 41
0.9998735413946115
 10
465.0569628352651
 20
-736.55736301861646
 30
0.0
 41
1.0
 10
465.05352000720205
 20
-736.56538160408707
 30
0.0
 41
1.0
 10
465.05007717913901
 20
-736.57340018955767
 30
0.0
 41
1.0
 10
464.92636148854353
 20
-736.86154261808679
 30
0.0
 41
0.9999377418860689
 10
464.80910668637
 20
-737.15237408575911
 30
0.0
 41
1.0
 10
464.69185188419368
 20
-737.44320555343813
 30
0.0
 41
0.9999508299505091
 10
464.58038794081654
 20
-737.73630523025884
 30
0.0
 41
1.0
 10
464.57730717215452
 20
-737.74440625622151
 30
0.0
 41
1.0
 10
464.5742264034925
 20
-737.75250728218418
 30
0.0
 41
1.0
 10
464.45660092278712
 20
-738.06180901094149
 30
0.0
 41
0.9999609228440053
 10
464.34446231991132
 20
-738.37314202696234
 30
0.0
 41
1.0
 10
464.34150630956412
 20
-738.38134886736498
 30
0.0
 41
1.0
 10
464.33855029921693
 20
-738.38955570776773
 30
0.0
 41
1.0
 10
464.22049967564328
 20
-738.7173024046034
 30
0.0
 41
0.9999674607401187
 10
464.10775214957141
 20
-739.04691102460902
 30
0.0
 41
1.0
 10
464.05635375901238
 20
-739.1971702202909
 30
0.0
 41
1.0
 10
464.00495536845335
 20
-739.34742941597278
 30
0.0
 41
1.0
 10
463.88894476169406
 20
-739.68657739848027
 30
0.0
 41
0.999928753230789
 10
463.78106335772191
 20
-740.02839813745993
 30
0.0
 41
1.0
 10
463.73458610159975
 20
-740.17566068177712
 30
0.0
 41
1.0
 10
463.68810884547759
 20
-740.3229232260943
 30
0.0
 41
1.0
 10
463.67318195374946
 20
-740.37021887644119
 30
0.0
 41
0.9999998222966123
 10
463.65831144502073
 20
-740.41753228467655
 30
0.0
 41
1.0
 10
462.03765530822528
 20
-745.56556078646599
 30
0.0
 41
1.0
 10
460.41699917142984
 20
-750.71358928825543
 30
0.0
 41
1.0
 10
459.51169072753891
 20
-750.71358928825543
 30
0.0
 41
1.0
 10
458.60638228364797
 20
-750.71358928825543
 30
0.0
 41
1.0
 10
460.45846669503402
 20
-744.82651736578794
 30
0.0
 41
1.0
 10
462.31055110642006
 20
-738.93944544332044
 30
0.0
 41
1.0
 10
462.32067286472278
 20
-738.90740222987074
 30
0.0
 41
1.0
 10
462.39328053357252
 20
-738.6771026880449
 30
0.0
 41
1.0
 10
462.46588820242619
 20
-738.44680314620678
 30
0.0
 41
0.999982568197248
 10
462.53577124163883
 20
-738.21566225113747
 30
0.0
 41
1.0
 10
462.58406230379916
 20
-738.05593766764298
 30
0.0
 41
1.0
 10
462.63235336595949
 20
-737.89621308414848
 30
0.0
 41
1.0
 10
462.72950571927447
 20
-737.57487786237994
 30
0.0
 41
0.9999672528966009
 10
462.82144452489462
 20
-737.2520123168041
 30
0.0
 41
1.0
 10
462.82423340856315
 20
-737.24221847141837
 30
0.0
 41
1.0
 10
462.82702229223173
 20
-737.23242462603264
 30
0.0
 41
1.0
 10
462.91338333051868
 20
-736.92914677121496
 30
0.0
 41
0.9999899749160151
 10
462.99702494005265
 20
-736.62510768276536
 30
0.0
 41
1.0
 10
463.00713085907012
 20
-736.58837244508709
 30
0.0
 41
1.0
 10
463.01723677808764
 20
-736.55163720740882
 30
0.0
 41
1.0
 10
463.08066654958668
 20
-736.32106859431508
 30
0.0
 41
0.999921420050345
 10
463.13829597796507
 20
-736.08898225210362
 30
0.0
 41
1.0
 10
463.15106183014677
 20
-736.03757136670288
 30
0.0
 41
1.0
 10
463.16382768232853
 20
-735.98616048130202
 30
0.0
 41
1.0
 10
463.19592540634358
 20
-735.85689590989091
 30
0.0
 41
0.9999828681676157
 10
463.22650765833822
 20
-735.72726443542683
 30
0.0
 41
1.0
 10
463.25708991033429
 20
-735.59763296095673
 30
0.0
 41
0.9999389844480382
 10
463.28480089912404
 20
-735.467357505054
 30
0.0
 41
1.0
 10
463.29193864284366
 20
-735.43380140121917
 30
0.0
 41
1.0
 10
463.29907638656329
 20
-735.40024529738446
 30
0.0
 41
1.0
 10
463.34106286279268
 20
-735.20285763381071
 30
0.0
 41
0.9998933699442741
 10
463.37726712719541
 20
-735.00432802604951
 30
0.0
 41
1.0
 10
463.37863995241162
 20
-734.99680000535363
 30
0.0
 41
1.0
 10
463.38001277762788
 20
-734.98927198465776
 30
0.0
 41
1.0
 10
463.41896269246297
 20
-734.77568633550538
 30
0.0
 41
0.9996850305193322
 10
463.4471463687218
 20
-734.56041533006771
 30
0.0
 41
1.0
 10
463.44914140209107
 20
-734.54517697594588
 30
0.0
 41
1.0
 10
463.45113643546034
 20
-734.52993862182393
 30
0.0
 41
1.0
 10
463.47854429791948
 20
-734.32059339466889
 30
0.0
 41
0.9994697936706845
 10
463.49226885713881
 20
-734.10990819934011
 30
0.0
 41
1.0
 10
463.49274592638847
 20
-734.10258472712985
 30
0.0
 41
1.0
 10
463.49322299563806
 20
-734.09526125491959
 30
0.0
 41
1.0
 10
463.50599341635842
 20
-733.89922300400963
 30
0.0
 41
0.9991804893136917
 10
463.50286510008561
 20
-733.70279415403593
 30
0.0
 41
1.0
 10
463.50278122126349
 20
-733.69752735262318
 30
0.0
 41
1.0
 10
463.50269734244137
 20
-733.69226055121032
 30
0.0
 41
1.0
 10
463.49973678381275
 20
-733.50636530406302
 30
0.0
 41
0.9988448329321823
 10
463.47894523818906
 20
-733.3216127142291
 30
0.0
 41
1.0
 10
463.47735116448598
 20
-733.30744785845741
 30
0.0
 41
1.0
 10
463.47575709078285
 20
-733.29328300268571
 30
0.0
 41
1.0
 10
463.4581536925653
 20
-733.1368601243953
 30
0.0
 41
0.9985503209458319
 10
463.42383742026573
 20
-732.98323594030649
 30
0.0
 41
1.0
 10
463.41625142819453
 20
-732.94927561290626
 30
0.0
 41
1.0
 10
463.40866543612327
 20
-732.91531528550604
 30
0.0
 41
1.0
 10
463.38952114796626
 20
-732.82961175621779
 30
0.0
 41
0.9991036781370365
 10
463.36319628631497
 20
-732.74583466889226
 30
0.0
 41
1.0
 10
463.35921406085868
 20
-732.73316150638061
 30
0.0
 41
1.0
 10
463.35523183540238
 20
-732.72048834386908
 30
0.0
 41
1.0
 10
463.33687142466329
 20
-732.66205758156593
 30
0.0
 41
0.999887450436831
 10
463.31676621698534
 20
-732.60420397934399
 30
0.0
 41
1.0
 10
463.29666100930694
 20
-732.54635037712069
 30
0.0
 41
0.9994041637543768
 10
463.27261239637255
 20
-732.49002167323056
 30
0.0
 41
1.0
 10
463.26841561214849
 20
-732.48019160874856
 30
0.0
 41
1.0
 10
463.26421882792437
 20
-732.47036154426644
 30
0.0
 41
1.0
 10
463.23633999692993
 20
-732.40506137829948
 30
0.0
 41
0.9991846840702157
 10
463.20328364023698
 20
-732.34222334701963
 30
0.0
 41
1.0
 10
463.20214703384204
 20
-732.34006273056514
 30
0.0
 41
1.0
 10
463.20101042744716
 20
-732.33790211411065
 30
0.0
 41
1.0
 10
463.17022728354391
 20
-732.27938531573955
 30
0.0
 41
0.99892531679236
 10
463.13415785948894
 20
-732.22397038734914
 30
0.0
 41
1.0
 10
463.13310373481465
 20
-732.22235089258675
 30
0.0
 41
1.0
 10
463.13204961014031
 20
-732.22073139782424
 30
0.0
 41
1.0
 10
463.09808843543408
 20
-732.16855545895908
 30
0.0
 41
0.9986467172836553
 10
463.05889128279659
 20
-732.12018942532939
 30
0.0
 41
1.0
 10
463.05801715409609
 20
-732.11911082305141
 30
0.0
 41
1.0
 10
463.05714302539565
 20
-732.11803222077344
 30
0.0
 41
1.0
 10
463.01969413015928
 20
-732.07182339169992
 30
0.0
 41
0.9984001104268158
 10
462.97726739964202
 20
-732.03013828433097
 30
0.0
 41
1.0
 10
462.97668026153264
 20
-732.02956140944968
 30
0.0
 41
1.0
 10
462.97609312342325
 20
-732.02898453456839
 30
0.0
 41
1.0
 10
462.93484066912504
 20
-731.98845317696225
 30
0.0
 41
0.9982442159082546
 10
462.88908456778927
 20
-731.95308461570198
 30
0.0
 41
1.0
 10
462.88886977232755
 20
-731.95291858305882
 30
0.0
 41
1.0
 10
462.88865497686578
 20
-731.95275255041565
 30
0.0
 41
1.0
 10
462.84332846645378
 20
-731.91771605444194
 30
0.0
 41
0.9982450060836183
 10
462.79417748738189
 20
-731.88828427140822
 30
0.0
 41
1.0
 10
462.74502650831039
 20
-731.85885248837474
 30
0.0
 41
0.9983922639634939
 10
462.69286020214548
 20
-731.83517285372068
 30
0.0
 41
1.0
 10
462.69263332482092
 20
-731.8350698682392
 30
0.0
 41
1.0
 10
462.69240644749635
 20
-731.83496688275773
 30
0.0
 41
1.0
 10
462.63978638668152
 20
-731.81108127714037
 30
0.0
 41
0.9986517147149241
 10
462.58497341381292
 20
-731.79278015801856
 30
0.0
 41
1.0
 10
462.58429549238593
 20
-731.79255381158737
 30
0.0
 41
1.0
 10
462.58361757095895
 20
-731.79232746515618
 30
0.0
 41
1.0
 10
462.52744875523621
 20
-731.77357365317175
 30
0.0
 41
0.9989435598956447
 10
462.46979536808573
 20
-731.7600559509375
 30
0.0
 41
1.0
 10
462.46871524850314
 20
-731.7598027006843
 30
0.0
 41
1.0
 10
462.46763512892051
 20
-731.759549450431
 30
0.0
 41
1.0
 10
462.40782150260549
 20
-731.74552524769035
 30
0.0
 41
0.9992249241240123
 10
462.3470899937077
 20
-731.73624990497512
 30
0.0
 41
1.0
 10
462.34567630541699
 20
-731.73603399656736
 30
0.0
 41
1.0
 10
462.34426261712628
 20
-731.73581808815959
 30
0.0
 41
1.0
 10
462.28070373164593
 20
-731.7261109286286
 30
0.0
 41
0.9994396597833805
 10
462.21663779510845
 20
-731.72067800628292
 30
0.0
 41
1.0
 10
462.19749712763132
 20
-731.71905483856426
 30
0.0
 41
1.0
 10
462.17835646015425
 20
-731.71743167084571
 30
0.0
 41
1.0
 10
462.07600918866217
 20
-731.70875241306271
 30
0.0
 41
0.9987693403121308
 10
461.97330556507558
 20
-731.71025547651539
 30
0.0
 41
1.0
 10
461.96305123084699
 20
-731.7104055482896
 30
0.0
 41
1.0
 10
461.95279689661845
 20
-731.71055562006381
 30
0.0
 41
1.0
 10
461.8432411304405
 20
-731.71215896435115
 30
0.0
 41
0.9989753644965868
 10
461.7342791304248
 20
-731.72366197127633
 30
0.0
 41
1.0
 10
461.62531713040926
 20
-731.7351649782014
 30
0.0
 41
0.9983190067306095
 10
461.51841831944529
 20
-731.75919996998789
 30
0.0
 41
1.0
 10
461.50951736783759
 20
-731.76120124855083
 30
0.0
 41
1.0
 10
461.50061641622989
 20
-731.76320252711366
 30
0.0
 41
1.0
 10
461.37591570205029
 20
-731.79124007602604
 30
0.0
 41
0.9985539388302792
 10
461.25494594837159
 20
-731.83250375207206
 30
0.0
 41
1.0
 10
461.25260051741225
 20
-731.83330379588756
 30
0.0
 41
1.0
 10
461.25025508645285
 20
-731.83410383970306
 30
0.0
 41
1.0
 10
461.1245944708545
 20
-731.87696760338031
 30
0.0
 41
0.998846874649384
 10
461.00362412855469
 20
-731.93168568844249
 30
0.0
 41
1.0
 10
461.00044130656568
 20
-731.93312536300255
 30
0.0
 41
1.0
 10
460.99725848457666
 20
-731.93456503756261
 30
0.0
 41
1.0
 10
460.86992249829865
 20
-731.99216247174502
 30
0.0
 41
0.9991322885919253
 10
460.74782191424049
 20
-732.06015780392761
 30
0.0
 41
1.0
 10
460.73021990319842
 20
-732.06996000591641
 30
0.0
 41
1.0
 10
460.71261789215635
 20
-732.07976220790522
 30
0.0
 41
1.0
 10
460.6104412110987
 20
-732.1366623236861
 30
0.0
 41
0.999386003784963
 10
460.51250020702372
 20
-732.20057833927558
 30
0.0
 41
1.0
 10
460.50688189416803
 20
-732.20424483397267
 30
0.0
 41
1.0
 10
460.5012635813124
 20
-732.20791132866975
 30
0.0
 41
1.0
 10
460.41455920294703
 20
-732.26449435486632
 30
0.0
 41
0.999882149495309
 10
460.32963282713752
 20
-732.32371258494084
 30
0.0
 41
1.0
 10
460.24470645132789
 20
-732.38293081501547
 30
0.0
 41
0.9997976482745143
 10
460.16223082092699
 20
-732.44551722305482
 30
0.0
 41
1.0
 10
460.14759455611909
 20
-732.4566239128369
 30
0.0
 41
1.0
 10
460.13295829131124
 20
-732.46773060261899
 30
0.0
 41
1.0
 10
460.02121013129522
 20
-732.55253039022227
 30
0.0
 41
0.9998091630799206
 10
459.91285985326692
 20
-732.64163074092437
 30
0.0
 41
1.0
 10
459.89985410079123
 20
-732.65232584136913
 30
0.0
 41
1.0
 10
459.88684834831548
 20
-732.6630209418139
 30
0.0
 41
1.0
 10
459.75248656533432
 20
-732.77351149340655
 30
0.0
 41
0.999503511231722
 10
459.62535068757194
 20
-732.89224531042032
 30
0.0
 41
1.0
 10
459.61570337718274
 20
-732.90125505657988
 30
0.0
 41
1.0
 10
459.6060560667936
 20
-732.91026480273956
 30
0.0
 41
1.0
 10
459.48263300402937
 20
-733.0255311744944
 30
0.0
 41
0.9994630424298876
 10
459.36702459824596
 20
-733.14863391772906
 30
0.0
 41
1.0
 10
459.36334175947439
 20
-733.15255549724225
 30
0.0
 41
1.0
 10
459.35965892070283
 20
-733.15647707675532
 30
0.0
 41
1.0
 10
459.25141619246165
 20
-733.27173666096451
 30
0.0
 41
0.9995160693749802
 10
459.15055016293007
 20
-733.39350407883683
 30
0.0
 41
1.0
 10
459.148616442849
 20
-733.3958385030453
 30
0.0
 41
1.0
 10
459.14668272276793
 20
-733.39817292725388
 30
0.0
 41
1.0
 10
459.04968413339725
 20
-733.51527149671051
 30
0.0
 41
0.9996561470514156
 10
458.95895791473225
 20
-733.63729425915858
 30
0.0
 41
1.0
 10
458.95280024883317
 20
-733.64557604819697
 30
0.0
 41
1.0
 10
458.94664258293409
 20
-733.65385783723548
 30
0.0
 41
1.0
 10
458.86823169606964
 20
-733.75931702160335
 30
0.0
 41
0.9998349055173553
 10
458.79370441413414
 20
-733.86755560527115
 30
0.0
 41
1.0
 10
458.71917713219898
 20
-733.97579418893883
 30
0.0
 41
0.9999728109572711
 10
458.64625423628428
 20
-734.08512011450091
 30
0.0
 41
1.0
 10
458.64493902087628
 20
-734.0870918839978
 30
0.0
 41
1.0
 10
458.64362380546828
 20
-734.0890636534948
 30
0.0
 41
1.0
 10
458.56807047872894
 20
-734.20233311806373
 30
0.0
 41
0.9999972147387053
 10
458.49305266835023
 20
-734.31595796090653
 30
0.0
 41
1.0
 10
458.48808112573306
 20
-734.32348804937101
 30
0.0
 41
1.0
 10
458.48310958311589
 20
-734.33101813783549
 30
0.0
 41
1.0
 10
458.39814868750011
 20
-734.45970315761133
 30
0.0
 41
0.9999371979008668
 10
458.31609333809752
 20
-734.59026007138584
 30
0.0
 41
1.0
 10
458.31258445373317
 20
-734.59584299945504
 30
0.0
 41
1.0
 10
458.30907556936882
 20
-734.60142592752413
 30
0.0
 41
1.0
 10
458.2200024512407
 20
-734.74314869743193
 30
0.0
 41
0.999827202561194
 10
458.13625906035884
 20
-734.88808457417406
 30
0.0
 41
1.0
 10
458.1210438883345
 20
-734.91441768863126
 30
0.0
 41
1.0
 10
458.10582871631016
 20
-734.94075080308846
 30
0.0
 41
1.0
 10
457.99165498138029
 20
-735.13835290874374
 30
0.0
 41
0.99952172148387
 10
457.88991529182499
 20
-735.34263523660513
 30
0.0
 41
1.0
 10
457.88227172918823
 20
-735.35798268631152
 30
0.0
 41
1.0
 10
457.87462816655147
 20
-735.3733301360179
 30
0.0
 41
1.0
 10
457.78772287396401
 20
-735.54782659409477
 30
0.0
 41
0.9998269762607395
 10
457.70736840769251
 20
-735.72543488081715
 30
0.0
 41
1.0
 10
457.62701394142044
 20
-735.90304316754055
 30
0.0
 41
0.9998944747388587
 10
457.55185314685576
 20
-736.08291089317004
 30
0.0
 41
1.0
 10
457.54689947726519
 20
-736.094765548086
 30
0.0
 41
1.0
 10
457.54194580767461
 20
-736.10662020300197
 30
0.0
 41
1.0
 10
457.46129874712119
 20
-736.29961714302181
 30
0.0
 41
0.999950673440696
 10
457.38450121821671
 20
-736.49417794788008
 30
0.0
 41
1.0
 10
457.3699012529446
 20
-736.53116586968918
 30
0.0
 41
1.0
 10
457.35530128767249
 20
-736.56815379149828
 30
0.0
 41
1.0
 10
457.30770368930706
 20
-736.68873875275153
 30
0.0
 41
0.9999912393943965
 10
457.26111724529062
 20
-736.80971795543201
 30
0.0
 41
1.0
 10
457.21453080126867
 20
-736.93069715812635
 30
0.0
 41
0.9999927113978717
 10
457.16886950687649
 20
-737.05202856562289
 30
0.0
 41
1.0
 10
457.15490107547748
 20
-737.08914554762532
 30
0.0
 41
1.0
 10
457.14093264407848
 20
-737.12626252962764
 30
0.0
 41
1.0
 10
457.06733448688908
 20
-737.32182790112654
 30
0.0
 41
0.9999487550949751
 10
456.99771086191657
 20
-737.51884326631148
 30
0.0
 41
1.0
 10
456.97411725197645
 20
-737.58560657661349
 30
0.0
 41
1.0
 10
456.95052364203633
 20
-737.65236988691549
 30
0.0
 41
1.0
 10
456.85583800767006
 20
-737.92030372172815
 30
0.0
 41
0.9999808436943181
 10
456.76447641903138
 20
-738.18938915298486
 30
0.0
 41
1.0
 10
456.67311483039231
 20
-738.45847458424248
 30
0.0
 41
0.9999873932920679
 10
456.58446012167707
 20
-738.72846393924692
 30
0.0
 41
1.0
 10
456.56436776480507
 20
-738.78965327200774
 30
0.0
 41
1.0
 10
456.54427540793313
 20
-738.85084260476856
 30
0.0
 41
1.0
 10
456.41543598547673
 20
-739.24321062528657
 30
0.0
 41
0.9999794883037391
 10
456.29163320051714
 20
-739.63719683156899
 30
0.0
 41
1.0
 10
456.28048094108925
 20
-739.67268744177545
 30
0.0
 41
1.0
 10
456.26932868166136
 20
-739.70817805198192
 30
0.0
 41
1.0
 10
456.12677051776393
 20
-740.16185080406865
 30
0.0
 41
0.9999982761733566
 10
455.98589807773061
 20
-740.61604982624885
 30
0.0
 41
1.0
 10
454.397757745158
 20
-745.66481955725214
 30
0.0
 41
1.0
 10
452.8096174125854
 20
-750.71358928825543
 30
0.0
 41
1.0
 10
451.86086680110901
 20
-750.71358928825543
 30
0.0
 41
1.0
 10
450.91211618963263
 20
-750.71358928825543
 30
0.0
 41
1.0
 10
454.15040067578582
 20
-740.3862670883093
 30
0.0
 41
1.0
 10
457.38868516193901
 20
-730.05894488836316
 30
0.0
 41
1.0
  0
LWPOLYLINE
  5
60
100
AcDbEntity
  8
0
370
              15
390
0
  6
Continuous
 62
               7
100
AcDbPolyline
 90
      232
 70
             128
 10
431.68513938811196
 20
-731.14328771987834
 42
0.000437080068926
 10
431.63226221405233
 20
-731.21195435911829
 10
431.59297798291249
 20
-731.26306147203115
 42
0.0030481992174737
 10
431.46263926578581
 20
-731.43478316438541
 10
431.42412759404289
 20
-731.48616994816348
 42
0.00420582457574
 10
431.22014254337353
 20
-731.76317569323658
 10
431.16773742087236
 20
-731.83560854001792
 42
0.0120948898740919
 10
430.87169350411278
 20
-732.26635814456415
 10
430.77550100498706
 20
-732.41383887979487
 42
0.014160126394794
 10
430.47185695806701
 20
-732.90950821652723
 10
430.43231969063874
 20
-732.97835218396301
 42
0.0071131081302423
 10
430.22704736740263
 20
-733.34785498279712
 42
0.0068458791002799
 10
430.03216784055985
 20
-733.72294654627262
 10
430.0253559781018
 20
-733.73650825999687
 42
0.0064120880290143
 10
429.82721372805941
 20
-734.14393273491169
 10
429.81967904254049
 20
-734.15994459163699
 42
0.0058857236449073
 10
429.61692365066943
 20
-734.60432070267063
 10
429.60874872437483
 20
-734.62281085630593
 42
0.0053189741894396
 10
429.40004441170845
 20
-735.10877433022108
 10
429.39129660602595
 20
-735.12975620841996
 42
0.0047503650418463
 10
429.17532287987569
 20
-735.66195564162842
 10
429.16605463152712
 20
-735.68543201773753
 42
0.004207176217172
 10
428.94150724779911
 20
-736.26852561180795
 10
428.9317578454507
 20
-736.29449178667699
 42
0.0036680086483804
 10
428.69730320213762
 20
-736.93312717121114
 10
428.68709542229084
 20
-736.96157570555272
 42
0.0032573142627615
 10
428.44146313632154
 20
-737.66042836531358
 10
428.37281261548526
 20
-737.85989144935377
 42
0.0026133366649085
 10
428.02436741672545
 20
-738.88975473303094
 10
427.96111062922841
 20
-739.07998556841301
 42
0.0020592950740946
 10
427.74724756025768
 20
-739.73208922103709
 10
427.74419576909349
 20
-739.74152570945012
 42
0.0025609928534334
 10
427.54237526760875
 20
-740.37667093181267
 10
427.53978390047894
 20
-740.38497327276309
 42
0.0031362356242951
 10
427.35029311480514
 20
-741.00573612893277
 10
427.34816207188157
 20
-741.01287743513092
 42
0.0037229918028482
 10
427.17136168495136
 20
-741.62186273711802
 10
427.16968309574503
 20
-741.62780962729209
 42
0.0043077623707637
 10
427.00594229367988
 20
-742.22762835906144
 42
0.004765416182436
 10
426.85311357116552
 20
-742.83031444795722
 10
426.8186489623248
 20
-742.97187622511353
 42
0.0112969368445595
 10
426.62278460418116
 20
-743.86356838573795
 10
426.59477821508455
 20
-744.00639643183558
 42
0.0130056762571093
 10
426.39394097143793
 20
-745.19333750348051
 10
426.37340122129081
 20
-745.33741561695774
 42
0.0138721532145782
 10
426.26969821675294
 20
-746.24424510278322
 10
426.25040272884451
 20
-746.46774282471517
 42
0.007125469701093
 10
426.21705608292245
 20
-746.93092983355552
 10
426.21209510875929
 20
-747.01693382811379
 42
0.0028881799201996
 10
426.19695681546932
 20
-747.30867553795827
 42
0.0060297297132982
 10
426.18702461569376
 20
-747.60062447407631
 10
426.18596233402673
 20
-747.64901684600318
 42
0.0229523164153055
 10
426.19369336181245
 20
-747.97177169228974
 10
426.197919135333
 20
-748.0321752263086
 42
0.0123673300666422
 10
426.21699778185115
 20
-748.23329595148073
 42
0.0128577674475533
 10
426.24619317225773
 20
-748.43319380140929
 10
426.25331904564445
 20
-748.47452261600449
 42
0.0285717853767959
 10
426.31781304734039
 20
-748.75263876731867
 10
426.33148157100658
 20
-748.79929353679495
 42
0.0316283099158559
 10
426.44729215092082
 20
-749.11830803862085
 10
426.45034084267638
 20
-749.12529441094637
 42
0.0338984824235299
 10
426.5997725536435
 20
-749.41286037513555
 10
426.60208128301343
 20
-749.4166514044116
 42
0.0350228718354518
 10
426.78444157368693
 20
-749.67370338908836
 10
426.78532682546199
 20
-749.67478246685243
 42
0.0347476747528361
 10
426.99975151270206
 20
-749.90196751407245
 42
0.0331337701912581
 10
427.24299483844874
 20
-750.09809617615008
 10
427.24409493696459
 20
-750.09886887932237
 42
0.0305233319084523
 10
427.51263963253859
 20
-750.263997049414
 10
427.51586967703918
 20
-750.26572106127639
 42
0.0273744481154225
 10
427.80842338861243
 20
-750.40185920516637
 10
427.813527923751
 20
-750.4039027896365
 42
0.0240964406195494
 10
428.12900499939673
 20
-750.5128865159179
 10
428.13558832860667
 20
-750.51481125559292
 42
0.0209636179813973
 10
428.47298848126053
 20
-750.59827940352523
 10
428.48062094170797
 20
-750.59983131652643
 42
0.0181388704692491
 10
428.83894333370563
 20
-750.65924740974026
 10
428.84722418208457
 20
-750.66031359355748
 42
0.0156086547586989
 10
429.22541154627527
 20
-750.69704978013431
 10
429.26860679860363
 20
-750.6998882826133
 42
0.0137148329023663
 10
429.59627994389933
 20
-750.71240853786446
 10
429.64221613383489
 20
-750.7129029709796
 42
0.0051057823884341
 10
429.87836172041756
 20
-750.71303322538881
 42
0.0052256693313478
 10
430.1144590042037
 20
-750.70828440092441
 10
430.18468578794563
 20
-750.70613743491049
 42
0.0161507179048096
 10
430.56042286604713
 20
-750.68248706458394
 10
430.58043582641994
 20
-750.68057686929637
 42
0.0101216737833728
 10
430.9944630479107
 20
-750.63258393893079
 10
431.02851633733741
 20
-750.62793624212122
 42
0.0245291776398935
 10
431.50530599288976
 20
-750.53886116404465
 10
431.59012930841419
 20
-750.51866524369882
 42
0.0143509212557575
 10
431.94676041235215
 20
-750.42286060992035
 42
0.0156557857039448
 10
432.29697647707951
 20
-750.30584939410153
 10
432.30447769157405
 20
-750.30307923234739
 42
0.0170137333630023
 10
432.66107368725574
 20
-750.15742161747607
 10
432.66817760966291
 20
-750.15423378191258
 42
0.0183105364409286
 10
433.02752727782575
 20
-749.97689874009006
 10
433.03447404246793
 20
-749.97314830521611
 42
0.0194899958151728
 10
433.39295478345389
 20
-749.76116932332411
 10
433.39996866278864
 20
-749.75664398103038
 42
0.0204869852951344
 10
433.75398296488225
 20
-749.50712396594474
 10
433.76124857346957
 20
-749.50154390059618
 42
0.0212516938557016
 10
434.10723850457867
 20
-749.21163990370064
 10
434.1537551986533
 20
-749.16917259360787
 42
0.0215248918252453
 10
434.41378136754088
 20
-748.91040831461339
 10
434.45881110192357
 20
-748.8615641932613
 42
0.0114578554957666
 10
434.61360325559883
 20
-748.68574125980524
 10
434.62479779158406
 20
-748.67242249626156
 42
0.0061531305132227
 10
434.75127243757987
 20
-748.51813296295416
 42
0.0006325587118216
 10
434.87565092167887
 20
-748.36212958734473
 10
434.89869105678315
 20
-748.33315606661904
 42
0.0041897761560981
 10
435.06714646077921
 20
-748.11763669052698
 10
435.12560858064802
 20
-748.04153534357204
 42
0.0092993880036461
 10
435.40222050786997
 20
-747.66725657969062
 10
435.48461500106913
 20
-747.55131957612173
 42
0.015932172708518
 10
435.83122148371302
 20
-747.02914535536343
 10
435.87557761910358
 20
-746.95746579111096
 42
0.0085547317022884
 10
436.11008938442785
 20
-746.56359084188875
 42
0.0084601156889739
 10
436.3310655618701
 20
-746.1619639928565
 10
436.33918103570028
 20
-746.1466043105836
 42
0.0081429654285973
 10
436.56243030614024
 20
-745.70688279803778
 10
436.5712904703218
 20
-745.68870395602346
 42
0.0076574581328079
 10
436.7976979808883
 20
-745.20552108077106
 10
436.8071776216122
 20
-745.18445660246732
 42
0.0070682724202427
 10
437.03762252942266
 20
-744.6524192976774
 10
437.04761281340069
 20
-744.62843010867448
 42
0.0064559514446114
 10
437.28294602158059
 20
-744.04211784216011
 10
437.29335537974737
 20
-744.01518291671334
 42
0.005831141390741
 10
437.53440211651133
 20
-743.36915082232633
 10
437.54515719389764
 20
-743.33926648116915
 42
0.0052312425818831
 10
437.79273847193923
 20
-742.6280640673325
 10
437.80378230831832
 20
-742.59523735526489
 42
0.0046680544795355
 10
438.05871073605158
 20
-741.81341103951388
 10
438.10070288609808
 20
-741.68042780221242
 42
0.004166685644564
 10
438.3039888984913
 20
-741.01745902721245
 10
438.3416513391461
 20
-740.89087791958923
 42
0.0015170975153707
 10
438.46283791756815
 20
-740.47900956806507
 42
-0.000488799311504
 10
438.58317769068839
 20
-740.06689115603331
 10
438.65965494818636
 20
-739.80593377008199
 42
0.0002583378928656
 10
438.93286951831902
 20
-738.87187706666862
 10
439.01464236785074
 20
-738.59177780723928
 42
0.0006636169673198
 10
439.20851012783857
 20
-737.92442488373285
 10
439.21360678217286
 20
-737.90679330089677
 42
0.0010589131321231
 10
439.39505548310223
 20
-737.27406195780395
 10
439.40003755359066
 20
-737.25654905075601
 42
0.0015655524463212
 10
439.56830776076549
 20
-736.657932371583
 10
439.57313796117438
 20
-736.64054021266907
 42
0.0021640440477511
 10
439.7274279331665
 20
-736.07551319462902
 10
439.73206215259734
 20
-736.05824846463179
 42
0.0028763871851471
 10
439.87157787064939
 20
-735.52628051378815
 10
439.87596373481972
 20
-735.50915653562163
 42
0.0037310511947928
 10
439.99992042665349
 20
-735.0097089416098
 10
440.00399564694146
 20
-734.99274867036854
 42
0.0047652197770007
 10
440.11161954745097
 20
-734.52527090205922
 10
440.11531014677422
 20
-734.50851134690959
 42
0.0060276699302241
 10
440.20584024592802
 20
-734.07243555176501
 10
440.20905893621699
 20
-734.05593433745662
 42
0.0075824337757274
 10
440.28174824563263
 20
-733.65066717302966
 10
440.28439362301276
 20
-733.63451222558001
 42
0.0095130624605772
 10
440.3385088586441
 20
-733.25942287250734
 10
440.34549508252701
 20
-733.20348931438821
 42
0.0121054653231841
 10
440.37208641310457
 20
-732.93859348591695
 10
440.37295290286386
 20
-732.92719004299079
 42
0.0069050827388459
 10
440.38804172090181
 20
-732.68424881614362
 10
440.3891770205704
 20
-732.66072255909819
 42
0.0169063976701511
 10
440.39200429955065
 20
-732.46452983179813
 10
440.39083364801928
 20
-732.40419407044283
 42
0.005200773290244
 10
440.38858019942637
 20
-732.32860068029686
 42
0.005403812329634
 10
440.36861668758706
 20
-732.20858238428434
 10
440.36353083171707
 20
-732.17992389770575
 42
0.0112050460469113
 10
440.32814646965841
 20
-732.00359745936601
 10
440.31032150761791
 20
-731.92405587264591
 42
0.0240764468009511
 10
440.21942414147151
 20
-731.59381883714423
 10
440.20086537865836
 20
-731.53719867215113
 42
0.0256812331833289
 10
440.05750245846878
 20
-731.16547446589357
 10
440.05209303264701
 20
-731.15334313090307
 42
0.0268360501219125
 10
439.88266579179748
 20
-730.82234999688285
 10
439.87712938416252
 20
-730.81283032657063
 42
0.0274670231729834
 10
439.68492840774911
 20
-730.52054295165328
 10
439.67954710778662
 20
-730.51326380411206
 42
0.027503596710166
 10
439.46797422822465
 20
-730.25774791380786
 10
439.46290472725832
 20
-730.25226882617767
 42
0.0269557673527385
 10
439.23550118381854
 20
-730.03162654021514
 10
439.23075812603565
 20
-730.02749658575408
 42
0.0259124802207992
 10
438.99120329460516
 20
-729.83980605860199
 10
438.98667244942288
 20
-729.83662055627144
 42
0.0245162153003893
 10
438.73875609632847
 20
-729.67988754716123
 10
438.73422955000615
 20
-729.67732734996139
 42
0.0229282588836831
 10
438.48180999317691
 20
-729.54945915746146
 10
438.47702949933819
 20
-729.54730685769857
 42
0.0212984135696639
 10
438.22399154687844
 20
-729.44610794045718
 10
438.21868726190979
 20
-729.44424437769749
 42
0.0197555462342838
 10
437.96890892418594
 20
-729.36742895973237
 42
0.0183511896787518
 10
437.71398019872254
 20
-729.30984605276683
 10
437.62761500200048
 20
-729.29364326238203
 42
0.0338057877147803
 10
437.34210765273946
 20
-729.25983485724157
 10
437.25110224769679
 20
-729.25525520198016
 42
0.0091990524498874
 10
437.14525513906352
 20
-729.2518793460581
 42
0.0028333980779662
 10
437.03934122306526
 20
-729.25105123854132
 10
437.03842577002126
 20
-729.25104926871734
 42
-0.0023619827804599
 10
436.9306797549022
 20
-729.25030842763863
 10
436.89427458473949
 20
-729.24988612117579
 42
0.0008824598479165
 10
436.71371859489108
 20
-729.24811034293759
 10
436.66985716248365
 20
-729.24775638141193
 42
0.0038132665768183
 10
436.40157426661511
 20
-729.24763744534528
 10
436.38504061181135
 20
-729.24775621148888
 42
0.0060665569337696
 10
436.08376012020847
 20
-729.25357651091008
 10
436.06950978819469
 20
-729.25402481887727
 42
0.0080356953334597
 10
435.74005107186048
 20
-729.26969254094377
 10
435.72798105676821
 20
-729.27046112388462
 42
0.0098996399106745
 10
435.37521797211707
 20
-729.29994635308287
 10
435.36517226274265
 20
-729.30098664928096
 42
0.0117740981367592
 10
434.99401540439391
 20
-729.34827889681083
 10
434.98579270791134
 20
-729.3495240133816
 42
0.0137435215134782
 10
434.60120388842694
 20
-729.4186209869431
 10
434.5945468493029
 20
-729.42000688317682
 42
0.0158359869385418
 10
434.20154975549877
 20
-729.514898971658
 10
434.19613656863328
 20
-729.5163889125281
 42
0.0180554124027215
 10
433.79982152402056
 20
-729.64102692876691
 10
433.79526473593745
 20
-729.64264296503313
 42
0.0203657431283781
 10
433.40078721812569
 20
-729.800903306549
 10
433.39664367911877
 20
-729.80276492799078
 42
0.0226819684655133
 10
433.00920762291474
 20
-729.99840750666203
 10
433.00500783189699
 20
-730.00077309858159
 42
0.0248634984605818
 10
432.62982589071589
 20
-730.23739974452872
 10
432.58163096193084
 20
-730.27125678635514
 42
0.0267044190884523
 10
432.30733826501529
 20
-730.48669716222264
 42
0.0139303002197441
 10
432.05117109908014
 20
-730.72393600313114
 10
432.04631771335556
 20
-730.7286886659947
 42
0.0283460963443489
 10
431.80224511912832
 20
-730.99641932643976
 10
431.76257661397182
 20
-731.04522090391288
 42
0.0070695364822712
 10
431.68513938811196
 20
-731.14328771987834
 42
0.0070695364822712
  0
LWPOLYLINE
  5
61
100
AcDbEntity
  8
0
370
              15
390
0
  6
Continuous
 62
               7
100
AcDbPolyline
 90
      226
 70
             128
 10
428.15631895086557
 20
-746.86487652606229
 42
-0.0026277636602198
 10
428.15624106706559
 20
-746.7981046003008
 10
428.15645842529756
 20
-746.74494938287614
 42
-0.0088680296728313
 10
428.16023504159079
 20
-746.57193360046847
 10
428.16258140070306
 20
-746.5126535750195
 42
-0.0077381705614697
 10
428.17862751146623
 20
-746.22139307922066
 10
428.17949542263926
 20
-746.20910484553622
 42
-0.0068872530529839
 10
428.20612750238706
 20
-745.89388309347066
 10
428.2073317265735
 20
-745.88164211444848
 42
-0.0062130021489308
 10
428.24492544340114
 20
-745.54277242321109
 10
428.24642934693645
 20
-745.53059855129345
 42
-0.0056726929668054
 10
428.2953512064384
 20
-745.16840332918218
 10
428.29712465208314
 20
-745.15630952893468
 42
-0.0052341884491308
 10
428.3577352383445
 20
-744.77111627340878
 10
428.35975322711977
 20
-744.75911134342437
 42
-0.0049768450167615
 10
428.43249190854579
 20
-744.35126677599351
 10
428.45674092326789
 20
-744.2227187929858
 42
-0.0089029805625437
 10
428.593821775062
 20
-743.56094334556644
 10
428.62656715038116
 20
-743.41591191503994
 42
-0.0080318257098685
 10
428.85611576472382
 20
-742.47020228317865
 10
428.86810069117013
 20
-742.42407164799613
 42
-0.0074265721317497
 10
429.15211223002166
 20
-741.39400706961021
 10
429.17199177313751
 20
-741.32587300902355
 42
-0.0069711922703032
 10
429.49929635164341
 20
-740.25960526869824
 10
429.55924829874596
 20
-740.07358391033665
 42
-0.005207042289513
 10
429.78867352400823
 20
-739.3863118332963
 10
429.80595471617829
 20
-739.33628455268547
 42
-0.0009167004447333
 10
430.00904660346987
 20
-738.75182870452511
 42
-0.0025162726945062
 10
430.2161442337304
 20
-738.16878744036831
 10
430.25336884553934
 20
-738.06563789445306
 42
-0.0028212681458369
 10
430.50154476450098
 20
-737.3899072622861
 10
430.51137552725521
 20
-737.36359981759983
 42
-0.003196491682148
 10
430.74766778491397
 20
-736.74339505548232
 10
430.75730223891566
 20
-736.71858506533215
 42
-0.0036281836451678
 10
430.98240820001416
 20
-736.15114438444596
 10
430.99184661016875
 20
-736.12784695295022
 42
-0.0041269166833707
 10
431.20646430683081
 20
-735.61040605696485
 10
431.2390972632503
 20
-735.53352761060682
 42
-0.0047472213057968
 10
431.3961420688052
 20
-735.17310614272037
 10
431.40303615001966
 20
-735.15768554537442
 42
-0.0025651659995206
 10
431.55139418386358
 20
-734.83035748963994
 42
-0.005714463499285
 10
431.70514387763478
 20
-734.50554781627773
 10
431.73317458303637
 20
-734.44803943388274
 42
-0.0065388068374009
 10
431.91664161077591
 20
-734.08380693721824
 10
431.92510006655243
 20
-734.0675473578525
 42
-0.0074510843025765
 10
432.10128231243226
 20
-733.740859076726
 10
432.10946198296125
 20
-733.72621829946081
 42
-0.0084648979858518
 10
432.27909583606333
 20
-733.43430928849602
 10
432.28695196255165
 20
-733.42130229684471
 42
-0.0095638542804426
 10
432.45078741014567
 20
-733.16141342486662
 10
432.45826235381799
 20
-733.15004406341029
 42
-0.0107191626805982
 10
432.61706393420496
 20
-732.91943282886712
 10
432.62408066793455
 20
-732.90969673650454
 42
-0.011845857390541
 10
432.77862876644855
 20
-732.70562454119181
 42
-0.012918451819014
 10
432.94308139005233
 20
-732.50946402501893
 10
432.97322616241416
 20
-732.4753379461207
 42
-0.0217742579634056
 10
433.14983848474856
 20
-732.29213117587176
 10
433.16058402921033
 20
-732.28191434266751
 42
-0.0097266568650284
 10
433.32664164806465
 20
-732.13006676823147
 42
-0.0187720905720684
 10
433.50098922395483
 20
-731.98799791484191
 10
433.53169521462547
 20
-731.96483883244832
 42
-0.0179428207521781
 10
433.7641159346245
 20
-731.80228665533446
 10
433.76776826154168
 20
-731.79992272044581
 42
-0.0170047877697136
 10
434.00353189907065
 20
-731.65846220629521
 10
434.00731488781679
 20
-731.65636390125917
 42
-0.0160190788365302
 10
434.24422343545251
 20
-731.53471259927085
 42
-0.0151102861493441
 10
434.48825521789865
 20
-731.42802982321643
 10
434.54064172011095
 20
-731.40698969032155
 42
-0.0271945441887256
 10
434.89930427916954
 20
-731.28512487961552
 10
434.96836907965906
 20
-731.26577533834882
 42
-0.0237596594021573
 10
435.38416592667977
 20
-731.17032462636769
 10
435.45222878040727
 20
-731.1580699382414
 42
-0.0213715440554833
 10
435.7381037118555
 20
-731.11912290673104
 10
435.79825087807558
 20
-731.11353319202988
 42
-0.0101465655815762
 10
435.96574341006766
 20
-731.10138964876603
 10
435.97508379626584
 20
-731.10090273376875
 42
-0.0100375910879108
 10
436.12423789682845
 20
-731.09612691584357
 10
436.13449716651189
 20
-731.09600447682908
 42
-0.010362563337763
 10
436.26320516116368
 20
-731.09713591035575
 10
436.28547081242903
 20
-731.09779326882051
 42
-0.0115689250231377
 10
436.36952154995851
 20
-731.1022227750658
 42
-0.0072438037427687
 10
436.45335982940207
 20
-731.10981197481556
 10
436.47016033887047
 20
-731.11157851753933
 42
-0.0217917313132036
 10
436.58673010218416
 20
-731.12899841026035
 10
436.65233019275331
 20
-731.14174501867535
 42
-0.0332943556753101
 10
436.85672235777918
 20
-731.19578530998194
 10
436.88689492632756
 20
-731.20595338709984
 42
-0.0184824084801415
 10
437.02539998279462
 20
-731.25840440248692
 42
-0.0198002050694593
 10
437.15947432329392
 20
-731.3212884626862
 10
437.16136096067089
 20
-731.32226624956616
 42
-0.0212242342979658
 10
437.29349990307281
 20
-731.39802898835921
 10
437.29531519861632
 20
-731.3991747905676
 42
-0.0226090605796035
 10
437.42381909983771
 20
-731.48865443413183
 10
437.42566354157543
 20
-731.49006668711957
 42
-0.0238457052235906
 10
437.54884562286799
 20
-731.59406258298156
 10
437.55079835142743
 20
-731.59587746074806
 42
-0.0248160564157255
 10
437.6669998587281
 20
-731.71515206195681
 10
437.66910349213015
 20
-731.71753739566122
 42
-0.0254109591454295
 10
437.77670870999611
 20
-731.8528257816256
 10
437.77895673191017
 20
-731.85596733002615
 42
-0.0255528488286535
 10
437.87640341070704
 20
-732.00799438425997
 10
437.87873451062342
 20
-732.01207599586803
 42
-0.025214679321948
 10
437.96451553663275
 20
-732.1815782418654
 10
437.96681777579016
 20
-732.18676032377789
 42
-0.0244265635945699
 10
438.0394724695517
 20
-732.37450689582454
 10
438.04871887102001
 20
-732.40237231416222
 42
-0.0231319612900431
 10
438.09464165001208
 20
-732.56567336096396
 42
-0.011213042435398
 10
438.12927767255019
 20
-732.73187696115156
 10
438.13048019766279
 20
-732.73837354803993
 42
-0.0210527881236399
 10
438.1561666730334
 20
-732.91942919347855
 10
438.1596772678555
 20
-732.95483474202842
 42
-0.0190029892419712
 10
438.17511874140013
 20
-733.20837058830227
 10
438.1759287178441
 20
-733.24384620266972
 42
-0.0137974553661115
 10
438.17437986500858
 20
-733.56887760940276
 10
438.17353441005298
 20
-733.59499635399595
 42
-0.0081336634214748
 10
438.15867507483046
 20
-733.90034382159524
 42
-0.0073526923567949
 10
438.13436654145551
 20
-734.20509206588406
 10
438.1331051176731
 20
-734.21842874054641
 42
-0.0066886138691829
 10
438.09736953162599
 20
-734.54901478404895
 10
438.0957124421567
 20
-734.56263640303507
 42
-0.0061359187353775
 10
438.04786184010624
 20
-734.91940038313226
 10
438.04582433903295
 20
-734.93329518596431
 42
-0.0056698610063767
 10
437.98517400826631
 20
-735.31657375479995
 10
437.98276857494284
 20
-735.33073287403306
 42
-0.0052721077275957
 10
437.90863637414395
 20
-735.74086021370704
 10
437.90587322530149
 20
-735.75527684909696
 42
-0.0049289272176038
 10
437.81757910720069
 20
-736.19258536022335
 10
437.81446661251891
 20
-736.20725421303518
 42
-0.0047415956713006
 10
437.71122862098906
 20
-736.67205097043495
 10
437.67646041062682
 20
-736.82185806582902
 42
-0.0084404470903445
 10
437.48644396705612
 20
-737.58208209035581
 10
437.48031727906931
 20
-737.60494621451357
 42
-0.0039635940257572
 10
437.25886359478227
 20
-738.40593507877156
 10
437.24548679960577
 20
-738.45286669535278
 42
-0.0072475040837041
 10
436.97803991174413
 20
-739.34208641173859
 10
436.90782758491423
 20
-739.56382676171859
 42
-0.0051345458827843
 10
436.62106821285641
 20
-740.43815194952617
 10
436.5995419460877
 20
-740.5015782166596
 42
-0.0019150016602395
 10
436.34400853922222
 20
-741.24512733688221
 10
436.33754093483356
 20
-741.2637148017817
 42
-0.0021524362754042
 10
436.08906288376215
 20
-741.96804062351168
 10
436.07985246306544
 20
-741.9937942018139
 42
-0.0024331286820214
 10
435.84359720402972
 20
-742.64439350993132
 10
435.83454925148584
 20
-742.66893681626766
 42
-0.0027449721789057
 10
435.60993468064379
 20
-743.26806669521011
 10
435.60104467325345
 20
-743.29138928505733
 42
-0.00310832297684
 10
435.3875021866416
 20
-743.84131332264201
 10
435.37876605496655
 20
-743.86340303849852
 42
-0.0035311343283131
 10
435.17572486937422
 20
-744.36638616422988
 10
435.16713953022787
 20
-744.38722888773702
 42
-0.0040245640948136
 10
434.9740277264321
 20
-744.84553821033262
 10
434.96559161282926
 20
-744.86511757840412
 42
-0.0046015135851568
 10
434.78183531966528
 20
-745.2810226080469
 10
434.7735491418382
 20
-745.29931974749638
 42
-0.0052768638268882
 10
434.59857162288142
 20
-745.6750926317693
 10
434.59043941225519
 20
-745.69208597031104
 42
-0.0060672675643072
 10
434.42365979948852
 20
-746.03000159342673
 10
434.41569031900718
 20
-746.04566685242366
 42
-0.0069904648868883
 10
434.25652192500547
 20
-746.34800265908768
 10
434.24873052539493
 20
-746.3623132083145
 42
-0.0080637022766363
 10
434.09657866504881
 20
-746.6313485114681
 10
434.08898963241757
 20
-746.64427637706888
 42
-0.0093006455668461
 10
433.94324895588608
 20
-746.88229077557196
 10
433.93589828914367
 20
-746.89380874474318
 42
-0.0107060778050907
 10
433.79594974570398
 20
-747.10307906212415
 10
433.7888879774257
 20
-747.11316460468822
 42
-0.0122723111414775
 10
433.65409425922621
 20
-747.295957934179
 10
433.65376803566988
 20
-747.2963783219916
 42
-0.0141836319624133
 10
433.51018643269811
 20
-747.47094807981819
 10
433.50323867705009
 20
-747.4789230800784
 42
-0.0175957477211734
 10
433.36333250901146
 20
-747.62854396848775
 42
-0.0080466359675766
 10
433.21586874398179
 20
-747.7708664966384
 10
433.16983419946376
 20
-747.81388693473014
 42
-0.0269600260395184
 10
432.91655395348215
 20
-748.0262101932384
 10
432.84998681718429
 20
-748.0761616078629
 42
-0.0178362839753697
 10
432.61004232752799
 20
-748.2431795341156
 10
432.60279735652659
 20
-748.24784804632111
 42
-0.0174650732650288
 10
432.36646115908627
 20
-748.38870901127962
 42
-0.0169240130166008
 10
432.12099491322903
 20
-748.51300127105685
 10
432.07500875767073
 20
-748.53436322662424
 42
-0.0318883036840533
 10
431.72465790205047
 20
-748.67070153613452
 10
431.65629236688596
 20
-748.69240215660977
 42
-0.0284435909901859
 10
431.28024224059499
 20
-748.7886195920845
 10
431.24508408009666
 20
-748.795513187913
 42
-0.0243909341012532
 10
430.93164061917747
 20
-748.8412342189431
 10
430.88135989240675
 20
-748.84607976584471
 42
-0.0196639292931269
 10
430.66576431487908
 20
-748.85832805135828
 10
430.61394024371509
 20
-748.85923131209506
 42
-0.0100501510681874
 10
430.50151696205137
 20
-748.85893091374191
 10
430.46985710069214
 20
-748.85820984185625
 42
-0.0019752031118629
 10
430.42076476402593
 20
-748.85689768164696
 10
430.41800446080288
 20
-748.85681298982058
 42
0.0065378751989864
 10
430.37442788604903
 20
-748.8560460986057
 42
-0.0167974694650377
 10
430.3308970631183
 20
-748.85438620007972
 10
430.32681772385513
 20
-748.85409318918471
 42
-0.0081283276286748
 10
430.27525792612209
 20
-748.84954619554742
 10
430.26351835223807
 20
-748.84831827796847
 42
-0.0126703440177773
 10
430.18880005644399
 20
-748.83858348689694
 10
430.16601218876781
 20
-748.83502523098173
 42
-0.0117852088433949
 10
430.04647320293458
 20
-748.81346223582443
 10
429.9910927511724
 20
-748.80211869559002
 42
-0.0251774592298483
 10
429.76424871216602
 20
-748.74362068615744
 10
429.71952952231095
 20
-748.72965386682097
 42
-0.0146525199886505
 10
429.533136534775
 20
-748.66538733962363
 42
-0.0166929435857206
 10
429.35115887864737
 20
-748.5895802065686
 10
429.34650224737516
 20
-748.58745530595502
 42
-0.0191684358434523
 10
429.16131861612735
 20
-748.49421922216584
 10
429.15798603036899
 20
-748.49237797461171
 42
-0.0221181781812019
 10
428.97467572646684
 20
-748.38024447624093
 10
428.97232592245831
 20
-748.3786601782499
 42
-0.0254984685383437
 10
428.79603577207291
 20
-748.2462490282802
 10
428.77355362437112
 20
-748.22749671934412
 42
-0.0292492648804774
 10
428.64878468552803
 20
-748.11040391970096
 42
-0.0159048957505181
 10
428.5349446880781
 20
-747.98238392810197
 10
428.53362589749861
 20
-747.98080231508186
 42
-0.0343813379566621
 10
428.43098863587238
 20
-747.83893098931242
 10
428.39949710451168
 20
-747.78842759721852
 42
-0.0369117275703161
 10
428.31360460261425
 20
-747.62495035626989
 42
-0.0191751379907864
 10
428.24641121705753
 20
-747.4525457502649
 10
428.24464789329772
 20
-747.44745240558905
 42
-0.0378178042227592
 10
428.19485317451353
 20
-747.25851162950755
 10
428.1888578787831
 20
-747.2259510113098
 42
-0.0184846046477931
 10
428.16814067948883
 20
-747.08419819076585
 42
-0.0179866351316483
 10
428.1578076744151
 20
-746.94130737768398
 10
428.15775123196937
 20
-746.93974969107217
 42
-0.0085497186116665
 10
428.15631895086557
 20
-746.86487652606229
 42
-0.0085497186116665
  0
ENDBLK
  5
62
100
AcDbEntity
  8
template
390
0
100
AcDbBlockEnd
  0
BLOCK
  5
63
100
AcDbEntity
  8
notes
390
0
100
AcDbBlockBegin
  2
*D3
 70
               1
 10
0.0
 20
0.0
 30
0.0
  3
*D3
  1

  0
LINE
  5
64
100
AcDbEntity
  8
0
370
              -2
390
0
  6
Continuous
 62
               0
100
AcDbLine
 10
-563.19525281349456
 20
829.57751394440447
 30
0.0
 11
-563.19525281349456
 21
909.57751394440447
 31
0.0
  0
LINE
  5
65
100
AcDbEntity
  8
0
370
              -2
390
0
  6
Continuous
 62
               0
100
AcDbLine
 10
-298.19525281349473
 20
829.57751394440447
 30
0.0
 11
-298.19525281349473
 21
909.57751394440447
 31
0.0
  0
LINE
  5
66
100
AcDbEntity
  8
0
370
              -2
390
0
  6
Continuous
 62
               0
100
AcDbLine
 10
-563.19525281349456
 20
909.57751394440447
 30
0.0
 11
-298.19525281349473
 21
909.57751394440447
 31
0.0
  0
CIRCLE
  5
67
102
{ACAD_REACTORS
330
68
102
}
100
AcDbEntity
  8
0
370
              -2
390
0
  6
Continuous
 62
               0
100
AcDbCircle
 10
-563.19525281349456
 20
909.57751394440447
 30
0.0
 40
1.9998779296875
  0
HATCH
  5
68
100
AcDbEntity
  8
0
370
              -2
390
0
  6
Continuous
 62
               0
100
AcDbHatch
 10
0.0
 20
0.0
 30
0.0
210
0.0
220
0.0
230
1.0
  2
SOLID
 70
               1
 71
               1
 91
        1
 92
        1
 93
        1
 72
               2
 10
-563.19525281349456
 20
909.57751394440447
 40
1.9998779296875
 50
0.0
 51
360.0
 73
               0
 97
        1
330
67
 75
               0
 76
               1
 98
        1
 10
0.0
 20
0.0
  0
CIRCLE
  5
69
102
{ACAD_REACTORS
330
6A
102
}
100
AcDbEntity
  8
0
370
              -2
390
0
  6
Continuous
 62
               0
100
AcDbCircle
 10
-298.19525281349473
 20
909.57751394440447
 30
0.0
 40
1.9998779296875
  0
HATCH
  5
6A
100
AcDbEntity
  8
0
370
              -2
390
0
  6
Continuous
 62
               0
100
AcDbHatch
 10
0.0
 20
0.0
 30
0.0
210
0.0
220
0.0
230
1.0
  2
SOLID
 70
               1
 71
               1
 91
        1
 92
        1
 93
        1
 72
               2
 10
-298.19525281349473
 20
909.57751394440447
 40
1.9998779296875
 50
0.0
 51
360.0
 73
               0
 97
        1
330
69
 75
               0
 76
               1
 98
        1
 10
0.0
 20
0.0
  0
MTEXT
  5
6B
100
AcDbEntity
  8
0
390
0
 62
               0
100
AcDbMText
 10
-454.5077544956701
 20
943.45513113190441
 30
0.0
 40
24.432617187500004
 41
0.0
 71
               1
 72
               1
  1
265
  7
ＭＳ ゴシック
 73
               1
 44
0.7828267384257843
  0
POINT
  5
6C
100
AcDbEntity
  8
Defpoints
370
               0
390
0
 62
               0
100
AcDbPoint
 10
-298.19525281349473
 20
804.57751394440447
 30
0.0
  0
POINT
  5
6D
100
AcDbEntity
  8
Defpoints
370
               0
390
0
 62
               0
100
AcDbPoint
 10
-563.19525281349456
 20
804.57751394440447
 30
0.0
  0
POINT
  5
6E
100
AcDbEntity
  8
Defpoints
370
               0
390
0
 62
               0
100
AcDbPoint
 10
-563.19525281349456
 20
909.57751394440447
 30
0.0
  0
ENDBLK
  5
6F
100
AcDbEntity
  8
notes
390
0
100
AcDbBlockEnd
  0
BLOCK
  5
70
100
AcDbEntity
  8
notes
390
0
100
AcDbBlockBegin
  2
*D4
 70
               1
 10
0.0
 20
0.0
 30
0.0
  3
*D4
  1

  0
LINE
  5
71
100
AcDbEntity
  8
0
370
              -2
390
0
  6
Continuous
 62
               0
100
AcDbLine
 10
-690.69525281349456
 20
388.57751394440447
 30
0.0
 11
-690.69525281349456
 21
209.57751394440447
 31
0.0
  0
LINE
  5
72
100
AcDbEntity
  8
0
370
              -2
390
0
  6
Continuous
 62
               0
100
AcDbLine
 10
-170.69525281349473
 20
388.57751394440447
 30
0.0
 11
-170.69525281349473
 21
209.57751394440447
 31
0.0
  0
LINE
  5
73
100
AcDbEntity
  8
0
370
              -2
390
0
  6
Continuous
 62
               0
100
AcDbLine
 10
-690.69525281349456
 20
209.57751394440447
 30
0.0
 11
-170.69525281349473
 21
209.57751394440447
 31
0.0
  0
CIRCLE
  5
74
102
{ACAD_REACTORS
330
75
102
}
100
AcDbEntity
  8
0
370
              -2
390
0
  6
Continuous
 62
               0
100
AcDbCircle
 10
-690.69525281349456
 20
209.57751394440447
 30
0.0
 40
1.9998779296875
  0
HATCH
  5
75
100
AcDbEntity
  8
0
370
              -2
390
0
  6
Continuous
 62
               0
100
AcDbHatch
 10
0.0
 20
0.0
 30
0.0
210
0.0
220
0.0
230
1.0
  2
SOLID
 70
               1
 71
               1
 91
        1
 92
        1
 93
        1
 72
               2
 10
-690.69525281349456
 20
209.57751394440447
 40
1.9998779296875
 50
0.0
 51
360.0
 73
               0
 97
        1
330
74
 75
               0
 76
               1
 98
        1
 10
0.0
 20
0.0
  0
CIRCLE
  5
76
102
{ACAD_REACTORS
330
77
102
}
100
AcDbEntity
  8
0
370
              -2
390
0
  6
Continuous
 62
               0
100
AcDbCircle
 10
-170.69525281349473
 20
209.57751394440447
 30
0.0
 40
1.9998779296875
  0
HATCH
  5
77
100
AcDbEntity
  8
0
370
              -2
390
0
  6
Continuous
 62
               0
100
AcDbHatch
 10
0.0
 20
0.0
 30
0.0
210
0.0
220
0.0
230
1.0
  2
SOLID
 70
               1
 71
               1
 91
        1
 92
        1
 93
        1
 72
               2
 10
-170.69525281349473
 20
209.57751394440447
 40
1.9998779296875
 50
0.0
 51
360.0
 73
               0
 97
        1
330
76
 75
               0
 76
               1
 98
        1
 10
0.0
 20
0.0
  0
MTEXT
  5
78
100
AcDbEntity
  8
0
390
0
 62
               0
100
AcDbMText
 10
-454.5077544956701
 20
243.45513113190452
 30
0.0
 40
24.432617187500004
 41
0.0
 71
               1
 72
               1
  1
520
  7
ＭＳ ゴシック
 73
               1
 44
0.7828267384257843
  0
POINT
  5
79
100
AcDbEntity
  8
Defpoints
370
               0
390
0
 62
               0
100
AcDbPoint
 10
-170.69525281349473
 20
413.57751394440447
 30
0.0
  0
POINT
  5
7A
100
AcDbEntity
  8
Defpoints
370
               0
390
0
 62
               0
100
AcDbPoint
 10
-690.69525281349456
 20
413.57751394440447
 30
0.0
  0
POINT
  5
7B
100
AcDbEntity
  8
Defpoints
370
               0
390
0
 62
               0
100
AcDbPoint
 10
-690.69525281349456
 20
209.57751394440447
 30
0.0
  0
ENDBLK
  5
7C
100
AcDbEntity
  8
notes
390
0
100
AcDbBlockEnd
  0
BLOCK
  5
7D
100
AcDbEntity
  8
notes
390
0
100
AcDbBlockBegin
  2
*D5
 70
               1
 10
0.0
 20
0.0
 30
0.0
  3
*D5
  1

  0
LINE
  5
7E
100
AcDbEntity
  8
0
370
              -2
390
0
  6
Continuous
 62
               0
100
AcDbLine
 10
418.46906609784594
 20
434.57751394440447
 30
0.0
 11
418.46906609784594
 21
359.57751394440447
 31
0.0
  0
LINE
  5
7F
100
AcDbEntity
  8
0
370
              -2
390
0
  6
Continuous
 62
               0
100
AcDbLine
 10
518.46906609784605
 20
434.57751394440447
 30
0.0
 11
518.46906609784605
 21
359.57751394440447
 31
0.0
  0
LINE
  5
80
100
AcDbEntity
  8
0
370
              -2
390
0
  6
Continuous
 62
               0
100
AcDbLine
 10
418.46906609784594
 20
359.57751394440447
 30
0.0
 11
518.46906609784605
 21
359.57751394440447
 31
0.0
  0
CIRCLE
  5
81
102
{ACAD_REACTORS
330
82
102
}
100
AcDbEntity
  8
0
370
              -2
390
0
  6
Continuous
 62
               0
100
AcDbCircle
 10
418.46906609784594
 20
359.57751394440447
 30
0.0
 40
1.9998779296875
  0
HATCH
  5
82
100
AcDbEntity
  8
0
370
              -2
390
0
  6
Continuous
 62
               0
100
AcDbHatch
 10
0.0
 20
0.0
 30
0.0
210
0.0
220
0.0
230
1.0
  2
SOLID
 70
               1
 71
               1
 91
        1
 92
        1
 93
        1
 72
               2
 10
418.46906609784594
 20
359.57751394440447
 40
1.9998779296875
 50
0.0
 51
360.0
 73
               0
 97
        1
330
81
 75
               0
 76
               1
 98
        1
 10
0.0
 20
0.0
  0
CIRCLE
  5
83
102
{ACAD_REACTORS
330
84
102
}
100
AcDbEntity
  8
0
370
              -2
390
0
  6
Continuous
 62
               0
100
AcDbCircle
 10
518.46906609784605
 20
359.57751394440447
 30
0.0
 40
1.9998779296875
  0
HATCH
  5
84
100
AcDbEntity
  8
0
370
              -2
390
0
  6
Continuous
 62
               0
100
AcDbHatch
 10
0.0
 20
0.0
 30
0.0
210
0.0
220
0.0
230
1.0
  2
SOLID
 70
               1
 71
               1
 91
        1
 92
        1
 93
        1
 72
               2
 10
518.46906609784605
 20
359.57751394440447
 40
1.9998779296875
 50
0.0
 51
360.0
 73
               0
 97
        1
330
83
 75
               0
 76
               1
 98
        1
 10
0.0
 20
0.0
  0
MTEXT
  5
85
100
AcDbEntity
  8
0
390
0
 62
               0
100
AcDbMText
 10
444.65656441567046
 20
393.45513113190452
 30
0.0
 40
24.432617187500004
 41
0.0
 71
               1
 72
               1
  1
100
  7
ＭＳ ゴシック
 73
               1
 44
0.7828267384257843
  0
POINT
  5
86
100
AcDbEntity
  8
Defpoints
370
               0
390
0
 62
               0
100
AcDbPoint
 10
518.46906609784605
 20
459.57751394440447
 30
0.0
  0
POINT
  5
87
100
AcDbEntity
  8
Defpoints
370
               0
390
0
 62
               0
100
AcDbPoint
 10
418.46906609784594
 20
459.57751394440447
 30
0.0
  0
POINT
  5
88
100
AcDbEntity
  8
Defpoints
370
               0
390
0
 62
               0
100
AcDbPoint
 10
418.46906609784594
 20
359.57751394440447
 30
0.0
  0
ENDBLK
  5
89
100
AcDbEntity
  8
notes
390
0
100
AcDbBlockEnd
  0
BLOCK
  5
8A
100
AcDbEntity
  8
notes
390
0
100
AcDbBlockBegin
  2
*D6
 70
               1
 10
0.0
 20
0.0
 30
0.0
  3
*D6
  1

  0
LINE
  5
8B
100
AcDbEntity
  8
0
370
              -2
390
0
  6
Continuous
 62
               0
100
AcDbLine
 10
543.46906609784605
 20
459.57751394440447
 30
0.0
 11
772.10565693430658
 21
459.57751394440447
 31
0.0
  0
LINE
  5
8C
100
AcDbEntity
  8
0
370
              -2
390
0
  6
Continuous
 62
               0
100
AcDbLine
 10
543.46906609784605
 20
789.57751394440447
 30
0.0
 11
772.10565693430658
 21
789.57751394440447
 31
0.0
  0
LINE
  5
8D
100
AcDbEntity
  8
0
370
              -2
390
0
  6
Continuous
 62
               0
100
AcDbLine
 10
772.10565693430658
 20
459.57751394440447
 30
0.0
 11
772.10565693430658
 21
789.57751394440447
 31
0.0
  0
CIRCLE
  5
8E
102
{ACAD_REACTORS
330
8F
102
}
100
AcDbEntity
  8
0
370
              -2
390
0
  6
Continuous
 62
               0
100
AcDbCircle
 10
772.10565693430658
 20
459.57751394440447
 30
0.0
 40
1.9998779296875
  0
HATCH
  5
8F
100
AcDbEntity
  8
0
370
              -2
390
0
  6
Continuous
 62
               0
100
AcDbHatch
 10
0.0
 20
0.0
 30
0.0
210
0.0
220
0.0
230
1.0
  2
SOLID
 70
               1
 71
               1
 91
        1
 92
        1
 93
        1
 72
               2
 10
772.10565693430658
 20
459.57751394440447
 40
1.9998779296875
 50
0.0
 51
360.0
 73
               0
 97
        1
330
8E
 75
               0
 76
               1
 98
        1
 10
0.0
 20
0.0
  0
CIRCLE
  5
90
102
{ACAD_REACTORS
330
91
102
}
100
AcDbEntity
  8
0
370
              -2
390
0
  6
Continuous
 62
               0
100
AcDbCircle
 10
772.10565693430658
 20
789.57751394440447
 30
0.0
 40
1.9998779296875
  0
HATCH
  5
91
100
AcDbEntity
  8
0
370
              -2
390
0
  6
Continuous
 62
               0
100
AcDbHatch
 10
0.0
 20
0.0
 30
0.0
210
0.0
220
0.0
230
1.0
  2
SOLID
 70
               1
 71
               1
 91
        1
 92
        1
 93
        1
 72
               2
 10
772.10565693430658
 20
789.57751394440447
 40
1.9998779296875
 50
0.0
 51
360.0
 73
               0
 97
        1
330
90
 75
               0
 76
               1
 98
        1
 10
0.0
 20
0.0
  0
MTEXT
  5
92
100
AcDbEntity
  8
0
390
0
 62
               0
100
AcDbMText
 10
738.22803974680653
 20
607.16170756357405
 30
0.0
 40
24.432617187500004
 41
0.0
 71
               1
 72
               1
  1
330
  7
ＭＳ ゴシック
 11
0.0
 21
1.0
 31
0.0
 73
               1
 44
0.7828267384257843
  0
POINT
  5
93
100
AcDbEntity
  8
Defpoints
370
               0
390
0
 62
               0
100
AcDbPoint
 10
518.46906609784605
 20
789.57751394440447
 30
0.0
  0
POINT
  5
94
100
AcDbEntity
  8
Defpoints
370
               0
390
0
 62
               0
100
AcDbPoint
 10
518.46906609784605
 20
459.57751394440447
 30
0.0
  0
POINT
  5
95
100
AcDbEntity
  8
Defpoints
370
               0
390
0
 62
               0
100
AcDbPoint
 10
772.10565693430658
 20
459.57751394440447
 30
0.0
  0
ENDBLK
  5
96
100
AcDbEntity
  8
notes
390
0
100
AcDbBlockEnd
  0
BLOCK
  5
97
100
AcDbEntity
  8
notes
390
0
100
AcDbBlockBegin
  2
*D7
 70
               1
 10
0.0
 20
0.0
 30
0.0
  3
*D7
  1

  0
LINE
  5
98
100
AcDbEntity
  8
0
370
              -2
390
0
  6
Continuous
 62
               0
100
AcDbLine
 10
543.46906609784605
 20
789.57751394440447
 30
0.0
 11
772.10565693430658
 21
789.57751394440447
 31
0.0
  0
LINE
  5
99
100
AcDbEntity
  8
0
370
              -2
390
0
  6
Continuous
 62
               0
100
AcDbLine
 10
621.80474718650476
 20
809.57751394440447
 30
0.0
 11
772.10565693430658
 21
809.57751394440447
 31
0.0
  0
LINE
  5
9A
100
AcDbEntity
  8
0
370
              -2
390
0
  6
Continuous
 62
               0
100
AcDbLine
 10
772.10565693430658
 20
809.57751394440447
 30
0.0
 11
772.10565693430658
 21
846.72420924574953
 31
0.0
  0
LINE
  5
9B
100
AcDbEntity
  8
0
370
              -2
390
0
  6
Continuous
 62
               0
100
AcDbLine
 10
772.10565693430658
 20
789.57751394440447
 30
0.0
 11
772.10565693430658
 21
809.57751394440447
 31
0.0
  0
CIRCLE
  5
9C
102
{ACAD_REACTORS
330
9D
102
}
100
AcDbEntity
  8
0
370
              -2
390
0
  6
Continuous
 62
               0
100
AcDbCircle
 10
772.10565693430658
 20
789.57751394440447
 30
0.0
 40
1.9998779296875
  0
HATCH
  5
9D
100
AcDbEntity
  8
0
370
              -2
390
0
  6
Continuous
 62
               0
100
AcDbHatch
 10
0.0
 20
0.0
 30
0.0
210
0.0
220
0.0
230
1.0
  2
SOLID
 70
               1
 71
               1
 91
        1
 92
        1
 93
        1
 72
               2
 10
772.10565693430658
 20
789.57751394440447
 40
1.9998779296875
 50
0.0
 51
360.0
 73
               0
 97
        1
330
9C
 75
               0
 76
               1
 98
        1
 10
0.0
 20
0.0
  0
CIRCLE
  5
9E
102
{ACAD_REACTORS
330
9F
102
}
100
AcDbEntity
  8
0
370
              -2
390
0
  6
Continuous
 62
               0
100
AcDbCircle
 10
772.10565693430658
 20
809.57751394440447
 30
0.0
 40
1.9998779296875
  0
HATCH
  5
9F
100
AcDbEntity
  8
0
370
              -2
390
0
  6
Continuous
 62
               0
100
AcDbHatch
 10
0.0
 20
0.0
 30
0.0
210
0.0
220
0.0
230
1.0
  2
SOLID
 70
               1
 71
               1
 91
        1
 92
        1
 93
        1
 72
               2
 10
772.10565693430658
 20
809.57751394440447
 40
1.9998779296875
 50
0.0
 51
360.0
 73
               0
 97
        1
330
9E
 75
               0
 76
               1
 98
        1
 10
0.0
 20
0.0
  0
MTEXT
  5
A0
100
AcDbEntity
  8
0
390
0
 62
               0
100
AcDbMText
 10
738.22803974680653
 20
814.97420924574953
 30
0.0
 40
24.432617187500004
 41
0.0
 71
               1
 72
               1
  1
20
  7
ＭＳ ゴシック
 11
0.0
 21
1.0
 31
0.0
 73
               1
 44
0.7828267384257843
  0
POINT
  5
A1
100
AcDbEntity
  8
Defpoints
370
               0
390
0
 62
               0
100
AcDbPoint
 10
596.80474718650476
 20
809.57751394440447
 30
0.0
  0
POINT
  5
A2
100
AcDbEntity
  8
Defpoints
370
               0
390
0
 62
               0
100
AcDbPoint
 10
518.46906609784605
 20
789.57751394440447
 30
0.0
  0
POINT
  5
A3
100
AcDbEntity
  8
Defpoints
370
               0
390
0
 62
               0
100
AcDbPoint
 10
772.10565693430658
 20
789.57751394440447
 30
0.0
  0
ENDBLK
  5
A4
100
AcDbEntity
  8
notes
390
0
100
AcDbBlockEnd
  0
BLOCK
  5
A5
100
AcDbEntity
  8
notes
390
0
100
AcDbBlockBegin
  2
*D8
 70
               1
 10
0.0
 20
0.0
 30
0.0
  3
*D8
  1

  0
LINE
  5
A6
100
AcDbEntity
  8
0
370
              -2
390
0
  6
Continuous
 62
               0
100
AcDbLine
 10
725.99331211833669
 20
-607.02579075425058
 30
0.0
 11
725.99331211833669
 21
-738.02579075421454
 31
0.0
  0
LINE
  5
A7
100
AcDbEntity
  8
0
370
              -2
390
0
  6
Continuous
 62
               0
100
AcDbLine
 10
295.99331211833669
 20
-607.02579075425058
 30
0.0
 11
295.99331211833669
 21
-738.02579075421454
 31
0.0
  0
LINE
  5
A8
100
AcDbEntity
  8
0
370
              -2
390
0
  6
Continuous
 62
               0
100
AcDbLine
 10
725.99331211833669
 20
-738.02579075421454
 30
0.0
 11
295.99331211833669
 21
-738.02579075421454
 31
0.0
  0
CIRCLE
  5
A9
102
{ACAD_REACTORS
330
AA
102
}
100
AcDbEntity
  8
0
370
              -2
390
0
  6
Continuous
 62
               0
100
AcDbCircle
 10
725.99331211833669
 20
-738.02579075421454
 30
0.0
 40
1.9998779296875
  0
HATCH
  5
AA
100
AcDbEntity
  8
0
370
              -2
390
0
  6
Continuous
 62
               0
100
AcDbHatch
 10
0.0
 20
0.0
 30
0.0
210
0.0
220
0.0
230
1.0
  2
SOLID
 70
               1
 71
               1
 91
        1
 92
        1
 93
        1
 72
               2
 10
725.99331211833669
 20
-738.02579075421454
 40
1.9998779296875
 50
0.0
 51
360.0
 73
               0
 97
        1
330
A9
 75
               0
 76
               1
 98
        1
 10
0.0
 20
0.0
  0
CIRCLE
  5
AB
102
{ACAD_REACTORS
330
AC
102
}
100
AcDbEntity
  8
0
370
              -2
390
0
  6
Continuous
 62
               0
100
AcDbCircle
 10
295.99331211833669
 20
-738.02579075421454
 30
0.0
 40
1.9998779296875
  0
HATCH
  5
AC
100
AcDbEntity
  8
0
370
              -2
390
0
  6
Continuous
 62
               0
100
AcDbHatch
 10
0.0
 20
0.0
 30
0.0
210
0.0
220
0.0
230
1.0
  2
SOLID
 70
               1
 71
               1
 91
        1
 92
        1
 93
        1
 72
               2
 10
295.99331211833669
 20
-738.02579075421454
 40
1.9998779296875
 50
0.0
 51
360.0
 73
               0
 97
        1
330
AB
 75
               0
 76
               1
 98
        1
 10
0.0
 20
0.0
  0
MTEXT
  5
AD
100
AcDbEntity
  8
0
390
0
 62
               0
100
AcDbMText
 10
487.18081043616115
 20
-704.1481735667146
 30
0.0
 40
24.432617187500004
 41
0.0
 71
               1
 72
               1
  1
430
  7
ＭＳ ゴシック
 73
               1
 44
0.7828267384257843
  0
POINT
  5
AE
100
AcDbEntity
  8
Defpoints
370
               0
390
0
 62
               0
100
AcDbPoint
 10
295.99331211833669
 20
-582.02579075425058
 30
0.0
  0
POINT
  5
AF
100
AcDbEntity
  8
Defpoints
370
               0
390
0
 62
               0
100
AcDbPoint
 10
725.99331211833669
 20
-582.02579075425058
 30
0.0
  0
POINT
  5
B0
100
AcDbEntity
  8
Defpoints
370
               0
390
0
 62
               0
100
AcDbPoint
 10
725.99331211833669
 20
-738.02579075421454
 30
0.0
  0
ENDBLK
  5
B1
100
AcDbEntity
  8
notes
390
0
100
AcDbBlockEnd
  0
BLOCK
  5
B2
100
AcDbEntity
  8
notes
390
0
100
AcDbBlockBegin
  2
*D9
 70
               1
 10
0.0
 20
0.0
 30
0.0
  3
*D9
  1

  0
LINE
  5
B3
100
AcDbEntity
  8
0
370
              -2
390
0
  6
Continuous
 62
               0
100
AcDbLine
 10
-638.99434306569287
 20
-612.46127462518052
 30
0.0
 11
-638.99434306569287
 21
-688.02579075421454
 31
0.0
  0
LINE
  5
B4
100
AcDbEntity
  8
0
370
              -2
390
0
  6
Continuous
 62
               0
100
AcDbLine
 10
-223.99434306569293
 20
-613.02579075421477
 30
0.0
 11
-223.99434306569293
 21
-688.02579075421454
 31
0.0
  0
LINE
  5
B5
100
AcDbEntity
  8
0
370
              -2
390
0
  6
Continuous
 62
               0
100
AcDbLine
 10
-638.99434306569287
 20
-688.02579075421454
 30
0.0
 11
-223.99434306569293
 21
-688.02579075421454
 31
0.0
  0
CIRCLE
  5
B6
102
{ACAD_REACTORS
330
B7
102
}
100
AcDbEntity
  8
0
370
              -2
390
0
  6
Continuous
 62
               0
100
AcDbCircle
 10
-638.99434306569287
 20
-688.02579075421454
 30
0.0
 40
1.9998779296875
  0
HATCH
  5
B7
100
AcDbEntity
  8
0
370
              -2
390
0
  6
Continuous
 62
               0
100
AcDbHatch
 10
0.0
 20
0.0
 30
0.0
210
0.0
220
0.0
230
1.0
  2
SOLID
 70
               1
 71
               1
 91
        1
 92
        1
 93
        1
 72
               2
 10
-638.99434306569287
 20
-688.02579075421454
 40
1.9998779296875
 50
0.0
 51
360.0
 73
               0
 97
        1
330
B6
 75
               0
 76
               1
 98
        1
 10
0.0
 20
0.0
  0
CIRCLE
  5
B8
102
{ACAD_REACTORS
330
B9
102
}
100
AcDbEntity
  8
0
370
              -2
390
0
  6
Continuous
 62
               0
100
AcDbCircle
 10
-223.99434306569293
 20
-688.02579075421454
 30
0.0
 40
1.9998779296875
  0
HATCH
  5
B9
100
AcDbEntity
  8
0
370
              -2
390
0
  6
Continuous
 62
               0
100
AcDbHatch
 10
0.0
 20
0.0
 30
0.0
210
0.0
220
0.0
230
1.0
  2
SOLID
 70
               1
 71
               1
 91
        1
 92
        1
 93
        1
 72
               2
 10
-223.99434306569293
 20
-688.02579075421454
 40
1.9998779296875
 50
0.0
 51
360.0
 73
               0
 97
        1
330
B8
 75
               0
 76
               1
 98
        1
 10
0.0
 20
0.0
  0
MTEXT
  5
BA
100
AcDbEntity
  8
0
390
0
 62
               0
100
AcDbMText
 10
-455.30684474786841
 20
-654.1481735667146
 30
0.0
 40
24.432617187500004
 41
0.0
 71
               1
 72
               1
  1
415
  7
ＭＳ ゴシック
 73
               1
 44
0.7828267384257843
  0
POINT
  5
BB
100
AcDbEntity
  8
Defpoints
370
               0
390
0
 62
               0
100
AcDbPoint
 10
-223.99434306569293
 20
-588.02579075421477
 30
0.0
  0
POINT
  5
BC
100
AcDbEntity
  8
Defpoints
370
               0
390
0
 62
               0
100
AcDbPoint
 10
-638.99434306569287
 20
-587.46127462518064
 30
0.0
  0
POINT
  5
BD
100
AcDbEntity
  8
Defpoints
370
               0
390
0
 62
               0
100
AcDbPoint
 10
-638.99434306569287
 20
-688.02579075421454
 30
0.0
  0
ENDBLK
  5
BE
100
AcDbEntity
  8
notes
390
0
100
AcDbBlockEnd
  0
BLOCK
  5
BF
100
AcDbEntity
  8
notes
390
0
100
AcDbBlockBegin
  2
*D10
 70
               1
 10
0.0
 20
0.0
 30
0.0
  3
*D10
  1

  0
LINE
  5
C0
100
AcDbEntity
  8
0
370
              -2
390
0
  6
Continuous
 62
               0
100
AcDbLine
 10
372.79924922237529
 20
-578.02579075422875
 30
0.0
 11
164.10565693430652
 21
-578.02579075422875
 31
0.0
  0
LINE
  5
C1
100
AcDbEntity
  8
0
370
              -2
390
0
  6
Continuous
 62
               0
100
AcDbLine
 10
206.04644539987112
 20
-408.02579075425103
 30
0.0
 11
164.10565693430652
 21
-408.02579075425103
 31
0.0
  0
LINE
  5
C2
100
AcDbEntity
  8
0
370
              -2
390
0
  6
Continuous
 62
               0
100
AcDbLine
 10
164.10565693430652
 20
-578.02579075422875
 30
0.0
 11
164.10565693430652
 21
-408.02579075425103
 31
0.0
  0
CIRCLE
  5
C3
102
{ACAD_REACTORS
330
C4
102
}
100
AcDbEntity
  8
0
370
              -2
390
0
  6
Continuous
 62
               0
100
AcDbCircle
 10
164.10565693430652
 20
-578.02579075422875
 30
0.0
 40
1.9998779296875
  0
HATCH
  5
C4
100
AcDbEntity
  8
0
370
              -2
390
0
  6
Continuous
 62
               0
100
AcDbHatch
 10
0.0
 20
0.0
 30
0.0
210
0.0
220
0.0
230
1.0
  2
SOLID
 70
               1
 71
               1
 91
        1
 92
        1
 93
        1
 72
               2
 10
164.10565693430652
 20
-578.02579075422875
 40
1.9998779296875
 50
0.0
 51
360.0
 73
               0
 97
        1
330
C3
 75
               0
 76
               1
 98
        1
 10
0.0
 20
0.0
  0
CIRCLE
  5
C5
102
{ACAD_REACTORS
330
C6
102
}
100
AcDbEntity
  8
0
370
              -2
390
0
  6
Continuous
 62
               0
100
AcDbCircle
 10
164.10565693430652
 20
-408.02579075425103
 30
0.0
 40
1.9998779296875
  0
HATCH
  5
C6
100
AcDbEntity
  8
0
370
              -2
390
0
  6
Continuous
 62
               0
100
AcDbHatch
 10
0.0
 20
0.0
 30
0.0
210
0.0
220
0.0
230
1.0
  2
SOLID
 70
               1
 71
               1
 91
        1
 92
        1
 93
        1
 72
               2
 10
164.10565693430652
 20
-408.02579075425103
 40
1.9998779296875
 50
0.0
 51
360.0
 73
               0
 97
        1
330
C5
 75
               0
 76
               1
 98
        1
 10
0.0
 20
0.0
  0
MTEXT
  5
C7
100
AcDbEntity
  8
0
390
0
 62
               0
100
AcDbMText
 10
130.22803974680653
 20
-516.83829243641537
 30
0.0
 40
24.432617187500004
 41
0.0
 71
               1
 72
               1
  1
170
  7
ＭＳ ゴシック
 11
0.0
 21
1.0
 31
0.0
 73
               1
 44
0.7828267384257843
  0
POINT
  5
C8
100
AcDbEntity
  8
Defpoints
370
               0
390
0
 62
               0
100
AcDbPoint
 10
231.04644539987112
 20
-408.02579075425103
 30
0.0
  0
POINT
  5
C9
100
AcDbEntity
  8
Defpoints
370
               0
390
0
 62
               0
100
AcDbPoint
 10
397.79924922237529
 20
-578.02579075422875
 30
0.0
  0
POINT
  5
CA
100
AcDbEntity
  8
Defpoints
370
               0
390
0
 62
               0
100
AcDbPoint
 10
164.10565693430652
 20
-578.02579075422875
 30
0.0
  0
ENDBLK
  5
CB
100
AcDbEntity
  8
notes
390
0
100
AcDbBlockEnd
  0
BLOCK
  5
CC
100
AcDbEntity
  8
notes
390
0
100
AcDbBlockBegin
  2
*D11
 70
               1
 10
0.0
 20
0.0
 30
0.0
  3
*D11
  1

  0
LINE
  5
CD
100
AcDbEntity
  8
0
370
              -2
390
0
  6
Continuous
 62
               0
100
AcDbLine
 10
-371.65691140379039
 20
-403.02579075425103
 30
0.0
 11
-371.65691140379039
 21
-308.07279440971718
 31
0.0
  0
LINE
  5
CE
100
AcDbEntity
  8
0
370
              -2
390
0
  6
Continuous
 62
               0
100
AcDbLine
 10
-491.65691140379039
 20
-403.02579075425103
 30
0.0
 11
-491.65691140379039
 21
-308.07279440971718
 31
0.0
  0
LINE
  5
CF
100
AcDbEntity
  8
0
370
              -2
390
0
  6
Continuous
 62
               0
100
AcDbLine
 10
-371.65691140379039
 20
-308.07279440971718
 30
0.0
 11
-491.65691140379039
 21
-308.07279440971718
 31
0.0
  0
CIRCLE
  5
D0
102
{ACAD_REACTORS
330
D1
102
}
100
AcDbEntity
  8
0
370
              -2
390
0
  6
Continuous
 62
               0
100
AcDbCircle
 10
-371.65691140379039
 20
-308.07279440971718
 30
0.0
 40
1.9998779296875
  0
HATCH
  5
D1
100
AcDbEntity
  8
0
370
              -2
390
0
  6
Continuous
 62
               0
100
AcDbHatch
 10
0.0
 20
0.0
 30
0.0
210
0.0
220
0.0
230
1.0
  2
SOLID
 70
               1
 71
               1
 91
        1
 92
        1
 93
        1
 72
               2
 10
-371.65691140379039
 20
-308.07279440971718
 40
1.9998779296875
 50
0.0
 51
360.0
 73
               0
 97
        1
330
D0
 75
               0
 76
               1
 98
        1
 10
0.0
 20
0.0
  0
CIRCLE
  5
D2
102
{ACAD_REACTORS
330
D3
102
}
100
AcDbEntity
  8
0
370
              -2
390
0
  6
Continuous
 62
               0
100
AcDbCircle
 10
-491.65691140379039
 20
-308.07279440971718
 30
0.0
 40
1.9998779296875
  0
HATCH
  5
D3
100
AcDbEntity
  8
0
370
              -2
390
0
  6
Continuous
 62
               0
100
AcDbHatch
 10
0.0
 20
0.0
 30
0.0
210
0.0
220
0.0
230
1.0
  2
SOLID
 70
               1
 71
               1
 91
        1
 92
        1
 93
        1
 72
               2
 10
-491.65691140379039
 20
-308.07279440971718
 40
1.9998779296875
 50
0.0
 51
360.0
 73
               0
 97
        1
330
D2
 75
               0
 76
               1
 98
        1
 10
0.0
 20
0.0
  0
MTEXT
  5
D4
100
AcDbEntity
  8
0
390
0
 62
               0
100
AcDbMText
 10
-455.46941308596587
 20
-274.19517722221718
 30
0.0
 40
24.432617187500004
 41
0.0
 71
               1
 72
               1
  1
120
  7
ＭＳ ゴシック
 73
               1
 44
0.7828267384257843
  0
POINT
  5
D5
100
AcDbEntity
  8
Defpoints
370
               0
390
0
 62
               0
100
AcDbPoint
 10
-491.65691140379039
 20
-428.02579075425103
 30
0.0
  0
POINT
  5
D6
100
AcDbEntity
  8
Defpoints
370
               0
390
0
 62
               0
100
AcDbPoint
 10
-371.65691140379039
 20
-428.02579075425103
 30
0.0
  0
POINT
  5
D7
100
AcDbEntity
  8
Defpoints
370
               0
390
0
 62
               0
100
AcDbPoint
 10
-371.65691140379039
 20
-308.07279440971718
 30
0.0
  0
ENDBLK
  5
D8
100
AcDbEntity
  8
notes
390
0
100
AcDbBlockEnd
  0
BLOCK
  5
D9
100
AcDbEntity
  8
notes
390
0
100
AcDbBlockBegin
  2
*D12
 70
               1
 10
0.0
 20
0.0
 30
0.0
  3
*D12
  1

  0
LINE
  5
DA
100
AcDbEntity
  8
0
370
              -2
390
0
  6
Continuous
 62
               0
100
AcDbLine
 10
-566.53093390215304
 20
-447.97878709878489
 30
0.0
 11
-831.53093390215327
 21
-447.97878709878489
 31
0.0
  0
LINE
  5
DB
100
AcDbEntity
  8
0
370
              -2
390
0
  6
Continuous
 62
               0
100
AcDbLine
 10
-751.53197524341272
 20
-408.02579075425103
 30
0.0
 11
-831.53093390215327
 21
-408.02579075425103
 31
0.0
  0
LINE
  5
DC
100
AcDbEntity
  8
0
370
              -2
390
0
  6
Continuous
 62
               0
100
AcDbLine
 10
-831.53093390215327
 20
-447.97878709878489
 30
0.0
 11
-831.53093390215327
 21
-408.02579075425103
 31
0.0
  0
CIRCLE
  5
DD
102
{ACAD_REACTORS
330
DE
102
}
100
AcDbEntity
  8
0
370
              -2
390
0
  6
Continuous
 62
               0
100
AcDbCircle
 10
-831.53093390215327
 20
-447.97878709878489
 30
0.0
 40
1.9998779296875
  0
HATCH
  5
DE
100
AcDbEntity
  8
0
370
              -2
390
0
  6
Continuous
 62
               0
100
AcDbHatch
 10
0.0
 20
0.0
 30
0.0
210
0.0
220
0.0
230
1.0
  2
SOLID
 70
               1
 71
               1
 91
        1
 92
        1
 93
        1
 72
               2
 10
-831.53093390215327
 20
-447.97878709878489
 40
1.9998779296875
 50
0.0
 51
360.0
 73
               0
 97
        1
330
DD
 75
               0
 76
               1
 98
        1
 10
0.0
 20
0.0
  0
CIRCLE
  5
DF
102
{ACAD_REACTORS
330
E0
102
}
100
AcDbEntity
  8
0
370
              -2
390
0
  6
Continuous
 62
               0
100
AcDbCircle
 10
-831.53093390215327
 20
-408.02579075425103
 30
0.0
 40
1.9998779296875
  0
HATCH
  5
E0
100
AcDbEntity
  8
0
370
              -2
390
0
  6
Continuous
 62
               0
100
AcDbHatch
 10
0.0
 20
0.0
 30
0.0
210
0.0
220
0.0
230
1.0
  2
SOLID
 70
               1
 71
               1
 91
        1
 92
        1
 93
        1
 72
               2
 10
-831.53093390215327
 20
-408.02579075425103
 40
1.9998779296875
 50
0.0
 51
360.0
 73
               0
 97
        1
330
DF
 75
               0
 76
               1
 98
        1
 10
0.0
 20
0.0
  0
MTEXT
  5
E1
100
AcDbEntity
  8
0
390
0
 62
               0
100
AcDbMText
 10
-865.4085510896532
 20
-443.87728892651796
 30
0.0
 40
24.432617187500004
 41
0.0
 71
               1
 72
               1
  1
40
  7
ＭＳ ゴシック
 11
0.0
 21
1.0
 31
0.0
 73
               1
 44
0.7828267384257843
  0
POINT
  5
E2
100
AcDbEntity
  8
Defpoints
370
               0
390
0
 62
               0
100
AcDbPoint
 10
-726.53197524341272
 20
-408.02579075425103
 30
0.0
  0
POINT
  5
E3
100
AcDbEntity
  8
Defpoints
370
               0
390
0
 62
               0
100
AcDbPoint
 10
-541.53093390215304
 20
-447.97878709878489
 30
0.0
  0
POINT
  5
E4
100
AcDbEntity
  8
Defpoints
370
               0
390
0
 62
               0
100
AcDbPoint
 10
-831.53093390215327
 20
-447.97878709878489
 30
0.0
  0
ENDBLK
  5
E5
100
AcDbEntity
  8
notes
390
0
100
AcDbBlockEnd
  0
BLOCK
  5
E6
100
AcDbEntity
  8
notes
390
0
100
AcDbBlockBegin
  2
*D13
 70
               1
 10
0.0
 20
0.0
 30
0.0
  3
*D13
  1

  0
LINE
  5
E7
100
AcDbEntity
  8
0
370
              -2
390
0
  6
Continuous
 62
               0
100
AcDbLine
 10
-111.52989256089421
 20
-408.02579075425103
 30
0.0
 11
-31.530933902153322
 21
-408.02579075425103
 31
0.0
  0
LINE
  5
E8
100
AcDbEntity
  8
0
370
              -2
390
0
  6
Continuous
 62
               0
100
AcDbLine
 10
-198.99434306569293
 20
-588.02579075421477
 30
0.0
 11
-31.530933902153322
 21
-588.02579075421477
 31
0.0
  0
LINE
  5
E9
100
AcDbEntity
  8
0
370
              -2
390
0
  6
Continuous
 62
               0
100
AcDbLine
 10
-31.530933902153322
 20
-408.02579075425103
 30
0.0
 11
-31.530933902153322
 21
-588.02579075421477
 31
0.0
  0
CIRCLE
  5
EA
102
{ACAD_REACTORS
330
EB
102
}
100
AcDbEntity
  8
0
370
              -2
390
0
  6
Continuous
 62
               0
100
AcDbCircle
 10
-31.530933902153322
 20
-408.02579075425103
 30
0.0
 40
1.9998779296875
  0
HATCH
  5
EB
100
AcDbEntity
  8
0
370
              -2
390
0
  6
Continuous
 62
               0
100
AcDbHatch
 10
0.0
 20
0.0
 30
0.0
210
0.0
220
0.0
230
1.0
  2
SOLID
 70
               1
 71
               1
 91
        1
 92
        1
 93
        1
 72
               2
 10
-31.530933902153322
 20
-408.02579075425103
 40
1.9998779296875
 50
0.0
 51
360.0
 73
               0
 97
        1
330
EA
 75
               0
 76
               1
 98
        1
 10
0.0
 20
0.0
  0
CIRCLE
  5
EC
102
{ACAD_REACTORS
330
ED
102
}
100
AcDbEntity
  8
0
370
              -2
390
0
  6
Continuous
 62
               0
100
AcDbCircle
 10
-31.530933902153322
 20
-588.02579075421477
 30
0.0
 40
1.9998779296875
  0
HATCH
  5
ED
100
AcDbEntity
  8
0
370
              -2
390
0
  6
Continuous
 62
               0
100
AcDbHatch
 10
0.0
 20
0.0
 30
0.0
210
0.0
220
0.0
230
1.0
  2
SOLID
 70
               1
 71
               1
 91
        1
 92
        1
 93
        1
 72
               2
 10
-31.530933902153322
 20
-588.02579075421477
 40
1.9998779296875
 50
0.0
 51
360.0
 73
               0
 97
        1
330
EC
 75
               0
 76
               1
 98
        1
 10
0.0
 20
0.0
  0
MTEXT
  5
EE
100
AcDbEntity
  8
0
390
0
 62
               0
100
AcDbMText
 10
-65.408551089653372
 20
-521.83829243640844
 30
0.0
 40
24.432617187500004
 41
0.0
 71
               1
 72
               1
  1
180
  7
ＭＳ ゴシック
 11
0.0
 21
1.0
 31
0.0
 73
               1
 44
0.7828267384257843
  0
POINT
  5
EF
100
AcDbEntity
  8
Defpoints
370
               0
390
0
 62
               0
100
AcDbPoint
 10
-223.99434306569293
 20
-588.02579075421477
 30
0.0
  0
POINT
  5
F0
100
AcDbEntity
  8
Defpoints
370
               0
390
0
 62
               0
100
AcDbPoint
 10
-136.52989256089421
 20
-408.02579075425103
 30
0.0
  0
POINT
  5
F1
100
AcDbEntity
  8
Defpoints
370
               0
390
0
 62
               0
100
AcDbPoint
 10
-31.530933902153322
 20
-408.02579075425103
 30
0.0
  0
ENDBLK
  5
F2
100
AcDbEntity
  8
notes
390
0
100
AcDbBlockEnd
  0
BLOCK
  5
F3
100
AcDbEntity
  8
notes
390
0
100
AcDbBlockBegin
  2
*D14
 70
               1
 10
0.0
 20
0.0
 30
0.0
  3
*D14
  1

  0
LINE
  5
F4
100
AcDbEntity
  8
0
370
              -2
390
0
  6
Continuous
 62
               0
100
AcDbLine
 10
-731.53093390215327
 20
567.29439794743985
 30
0.0
 11
-731.53093390215327
 21
959.57751394440447
 31
0.0
  0
LINE
  5
F5
100
AcDbEntity
  8
0
370
              -2
390
0
  6
Continuous
 62
               0
100
AcDbLine
 10
-131.53093390215332
 20
567.29439794743985
 30
0.0
 11
-131.53093390215332
 21
959.57751394440447
 31
0.0
  0
LINE
  5
F6
100
AcDbEntity
  8
0
370
              -2
390
0
  6
Continuous
 62
               0
100
AcDbLine
 10
-731.53093390215327
 20
959.57751394440447
 30
0.0
 11
-131.53093390215332
 21
959.57751394440447
 31
0.0
  0
CIRCLE
  5
F7
102
{ACAD_REACTORS
330
F8
102
}
100
AcDbEntity
  8
0
370
              -2
390
0
  6
Continuous
 62
               0
100
AcDbCircle
 10
-731.53093390215327
 20
959.57751394440447
 30
0.0
 40
1.9998779296875
  0
HATCH
  5
F8
100
AcDbEntity
  8
0
370
              -2
390
0
  6
Continuous
 62
               0
100
AcDbHatch
 10
0.0
 20
0.0
 30
0.0
210
0.0
220
0.0
230
1.0
  2
SOLID
 70
               1
 71
               1
 91
        1
 92
        1
 93
        1
 72
               2
 10
-731.53093390215327
 20
959.57751394440447
 40
1.9998779296875
 50
0.0
 51
360.0
 73
               0
 97
        1
330
F7
 75
               0
 76
               1
 98
        1
 10
0.0
 20
0.0
  0
CIRCLE
  5
F9
102
{ACAD_REACTORS
330
FA
102
}
100
AcDbEntity
  8
0
370
              -2
390
0
  6
Continuous
 62
               0
100
AcDbCircle
 10
-131.53093390215332
 20
959.57751394440447
 30
0.0
 40
1.9998779296875
  0
HATCH
  5
FA
100
AcDbEntity
  8
0
370
              -2
390
0
  6
Continuous
 62
               0
100
AcDbHatch
 10
0.0
 20
0.0
 30
0.0
210
0.0
220
0.0
230
1.0
  2
SOLID
 70
               1
 71
               1
 91
        1
 92
        1
 93
        1
 72
               2
 10
-131.53093390215332
 20
959.57751394440447
 40
1.9998779296875
 50
0.0
 51
360.0
 73
               0
 97
        1
330
F9
 75
               0
 76
               1
 98
        1
 10
0.0
 20
0.0
  0
MTEXT
  5
FB
100
AcDbEntity
  8
0
390
0
 62
               0
100
AcDbMText
 10
-455.3434355843288
 20
993.45513113190441
 30
0.0
 40
24.432617187500004
 41
0.0
 71
               1
 72
               1
  1
600
  7
ＭＳ ゴシック
 73
               1
 44
0.7828267384257843
  0
POINT
  5
FC
100
AcDbEntity
  8
Defpoints
370
               0
390
0
 62
               0
100
AcDbPoint
 10
-131.53093390215332
 20
542.29439794743985
 30
0.0
  0
POINT
  5
FD
100
AcDbEntity
  8
Defpoints
370
               0
390
0
 62
               0
100
AcDbPoint
 10
-731.53093390215327
 20
542.29439794743985
 30
0.0
  0
POINT
  5
FE
100
AcDbEntity
  8
Defpoints
370
               0
390
0
 62
               0
100
AcDbPoint
 10
-731.53093390215327
 20
959.57751394440447
 30
0.0
  0
ENDBLK
  5
FF
100
AcDbEntity
  8
notes
390
0
100
AcDbBlockEnd
  0
BLOCK
  5
100
100
AcDbEntity
  8
notes
390
0
100
AcDbBlockBegin
  2
*D15
 70
               1
 10
0.0
 20
0.0
 30
0.0
  3
*D15
  1

  0
LINE
  5
101
100
AcDbEntity
  8
0
370
              -2
390
0
  6
Continuous
 62
               0
100
AcDbLine
 10
-286.53093390215309
 20
809.57751394440447
 30
0.0
 11
-31.530933902153322
 21
809.57751394440447
 31
0.0
  0
LINE
  5
102
100
AcDbEntity
  8
0
370
              -2
390
0
  6
Continuous
 62
               0
100
AcDbLine
 10
-326.89434306569302
 20
309.57751394440459
 30
0.0
 11
-31.530933902153322
 21
309.57751394440459
 31
0.0
  0
LINE
  5
103
100
AcDbEntity
  8
0
370
              -2
390
0
  6
Continuous
 62
               0
100
AcDbLine
 10
-31.530933902153322
 20
809.57751394440447
 30
0.0
 11
-31.530933902153322
 21
309.57751394440459
 31
0.0
  0
CIRCLE
  5
104
102
{ACAD_REACTORS
330
105
102
}
100
AcDbEntity
  8
0
370
              -2
390
0
  6
Continuous
 62
               0
100
AcDbCircle
 10
-31.530933902153322
 20
809.57751394440447
 30
0.0
 40
1.9998779296875
  0
HATCH
  5
105
100
AcDbEntity
  8
0
370
              -2
390
0
  6
Continuous
 62
               0
100
AcDbHatch
 10
0.0
 20
0.0
 30
0.0
210
0.0
220
0.0
230
1.0
  2
SOLID
 70
               1
 71
               1
 91
        1
 92
        1
 93
        1
 72
               2
 10
-31.530933902153322
 20
809.57751394440447
 40
1.9998779296875
 50
0.0
 51
360.0
 73
               0
 97
        1
330
104
 75
               0
 76
               1
 98
        1
 10
0.0
 20
0.0
  0
CIRCLE
  5
106
102
{ACAD_REACTORS
330
107
102
}
100
AcDbEntity
  8
0
370
              -2
390
0
  6
Continuous
 62
               0
100
AcDbCircle
 10
-31.530933902153322
 20
309.57751394440459
 30
0.0
 40
1.9998779296875
  0
HATCH
  5
107
100
AcDbEntity
  8
0
370
              -2
390
0
  6
Continuous
 62
               0
100
AcDbHatch
 10
0.0
 20
0.0
 30
0.0
210
0.0
220
0.0
230
1.0
  2
SOLID
 70
               1
 71
               1
 91
        1
 92
        1
 93
        1
 72
               2
 10
-31.530933902153322
 20
309.57751394440459
 40
1.9998779296875
 50
0.0
 51
360.0
 73
               0
 97
        1
330
106
 75
               0
 76
               1
 98
        1
 10
0.0
 20
0.0
  0
MTEXT
  5
108
100
AcDbEntity
  8
0
390
0
 62
               0
100
AcDbMText
 10
-65.408551089653372
 20
535.76501226222899
 30
0.0
 40
24.432617187500004
 41
0.0
 71
               1
 72
               1
  1
500
  7
ＭＳ ゴシック
 11
0.0
 21
1.0
 31
0.0
 73
               1
 44
0.7828267384257843
  0
POINT
  5
109
100
AcDbEntity
  8
Defpoints
370
               0
390
0
 62
               0
100
AcDbPoint
 10
-351.89434306569302
 20
309.57751394440459
 30
0.0
  0
POINT
  5
10A
100
AcDbEntity
  8
Defpoints
370
               0
390
0
 62
               0
100
AcDbPoint
 10
-311.53093390215309
 20
809.57751394440447
 30
0.0
  0
POINT
  5
10B
100
AcDbEntity
  8
Defpoints
370
               0
390
0
 62
               0
100
AcDbPoint
 10
-31.530933902153322
 20
809.57751394440447
 30
0.0
  0
ENDBLK
  5
10C
100
AcDbEntity
  8
notes
390
0
100
AcDbBlockEnd
  0
BLOCK
  5
10D
100
AcDbEntity
  8
notes
390
0
100
AcDbBlockBegin
  2
*D16
 70
               1
 10
0.0
 20
0.0
 30
0.0
  3
*D16
  1

  0
LINE
  5
10E
100
AcDbEntity
  8
0
370
              -2
390
0
  6
Continuous
 62
               0
100
AcDbLine
 10
-637.78703983621153
 20
684.57734931672826
 30
0.0
 11
-831.53093390215327
 21
684.57734931672826
 31
0.0
  0
LINE
  5
10F
100
AcDbEntity
  8
0
370
              -2
390
0
  6
Continuous
 62
               0
100
AcDbLine
 10
-636.50337399325986
 20
349.57734931672837
 30
0.0
 11
-831.53093390215327
 21
349.57734931672837
 31
0.0
  0
LINE
  5
110
100
AcDbEntity
  8
0
370
              -2
390
0
  6
Continuous
 62
               0
100
AcDbLine
 10
-831.53093390215327
 20
684.57734931672826
 30
0.0
 11
-831.53093390215327
 21
349.57734931672837
 31
0.0
  0
CIRCLE
  5
111
102
{ACAD_REACTORS
330
112
102
}
100
AcDbEntity
  8
0
370
              -2
390
0
  6
Continuous
 62
               0
100
AcDbCircle
 10
-831.53093390215327
 20
684.57734931672826
 30
0.0
 40
1.9998779296875
  0
HATCH
  5
112
100
AcDbEntity
  8
0
370
              -2
390
0
  6
Continuous
 62
               0
100
AcDbHatch
 10
0.0
 20
0.0
 30
0.0
210
0.0
220
0.0
230
1.0
  2
SOLID
 70
               1
 71
               1
 91
        1
 92
        1
 93
        1
 72
               2
 10
-831.53093390215327
 20
684.57734931672826
 40
1.9998779296875
 50
0.0
 51
360.0
 73
               0
 97
        1
330
111
 75
               0
 76
               1
 98
        1
 10
0.0
 20
0.0
  0
CIRCLE
  5
113
102
{ACAD_REACTORS
330
114
102
}
100
AcDbEntity
  8
0
370
              -2
390
0
  6
Continuous
 62
               0
100
AcDbCircle
 10
-831.53093390215327
 20
349.57734931672837
 30
0.0
 40
1.9998779296875
  0
HATCH
  5
114
100
AcDbEntity
  8
0
370
              -2
390
0
  6
Continuous
 62
               0
100
AcDbHatch
 10
0.0
 20
0.0
 30
0.0
210
0.0
220
0.0
230
1.0
  2
SOLID
 70
               1
 71
               1
 91
        1
 92
        1
 93
        1
 72
               2
 10
-831.53093390215327
 20
349.57734931672837
 40
1.9998779296875
 50
0.0
 51
360.0
 73
               0
 97
        1
330
113
 75
               0
 76
               1
 98
        1
 10
0.0
 20
0.0
  0
MTEXT
  5
115
100
AcDbEntity
  8
0
390
0
 62
               0
100
AcDbMText
 10
-865.4085510896532
 20
493.26484763455278
 30
0.0
 40
24.432617187500004
 41
0.0
 71
               1
 72
               1
  1
335
  7
ＭＳ ゴシック
 11
0.0
 21
1.0
 31
0.0
 73
               1
 44
0.7828267384257843
  0
POINT
  5
116
100
AcDbEntity
  8
Defpoints
370
               0
390
0
 62
               0
100
AcDbPoint
 10
-611.50337399325986
 20
349.57734931672837
 30
0.0
  0
POINT
  5
117
100
AcDbEntity
  8
Defpoints
370
               0
390
0
 62
               0
100
AcDbPoint
 10
-612.78703983621153
 20
684.57734931672826
 30
0.0
  0
POINT
  5
118
100
AcDbEntity
  8
Defpoints
370
               0
390
0
 62
               0
100
AcDbPoint
 10
-831.53093390215327
 20
684.57734931672826
 30
0.0
  0
ENDBLK
  5
119
100
AcDbEntity
  8
notes
390
0
100
AcDbBlockEnd
  0
BLOCK
  5
11A
100
AcDbEntity
  8
notes
390
0
100
AcDbBlockBegin
  2
*D17
 70
               1
 10
0.0
 20
0.0
 30
0.0
  3
*D17
  1

  0
LINE
  5
11B
100
AcDbEntity
  8
0
370
              -2
390
0
  6
Continuous
 62
               0
100
AcDbLine
 10
725.99331211833578
 20
-387.02579075425058
 30
0.0
 11
725.99331211833578
 21
-308.02579075425103
 31
0.0
  0
LINE
  5
11C
100
AcDbEntity
  8
0
370
              -2
390
0
  6
Continuous
 62
               0
100
AcDbLine
 10
665.99331211833578
 20
-383.02579075425058
 30
0.0
 11
665.99331211833578
 21
-308.02579075425103
 31
0.0
  0
LINE
  5
11D
100
AcDbEntity
  8
0
370
              -2
390
0
  6
Continuous
 62
               0
100
AcDbLine
 10
725.99331211833578
 20
-308.02579075425103
 30
0.0
 11
665.99331211833578
 21
-308.02579075425103
 31
0.0
  0
CIRCLE
  5
11E
102
{ACAD_REACTORS
330
11F
102
}
100
AcDbEntity
  8
0
370
              -2
390
0
  6
Continuous
 62
               0
100
AcDbCircle
 10
725.99331211833578
 20
-308.02579075425103
 30
0.0
 40
1.9998779296875
  0
HATCH
  5
11F
100
AcDbEntity
  8
0
370
              -2
390
0
  6
Continuous
 62
               0
100
AcDbHatch
 10
0.0
 20
0.0
 30
0.0
210
0.0
220
0.0
230
1.0
  2
SOLID
 70
               1
 71
               1
 91
        1
 92
        1
 93
        1
 72
               2
 10
725.99331211833578
 20
-308.02579075425103
 40
1.9998779296875
 50
0.0
 51
360.0
 73
               0
 97
        1
330
11E
 75
               0
 76
               1
 98
        1
 10
0.0
 20
0.0
  0
CIRCLE
  5
120
102
{ACAD_REACTORS
330
121
102
}
100
AcDbEntity
  8
0
370
              -2
390
0
  6
Continuous
 62
               0
100
AcDbCircle
 10
665.99331211833578
 20
-308.02579075425103
 30
0.0
 40
1.9998779296875
  0
HATCH
  5
121
100
AcDbEntity
  8
0
370
              -2
390
0
  6
Continuous
 62
               0
100
AcDbHatch
 10
0.0
 20
0.0
 30
0.0
210
0.0
220
0.0
230
1.0
  2
SOLID
 70
               1
 71
               1
 91
        1
 92
        1
 93
        1
 72
               2
 10
665.99331211833578
 20
-308.02579075425103
 40
1.9998779296875
 50
0.0
 51
360.0
 73
               0
 97
        1
330
120
 75
               0
 76
               1
 98
        1
 10
0.0
 20
0.0
  0
MTEXT
  5
122
100
AcDbEntity
  8
0
390
0
 62
               0
100
AcDbMText
 10
680.11831211833578
 20
-274.14817356675104
 30
0.0
 40
24.432617187500004
 41
0.0
 71
               1
 72
               1
  1
60
  7
ＭＳ ゴシック
 73
               1
 44
0.7828267384257843
  0
POINT
  5
123
100
AcDbEntity
  8
Defpoints
370
               0
390
0
 62
               0
100
AcDbPoint
 10
665.99331211833578
 20
-408.02579075425058
 30
0.0
  0
POINT
  5
124
100
AcDbEntity
  8
Defpoints
370
               0
390
0
 62
               0
100
AcDbPoint
 10
725.99331211833578
 20
-412.02579075425058
 30
0.0
  0
POINT
  5
125
100
AcDbEntity
  8
Defpoints
370
               0
390
0
 62
               0
100
AcDbPoint
 10
725.99331211833578
 20
-308.02579075425103
 30
0.0
  0
ENDBLK
  5
126
100
AcDbEntity
  8
notes
390
0
100
AcDbBlockEnd
  0
BLOCK
  5
127
100
AcDbEntity
  8
notes
390
0
100
AcDbBlockBegin
  2
*D18
 70
               1
 10
0.0
 20
0.0
 30
0.0
  3
*D18
  1

  0
LINE
  5
128
100
AcDbEntity
  8
0
370
              -2
390
0
  6
Continuous
 62
               0
100
AcDbLine
 10
725.99331211833669
 20
-607.02579075425058
 30
0.0
 11
725.99331211833669
 21
-688.02579075421454
 31
0.0
  0
LINE
  5
129
100
AcDbEntity
  8
0
370
              -2
390
0
  6
Continuous
 62
               0
100
AcDbLine
 10
425.99331211833726
 20
-613.02579075421454
 30
0.0
 11
425.99331211833726
 21
-688.02579075421454
 31
0.0
  0
LINE
  5
12A
100
AcDbEntity
  8
0
370
              -2
390
0
  6
Continuous
 62
               0
100
AcDbLine
 10
725.99331211833669
 20
-688.02579075421454
 30
0.0
 11
425.99331211833726
 21
-688.02579075421454
 31
0.0
  0
CIRCLE
  5
12B
102
{ACAD_REACTORS
330
12C
102
}
100
AcDbEntity
  8
0
370
              -2
390
0
  6
Continuous
 62
               0
100
AcDbCircle
 10
725.99331211833669
 20
-688.02579075421454
 30
0.0
 40
1.9998779296875
  0
HATCH
  5
12C
100
AcDbEntity
  8
0
370
              -2
390
0
  6
Continuous
 62
               0
100
AcDbHatch
 10
0.0
 20
0.0
 30
0.0
210
0.0
220
0.0
230
1.0
  2
SOLID
 70
               1
 71
               1
 91
        1
 92
        1
 93
        1
 72
               2
 10
725.99331211833669
 20
-688.02579075421454
 40
1.9998779296875
 50
0.0
 51
360.0
 73
               0
 97
        1
330
12B
 75
               0
 76
               1
 98
        1
 10
0.0
 20
0.0
  0
CIRCLE
  5
12D
102
{ACAD_REACTORS
330
12E
102
}
100
AcDbEntity
  8
0
370
              -2
390
0
  6
Continuous
 62
               0
100
AcDbCircle
 10
425.99331211833726
 20
-688.02579075421454
 30
0.0
 40
1.9998779296875
  0
HATCH
  5
12E
100
AcDbEntity
  8
0
370
              -2
390
0
  6
Continuous
 62
               0
100
AcDbHatch
 10
0.0
 20
0.0
 30
0.0
210
0.0
220
0.0
230
1.0
  2
SOLID
 70
               1
 71
               1
 91
        1
 92
        1
 93
        1
 72
               2
 10
425.99331211833726
 20
-688.02579075421454
 40
1.9998779296875
 50
0.0
 51
360.0
 73
               0
 97
        1
330
12D
 75
               0
 76
               1
 98
        1
 10
0.0
 20
0.0
  0
MTEXT
  5
12F
100
AcDbEntity
  8
0
390
0
 62
               0
100
AcDbMText
 10
552.18081043616144
 20
-654.1481735667146
 30
0.0
 40
24.432617187500004
 41
0.0
 71
               1
 72
               1
  1
300
  7
ＭＳ ゴシック
 73
               1
 44
0.7828267384257843
  0
POINT
  5
130
100
AcDbEntity
  8
Defpoints
370
               0
390
0
 62
               0
100
AcDbPoint
 10
425.99331211833726
 20
-588.02579075421465
 30
0.0
  0
POINT
  5
131
100
AcDbEntity
  8
Defpoints
370
               0
390
0
 62
               0
100
AcDbPoint
 10
725.99331211833669
 20
-582.02579075425058
 30
0.0
  0
POINT
  5
132
100
AcDbEntity
  8
Defpoints
370
               0
390
0
 62
               0
100
AcDbPoint
 10
725.99331211833669
 20
-688.02579075421454
 30
0.0
  0
ENDBLK
  5
133
100
AcDbEntity
  8
notes
390
0
100
AcDbBlockEnd
  0
BLOCK
  5
134
100
AcDbEntity
  8
notes
390
0
100
AcDbBlockBegin
  2
*D19
 70
               1
 10
0.0
 20
0.0
 30
0.0
  3
*D19
  1

  0
LINE
  5
135
100
AcDbEntity
  8
0
370
              -2
390
0
  6
Continuous
 62
               0
100
AcDbLine
 10
-637.78703983621153
 20
684.57734931672826
 30
0.0
 11
-831.53093390215327
 21
684.57734931672826
 31
0.0
  0
LINE
  5
136
100
AcDbEntity
  8
0
370
              -2
390
0
  6
Continuous
 62
               0
100
AcDbLine
 10
-588.19525281349456
 20
809.57734931672826
 30
0.0
 11
-831.53093390215327
 21
809.57734931672826
 31
0.0
  0
LINE
  5
137
100
AcDbEntity
  8
0
370
              -2
390
0
  6
Continuous
 62
               0
100
AcDbLine
 10
-831.53093390215327
 20
684.57734931672826
 30
0.0
 11
-831.53093390215327
 21
809.57734931672826
 31
0.0
  0
CIRCLE
  5
138
102
{ACAD_REACTORS
330
139
102
}
100
AcDbEntity
  8
0
370
              -2
390
0
  6
Continuous
 62
               0
100
AcDbCircle
 10
-831.53093390215327
 20
684.57734931672826
 30
0.0
 40
1.9998779296875
  0
HATCH
  5
139
100
AcDbEntity
  8
0
370
              -2
390
0
  6
Continuous
 62
               0
100
AcDbHatch
 10
0.0
 20
0.0
 30
0.0
210
0.0
220
0.0
230
1.0
  2
SOLID
 70
               1
 71
               1
 91
        1
 92
        1
 93
        1
 72
               2
 10
-831.53093390215327
 20
684.57734931672826
 40
1.9998779296875
 50
0.0
 51
360.0
 73
               0
 97
        1
330
138
 75
               0
 76
               1
 98
        1
 10
0.0
 20
0.0
  0
CIRCLE
  5
13A
102
{ACAD_REACTORS
330
13B
102
}
100
AcDbEntity
  8
0
370
              -2
390
0
  6
Continuous
 62
               0
100
AcDbCircle
 10
-831.53093390215327
 20
809.57734931672826
 30
0.0
 40
1.9998779296875
  0
HATCH
  5
13B
100
AcDbEntity
  8
0
370
              -2
390
0
  6
Continuous
 62
               0
100
AcDbHatch
 10
0.0
 20
0.0
 30
0.0
210
0.0
220
0.0
230
1.0
  2
SOLID
 70
               1
 71
               1
 91
        1
 92
        1
 93
        1
 72
               2
 10
-831.53093390215327
 20
809.57734931672826
 40
1.9998779296875
 50
0.0
 51
360.0
 73
               0
 97
        1
330
13A
 75
               0
 76
               1
 98
        1
 10
0.0
 20
0.0
  0
MTEXT
  5
13C
100
AcDbEntity
  8
0
390
0
 62
               0
100
AcDbMText
 10
-865.4085510896532
 20
723.26484763455278
 30
0.0
 40
24.432617187500004
 41
0.0
 71
               1
 72
               1
  1
125
  7
ＭＳ ゴシック
 11
0.0
 21
1.0
 31
0.0
 73
               1
 44
0.7828267384257843
  0
POINT
  5
13D
100
AcDbEntity
  8
Defpoints
370
               0
390
0
 62
               0
100
AcDbPoint
 10
-563.19525281349456
 20
809.57734931672826
 30
0.0
  0
POINT
  5
13E
100
AcDbEntity
  8
Defpoints
370
               0
390
0
 62
               0
100
AcDbPoint
 10
-612.78703983621153
 20
684.57734931672826
 30
0.0
  0
POINT
  5
13F
100
AcDbEntity
  8
Defpoints
370
               0
390
0
 62
               0
100
AcDbPoint
 10
-831.53093390215327
 20
684.57734931672826
 30
0.0
  0
ENDBLK
  5
140
100
AcDbEntity
  8
notes
390
0
100
AcDbBlockEnd
  0
BLOCK
  5
141
100
AcDbEntity
  8
notes
390
0
100
AcDbBlockBegin
  2
*D20
 70
               1
 10
0.0
 20
0.0
 30
0.0
  3
*D20
  1

  0
LINE
  5
142
100
AcDbEntity
  8
0
370
              -2
390
0
  6
Continuous
 62
               0
100
AcDbLine
 10
452.35972904234762
 20
-533.02579075422875
 30
0.0
 11
436.35972904234762
 21
-533.02579075422875
 31
0.0
  0
LINE
  5
143
100
AcDbEntity
  8
0
370
              -2
390
0
  6
Continuous
 62
               0
100
AcDbLine
 10
452.35972904234762
 20
-408.02579075425103
 30
0.0
 11
436.35972904234762
 21
-408.02579075425103
 31
0.0
  0
LINE
  5
144
100
AcDbEntity
  8
0
370
              -2
390
0
  6
Continuous
 62
               0
100
AcDbLine
 10
436.35972904234762
 20
-408.02579075425103
 30
0.0
 11
436.35972904234762
 21
-261.15079075425103
 31
0.0
  0
LINE
  5
145
100
AcDbEntity
  8
0
370
              -2
390
0
  6
Continuous
 62
               0
100
AcDbLine
 10
436.35972904234762
 20
-533.02579075422875
 30
0.0
 11
436.35972904234762
 21
-408.02579075425103
 31
0.0
  0
CIRCLE
  5
146
102
{ACAD_REACTORS
330
147
102
}
100
AcDbEntity
  8
0
370
              -2
390
0
  6
Continuous
 62
               0
100
AcDbCircle
 10
436.35972904234762
 20
-533.02579075422875
 30
0.0
 40
1.9998779296875
  0
HATCH
  5
147
100
AcDbEntity
  8
0
370
              -2
390
0
  6
Continuous
 62
               0
100
AcDbHatch
 10
0.0
 20
0.0
 30
0.0
210
0.0
220
0.0
230
1.0
  2
SOLID
 70
               1
 71
               1
 91
        1
 92
        1
 93
        1
 72
               2
 10
436.35972904234762
 20
-533.02579075422875
 40
1.9998779296875
 50
0.0
 51
360.0
 73
               0
 97
        1
330
146
 75
               0
 76
               1
 98
        1
 10
0.0
 20
0.0
  0
CIRCLE
  5
148
102
{ACAD_REACTORS
330
149
102
}
100
AcDbEntity
  8
0
370
              -2
390
0
  6
Continuous
 62
               0
100
AcDbCircle
 10
436.35972904234762
 20
-408.02579075425103
 30
0.0
 40
1.9998779296875
  0
HATCH
  5
149
100
AcDbEntity
  8
0
370
              -2
390
0
  6
Continuous
 62
               0
100
AcDbHatch
 10
0.0
 20
0.0
 30
0.0
210
0.0
220
0.0
230
1.0
  2
SOLID
 70
               1
 71
               1
 91
        1
 92
        1
 93
        1
 72
               2
 10
436.35972904234762
 20
-408.02579075425103
 40
1.9998779296875
 50
0.0
 51
360.0
 73
               0
 97
        1
330
148
 75
               0
 76
               1
 98
        1
 10
0.0
 20
0.0
  0
MTEXT
  5
14A
100
AcDbEntity
  8
0
390
0
 62
               0
100
AcDbMText
 10
402.48211185484757
 20
-404.02579075425103
 30
0.0
 40
24.432617187500004
 41
0.0
 71
               1
 72
               1
  1
125(深さ)
  7
ＭＳ ゴシック
 11
0.0
 21
1.0
 31
0.0
 73
               1
 44
0.7828267384257843
  0
POINT
  5
14B
100
AcDbEntity
  8
Defpoints
370
               0
390
0
 62
               0
100
AcDbPoint
 10
427.35972904234762
 20
-408.02579075425103
 30
0.0
  0
POINT
  5
14C
100
AcDbEntity
  8
Defpoints
370
               0
390
0
 62
               0
100
AcDbPoint
 10
427.35972904234762
 20
-533.02579075422875
 30
0.0
  0
POINT
  5
14D
100
AcDbEntity
  8
Defpoints
370
               0
390
0
 62
               0
100
AcDbPoint
 10
436.35972904234762
 20
-533.02579075422875
 30
0.0
  0
ENDBLK
  5
14E
100
AcDbEntity
  8
notes
390
0
100
AcDbBlockEnd
  0
BLOCK
  5
14F
100
AcDbEntity
  8
ADF70-0108
390
0
100
AcDbBlockBegin
  2
グループ-1
 70
               0
 10
0.0
 20
0.0
 30
0.0
  3
グループ-1
  1

  0
LINE
  5
150
100
AcDbEntity
  8
0
370
              15
390
0
  6
Continuous
 62
               7
100
AcDbLine
 10
231.69447044743418
 20
1460.6986927485336
 30
0.0
 11
194.69447044743418
 21
1423.6986927485336
 31
0.0
  0
LINE
  5
151
100
AcDbEntity
  8
0
370
              15
390
0
  6
Continuous
 62
               7
100
AcDbLine
 10
211.69447044743418
 20
1460.6986927485336
 30
0.0
 11
174.69447044743418
 21
1423.6986927485336
 31
0.0
  0
LINE
  5
152
100
AcDbEntity
  8
0
370
              15
390
0
  6
Continuous
 62
               7
100
AcDbLine
 10
191.69447044743418
 20
1460.6986927485336
 30
0.0
 11
154.69447044743418
 21
1423.6986927485336
 31
0.0
  0
ENDBLK
  5
153
100
AcDbEntity
  8
ADF70-0108
390
0
100
AcDbBlockEnd
  0
ENDSEC
  0
SECTION
  2
ENTITIES
  0
MTEXT
  5
154
100
AcDbEntity
  8
template
390
0
 62
               7
100
AcDbMText
 10
-967.99999999975921
 20
-1147.4176292337006
 30
0.0
 40
16.288411458333332
 41
0.0
 71
               1
 72
               1
  1
品名
  7
ＭＳ ゴシック
 73
               1
 44
0.7828267384257843
  0
MTEXT
  5
155
100
AcDbEntity
  8
template
390
0
 62
               7
100
AcDbMText
 10
-967.99999999975921
 20
-1232.4176292337006
 30
0.0
 40
16.288411458333332
 41
0.0
 71
               1
 72
               1
  1
仕様
  7
ＭＳ ゴシック
 73
               1
 44
0.7828267384257843
  0
MTEXT
  5
156
100
AcDbEntity
  8
template
390
0
 62
               7
100
AcDbMText
 10
-914.99999999975921
 20
-1176.0000901712006
 30
0.0
 40
24.432617187500004
 41
0.0
 71
               1
 72
               1
  1
洗面器 -CATALANO,Zero-
  7
ＭＳ ゴシック
 73
               1
 44
0.7828267384257843
  0
LINE
  5
157
100
AcDbEntity
  8
template
370
               5
390
0
  6
Continuous
 62
               7
100
AcDbLine
 10
974.99999999975876
 20
-1224.0027073587005
 30
0.0
 11
-975.00000000024124
 21
-1224.0027073587005
 31
0.0
  0
LWPOLYLINE
  5
158
100
AcDbEntity
  8
template
370
               5
390
0
  6
Continuous
 62
               7
100
AcDbPolyline
 90
        5
 70
             128
 10
975.00000000024124
 20
1405.9972926412995
 10
-974.99999999975921
 20
1405.9972926412995
 10
-974.99999999975921
 20
-1394.0027073587005
 10
975.00000000024124
 20
-1394.0027073587005
 10
975.00000000024124
 20
1405.9972926412995
  0
LINE
  5
159
100
AcDbEntity
  8
template
370
               5
390
0
  6
Continuous
 62
               7
100
AcDbLine
 10
974.99999999975876
 20
-1139.0027073587005
 30
0.0
 11
-975.00000000024124
 21
-1139.0027073587005
 31
0.0
  0
LINE
  5
15A
100
AcDbEntity
  8
template
370
               5
390
0
  6
Continuous
 62
               7
100
AcDbLine
 10
975.00000000024124
 20
-1309.0027073587005
 30
0.0
 11
222.00000000024124
 21
-1309.0027073587005
 31
0.0
  0
MTEXT
  5
15B
100
AcDbEntity
  8
template
390
0
 62
               7
100
AcDbMText
 10
-974.99999999955594
 20
-1405.8565294155574
 30
0.0
 40
21.717881944444446
 41
0.0
 71
               1
 72
               1
  1
100707SH
  7
ＭＳ ゴシック
 73
               1
 44
0.7828267384257843
  0
MTEXT
  5
15C
100
AcDbEntity
  8
template
390
0
 62
               7
100
AcDbMText
 10
251.87140625250089
 20
-1338.9131018320081
 30
0.0
 40
24.432617187500004
 41
0.0
 71
               1
 72
               1
  1
大洋金物株式会社 ティーフォルム事業部
  7
ＭＳ ゴシック
 73
               1
 44
0.7828267384257843
  0
INSERT
  5
15D
100
AcDbEntity
  8
template
390
0
 62
               7
100
AcDbBlockReference
  2
グループ
 10
472.91118648687228
 20
-614.2244835027841
 30
0.0
  0
MTEXT
  5
15E
100
AcDbEntity
  8
template
390
0
 62
               7
100
AcDbMText
 10
784.00000000049999
 20
-1261.0000901712006
 30
0.0
 40
24.432617187500004
 41
0.0
 71
               1
 72
               1
  1
1:10
  7
ＭＳ ゴシック
 73
               1
 44
0.7828267384257843
  0
MTEXT
  5
15F
100
AcDbEntity
  8
template
390
0
 62
               7
100
AcDbMText
 10
731.00000000049999
 20
-1232.4176292337006
 30
0.0
 40
16.288411458333332
 41
0.0
 71
               1
 72
               1
  1
縮尺
  7
ＭＳ ゴシック
 73
               1
 44
0.7828267384257843
  0
LINE
  5
160
100
AcDbEntity
  8
template
370
               5
390
0
  6
Continuous
 62
               7
100
AcDbLine
 10
724.00000000049999
 20
-1309.0027073587005
 30
0.0
 11
724.00000000049999
 21
-1224.0027073587005
 31
0.0
  0
MTEXT
  5
161
100
AcDbEntity
  8
template
390
0
 62
               7
100
AcDbMText
 10
480.00000000049999
 20
-1232.4176292337006
 30
0.0
 40
16.288411458333332
 41
0.0
 71
               1
 72
               1
  1
容量
  7
ＭＳ ゴシック
 73
               1
 44
0.7828267384257843
  0
MTEXT
  5
162
100
AcDbEntity
  8
template
390
0
 62
               7
100
AcDbMText
 10
533.00000000049999
 20
-1261.0000901712006
 30
0.0
 40
24.432617187500004
 41
0.0
 71
               1
 72
               1
  1
6.4L
  7
ＭＳ ゴシック
 73
               1
 44
0.7828267384257843
  0
LINE
  5
163
100
AcDbEntity
  8
template
370
               5
390
0
  6
Continuous
 62
               7
100
AcDbLine
 10
473.00000000049999
 20
-1309.0027073587005
 30
0.0
 11
473.00000000049999
 21
-1224.0027073587005
 31
0.0
  0
MTEXT
  5
164
100
AcDbEntity
  8
template
390
0
 62
               7
100
AcDbMText
 10
229.00000000049999
 20
-1147.4176292337006
 30
0.0
 40
16.288411458333332
 41
0.0
 71
               1
 72
               1
  1
品番
  7
ＭＳ ゴシック
 73
               1
 44
0.7828267384257843
  0
MTEXT
  5
165
100
AcDbEntity
  8
template
390
0
 62
               7
100
AcDbMText
 10
229.00000000049999
 20
-1232.4176292337006
 30
0.0
 40
16.288411458333332
 41
0.0
 71
               1
 72
               1
  1
重量
  7
ＭＳ ゴシック
 73
               1
 44
0.7828267384257843
  0
MTEXT
  5
166
100
AcDbEntity
  8
template
390
0
 62
               7
100
AcDbMText
 10
282.00000000049999
 20
-1176.0000901712006
 30
0.0
 40
24.432617187500004
 41
0.0
 71
               1
 72
               1
  1
ADF70-0108
  7
ＭＳ ゴシック
 73
               1
 44
0.7828267384257843
  0
MTEXT
  5
167
100
AcDbEntity
  8
template
390
0
 62
               7
100
AcDbMText
 10
282.00000000049999
 20
-1261.0000901712006
 30
0.0
 40
24.432617187500004
 41
0.0
 71
               1
 72
               1
  1
15kg
  7
ＭＳ ゴシック
 73
               1
 44
0.7828267384257843
  0
LINE
  5
168
100
AcDbEntity
  8
template
370
               5
390
0
  6
Continuous
 62
               7
100
AcDbLine
 10
222.00000000049999
 20
-1394.0027073587005
 30
0.0
 11
222.00000000049999
 21
-1139.0027073587005
 31
0.0
  0
MTEXT
  5
169
100
AcDbEntity
  8
template
390
0
 62
               7
100
AcDbMText
 10
-914.99999999975921
 20
-1261.0000901712006
 30
0.0
 40
24.432617187500004
 41
0.0
 71
               1
 72
               1
  1
壁掛け,カウンタ ー置き/オーバーフロー付き/壁取付ボルト付属/\P陶器/ホワイト
  7
ＭＳ ゴシック
 73
               1
 44
1.3047112307096407
  0
MTEXT
  5
16A
100
AcDbEntity
  8
notes
390
0
 62
               7
100
AcDbMText
 10
113.41611881834825
 20
156.21709141775409
 30
0.0
 40
24.432617187500004
 41
780.0
 71
               1
 72
               1
  1
※陶器製品には寸法公差があります。\P  洗面器の収め方をご確認の上、必ず現物を合わせて\P  カウンターの切込を行ってください。
  7
ＭＳ ゴシック
 73
               1
 44
1.0437689845677123
  0
MTEXT
  5
16B
100
AcDbEntity
  8
notes
390
0
 62
               7
100
AcDbMText
 10
329.89019956342281
 20
1031.2556212422439
 30
0.0
 40
24.432617187500004
 41
0.0
 71
               1
 72
               1
  1
カウンター切込寸法
  7
ＭＳ ゴシック
 73
               1
 44
0.7828267384257843
  0
CIRCLE
  5
16C
100
AcDbEntity
  8
notes
370
              15
390
0
  6
STYLE_16
 62
               7
100
AcDbCircle
 10
-838.89434306569296
 20
136.97420924574965
 30
0.0
 40
17.5
  0
MTEXT
  5
16D
100
AcDbEntity
  8
notes
390
0
 62
               7
100
AcDbMText
 10
-811.86998394670218
 20
148.73293991852984
 30
0.0
 40
24.432617187500004
 41
832.88315656391467
 71
               1
 72
               1
  1
＝φ30もしくはφ35の水栓取付用穴あけ加工を承ります。\P  必要な場合、ご注文の際にご指示ください。
  7
ＭＳ ゴシック
 73
               1
 44
1.0437689845677123
  0
DIMENSION
  5
16E
100
AcDbEntity
  8
notes
370
               5
390
0
  6
Continuous
 62
               7
100
AcDbDimension
  2
*D3
 10
-563.19525281349456
 20
909.57751394440447
 30
0.0
 11
-430.69525281349462
 21
909.57751394440447
 31
0.0
 71
               5
 72
               1
 41
1.0
 42
0.0
  3
tform線あり
100
AcDbAlignedDimension
 13
-298.19525281349473
 23
804.57751394440447
 33
0.0
 14
-563.19525281349456
 24
804.57751394440447
 34
0.0
100
AcDbRotatedDimension
1001
ACAD
1000
DSTYLE
1002
{
1070
             279
1070
               2
1070
             340
1005
37
1070
             147
1040
5.0
1002
}
  0
DIMENSION
  5
16F
100
AcDbEntity
  8
notes
370
               5
390
0
  6
Continuous
 62
               7
100
AcDbDimension
  2
*D4
 10
-690.69525281349456
 20
209.57751394440447
 30
0.0
 11
-430.69525281349462
 21
209.57751394440447
 31
0.0
 71
               5
 72
               1
 41
1.0
 42
0.0
  3
tform線あり
100
AcDbAlignedDimension
 13
-170.69525281349473
 23
413.57751394440447
 33
0.0
 14
-690.69525281349456
 24
413.57751394440447
 34
0.0
100
AcDbRotatedDimension
1001
ACAD
1000
DSTYLE
1002
{
1070
             279
1070
               2
1070
             340
1005
37
1070
             147
1040
5.0
1002
}
  0
DIMENSION
  5
170
100
AcDbEntity
  8
notes
370
               5
390
0
  6
Continuous
 62
               7
100
AcDbDimension
  2
*D5
 10
418.46906609784594
 20
359.57751394440447
 30
0.0
 11
468.469066097846
 21
359.57751394440447
 31
0.0
 71
               5
 72
               1
 41
1.0
 42
0.0
  3
tform線あり
100
AcDbAlignedDimension
 13
518.46906609784605
 23
459.57751394440447
 33
0.0
 14
418.46906609784594
 24
459.57751394440447
 34
0.0
100
AcDbRotatedDimension
1001
ACAD
1000
DSTYLE
1002
{
1070
             279
1070
               2
1070
             340
1005
37
1070
             147
1040
5.0
1002
}
  0
DIMENSION
  5
171
100
AcDbEntity
  8
notes
370
               5
390
0
  6
Continuous
 62
               7
100
AcDbDimension
  2
*D6
 10
772.10565693430658
 20
459.57751394440447
 30
0.0
 11
777.10565693430658
 21
630.97420924574953
 31
0.0
 70
             128
 71
               5
 72
               1
 41
1.0
 42
0.0
  3
tform線あり
100
AcDbAlignedDimension
 13
518.46906609784605
 23
789.57751394440447
 33
0.0
 14
518.46906609784605
 24
459.57751394440447
 34
0.0
 50
90.0
100
AcDbRotatedDimension
1001
ACAD
1000
DSTYLE
1002
{
1070
             279
1070
               2
1070
             340
1005
37
1070
             147
1040
5.0
1002
}
  0
DIMENSION
  5
172
100
AcDbEntity
  8
notes
370
               5
390
0
  6
Continuous
 62
               7
100
AcDbDimension
  2
*D7
 10
772.10565693430658
 20
789.57751394440447
 30
0.0
 11
777.10565693430658
 21
814.97420924574953
 31
0.0
 70
             128
 71
               5
 72
               1
 41
1.0
 42
0.0
  3
tform線あり
100
AcDbAlignedDimension
 13
596.80474718650476
 23
809.57751394440447
 33
0.0
 14
518.46906609784605
 24
789.57751394440447
 34
0.0
 50
90.0
100
AcDbRotatedDimension
1001
ACAD
1000
DSTYLE
1002
{
1070
             279
1070
               2
1070
             340
1005
37
1070
             174
1070
               0
1070
             147
1040
5.0
1002
}
  0
DIMENSION
  5
173
100
AcDbEntity
  8
notes
370
               5
390
0
  6
Continuous
 62
               7
100
AcDbDimension
  2
*D8
 10
725.99331211833669
 20
-738.02579075421454
 30
0.0
 11
510.99331211833669
 21
-738.02579075421454
 31
0.0
 71
               5
 72
               1
 41
1.0
 42
0.0
  3
tform線あり
100
AcDbAlignedDimension
 13
295.99331211833669
 23
-582.02579075425058
 33
0.0
 14
725.99331211833669
 24
-582.02579075425058
 34
0.0
100
AcDbRotatedDimension
1001
ACAD
1000
DSTYLE
1002
{
1070
             279
1070
               2
1070
             340
1005
37
1070
             147
1040
5.0
1002
}
  0
DIMENSION
  5
174
100
AcDbEntity
  8
notes
370
               5
390
0
  6
Continuous
 62
               7
100
AcDbDimension
  2
*D9
 10
-638.99434306569287
 20
-688.02579075421454
 30
0.0
 11
-431.49434306569293
 21
-688.02579075421454
 31
0.0
 71
               5
 72
               1
 41
1.0
 42
0.0
  3
tform線あり
100
AcDbAlignedDimension
 13
-223.99434306569293
 23
-588.02579075421477
 33
0.0
 14
-638.99434306569287
 24
-587.46127462518064
 34
0.0
100
AcDbRotatedDimension
1001
ACAD
1000
DSTYLE
1002
{
1070
             279
1070
               2
1070
             340
1005
37
1070
             147
1040
5.0
1002
}
  0
DIMENSION
  5
175
100
AcDbEntity
  8
notes
370
               5
390
0
  6
Continuous
 62
               7
100
AcDbDimension
  2
*D10
 10
164.10565693430652
 20
-578.02579075422875
 30
0.0
 11
164.10565693430652
 21
-493.02579075423989
 31
0.0
 71
               5
 72
               1
 41
1.0
 42
0.0
  3
tform線あり
100
AcDbAlignedDimension
 13
231.04644539987112
 23
-408.02579075425103
 33
0.0
 14
397.79924922237529
 24
-578.02579075422875
 34
0.0
 50
90.0
100
AcDbRotatedDimension
1001
ACAD
1000
DSTYLE
1002
{
1070
             279
1070
               2
1070
             340
1005
37
1070
             147
1040
5.0
1002
}
  0
DIMENSION
  5
176
100
AcDbEntity
  8
notes
370
               5
390
0
  6
Continuous
 62
               7
100
AcDbDimension
  2
*D11
 10
-371.65691140379039
 20
-308.07279440971718
 30
0.0
 11
-431.65691140379039
 21
-308.07279440971718
 31
0.0
 71
               5
 72
               1
 41
1.0
 42
0.0
  3
tform線あり
100
AcDbAlignedDimension
 13
-491.65691140379039
 23
-428.02579075425103
 33
0.0
 14
-371.65691140379039
 24
-428.02579075425103
 34
0.0
100
AcDbRotatedDimension
1001
ACAD
1000
DSTYLE
1002
{
1070
             279
1070
               2
1070
             340
1005
37
1070
             147
1040
5.0
1002
}
  0
DIMENSION
  5
177
100
AcDbEntity
  8
notes
370
               5
390
0
  6
Continuous
 62
               7
100
AcDbDimension
  2
*D12
 10
-831.53093390215327
 20
-447.97878709878489
 30
0.0
 11
-831.53093390215327
 21
-428.00228892651796
 31
0.0
 71
               5
 72
               1
 41
1.0
 42
0.0
  3
tform線あり
100
AcDbAlignedDimension
 13
-726.53197524341272
 23
-408.02579075425103
 33
0.0
 14
-541.53093390215304
 24
-447.97878709878489
 34
0.0
 50
90.0
100
AcDbRotatedDimension
1001
ACAD
1000
DSTYLE
1002
{
1070
             279
1070
               2
1070
             340
1005
37
1070
             147
1040
5.0
1002
}
  0
DIMENSION
  5
178
100
AcDbEntity
  8
notes
370
               5
390
0
  6
Continuous
 62
               7
100
AcDbDimension
  2
*D13
 10
-31.530933902153322
 20
-408.02579075425103
 30
0.0
 11
-31.530933902153322
 21
-498.0257907542329
 31
0.0
 71
               5
 72
               1
 41
1.0
 42
0.0
  3
tform線あり
100
AcDbAlignedDimension
 13
-223.99434306569293
 23
-588.02579075421477
 33
0.0
 14
-136.52989256089421
 24
-408.02579075425103
 34
0.0
 50
90.0
100
AcDbRotatedDimension
1001
ACAD
1000
DSTYLE
1002
{
1070
             279
1070
               2
1070
             340
1005
37
1070
             147
1040
5.0
1002
}
  0
LINE
  5
179
100
AcDbEntity
  8
notes
370
               5
390
0
  6
Continuous
 62
               7
100
AcDbLine
 10
-371.65691140379039
 20
-447.97878709878489
 30
0.0
 11
-259.89434306569302
 21
-362.57973374812821
 31
0.0
  0
DIMENSION
  5
17A
100
AcDbEntity
  8
notes
370
               5
390
0
  6
Continuous
 62
               7
100
AcDbDimension
  2
*D14
 10
-731.53093390215327
 20
959.57751394440447
 30
0.0
 11
-431.53093390215332
 21
959.57751394440447
 31
0.0
 71
               5
 72
               1
 41
1.0
 42
0.0
  3
tform線あり
100
AcDbAlignedDimension
 13
-131.53093390215332
 23
542.29439794743985
 33
0.0
 14
-731.53093390215327
 24
542.29439794743985
 34
0.0
100
AcDbRotatedDimension
1001
ACAD
1000
DSTYLE
1002
{
1070
             279
1070
               2
1070
             340
1005
37
1070
             147
1040
5.0
1002
}
  0
DIMENSION
  5
17B
100
AcDbEntity
  8
notes
370
               5
390
0
  6
Continuous
 62
               7
100
AcDbDimension
  2
*D15
 10
-31.530933902153322
 20
809.57751394440447
 30
0.0
 11
-31.530933902153322
 21
559.57751394440447
 31
0.0
 71
               5
 72
               1
 41
1.0
 42
0.0
  3
tform線あり
100
AcDbAlignedDimension
 13
-351.89434306569302
 23
309.57751394440459
 33
0.0
 14
-311.53093390215309
 24
809.57751394440447
 34
0.0
 50
90.0
100
AcDbRotatedDimension
1001
ACAD
1000
DSTYLE
1002
{
1070
             279
1070
               2
1070
             340
1005
37
1070
             147
1040
5.0
1002
}
  0
DIMENSION
  5
17C
100
AcDbEntity
  8
notes
370
               5
390
0
  6
Continuous
 62
               7
100
AcDbDimension
  2
*D16
 10
-831.53093390215327
 20
684.57734931672826
 30
0.0
 11
-831.53093390215327
 21
517.07734931672826
 31
0.0
 71
               5
 72
               1
 41
1.0
 42
0.0
  3
tform線あり
100
AcDbAlignedDimension
 13
-611.50337399325986
 23
349.57734931672837
 33
0.0
 14
-612.78703983621153
 24
684.57734931672826
 34
0.0
 50
90.0
100
AcDbRotatedDimension
1001
ACAD
1000
DSTYLE
1002
{
1070
             279
1070
               2
1070
             340
1005
37
1070
             147
1040
5.0
1002
}
  0
DIMENSION
  5
17D
100
AcDbEntity
  8
notes
370
               5
390
0
  6
Continuous
 62
               7
100
AcDbDimension
  2
*D17
 10
725.99331211833578
 20
-308.02579075425103
 30
0.0
 11
695.99331211833578
 21
-308.02579075425103
 31
0.0
 71
               5
 72
               1
 41
1.0
 42
0.0
  3
tform線あり
100
AcDbAlignedDimension
 13
665.99331211833578
 23
-408.02579075425058
 33
0.0
 14
725.99331211833578
 24
-412.02579075425058
 34
0.0
100
AcDbRotatedDimension
1001
ACAD
1000
DSTYLE
1002
{
1070
             279
1070
               2
1070
             340
1005
37
1070
             147
1040
5.0
1002
}
  0
DIMENSION
  5
17E
100
AcDbEntity
  8
notes
370
               5
390
0
  6
Continuous
 62
               7
100
AcDbDimension
  2
*D18
 10
725.99331211833669
 20
-688.02579075421454
 30
0.0
 11
575.99331211833692
 21
-688.02579075421454
 31
0.0
 71
               5
 72
               1
 41
1.0
 42
0.0
  3
tform線あり
100
AcDbAlignedDimension
 13
425.99331211833726
 23
-588.02579075421465
 33
0.0
 14
725.99331211833669
 24
-582.02579075425058
 34
0.0
100
AcDbRotatedDimension
1001
ACAD
1000
DSTYLE
1002
{
1070
             279
1070
               2
1070
             340
1005
37
1070
             147
1040
5.0
1002
}
  0
DIMENSION
  5
17F
100
AcDbEntity
  8
notes
370
               5
390
0
  6
Continuous
 62
               7
100
AcDbDimension
  2
*D19
 10
-831.53093390215327
 20
684.57734931672826
 30
0.0
 11
-831.53093390215327
 21
747.07734931672826
 31
0.0
 71
               5
 72
               1
 41
1.0
 42
0.0
  3
tform線あり
100
AcDbAlignedDimension
 13
-563.19525281349456
 23
809.57734931672826
 33
0.0
 14
-612.78703983621153
 24
684.57734931672826
 34
0.0
 50
90.0
100
AcDbRotatedDimension
1001
ACAD
1000
DSTYLE
1002
{
1070
             279
1070
               2
1070
             340
1005
37
1070
             147
1040
5.0
1002
}
  0
DIMENSION
  5
180
100
AcDbEntity
  8
notes
370
               5
390
0
  6
Continuous
 62
               7
100
AcDbDimension
  2
*D20
 10
436.35972904234762
 20
-533.02579075422875
 30
0.0
 11
441.35972904234762
 21
-404.02579075425103
 31
0.0
 70
             128
 71
               5
 72
               1
 41
1.0
 42
0.0
  3
tform線あり
100
AcDbAlignedDimension
 13
427.35972904234762
 23
-408.02579075425103
 33
0.0
 14
427.35972904234762
 24
-533.02579075422875
 34
0.0
 50
90.0
100
AcDbRotatedDimension
1001
ACAD
1000
DSTYLE
1002
{
1070
             279
1070
               2
1070
             340
1005
37
1070
               3
1000
<>(深さ)
1070
             174
1070
               0
1070
             147
1040
5.0
1002
}
  0
MTEXT
  5
181
100
AcDbEntity
  8
notes
390
0
 62
               7
100
AcDbMText
 10
-279.10255370190197
 20
-325.26749864231493
 30
0.0
 40
24.432617187500004
 41
0.0
 71
               1
 72
               1
  1
壁取付ボルト穴(2ヶ所)
  7
ＭＳ ゴシック
 73
               1
 44
0.7828267384257843
  0
ARC
  5
182
100
AcDbEntity
  8
notes
370
              15
390
0
  6
Continuous
 62
               7
100
AcDbCircle
 10
625.65950968749803
 20
-413.02579075425058
 30
0.0
 40
4.9999999999995328
100
AcDbArc
 50
1.2469631268802683
 51
90.000000000000014
  0
ARC
  5
183
100
AcDbEntity
  8
notes
370
              15
390
0
  6
Continuous
 62
               7
100
AcDbCircle
 10
399.59651679689495
 20
-417.94651500067596
 30
0.0
 40
231.11654137140397
100
AcDbArc
 50
312.81117783392864
 51
1.2469631268799048
  0
ARC
  5
184
100
AcDbEntity
  8
notes
370
              15
390
0
  6
Continuous
 62
               7
100
AcDbCircle
 10
555.3005520437689
 20
-586.0257907542142
 30
0.0
 40
2.0
100
AcDbArc
 50
269.99999999984368
 51
312.81117783381666
  0
SPLINE
  5
185
100
AcDbEntity
  8
ADF70-0108
370
              15
390
0
  6
Continuous
 62
               7
100
AcDbSpline
210
0.0
220
0.0
230
1.0
 70
               8
 71
               2
 72
              19
 73
              16
 74
               0
 42
0.000001
 43
0.000001
 40
0.0
 40
0.0
 40
0.0
 40
1.0
 40
1.0
 40
2.0
 40
3.0
 40
4.0
 40
5.0
 40
6.0
 40
7.0
 40
8.0
 40
9.0
 40
10.0
 40
11.0
 40
11.0
 40
12.0
 40
12.0
 40
12.0
 10
-563.19525281349479
 20
708.01189531681644
 30
0.0
 10
-572.02870727087429
 20
704.94539142051985
 30
0.0
 10
-580.69525281349456
 20
701.44284873913671
 30
0.0
 10
-650.31049508415776
 20
673.30818353386894
 30
0.0
 10
-730.69525281349456
 20
575.84684435494046
 30
0.0
 10
-730.69525281349479
 20
463.30818353386894
 30
0.0
 10
-650.31049508415822
 20
365.84684435494057
 30
0.0
 10
-511.08001054283176
 20
309.57751394440459
 30
0.0
 10
-350.31049508415805
 20
309.57751394440459
 30
0.0
 10
-211.08001054283164
 20
365.84684435494034
 30
0.0
 10
-130.69525281349473
 20
463.30818353386871
 30
0.0
 10
-130.69525281349473
 20
575.84684435494023
 30
0.0
 10
-211.08001054283153
 20
673.30818353386871
 30
0.0
 10
-280.69525281349473
 20
701.44284873913648
 30
0.0
 10
-289.36179835611284
 20
704.94539142051872
 30
0.0
 10
-298.19525281349485
 20
708.01189531681621
 30
0.0
  0
LINE
  5
186
100
AcDbEntity
  8
ADF70-0108
370
              15
390
0
  6
Continuous
 62
               7
100
AcDbLine
 10
-298.19525281349473
 20
707.98515046691909
 30
0.0
 11
-298.19525281349473
 21
804.57751394440447
 31
0.0
  0
LINE
  5
187
100
AcDbEntity
  8
ADF70-0108
370
              15
390
0
  6
Continuous
 62
               7
100
AcDbLine
 10
-563.19525281349456
 20
707.98515046691909
 30
0.0
 11
-563.19525281349456
 21
804.57751394440447
 31
0.0
  0
LINE
  5
188
100
AcDbEntity
  8
ADF70-0108
370
              15
390
0
  6
Continuous
 62
               7
100
AcDbLine
 10
-558.19525281349456
 20
809.57751394440447
 30
0.0
 11
-303.19525281349473
 21
809.57751394440447
 31
0.0
  0
SPLINE
  5
189
100
AcDbEntity
  8
ADF70-0108
370
              15
390
0
  6
Continuous
 62
               7
100
AcDbSpline
210
0.0
220
0.0
230
1.0
 70
               9
 71
               2
 72
              17
 73
              14
 74
               0
 42
0.000001
 43
0.000001
 40
0.0
 40
0.0
 40
0.0
 40
1.0
 40
2.0
 40
3.0
 40
4.0
 40
5.0
 40
6.0
 40
7.0
 40
8.0
 40
9.0
 40
10.0
 40
11.0
 40
12.0
 40
12.0
 40
12.0
 10
-560.69525281349456
 20
664.6367690782979
 30
0.0
 10
-500.36204284558659
 20
687.07751394440447
 30
0.0
 10
-361.02846278140277
 20
687.07751394440447
 30
0.0
 10
-240.36204284558659
 20
642.19602421219133
 30
0.0
 10
-170.69525281349473
 20
564.45900367661761
 30
0.0
 10
-170.69525281349473
 20
474.69602421219156
 30
0.0
 10
-240.36204284558659
 20
396.95900367661761
 30
0.0
 10
-361.02846278140277
 20
352.07751394440459
 30
0.0
 10
-500.36204284558659
 20
352.07751394440459
 30
0.0
 10
-621.0284627814026
 20
396.95900367661761
 30
0.0
 10
-690.69525281349456
 20
474.69602421219156
 30
0.0
 10
-690.69525281349456
 20
564.45900367661761
 30
0.0
 10
-621.0284627814026
 20
642.19602421219133
 30
0.0
 10
-560.69525281349456
 20
664.6367690782979
 30
0.0
  0
SPLINE
  5
18A
100
AcDbEntity
  8
ADF70-0108
370
              15
390
0
  6
Continuous
 62
               7
100
AcDbSpline
210
0.0
220
0.0
230
1.0
 70
               9
 71
               2
 72
              17
 73
              14
 74
               0
 42
0.000001
 43
0.000001
 40
0.0
 40
0.0
 40
0.0
 40
1.0
 40
2.0
 40
3.0
 40
4.0
 40
5.0
 40
6.0
 40
7.0
 40
8.0
 40
9.0
 40
10.0
 40
11.0
 40
12.0
 40
12.0
 40
12.0
 10
-436.49434306569293
 20
681.31357631784613
 30
0.0
 10
-434.1738349900042
 20
681.81598105365447
 30
0.0
 10
-428.81485114138167
 20
681.81598105365447
 30
0.0
 10
-424.1738349900042
 20
680.81117158203779
 30
0.0
 10
-421.49434306569293
 20
679.07079052527115
 30
0.0
 10
-421.49434306569293
 20
677.06117158203779
 30
0.0
 10
-424.1738349900042
 20
675.32079052527115
 30
0.0
 10
-428.81485114138167
 20
674.31598105365447
 30
0.0
 10
-434.1738349900042
 20
674.31598105365447
 30
0.0
 10
-438.81485114138167
 20
675.32079052527115
 30
0.0
 10
-441.49434306569293
 20
677.06117158203779
 30
0.0
 10
-441.49434306569293
 20
679.07079052527115
 30
0.0
 10
-438.81485114138167
 20
680.81117158203779
 30
0.0
 10
-436.49434306569293
 20
681.31357631784613
 30
0.0
  0
ARC
  5
18B
100
AcDbEntity
  8
ADF70-0108
370
              15
390
0
  6
Continuous
 62
               7
100
AcDbCircle
 10
-558.19525281349456
 20
804.57751394440447
 30
0.0
 40
5.0
100
AcDbArc
 50
90.0
 51
180.0
  0
CIRCLE
  5
18C
100
AcDbEntity
  8
ADF70-0108
370
              15
390
0
  6
Continuous
 62
               7
100
AcDbCircle
 10
-431.53093390215355
 20
509.57751394440447
 30
0.0
 40
23.0
  0
ARC
  5
18D
100
AcDbEntity
  8
ADF70-0108
370
              15
390
0
  6
Continuous
 62
               7
100
AcDbCircle
 10
-303.19525281349473
 20
804.57751394440447
 30
0.0
 40
5.0
100
AcDbArc
 50
0.0
 51
90.0
  0
CIRCLE
  5
18E
100
AcDbEntity
  8
ADF70-0108
370
              15
390
0
  6
Continuous
 62
               7
100
AcDbCircle
 10
-431.53093390215355
 20
509.57751394440447
 30
0.0
 40
39.0
  0
SPLINE
  5
18F
100
AcDbEntity
  8
ADF70-0108
370
               5
390
0
  6
STYLE_16
 62
               7
100
AcDbSpline
210
0.0
220
0.0
230
1.0
 70
               8
 71
               2
 72
              19
 73
              16
 74
               0
 42
0.000001
 43
0.000001
 40
0.0
 40
0.0
 40
0.0
 40
1.0
 40
1.0
 40
2.0
 40
3.0
 40
4.0
 40
5.0
 40
6.0
 40
7.0
 40
8.0
 40
9.0
 40
10.0
 40
11.0
 40
11.0
 40
12.0
 40
12.0
 40
12.0
 10
336.80474718650464
 20
708.01189531681644
 30
0.0
 10
327.97129272912514
 20
704.94539142051985
 30
0.0
 10
319.30474718650487
 20
701.44284873913671
 30
0.0
 10
249.68950491584167
 20
673.30818353386894
 30
0.0
 10
169.30474718650487
 20
575.84684435494046
 30
0.0
 10
169.30474718650464
 20
463.30818353386894
 30
0.0
 10
249.68950491584133
 20
365.84684435494057
 30
0.0
 10
388.91998945716773
 20
309.57751394440459
 30
0.0
 10
549.68950491584144
 20
309.57751394440459
 30
0.0
 10
688.91998945716784
 20
365.84684435494034
 30
0.0
 10
769.30474718650476
 20
463.30818353386871
 30
0.0
 10
769.30474718650476
 20
575.84684435494023
 30
0.0
 10
688.91998945716796
 20
673.30818353386871
 30
0.0
 10
619.30474718650476
 20
701.44284873913648
 30
0.0
 10
610.63820164388665
 20
704.94539142051872
 30
0.0
 10
601.80474718650464
 20
708.01189531681621
 30
0.0
  0
LINE
  5
190
100
AcDbEntity
  8
ADF70-0108
370
               5
390
0
  6
STYLE_16
 62
               7
100
AcDbLine
 10
601.80474718650476
 20
707.98515046691909
 30
0.0
 11
601.80474718650476
 21
804.57751394440447
 31
0.0
  0
LINE
  5
191
100
AcDbEntity
  8
ADF70-0108
370
               5
390
0
  6
STYLE_16
 62
               7
100
AcDbLine
 10
336.80474718650476
 20
707.98515046691909
 30
0.0
 11
336.80474718650476
 21
804.57751394440447
 31
0.0
  0
LINE
  5
192
100
AcDbEntity
  8
ADF70-0108
370
               5
390
0
  6
STYLE_16
 62
               7
100
AcDbLine
 10
341.80474718650476
 20
809.57751394440447
 30
0.0
 11
596.80474718650476
 21
809.57751394440447
 31
0.0
  0
CIRCLE
  5
193
100
AcDbEntity
  8
ADF70-0108
370
               5
390
0
  6
STYLE_16
 62
               7
100
AcDbCircle
 10
468.469066097846
 20
747.07751394871207
 30
0.0
 40
14.999999999984132
  0
SPLINE
  5
194
100
AcDbEntity
  8
ADF70-0108
370
               5
390
0
  6
STYLE_16
 62
               7
100
AcDbSpline
210
0.0
220
0.0
230
1.0
 70
               9
 71
               2
 72
              17
 73
              14
 74
               0
 42
0.000001
 43
0.000001
 40
0.0
 40
0.0
 40
0.0
 40
1.0
 40
2.0
 40
3.0
 40
4.0
 40
5.0
 40
6.0
 40
7.0
 40
8.0
 40
9.0
 40
10.0
 40
11.0
 40
12.0
 40
12.0
 40
12.0
 10
339.30474718650476
 20
664.6367690782979
 30
0.0
 10
399.63795715441285
 20
687.07751394440447
 30
0.0
 10
538.97153721859672
 20
687.07751394440447
 30
0.0
 10
659.63795715441279
 20
642.19602421219133
 30
0.0
 10
729.30474718650476
 20
564.45900367661761
 30
0.0
 10
729.30474718650476
 20
474.69602421219156
 30
0.0
 10
659.63795715441279
 20
396.95900367661761
 30
0.0
 10
538.97153721859672
 20
352.07751394440459
 30
0.0
 10
399.63795715441285
 20
352.07751394440459
 30
0.0
 10
278.97153721859667
 20
396.95900367661761
 30
0.0
 10
209.30474718650476
 20
474.69602421219156
 30
0.0
 10
209.30474718650476
 20
564.45900367661761
 30
0.0
 10
278.97153721859667
 20
642.19602421219133
 30
0.0
 10
339.30474718650476
 20
664.6367690782979
 30
0.0
  0
SPLINE
  5
195
100
AcDbEntity
  8
ADF70-0108
370
               5
390
0
  6
STYLE_16
 62
               7
100
AcDbSpline
210
0.0
220
0.0
230
1.0
 70
               9
 71
               2
 72
              17
 73
              14
 74
               0
 42
0.000001
 43
0.000001
 40
0.0
 40
0.0
 40
0.0
 40
1.0
 40
2.0
 40
3.0
 40
4.0
 40
5.0
 40
6.0
 40
7.0
 40
8.0
 40
9.0
 40
10.0
 40
11.0
 40
12.0
 40
12.0
 40
12.0
 10
463.50565693430656
 20
681.31357631784613
 30
0.0
 10
465.82616500999535
 20
681.81598105365447
 30
0.0
 10
471.18514885861777
 20
681.81598105365447
 30
0.0
 10
475.82616500999535
 20
680.81117158203779
 30
0.0
 10
478.50565693430656
 20
679.07079052527115
 30
0.0
 10
478.50565693430656
 20
677.06117158203779
 30
0.0
 10
475.82616500999535
 20
675.32079052527115
 30
0.0
 10
471.18514885861777
 20
674.31598105365447
 30
0.0
 10
465.82616500999535
 20
674.31598105365447
 30
0.0
 10
461.18514885861777
 20
675.32079052527115
 30
0.0
 10
458.50565693430656
 20
677.06117158203779
 30
0.0
 10
458.50565693430656
 20
679.07079052527115
 30
0.0
 10
461.18514885861777
 20
680.81117158203779
 30
0.0
 10
463.50565693430656
 20
681.31357631784613
 30
0.0
  0
ARC
  5
196
100
AcDbEntity
  8
ADF70-0108
370
               5
390
0
  6
STYLE_16
 62
               7
100
AcDbCircle
 10
341.80474718650476
 20
804.57751394440447
 30
0.0
 40
5.0
100
AcDbArc
 50
90.0
 51
180.0
  0
CIRCLE
  5
197
100
AcDbEntity
  8
ADF70-0108
370
               5
390
0
  6
STYLE_16
 62
               7
100
AcDbCircle
 10
468.469066097846
 20
509.57751394440447
 30
0.0
 40
22.999999999999996
  0
ARC
  5
198
100
AcDbEntity
  8
ADF70-0108
370
               5
390
0
  6
STYLE_16
 62
               7
100
AcDbCircle
 10
596.80474718650476
 20
804.57751394440447
 30
0.0
 40
5.0
100
AcDbArc
 50
0.0
 51
90.0
  0
POLYLINE
  5
199
100
AcDbEntity
  8
ADF70-0108
370
              15
390
0
  6
Continuous
 62
               7
100
AcDb2dPolyline
 66
               1
 10
0.0
 20
0.0
 30
0.0
 70
               1
 75
               5
  0
VERTEX
  5
19A
100
AcDbEntity
  8
ADF70-0108
370
              15
390
0
  6
Continuous
 62
               7
100
AcDbVertex
100
AcDb2dVertex
 10
418.46906609784594
 20
789.57751394440447
 30
0.0
  0
VERTEX
  5
19B
100
AcDbEntity
  8
ADF70-0108
370
              15
390
0
  6
Continuous
 62
               7
100
AcDbVertex
100
AcDb2dVertex
 10
518.46906609784605
 20
789.57751394440447
 30
0.0
  0
VERTEX
  5
19C
100
AcDbEntity
  8
ADF70-0108
370
              15
390
0
  6
Continuous
 62
               7
100
AcDbVertex
100
AcDb2dVertex
 10
518.46906609784605
 20
459.57751394440447
 30
0.0
  0
VERTEX
  5
19D
100
AcDbEntity
  8
ADF70-0108
370
              15
390
0
  6
Continuous
 62
               7
100
AcDbVertex
100
AcDb2dVertex
 10
418.46906609784594
 20
459.57751394440447
 30
0.0
  0
SEQEND
  5
19E
100
AcDbEntity
  8
ADF70-0108
370
              15
390
0
  6
Continuous
 62
               7
  0
SPLINE
  5
19F
100
AcDbEntity
  8
ADF70-0108
370
              15
390
0
  6
Continuous
 62
               7
100
AcDbSpline
210
0.0
220
0.0
230
1.0
 70
               8
 71
               2
 72
               6
 73
               3
 74
               0
 42
0.000001
 43
0.000001
 40
0.0
 40
0.0
 40
0.0
 40
1.0
 40
1.0
 40
1.0
 10
-223.99434306569293
 20
-588.02579075421477
 30
0.0
 10
-142.09957972737328
 20
-513.44823133543923
 30
0.0
 10
-131.53093390215344
 20
-413.12783157057891
 30
0.0
  0
SPLINE
  5
1A0
100
AcDbEntity
  8
ADF70-0108
370
              15
390
0
  6
Continuous
 62
               7
100
AcDbSpline
210
0.0
220
0.0
230
1.0
 70
               8
 71
               2
 72
               6
 73
               3
 74
               0
 42
0.000001
 43
0.000001
 40
0.0
 40
0.0
 40
0.0
 40
1.0
 40
1.0
 40
1.0
 10
-638.99434306569287
 20
-588.02579075421477
 30
0.0
 10
-720.88910640401264
 20
-513.44823133543923
 30
0.0
 10
-731.45775222923226
 20
-413.12783157057891
 30
0.0
  0
LINE
  5
1A1
100
AcDbEntity
  8
ADF70-0108
370
              15
390
0
  6
STYLE_16
 62
               7
100
AcDbLine
 10
465.99895254809928
 20
-532.98460022495522
 30
0.0
 11
448.49895254809928
 21
-544.98460022495522
 31
0.0
  0
LWPOLYLINE
  5
1A2
100
AcDbEntity
  8
ADF70-0108
370
              15
390
0
  6
STYLE_16
 62
               7
100
AcDbPolyline
 90
       18
 70
             128
 10
603.49331211833669
 20
-408.02579075425058
 10
603.01017203083336
 20
-408.02579075425058
 42
0.397811500389247
 10
597.99061909151487
 20
-412.77030005272309
 42
-0.0221954409393268
 10
596.19785441846579
 20
-430.51192753645961
 10
596.19582876664879
 20
-430.52579075424893
 42
-0.0270272438968165
 10
591.87250685870913
 20
-451.94893964807409
 10
591.86229160077914
 20
-451.98842280343723
 42
-0.009926615970052
 10
590.87267230640225
 20
-455.52254890993146
 10
590.87169472872233
 20
-455.52579075424933
 42
-0.0139906907238402
 10
589.22963668903878
 20
-460.46666663926578
 10
589.22695512869007
 20
-460.47403941095615
 42
-0.0761028496869302
 10
570.18551598210922
 20
-495.26710776578767
 10
569.89903967389466
 20
-495.64187328027674
 42
-0.1473582523449818
 10
530.14794706115265
 20
-524.35327491191083
 10
528.85291658760491
 20
-524.80107291458216
 42
-0.0835493687952016
 10
480.02550630235407
 20
-532.99176841848578
 10
479.73980127098719
 20
-532.99162241049305
 10
465.99895254809928
 20
-532.98460022495522
  0
ARC
  5
1A3
100
AcDbEntity
  8
ADF70-0108
370
              15
390
0
  6
Continuous
 62
               7
100
AcDbCircle
 10
721.99331211833578
 20
-412.02579075425058
 30
0.0
 40
4.0
100
AcDbArc
 50
0.0
 51
90.0
  0
LINE
  5
1A4
100
AcDbEntity
  8
ADF70-0108
370
              15
390
0
  6
Continuous
 62
               7
100
AcDbLine
 10
719.99331211833669
 20
-588.02579075425058
 30
0.0
 11
706.9388302691932
 21
-588.02579075425058
 31
0.0
  0
ARC
  5
1A5
100
AcDbEntity
  8
ADF70-0108
370
              15
390
0
  6
Continuous
 62
               7
100
AcDbCircle
 10
719.99331211833669
 20
-582.02579075425058
 30
0.0
 40
5.9999999999999964
100
AcDbArc
 50
270.0
 51
0.0
  0
LINE
  5
1A6
100
AcDbEntity
  8
ADF70-0108
370
              15
390
0
  6
Continuous
 62
               7
100
AcDbLine
 10
231.04644539987112
 20
-408.02579075425058
 30
0.0
 11
721.99331211833578
 21
-408.02579075425058
 31
0.0
  0
LINE
  5
1A7
100
AcDbEntity
  8
ADF70-0108
370
              15
390
0
  6
STYLE_16
 62
               7
100
AcDbLine
 10
448.49331211833635
 20
-578.02579075422875
 30
0.0
 11
403.4933121183372
 21
-578.02579075422875
 31
0.0
  0
LINE
  5
1A8
100
AcDbEntity
  8
ADF70-0108
370
              15
390
0
  6
STYLE_16
 62
               7
100
AcDbLine
 10
465.99331211833635
 20
-533.02579075422875
 30
0.0
 11
385.99331211833629
 21
-533.02579075422875
 31
0.0
  0
LINE
  5
1A9
100
AcDbEntity
  8
ADF70-0108
370
              15
390
0
  6
STYLE_16
 62
               7
100
AcDbLine
 10
448.49331211833635
 20
-545.02579075422875
 30
0.0
 11
403.4933121183372
 21
-545.02579075422875
 31
0.0
  0
LINE
  5
1AA
100
AcDbEntity
  8
ADF70-0108
370
              15
390
0
  6
STYLE_16
 62
               7
100
AcDbLine
 10
403.4933121183372
 20
-545.02579075422875
 30
0.0
 11
403.4933121183372
 21
-549.85792303982407
 31
0.0
  0
LINE
  5
1AB
100
AcDbEntity
  8
ADF70-0108
370
              15
390
0
  6
STYLE_16
 62
               7
100
AcDbLine
 10
448.49331211833635
 20
-545.02579075422875
 30
0.0
 11
448.49331211833635
 21
-578.02579075422875
 31
0.0
  0
LINE
  5
1AC
100
AcDbEntity
  8
ADF70-0108
370
              15
390
0
  6
Continuous
 62
               7
100
AcDbLine
 10
725.99331211833669
 20
-412.0
 30
0.0
 11
725.99331211833669
 21
-582.02579075425058
 31
0.0
  0
LWPOLYLINE
  5
1AD
100
AcDbEntity
  8
ADF70-0108
370
              15
390
0
  6
STYLE_16
 62
               7
100
AcDbPolyline
 90
       17
 70
             128
 10
385.99331211833629
 20
-533.02579075422875
 42
-0.0664090815228588
 10
326.60703820270697
 20
-524.83720135877502
 10
326.47631677837222
 20
-524.80107291457841
 42
-0.1532890306269646
 10
292.12855039547162
 20
-496.38575535887105
 10
291.64602727510947
 20
-495.64187328025446
 42
-0.0691277389128982
 10
275.3294992412446
 20
-460.74769163025792
 10
275.24504125826627
 20
-460.47403941099157
 42
-0.0122126777984329
 10
273.85052912192469
 20
-455.53030749453023
 10
273.84937335788084
 20
-455.52579075427747
 42
-0.0085986174458934
 10
273.00921768580167
 20
-451.99038061396368
 10
273.00878785943144
 20
-451.98842280356354
 42
-0.0231930543708038
 10
269.33445890145936
 20
-430.54964382901886
 10
269.33150136530043
 20
-430.52579075422216
 42
-0.0332495180078581
 10
267.6739398681965
 20
-412.89573194916596
 10
267.67351101241201
 20
-412.88000895162241
 10
267.66492468549563
 20
-412.56521129257573
 42
0.4062490414457364
 10
263.0
 20
-408.02579075425058
 42
0.4062490414457364
  0
ARC
  5
1AE
100
AcDbEntity
  8
ADF70-0108
370
              15
390
0
  6
Continuous
 62
               7
100
AcDbCircle
 10
231.04644539987112
 20
-413.02579075425058
 30
0.0
 40
4.9999999999995453
100
AcDbArc
 50
90.0
 51
178.75303687311975
  0
ARC
  5
1AF
100
AcDbEntity
  8
ADF70-0108
370
              15
390
0
  6
Continuous
 62
               7
100
AcDbCircle
 10
457.10943829047426
 20
-417.94651500067596
 30
0.0
 40
231.1165413714042
100
AcDbArc
 50
178.7530368731201
 51
227.18882216607133
  0
ARC
  5
1B0
100
AcDbEntity
  8
ADF70-0108
370
              15
390
0
  6
Continuous
 62
               7
100
AcDbCircle
 10
301.4054030436003
 20
-586.0257907542142
 30
0.0
 40
1.9999999999999831
100
AcDbArc
 50
227.1888221661834
 51
270.00000000015632
  0
LINE
  5
1B1
100
AcDbEntity
  8
ADF70-0108
370
              15
390
0
  6
STYLE_16
 62
               7
100
AcDbLine
 10
403.4933121183372
 20
-578.02579075422875
 30
0.0
 11
403.49331211833629
 21
-545.02579075422875
 31
0.0
  0
LINE
  5
1B2
100
AcDbEntity
  8
ADF70-0108
370
              15
390
0
  6
STYLE_16
 62
               7
100
AcDbLine
 10
403.49331211833629
 20
-545.02579075422875
 30
0.0
 11
385.99331211833629
 21
-533.02579075422875
 31
0.0
  0
LINE
  5
1B3
100
AcDbEntity
  8
ADF70-0108
370
              15
390
0
  6
Continuous
 62
               7
100
AcDbLine
 10
301.4054068582974
 20
-588.02579075421238
 30
0.0
 11
706.9388302691932
 21
-588.02579075425058
 31
0.0
  0
LINE
  5
1B4
100
AcDbEntity
  8
ADF70-0108
370
              15
390
0
  6
Continuous
 62
               7
100
AcDbLine
 10
683.49331212262859
 20
-423.02579075425058
 30
0.0
 11
683.49331212262859
 21
-408.02579075425058
 31
0.0
  0
LINE
  5
1B5
100
AcDbEntity
  8
ADF70-0108
370
              15
390
0
  6
Continuous
 62
               7
100
AcDbLine
 10
648.49331211833669
 20
-423.02579075425058
 30
0.0
 11
648.49331211833669
 21
-408.02579075425058
 31
0.0
  0
LINE
  5
1B6
100
AcDbEntity
  8
ADF70-0108
370
              15
390
0
  6
STYLE_16
 62
               7
100
AcDbLine
 10
-454.03093390215298
 20
-578.0257907542275
 30
0.0
 11
-409.03093390215344
 21
-578.0257907542275
 31
0.0
  0
LINE
  5
1B7
100
AcDbEntity
  8
ADF70-0108
370
              15
390
0
  6
STYLE_16
 62
               7
100
AcDbLine
 10
-454.03093390215298
 20
-545.02579075422739
 30
0.0
 11
-409.03093390215344
 21
-545.02579075422739
 31
0.0
  0
ARC
  5
1B8
100
AcDbEntity
  8
ADF70-0108
370
              15
390
0
  6
Continuous
 62
               7
100
AcDbCircle
 10
-136.52989256089467
 20
-413.02579075425126
 30
0.0
 40
5.0000000000000684
100
AcDbArc
 50
358.83061719437575
 51
89.999999999994827
  0
LINE
  5
1B9
100
AcDbEntity
  8
ADF70-0108
370
              15
390
0
  6
STYLE_16
 62
               7
100
AcDbLine
 10
-409.32730263989487
 20
-545.02579075422739
 30
0.0
 11
-409.32730263989487
 21
-578.0257907542275
 31
0.0
  0
LINE
  5
1BA
100
AcDbEntity
  8
ADF70-0108
370
              15
390
0
  6
STYLE_16
 62
               7
100
AcDbLine
 10
-391.82730263989487
 20
-533.02579075422739
 30
0.0
 11
-409.32730263989487
 21
-545.02579075422739
 31
0.0
  0
LINE
  5
1BB
100
AcDbEntity
  8
ADF70-0108
370
              15
390
0
  6
STYLE_16
 62
               7
100
AcDbLine
 10
-409.32730263989487
 20
-545.02579075422739
 30
0.0
 11
-391.82730263989487
 21
-533.02579075422739
 31
0.0
  0
LINE
  5
1BC
100
AcDbEntity
  8
ADF70-0108
370
              15
390
0
  6
Continuous
 62
               7
100
AcDbLine
 10
-726.53197524341272
 20
-408.02579075425103
 30
0.0
 11
-136.52988565555501
 21
-408.02579075425103
 31
0.0
  0
ARC
  5
1BD
100
AcDbEntity
  8
ADF70-0108
370
              15
390
0
  6
Continuous
 62
               7
100
AcDbCircle
 10
-726.53197524341181
 20
-413.02579075425126
 30
0.0
 40
5.0000000000002274
100
AcDbArc
 50
90.000000000010431
 51
181.16938280562417
  0
LINE
  5
1BE
100
AcDbEntity
  8
ADF70-0108
370
              15
390
0
  6
Continuous
 62
               7
100
AcDbLine
 10
-223.99434306569293
 20
-588.02579075421477
 30
0.0
 11
-638.99434306569287
 21
-588.02579075421477
 31
0.0
  0
LINE
  5
1BF
100
AcDbEntity
  8
ADF70-0108
370
              15
390
0
  6
STYLE_16
 62
               7
100
AcDbLine
 10
-454.32730263989487
 20
-545.02579075422739
 30
0.0
 11
-454.32730263989396
 21
-578.0257907542275
 31
0.0
  0
LINE
  5
1C0
100
AcDbEntity
  8
ADF70-0108
370
              15
390
0
  6
STYLE_16
 62
               7
100
AcDbLine
 10
-471.82730263989487
 20
-533.02579075422739
 30
0.0
 11
-454.32730263989487
 21
-545.02579075422739
 31
0.0
  0
LINE
  5
1C1
100
AcDbEntity
  8
ADF70-0108
370
              15
390
0
  6
STYLE_16
 62
               7
100
AcDbLine
 10
-391.82730263989487
 20
-533.02579075422739
 30
0.0
 11
-471.82730263989475
 21
-533.02579075422739
 31
0.0
  0
LINE
  5
1C2
100
AcDbEntity
  8
ADF70-0108
370
              15
390
0
  6
STYLE_17
 62
               7
100
AcDbLine
 10
-491.65691140379039
 20
-468.02579075425103
 30
0.0
 11
-491.65691140379039
 21
-428.02579075425103
 31
0.0
  0
LINE
  5
1C3
100
AcDbEntity
  8
ADF70-0108
370
              15
390
0
  6
STYLE_17
 62
               7
100
AcDbLine
 10
-471.6569114037905
 20
-448.02579075425103
 30
0.0
 11
-511.6569114037905
 21
-448.02579075425103
 31
0.0
  0
CIRCLE
  5
1C4
100
AcDbEntity
  8
ADF70-0108
370
              15
390
0
  6
STYLE_17
 62
               7
100
AcDbCircle
 10
-491.65691140379039
 20
-448.02579075425103
 30
0.0
 40
10.0
  0
LINE
  5
1C5
100
AcDbEntity
  8
ADF70-0108
370
              15
390
0
  6
STYLE_17
 62
               7
100
AcDbLine
 10
-351.6569114037905
 20
-448.02579075425103
 30
0.0
 11
-391.6569114037905
 21
-448.02579075425103
 31
0.0
  0
CIRCLE
  5
1C6
100
AcDbEntity
  8
ADF70-0108
370
              15
390
0
  6
STYLE_17
 62
               7
100
AcDbCircle
 10
-371.65691140379039
 20
-448.02579075425103
 30
0.0
 40
10.0
  0
LINE
  5
1C7
100
AcDbEntity
  8
ADF70-0108
370
              15
390
0
  6
STYLE_17
 62
               7
100
AcDbLine
 10
-371.65691140379039
 20
-468.02579075425103
 30
0.0
 11
-371.65691140379039
 21
-428.02579075425103
 31
0.0
  0
CIRCLE
  5
1C8
100
AcDbEntity
  8
ADF70-0108
370
              15
390
0
  6
STYLE_17
 62
               7
100
AcDbCircle
 10
-431.53093390215355
 20
749.57751394440447
 30
0.0
 40
17.499999999999773
  0
INSERT
  5
1C9
100
AcDbEntity
  8
ADF70-0108
390
0
 62
               7
100
AcDbBlockReference
  2
グループ-1
 10
472.91118648687228
 20
-614.2244835027841
 30
0.0
  0
LINE
  5
1CA
100
AcDbEntity
  8
ADF70-0108
370
              15
390
0
  6
Continuous
 62
               7
100
AcDbLine
 10
258.10565693430652
 20
809.57751394440447
 30
0.0
 11
708.10565693430647
 21
809.57751394440447
 31
0.0
  0
SPLINE
  5
1CB
100
AcDbEntity
  8
ADF70-0108
370
              15
390
0
  6
STYLE_16
 62
               7
100
AcDbSpline
210
0.0
220
0.0
230
1.0
 70
              12
 71
               2
 72
              30
 73
              27
 74
               0
 42
0.000001
 43
0.000001
 40
0.0
 40
0.0
 40
0.0
 40
1.0
 40
1.0
 40
2.0
 40
2.0
 40
3.0
 40
3.0
 40
4.0
 40
4.0
 40
5.0
 40
5.0
 40
6.0
 40
6.0
 40
7.0
 40
7.0
 40
8.0
 40
8.0
 40
9.0
 40
9.0
 40
10.0
 40
10.0
 40
11.0
 40
11.0
 40
12.0
 40
12.0
 40
13.0
 40
13.0
 40
13.0
 10
-391.82730263989487
 20
-533.08679014545976
 30
0.0
 41
1.0
 10
-266.03485104125872
 20
-534.96929198867599
 30
0.0
 41
1.0
 10
-235.81759594198155
 20
-519.94427722411115
 30
0.0
 41
1.0
 10
-213.18949483864338
 20
-511.66686647684037
 30
0.0
 41
0.9561609687366232
 10
-199.07780512784217
 20
-492.13722997925044
 30
0.0
 41
1.0
 10
-199.02447717186686
 20
-492.06342764822557
 30
0.0
 41
1.0
 10
-198.97114921589156
 20
-491.98962531720065
 30
0.0
 41
1.0
 10
-187.7613631119562
 20
-476.4760296874698
 30
0.0
 41
0.989172906166001
 10
-181.53851474584241
 20
-458.37610946468561
 30
0.0
 41
1.0
 10
-181.53802624227029
 20
-458.37468859193365
 30
0.0
 41
1.0
 10
-181.53753773869829
 20
-458.37326771918168
 30
0.0
 41
1.0
 10
-180.72828965359946
 20
-456.01947008199431
 30
0.0
 41
0.9996427232206896
 10
-180.04598103132281
 20
-453.62579075425805
 30
0.0
 41
1.0
 10
-179.56441350103051
 20
-451.93635256670689
 30
0.0
 41
0.9998212924323779
 10
-179.14705500739962
 20
-450.22991752147959
 30
0.0
 41
1.0
 10
-179.14520527067901
 20
-450.22235412850137
 30
0.0
 41
1.0
 10
-179.14335553395841
 20
-450.21479073552314
 30
0.0
 41
1.0
 10
-176.65035573709162
 20
-440.02115779946035
 30
0.0
 41
0.9986843227127716
 10
-175.21454780500022
 20
-429.62579075425606
 30
0.0
 41
1.0
 10
-175.21364316848286
 20
-429.62076555387716
 30
0.0
 41
1.0
 10
-175.2127385319655
 20
-429.61574035349827
 30
0.0
 41
1.0
 10
-173.7006767143053
 20
-421.21632968062016
 30
0.0
 41
0.9972729435743398
 10
-173.4414852452224
 20
-412.68584022371107
 30
0.0
 41
1.0
 10
-173.29989371357095
 20
-408.02579075425126
 30
0.0
 41
0.7177639273348682
 10
-168.63769367285562
 20
-408.02579075425126
 30
0.0
 41
1.0
 10
-168.54065230166754
 20
-408.02579075425126
 30
0.0
 41
1.0
 10
-168.44361093047934
 20
-408.02579075425126
 30
0.0
 41
1.0
  0
LINE
  5
1CC
100
AcDbEntity
  8
ADF70-0108
370
              15
390
0
  6
STYLE_16
 62
               7
100
AcDbLine
 10
-236.32547798472348
 20
-520.13006162819079
 30
0.0
 11
-235.81759594198155
 21
-519.94427722411115
 31
0.0
  0
LINE
  5
1CD
100
AcDbEntity
  8
ADF70-0108
370
              15
390
0
  6
STYLE_16
 62
               7
100
AcDbLine
 10
-280.89360926202704
 20
-528.02579075425126
 30
0.0
 11
-280.77881973584027
 21
-528.02568938299873
 31
0.0
  0
SPLINE
  5
1CE
100
AcDbEntity
  8
ADF70-0108
370
              15
390
0
  6
STYLE_16
 62
               7
100
AcDbSpline
210
0.0
220
0.0
230
1.0
 70
              12
 71
               2
 72
              30
 73
              27
 74
               0
 42
0.000001
 43
0.000001
 40
0.0
 40
0.0
 40
0.0
 40
1.0
 40
1.0
 40
2.0
 40
2.0
 40
3.0
 40
3.0
 40
4.0
 40
4.0
 40
5.0
 40
5.0
 40
6.0
 40
6.0
 40
7.0
 40
7.0
 40
8.0
 40
8.0
 40
9.0
 40
9.0
 40
10.0
 40
10.0
 40
11.0
 40
11.0
 40
12.0
 40
12.0
 40
13.0
 40
13.0
 40
13.0
 10
-471.23456516441223
 20
-533.08679014545976
 30
0.0
 41
1.0
 10
-597.02701676304832
 20
-534.96929198867599
 30
0.0
 41
1.0
 10
-627.2442718623256
 20
-519.94427722411115
 30
0.0
 41
1.0
 10
-649.87237296566377
 20
-511.66686647684048
 30
0.0
 41
0.9561609687366215
 10
-663.98406267646487
 20
-492.13722997925044
 30
0.0
 41
1.0
 10
-664.03739063244029
 20
-492.06342764822557
 30
0.0
 41
1.0
 10
-664.09071858841548
 20
-491.98962531720065
 30
0.0
 41
1.0
 10
-675.30050469235084
 20
-476.47602968746946
 30
0.0
 41
0.9891729061660038
 10
-681.52335305846464
 20
-458.37610946468561
 30
0.0
 41
1.0
 10
-681.52384156203675
 20
-458.37468859193365
 30
0.0
 41
1.0
 10
-681.52433006560886
 20
-458.37326771918168
 30
0.0
 41
1.0
 10
-682.33357815070758
 20
-456.01947008199443
 30
0.0
 41
0.9996427232208086
 10
-683.01588677298423
 20
-453.62579075425805
 30
0.0
 41
1.0
 10
-683.49745430327675
 20
-451.93635256670694
 30
0.0
 41
0.9998212924324901
 10
-683.91481279690743
 20
-450.22991752147959
 30
0.0
 41
1.0
 10
-683.91666253362791
 20
-450.22235412850137
 30
0.0
 41
1.0
 10
-683.91851227034863
 20
-450.21479073552314
 30
0.0
 41
1.0
 10
-686.41151206721565
 20
-440.0211577994599
 30
0.0
 41
0.9986843227127658
 10
-687.84731999930682
 20
-429.62579075425606
 30
0.0
 41
1.0
 10
-687.84822463582418
 20
-429.62076555387716
 30
0.0
 41
1.0
 10
-687.84912927234154
 20
-429.61574035349827
 30
0.0
 41
1.0
 10
-689.36119109000151
 20
-421.21632968062022
 30
0.0
 41
0.9972729435743544
 10
-689.62038255908465
 20
-412.68584022371107
 30
0.0
 41
1.0
 10
-689.76197409073598
 20
-408.02579075425126
 30
0.0
 41
0.7177639273348644
 10
-694.42417413145131
 20
-408.02579075425126
 30
0.0
 41
1.0
 10
-694.52121550263951
 20
-408.02579075425126
 30
0.0
 41
1.0
 10
-694.6182568738277
 20
-408.02579075425126
 30
0.0
 41
1.0
  0
LINE
  5
1CF
100
AcDbEntity
  8
ADF70-0108
370
              15
390
0
  6
STYLE_16
 62
               7
100
AcDbLine
 10
-626.73638981958356
 20
-520.13006162819079
 30
0.0
 11
-627.2442718623256
 21
-519.94427722411115
 31
0.0
  0
ENDSEC
  0
SECTION
  2
OBJECTS
  0
DICTIONARY
  5
19
100
AcDbDictionary
280
               0
281
               1
  3
ACAD_GROUP
350
1A
  3
ACAD_MLINESTYLE
350
1B
  3
ACAD_LAYOUT
350
1E
  3
ACAD_PLOTSETTINGS
350
22
  3
ACAD_PLOTSTYLENAME
350
1F
  0
DICTIONARY
  5
1A
102
{ACAD_REACTORS
330
19
102
}
100
AcDbDictionary
280
               0
281
               1
  0
DICTIONARY
  5
1B
102
{ACAD_REACTORS
330
19
102
}
100
AcDbDictionary
280
               0
281
               1
  3
Standard
350
1C
  0
MLINESTYLE
  5
1C
102
{ACAD_REACTORS
330
1B
102
}
100
AcDbMlineStyle
  2
Standard
 70
               0
  3

 62
               0
 51
90.0
 52
90.0
 71
               2
 49
0.5
 62
             256
  6
ByLayer
 49
-0.5
 62
             256
  6
ByLayer
  0
ACDBDICTIONARYWDFLT
  5
1F
102
{ACAD_REACTORS
330
19
102
}
100
AcDbDictionary
281
               1
  3
Normal
350
1D
100
AcDbDictionaryWithDefault
340
1D
  0
ACDBPLACEHOLDER
  5
1D
102
{ACAD_REACTORS
330
1F
102
}
  0
LAYOUT
  5
20
102
{ACAD_REACTORS
330
1E
102
}
100
AcDbPlotSettings
  1

  2

  4

  6

 40
0.0
 41
0.0
 42
0.0
 43
0.0
 44
0.0
 45
0.0
 46
0.0
 47
0.0
 48
0.0
 49
0.0
140
0.0
141
0.0
142
1.0
143
1.0
 70
            1024
 72
               0
 73
               0
 74
               0
  7

 75
               0
147
1.0
148
0.0
149
0.0
100
AcDbLayout
  1
Model
 70
               0
 71
               0
 10
0.0
 20
0.0
 11
0.0
 21
0.0
 12
0.0
 22
0.0
 32
0.0
 14
0.0
 24
0.0
 34
0.0
 15
0.0
 25
0.0
 35
0.0
146
0.0
 13
0.0
 23
0.0
 33
0.0
 16
0.0
 26
0.0
 36
0.0
 17
0.0
 27
0.0
 37
0.0
 76
               0
330
A
331
0
345
0
346
0
  0
LAYOUT
  5
21
102
{ACAD_REACTORS
330
1E
102
}
100
AcDbPlotSettings
  1

  2

  4

  6

 40
0.0
 41
0.0
 42
0.0
 43
0.0
 44
0.0
 45
0.0
 46
0.0
 47
0.0
 48
0.0
 49
0.0
140
0.0
141
0.0
142
1.0
143
1.0
 70
               0
 72
               0
 73
               0
 74
               0
  7

 75
               0
147
1.0
148
0.0
149
0.0
100
AcDbLayout
  1
Layout1
 70
               0
 71
               0
 10
0.0
 20
0.0
 11
0.0
 21
0.0
 12
0.0
 22
0.0
 32
0.0
 14
0.0
 24
0.0
 34
0.0
 15
0.0
 25
0.0
 35
0.0
146
0.0
 13
0.0
 23
0.0
 33
0.0
 16
0.0
 26
0.0
 36
0.0
 17
0.0
 27
0.0
 37
0.0
 76
               0
330
B
331
0
345
0
346
0
  0
DICTIONARY
  5
1E
102
{ACAD_REACTORS
330
19
102
}
100
AcDbDictionary
280
               0
281
               1
  3
Layout1
350
21
  3
Model
350
20
  0
DICTIONARY
  5
22
102
{ACAD_REACTORS
330
19
102
}
100
AcDbDictionary
280
               0
281
               1
  0
ENDSEC
  0
EOF
