  0
SECTION
  2
HEADER
  9
$ACADVER
  1
AC1015
  9
$ACADMAINTVER
 70
               6
  9
$DWGCODEPAGE
  3
ANSI_932
  9
$INSBASE
 10
0.0
 20
0.0
 30
0.0
  9
$EXTMIN
 10
-975.00000000024113
 20
-1431.5255224711129
 30
-14.834305555555554
  9
$EXTMAX
 10
975.00000000024124
 20
1405.9972926412995
 30
14.834305555555554
  9
$LIMMIN
 10
0.0
 20
0.0
  9
$LIMMAX
 10
0.0
 20
0.0
  9
$ORTHOMODE
 70
               0
  9
$REGENMODE
 70
               1
  9
$FILLMODE
 70
               1
  9
$QTEXTMODE
 70
               0
  9
$MIRRTEXT
 70
               1
  9
$LTSCALE
 40
25.399999999999999
  9
$ATTMODE
 70
               1
  9
$TEXTSIZE
 40
0.2
  9
$TRACEWID
 40
1.0
  9
$TEXTSTYLE
  7
Standard
  9
$CLAYER
  8
notes
  9
$CELTYPE
  6
Continuous
  9
$CECOLOR
 62
             256
  9
$CELTSCALE
 40
1.0
  9
$DISPSILH
 70
               0
  9
$DIMSCALE
 40
1.0
  9
$DIMASZ
 40
31.75
  9
$DIMEXO
 40
0.0
  9
$DIMDLI
 40
6.9999999999999396
  9
$DIMRND
 40
0.0
  9
$DIMDLE
 40
0.0
  9
$DIMEXE
 40
19.999999999996199
  9
$DIMTP
 40
0.0
  9
$DIMTM
 40
0.0
  9
$DIMTXT
 40
24.432617187500004
  9
$DIMCEN
 40
0.0
  9
$DIMTSZ
 40
0.0
  9
$DIMTOL
 70
               0
  9
$DIMLIM
 70
               0
  9
$DIMTIH
 70
               0
  9
$DIMTOH
 70
               0
  9
$DIMSE1
 70
               0
  9
$DIMSE2
 70
               0
  9
$DIMTAD
 70
               1
  9
$DIMZIN
 70
              11
  9
$DIMBLK
  1
VW_FILLEDARROW
  9
$DIMASO
 70
               1
  9
$DIMSHO
 70
               1
  9
$DIMPOST
  1
<>
  9
$DIMAPOST
  1
[]
  9
$DIMALT
 70
               0
  9
$DIMALTD
 70
               1
  9
$DIMALTF
 40
1.0
  9
$DIMLFAC
 40
1.0
  9
$DIMTOFL
 70
               0
  9
$DIMTVP
 40
0.0
  9
$DIMTIX
 70
               1
  9
$DIMSOXD
 70
               0
  9
$DIMSAH
 70
               0
  9
$DIMBLK1
  1

  9
$DIMBLK2
  1

  9
$DIMSTYLE
  2
JIS
  9
$DIMCLRD
 70
               0
  9
$DIMCLRE
 70
               0
  9
$DIMCLRT
 70
               0
  9
$DIMTFAC
 40
1.0
  9
$DIMGAP
 40
1.00000000000108
  9
$DIMJUST
 70
               0
  9
$DIMSD1
 70
               0
  9
$DIMSD2
 70
               0
  9
$DIMTOLJ
 70
               1
  9
$DIMTZIN
 70
              11
  9
$DIMALTZ
 70
              11
  9
$DIMALTTZ
 70
              11
  9
$DIMUPT
 70
               0
  9
$DIMDEC
 70
               1
  9
$DIMTDEC
 70
               1
  9
$DIMALTU
 70
               2
  9
$DIMALTTD
 70
               2
  9
$DIMTXSTY
  7
ＭＳゴシック
  9
$DIMAUNIT
 70
               0
  9
$DIMADEC
 70
               2
  9
$DIMALTRND
 40
0.0
  9
$DIMAZIN
 70
               0
  9
$DIMDSEP
 70
              46
  9
$DIMATFIT
 70
               0
  9
$DIMFRAC
 70
               2
  9
$DIMLDRBLK
  1

  9
$DIMLUNIT
 70
               2
  9
$DIMLWD
 70
              -2
  9
$DIMLWE
 70
              -2
  9
$DIMTMOVE
 70
               0
  9
$LUNITS
 70
               2
  9
$LUPREC
 70
               4
  9
$SKETCHINC
 40
0.1
  9
$FILLETRAD
 40
0.0
  9
$AUNITS
 70
               0
  9
$AUPREC
 70
               0
  9
$MENU
  1
acad
  9
$ELEVATION
 40
0.0
  9
$PELEVATION
 40
0.0
  9
$THICKNESS
 40
0.0
  9
$LIMCHECK
 70
               0
  9
$CHAMFERA
 40
0.0
  9
$CHAMFERB
 40
0.0
  9
$CHAMFERC
 40
0.0
  9
$CHAMFERD
 40
0.0
  9
$SKPOLY
 70
               0
  9
$TDCREATE
 40
2455995.604074074
  9
$TDUCREATE
 40
0.000000000
  9
$TDUPDATE
 40
2455995.604074074
  9
$TDUUPDATE
 40
0.000000000
  9
$TDINDWG
 40
0.0000000000
  9
$TDUSRTIMER
 40
0.0000000000
  9
$USRTIMER
 70
               1
  9
$ANGBASE
 50
0.0
  9
$ANGDIR
 70
               0
  9
$PDMODE
 70
               1
  9
$PDSIZE
 40
-2.0
  9
$PLINEWID
 40
0.0
  9
$SPLFRAME
 70
               0
  9
$SPLINETYPE
 70
               6
  9
$SPLINESEGS
 70
               8
  9
$HANDSEED
  5
1F1
  9
$SURFTAB1
 70
               6
  9
$SURFTAB2
 70
               6
  9
$SURFTYPE
 70
               6
  9
$SURFU
 70
               6
  9
$SURFV
 70
               6
  9
$UCSBASE
  2

  9
$UCSNAME
  2

  9
$UCSORG
 10
0.0
 20
0.0
 30
0.0
  9
$UCSXDIR
 10
1.0
 20
0.0
 30
0.0
  9
$UCSYDIR
 10
0.0
 20
1.0
 30
0.0
  9
$UCSORTHOREF
  2

  9
$UCSORTHOVIEW
 70
               0
  9
$UCSORGTOP
 10
0.0
 20
0.0
 30
0.0
  9
$UCSORGBOTTOM
 10
0.0
 20
0.0
 30
0.0
  9
$UCSORGLEFT
 10
0.0
 20
0.0
 30
0.0
  9
$UCSORGRIGHT
 10
0.0
 20
0.0
 30
0.0
  9
$UCSORGFRONT
 10
0.0
 20
0.0
 30
0.0
  9
$UCSORGBACK
 10
0.0
 20
0.0
 30
0.0
  9
$PUCSBASE
  2

  9
$PUCSNAME
  2

  9
$PUCSORG
 10
0.0
 20
0.0
 30
0.0
  9
$PUCSXDIR
 10
1.0
 20
0.0
 30
0.0
  9
$PUCSYDIR
 10
0.0
 20
1.0
 30
0.0
  9
$PUCSORTHOREF
  2

  9
$PUCSORTHOVIEW
 70
               0
  9
$PUCSORGTOP
 10
0.0
 20
0.0
 30
0.0
  9
$PUCSORGBOTTOM
 10
0.0
 20
0.0
 30
0.0
  9
$PUCSORGLEFT
 10
0.0
 20
0.0
 30
0.0
  9
$PUCSORGRIGHT
 10
0.0
 20
0.0
 30
0.0
  9
$PUCSORGFRONT
 10
0.0
 20
0.0
 30
0.0
  9
$PUCSORGBACK
 10
0.0
 20
0.0
 30
0.0
  9
$USERI1
 70
               0
  9
$USERI2
 70
               0
  9
$USERI3
 70
               0
  9
$USERI4
 70
               0
  9
$USERI5
 70
               0
  9
$USERR1
 40
0.0
  9
$USERR2
 40
0.0
  9
$USERR3
 40
0.0
  9
$USERR4
 40
0.0
  9
$USERR5
 40
0.0
  9
$WORLDVIEW
 70
               1
  9
$SHADEDGE
 70
               3
  9
$SHADEDIF
 70
              70
  9
$TILEMODE
 70
               1
  9
$MAXACTVP
 70
              64
  9
$PINSBASE
 10
0.0
 20
0.0
 30
0.0
  9
$PLIMCHECK
 70
               0
  9
$PEXTMIN
 10
1.0000000000000000E+20
 20
1.0000000000000000E+20
 30
1.0000000000000000E+20
  9
$PEXTMAX
 10
-1.0000000000000000E+20
 20
-1.0000000000000000E+20
 30
-1.0000000000000000E+20
  9
$PLIMMIN
 10
0.0
 20
0.0
  9
$PLIMMAX
 10
12.0
 20
9.0
  9
$UNITMODE
 70
               0
  9
$VISRETAIN
 70
               0
  9
$PLINEGEN
 70
               1
  9
$PSLTSCALE
 70
               0
  9
$TREEDEPTH
 70
            3020
  9
$CMLSTYLE
  2
Standard
  9
$CMLJUST
 70
               0
  9
$CMLSCALE
 40
1.0
  9
$PROXYGRAPHICS
 70
               0
  9
$MEASUREMENT
 70
               1
  9
$CELWEIGHT
370
               0
  9
$ENDCAPS
280
               0
  9
$JOINSTYLE
280
               0
  9
$LWDISPLAY
290
               1
  9
$INSUNITS
 70
               4
  9
$HYPERLINKBASE
  1

  9
$STYLESHEET
  1

  9
$XEDIT
290
               1
  9
$CEPSNTYPE
380
               0
  9
$PSTYLEMODE
290
               1
  9
$FINGERPRINTGUID
  2

  9
$VERSIONGUID
  2

  9
$EXTNAMES
290
               1
  9
$PSVPSCALE
 40
0.0
  0
ENDSEC
  0
SECTION
  2
CLASSES
  0
CLASS
  1
LWPOLYLINE
  2
AcDbPolyline
  3
AutoCAD 2000
 90
        0
280
               0
281
               1
  0
CLASS
  1
IMAGE
  2
AcDbRasterImage
  3
ISM
 90
      127
280
               0
281
               1
  0
CLASS
  1
OLE2FRAME
  2
AcDbOle2Frame
  3
AutoCAD 2000
 90
        0
280
               0
281
               1
  0
CLASS
  1
HATCH
  2
AcDbHatch
  3
AutoCAD 2000
 90
        0
280
               0
281
               1
  0
CLASS
  1
DICTIONARYVAR
  2
AcDbDictionaryVar
  3
AutoCAD 2000
 90
        0
280
               0
281
               0
  0
CLASS
  1
RASTERVARIABLES
  2
AcDbRasterVariables
  3
ISM
 90
        0
280
               0
281
               0
  0
CLASS
  1
IMAGEDEF
  2
AcDbRasterImageDef
  3
ISM
 90
        0
280
               0
281
               0
  0
CLASS
  1
IMAGEDEF_REACTOR
  2
AcDbRasterImageDefReactor
  3
ISM
 90
        1
280
               0
281
               0
  0
CLASS
  1
IDBUFFER
  2
AcDbIdBuffer
  3
AutoCAD 2000
 90
        0
280
               0
281
               0
  0
CLASS
  1
SPATIAL_FILTER
  2
AcDbSpatialFilter
  3
AutoCAD 2000
 90
        0
280
               0
281
               0
  0
CLASS
  1
XRECORD
  2
AcDbXrecord
  3
AutoCAD 2000
 90
        0
280
               0
281
               0
  0
CLASS
  1
SORTENTSTABLE
  2
AcDbSortentsTable
  3
AutoCAD 2000
 90
        0
280
               0
281
               0
  0
CLASS
  1
LAYER_INDEX
  2
AcDbLayerIndex
  3
AutoCAD 2000
 90
        0
280
               0
281
               0
  0
CLASS
  1
SPATIAL_INDEX
  2
AcDbSpatialIndex
  3
AutoCAD 2000
 90
        0
280
               0
281
               0
  0
CLASS
  1
OBJECT_PTR
  2
CAseDLPNTableRecord
  3
"ASE-LPNTableRecord"
 90
        1
280
               0
281
               0
  0
CLASS
  1
LAYOUT
  2
AcDbLayout
  3
AutoCAD 2000
 90
        0
280
               0
281
               0
  0
CLASS
  1
PLOTSETTINGS
  2
AcDbPlotSettings
  3
AutoCAD 2000
 90
        0
280
               0
281
               0
  0
CLASS
  1
ACDBDICTIONARYWDFLT
  2
AcDbDictionaryWithDefault
  3
AutoCAD 2000
 90
        0
280
               0
281
               0
  0
CLASS
  1
ACDBPLACEHOLDER
  2
AcDbPlaceHolder
  3
AutoCAD 2000
 90
        0
280
               0
281
               0
  0
ENDSEC
  0
SECTION
  2
TABLES
  0
TABLE
  2
VPORT
  5
7
100
AcDbSymbolTable
 70
               1
  0
VPORT
  5
15
100
AcDbSymbolTableRecord
100
AcDbViewportTableRecord
  2
*ACTIVE
 70
               0
 10
0.0
 20
0.0
 11
1.0
 21
1.0
 12
0.0000000000001137
 22
-12.764114914906713
 13
0.0
 23
0.0
 14
1.0
 24
1.0
 15
0.0
 25
0.0
 16
0.0
 26
0.0
 36
1.0
 17
0.0
 27
0.0
 37
0.0
 40
2837.5228151124124
 41
0.688564
 42
50.0
 43
0.0
 44
0.0
 50
0.0
 51
0.0
 71
               0
 72
            2000
 73
               1
 74
               1
 75
               0
 76
               0
 77
               0
 78
               0
281
               0
 65
               0
110
0.0
120
0.0
130
0.0
111
1.0
121
0.0
131
0.0
112
0.0
122
1.0
132
0.0
345
0
346
0
 79
               0
146
0.0
  0
ENDTAB
  0
TABLE
  2
LTYPE
  5
4
100
AcDbSymbolTable
 70
              15
  0
LTYPE
  5
11
100
AcDbSymbolTableRecord
100
AcDbLinetypeTableRecord
  2
ByBlock
 70
              64
  3

 72
              65
 73
               0
 40
0.0
  0
LTYPE
  5
12
100
AcDbSymbolTableRecord
100
AcDbLinetypeTableRecord
  2
ByLayer
 70
              64
  3

 72
              65
 73
               0
 40
0.0
  0
LTYPE
  5
13
100
AcDbSymbolTableRecord
100
AcDbLinetypeTableRecord
  2
Continuous
 70
              64
  3
Solid line
 72
              65
 73
               0
 40
0.0
  0
LTYPE
  5
3A
100
AcDbSymbolTableRecord
100
AcDbLinetypeTableRecord
  2
STYLE_01
 70
               0
  3

 72
              65
 73
               2
 40
0.4861112204724409
 49
0.3472222440944882
 74
               0
 49
-0.1388889763779527
 74
               0
  0
LTYPE
  5
3B
100
AcDbSymbolTableRecord
100
AcDbLinetypeTableRecord
  2
STYLE_02
 70
               0
  3

 72
              65
 73
               6
 40
0.444444094488189
 49
0.0833332677165354
 74
               0
 49
-0.0555555118110236
 74
               0
 49
0.0833332677165355
 74
               0
 49
-0.0833332677165354
 74
               0
 49
0.0555555118110236
 74
               0
 49
-0.0833332677165354
 74
               0
  0
LTYPE
  5
3C
100
AcDbSymbolTableRecord
100
AcDbLinetypeTableRecord
  2
STYLE_03
 70
               0
  3

 72
              65
 73
               6
 40
0.444444094488189
 49
0.0833332677165354
 74
               0
 49
-0.0555555118110236
 74
               0
 49
0.0833332677165355
 74
               0
 49
-0.0833332677165354
 74
               0
 49
0.0555555118110236
 74
               0
 49
-0.0833332677165354
 74
               0
  0
LTYPE
  5
3D
100
AcDbSymbolTableRecord
100
AcDbLinetypeTableRecord
  2
STYLE_04
 70
               0
  3

 72
              65
 73
               6
 40
0.444444094488189
 49
0.0833332677165354
 74
               0
 49
-0.0555555118110236
 74
               0
 49
0.0833332677165355
 74
               0
 49
-0.0833332677165354
 74
               0
 49
0.0555555118110236
 74
               0
 49
-0.0833332677165354
 74
               0
  0
LTYPE
  5
3E
100
AcDbSymbolTableRecord
100
AcDbLinetypeTableRecord
  2
STYLE_05
 70
               0
  3

 72
              65
 73
               6
 40
0.444444094488189
 49
0.0833332677165354
 74
               0
 49
-0.0555555118110236
 74
               0
 49
0.0833332677165355
 74
               0
 49
-0.0833332677165354
 74
               0
 49
0.0555555118110236
 74
               0
 49
-0.0833332677165354
 74
               0
  0
LTYPE
  5
3F
100
AcDbSymbolTableRecord
100
AcDbLinetypeTableRecord
  2
STYLE_06
 70
               0
  3

 72
              65
 73
               2
 40
0.2777779527559055
 49
0.1388889763779528
 74
               0
 49
-0.1388889763779528
 74
               0
  0
LTYPE
  5
40
100
AcDbSymbolTableRecord
100
AcDbLinetypeTableRecord
  2
STYLE_07
 70
               0
  3

 72
              65
 73
               2
 40
0.2777779527559055
 49
0.1388889763779528
 74
               0
 49
-0.1388889763779528
 74
               0
  0
LTYPE
  5
41
100
AcDbSymbolTableRecord
100
AcDbLinetypeTableRecord
  2
STYLE_08
 70
               0
  3

 72
              65
 73
               6
 40
2.5
 49
1.25
 74
               0
 49
-0.41656
 74
               0
 49
0.1388600000000001
 74
               0
 49
-0.2778600000000001
 74
               0
 49
0.1388599999999998
 74
               0
 49
-0.2778600000000001
 74
               0
  0
LTYPE
  5
42
100
AcDbSymbolTableRecord
100
AcDbLinetypeTableRecord
  2
STYLE_09
 70
               0
  3

 72
              65
 73
               4
 40
10.0
 49
7.5
 74
               0
 49
-0.5555699999999997
 74
               0
 49
1.3888600000000006
 74
               0
 49
-0.5555699999999997
 74
               0
  0
LTYPE
  5
43
100
AcDbSymbolTableRecord
100
AcDbLinetypeTableRecord
  2
STYLE_10
 70
               0
  3

 72
              65
 73
               6
 40
11.875
 49
7.5
 74
               0
 49
-0.5555699999999997
 74
               0
 49
1.3888600000000006
 74
               0
 49
-0.5555699999999997
 74
               0
 49
1.25
 74
               0
 49
-0.625
 74
               0
  0
LTYPE
  5
44
100
AcDbSymbolTableRecord
100
AcDbLinetypeTableRecord
  2
STYLE_11
 70
               0
  3

 72
              65
 73
               2
 40
1.033464566929134
 49
0.6889763779527559
 74
               0
 49
-0.344488188976378
 74
               0
  0
LTYPE
  5
45
100
AcDbSymbolTableRecord
100
AcDbLinetypeTableRecord
  2
STYLE_12
 70
               0
  3

 72
              65
 73
               2
 40
0.7874015748031495
 49
0.3937007874015748
 74
               0
 49
-0.3937007874015748
 74
               0
  0
ENDTAB
  0
TABLE
  2
LAYER
  5
2
100
AcDbSymbolTable
 70
               5
  0
LAYER
  5
14
100
AcDbSymbolTableRecord
100
AcDbLayerTableRecord
  2
0
 70
               0
 62
               7
  6
Continuous
290
               1
370
              -3
390
1D
  0
LAYER
  5
46
100
AcDbSymbolTableRecord
100
AcDbLayerTableRecord
  2
Defpoints
 70
               0
 62
               7
  6
Continuous
290
               0
370
              -3
390
1D
  0
LAYER
  5
47
100
AcDbSymbolTableRecord
100
AcDbLayerTableRecord
  2
template
 70
               0
 62
               7
  6
Continuous
290
               1
370
              -3
390
1D
  0
LAYER
  5
48
100
AcDbSymbolTableRecord
100
AcDbLayerTableRecord
  2
notes
 70
               0
 62
               7
  6
Continuous
290
               1
370
              -3
390
1D
  0
LAYER
  5
49
100
AcDbSymbolTableRecord
100
AcDbLayerTableRecord
  2
ADF70-0301
 70
               0
 62
               7
  6
Continuous
290
               1
370
              -3
390
1D
  0
ENDTAB
  0
TABLE
  2
STYLE
  5
3
100
AcDbSymbolTable
 70
               3
  0
STYLE
  5
17
100
AcDbSymbolTableRecord
100
AcDbTextStyleTableRecord
  2
Standard
 70
               0
 40
0.0
 41
1.0
 50
0.0
 71
               0
 42
0.0
  3
txt
  4
BIGFONT.SHX
  0
STYLE
  5
38
100
AcDbSymbolTableRecord
100
AcDbTextStyleTableRecord
  2
ＭＳ ゴシック
 70
               0
 40
0.0
 41
1.0
 50
0.0
 71
               0
 42
0.0
  3

  4
ＭＳ ゴシック
1001
ACAD
1000
ＭＳ ゴシック
1071
        0
  0
STYLE
  5
39
100
AcDbSymbolTableRecord
100
AcDbTextStyleTableRecord
  2
ＭＳゴシック
 70
               0
 40
0.0
 41
1.0
 50
0.0
 71
               0
 42
0.0
  3

  4
ＭＳゴシック
1001
ACAD
1000
ＭＳゴシック
1071
        0
  0
ENDTAB
  0
TABLE
  2
VIEW
  5
5
100
AcDbSymbolTable
 70
               0
  0
ENDTAB
  0
TABLE
  2
UCS
  5
6
100
AcDbSymbolTable
 70
               0
  0
ENDTAB
  0
TABLE
  2
APPID
  5
8
100
AcDbSymbolTable
 70
               1
  0
APPID
  5
16
100
AcDbSymbolTableRecord
100
AcDbRegAppTableRecord
  2
ACAD
 70
               0
  0
ENDTAB
  0
TABLE
  2
DIMSTYLE
  5
9
100
AcDbSymbolTable
 70
               3
100
AcDbDimStyleTable
 71
               0
  0
DIMSTYLE
105
18
100
AcDbSymbolTableRecord
100
AcDbDimStyleTableRecord
  2
Standard
 70
               0
  3

  4

 40
1.0
 41
0.18
 42
0.0625
 43
0.38
 44
0.18
 45
0.0
 46
0.0
 47
0.0
 48
0.0
 71
               0
 72
               0
 73
               1
 74
               1
 75
               0
 76
               0
 77
               0
 78
               0
 79
               0
140
0.18
141
0.09
142
0.0
143
25.399999999999999
144
1.0
145
0.0
146
1.0
147
0.09
148
0.0
170
               0
171
               2
172
               0
173
               0
174
               0
175
               0
176
               0
177
               0
178
               0
179
               0
271
               4
272
               4
273
               2
274
               2
275
               0
276
               0
277
               2
278
              46
279
               0
280
               0
281
               0
282
               0
283
               1
284
               0
285
               0
286
               0
288
               0
289
               3
340
17
341
0
342
0
343
0
344
0
371
              -2
372
              -2
  0
DIMSTYLE
105
52
100
AcDbSymbolTableRecord
100
AcDbDimStyleTableRecord
  2
tform線あり
 70
               0
  3
<>
  4
[]
 40
1.0
 41
3.999755859375
 42
24.999999999999996
 43
0.9999999999999999
 44
0.0
 45
0.0
 46
0.0
 47
0.0
 48
0.0
 71
               0
 72
               0
 73
               0
 74
               0
 75
               0
 76
               0
 77
               1
 78
              11
 79
               0
140
24.432617187500004
141
0.0
142
0.0
143
1.0
144
1.0
145
0.0
146
0.8
147
0.4999999999999999
148
0.0
170
               0
171
               1
172
               1
173
               0
174
               1
175
               0
176
               0
177
               0
178
               0
179
               2
271
               1
272
               1
273
               2
274
               2
275
               0
276
               2
277
               2
278
              46
279
               0
280
               0
281
               0
282
               0
283
               1
284
              11
285
              11
286
              11
288
               0
289
               0
340
39
341
4A
342
4A
343
0
344
0
371
              -2
372
              -2
  0
DIMSTYLE
105
57
100
AcDbSymbolTableRecord
100
AcDbDimStyleTableRecord
  2
JIS
 70
               0
  3
<>
  4
[]
 40
1.0
 41
31.75
 42
0.0
 43
6.9999999999999396
 44
19.999999999996199
 45
0.0
 46
0.0
 47
0.0
 48
0.0
 71
               0
 72
               0
 73
               0
 74
               0
 75
               0
 76
               0
 77
               1
 78
              11
 79
               0
140
24.432617187500004
141
0.0
142
0.0
143
1.0
144
1.0
145
0.0
146
1.0
147
1.00000000000108
148
0.0
170
               0
171
               1
172
               0
173
               0
174
               1
175
               0
176
               0
177
               0
178
               0
179
               2
271
               1
272
               1
273
               2
274
               2
275
               0
276
               2
277
               2
278
              46
279
               0
280
               0
281
               0
282
               0
283
               1
284
              11
285
              11
286
              11
288
               0
289
               0
340
39
341
53
342
53
343
0
344
0
371
              -2
372
              -2
  0
ENDTAB
  0
TABLE
  2
BLOCK_RECORD
  5
1
100
AcDbSymbolTable
 70
              23
  0
BLOCK_RECORD
  5
A
100
AcDbSymbolTableRecord
100
AcDbBlockTableRecord
  2
*MODEL_SPACE
340
20
  0
BLOCK_RECORD
  5
B
100
AcDbSymbolTableRecord
100
AcDbBlockTableRecord
  2
*PAPER_SPACE
340
21
  0
BLOCK_RECORD
  5
4A
100
AcDbSymbolTableRecord
100
AcDbBlockTableRecord
  2
_DOT
340
0
  0
BLOCK_RECORD
  5
53
100
AcDbSymbolTableRecord
100
AcDbBlockTableRecord
  2
VW_FILLEDARROW
340
0
  0
BLOCK_RECORD
  5
23
100
AcDbSymbolTableRecord
100
AcDbBlockTableRecord
  2
グループ
340
0
102
{BLKREFS
331
16A
102
}
  0
BLOCK_RECORD
  5
24
100
AcDbSymbolTableRecord
100
AcDbBlockTableRecord
  2
*D3
340
0
  0
BLOCK_RECORD
  5
25
100
AcDbSymbolTableRecord
100
AcDbBlockTableRecord
  2
*D4
340
0
  0
BLOCK_RECORD
  5
26
100
AcDbSymbolTableRecord
100
AcDbBlockTableRecord
  2
*D5
340
0
  0
BLOCK_RECORD
  5
27
100
AcDbSymbolTableRecord
100
AcDbBlockTableRecord
  2
*D6
340
0
  0
BLOCK_RECORD
  5
28
100
AcDbSymbolTableRecord
100
AcDbBlockTableRecord
  2
*D7
340
0
  0
BLOCK_RECORD
  5
29
100
AcDbSymbolTableRecord
100
AcDbBlockTableRecord
  2
*D8
340
0
  0
BLOCK_RECORD
  5
2A
100
AcDbSymbolTableRecord
100
AcDbBlockTableRecord
  2
*D9
340
0
  0
BLOCK_RECORD
  5
2B
100
AcDbSymbolTableRecord
100
AcDbBlockTableRecord
  2
*D10
340
0
  0
BLOCK_RECORD
  5
2C
100
AcDbSymbolTableRecord
100
AcDbBlockTableRecord
  2
*D11
340
0
  0
BLOCK_RECORD
  5
2D
100
AcDbSymbolTableRecord
100
AcDbBlockTableRecord
  2
*D12
340
0
  0
BLOCK_RECORD
  5
2E
100
AcDbSymbolTableRecord
100
AcDbBlockTableRecord
  2
*D13
340
0
  0
BLOCK_RECORD
  5
2F
100
AcDbSymbolTableRecord
100
AcDbBlockTableRecord
  2
*D14
340
0
  0
BLOCK_RECORD
  5
30
100
AcDbSymbolTableRecord
100
AcDbBlockTableRecord
  2
*D15
340
0
  0
BLOCK_RECORD
  5
31
100
AcDbSymbolTableRecord
100
AcDbBlockTableRecord
  2
*D16
340
0
  0
BLOCK_RECORD
  5
32
100
AcDbSymbolTableRecord
100
AcDbBlockTableRecord
  2
*D17
340
0
  0
BLOCK_RECORD
  5
33
100
AcDbSymbolTableRecord
100
AcDbBlockTableRecord
  2
*D18
340
0
  0
BLOCK_RECORD
  5
34
100
AcDbSymbolTableRecord
100
AcDbBlockTableRecord
  2
*D19
340
0
  0
BLOCK_RECORD
  5
35
100
AcDbSymbolTableRecord
100
AcDbBlockTableRecord
  2
*D20
340
0
  0
BLOCK_RECORD
  5
36
100
AcDbSymbolTableRecord
100
AcDbBlockTableRecord
  2
*D21
340
0
  0
BLOCK_RECORD
  5
37
100
AcDbSymbolTableRecord
100
AcDbBlockTableRecord
  2
*D22
340
0
  0
ENDTAB
  0
ENDSEC
  0
SECTION
  2
BLOCKS
  0
BLOCK
  5
D
100
AcDbEntity
  8
0
390
0
100
AcDbBlockBegin
  2
*MODEL_SPACE
 70
               0
 10
0.0
 20
0.0
 30
0.0
  3
*MODEL_SPACE
  1

  0
ENDBLK
  5
E
100
AcDbEntity
  8
0
390
0
100
AcDbBlockEnd
  0
BLOCK
  5
F
100
AcDbEntity
 67
               1
  8
0
390
0
100
AcDbBlockBegin
  2
*PAPER_SPACE
 70
               0
 10
0.0
 20
0.0
 30
0.0
  3
*PAPER_SPACE
  1

  0
ENDBLK
  5
10
100
AcDbEntity
 67
               1
  8
0
390
0
100
AcDbBlockEnd
  0
BLOCK
  5
4B
100
AcDbEntity
  8
0
390
0
100
AcDbBlockBegin
  2
_DOT
 70
               0
 10
0.0
 20
0.0
 30
0.0
  3
_DOT
  1

  0
POLYLINE
  5
4C
100
AcDbEntity
  8
0
370
              -2
390
0
  6
ByBlock
 62
               0
100
AcDb2dPolyline
 66
               1
 10
0.0
 20
0.0
 30
0.0
 70
               1
 40
0.5
 41
0.5
  0
VERTEX
  5
4D
100
AcDbEntity
  8
0
370
              -2
390
0
  6
ByBlock
 62
               0
100
AcDbVertex
100
AcDb2dVertex
 10
-0.25
 20
0.0
 30
0.0
 42
1.0
  0
VERTEX
  5
4E
100
AcDbEntity
  8
0
370
              -2
390
0
  6
ByBlock
 62
               0
100
AcDbVertex
100
AcDb2dVertex
 10
0.25
 20
0.0
 30
0.0
 42
1.0
  0
SEQEND
  5
4F
100
AcDbEntity
  8
0
390
0
  0
LINE
  5
50
100
AcDbEntity
  8
0
370
              -2
390
0
  6
ByBlock
 62
               0
100
AcDbLine
 10
-0.5
 20
0.0
 30
0.0
 11
-1.0
 21
0.0
 31
0.0
  0
ENDBLK
  5
51
100
AcDbEntity
  8
0
390
0
100
AcDbBlockEnd
  0
BLOCK
  5
54
100
AcDbEntity
  8
0
370
              -2
390
0
  6
ByBlock
 62
               0
100
AcDbBlockBegin
  2
VW_FILLEDARROW
 70
               0
 10
0.0
 20
0.0
 30
0.0
  3
VW_FILLEDARROW
  1

  0
SOLID
  5
55
100
AcDbEntity
  8
0
370
              -2
390
0
 62
               0
100
AcDbTrace
 10
0.0
 20
0.0
 30
0.0
 11
-0.9921874999999999
 21
-0.2658558393652545
 31
0.0
 12
-0.9921874999999999
 22
0.2658558393652548
 32
0.0
 13
-0.9921874999999999
 23
0.2658558393652548
 33
0.0
  0
ENDBLK
  5
56
100
AcDbEntity
  8
0
390
0
100
AcDbBlockEnd
  0
BLOCK
  5
58
100
AcDbEntity
  8
template
390
0
100
AcDbBlockBegin
  2
グループ
 70
               0
 10
0.0
 20
0.0
 30
0.0
  3
グループ
  1

  0
LWPOLYLINE
  5
59
100
AcDbEntity
  8
0
370
              15
390
0
  6
Continuous
 62
               7
100
AcDbPolyline
 90
        8
 70
             129
 10
778.93373727807477
 20
-1479.4041560236858
 10
778.93373727807477
 20
-1485.4015447172617
 10
769.43254036007147
 20
-1485.4015447172617
 10
769.43254036007147
 20
-1509.8525079807705
 10
761.07716309828868
 20
-1509.8525079807705
 10
761.07716309828868
 20
-1485.4015447172617
 10
751.74420615197926
 20
-1485.4015447172617
 10
751.74420615197926
 20
-1479.4041560236858
  0
LWPOLYLINE
  5
5A
100
AcDbEntity
  8
0
370
              15
390
0
  6
Continuous
 62
               7
100
AcDbPolyline
 90
      101
 70
             128
 10
791.66202910863171
 20
-1480.1324045166223
 10
791.67737913741485
 20
-1480.1280437599378
 42
-0.022222160781717
 10
791.96738371408787
 20
-1480.0594192946926
 10
791.98317747808289
 20
-1480.0564158715954
 42
-0.0146883565587615
 10
792.24588018330564
 20
-1480.0144126846462
 42
-0.0127458844186077
 10
792.51051915046048
 20
-1479.9868757165736
 10
792.57297422877139
 20
-1479.9819822939855
 42
-0.0198099018568978
 10
792.96382333824442
 20
-1479.9668971365891
 10
793.01563480769209
 20
-1479.9669509122541
 42
-0.0147617382764827
 10
793.51025826866351
 20
-1479.9820709374987
 10
793.58294972354429
 20
-1479.9864435443867
 42
-0.0162624549001487
 10
793.97310335300574
 20
-1480.0226764196589
 10
794.09463574426479
 20
-1480.0379629786553
 42
-0.0080020874661583
 10
794.24021477535643
 20
-1480.0586458259238
 10
794.27853424595082
 20
-1480.0647171037347
 42
-0.0053821929666713
 10
794.34701835126634
 20
-1480.0763246275565
 10
793.62061265206773
 20
-1482.2572530832704
 42
0.0108667757404603
 10
793.55329558193353
 20
-1482.2440659680499
 10
793.51582755874733
 20
-1482.237568225456
 42
0.0170663203313304
 10
793.37261077182768
 20
-1482.2177386281637
 10
793.30473543914889
 20
-1482.2106914575768
 42
0.0220162375272407
 10
793.02435603129675
 20
-1482.1940090968067
 10
792.94650046424238
 20
-1482.1928097295402
 42
0.0282606915783489
 10
792.61086414066358
 20
-1482.2066130065091
 10
792.56695086689081
 20
-1482.2109129965129
 42
0.0169677213689007
 10
792.32102637193225
 20
-1482.2434500460649
 42
0.0190576269869061
 10
792.07811840935437
 20
-1482.2935969181708
 10
792.07185922124143
 20
-1482.2951398922805
 42
0.0213685642843377
 10
791.82147473676196
 20
-1482.3683401773858
 10
791.81598484184747
 20
-1482.3702031734442
 42
0.0237595297594257
 10
791.56248995694625
 20
-1482.469887695341
 10
791.5573878829191
 20
-1482.472179470818
 42
0.0261857468809448
 10
791.30521710669075
 20
-1482.6017158081916
 10
791.29479091759993
 20
-1482.6077812826622
 42
0.0272553062026087
 10
791.05836114236376
 20
-1482.7631534886054
 10
791.02359812885402
 20
-1482.7888146366977
 42
0.0325996893176071
 10
790.87344278520277
 20
-1482.9155625096689
 10
790.84973335607663
 20
-1482.9383805381847
 42
0.0138050960646413
 10
790.75785019986949
 20
-1483.0318301997336
 42
0.0125280103805259
 10
790.6710076670355
 20
-1483.1299935263339
 10
790.64732722212761
 20
-1483.1581520245209
 42
0.0205218024731158
 10
790.52222714661605
 20
-1483.3199453387469
 10
790.4997608061268
 20
-1483.3516050685769
 42
0.0163110129585414
 10
790.3440504268749
 20
-1483.5869355036477
 10
790.34132653082452
 20
-1483.5913592656323
 42
0.0131897341896435
 10
790.19452600991997
 20
-1483.844491357994
 10
790.19282591455215
 20
-1483.8476095971323
 42
0.0107895576060199
 10
790.05504921234433
 20
-1484.1138248067614
 10
790.05431632281625
 20
-1484.1153190394141
 42
0.0091371507221078
 10
789.92583637416544
 20
-1484.3898442371769
 10
789.89609074275768
 20
-1484.4565507443326
 42
0.0135418326354155
 10
789.72437680368671
 20
-1484.8714885295992
 10
789.69077199525202
 20
-1484.9593546718818
 42
0.009283454241298
 10
789.51954293533072
 20
-1485.433253170188
 10
789.49392580760855
 20
-1485.5084942399947
 42
0.0054261043584971
 10
789.38628765932026
 20
-1485.8362582130462
 10
789.36876167310379
 20
-1485.8916463753999
 42
0.0008225090828066
 10
789.30009162131273
 20
-1486.1099151334256
 10
788.31540248937927
 20
-1489.1348064266822
 10
791.54802632945314
 20
-1489.1348064266822
 10
791.04383389959969
 20
-1491.0392847250346
 10
787.78777761761637
 20
-1491.0392847250346
 10
781.95862858526255
 20
-1509.8525077910394
 10
780.13353097495224
 20
-1509.8525077910394
 10
785.96820901045317
 20
-1491.0392847250346
 10
783.56309264141282
 20
-1491.0392847250346
 10
784.06728507126627
 20
-1489.1348064266822
 10
786.49583388221629
 20
-1489.1348064266822
 10
787.35598880040493
 20
-1486.4983934259833
 42
-0.0005863560654049
 10
787.39272347853591
 20
-1486.3815670059219
 10
787.46881131226883
 20
-1486.1405747063061
 42
-0.0087522378928231
 10
787.66827945572732
 20
-1485.5452986191549
 10
787.760543731138
 20
-1485.2851584506498
 42
-0.0077400953830419
 10
788.01847739027028
 20
-1484.5921537730983
 10
788.03424236185003
 20
-1484.5517228897099
 42
-0.0082369946329338
 10
788.2813268324611
 20
-1483.9476438235165
 42
-0.0085725238360141
 10
788.54857292846759
 20
-1483.3522177842217
 10
788.65020252947158
 20
-1483.1357966822441
 42
-0.016810941059621
 10
788.93714695820131
 20
-1482.5745891561401
 10
789.0629903485526
 20
-1482.3476251233367
 42
-0.0007817726871341
 10
789.11727469871698
 20
-1482.2500808781115
 10
789.11740300473002
 20
-1482.2498511693827
 42
-0.0036626142151174
 10
789.17229086875557
 20
-1482.1532532894066
 42
-0.0080221150668449
 10
789.22941512416571
 20
-1482.0579740546482
 10
789.26011507552346
 20
-1482.0085831055317
 42
-0.0202139325571093
 10
789.38777081533055
 20
-1481.8206015048495
 10
789.4418382805178
 20
-1481.7475226406093
 42
-0.0249323791798296
 10
789.70100107423309
 20
-1481.431477398459
 10
789.72514088836397
 20
-1481.4048631255423
 42
-0.0242132121535474
 10
790.06482162990585
 20
-1481.0649796393384
 10
790.11273320265309
 20
-1481.0214705031553
 42
-0.0251017527863977
 10
790.39671490329738
 20
-1480.7884777573877
 10
790.39816038011213
 20
-1480.787408499808
 42
-0.0130868069039213
 10
790.69642103006845
 20
-1480.5786280312661
 10
790.69798284920887
 20
-1480.5775945909927
 42
-0.029032952639578
 10
791.00909399060447
 20
-1480.3967690893619
 10
791.03893955259173
 20
-1480.3816667065216
 42
-0.0160250190047368
 10
791.30484396635507
 20
-1480.2576505963088
 42
-0.0267600374782244
 10
791.58012004382351
 20
-1480.1569022757606
 10
791.60685596334474
 20
-1480.1487097169347
 42
-0.0049981587669887
 10
791.66202910863171
 20
-1480.1324045166223
 42
-0.0049981587669887
  0
LWPOLYLINE
  5
5B
100
AcDbEntity
  8
0
370
              15
390
0
  6
Continuous
 62
               7
100
AcDbPolyline
 90
      118
 70
             128
 10
811.47639667307863
 20
-1489.2087897545096
 10
813.35151859757809
 20
-1489.2087897545096
 10
812.5134796919782
 20
-1491.8903562809096
 42
-0.0010587229225579
 10
812.54493550752738
 20
-1491.8534517475807
 10
812.60312959818202
 20
-1491.7854694913785
 42
-0.0071874740412698
 10
812.75350481626788
 20
-1491.6148287993633
 10
812.8952275895424
 20
-1491.4585926580362
 42
-0.0148118053511528
 10
813.34535688225071
 20
-1490.9909788120274
 10
813.43257921715804
 20
-1490.9055814911687
 42
-0.0086273358690787
 10
813.76812801816527
 20
-1490.5882058571533
 10
813.81196173439082
 20
-1490.5481562128205
 42
-0.0103138323109513
 10
814.06998543662473
 20
-1490.3219930754819
 10
814.11575984296246
 20
-1490.2835110282128
 42
-0.0060206748561864
 10
814.28860790706403
 20
-1490.1417163774672
 10
814.29063903796293
 20
-1490.1400906718256
 42
-0.0067069027282966
 10
814.46293185261243
 20
-1490.005940038041
 10
814.46548061854503
 20
-1490.0040098681607
 42
-0.0076184352039868
 10
814.63638588440983
 20
-1489.8786349929219
 42
-0.0089652861673693
 10
814.81134684714414
 20
-1489.7590017325897
 10
814.84769856729338
 20
-1489.7350905191038
 42
-0.0156916245930396
 10
815.04365806444935
 20
-1489.614828032632
 42
-0.0023299011060818
 10
815.24392010842109
 20
-1489.5016500930958
 10
815.25930424080912
 20
-1489.4930500980265
 42
-0.0107669341484659
 10
815.49354106590783
 20
-1489.3686499646783
 10
815.51580586698537
 20
-1489.3574332147271
 42
-0.007805804590062
 10
815.79939598492865
 20
-1489.2200717590929
 10
815.80930307264725
 20
-1489.2154626312201
 42
-0.0181829330469851
 10
816.11961247726458
 20
-1489.0845988901237
 10
816.17366791982954
 20
-1489.064083770181
 42
-0.0208411536027724
 10
816.52275288727981
 20
-1488.9479933076877
 10
816.53710898740371
 20
-1488.9438748627354
 42
-0.0222799817139389
 10
816.86582878132458
 20
-1488.8652332965939
 10
816.87471774456594
 20
-1488.8635212860081
 42
-0.0215509523882133
 10
817.19118871284127
 20
-1488.8166055974748
 10
817.23367067389154
 20
-1488.8121680706838
 42
-0.0182545924873685
 10
817.46777945319559
 20
-1488.7963242452929
 10
817.50718046953853
 20
-1488.7950997002138
 42
-0.0072962856532621
 10
817.66310334923241
 20
-1488.7925303716916
 10
817.69220301979124
 20
-1488.7924755362878
 42
-0.0059227516316074
 10
817.78995251894946
 20
-1488.7934492480781
 10
817.81919473639255
 20
-1488.7940870146808
 42
-0.0011833111910005
 10
817.85844602015379
 20
-1488.7950360189916
 10
817.06305942454662
 20
-1491.3337699640906
 42
0.0143932051548688
 10
817.03665804219236
 20
-1491.3235709940438
 10
817.02938606977875
 20
-1491.3209997751878
 42
0.023438860350972
 10
816.98755520384452
 20
-1491.3083805394722
 10
816.97887354093393
 20
-1491.3061995774676
 42
0.0199162742976278
 10
816.91858470685418
 20
-1491.2935828421325
 10
816.89777076904772
 20
-1491.2900856427041
 42
0.0293643550672495
 10
816.79469591028908
 20
-1491.278935597051
 10
816.77001072956818
 20
-1491.2777239800323
 42
0.0214606686870105
 10
816.61686981361777
 20
-1491.276785419615
 10
816.60749790279783
 20
-1491.2771303311592
 42
0.0167564054187649
 10
816.43597771169016
 20
-1491.2892073735272
 10
816.42751791893033
 20
-1491.2900887139544
 42
0.0137677553242037
 10
816.24016460567168
 20
-1491.3148380224968
 10
816.23281286615793
 20
-1491.3160159424658
 42
0.0118497261485752
 10
816.03231510205717
 20
-1491.3530332926548
 10
816.02616509480936
 20
-1491.354320155375
 42
0.0106421143890396
 10
815.81528420752306
 20
-1491.4031525309501
 10
815.81037539913518
 20
-1491.4043998736349
 42
0.0099746379703419
 10
815.59191692997433
 20
-1491.4645744019492
 10
815.5303688898025
 20
-1491.4828562805803
 42
0.0191613675862554
 10
815.19438442728506
 20
-1491.596833660868
 10
815.10632465453978
 20
-1491.6305205711922
 42
0.020527408014745
 10
814.72101788264081
 20
-1491.7963489790179
 10
814.66336860066178
 20
-1491.8240169435887
 42
0.0181256912190697
 10
814.40509165999174
 20
-1491.959700762568
 10
814.35213627667906
 20
-1491.9900183757823
 42
0.0140709242409323
 10
814.20718134204935
 20
-1492.0785130492172
 10
814.18093247343802
 20
-1492.0955698679279
 42
0.0086667884392928
 10
814.09200631188833
 20
-1492.1555725358155
 42
0.0036408192030337
 10
814.0045730738326
 20
-1492.217753393624
 10
813.96934619938634
 20
-1492.2431943395206
 42
0.0052260781269891
 10
813.81311750201803
 20
-1492.3585267261378
 10
813.79691064573581
 20
-1492.3707548367729
 42
0.0050024435886899
 10
813.61090730270018
 20
-1492.5140374050168
 10
813.59558914616173
 20
-1492.5260834274809
 42
0.0136138710272389
 10
813.38514787783743
 20
-1492.7010499323933
 10
813.35148000204276
 20
-1492.7306289051085
 42
0.0172815186910561
 10
813.08707646038442
 20
-1492.9796255777278
 10
813.0845141145378
 20
-1492.982211394879
 42
0.0189403857997622
 10
812.83393231595653
 20
-1493.2550166596859
 10
812.80130082242295
 20
-1493.2933605911801
 42
0.018504419950677
 10
812.60934438344259
 20
-1493.5366091723035
 42
0.0088565243902525
 10
812.43088427681334
 20
-1493.7901255924548
 10
812.42170629716566
 20
-1493.8036669722135
 42
0.0157195347225872
 10
812.23848569083077
 20
-1494.0931891815305
 10
812.19240274890831
 20
-1494.1713413785369
 42
0.0095451879780542
 10
812.02731719876306
 20
-1494.4639360209067
 10
812.0161692798348
 20
-1494.4846066930361
 42
0.0100351706253342
 10
811.88412553067405
 20
-1494.7416622535293
 42
0.0086935915424806
 10
811.76179437887834
 20
-1495.0034953989377
 10
811.75847363746561
 20
-1495.0109377219055
 42
0.0072580174865091
 10
811.63812718552231
 20
-1495.2915297134846
 10
811.63486555221425
 20
-1495.2994497395066
 42
0.0060005122615154
 10
811.51566488387118
 20
-1495.5990594101129
 10
811.51245390553004
 20
-1495.6074209380163
 42
0.0049017786979762
 10
811.39355374666616
 20
-1495.9263499186386
 10
811.39038794028215
 20
-1495.9351028558513
 42
0.00394151676001
 10
811.27095166222739
 20
-1496.2736449182587
 10
811.26782055957324
 20
-1496.2827481191405
 42
0.0031035838762907
 10
811.14701577387621
 20
-1496.6411879809261
 10
811.14390572934985
 20
-1496.6506086022887
 42
0.0025070747150438
 10
811.02100437804484
 20
-1497.0292558192002
 10
810.98371048160902
 20
-1497.1461474844857
 42
0.0029081910285909
 10
810.7916921837957
 20
-1497.7603111427857
 10
810.75088901528125
 20
-1497.8935343850533
 42
0.0009266453734736
 10
810.48247164096119
 20
-1498.7757588449942
 10
810.46158416839194
 20
-1498.8448707239941
 42
-0.0005809993666785
 10
810.18424748773475
 20
-1499.7586788308517
 10
810.11796568948239
 20
-1499.9761637629442
 42
-0.0012018708169649
 10
809.97098138003253
 20
-1500.4543264275321
 10
809.91866152832802
 20
-1500.6230855688459
 42
-0.0002691059613355
 10
809.87509204729849
 20
-1500.7633531887398
 10
807.04213614900925
 20
-1509.8525077910394
 10
805.22414725703072
 20
-1509.8525077910394
 10
811.47639667307863
 20
-1489.2087897545096
  0
SPLINE
  5
5C
100
AcDbEntity
  8
0
370
              15
390
0
  6
Continuous
 62
               7
100
AcDbSpline
210
0.0
220
0.0
230
1.0
 70
              13
 71
               2
 72
             782
 73
             779
 74
               0
 42
0.000001
 43
0.000001
 40
0.0
 40
0.0
 40
0.0
 40
1.0
 40
1.0
 40
2.0
 40
2.0
 40
3.0
 40
3.0
 40
4.0
 40
4.0
 40
5.0
 40
5.0
 40
6.0
 40
6.0
 40
7.0
 40
7.0
 40
8.0
 40
8.0
 40
9.0
 40
9.0
 40
10.0
 40
10.0
 40
11.0
 40
11.0
 40
12.0
 40
12.0
 40
13.0
 40
13.0
 40
14.0
 40
14.0
 40
15.0
 40
15.0
 40
16.0
 40
16.0
 40
17.0
 40
17.0
 40
18.0
 40
18.0
 40
19.0
 40
19.0
 40
20.0
 40
20.0
 40
21.0
 40
21.0
 40
22.0
 40
22.0
 40
23.0
 40
23.0
 40
24.0
 40
24.0
 40
25.0
 40
25.0
 40
26.0
 40
26.0
 40
27.0
 40
27.0
 40
28.0
 40
28.0
 40
29.0
 40
29.0
 40
30.0
 40
30.0
 40
31.0
 40
31.0
 40
32.0
 40
32.0
 40
33.0
 40
33.0
 40
34.0
 40
34.0
 40
35.0
 40
35.0
 40
36.0
 40
36.0
 40
37.0
 40
37.0
 40
38.0
 40
38.0
 40
39.0
 40
39.0
 40
40.0
 40
40.0
 40
41.0
 40
41.0
 40
42.0
 40
42.0
 40
43.0
 40
43.0
 40
44.0
 40
44.0
 40
45.0
 40
45.0
 40
46.0
 40
46.0
 40
47.0
 40
47.0
 40
48.0
 40
48.0
 40
49.0
 40
49.0
 40
50.0
 40
50.0
 40
51.0
 40
51.0
 40
52.0
 40
52.0
 40
53.0
 40
53.0
 40
54.0
 40
54.0
 40
55.0
 40
55.0
 40
56.0
 40
56.0
 40
57.0
 40
57.0
 40
58.0
 40
58.0
 40
59.0
 40
59.0
 40
60.0
 40
60.0
 40
61.0
 40
61.0
 40
62.0
 40
62.0
 40
63.0
 40
63.0
 40
64.0
 40
64.0
 40
65.0
 40
65.0
 40
66.0
 40
66.0
 40
67.0
 40
67.0
 40
68.0
 40
68.0
 40
69.0
 40
69.0
 40
70.0
 40
70.0
 40
71.0
 40
71.0
 40
72.0
 40
72.0
 40
73.0
 40
73.0
 40
74.0
 40
74.0
 40
75.0
 40
75.0
 40
76.0
 40
76.0
 40
77.0
 40
77.0
 40
78.0
 40
78.0
 40
79.0
 40
79.0
 40
80.0
 40
80.0
 40
81.0
 40
81.0
 40
82.0
 40
82.0
 40
83.0
 40
83.0
 40
84.0
 40
84.0
 40
85.0
 40
85.0
 40
86.0
 40
86.0
 40
87.0
 40
87.0
 40
88.0
 40
88.0
 40
89.0
 40
89.0
 40
90.0
 40
90.0
 40
91.0
 40
91.0
 40
92.0
 40
92.0
 40
93.0
 40
93.0
 40
94.0
 40
94.0
 40
95.0
 40
95.0
 40
96.0
 40
96.0
 40
97.0
 40
97.0
 40
98.0
 40
98.0
 40
99.0
 40
99.0
 40
100.0
 40
100.0
 40
101.0
 40
101.0
 40
102.0
 40
102.0
 40
103.0
 40
103.0
 40
104.0
 40
104.0
 40
105.0
 40
105.0
 40
106.0
 40
106.0
 40
107.0
 40
107.0
 40
108.0
 40
108.0
 40
109.0
 40
109.0
 40
110.0
 40
110.0
 40
111.0
 40
111.0
 40
112.0
 40
112.0
 40
113.0
 40
113.0
 40
114.0
 40
114.0
 40
115.0
 40
115.0
 40
116.0
 40
116.0
 40
117.0
 40
117.0
 40
118.0
 40
118.0
 40
119.0
 40
119.0
 40
120.0
 40
120.0
 40
121.0
 40
121.0
 40
122.0
 40
122.0
 40
123.0
 40
123.0
 40
124.0
 40
124.0
 40
125.0
 40
125.0
 40
126.0
 40
126.0
 40
127.0
 40
127.0
 40
128.0
 40
128.0
 40
129.0
 40
129.0
 40
130.0
 40
130.0
 40
131.0
 40
131.0
 40
132.0
 40
132.0
 40
133.0
 40
133.0
 40
134.0
 40
134.0
 40
135.0
 40
135.0
 40
136.0
 40
136.0
 40
137.0
 40
137.0
 40
138.0
 40
138.0
 40
139.0
 40
139.0
 40
140.0
 40
140.0
 40
141.0
 40
141.0
 40
142.0
 40
142.0
 40
143.0
 40
143.0
 40
144.0
 40
144.0
 40
145.0
 40
145.0
 40
146.0
 40
146.0
 40
147.0
 40
147.0
 40
148.0
 40
148.0
 40
149.0
 40
149.0
 40
150.0
 40
150.0
 40
151.0
 40
151.0
 40
152.0
 40
152.0
 40
153.0
 40
153.0
 40
154.0
 40
154.0
 40
155.0
 40
155.0
 40
156.0
 40
156.0
 40
157.0
 40
157.0
 40
158.0
 40
158.0
 40
159.0
 40
159.0
 40
160.0
 40
160.0
 40
161.0
 40
161.0
 40
162.0
 40
162.0
 40
163.0
 40
163.0
 40
164.0
 40
164.0
 40
165.0
 40
165.0
 40
166.0
 40
166.0
 40
167.0
 40
167.0
 40
168.0
 40
168.0
 40
169.0
 40
169.0
 40
170.0
 40
170.0
 40
171.0
 40
171.0
 40
172.0
 40
172.0
 40
173.0
 40
173.0
 40
174.0
 40
174.0
 40
175.0
 40
175.0
 40
176.0
 40
176.0
 40
177.0
 40
177.0
 40
178.0
 40
178.0
 40
179.0
 40
179.0
 40
180.0
 40
180.0
 40
181.0
 40
181.0
 40
182.0
 40
182.0
 40
183.0
 40
183.0
 40
184.0
 40
184.0
 40
185.0
 40
185.0
 40
186.0
 40
186.0
 40
187.0
 40
187.0
 40
188.0
 40
188.0
 40
189.0
 40
189.0
 40
190.0
 40
190.0
 40
191.0
 40
191.0
 40
192.0
 40
192.0
 40
193.0
 40
193.0
 40
194.0
 40
194.0
 40
195.0
 40
195.0
 40
196.0
 40
196.0
 40
197.0
 40
197.0
 40
198.0
 40
198.0
 40
199.0
 40
199.0
 40
200.0
 40
200.0
 40
201.0
 40
201.0
 40
202.0
 40
202.0
 40
203.0
 40
203.0
 40
204.0
 40
204.0
 40
205.0
 40
205.0
 40
206.0
 40
206.0
 40
207.0
 40
207.0
 40
208.0
 40
208.0
 40
209.0
 40
209.0
 40
210.0
 40
210.0
 40
211.0
 40
211.0
 40
212.0
 40
212.0
 40
213.0
 40
213.0
 40
214.0
 40
214.0
 40
215.0
 40
215.0
 40
216.0
 40
216.0
 40
217.0
 40
217.0
 40
218.0
 40
218.0
 40
219.0
 40
219.0
 40
220.0
 40
220.0
 40
221.0
 40
221.0
 40
222.0
 40
222.0
 40
223.0
 40
223.0
 40
224.0
 40
224.0
 40
225.0
 40
225.0
 40
226.0
 40
226.0
 40
227.0
 40
227.0
 40
228.0
 40
228.0
 40
229.0
 40
229.0
 40
230.0
 40
230.0
 40
231.0
 40
231.0
 40
232.0
 40
232.0
 40
233.0
 40
233.0
 40
234.0
 40
234.0
 40
235.0
 40
235.0
 40
236.0
 40
236.0
 40
237.0
 40
237.0
 40
238.0
 40
238.0
 40
239.0
 40
239.0
 40
240.0
 40
240.0
 40
241.0
 40
241.0
 40
242.0
 40
242.0
 40
243.0
 40
243.0
 40
244.0
 40
244.0
 40
245.0
 40
245.0
 40
246.0
 40
246.0
 40
247.0
 40
247.0
 40
248.0
 40
248.0
 40
249.0
 40
249.0
 40
250.0
 40
250.0
 40
251.0
 40
251.0
 40
252.0
 40
252.0
 40
253.0
 40
253.0
 40
254.0
 40
254.0
 40
255.0
 40
255.0
 40
256.0
 40
256.0
 40
257.0
 40
257.0
 40
258.0
 40
258.0
 40
259.0
 40
259.0
 40
260.0
 40
260.0
 40
261.0
 40
261.0
 40
262.0
 40
262.0
 40
263.0
 40
263.0
 40
264.0
 40
264.0
 40
265.0
 40
265.0
 40
266.0
 40
266.0
 40
267.0
 40
267.0
 40
268.0
 40
268.0
 40
269.0
 40
269.0
 40
270.0
 40
270.0
 40
271.0
 40
271.0
 40
272.0
 40
272.0
 40
273.0
 40
273.0
 40
274.0
 40
274.0
 40
275.0
 40
275.0
 40
276.0
 40
276.0
 40
277.0
 40
277.0
 40
278.0
 40
278.0
 40
279.0
 40
279.0
 40
280.0
 40
280.0
 40
281.0
 40
281.0
 40
282.0
 40
282.0
 40
283.0
 40
283.0
 40
284.0
 40
284.0
 40
285.0
 40
285.0
 40
286.0
 40
286.0
 40
287.0
 40
287.0
 40
288.0
 40
288.0
 40
289.0
 40
289.0
 40
290.0
 40
290.0
 40
291.0
 40
291.0
 40
292.0
 40
292.0
 40
293.0
 40
293.0
 40
294.0
 40
294.0
 40
295.0
 40
295.0
 40
296.0
 40
296.0
 40
297.0
 40
297.0
 40
298.0
 40
298.0
 40
299.0
 40
299.0
 40
300.0
 40
300.0
 40
301.0
 40
301.0
 40
302.0
 40
302.0
 40
303.0
 40
303.0
 40
304.0
 40
304.0
 40
305.0
 40
305.0
 40
306.0
 40
306.0
 40
307.0
 40
307.0
 40
308.0
 40
308.0
 40
309.0
 40
309.0
 40
310.0
 40
310.0
 40
311.0
 40
311.0
 40
312.0
 40
312.0
 40
313.0
 40
313.0
 40
314.0
 40
314.0
 40
315.0
 40
315.0
 40
316.0
 40
316.0
 40
317.0
 40
317.0
 40
318.0
 40
318.0
 40
319.0
 40
319.0
 40
320.0
 40
320.0
 40
321.0
 40
321.0
 40
322.0
 40
322.0
 40
323.0
 40
323.0
 40
324.0
 40
324.0
 40
325.0
 40
325.0
 40
326.0
 40
326.0
 40
327.0
 40
327.0
 40
328.0
 40
328.0
 40
329.0
 40
329.0
 40
330.0
 40
330.0
 40
331.0
 40
331.0
 40
332.0
 40
332.0
 40
333.0
 40
333.0
 40
334.0
 40
334.0
 40
335.0
 40
335.0
 40
336.0
 40
336.0
 40
337.0
 40
337.0
 40
338.0
 40
338.0
 40
339.0
 40
339.0
 40
340.0
 40
340.0
 40
341.0
 40
341.0
 40
342.0
 40
342.0
 40
343.0
 40
343.0
 40
344.0
 40
344.0
 40
345.0
 40
345.0
 40
346.0
 40
346.0
 40
347.0
 40
347.0
 40
348.0
 40
348.0
 40
349.0
 40
349.0
 40
350.0
 40
350.0
 40
351.0
 40
351.0
 40
352.0
 40
352.0
 40
353.0
 40
353.0
 40
354.0
 40
354.0
 40
355.0
 40
355.0
 40
356.0
 40
356.0
 40
357.0
 40
357.0
 40
358.0
 40
358.0
 40
359.0
 40
359.0
 40
360.0
 40
360.0
 40
361.0
 40
361.0
 40
362.0
 40
362.0
 40
363.0
 40
363.0
 40
364.0
 40
364.0
 40
365.0
 40
365.0
 40
366.0
 40
366.0
 40
367.0
 40
367.0
 40
368.0
 40
368.0
 40
369.0
 40
369.0
 40
370.0
 40
370.0
 40
371.0
 40
371.0
 40
372.0
 40
372.0
 40
373.0
 40
373.0
 40
374.0
 40
374.0
 40
375.0
 40
375.0
 40
376.0
 40
376.0
 40
377.0
 40
377.0
 40
378.0
 40
378.0
 40
379.0
 40
379.0
 40
380.0
 40
380.0
 40
381.0
 40
381.0
 40
382.0
 40
382.0
 40
383.0
 40
383.0
 40
384.0
 40
384.0
 40
385.0
 40
385.0
 40
386.0
 40
386.0
 40
387.0
 40
387.0
 40
388.0
 40
388.0
 40
389.0
 40
389.0
 40
389.0
 10
821.80510112381126
 20
-1489.1978633911472
 30
0.0
 41
1.0
 10
822.62352523253173
 20
-1489.1978633911472
 30
0.0
 41
1.0
 10
823.44194934125221
 20
-1489.1978633911472
 30
0.0
 41
1.0
 10
823.02819560573539
 20
-1490.5404896553969
 30
0.0
 41
1.0
 10
822.61444187021868
 20
-1491.8831159196466
 30
0.0
 41
1.0
 10
822.63278136539691
 20
-1491.854415146719
 30
0.0
 41
0.999995726433606
 10
822.65128836223914
 20
-1491.8258220965506
 30
0.0
 41
1.0
 10
822.68171768636557
 20
-1491.7788092181918
 30
0.0
 41
1.0
 10
822.71214701049189
 20
-1491.7317963398327
 30
0.0
 41
1.0
 10
822.79151265559699
 20
-1491.6091775329307
 30
0.0
 41
0.9995394069081066
 10
822.87817104714634
 20
-1491.4915994711926
 30
0.0
 41
1.0
 10
822.91392790940665
 20
-1491.4430845785982
 30
0.0
 41
1.0
 10
822.94968477166697
 20
-1491.3945696860042
 30
0.0
 41
1.0
 10
823.0834114394861
 20
-1491.2131294108758
 30
0.0
 41
0.9994460617143008
 10
823.22891192077566
 20
-1491.0409870132244
 30
0.0
 41
1.0
 10
823.23330010174914
 20
-1491.0357953328437
 30
0.0
 41
1.0
 10
823.2376882827225
 20
-1491.030603652463
 30
0.0
 41
1.0
 10
823.37441240206181
 20
-1490.8688446155766
 30
0.0
 41
0.9994359394934328
 10
823.52168663241491
 20
-1490.71662841441
 30
0.0
 41
1.0
 10
823.52406998636798
 20
-1490.7141650840372
 30
0.0
 41
1.0
 10
823.52645334032104
 20
-1490.7117017536643
 30
0.0
 41
1.0
 10
823.66896086276643
 20
-1490.5644122132453
 30
0.0
 41
0.9995293688567573
 10
823.8202325437486
 20
-1490.4261390010811
 30
0.0
 41
1.0
 10
823.83952630301496
 20
-1490.4085031154273
 30
0.0
 41
1.0
 10
823.85882006228121
 20
-1490.3908672297734
 30
0.0
 41
1.0
 10
823.97150422473464
 20
-1490.2878657889139
 30
0.0
 41
0.9997087614802861
 10
824.08902711368569
 20
-1490.1904215081192
 30
0.0
 41
1.0
 10
824.10819318686299
 20
-1490.1745299296099
 30
0.0
 41
1.0
 10
824.12735926004041
 20
-1490.1586383511003
 30
0.0
 41
1.0
 10
824.20655000264583
 20
-1490.0929772273173
 30
0.0
 41
0.9999595338700904
 10
824.28690927349589
 20
-1490.0287514966662
 30
0.0
 41
1.0
 10
824.36726854434505
 20
-1489.9645257660161
 30
0.0
 41
0.9999749417504523
 10
824.44852907868403
 20
-1489.9014442120731
 30
0.0
 41
1.0
 10
824.46951522485892
 20
-1489.8851529247618
 30
0.0
 41
1.0
 10
824.49050137103382
 20
-1489.8688616374507
 30
0.0
 41
1.0
 10
824.57506925632924
 20
-1489.8032126276148
 30
0.0
 41
0.9999792037126738
 10
824.66047685609692
 20
-1489.7386598459725
 30
0.0
 41
1.0
 10
824.68130168195978
 20
-1489.7229200237516
 30
0.0
 41
1.0
 10
824.70212650782264
 20
-1489.7071802015305
 30
0.0
 41
1.0
 10
824.74588445583777
 20
-1489.6741070643504
 30
0.0
 41
0.9999993374083941
 10
824.78956614200968
 20
-1489.6409332689047
 30
0.0
 41
1.0
 10
824.83324782814839
 20
-1489.6077594734838
 30
0.0
 41
0.9999160953817479
 10
824.87777423906823
 20
-1489.5757284082858
 30
0.0
 41
1.0
 10
824.91059612648985
 20
-1489.5521172526992
 30
0.0
 41
1.0
 10
824.94341801391147
 20
-1489.5285060971128
 30
0.0
 41
1.0
 10
825.05358819967
 20
-1489.4492527207447
 30
0.0
 41
0.9980964527231545
 10
825.17267719317158
 20
-1489.3841652478882
 30
0.0
 41
1.0
 10
825.20970980010065
 20
-1489.3639252682947
 30
0.0
 41
1.0
 10
825.24674240702984
 20
-1489.343685288701
 30
0.0
 41
1.0
 10
825.42606942030125
 20
-1489.2456750380009
 30
0.0
 41
0.9984572810572775
 10
825.61515798665869
 20
-1489.168152776655
 30
0.0
 41
1.0
 10
825.61880425605511
 20
-1489.1666578843169
 30
0.0
 41
1.0
 10
825.62245052545154
 20
-1489.1651629919786
 30
0.0
 41
1.0
 10
825.80424655301817
 20
-1489.0906305153082
 30
0.0
 41
0.9987838528033914
 10
825.99249921157684
 20
-1489.0343648751427
 30
0.0
 41
1.0
 10
825.99673716077609
 20
-1489.0330982214523
 30
0.0
 41
1.0
 10
826.00097510997546
 20
-1489.0318315677619
 30
0.0
 41
1.0
 10
826.18075187013642
 20
-1488.978099234977
 30
0.0
 41
0.9990652816207445
 10
826.36449780185194
 20
-1488.9400955554349
 30
0.0
 41
1.0
 10
826.36968620288451
 20
-1488.9390224523281
 30
0.0
 41
1.0
 10
826.37487460391708
 20
-1488.9379493492215
 30
0.0
 41
1.0
 10
826.54824373356905
 20
-1488.9020918758927
 30
0.0
 41
0.9992909934270071
 10
826.72381950002614
 20
-1488.8793814434264
 30
0.0
 41
1.0
 10
826.89939526648743
 20
-1488.8566710109596
 30
0.0
 41
0.9994553539448703
 10
827.07608669958347
 20
-1488.8455917067533
 30
0.0
 41
1.0
 10
827.11152110737498
 20
-1488.8433698187057
 30
0.0
 41
1.0
 10
827.1469555151665
 20
-1488.8411479306581
 30
0.0
 41
1.0
 10
827.31318128173723
 20
-1488.8307248682463
 30
0.0
 41
0.9990928098293166
 10
827.47969107364088
 20
-1488.8344845094807
 30
0.0
 41
1.0
 10
827.51825290891043
 20
-1488.8353552010135
 30
0.0
 41
1.0
 10
827.55681474417986
 20
-1488.8362258925465
 30
0.0
 41
1.0
 10
827.64620086554123
 20
-1488.8382441507151
 30
0.0
 41
0.9998382089206161
 10
827.73545654832981
 20
-1488.8434762772436
 30
0.0
 41
1.0
 10
827.73588645454834
 20
-1488.8435014781458
 30
0.0
 41
1.0
 10
827.73631636076686
 20
-1488.843526679048
 30
0.0
 41
1.0
 10
827.82471223111475
 20
-1488.8487084037713
 30
0.0
 41
0.9997558016758399
 10
827.91279280831679
 20
-1488.8577909191381
 30
0.0
 41
1.0
 10
827.91326894674398
 20
-1488.8578400166205
 30
0.0
 41
1.0
 10
827.91374508517129
 20
-1488.8578891141028
 30
0.0
 41
1.0
 10
828.00087338551509
 20
-1488.866873434504
 30
0.0
 41
0.999656514418099
 10
828.08741123885966
 20
-1488.8804107411934
 30
0.0
 41
1.0
 10
828.08787716423683
 20
-1488.8804836269246
 30
0.0
 41
1.0
 10
828.088343089614
 20
-1488.8805565126559
 30
0.0
 41
1.0
 10
828.17394909220127
 20
-1488.8939480478823
 30
0.0
 41
0.9995321806867653
 10
828.25857617252973
 20
-1488.9125485363118
 30
0.0
 41
1.0
 10
828.25896536710331
 20
-1488.912634078778
 30
0.0
 41
1.0
 10
828.2593545616769
 20
-1488.9127196212444
 30
0.0
 41
1.0
 10
828.34320325285967
 20
-1488.9311490247417
 30
0.0
 41
0.9993819199219195
 10
828.42554978705391
 20
-1488.9554244080018
 30
0.0
 41
1.0
 10
828.4257882205543
 20
-1488.9554946971118
 30
0.0
 41
1.0
 10
828.42602665405468
 20
-1488.9555649862218
 30
0.0
 41
1.0
 10
828.50789632125202
 20
-1488.9796997912631
 30
0.0
 41
0.9992088568505315
 10
828.58758884023837
 20
-1489.0102650270569
 30
0.0
 41
1.0
 10
828.66726983111732
 20
-1489.04082462779
 30
0.0
 41
0.999022610177338
 10
828.74394050102455
 20
-1489.0783020594045
 30
0.0
 41
1.0
 10
828.82059964282234
 20
-1489.1157738559577
 30
0.0
 41
0.9988424273972724
 10
828.89330327003381
 20
-1489.1604386312104
 30
0.0
 41
1.0
 10
828.89357097841366
 20
-1489.160603095283
 30
0.0
 41
1.0
 10
828.89383868679363
 20
-1489.1607675593555
 30
0.0
 41
1.0
 10
828.96707773076469
 20
-1489.2057612627527
 30
0.0
 41
0.9986928844490487
 10
829.03534059747437
 20
-1489.2579969970325
 30
0.0
 41
1.0
 10
829.03592188969719
 20
-1489.2584418102604
 30
0.0
 41
1.0
 10
829.0365031819199
 20
-1489.2588866234883
 30
0.0
 41
1.0
 10
829.10592863307534
 20
-1489.3120119842238
 30
0.0
 41
0.9986007262278004
 10
829.16935480284201
 20
-1489.3721727539173
 30
0.0
 41
1.0
 10
829.1702492182992
 20
-1489.3730211217523
 30
0.0
 41
1.0
 10
829.17114363375629
 20
-1489.3738694895874
 30
0.0
 41
1.0
 10
829.23635863443758
 20
-1489.4357269949512
 30
0.0
 41
0.9985581491381262
 10
829.29456624613886
 20
-1489.5042194852222
 30
0.0
 41
1.0
 10
829.30382469973483
 20
-1489.5151138429242
 30
0.0
 41
1.0
 10
829.31308315333081
 20
-1489.5260082006262
 30
0.0
 41
1.0
 10
829.3898076722237
 20
-1489.6162894063007
 30
0.0
 41
0.9970460233519914
 10
829.45179957338348
 20
-1489.7172564904829
 30
0.0
 41
1.0
 10
829.46626893846337
 20
-1489.7408229495645
 30
0.0
 41
1.0
 10
829.48073830354326
 20
-1489.7643894086464
 30
0.0
 41
1.0
 10
829.52047500355502
 20
-1489.8291091326776
 30
0.0
 41
0.9988468816636926
 10
829.55382137430627
 20
-1489.8973415851046
 30
0.0
 41
1.0
 10
829.56085739679713
 20
-1489.9117385062409
 30
0.0
 41
1.0
 10
829.567893419288
 20
-1489.9261354273769
 30
0.0
 41
1.0
 10
829.5871677450582
 20
-1489.9655740375331
 30
0.0
 41
0.9998431189997221
 10
829.60503307255271
 20
-1490.0056705919731
 30
0.0
 41
1.0
 10
829.62289840003996
 20
-1490.0457671463964
 30
0.0
 41
0.9999989989774525
 10
829.64087712345895
 20
-1490.0858129839735
 30
0.0
 41
1.0
 10
829.64704943505853
 20
-1490.0995612007982
 30
0.0
 41
1.0
 10
829.65322174665823
 20
-1490.113309417623
 30
0.0
 41
1.0
 10
829.68354509326957
 20
-1490.1808516888341
 30
0.0
 41
0.9998790356321194
 10
829.71175297340596
 20
-1490.2493044407674
 30
0.0
 41
1.0
 10
829.71858815469
 20
-1490.2658915421941
 30
0.0
 41
1.0
 10
829.72542333597403
 20
-1490.2824786436208
 30
0.0
 41
1.0
 10
829.74898099835605
 20
-1490.3396465985104
 30
0.0
 41
0.9998227574561316
 10
829.7703697467449
 20
-1490.3976609067868
 30
0.0
 41
1.0
 10
829.79175849513513
 20
-1490.455675215067
 30
0.0
 41
0.9996797971041905
 10
829.810184780094
 20
-1490.5146973341841
 30
0.0
 41
1.0
 10
829.81408858281929
 20
-1490.5272017923521
 30
0.0
 41
1.0
 10
829.81799238554458
 20
-1490.5397062505203
 30
0.0
 41
1.0
 10
829.84422627595495
 20
-1490.6237372859773
 30
0.0
 41
0.997927493873521
 10
829.85945079943406
 20
-1490.7104416446368
 30
0.0
 41
1.0
 10
829.86167448669516
 20
-1490.723105645458
 30
0.0
 41
1.0
 10
829.86389817395639
 20
-1490.7357696462789
 30
0.0
 41
1.0
 10
829.87482811365453
 20
-1490.7980161535693
 30
0.0
 41
0.9994985982137751
 10
829.88179627883164
 20
-1490.8608296547113
 30
0.0
 41
1.0
 10
829.88876444400853
 20
-1490.9236431558529
 30
0.0
 41
0.9996372611201373
 10
829.89234030977627
 20
-1490.9867407345355
 30
0.0
 41
1.0
 10
829.89250888726565
 20
-1490.9897153516176
 30
0.0
 41
1.0
 10
829.89267746475491
 20
-1490.9926899686998
 30
0.0
 41
1.0
 10
829.89659048550129
 20
-1491.0617367815441
 30
0.0
 41
0.9997730630736536
 10
829.89755879898939
 20
-1491.1308876055812
 30
0.0
 41
1.0
 10
829.89761590540752
 20
-1491.1349657847225
 30
0.0
 41
1.0
 10
829.89767301182565
 20
-1491.1390439638637
 30
0.0
 41
1.0
 10
829.89875553814977
 20
-1491.216351146184
 30
0.0
 41
0.9998772614071784
 10
829.89741545141806
 20
-1491.2936542927507
 30
0.0
 41
1.0
 10
829.89732618821938
 20
-1491.2988034565833
 30
0.0
 41
1.0
 10
829.89723692502071
 20
-1491.3039526204159
 30
0.0
 41
1.0
 10
829.89571831189176
 20
-1491.3915540946384
 30
0.0
 41
0.9999415567328293
 10
829.89230600164603
 20
-1491.479102256312
 30
0.0
 41
1.0
 10
829.89206468097041
 20
-1491.4852937160558
 30
0.0
 41
1.0
 10
829.89182336029489
 20
-1491.4914851757999
 30
0.0
 41
1.0
 10
829.88792840869905
 20
-1491.591416256935
 30
0.0
 41
0.9999716810425385
 10
829.88252982558049
 20
-1491.6912773951624
 30
0.0
 41
1.0
 10
829.879317026791
 20
-1491.7507066448334
 30
0.0
 41
1.0
 10
829.87610422800151
 20
-1491.8101358945044
 30
0.0
 41
1.0
 10
829.86803031884835
 20
-1491.959484295789
 30
0.0
 41
0.9999819129907497
 10
829.85816052723294
 20
-1492.1087247734854
 30
0.0
 41
1.0
 10
829.84829073561627
 20
-1492.2579652511968
 30
0.0
 41
1.0
 10
829.84585141505238
 20
-1492.2951582970461
 30
0.0
 41
1.0
 10
829.86854964887925
 20
-1492.256417299724
 30
0.0
 41
0.9999982128162919
 10
829.89139420763956
 20
-1492.217762405757
 30
0.0
 41
1.0
 10
829.91830376752409
 20
-1492.1722291917026
 30
0.0
 41
1.0
 10
829.94521332740851
 20
-1492.1266959776481
 30
0.0
 41
1.0
 10
830.0218770059314
 20
-1491.996974655583
 30
0.0
 41
0.9998609190058604
 10
830.10282431879136
 20
-1491.8698822736565
 30
0.0
 41
1.0
 10
830.13247264027814
 20
-1491.8233325406914
 30
0.0
 41
1.0
 10
830.1621209617648
 20
-1491.7767828077265
 30
0.0
 41
1.0
 10
830.24439318200166
 20
-1491.6476102377321
 30
0.0
 41
0.9999067609732693
 10
830.33016219146066
 20
-1491.5207325482984
 30
0.0
 41
1.0
 10
830.33256689465998
 20
-1491.5171752822457
 30
0.0
 41
1.0
 10
830.33497159785941
 20
-1491.5136180161933
 30
0.0
 41
1.0
 10
830.41593120092421
 20
-1491.3938548588576
 30
0.0
 41
0.9998784952150376
 10
830.50058481060614
 20
-1491.2766736421481
 30
0.0
 41
1.0
 10
830.58523842028603
 20
-1491.1594924254412
 30
0.0
 41
0.999853296828172
 10
830.67385604111053
 20
-1491.0452795169688
 30
0.0
 41
1.0
 10
830.69381783010112
 20
-1491.019552195949
 30
0.0
 41
1.0
 10
830.71377961909184
 20
-1490.9938248749295
 30
0.0
 41
1.0
 10
830.83226366885083
 20
-1490.8411192639605
 30
0.0
 41
0.9991551975795304
 10
830.96288811847467
 20
-1490.6986597018767
 30
0.0
 41
1.0
 10
830.966397734456
 20
-1490.6948321002506
 30
0.0
 41
1.0
 10
830.96990735043732
 20
-1490.6910044986246
 30
0.0
 41
1.0
 10
831.09351256809964
 20
-1490.5562001397918
 30
0.0
 41
0.9997418144181395
 10
831.22311470779891
 20
-1490.4271507291808
 30
0.0
 41
1.0
 10
831.35271684750251
 20
-1490.2981013185658
 30
0.0
 41
0.998923820463396
 10
831.49371939575644
 20
-1490.1816163565245
 30
0.0
 41
1.0
 10
831.53896707389572
 20
-1490.144236364916
 30
0.0
 41
1.0
 10
831.58421475203511
 20
-1490.1068563733074
 30
0.0
 41
1.0
 10
831.72445480925376
 20
-1489.991001320019
 30
0.0
 41
0.9990825084096703
 10
831.87409474185495
 20
-1489.8875723221881
 30
0.0
 41
1.0
 10
831.88414010591396
 20
-1489.8806291091073
 30
0.0
 41
1.0
 10
831.89418546997297
 20
-1489.8736858960262
 30
0.0
 41
1.0
 10
832.02373467446239
 20
-1489.7841433243527
 30
0.0
 41
0.999816489982744
 10
832.15661887783517
 20
-1489.6996290828388
 30
0.0
 41
1.0
 10
832.16846443836153
 20
-1489.6920953163128
 30
0.0
 41
1.0
 10
832.18030999888799
 20
-1489.6845615497868
 30
0.0
 41
1.0
 10
832.28950308121318
 20
-1489.6151148413212
 30
0.0
 41
0.999747344913073
 10
832.40170703846093
 20
-1489.5506458835066
 30
0.0
 41
1.0
 10
832.51391099571038
 20
-1489.4861769256909
 30
0.0
 41
0.9999327861147161
 10
832.62757960647536
 20
-1489.4243269340086
 30
0.0
 41
1.0
 10
832.62813160903534
 20
-1489.4240265753299
 30
0.0
 41
1.0
 10
832.62868361159519
 20
-1489.4237262166512
 30
0.0
 41
1.0
 10
832.74345622748001
 20
-1489.3612755076115
 30
0.0
 41
0.9996956420484414
 10
832.86116955332011
 20
-1489.3045620406369
 30
0.0
 41
1.0
 10
832.89160995821464
 20
-1489.2898960639059
 30
0.0
 41
1.0
 10
832.92205036310918
 20
-1489.275230087175
 30
0.0
 41
1.0
 10
833.0250274698501
 20
-1489.225616428733
 30
0.0
 41
0.9998070570176585
 10
833.12987385879046
 20
-1489.1800858418324
 30
0.0
 41
1.0
 10
833.23472024772775
 20
-1489.1345552549326
 30
0.0
 41
0.9997827436147576
 10
833.34137318433557
 20
-1489.0934340836216
 30
0.0
 41
1.0
 10
833.36059603396984
 20
-1489.0860225099882
 30
0.0
 41
1.0
 10
833.379818883604
 20
-1489.0786109363546
 30
0.0
 41
1.0
 10
833.52491751947696
 20
-1489.022666617778
 30
0.0
 41
0.9988031841977245
 10
833.67478788208177
 20
-1488.9811665536099
 30
0.0
 41
1.0
 10
833.6997051304462
 20
-1488.9742668078029
 30
0.0
 41
1.0
 10
833.72462237881064
 20
-1488.9673670619957
 30
0.0
 41
1.0
 10
833.89189240445637
 20
-1488.9210489195893
 30
0.0
 41
0.9984748040550169
 10
834.06324931310405
 20
-1488.8934546873247
 30
0.0
 41
1.0
 10
834.06798844935292
 20
-1488.8926915268112
 30
0.0
 41
1.0
 10
834.07272758560168
 20
-1488.8919283662979
 30
0.0
 41
1.0
 10
834.23460622175321
 20
-1488.8658604550599
 30
0.0
 41
0.9984436495480005
 10
834.39838096547783
 20
-1488.8579825012412
 30
0.0
 41
1.0
 10
834.42007817360945
 20
-1488.8569388140415
 30
0.0
 41
1.0
 10
834.44177538174119
 20
-1488.8558951268419
 30
0.0
 41
1.0
 10
834.5621557092029
 20
-1488.8501045474225
 30
0.0
 41
0.9987954789335267
 10
834.6825239541123
 20
-1488.8561410751647
 30
0.0
 41
1.0
 10
834.70248874660888
 20
-1488.8571423195035
 30
0.0
 41
1.0
 10
834.72245353910535
 20
-1488.8581435638421
 30
0.0
 41
1.0
 10
834.80289219902409
 20
-1488.8621776029072
 30
0.0
 41
0.9997941595877915
 10
834.88310097711656
 20
-1488.8694716688281
 30
0.0
 41
1.0
 10
834.96330975520993
 20
-1488.8767657347489
 30
0.0
 41
0.9998589466237439
 10
835.04322830206365
 20
-1488.8867495891989
 30
0.0
 41
1.0
 10
835.07563450387306
 20
-1488.8907979461183
 30
0.0
 41
1.0
 10
835.10804070568247
 20
-1488.8948463030376
 30
0.0
 41
1.0
 10
835.25277165615228
 20
-1488.9129268713259
 30
0.0
 41
0.9993495063249313
 10
835.39582289991631
 20
-1488.9413925810672
 30
0.0
 41
1.0
 10
835.42875659706829
 20
-1488.9479460442822
 30
0.0
 41
1.0
 10
835.46169029422015
 20
-1488.9544995074968
 30
0.0
 41
1.0
 10
835.57098411742618
 20
-1488.9762478416324
 30
0.0
 41
0.9996788715561228
 10
835.67903568938459
 20
-1489.0035056409959
 30
0.0
 41
1.0
 10
835.68109869192426
 20
-1489.0040260675689
 30
0.0
 41
1.0
 10
835.68316169446393
 20
-1489.004546494142
 30
0.0
 41
1.0
 10
835.7870872613413
 20
-1489.0307634403591
 30
0.0
 41
0.9995480654492157
 10
835.88924949657041
 20
-1489.0631783969834
 30
0.0
 41
1.0
 10
835.89093913869885
 20
-1489.0637145018973
 30
0.0
 41
1.0
 10
835.89262878082729
 20
-1489.0642506068109
 30
0.0
 41
1.0
 10
835.99141173179976
 20
-1489.0955933536077
 30
0.0
 41
0.9993867959456066
 10
836.08775889024241
 20
-1489.1337727228974
 30
0.0
 41
1.0
 10
836.08900183932678
 20
-1489.1342652647936
 30
0.0
 41
1.0
 10
836.09024478841104
 20
-1489.1347578066895
 30
0.0
 41
1.0
 10
836.18410604868404
 20
-1489.1719520921868
 30
0.0
 41
0.9992050256521864
 10
836.27470572371828
 20
-1489.2165059914259
 30
0.0
 41
1.0
 10
836.27544040643147
 20
-1489.216867283887
 30
0.0
 41
1.0
 10
836.27617508914454
 20
-1489.2172285763484
 30
0.0
 41
1.0
 10
836.36530539875196
 20
-1489.2610598906649
 30
0.0
 41
0.9990222350741482
 10
836.45021546014527
 20
-1489.3125931583631
 30
0.0
 41
1.0
 10
836.45039934542717
 20
-1489.3127047612675
 30
0.0
 41
1.0
 10
836.45058323070907
 20
-1489.3128163641718
 30
0.0
 41
1.0
 10
836.53512552153848
 20
-1489.3641264260609
 30
0.0
 41
0.9988642743805281
 10
836.61440005615805
 20
-1489.4232506135866
 30
0.0
 41
1.0
 10
836.69367459077762
 20
-1489.4823748011124
 30
0.0
 41
0.9987681233311676
 10
836.76669837505335
 20
-1489.5490654925127
 30
0.0
 41
1.0
 10
836.76702730301895
 20
-1489.5493658937266
 30
0.0
 41
1.0
 10
836.76735623098466
 20
-1489.5496662949408
 30
0.0
 41
1.0
 10
836.84103787119159
 20
-1489.6169577887692
 30
0.0
 41
0.998749657089868
 10
836.90763167651937
 20
-1489.6912706028563
 30
0.0
 41
1.0
 10
836.90840384627995
 20
-1489.6921322762146
 30
0.0
 41
1.0
 10
836.90917601604065
 20
-1489.6929939495726
 30
0.0
 41
1.0
 10
836.97731416088789
 20
-1489.7690301103742
 30
0.0
 41
0.9988147669827523
 10
837.03773641511327
 20
-1489.8513311172169
 30
0.0
 41
1.0
 10
837.03885574119113
 20
-1489.8528557485697
 30
0.0
 41
1.0
 10
837.0399750672691
 20
-1489.8543803799225
 30
0.0
 41
1.0
 10
837.10263597364974
 20
-1489.9397306494702
 30
0.0
 41
0.9989452636216277
 10
837.15720288661123
 20
-1490.0304693386283
 30
0.0
 41
1.0
 10
837.15855161269678
 20
-1490.0327121196542
 30
0.0
 41
1.0
 10
837.15990033878222
 20
-1490.0349549006801
 30
0.0
 41
1.0
 10
837.21716470391516
 20
-1490.1301791518908
 30
0.0
 41
0.9991046436070837
 10
837.26617391723585
 20
-1490.2299035849144
 30
0.0
 41
1.0
 10
837.26763777882616
 20
-1490.2328822649874
 30
0.0
 41
1.0
 10
837.26910164041658
 20
-1490.2358609450607
 30
0.0
 41
1.0
 10
837.32103857691845
 20
-1490.3415427382315
 30
0.0
 41
0.9992763831100653
 10
837.36479170547352
 20
-1490.4508668001877
 30
0.0
 41
1.0
 10
837.36627097513679
 20
-1490.4545629877211
 30
0.0
 41
1.0
 10
837.36775024479994
 20
-1490.4582591752544
 30
0.0
 41
1.0
 10
837.41446191268153
 20
-1490.5749756122766
 30
0.0
 41
0.999416347288301
 10
837.45309494387084
 20
-1490.6946092007397
 30
0.0
 41
1.0
 10
837.45433309611769
 20
-1490.6984433445227
 30
0.0
 41
1.0
 10
837.45557124836455
 20
-1490.7022774883058
 30
0.0
 41
1.0
 10
837.4954548093815
 20
-1490.8257835497825
 30
0.0
 41
0.9997268055890282
 10
837.52952286529433
 20
-1490.9510185817362
 30
0.0
 41
1.0
 10
837.53045304556395
 20
-1490.9544379478452
 30
0.0
 41
1.0
 10
837.53138322583357
 20
-1490.9578573139545
 30
0.0
 41
1.0
 10
837.5635909212067
 20
-1491.0762536136888
 30
0.0
 41
0.999670131900088
 10
837.58967653797686
 20
-1491.1961475669505
 30
0.0
 41
1.0
 10
837.61576215474702
 20
-1491.3160415202124
 30
0.0
 41
0.9995785451109774
 10
837.63484573208666
 20
-1491.4372472812429
 30
0.0
 41
1.0
 10
837.63906551426044
 20
-1491.4640484360084
 30
0.0
 41
1.0
 10
837.64328529643421
 20
-1491.4908495907737
 30
0.0
 41
1.0
 10
837.66986027237317
 20
-1491.6596355644779
 30
0.0
 41
0.9979925101216177
 10
837.67488585829938
 20
-1491.8304268925701
 30
0.0
 41
1.0
 10
837.67571067072402
 20
-1491.8584576160492
 30
0.0
 41
1.0
 10
837.67653548314865
 20
-1491.8864883395281
 30
0.0
 41
1.0
 10
837.67991144422592
 20
-1492.0012182206592
 30
0.0
 41
0.999531490226288
 10
837.67626125208722
 20
-1492.1159397044139
 30
0.0
 41
1.0
 10
837.67261105994862
 20
-1492.230661188167
 30
0.0
 41
0.9996245486944125
 10
837.66268196481781
 20
-1492.3450104592889
 30
0.0
 41
1.0
 10
837.6625189168235
 20
-1492.3468882154245
 30
0.0
 41
1.0
 10
837.66235586882931
 20
-1492.3487659715602
 30
0.0
 41
1.0
 10
837.65210067771056
 20
-1492.4668707549495
 30
0.0
 41
0.9997286095000475
 10
837.63635535413948
 20
-1492.5843696638424
 30
0.0
 41
1.0
 10
837.63596186148868
 20
-1492.5873060885478
 30
0.0
 41
1.0
 10
837.63556836883788
 20
-1492.5902425132531
 30
0.0
 41
1.0
 10
837.61903605996486
 20
-1492.7136142715567
 30
0.0
 41
0.9998265533970402
 10
837.59792060123254
 20
-1492.8362847463438
 30
0.0
 41
1.0
 10
837.59724405909571
 20
-1492.8402151248492
 30
0.0
 41
1.0
 10
837.59656751695888
 20
-1492.8441455033549
 30
0.0
 41
1.0
 10
837.57409897395098
 20
-1492.9746767351626
 30
0.0
 41
0.9999022530854931
 10
837.5479895093406
 20
-1493.1045287038032
 30
0.0
 41
1.0
 10
837.5470108681759
 20
-1493.1093958461875
 30
0.0
 41
1.0
 10
837.54603222701121
 20
-1493.1142629885715
 30
0.0
 41
1.0
 10
837.51796548007223
 20
-1493.2538492419772
 30
0.0
 41
0.9999524761939937
 10
837.48718251123694
 20
-1493.3928617351439
 30
0.0
 41
1.0
 10
837.48590640406087
 20
-1493.398624494449
 30
0.0
 41
1.0
 10
837.4846302968848
 20
-1493.4043872537541
 30
0.0
 41
1.0
 10
837.45129511369771
 20
-1493.5549252655294
 30
0.0
 41
0.9999813588724044
 10
837.41612411289987
 20
-1493.7050449781937
 30
0.0
 41
1.0
 10
837.41457018744507
 20
-1493.7116775686086
 30
0.0
 41
1.0
 10
837.41301626199026
 20
-1493.7183101590238
 30
0.0
 41
1.0
 10
837.37473741028111
 20
-1493.8816950525256
 30
0.0
 41
0.9999955237651789
 10
837.33548153229879
 20
-1494.0448479561394
 30
0.0
 41
1.0
 10
837.32319989666541
 20
-1494.0958921466581
 30
0.0
 41
1.0
 10
837.31091826103204
 20
-1494.1469363371771
 30
0.0
 41
1.0
 10
837.24709911177911
 20
-1494.412177621844
 30
0.0
 41
0.9999993604784139
 10
837.1826801646223
 20
-1494.6772738724828
 30
0.0
 41
1.0
 10
837.17796132907154
 20
-1494.6966927805388
 30
0.0
 41
1.0
 10
837.17324249352077
 20
-1494.7161116885945
 30
0.0
 41
1.0
 10
837.09938587525585
 20
-1495.0200457553708
 30
0.0
 41
0.9999659914727755
 10
837.02052627936985
 20
-1495.3227203019326
 30
0.0
 41
1.0
 10
837.01557359044182
 20
-1495.3417294391052
 30
0.0
 41
1.0
 10
837.01062090151368
 20
-1495.3607385762775
 30
0.0
 41
1.0
 10
836.92185592776764
 20
-1495.7014313971995
 30
0.0
 41
0.9999441976023272
 10
836.82591289480251
 20
-1496.040172822504
 30
0.0
 41
1.0
 10
836.80921237637813
 20
-1496.0991365350274
 30
0.0
 41
1.0
 10
836.79251185795374
 20
-1496.1581002475509
 30
0.0
 41
1.0
 10
836.66316778813939
 20
-1496.6147690979051
 30
0.0
 41
0.9999625120730308
 10
836.52593502081595
 20
-1497.0691296319008
 30
0.0
 41
1.0
 10
836.490145077732
 20
-1497.187625658531
 30
0.0
 41
1.0
 10
836.45435513464815
 20
-1497.3061216851611
 30
0.0
 41
1.0
 10
836.37983493061097
 20
-1497.5528487632507
 30
0.0
 41
0.9999793386318557
 10
836.30214890747129
 20
-1497.7985974024937
 30
0.0
 41
1.0
 10
836.22446288433366
 20
-1498.0443460417298
 30
0.0
 41
1.0
 10
836.21368332546297
 20
-1498.0783639461044
 30
0.0
 41
1.0
 10
834.36331027219376
 20
-1503.9654358685721
 30
0.0
 41
1.0
 10
832.51293721892466
 20
-1509.8525077910394
 30
0.0
 41
1.0
 10
831.5516805289011
 20
-1509.8525077910394
 30
0.0
 41
1.0
 10
830.59042383887754
 20
-1509.8525077910394
 30
0.0
 41
1.0
 10
832.20936861755604
 20
-1504.70447928925
 30
0.0
 41
1.0
 10
833.82831339623442
 20
-1499.5564507874606
 30
0.0
 41
1.0
 10
833.87347921941682
 20
-1499.4124195651648
 30
0.0
 41
1.0
 10
833.91864504259934
 20
-1499.2683883428688
 30
0.0
 41
1.0
 10
834.0889494599536
 20
-1498.7252973137333
 30
0.0
 41
0.9999911657911316
 10
834.25468227162605
 20
-1498.1807937823946
 30
0.0
 41
1.0
 10
834.28437821513307
 20
-1498.0832298423229
 30
0.0
 41
1.0
 10
834.31407415863998
 20
-1497.985665902251
 30
0.0
 41
1.0
 10
834.42041508331795
 20
-1497.6362902509923
 30
0.0
 41
0.9999952428105741
 10
834.5245986726311
 20
-1497.2862652266813
 30
0.0
 41
1.0
 10
834.52965814296272
 20
-1497.269266952409
 30
0.0
 41
1.0
 10
834.53471761329445
 20
-1497.2522686781365
 30
0.0
 41
1.0
 10
834.6287822619563
 20
-1496.9362402023312
 30
0.0
 41
0.9999931687533451
 10
834.72050809982977
 20
-1496.6195249890613
 30
0.0
 41
1.0
 10
834.72544336428541
 20
-1496.6024842798038
 30
0.0
 41
1.0
 10
834.73037862874105
 20
-1496.5854435705462
 30
0.0
 41
1.0
 10
834.81223393770324
 20
-1496.3028097757913
 30
0.0
 41
0.9999893840790392
 10
834.89148116416027
 20
-1496.0194336465443
 30
0.0
 41
1.0
 10
834.9707283906173
 20
-1495.7360575172972
 30
0.0
 41
0.9999833980060678
 10
835.04670463135631
 20
-1495.4517869342783
 30
0.0
 41
1.0
 10
835.05570856808231
 20
-1495.4180980557862
 30
0.0
 41
1.0
 10
835.0647125048082
 20
-1495.3844091772942
 30
0.0
 41
1.0
 10
835.13367705367364
 20
-1495.1263733450014
 30
0.0
 41
0.9999233658063661
 10
835.19623202489061
 20
-1494.8667091862912
 30
0.0
 41
1.0
 10
835.25878699611087
 20
-1494.6070450275688
 30
0.0
 41
1.0
 10
835.29827041496844
 20
-1494.4432383631427
 30
0.0
 41
1.0
 10
835.30324901894596
 20
-1494.4225834012709
 30
0.0
 41
1.0
 10
835.3082276229236
 20
-1494.4019284393992
 30
0.0
 41
1.0
 10
835.33775383382681
 20
-1494.2794316987124
 30
0.0
 41
0.9999868670871771
 10
835.36602291782219
 20
-1494.1566387530711
 30
0.0
 41
1.0
 10
835.36992040497876
 20
-1494.1397091656595
 30
0.0
 41
1.0
 10
835.37381789213521
 20
-1494.1227795782479
 30
0.0
 41
1.0
 10
835.39429200181837
 20
-1494.0338458074259
 30
0.0
 41
0.9999778173346934
 10
835.41357959993388
 20
-1493.9446471901952
 30
0.0
 41
1.0
 10
835.43286719805121
 20
-1493.8554485729558
 30
0.0
 41
0.9999602692865596
 10
835.45056155668215
 20
-1493.7659202845275
 30
0.0
 41
1.0
 10
835.45376538875871
 20
-1493.7497098296471
 30
0.0
 41
1.0
 10
835.45696922083528
 20
-1493.733499374767
 30
0.0
 41
1.0
 10
835.48107124362082
 20
-1493.6115501765726
 30
0.0
 41
0.9995617985320661
 10
835.49791459083906
 20
-1493.4883884288702
 30
0.0
 41
1.0
 10
835.50037908074614
 20
-1493.4703676114991
 30
0.0
 41
1.0
 10
835.50284357065311
 20
-1493.4523467941281
 30
0.0
 41
1.0
 10
835.52312683170101
 20
-1493.3040317444281
 30
0.0
 41
0.9991121410639797
 10
835.53085218528906
 20
-1493.1545356456245
 30
0.0
 41
1.0
 10
835.53177097531352
 20
-1493.1367558090506
 30
0.0
 41
1.0
 10
835.53268976533798
 20
-1493.1189759724766
 30
0.0
 41
1.0
 10
835.53857753887723
 20
-1493.0050395468209
 30
0.0
 41
0.9989792494905719
 10
835.53415844675999
 20
-1492.8910367109202
 30
0.0
 41
1.0
 10
835.53351047489139
 20
-1492.8743204649945
 30
0.0
 41
1.0
 10
835.53286250302278
 20
-1492.8576042190691
 30
0.0
 41
1.0
 10
835.52973935464274
 20
-1492.7770338750233
 30
0.0
 41
0.9997820295394101
 10
835.52325535726698
 20
-1492.6966641532777
 30
0.0
 41
1.0
 10
835.51677135989132
 20
-1492.6162944315336
 30
0.0
 41
0.9998335105974463
 10
835.50735916437964
 20
-1492.5362148150837
 30
0.0
 41
1.0
 10
835.50576423970324
 20
-1492.5226450846008
 30
0.0
 41
1.0
 10
835.50416931502696
 20
-1492.5090753541176
 30
0.0
 41
1.0
 10
835.49156727016259
 20
-1492.4018562767021
 30
0.0
 41
0.9996876457879345
 10
835.47362335736443
 20
-1492.2954008489871
 30
0.0
 41
1.0
 10
835.47139169421894
 20
-1492.2821611137447
 30
0.0
 41
1.0
 10
835.46916003107356
 20
-1492.268921378502
 30
0.0
 41
1.0
 10
835.45536420965266
 20
-1492.1870752345433
 30
0.0
 41
0.9995547496494418
 10
835.43671088775989
 20
-1492.1061977373522
 30
0.0
 41
1.0
 10
835.43633693088861
 20
-1492.104576326647
 30
0.0
 41
1.0
 10
835.43596297401734
 20
-1492.1029549159418
 30
0.0
 41
1.0
 10
835.41805756586689
 20
-1492.02532024016
 30
0.0
 41
0.9994899427175579
 10
835.39523265718799
 20
-1491.9489869573267
 30
0.0
 41
1.0
 10
835.3947741304471
 20
-1491.9474535075378
 30
0.0
 41
1.0
 10
835.39431560370633
 20
-1491.9459200577489
 30
0.0
 41
1.0
 10
835.37240774850864
 20
-1491.8726536744923
 30
0.0
 41
0.999378487759062
 10
835.345392113402
 20
-1491.8011129693332
 30
0.0
 41
1.0
 10
835.34486042242497
 20
-1491.7997049866121
 30
0.0
 41
1.0
 10
835.34432873144783
 20
-1491.7982970038911
 30
0.0
 41
1.0
 10
835.31837647829502
 20
-1491.7295722641729
 30
0.0
 41
0.9992430832253918
 10
835.28715994313598
 20
-1491.6630731121058
 30
0.0
 41
1.0
 10
835.28657782707887
 20
-1491.6618330569877
 30
0.0
 41
1.0
 10
835.28599571102188
 20
-1491.6605930018693
 30
0.0
 41
1.0
 10
835.25594340797613
 20
-1491.5965739600367
 30
0.0
 41
0.9990789632798898
 10
835.2205127812
 20
-1491.535367348288
 30
0.0
 41
1.0
 10
835.2199170750182
 20
-1491.5343382624292
 30
0.0
 41
1.0
 10
835.2193213688364
 20
-1491.5333091765704
 30
0.0
 41
1.0
 10
835.18508215442387
 20
-1491.4741607365395
 30
0.0
 41
0.9988874801121823
 10
835.14542287839117
 20
-1491.4185010241204
 30
0.0
 41
1.0
 10
835.14486735232708
 20
-1491.4177213724456
 30
0.0
 41
1.0
 10
835.14431182626288
 20
-1491.4169417207711
 30
0.0
 41
1.0
 10
835.10576360235871
 20
-1491.3628413117019
 30
0.0
 41
0.9986762060692986
 10
835.06186113108311
 20
-1491.3129875972636
 30
0.0
 41
1.0
 10
835.06141717075047
 20
-1491.3124834554465
 30
0.0
 41
1.0
 10
835.06097321041796
 20
-1491.3119793136295
 30
0.0
 41
1.0
 10
835.01795865980603
 20
-1491.2631338828232
 30
0.0
 41
0.9984621642486727
 10
834.96980110302911
 20
-1491.2193505823532
 30
0.0
 41
1.0
 10
834.96955446851211
 20
-1491.2191263501893
 30
0.0
 41
1.0
 10
834.96930783399523
 20
-1491.2189021180254
 30
0.0
 41
1.0
 10
834.92164354625072
 20
-1491.1755672818815
 30
0.0
 41
0.9982724693851979
 10
834.86922491440987
 20
-1491.1381229313643
 30
0.0
 41
1.0
 10
834.81680628256788
 20
-1491.1006785808463
 30
0.0
 41
0.9981399180159688
 10
834.76022021917379
 20
-1491.0698920614025
 30
0.0
 41
1.0
 10
834.76017455709598
 20
-1491.0698672182457
 30
0.0
 41
1.0
 10
834.76012889501817
 20
-1491.0698423750889
 30
0.0
 41
1.0
 10
834.70345150746687
 20
-1491.0390061693306
 30
0.0
 41
0.998092708683714
 10
834.64340615640037
 20
-1491.0153893604781
 30
0.0
 41
1.0
 10
834.64296598668921
 20
-1491.0152162346035
 30
0.0
 41
1.0
 10
834.64252581697815
 20
-1491.0150431087286
 30
0.0
 41
1.0
 10
834.5816001264883
 20
-1490.9910800481262
 30
0.0
 41
0.9981411356561915
 10
834.51821160508905
 20
-1490.9747074066206
 30
0.0
 41
1.0
 10
834.51732948838753
 20
-1490.9744795644151
 30
0.0
 41
1.0
 10
834.51644737168613
 20
-1490.9742517222096
 30
0.0
 41
1.0
 10
834.45129461688418
 20
-1490.9574233962931
 30
0.0
 41
0.9983031812934572
 10
834.38462718788935
 20
-1490.948284035117
 30
0.0
 41
1.0
 10
834.37575616248546
 20
-1490.9470679164456
 30
0.0
 41
1.0
 10
834.36688513708157
 20
-1490.9458517977744
 30
0.0
 41
1.0
 10
834.31253549457745
 20
-1490.9384010677832
 30
0.0
 41
0.9983887708262412
 10
834.25769164528424
 20
-1490.93715639415
 30
0.0
 41
1.0
 10
834.24962824006514
 20
-1490.9369733962751
 30
0.0
 41
1.0
 10
834.24156483484603
 20
-1490.9367903984003
 30
0.0
 41
1.0
 10
834.2028477959899
 20
-1490.9359117205165
 30
0.0
 41
0.9998869563077762
 10
834.16412184278875
 20
-1490.9361975898762
 30
0.0
 41
1.0
 10
834.12539588959908
 20
-1490.9364834592359
 30
0.0
 41
0.9999972320104111
 10
834.08667171040042
 20
-1490.9369515587646
 30
0.0
 41
1.0
 10
834.06731869380792
 20
-1490.9371854988542
 30
0.0
 41
1.0
 10
834.0479656772153
 20
-1490.9374194389438
 30
0.0
 41
1.0
 10
833.97053546484437
 20
-1490.9383554186516
 30
0.0
 41
0.9997304945087666
 10
833.89323215860657
 20
-1490.9428845124376
 30
0.0
 41
1.0
 10
833.88418251690246
 20
-1490.9434147184274
 30
0.0
 41
1.0
 10
833.87513287519846
 20
-1490.9439449244173
 30
0.0
 41
1.0
 10
833.7797302855513
 20
-1490.9495344301833
 30
0.0
 41
0.9997888306416474
 10
833.68463794970842
 20
-1490.9590393946728
 30
0.0
 41
1.0
 10
833.67591688813627
 20
-1490.9599111093048
 30
0.0
 41
1.0
 10
833.66719582656424
 20
-1490.9607828239368
 30
0.0
 41
1.0
 10
833.55466136757661
 20
-1490.9720312176901
 30
0.0
 41
0.9984170238190328
 10
833.44410222022589
 20
-1490.9958472996257
 30
0.0
 41
1.0
 10
833.4077210892392
 20
-1491.0036843354319
 30
0.0
 41
1.0
 10
833.37133995825263
 20
-1491.0115213712379
 30
0.0
 41
1.0
 10
833.25614888983091
 20
-1491.0363352377476
 30
0.0
 41
0.9976592854198668
 10
833.14542072342545
 20
-1491.076633914895
 30
0.0
 41
1.0
 10
833.03469255702043
 20
-1491.1169325920418
 30
0.0
 41
0.9993255074352002
 10
832.92722075822974
 20
-1491.1652494905345
 30
0.0
 41
1.0
 10
832.9225955793064
 20
-1491.1673288667344
 30
0.0
 41
1.0
 10
832.91797040038307
 20
-1491.169408242934
 30
0.0
 41
1.0
 10
832.80124824374639
 20
-1491.2218838938254
 30
0.0
 41
0.9976475078275663
 10
832.69280089943652
 20
-1491.2898318834832
 30
0.0
 41
1.0
 10
832.6744585053026
 20
-1491.3013243622972
 30
0.0
 41
1.0
 10
832.65611611116867
 20
-1491.3128168411113
 30
0.0
 41
1.0
 10
832.57191391961499
 20
-1491.3655739618807
 30
0.0
 41
0.9995131336406913
 10
832.49116620465611
 20
-1491.4234801738348
 30
0.0
 41
1.0
 10
832.41041848969633
 20
-1491.4813863857896
 30
0.0
 41
0.999581010760535
 10
832.33315684196509
 20
-1491.5438680682578
 30
0.0
 41
1.0
 10
832.33018681075737
 20
-1491.5462699397203
 30
0.0
 41
1.0
 10
832.32721677954976
 20
-1491.5486718111829
 30
0.0
 41
1.0
 10
832.24401506940342
 20
-1491.6159572365759
 30
0.0
 41
0.9996617837954432
 10
832.16442438227011
 20
-1491.6874776921338
 30
0.0
 41
1.0
 10
832.15229363138837
 20
-1491.6983784251288
 30
0.0
 41
1.0
 10
832.14016288050652
 20
-1491.7092791581238
 30
0.0
 41
1.0
 10
832.07188735311115
 20
-1491.7706317735951
 30
0.0
 41
0.9997267750052424
 10
832.00655384483025
 20
-1491.8351083101179
 30
0.0
 41
1.0
 10
831.94122033655299
 20
-1491.8995848466368
 30
0.0
 41
0.9999667288957662
 10
831.87694739341237
 20
-1491.965118653525
 30
0.0
 41
1.0
 10
831.80811994563101
 20
-1492.0352963122896
 30
0.0
 41
1.0
 10
831.73929249784965
 20
-1492.1054739710539
 30
0.0
 41
1.0
 10
831.53736465915301
 20
-1492.3113630954647
 30
0.0
 41
0.9988205335175273
 10
831.35635904217236
 20
-1492.5358673275268
 30
0.0
 41
1.0
 10
831.3257190772681
 20
-1492.5738705779561
 30
0.0
 41
1.0
 10
831.29507911236396
 20
-1492.6118738283853
 30
0.0
 41
1.0
 10
831.05279356557458
 20
-1492.9123845613065
 30
0.0
 41
0.9997077826755689
 10
830.82531561446899
 20
-1493.2242543555233
 30
0.0
 41
1.0
 10
830.82359219933892
 20
-1493.2266171389024
 30
0.0
 41
1.0
 10
830.82186878420896
 20
-1493.2289799222813
 30
0.0
 41
1.0
 10
830.59094400284266
 20
-1493.5455752832568
 30
0.0
 41
0.9989147567078845
 10
830.39048049995972
 20
-1493.8822847444408
 30
0.0
 41
1.0
 10
830.36573935465162
 20
-1493.9238413249952
 30
0.0
 41
1.0
 10
830.34099820934341
 20
-1493.9653979055497
 30
0.0
 41
1.0
 10
830.18578691070672
 20
-1494.2260992900015
 30
0.0
 41
0.9997476598181465
 10
830.04244192319845
 20
-1494.4935090385816
 30
0.0
 41
1.0
 10
829.89909693569007
 20
-1494.7609187871617
 30
0.0
 41
0.999625896710986
 10
829.77058868375798
 20
-1495.0357667237861
 30
0.0
 41
1.0
 10
829.75738877430877
 20
-1495.063998123881
 30
0.0
 41
1.0
 10
829.74418886485944
 20
-1495.0922295239757
 30
0.0
 41
1.0
 10
829.60398014385896
 20
-1495.3921019219301
 30
0.0
 41
0.99987354139471
 10
829.47337879713734
 20
-1495.6962815214006
 30
0.0
 41
1.0
 10
829.46993596907373
 20
-1495.7043001068723
 30
0.0
 41
1.0
 10
829.46649314101023
 20
-1495.7123186923441
 30
0.0
 41
1.0
 10
829.34277745041413
 20
-1496.0004611208744
 30
0.0
 41
0.99993774188602
 10
829.2255226482423
 20
-1496.291292588543
 30
0.0
 41
1.0
 10
829.10826784606797
 20
-1496.5821240562168
 30
0.0
 41
0.9999508299507148
 10
828.99680390269236
 20
-1496.8752237330334
 30
0.0
 41
1.0
 10
828.99372313402853
 20
-1496.883324759001
 30
0.0
 41
1.0
 10
828.99064236536469
 20
-1496.8914257849683
 30
0.0
 41
1.0
 10
828.87301688466209
 20
-1497.2007275137184
 30
0.0
 41
0.9999609228436974
 10
828.76087828179072
 20
-1497.5120605297266
 30
0.0
 41
1.0
 10
828.75792227143995
 20
-1497.5202673701392
 30
0.0
 41
1.0
 10
828.75496626108918
 20
-1497.5284742105518
 30
0.0
 41
1.0
 10
828.63691563751274
 20
-1497.8562209073953
 30
0.0
 41
0.9999674607400234
 10
828.52416811144485
 20
-1498.1858295273898
 30
0.0
 41
1.0
 10
828.47276972088639
 20
-1498.3360887230697
 30
0.0
 41
1.0
 10
828.42137133032804
 20
-1498.4863479187495
 30
0.0
 41
1.0
 10
828.30536072356597
 20
-1498.825495901265
 30
0.0
 41
0.9999287532306541
 10
828.19747931959409
 20
-1499.1673166402438
 30
0.0
 41
1.0
 10
828.15100206343186
 20
-1499.3145791846882
 30
0.0
 41
1.0
 10
828.10452480726963
 20
-1499.4618417291326
 30
0.0
 41
1.0
 10
828.08959791562268
 20
-1499.509137379222
 30
0.0
 41
0.9999998222804021
 10
828.07472740689298
 20
-1499.5564507874606
 30
0.0
 41
1.0
 10
826.45407127009753
 20
-1504.70447928925
 30
0.0
 41
1.0
 10
824.83341513330208
 20
-1509.8525077910394
 30
0.0
 41
1.0
 10
823.92810668941115
 20
-1509.8525077910394
 30
0.0
 41
1.0
 10
823.02279824552022
 20
-1509.8525077910394
 30
0.0
 41
1.0
 10
824.87488265690627
 20
-1503.9654358685721
 30
0.0
 41
1.0
 10
826.72696706829231
 20
-1498.0783639461044
 30
0.0
 41
1.0
 10
826.73708882659503
 20
-1498.0463207326547
 30
0.0
 41
1.0
 10
826.80969649544477
 20
-1497.8160211908289
 30
0.0
 41
1.0
 10
826.88230416429724
 20
-1497.5857216489944
 30
0.0
 41
0.9999825681975771
 10
826.95218720350579
 20
-1497.3545807539388
 30
0.0
 41
1.0
 10
827.00047826566538
 20
-1497.1948561704467
 30
0.0
 41
1.0
 10
827.04876932782497
 20
-1497.0351315869548
 30
0.0
 41
1.0
 10
827.14592168114223
 20
-1496.713796365178
 30
0.0
 41
0.9999672528964475
 10
827.23786048676686
 20
-1496.390930819588
 30
0.0
 41
1.0
 10
827.24064937043636
 20
-1496.3811369741989
 30
0.0
 41
1.0
 10
827.24343825410597
 20
-1496.3713431288097
 30
0.0
 41
1.0
 10
827.32979929239423
 20
-1496.0680652739875
 30
0.0
 41
0.9999899749157988
 10
827.4134409019249
 20
-1495.7640261855495
 30
0.0
 41
1.0
 10
827.42354682094469
 20
-1495.7272909478625
 30
0.0
 41
1.0
 10
827.4336527399646
 20
-1495.6905557101757
 30
0.0
 41
1.0
 10
827.49708251146126
 20
-1495.4599870970908
 30
0.0
 41
0.9999214200506632
 10
827.55471193983726
 20
-1495.2279007548877
 30
0.0
 41
1.0
 10
827.56747779201964
 20
-1495.1764898694846
 30
0.0
 41
1.0
 10
827.58024364420191
 20
-1495.1250789840815
 30
0.0
 41
1.0
 10
827.61234136821861
 20
-1494.995814412664
 30
0.0
 41
0.9999828681663631
 10
827.64292362021047
 20
-1494.8661829382108
 30
0.0
 41
1.0
 10
827.67350587220494
 20
-1494.7365514637472
 30
0.0
 41
0.9999389844483062
 10
827.70121686099355
 20
-1494.6062760078507
 30
0.0
 41
1.0
 10
827.70835460471449
 20
-1494.5727199040095
 30
0.0
 41
1.0
 10
827.71549234843553
 20
-1494.5391638001684
 30
0.0
 41
1.0
 10
827.75747882466374
 20
-1494.3417761366004
 30
0.0
 41
0.9998933699440523
 10
827.79368308906623
 20
-1494.1432465288415
 30
0.0
 41
1.0
 10
827.79505591428324
 20
-1494.1357185081415
 30
0.0
 41
1.0
 10
827.79642873950013
 20
-1494.1281904874418
 30
0.0
 41
1.0
 10
827.83537865433448
 20
-1493.9146048382938
 30
0.0
 41
0.9996850305193706
 10
827.86356233059337
 20
-1493.6993338328568
 30
0.0
 41
1.0
 10
827.86555736396281
 20
-1493.6840954787335
 30
0.0
 41
1.0
 10
827.86755239733225
 20
-1493.6688571246104
 30
0.0
 41
1.0
 10
827.89496025979156
 20
-1493.4595118974551
 30
0.0
 41
0.99946979367064
 10
827.90868481901111
 20
-1493.248826702124
 30
0.0
 41
1.0
 10
827.909161888261
 20
-1493.2415032299109
 30
0.0
 41
1.0
 10
827.90963895751077
 20
-1493.2341797576978
 30
0.0
 41
1.0
 10
827.92240937823055
 20
-1493.0381415067927
 30
0.0
 41
0.9991804893137133
 10
827.91928106195792
 20
-1492.8417126568199
 30
0.0
 41
1.0
 10
827.91919718313579
 20
-1492.836445855407
 30
0.0
 41
1.0
 10
827.91911330431367
 20
-1492.8311790539938
 30
0.0
 41
1.0
 10
827.91615274568494
 20
-1492.6452838068471
 30
0.0
 41
0.9988448329321998
 10
827.8953612000613
 20
-1492.4605312170131
 30
0.0
 41
1.0
 10
827.89376712635817
 20
-1492.4463663612412
 30
0.0
 41
1.0
 10
827.89217305265504
 20
-1492.4322015054693
 30
0.0
 41
1.0
 10
827.87456965443732
 20
-1492.2757786271779
 30
0.0
 41
0.9985503209458143
 10
827.84025338213792
 20
-1492.1221544430905
 30
0.0
 41
1.0
 10
827.83266739006694
 20
-1492.0881941156913
 30
0.0
 41
1.0
 10
827.82508139799597
 20
-1492.0542337882919
 30
0.0
 41
1.0
 10
827.80593710983862
 20
-1491.9685302590024
 30
0.0
 41
0.9991036781371082
 10
827.77961224818728
 20
-1491.8847531716763
 30
0.0
 41
1.0
 10
827.77563002273246
 20
-1491.8720800091696
 30
0.0
 41
1.0
 10
827.77164779727775
 20
-1491.859406846663
 30
0.0
 41
1.0
 10
827.7532873865382
 20
-1491.8009760843584
 30
0.0
 41
0.9998874504368308
 10
827.73318217885753
 20
-1491.743122482128
 30
0.0
 41
1.0
 10
827.71307697117845
 20
-1491.6852688799027
 30
0.0
 41
0.9994041637543482
 10
827.6890283582444
 20
-1491.6289401760137
 30
0.0
 41
1.0
 10
827.68483157402079
 20
-1491.6191101115328
 30
0.0
 41
1.0
 10
827.6806347897973
 20
-1491.6092800470519
 30
0.0
 41
1.0
 10
827.65275595880246
 20
-1491.5439798810844
 30
0.0
 41
0.9991846840702408
 10
827.61969960210922
 20
-1491.4811418498036
 30
0.0
 41
1.0
 10
827.61856299571389
 20
-1491.4789812333483
 30
0.0
 41
1.0
 10
827.61742638931855
 20
-1491.4768206168931
 30
0.0
 41
1.0
 10
827.58664324541576
 20
-1491.4183038185226
 30
0.0
 41
0.9989253167923311
 10
827.55057382136124
 20
-1491.362888890133
 30
0.0
 41
1.0
 10
827.54951969668718
 20
-1491.361269395371
 30
0.0
 41
1.0
 10
827.54846557201324
 20
-1491.3596499006092
 30
0.0
 41
1.0
 10
827.51450439730593
 20
-1491.3074739617425
 30
0.0
 41
0.9986467172836594
 10
827.47530724466878
 20
-1491.2591079281133
 30
0.0
 41
1.0
 10
827.47443311596817
 20
-1491.2580293258352
 30
0.0
 41
1.0
 10
827.47355898726755
 20
-1491.2569507235569
 30
0.0
 41
1.0
 10
827.43611009203175
 20
-1491.2107418944843
 30
0.0
 41
0.9984001104268372
 10
827.39368336151426
 20
-1491.1690567871151
 30
0.0
 41
1.0
 10
827.39309622340511
 20
-1491.168479912234
 30
0.0
 41
1.0
 10
827.39250908529596
 20
-1491.167903037353
 30
0.0
 41
1.0
 10
827.35125663099689
 20
-1491.1273716797459
 30
0.0
 41
0.9982442159082478
 10
827.30550052966146
 20
-1491.092003118486
 30
0.0
 41
1.0
 10
827.30528573420042
 20
-1491.0918370858433
 30
0.0
 41
1.0
 10
827.30507093873928
 20
-1491.0916710532006
 30
0.0
 41
1.0
 10
827.2597444283266
 20
-1491.0566345572263
 30
0.0
 41
0.9982450060837353
 10
827.21059344925413
 20
-1491.0272027741921
 30
0.0
 41
1.0
 10
827.16144247018224
 20
-1490.9977709911586
 30
0.0
 41
0.9983922639635352
 10
827.10927616401636
 20
-1490.974091356504
 30
0.0
 41
1.0
 10
827.10904928669243
 20
-1490.9739883710229
 30
0.0
 41
1.0
 10
827.1088224093686
 20
-1490.9738853855417
 30
0.0
 41
1.0
 10
827.05620234855633
 20
-1490.9499997799255
 30
0.0
 41
0.9986517147150991
 10
827.00138937568886
 20
-1490.9316986608037
 30
0.0
 41
1.0
 10
827.00071145426
 20
-1490.9314723143721
 30
0.0
 41
1.0
 10
827.00003353283114
 20
-1490.9312459679402
 30
0.0
 41
1.0
 10
826.94386471710789
 20
-1490.9124921559555
 30
0.0
 41
0.9989435598956309
 10
826.88621132995672
 20
-1490.8989744537212
 30
0.0
 41
1.0
 10
826.88513121037477
 20
-1490.8987212034681
 30
0.0
 41
1.0
 10
826.88405109079281
 20
-1490.898467953215
 30
0.0
 41
1.0
 10
826.82423746447955
 20
-1490.8844437504749
 30
0.0
 41
0.9992249241240707
 10
826.7635059555837
 20
-1490.8751684077597
 30
0.0
 41
1.0
 10
826.76209226729111
 20
-1490.8749524993516
 30
0.0
 41
1.0
 10
826.76067857899852
 20
-1490.8747365909435
 30
0.0
 41
1.0
 10
826.69711969351965
 20
-1490.8650294314127
 30
0.0
 41
0.9994396597834138
 10
826.63305375698417
 20
-1490.8595965090672
 30
0.0
 41
1.0
 10
826.61391308950533
 20
-1490.8579733413485
 30
0.0
 41
1.0
 10
826.59477242202649
 20
-1490.8563501736298
 30
0.0
 41
1.0
 10
826.49242515053334
 20
-1490.8476709158467
 30
0.0
 41
0.9987693403120994
 10
826.38972152694578
 20
-1490.8491739792994
 30
0.0
 41
1.0
 10
826.37946719271872
 20
-1490.8493240510734
 30
0.0
 41
1.0
 10
826.36921285849166
 20
-1490.8494741228476
 30
0.0
 41
1.0
 10
826.25965709231309
 20
-1490.8510774671352
 30
0.0
 41
0.9989753644966334
 10
826.15069509229704
 20
-1490.8625804740605
 30
0.0
 41
1.0
 10
826.04173309227974
 20
-1490.8740834809857
 30
0.0
 41
0.9983190067305403
 10
825.93483428131401
 20
-1490.8981184727727
 30
0.0
 41
1.0
 10
825.92593332970807
 20
-1490.9001197513353
 30
0.0
 41
1.0
 10
825.91703237810214
 20
-1490.9021210298977
 30
0.0
 41
1.0
 10
825.79233166392316
 20
-1490.9301585788098
 30
0.0
 41
0.9985539388302652
 10
825.67136191024508
 20
-1490.9714222548557
 30
0.0
 41
1.0
 10
825.66901647928512
 20
-1490.9722222986716
 30
0.0
 41
1.0
 10
825.66667104832504
 20
-1490.9730223424872
 30
0.0
 41
1.0
 10
825.54101043272374
 20
-1491.0158861061652
 30
0.0
 41
0.9988468746492898
 10
825.42004009042182
 20
-1491.0706041912288
 30
0.0
 41
1.0
 10
825.41685726843536
 20
-1491.0720438657877
 30
0.0
 41
1.0
 10
825.41367444644891
 20
-1491.0734835403466
 30
0.0
 41
1.0
 10
825.28633846017226
 20
-1491.1310809745285
 30
0.0
 41
0.9991322885919544
 10
825.16423787611586
 20
-1491.1990763067099
 30
0.0
 41
1.0
 10
825.14663586507311
 20
-1491.2088785086992
 30
0.0
 41
1.0
 10
825.12903385403035
 20
-1491.2186807106884
 30
0.0
 41
1.0
 10
825.02685717297209
 20
-1491.2755808264696
 30
0.0
 41
0.9993860037849481
 10
824.92891616889597
 20
-1491.3394968420596
 30
0.0
 41
1.0
 10
824.92329785603602
 20
-1491.3431633367595
 30
0.0
 41
1.0
 10
824.91767954317606
 20
-1491.3468298314594
 30
0.0
 41
1.0
 10
824.83097516481484
 20
-1491.4034128576532
 30
0.0
 41
0.9998821494954169
 10
824.74604878900982
 20
-1491.4626310877247
 30
0.0
 41
1.0
 10
824.66112241319945
 20
-1491.5218493177999
 30
0.0
 41
0.9997976482744686
 10
824.57864678279532
 20
-1491.584435725842
 30
0.0
 41
1.0
 10
824.56401051798935
 20
-1491.5955424156225
 30
0.0
 41
1.0
 10
824.54937425318349
 20
-1491.606649105403
 30
0.0
 41
1.0
 10
824.43762609316764
 20
-1491.6914488930061
 30
0.0
 41
0.9998091630800289
 10
824.32927581513786
 20
-1491.7805492437094
 30
0.0
 41
1.0
 10
824.31627006266285
 20
-1491.7912443441537
 30
0.0
 41
1.0
 10
824.30326431018773
 20
-1491.8019394445978
 30
0.0
 41
1.0
 10
824.16890252720259
 20
-1491.9124299961939
 30
0.0
 41
0.9995035112317198
 10
824.04176664943816
 20
-1492.0311638132098
 30
0.0
 41
1.0
 10
824.0321193390505
 20
-1492.040173559368
 30
0.0
 41
1.0
 10
824.02247202866295
 20
-1492.0491833055262
 30
0.0
 41
1.0
 10
823.89904896590099
 20
-1492.164449677279
 30
0.0
 41
0.9994630424299118
 10
823.78344056011815
 20
-1492.2875524205131
 30
0.0
 41
1.0
 10
823.77975772134721
 20
-1492.2914740000256
 30
0.0
 41
1.0
 10
823.77607488257627
 20
-1492.2953955795381
 30
0.0
 41
1.0
 10
823.66783215433497
 20
-1492.4106551637474
 30
0.0
 41
0.9995160693749975
 10
823.56696612480232
 20
-1492.5324225816207
 30
0.0
 41
1.0
 10
823.56503240472011
 20
-1492.5347570058307
 30
0.0
 41
1.0
 10
823.56309868463802
 20
-1492.5370914300406
 30
0.0
 41
1.0
 10
823.46610009526717
 20
-1492.6541899994972
 30
0.0
 41
0.9996561470514497
 10
823.3753738766045
 20
-1492.7762127619426
 30
0.0
 41
1.0
 10
823.36921621070053
 20
-1492.7844945509876
 30
0.0
 41
1.0
 10
823.36305854479656
 20
-1492.7927763400326
 30
0.0
 41
1.0
 10
823.28464765793626
 20
-1492.8982355243947
 30
0.0
 41
0.9998349055172473
 10
823.21012037600644
 20
-1493.006474108055
 30
0.0
 41
1.0
 10
823.13559309407799
 20
-1493.1147126917131
 30
0.0
 41
0.9999728109568297
 10
823.06267019817301
 20
-1493.2240386172602
 30
0.0
 41
1.0
 10
823.06135498275671
 20
-1493.2260103867695
 30
0.0
 41
1.0
 10
823.06003976734053
 20
-1493.2279821562788
 30
0.0
 41
1.0
 10
822.98448644060568
 20
-1493.3412516208411
 30
0.0
 41
0.9999972147337726
 10
822.9094686302119
 20
-1493.4548764637066
 30
0.0
 41
1.0
 10
822.90449708760002
 20
-1493.462406552163
 30
0.0
 41
1.0
 10
822.89952554498814
 20
-1493.4699366406194
 30
0.0
 41
1.0
 10
822.81456464936673
 20
-1493.5986216604038
 30
0.0
 41
0.9999371979006194
 10
822.73250929996152
 20
-1493.7291785741829
 30
0.0
 41
1.0
 10
822.72900041560126
 20
-1493.7347615022454
 30
0.0
 41
1.0
 10
822.725491531241
 20
-1493.7403444303081
 30
0.0
 41
1.0
 10
822.63641841310903
 20
-1493.8820672002225
 30
0.0
 41
0.9998272025610308
 10
822.55267502222603
 20
-1494.0270030769668
 30
0.0
 41
1.0
 10
822.53745985020419
 20
-1494.0533361914195
 30
0.0
 41
1.0
 10
822.52224467818246
 20
-1494.0796693058724
 30
0.0
 41
1.0
 10
822.40807094325021
 20
-1494.2772714115317
 30
0.0
 41
0.9995217214838186
 10
822.30633125369479
 20
-1494.481553739394
 30
0.0
 41
1.0
 10
822.29868769106133
 20
-1494.4969011890939
 30
0.0
 41
1.0
 10
822.29104412842787
 20
-1494.5122486387936
 30
0.0
 41
1.0
 10
822.20413883583785
 20
-1494.6867450968759
 30
0.0
 41
0.9998269762606717
 10
822.12378436956476
 20
-1494.8643533836012
 30
0.0
 41
1.0
 10
822.04342990329064
 20
-1495.0419616703289
 30
0.0
 41
0.9998944747385978
 10
821.96826910872426
 20
-1495.2218293959631
 30
0.0
 41
1.0
 10
821.96331543913516
 20
-1495.2336840508756
 30
0.0
 41
1.0
 10
821.95836176954617
 20
-1495.2455387057878
 30
0.0
 41
1.0
 10
821.87771470899088
 20
-1495.4385356458115
 30
0.0
 41
0.9999506734409783
 10
821.80091718008896
 20
-1495.6330964506642
 30
0.0
 41
1.0
 10
821.78631721482589
 20
-1495.6700843724502
 30
0.0
 41
1.0
 10
821.77171724956293
 20
-1495.707072294236
 30
0.0
 41
1.0
 10
821.7241196511909
 20
-1495.8276572555064
 30
0.0
 41
0.9999912393918494
 10
821.67753320716292
 20
-1495.948636458216
 30
0.0
 41
1.0
 10
821.63094676314608
 20
-1496.0696156608969
 30
0.0
 41
0.9999927113994792
 10
821.58528546874811
 20
-1496.1909470684084
 30
0.0
 41
1.0
 10
821.57131703734944
 20
-1496.22806405041
 30
0.0
 41
1.0
 10
821.55734860595066
 20
-1496.2651810324116
 30
0.0
 41
1.0
 10
821.48375044875752
 20
-1496.4607464039209
 30
0.0
 41
0.9999487550945612
 10
821.41412682378291
 20
-1496.6577617691123
 30
0.0
 41
1.0
 10
821.39053321384426
 20
-1496.7245250794101
 30
0.0
 41
1.0
 10
821.36693960390551
 20
-1496.7912883897079
 30
0.0
 41
1.0
 10
821.27225396954066
 20
-1497.0592222245168
 30
0.0
 41
0.9999808436937958
 10
821.18089238090363
 20
-1497.3283076557689
 30
0.0
 41
1.0
 10
821.0895307922583
 20
-1497.597393087045
 30
0.0
 41
0.9999873932911365
 10
821.00087608353613
 20
-1497.8673824420709
 30
0.0
 41
1.0
 10
820.98078372667078
 20
-1497.9285717748116
 30
0.0
 41
1.0
 10
820.96069136980532
 20
-1497.9897611075526
 30
0.0
 41
1.0
 10
820.83185194734983
 20
-1498.3821291280678
 30
0.0
 41
0.9999794883034364
 10
820.70804916239683
 20
-1498.7761153343297
 30
0.0
 41
1.0
 10
820.69689690296286
 20
-1498.8116059445556
 30
0.0
 41
1.0
 10
820.68574464352889
 20
-1498.8470965547815
 30
0.0
 41
1.0
 10
820.54318647962646
 20
-1499.3007693068835
 30
0.0
 41
0.9999982761694034
 10
820.40231403960286
 20
-1499.7549683290329
 30
0.0
 41
1.0
 10
818.81417370703025
 20
-1504.8037380600363
 30
0.0
 41
1.0
 10
817.22603337445764
 20
-1509.8525077910394
 30
0.0
 41
1.0
 10
816.27728276298126
 20
-1509.8525077910394
 30
0.0
 41
1.0
 10
815.32853215150487
 20
-1509.8525077910394
 30
0.0
 41
1.0
 10
818.56681663765812
 20
-1499.5251855910933
 30
0.0
 41
1.0
 10
821.80510112381126
 20
-1489.1978633911472
 30
0.0
 41
1.0
  0
LWPOLYLINE
  5
5D
100
AcDbEntity
  8
0
370
              15
390
0
  6
Continuous
 62
               7
100
AcDbPolyline
 90
      232
 70
             128
 10
796.10155534998421
 20
-1490.2822062226624
 42
0.000437080068545
 10
796.04867817605111
 20
-1490.350872861738
 10
796.00939394478473
 20
-1490.4019799748153
 42
0.0030481992177879
 10
795.87905522767039
 20
-1490.573701667153
 10
795.84054355591513
 20
-1490.6250884509475
 42
0.0042058245758935
 10
795.63655850525151
 20
-1490.9020941960127
 10
795.5841533827446
 20
-1490.974527042802
 42
0.0120948898743772
 10
795.28810946598537
 20
-1491.4052766473476
 10
795.19191696685937
 20
-1491.5527573825786
 42
0.0141601263950931
 10
794.88827291993925
 20
-1492.0484267193112
 10
794.84873565250393
 20
-1492.1172706867594
 42
0.0071131081303164
 10
794.64346332927494
 20
-1492.4867734855811
 42
0.0068458791003427
 10
794.44858380243068
 20
-1492.8618650490596
 10
794.44177193997405
 20
-1492.875426762781
 42
0.0064120880292925
 10
794.24362968992375
 20
-1493.2828512377125
 10
794.23609500441273
 20
-1493.298863094421
 42
0.0058857236446868
 10
794.03333961254555
 20
-1493.7432392054457
 10
794.02516468624708
 20
-1493.7617293590899
 42
0.0053189741895648
 10
793.81646037358053
 20
-1494.2476928330054
 10
793.80771256789819
 20
-1494.2686747112039
 42
0.0047503650417499
 10
793.59173884174788
 20
-1494.8008741444125
 10
793.58247059339942
 20
-1494.8243505205214
 42
0.0042071762171967
 10
793.35792320967039
 20
-1495.4074441145942
 10
793.34817380732295
 20
-1495.4334102894609
 42
0.0036680086484939
 10
793.11371916401492
 20
-1496.0720456739812
 10
793.10351138416308
 20
-1496.1004942083368
 42
0.0032573142627871
 10
792.85787909819601
 20
-1496.7993468680911
 10
792.7892285773562
 20
-1496.9988099521418
 42
0.0026133366647731
 10
792.44078337859764
 20
-1498.0286732358149
 10
792.37752659109276
 20
-1498.2189040712205
 42
0.0020592950742429
 10
792.16366352212992
 20
-1498.8710077238211
 10
792.16061173097046
 20
-1498.8804442122196
 42
0.002560992853428
 10
791.95879122948099
 20
-1499.5155894345967
 10
791.95619986235431
 20
-1499.5238917755371
 42
0.0031362356239544
 10
791.76670907667744
 20
-1500.1446546317168
 10
791.76457803375081
 20
-1500.151795937925
 42
0.0037229918028464
 10
791.58777764682361
 20
-1500.7607812399019
 10
791.58609905762262
 20
-1500.7667281300569
 42
0.0043077623706767
 10
791.42235825555213
 20
-1501.3665468618456
 42
0.0047654161823646
 10
791.26952953303635
 20
-1501.969232950747
 10
791.2350649241971
 20
-1502.1107947278974
 42
0.0112969368446075
 10
791.0392005660533
 20
-1503.0024868885225
 10
791.01119417695679
 20
-1503.1453149346196
 42
0.0130056762570159
 10
790.81035693331023
 20
-1504.3322560062645
 10
790.78981718316254
 20
-1504.4763341197458
 42
0.0138721532145231
 10
790.68611417862519
 20
-1505.3831636055672
 10
790.66681869071692
 20
-1505.606661327497
 42
0.0071254697007239
 10
790.63347204479464
 20
-1506.0698483363394
 10
790.62851107063034
 20
-1506.1558523309191
 42
0.0028881799201852
 10
790.61337277734151
 20
-1506.4475940407424
 42
0.0060297297140625
 10
790.60344057756595
 20
-1506.7395429768633
 10
790.60237829589892
 20
-1506.7879353487904
 42
0.0229523164156406
 10
790.6101093236847
 20
-1507.1106901950739
 10
790.61433509720518
 20
-1507.171093729092
 42
0.0123673300663868
 10
790.63341374372339
 20
-1507.3722144542648
 42
0.0128577674468194
 10
790.66260913412998
 20
-1507.5721123041938
 10
790.66973500751669
 20
-1507.6134411187886
 42
0.0285717853763817
 10
790.73422900921241
 20
-1507.8915572701017
 10
790.74789753287882
 20
-1507.938212039579
 42
0.0316283099156614
 10
790.86370811279312
 20
-1508.2572265414049
 10
790.86675680454846
 20
-1508.26421291373
 42
0.0338984824237524
 10
791.01618851551575
 20
-1508.5517788779196
 10
791.01849724488522
 20
-1508.5555699071949
 42
0.0350228718348925
 10
791.20085753555918
 20
-1508.8126218918724
 10
791.20174278733509
 20
-1508.8137009696375
 42
0.0347476747529174
 10
791.41616747457431
 20
-1509.0408860168563
 42
0.0331337701912656
 10
791.65941080032053
 20
-1509.2370146789337
 10
791.66051089883683
 20
-1509.2377873821065
 42
0.0305233319083058
 10
791.92905559441147
 20
-1509.4029155521982
 10
791.93228563891148
 20
-1509.4046395640603
 42
0.027374448115525
 10
792.22483935048797
 20
-1509.5407777079517
 10
792.22994388562324
 20
-1509.5428212924205
 42
0.0240964406193985
 10
792.54542096126761
 20
-1509.6518050187015
 10
792.55200429047886
 20
-1509.6537297583768
 42
0.0209636179811784
 10
792.88940444312868
 20
-1509.7371979063084
 10
792.89703690358022
 20
-1509.7387498193104
 42
0.0181388704693157
 10
793.25535929557861
 20
-1509.7981659125244
 10
793.26364014395676
 20
-1509.7992320963415
 42
0.0156086547588026
 10
793.64182750814996
 20
-1509.8359682829184
 10
793.68502276047138
 20
-1509.8388067853971
 42
0.0137148329022529
 10
794.01269590577158
 20
-1509.8513270406484
 10
794.05863209570703
 20
-1509.8518214737635
 42
0.0051057823884409
 10
794.2947776822898
 20
-1509.8519517281729
 42
0.0052256693310769
 10
794.53087496607668
 20
-1509.8472029037084
 10
794.60110174981787
 20
-1509.8450559376945
 42
0.016150717904825
 10
794.97683882791898
 20
-1509.8214055673679
 10
794.99685178829213
 20
-1509.8194953720804
 42
0.0101216737833584
 10
795.4108790097888
 20
-1509.7715024417141
 10
795.44493229920965
 20
-1509.7668547449052
 42
0.0245291776398623
 10
795.92172195475962
 20
-1509.6777796668291
 10
796.00654527028757
 20
-1509.6575837464825
 42
0.0143509212560914
 10
796.36317637422439
 20
-1509.5617791127042
 42
0.0156557857041963
 10
796.7133924389509
 20
-1509.4447678968857
 10
796.7208936534463
 20
-1509.4419977351313
 42
0.0170137333629174
 10
797.077489649124
 20
-1509.2963401202619
 10
797.08459357153515
 20
-1509.2931522846966
 42
0.0183105364409722
 10
797.44394323970243
 20
-1509.1158172428718
 10
797.45089000434018
 20
-1509.1120668080002
 42
0.0194899958150751
 10
797.80937074532471
 20
-1508.900087826109
 10
797.81638462466094
 20
-1508.8955624838145
 42
0.0204869852947361
 10
798.17039892675325
 20
-1508.6460424687298
 10
798.17766453534182
 20
-1508.6404624033803
 42
0.0212516938552724
 10
798.52365446644774
 20
-1508.3505584064876
 10
798.57017116052555
 20
-1508.308091096392
 42
0.0215248918253532
 10
798.83019732941307
 20
-1508.0493268173973
 10
798.87522706379741
 20
-1508.0004826960435
 42
0.011457855495497
 10
799.03001921747114
 20
-1507.8246597625894
 10
799.04121375345665
 20
-1507.8113409990453
 42
0.0061531305121038
 10
799.16768839945212
 20
-1507.6570514657383
 42
0.0006325587117338
 10
799.29206688361887
 20
-1507.5010480900437
 10
799.31510701865545
 20
-1507.472074569403
 42
0.004189776155144
 10
799.48356242262116
 20
-1507.2565551933501
 10
799.54202454252027
 20
-1507.1804538463562
 42
0.0092993880038768
 10
799.81863646974648
 20
-1506.8061750824686
 10
799.90103096294456
 20
-1506.6902380789013
 42
0.0159321727086418
 10
800.24763744558527
 20
-1506.1680638581474
 10
800.29199358096992
 20
-1506.0963842939045
 42
0.0085547317016555
 10
800.52650534630015
 20
-1505.7025093446728
 42
0.0084601156886596
 10
800.74748152374593
 20
-1505.3008824956337
 10
800.75559699757252
 20
-1505.2855228133676
 42
0.0081429654285137
 10
800.97884626800976
 20
-1504.8458013008274
 10
800.98770643219405
 20
-1504.8276224588076
 42
0.007657458132846
 10
801.21411394276799
 20
-1504.3444395835384
 10
801.22359358348444
 20
-1504.3233751052512
 42
0.0070682724200021
 10
801.45403849129582
 20
-1503.7913378004594
 10
801.46402877527294
 20
-1503.7673486114586
 42
0.0064559514447296
 10
801.69936198345408
 20
-1503.181036344941
 10
801.70977134161967
 20
-1503.1541014194972
 42
0.0058311413905672
 10
801.9508180783788
 20
-1502.5080693251236
 10
801.96157315576988
 20
-1502.4781849839533
 42
0.005231242581915
 10
802.20915443381011
 20
-1501.7669825701205
 10
802.22019827019062
 20
-1501.7341558580488
 42
0.0046680544796916
 10
802.47512669792013
 20
-1500.9523295423094
 10
802.51711884796782
 20
-1500.8193463050043
 42
0.0041666856446856
 10
802.72040486036349
 20
-1500.1563775299965
 10
802.75806730100282
 20
-1500.0297964224251
 42
0.0015170975150871
 10
802.8792538794404
 20
-1499.6179280708491
 42
-0.0004887993118447
 10
802.99959365248401
 20
-1499.2058096590793
 10
803.07607091005866
 20
-1498.944852272866
 42
0.0002583378928388
 10
803.34928548008202
 20
-1498.010795569827
 10
803.43105832972617
 20
-1497.7306963100125
 42
0.0006636169673093
 10
803.62492608971081
 20
-1497.0633433865169
 10
803.6300227440662
 20
-1497.0457118036081
 42
0.0010589131323065
 10
803.81147144497447
 20
-1496.412980460588
 10
803.8164535154574
 20
-1496.3954675535595
 42
0.0015655524460375
 10
803.98472372263768
 20
-1495.796850874367
 10
803.98955392304799
 20
-1495.7794587154478
 42
0.002164044047998
 10
804.1438438950388
 20
-1495.2144316974131
 10
804.14847811446521
 20
-1495.1971669674326
 42
0.0028763871852895
 10
804.28799383252158
 20
-1494.6651990165722
 10
804.29237969669384
 20
-1494.648075038398
 42
0.0037310511948932
 10
804.41633638852568
 20
-1494.1486274443937
 10
804.42041160881558
 20
-1494.1316671731445
 42
0.0047652197769774
 10
804.52803550932322
 20
-1493.6641894048432
 10
804.53172610864522
 20
-1493.6474298496994
 42
0.0060276699297394
 10
804.62225620780032
 20
-1493.211354054549
 10
804.62547489808856
 20
-1493.1948528402447
 42
0.007582433775786
 10
804.69816420750487
 20
-1492.7895856758137
 10
804.70080958488563
 20
-1492.7734307283602
 42
0.0095130624609296
 10
804.75492482051641
 20
-1492.3983413752912
 10
804.76191104439886
 20
-1492.3424078171754
 42
0.0121054653231359
 10
804.78850237497682
 20
-1492.077511988701
 10
804.78936886473673
 20
-1492.0661085457673
 42
0.0069050827390761
 10
804.804457682774
 20
-1491.8231673189275
 10
804.8055929824427
 20
-1491.7996410618782
 42
0.0169063976704182
 10
804.80842026142295
 20
-1491.603448334582
 10
804.80724960989141
 20
-1491.5431125732227
 42
0.0052007732884814
 10
804.80499616129862
 20
-1491.4675191830809
 42
0.0054038123303544
 10
804.78503264945584
 20
-1491.3475008870489
 10
804.77994679358926
 20
-1491.3188424004898
 42
0.0112050460462354
 10
804.74456243153168
 20
-1491.1425159621544
 10
804.72673746949022
 20
-1491.0629743754298
 42
0.0240764468003329
 10
804.63584010334432
 20
-1490.7327373399301
 10
804.61728134053078
 20
-1490.6761171749358
 42
0.0256812331831428
 10
804.47391842034108
 20
-1490.3043929686776
 10
804.46850899451954
 20
-1490.2922616336875
 42
0.0268360501219768
 10
804.29908175366973
 20
-1489.9612684996669
 10
804.29354534603476
 20
-1489.9517488293548
 42
0.0274670231731547
 10
804.1013443696213
 20
-1489.6594614544374
 10
804.09596306965921
 20
-1489.6521823068967
 42
0.0275035967105096
 10
803.88439019009684
 20
-1489.3966664165919
 10
803.87932068913108
 20
-1489.3911873289624
 42
0.0269557673522268
 10
803.65191714569073
 20
-1489.170545042999
 10
803.64717408790841
 20
-1489.1664150885385
 42
0.0259124802209581
 10
803.40761925647735
 20
-1488.9787245613861
 10
803.40308841129695
 20
-1488.9755390590569
 42
0.0245162153002108
 10
803.15517205820072
 20
-1488.8188060499451
 10
803.1506455118772
 20
-1488.8162458527447
 42
0.0229282588835084
 10
802.89822595504916
 20
-1488.6883776602454
 10
802.89344546121379
 20
-1488.6862253604841
 42
0.0212984135692005
 10
802.64040750875074
 20
-1488.5850264432411
 10
802.63510322378102
 20
-1488.583162880481
 42
0.0197555462337505
 10
802.38532488605824
 20
-1488.5063474625163
 42
0.0183511896786094
 10
802.13039616059291
 20
-1488.4487645555505
 10
802.04403096387296
 20
-1488.4325617651662
 42
0.0338057877151259
 10
801.7585236146117
 20
-1488.3987533600257
 10
801.6675182095737
 20
-1488.3941737047642
 42
0.0091990524484092
 10
801.56167110093577
 20
-1488.3907978488421
 42
0.0028333980771506
 10
801.45575718495923
 20
-1488.3899697413253
 10
801.45484173189357
 20
-1488.3899677715012
 42
-0.0023619827814587
 10
801.34709571680889
 20
-1488.3892269304231
 10
801.3106905466118
 20
-1488.3888046239599
 42
0.0008824598483096
 10
801.13013455674934
 20
-1488.3870288457215
 10
801.0862731243559
 20
-1488.3866748841961
 42
0.0038132665772587
 10
800.81799022846735
 20
-1488.3865559481294
 10
800.80145657368359
 20
-1488.3866747142729
 42
0.0060665569335271
 10
800.50017608209669
 20
-1488.3924950136936
 10
800.48592575006694
 20
-1488.3929433216613
 42
0.0080356953337275
 10
800.15646703372931
 20
-1488.4086110437281
 10
800.14439701864046
 20
-1488.4093796266686
 42
0.0098996399105111
 10
799.79163393398937
 20
-1488.4388648558668
 10
799.78158822461489
 20
-1488.439905152065
 42
0.0117740981369384
 10
799.41043136626365
 20
-1488.4871973995953
 10
799.40220866978359
 20
-1488.4884425161656
 42
0.0137435215134525
 10
799.01761985030032
 20
-1488.5575394897269
 10
799.0109628111752
 20
-1488.5589253859607
 42
0.0158359869385519
 10
798.61796571737182
 20
-1488.6538174744419
 10
798.61255253050558
 20
-1488.6553074153121
 42
0.0180554124027553
 10
798.21623748589025
 20
-1488.7799454315516
 10
798.2116806978097
 20
-1488.781561467817
 42
0.0203657431281464
 10
797.81720318000043
 20
-1488.939821809332
 10
797.81305964099101
 20
-1488.9416834307749
 42
0.0226819684659627
 10
797.42562358478369
 20
-1489.1373260094479
 10
797.42142379376924
 20
-1489.1396916013655
 42
0.0248634984607869
 10
797.04624185258592
 20
-1489.3763182473144
 10
796.99804692380462
 20
-1489.4101752891381
 42
0.0267044190884865
 10
796.72375422688754
 20
-1489.6256156650065
 42
0.013930300219777
 10
796.46758706095329
 20
-1489.8628545059144
 10
796.46273367522781
 20
-1489.8676071687787
 42
0.0283460963440738
 10
796.21866108100005
 20
-1490.1353378292245
 10
796.17899257584406
 20
-1490.1841394066969
 42
0.0070695364826148
 10
796.10155534998421
 20
-1490.2822062226624
 42
0.0070695364826148
  0
LWPOLYLINE
  5
5E
100
AcDbEntity
  8
0
370
              15
390
0
  6
Continuous
 62
               7
100
AcDbPolyline
 90
      226
 70
             128
 10
792.57273491273781
 20
-1506.0037950288463
 42
-0.0026277636605367
 10
792.57265702893778
 20
-1505.9370231030771
 10
792.5728743871698
 20
-1505.88386788566
 42
-0.0088680296736281
 10
792.57665100346287
 20
-1505.7108521032594
 10
792.57899736257536
 20
-1505.6515720778034
 42
-0.0077381705618285
 10
792.59504347333848
 20
-1505.3603115820044
 10
792.59591138451151
 20
-1505.3480233483201
 42
-0.0068872530535502
 10
792.62254346425993
 20
-1505.0328015962489
 10
792.62374768844575
 20
-1505.0205606172326
 42
-0.0062130021489554
 10
792.66134140527413
 20
-1504.6816909259901
 10
792.66284530880876
 20
-1504.6695170540775
 42
-0.0056726929672385
 10
792.71176716831144
 20
-1504.3073218319603
 10
792.71354061395539
 20
-1504.2952280317186
 42
-0.0052341884490923
 10
792.77415120021703
 20
-1503.9100347761914
 10
792.77616918899207
 20
-1503.8980298462084
 42
-0.0049768450167615
 10
792.84890787041763
 20
-1503.4901852787798
 10
792.87315688514013
 20
-1503.3616372957699
 42
-0.0089029805628306
 10
793.0102377369318
 20
-1502.6998618483613
 10
793.04298311225341
 20
-1502.554830417824
 42
-0.0080318257099843
 10
793.27253172659277
 20
-1501.6091207859754
 10
793.28451665304237
 20
-1501.56299015078
 42
-0.0074265721317244
 10
793.5685281918918
 20
-1500.5329255724012
 10
793.5884077350097
 20
-1500.4647915118076
 42
-0.0069711922702235
 10
793.91571231351566
 20
-1499.3985237714824
 10
793.97566426061815
 20
-1499.2125024131212
 42
-0.0052070422896343
 10
794.20508948588053
 20
-1498.5252303360803
 10
794.2223706780494
 20
-1498.475203055473
 42
-0.0009167004450815
 10
794.42546256534206
 20
-1497.8907472073092
 42
-0.0025162726944289
 10
794.63256019560492
 20
-1497.3077059431457
 10
794.66978480740806
 20
-1497.2045563972467
 42
-0.0028212681458271
 10
794.91796072637317
 20
-1496.52882576507
 10
794.92779148912655
 20
-1496.5025183203861
 42
-0.0031964916819548
 10
795.16408374678622
 20
-1495.8823135582663
 10
795.17371820077904
 20
-1495.857503568139
 42
-0.0036281836452826
 10
795.39882416188641
 20
-1495.2900628872299
 10
795.40826257204719
 20
-1495.2667654557188
 42
-0.0041269166834245
 10
795.62288026870306
 20
-1494.7493245597489
 10
795.65551322511942
 20
-1494.6724461133979
 42
-0.0047472213057982
 10
795.81255803067745
 20
-1494.3120246455044
 10
795.81945211188531
 20
-1494.2966040481733
 42
-0.0025651659998588
 10
795.96781014573583
 20
-1493.9692759924239
 42
-0.0057144634997805
 10
796.12155983950856
 20
-1493.6444663190584
 10
796.14959054490544
 20
-1493.5869579366733
 42
-0.0065388068376705
 10
796.33305757264816
 20
-1493.2227254400023
 10
796.34151602842894
 20
-1493.2064658606284
 42
-0.0074510843020735
 10
796.51769827430451
 20
-1492.8797775795101
 10
796.5258779448427
 20
-1492.8651368022283
 42
-0.0084648979855246
 10
796.69551179793552
 20
-1492.57322779128
 10
796.70336792442026
 20
-1492.5602207996346
 42
-0.009563854280873
 10
796.86720337201791
 20
-1492.3003319276506
 10
796.87467831568733
 20
-1492.2889625661987
 42
-0.0107191626804538
 10
797.03347989607721
 20
-1492.058351331651
 10
797.04049662981208
 20
-1492.0486152392812
 42
-0.0118458573899708
 10
797.1950447283208
 20
-1491.8445430439758
 42
-0.0129184518202529
 10
797.35949735191525
 20
-1491.6483825278135
 10
797.38964212428925
 20
-1491.6142564489014
 42
-0.0217742579627699
 10
797.56625444662086
 20
-1491.4310496786557
 10
797.57699999107706
 20
-1491.4208328454567
 42
-0.0097266568655879
 10
797.74305760993684
 20
-1491.2689852710155
 42
-0.0187720905726258
 10
797.91740518582549
 20
-1491.1269164176272
 10
797.94811117649704
 20
-1491.1037573352328
 42
-0.0179428207521495
 10
798.18053189649675
 20
-1490.9412051581185
 10
798.18418422341028
 20
-1490.9388412232322
 42
-0.0170047877701169
 10
798.4199478609429
 20
-1490.7973807090793
 10
798.4237308496879
 20
-1490.795282404044
 42
-0.0160190788372599
 10
798.66063939732476
 20
-1490.673631102055
 42
-0.0151102861493827
 10
798.90467117977175
 20
-1490.5669483260001
 10
798.9570576819832
 20
-1490.5459081931056
 42
-0.0271945441887376
 10
799.31572024104162
 20
-1490.4240433823995
 10
799.38478504152988
 20
-1490.4046938411332
 42
-0.0237596594019817
 10
799.80058188855196
 20
-1490.3092431291516
 10
799.86864474228287
 20
-1490.2969884410247
 42
-0.0213715440551405
 10
800.15451967372769
 20
-1490.258041409515
 10
800.21466683995004
 20
-1490.2524516948138
 42
-0.0101465655813956
 10
800.38215937193991
 20
-1490.2403081515499
 10
800.39149975814405
 20
-1490.2398212365524
 42
-0.0100375910873824
 10
800.54065385870069
 20
-1490.2350454186276
 10
800.55091312837976
 20
-1490.2349229796132
 42
-0.0103625633382728
 10
800.67962112303599
 20
-1490.2360544131398
 10
800.70188677429587
 20
-1490.2367117716044
 42
-0.0115689250234468
 10
800.78593751183075
 20
-1490.2411412778497
 42
-0.0072438037436416
 10
800.86977579126108
 20
-1490.2487304775982
 10
800.88657630074272
 20
-1490.2504970203233
 42
-0.0217917313131857
 10
801.00314606405857
 20
-1490.2679169130449
 10
801.06874615462505
 20
-1490.2806635214592
 42
-0.0332943556750216
 10
801.27313831965148
 20
-1490.3347038127658
 10
801.30331088819844
 20
-1490.3448718898833
 42
-0.0184824084799397
 10
801.44181594466681
 20
-1490.3973229052708
 42
-0.0198002050688647
 10
801.57589028516793
 20
-1490.4602069654711
 10
801.57777692254308
 20
-1490.4611847523502
 42
-0.021224234298744
 10
801.70991586494119
 20
-1490.5369474911408
 10
801.71173116048863
 20
-1490.5380932933517
 42
-0.0226090605803585
 10
801.84023506171116
 20
-1490.627572936917
 10
801.84207950344762
 20
-1490.6289851899037
 42
-0.0238457052240634
 10
801.96526158474148
 20
-1490.7329810857668
 10
801.96721431329968
 20
-1490.7347959635322
 42
-0.0248160564160554
 10
802.08341582060018
 20
-1490.8540705647406
 10
802.08551945400245
 20
-1490.8564558984453
 42
-0.0254109591456964
 10
802.19312467186796
 20
-1490.9917442844089
 10
802.19537269378247
 20
-1490.9948858328103
 42
-0.0255528488285718
 10
802.29281937258042
 20
-1491.146912887046
 10
802.29515047249561
 20
-1491.1509944986519
 42
-0.0252146793215018
 10
802.38093149850488
 20
-1491.3204967446491
 10
802.38323373766241
 20
-1491.3256788265619
 42
-0.0244265635952481
 10
802.45588843142377
 20
-1491.513425398608
 10
802.46513483289266
 20
-1491.5412908169474
 42
-0.0231319612902572
 10
802.51105761188433
 20
-1491.704591863748
 42
-0.0112130424369731
 10
802.5456936344217
 20
-1491.8707954639319
 10
802.54689615953498
 20
-1491.8772920508241
 42
-0.0210527881235636
 10
802.57258263490598
 20
-1492.0583476962656
 10
802.5760932297278
 20
-1492.0937532448124
 42
-0.0190029892420798
 10
802.59153470327226
 20
-1492.3472890910841
 10
802.59234467971635
 20
-1492.3827647054536
 42
-0.0137974553663365
 10
802.59079582688082
 20
-1492.7077961121863
 10
802.58995037192506
 20
-1492.7339148567851
 42
-0.0081336634214321
 10
802.5750910367027
 20
-1493.0392623243793
 42
-0.0073526923575783
 10
802.55078250332804
 20
-1493.3440105686657
 10
802.54952107954534
 20
-1493.3573472433304
 42
-0.0066886138691963
 10
802.51378549349909
 20
-1493.6879332868261
 10
802.512128404029
 20
-1493.7015549058192
 42
-0.0061359187351321
 10
802.46427780197848
 20
-1494.0583188859166
 10
802.46224030090525
 20
-1494.0722136887484
 42
-0.0056698610067586
 10
802.40158997013782
 20
-1494.4554922575878
 10
802.39918453681503
 20
-1494.4696513768172
 42
-0.0052721077274825
 10
802.32505233601717
 20
-1494.8797787164858
 10
802.32228918717374
 20
-1494.8941953518811
 42
-0.0049289272177981
 10
802.23399506907572
 20
-1495.3315038629942
 10
802.23088257439122
 20
-1495.3461727158192
 42
-0.0047415956712962
 10
802.12764458286063
 20
-1495.8109694732218
 10
802.09287637249906
 20
-1495.960776568613
 42
-0.0084404470902072
 10
801.90285992892575
 20
-1496.7210005931497
 10
801.89673324094156
 20
-1496.7438647172976
 42
-0.0039635940261074
 10
801.67527955666401
 20
-1497.5448535815221
 10
801.66190276147802
 20
-1497.5917851981367
 42
-0.0072475040837414
 10
801.39445587361661
 20
-1498.4810049145221
 10
801.32424354679142
 20
-1498.7027452644872
 42
-0.0051345458829167
 10
801.03748417472866
 20
-1499.5770704523102
 10
801.01595790795545
 20
-1499.6404967194569
 42
-0.001915001660091
 10
800.76042450109446
 20
-1500.3840458396662
 10
800.7539568967062
 20
-1500.4026333045647
 42
-0.0021524362752494
 10
800.50547884563434
 20
-1501.1069591262958
 10
800.49626842493899
 20
-1501.1327127045943
 42
-0.0024331286821697
 10
800.26001316590191
 20
-1501.7833120127152
 10
800.25096521335081
 20
-1501.8078553190712
 42
-0.0027449721790295
 10
800.02635064251604
 20
-1502.4069851979941
 10
800.01746063512621
 20
-1502.4303077878401
 42
-0.0031083229768623
 10
799.80391814851384
 20
-1502.980231825426
 10
799.79518201682902
 20
-1503.0023215413071
 42
-0.003531134328097
 10
799.59214083124652
 20
-1503.5053046670139
 10
799.58355549209466
 20
-1503.5261473905343
 42
-0.0040245640948412
 10
799.39044368830434
 20
-1503.9844567131167
 10
799.38200757470486
 20
-1504.0040360811806
 42
-0.0046015135851809
 10
799.19825128153752
 20
-1504.4199411108309
 10
799.18996510371073
 20
-1504.4382382502797
 42
-0.0052768638271078
 10
799.01498758475373
 20
-1504.8140111345533
 10
799.00685537413051
 20
-1504.8310044730888
 42
-0.0060672675639297
 10
798.84007576136082
 20
-1505.1689200962107
 10
798.83210628088375
 20
-1505.1845853551993
 42
-0.0069904648874115
 10
798.67293788687766
 20
-1505.4869211618716
 10
798.66514648726741
 20
-1505.5012317110979
 42
-0.0080637022773972
 10
798.512994626921
 20
-1505.7702670142521
 10
798.50540559428805
 20
-1505.783194879856
 42
-0.0093006455661707
 10
798.35966491775832
 20
-1506.0212092783559
 10
798.35231425101824
 20
-1506.0327272475233
 42
-0.0107060778055997
 10
798.21236570757628
 20
-1506.2419975649082
 10
798.20530393929846
 20
-1506.2520831074714
 42
-0.0122723111422582
 10
798.0705102210984
 20
-1506.4348764369629
 10
798.07018399754725
 20
-1506.4352968247688
 42
-0.0141836319632339
 10
797.92660239457041
 20
-1506.6098665826021
 10
797.91965463892177
 20
-1506.6178415828631
 42
-0.0175957477206565
 10
797.77974847088376
 20
-1506.7674624712718
 42
-0.0080466359669978
 10
797.63228470584932
 20
-1506.9097849994268
 10
797.58625016133601
 20
-1506.9528054375141
 42
-0.026960026039924
 10
797.33296991535917
 20
-1507.1651286960189
 10
797.26640277906154
 20
-1507.2150801106432
 42
-0.0178362839756416
 10
797.02645828940024
 20
-1507.3820980368996
 10
797.01921331840003
 20
-1507.3867665491043
 42
-0.0174650732648025
 10
796.78287712095857
 20
-1507.5276275140636
 42
-0.0169240130164691
 10
796.5374108751015
 20
-1507.6519197738407
 10
796.49142471954292
 20
-1507.6732817294082
 42
-0.0318883036842573
 10
796.14107386392402
 20
-1507.809620038918
 10
796.07270832875781
 20
-1507.8313206593939
 42
-0.0284435909904055
 10
795.69665820246723
 20
-1507.9275380948684
 10
795.661500041968
 20
-1507.934431690697
 42
-0.0243909341014568
 10
795.34805658104972
 20
-1507.9801527217271
 10
795.29777585427951
 20
-1507.9849982686287
 42
-0.0196639292930947
 10
795.08218027675139
 20
-1507.9972465541423
 10
795.03035620558353
 20
-1507.9981498148791
 42
-0.010050151068168
 10
794.91793292392367
 20
-1507.9978494165259
 10
794.8862730625666
 20
-1507.9971283446405
 42
-0.0019752031088803
 10
794.83718072589818
 20
-1507.9958161844311
 10
794.83442042268098
 20
-1507.9957314926048
 42
0.0065378751988039
 10
794.79084384792122
 20
-1507.9949646013897
 42
-0.0167974694671258
 10
794.74731302499197
 20
-1507.9933047028637
 10
794.74323368572732
 20
-1507.9930116919686
 42
-0.0081283276309632
 10
794.69167388800133
 20
-1507.9884646983321
 10
794.67993431411037
 20
-1507.9872367807525
 42
-0.0126703440181637
 10
794.60521601831567
 20
-1507.9775019896808
 10
794.58242815064
 20
-1507.9739437337657
 42
-0.0117852088436947
 10
794.46288916481149
 20
-1507.9523807386095
 10
794.40750871304465
 20
-1507.941037198374
 42
-0.0251774592291686
 10
794.18066467403605
 20
-1507.8825391889409
 10
794.13594548418689
 20
-1507.8685723696062
 42
-0.0146525199883993
 10
793.94955249664724
 20
-1507.8043058424078
 42
-0.0166929435851517
 10
793.76757484051984
 20
-1507.7284987093528
 10
793.76291820924735
 20
-1507.726373808739
 42
-0.0191684358440045
 10
793.57773457799885
 20
-1507.6331377249492
 10
793.57440199224129
 20
-1507.6312964773956
 42
-0.0221181781816804
 10
793.3910916883375
 20
-1507.5191629790238
 10
793.38874188433056
 20
-1507.5175786810339
 42
-0.0254984685390277
 10
793.21245173394595
 20
-1507.3851675310648
 10
793.18996958624393
 20
-1507.3664152221286
 42
-0.0292492648808162
 10
793.06520064740027
 20
-1507.249322422485
 42
-0.0159048957498123
 10
792.95136064995029
 20
-1507.1213024308861
 10
792.95004185937091
 20
-1507.119720817866
 42
-0.0343813379564324
 10
792.84740459774457
 20
-1506.9778494920963
 10
792.81591306638347
 20
-1506.9273461000018
 42
-0.0369117275700415
 10
792.73002056448649
 20
-1506.7638688590539
 42
-0.0191751379910915
 10
792.66282717893046
 20
-1506.5914642530508
 10
792.66106385516991
 20
-1506.5863709083731
 42
-0.0378178042225907
 10
792.61126913638589
 20
-1506.3974301322921
 10
792.60527384065574
 20
-1506.3648695140962
 42
-0.0184846046481287
 10
792.58455664136113
 20
-1506.2231166935499
 42
-0.0179866351324217
 10
792.57422363628734
 20
-1506.0802258804677
 10
792.57416719384162
 20
-1506.0786681938562
 42
-0.0085497186109091
 10
792.57273491273781
 20
-1506.0037950288463
 42
-0.0085497186109091
  0
ENDBLK
  5
5F
100
AcDbEntity
  8
template
390
0
100
AcDbBlockEnd
  0
BLOCK
  5
60
100
AcDbEntity
  8
notes
390
0
100
AcDbBlockBegin
  2
*D3
 70
               1
 10
0.0
 20
0.0
 30
0.0
  3
*D3
  1

  0
LINE
  5
61
100
AcDbEntity
  8
0
370
              -2
390
0
  6
Continuous
 62
               0
100
AcDbLine
 10
-738.10474984565315
 20
579.87585675483319
 30
0.0
 11
-738.10474984565315
 21
994.29318239841609
 31
0.0
  0
LINE
  5
62
100
AcDbEntity
  8
0
370
              -2
390
0
  6
Continuous
 62
               0
100
AcDbLine
 10
-118.10474984565296
 20
579.87585675483319
 30
0.0
 11
-118.10474984565296
 21
994.29318239841609
 31
0.0
  0
LINE
  5
63
100
AcDbEntity
  8
0
370
              -2
390
0
  6
Continuous
 62
               0
100
AcDbLine
 10
-738.10474984565315
 20
994.29318239841609
 30
0.0
 11
-118.10474984565296
 21
994.29318239841609
 31
0.0
  0
CIRCLE
  5
64
102
{ACAD_REACTORS
330
65
102
}
100
AcDbEntity
  8
0
370
              -2
390
0
  6
Continuous
 62
               0
100
AcDbCircle
 10
-738.10474984565315
 20
994.29318239841609
 30
0.0
 40
1.9998779296875
  0
HATCH
  5
65
100
AcDbEntity
  8
0
370
              -2
390
0
  6
Continuous
 62
               0
100
AcDbHatch
 10
0.0
 20
0.0
 30
0.0
210
0.0
220
0.0
230
1.0
  2
SOLID
 70
               1
 71
               1
 91
        1
 92
        1
 93
        1
 72
               2
 10
-738.10474984565315
 20
994.29318239841609
 40
1.9998779296875
 50
0.0
 51
360.0
 73
               0
 97
        1
330
64
 75
               0
 76
               1
 98
        1
 10
0.0
 20
0.0
  0
CIRCLE
  5
66
102
{ACAD_REACTORS
330
67
102
}
100
AcDbEntity
  8
0
370
              -2
390
0
  6
Continuous
 62
               0
100
AcDbCircle
 10
-118.10474984565296
 20
994.29318239841609
 30
0.0
 40
1.9998779296875
  0
HATCH
  5
67
100
AcDbEntity
  8
0
370
              -2
390
0
  6
Continuous
 62
               0
100
AcDbHatch
 10
0.0
 20
0.0
 30
0.0
210
0.0
220
0.0
230
1.0
  2
SOLID
 70
               1
 71
               1
 91
        1
 92
        1
 93
        1
 72
               2
 10
-118.10474984565296
 20
994.29318239841609
 40
1.9998779296875
 50
0.0
 51
360.0
 73
               0
 97
        1
330
66
 75
               0
 76
               1
 98
        1
 10
0.0
 20
0.0
  0
MTEXT
  5
68
100
AcDbEntity
  8
0
390
0
 62
               0
100
AcDbMText
 10
-455.61653655646347
 20
1028.170799585916
 30
0.0
 40
24.432617187500004
 41
0.0
 71
               1
 72
               1
  1
620
  7
ＭＳゴシック
 73
               1
 44
0.7828267384257843
  0
POINT
  5
69
100
AcDbEntity
  8
Defpoints
370
               0
390
0
 62
               0
100
AcDbPoint
 10
-118.10474984565296
 20
554.87585675483319
 30
0.0
  0
POINT
  5
6A
100
AcDbEntity
  8
Defpoints
370
               0
390
0
 62
               0
100
AcDbPoint
 10
-738.10474984565315
 20
554.87585675483319
 30
0.0
  0
POINT
  5
6B
100
AcDbEntity
  8
Defpoints
370
               0
390
0
 62
               0
100
AcDbPoint
 10
-738.10474984565315
 20
994.29318239841609
 30
0.0
  0
ENDBLK
  5
6C
100
AcDbEntity
  8
notes
390
0
100
AcDbBlockEnd
  0
BLOCK
  5
6D
100
AcDbEntity
  8
notes
390
0
100
AcDbBlockBegin
  2
*D4
 70
               1
 10
0.0
 20
0.0
 30
0.0
  3
*D4
  1

  0
LINE
  5
6E
100
AcDbEntity
  8
0
370
              -2
390
0
  6
Continuous
 62
               0
100
AcDbLine
 10
-428.10474984565309
 20
771.79318239841621
 30
0.0
 11
-428.10474984565309
 21
894.29318239841643
 31
0.0
  0
LINE
  5
6F
100
AcDbEntity
  8
0
370
              -2
390
0
  6
Continuous
 62
               0
100
AcDbLine
 10
-328.10474984565298
 20
771.79318239841621
 30
0.0
 11
-328.10474984565298
 21
894.29318239841643
 31
0.0
  0
LINE
  5
70
100
AcDbEntity
  8
0
370
              -2
390
0
  6
Continuous
 62
               0
100
AcDbLine
 10
-428.10474984565309
 20
894.29318239841643
 30
0.0
 11
-328.10474984565298
 21
894.29318239841643
 31
0.0
  0
CIRCLE
  5
71
102
{ACAD_REACTORS
330
72
102
}
100
AcDbEntity
  8
0
370
              -2
390
0
  6
Continuous
 62
               0
100
AcDbCircle
 10
-428.10474984565309
 20
894.29318239841643
 30
0.0
 40
1.9998779296875
  0
HATCH
  5
72
100
AcDbEntity
  8
0
370
              -2
390
0
  6
Continuous
 62
               0
100
AcDbHatch
 10
0.0
 20
0.0
 30
0.0
210
0.0
220
0.0
230
1.0
  2
SOLID
 70
               1
 71
               1
 91
        1
 92
        1
 93
        1
 72
               2
 10
-428.10474984565309
 20
894.29318239841643
 40
1.9998779296875
 50
0.0
 51
360.0
 73
               0
 97
        1
330
71
 75
               0
 76
               1
 98
        1
 10
0.0
 20
0.0
  0
CIRCLE
  5
73
102
{ACAD_REACTORS
330
74
102
}
100
AcDbEntity
  8
0
370
              -2
390
0
  6
Continuous
 62
               0
100
AcDbCircle
 10
-328.10474984565298
 20
894.29318239841643
 30
0.0
 40
1.9998779296875
  0
HATCH
  5
74
100
AcDbEntity
  8
0
370
              -2
390
0
  6
Continuous
 62
               0
100
AcDbHatch
 10
0.0
 20
0.0
 30
0.0
210
0.0
220
0.0
230
1.0
  2
SOLID
 70
               1
 71
               1
 91
        1
 92
        1
 93
        1
 72
               2
 10
-328.10474984565298
 20
894.29318239841643
 40
1.9998779296875
 50
0.0
 51
360.0
 73
               0
 97
        1
330
73
 75
               0
 76
               1
 98
        1
 10
0.0
 20
0.0
  0
MTEXT
  5
75
100
AcDbEntity
  8
0
390
0
 62
               0
100
AcDbMText
 10
-401.91725152782857
 20
928.17079958591648
 30
0.0
 40
24.432617187500004
 41
0.0
 71
               1
 72
               1
  1
100
  7
ＭＳゴシック
 73
               1
 44
0.7828267384257843
  0
POINT
  5
76
100
AcDbEntity
  8
Defpoints
370
               0
390
0
 62
               0
100
AcDbPoint
 10
-328.10474984565298
 20
746.79318239841621
 30
0.0
  0
POINT
  5
77
100
AcDbEntity
  8
Defpoints
370
               0
390
0
 62
               0
100
AcDbPoint
 10
-428.10474984565309
 20
746.79318239841621
 30
0.0
  0
POINT
  5
78
100
AcDbEntity
  8
Defpoints
370
               0
390
0
 62
               0
100
AcDbPoint
 10
-428.10474984565309
 20
894.29318239841643
 30
0.0
  0
ENDBLK
  5
79
100
AcDbEntity
  8
notes
390
0
100
AcDbBlockEnd
  0
BLOCK
  5
7A
100
AcDbEntity
  8
notes
390
0
100
AcDbBlockBegin
  2
*D5
 70
               1
 10
0.0
 20
0.0
 30
0.0
  3
*D5
  1

  0
LINE
  5
7B
100
AcDbEntity
  8
0
370
              -2
390
0
  6
Continuous
 62
               0
100
AcDbLine
 10
-428.10474984565309
 20
771.79318239841621
 30
0.0
 11
-428.10474984565309
 21
894.29318239841643
 31
0.0
  0
LINE
  5
7C
100
AcDbEntity
  8
0
370
              -2
390
0
  6
Continuous
 62
               0
100
AcDbLine
 10
-528.10474984565292
 20
771.79318239841621
 30
0.0
 11
-528.10474984565292
 21
894.29318239841643
 31
0.0
  0
LINE
  5
7D
100
AcDbEntity
  8
0
370
              -2
390
0
  6
Continuous
 62
               0
100
AcDbLine
 10
-428.10474984565309
 20
894.29318239841643
 30
0.0
 11
-528.10474984565292
 21
894.29318239841643
 31
0.0
  0
CIRCLE
  5
7E
102
{ACAD_REACTORS
330
7F
102
}
100
AcDbEntity
  8
0
370
              -2
390
0
  6
Continuous
 62
               0
100
AcDbCircle
 10
-428.10474984565309
 20
894.29318239841643
 30
0.0
 40
1.9998779296875
  0
HATCH
  5
7F
100
AcDbEntity
  8
0
370
              -2
390
0
  6
Continuous
 62
               0
100
AcDbHatch
 10
0.0
 20
0.0
 30
0.0
210
0.0
220
0.0
230
1.0
  2
SOLID
 70
               1
 71
               1
 91
        1
 92
        1
 93
        1
 72
               2
 10
-428.10474984565309
 20
894.29318239841643
 40
1.9998779296875
 50
0.0
 51
360.0
 73
               0
 97
        1
330
7E
 75
               0
 76
               1
 98
        1
 10
0.0
 20
0.0
  0
CIRCLE
  5
80
102
{ACAD_REACTORS
330
81
102
}
100
AcDbEntity
  8
0
370
              -2
390
0
  6
Continuous
 62
               0
100
AcDbCircle
 10
-528.10474984565292
 20
894.29318239841643
 30
0.0
 40
1.9998779296875
  0
HATCH
  5
81
100
AcDbEntity
  8
0
370
              -2
390
0
  6
Continuous
 62
               0
100
AcDbHatch
 10
0.0
 20
0.0
 30
0.0
210
0.0
220
0.0
230
1.0
  2
SOLID
 70
               1
 71
               1
 91
        1
 92
        1
 93
        1
 72
               2
 10
-528.10474984565292
 20
894.29318239841643
 40
1.9998779296875
 50
0.0
 51
360.0
 73
               0
 97
        1
330
80
 75
               0
 76
               1
 98
        1
 10
0.0
 20
0.0
  0
MTEXT
  5
82
100
AcDbEntity
  8
0
390
0
 62
               0
100
AcDbMText
 10
-501.91725152782845
 20
928.17079958591648
 30
0.0
 40
24.432617187500004
 41
0.0
 71
               1
 72
               1
  1
100
  7
ＭＳゴシック
 73
               1
 44
0.7828267384257843
  0
POINT
  5
83
100
AcDbEntity
  8
Defpoints
370
               0
390
0
 62
               0
100
AcDbPoint
 10
-528.10474984565292
 20
746.79318239841621
 30
0.0
  0
POINT
  5
84
100
AcDbEntity
  8
Defpoints
370
               0
390
0
 62
               0
100
AcDbPoint
 10
-428.10474984565309
 20
746.79318239841621
 30
0.0
  0
POINT
  5
85
100
AcDbEntity
  8
Defpoints
370
               0
390
0
 62
               0
100
AcDbPoint
 10
-428.10474984565309
 20
894.29318239841643
 30
0.0
  0
ENDBLK
  5
86
100
AcDbEntity
  8
notes
390
0
100
AcDbBlockEnd
  0
BLOCK
  5
87
100
AcDbEntity
  8
notes
390
0
100
AcDbBlockBegin
  2
*D6
 70
               1
 10
0.0
 20
0.0
 30
0.0
  3
*D6
  1

  0
LINE
  5
88
100
AcDbEntity
  8
0
370
              -2
390
0
  6
Continuous
 62
               0
100
AcDbLine
 10
-416.99791486517091
 20
742.81679939670244
 30
0.0
 11
-338.57254906548695
 21
838.30706389502097
 31
0.0
  0
CIRCLE
  5
89
102
{ACAD_REACTORS
330
8A
102
}
100
AcDbEntity
  8
0
370
              -2
390
0
  6
Continuous
 62
               0
100
AcDbCircle
 10
-416.99791486517091
 20
742.81679939670244
 30
0.0
 40
1.9998779296875
  0
HATCH
  5
8A
100
AcDbEntity
  8
0
370
              -2
390
0
  6
Continuous
 62
               0
100
AcDbHatch
 10
0.0
 20
0.0
 30
0.0
210
0.0
220
0.0
230
1.0
  2
SOLID
 70
               1
 71
               1
 91
        1
 92
        1
 93
        1
 72
               2
 10
-416.99791486517091
 20
742.81679939670244
 40
1.9998779296875
 50
0.0
 51
360.0
 73
               0
 97
        1
330
89
 75
               0
 76
               1
 98
        1
 10
0.0
 20
0.0
  0
LINE
  5
8B
100
AcDbEntity
  8
0
370
              -2
390
0
  6
Continuous
 62
               0
100
AcDbLine
 10
-338.57254906548695
 20
838.30706389502097
 30
0.0
 11
-211.57254906548695
 21
838.30706389502097
 31
0.0
  0
MTEXT
  5
8C
100
AcDbEntity
  8
0
390
0
 62
               0
100
AcDbMText
 10
-275.07254906548695
 20
872.18468108252102
 30
0.0
 40
24.432617187500004
 41
0.0
 71
               1
 72
               1
  1
φ35
  7
ＭＳゴシック
 73
               1
 44
0.7828267384257843
  0
POINT
  5
8D
100
AcDbEntity
  8
Defpoints
370
               0
390
0
 62
               0
100
AcDbPoint
 10
-439.21158482613527
 20
715.76956540012998
 30
0.0
  0
POINT
  5
8E
100
AcDbEntity
  8
Defpoints
370
               0
390
0
 62
               0
100
AcDbPoint
 10
-416.99791486517091
 20
742.81679939670244
 30
0.0
  0
ENDBLK
  5
8F
100
AcDbEntity
  8
notes
390
0
100
AcDbBlockEnd
  0
BLOCK
  5
90
100
AcDbEntity
  8
notes
390
0
100
AcDbBlockBegin
  2
*D7
 70
               1
 10
0.0
 20
0.0
 30
0.0
  3
*D7
  1

  0
LINE
  5
91
100
AcDbEntity
  8
0
370
              -2
390
0
  6
Continuous
 62
               0
100
AcDbLine
 10
-653.07254906548599
 20
819.29318239841621
 30
0.0
 11
-653.07254906548599
 21
944.29318239841621
 31
0.0
  0
LINE
  5
92
100
AcDbEntity
  8
0
370
              -2
390
0
  6
Continuous
 62
               0
100
AcDbLine
 10
-203.07254906548593
 20
819.29318239841621
 30
0.0
 11
-203.07254906548593
 21
944.29318239841621
 31
0.0
  0
LINE
  5
93
100
AcDbEntity
  8
0
370
              -2
390
0
  6
Continuous
 62
               0
100
AcDbLine
 10
-653.07254906548599
 20
944.29318239841621
 30
0.0
 11
-203.07254906548593
 21
944.29318239841621
 31
0.0
  0
CIRCLE
  5
94
102
{ACAD_REACTORS
330
95
102
}
100
AcDbEntity
  8
0
370
              -2
390
0
  6
Continuous
 62
               0
100
AcDbCircle
 10
-653.07254906548599
 20
944.29318239841621
 30
0.0
 40
1.9998779296875
  0
HATCH
  5
95
100
AcDbEntity
  8
0
370
              -2
390
0
  6
Continuous
 62
               0
100
AcDbHatch
 10
0.0
 20
0.0
 30
0.0
210
0.0
220
0.0
230
1.0
  2
SOLID
 70
               1
 71
               1
 91
        1
 92
        1
 93
        1
 72
               2
 10
-653.07254906548599
 20
944.29318239841621
 40
1.9998779296875
 50
0.0
 51
360.0
 73
               0
 97
        1
330
94
 75
               0
 76
               1
 98
        1
 10
0.0
 20
0.0
  0
CIRCLE
  5
96
102
{ACAD_REACTORS
330
97
102
}
100
AcDbEntity
  8
0
370
              -2
390
0
  6
Continuous
 62
               0
100
AcDbCircle
 10
-203.07254906548593
 20
944.29318239841621
 30
0.0
 40
1.9998779296875
  0
HATCH
  5
97
100
AcDbEntity
  8
0
370
              -2
390
0
  6
Continuous
 62
               0
100
AcDbHatch
 10
0.0
 20
0.0
 30
0.0
210
0.0
220
0.0
230
1.0
  2
SOLID
 70
               1
 71
               1
 91
        1
 92
        1
 93
        1
 72
               2
 10
-203.07254906548593
 20
944.29318239841621
 40
1.9998779296875
 50
0.0
 51
360.0
 73
               0
 97
        1
330
96
 75
               0
 76
               1
 98
        1
 10
0.0
 20
0.0
  0
MTEXT
  5
98
100
AcDbEntity
  8
0
390
0
 62
               0
100
AcDbMText
 10
-451.88505074766152
 20
978.17079958591626
 30
0.0
 40
24.432617187500004
 41
0.0
 71
               1
 72
               1
  1
450
  7
ＭＳゴシック
 73
               1
 44
0.7828267384257843
  0
POINT
  5
99
100
AcDbEntity
  8
Defpoints
370
               0
390
0
 62
               0
100
AcDbPoint
 10
-203.07254906548593
 20
794.29318239841621
 30
0.0
  0
POINT
  5
9A
100
AcDbEntity
  8
Defpoints
370
               0
390
0
 62
               0
100
AcDbPoint
 10
-653.07254906548599
 20
794.29318239841621
 30
0.0
  0
POINT
  5
9B
100
AcDbEntity
  8
Defpoints
370
               0
390
0
 62
               0
100
AcDbPoint
 10
-653.07254906548599
 20
944.29318239841621
 30
0.0
  0
ENDBLK
  5
9C
100
AcDbEntity
  8
notes
390
0
100
AcDbBlockEnd
  0
BLOCK
  5
9D
100
AcDbEntity
  8
notes
390
0
100
AcDbBlockBegin
  2
*D8
 70
               1
 10
0.0
 20
0.0
 30
0.0
  3
*D8
  1

  0
LINE
  5
9E
100
AcDbEntity
  8
0
370
              -2
390
0
  6
Continuous
 62
               0
100
AcDbLine
 10
-178.10474984565298
 20
794.29318239841621
 30
0.0
 11
-18.104749845653018
 21
794.29318239841621
 31
0.0
  0
LINE
  5
9F
100
AcDbEntity
  8
0
370
              -2
390
0
  6
Continuous
 62
               0
100
AcDbLine
 10
-402.90403487428802
 20
314.29318239841609
 30
0.0
 11
-18.104749845653018
 21
314.29318239841609
 31
0.0
  0
LINE
  5
A0
100
AcDbEntity
  8
0
370
              -2
390
0
  6
Continuous
 62
               0
100
AcDbLine
 10
-18.104749845653018
 20
794.29318239841621
 30
0.0
 11
-18.104749845653018
 21
314.29318239841609
 31
0.0
  0
CIRCLE
  5
A1
102
{ACAD_REACTORS
330
A2
102
}
100
AcDbEntity
  8
0
370
              -2
390
0
  6
Continuous
 62
               0
100
AcDbCircle
 10
-18.104749845653018
 20
794.29318239841621
 30
0.0
 40
1.9998779296875
  0
HATCH
  5
A2
100
AcDbEntity
  8
0
370
              -2
390
0
  6
Continuous
 62
               0
100
AcDbHatch
 10
0.0
 20
0.0
 30
0.0
210
0.0
220
0.0
230
1.0
  2
SOLID
 70
               1
 71
               1
 91
        1
 92
        1
 93
        1
 72
               2
 10
-18.104749845653018
 20
794.29318239841621
 40
1.9998779296875
 50
0.0
 51
360.0
 73
               0
 97
        1
330
A1
 75
               0
 76
               1
 98
        1
 10
0.0
 20
0.0
  0
CIRCLE
  5
A3
102
{ACAD_REACTORS
330
A4
102
}
100
AcDbEntity
  8
0
370
              -2
390
0
  6
Continuous
 62
               0
100
AcDbCircle
 10
-18.104749845653018
 20
314.29318239841609
 30
0.0
 40
1.9998779296875
  0
HATCH
  5
A4
100
AcDbEntity
  8
0
370
              -2
390
0
  6
Continuous
 62
               0
100
AcDbHatch
 10
0.0
 20
0.0
 30
0.0
210
0.0
220
0.0
230
1.0
  2
SOLID
 70
               1
 71
               1
 91
        1
 92
        1
 93
        1
 72
               2
 10
-18.104749845653018
 20
314.29318239841609
 40
1.9998779296875
 50
0.0
 51
360.0
 73
               0
 97
        1
330
A3
 75
               0
 76
               1
 98
        1
 10
0.0
 20
0.0
  0
MTEXT
  5
A5
100
AcDbEntity
  8
0
390
0
 62
               0
100
AcDbMText
 10
-51.982367033153011
 20
530.48068071624061
 30
0.0
 40
24.432617187500004
 41
0.0
 71
               1
 72
               1
  1
480
  7
ＭＳゴシック
 11
0.0
 21
1.0
 31
0.0
 73
               1
 44
0.7828267384257843
  0
POINT
  5
A6
100
AcDbEntity
  8
Defpoints
370
               0
390
0
 62
               0
100
AcDbPoint
 10
-427.90403487428802
 20
314.29318239841609
 30
0.0
  0
POINT
  5
A7
100
AcDbEntity
  8
Defpoints
370
               0
390
0
 62
               0
100
AcDbPoint
 10
-203.10474984565298
 20
794.29318239841621
 30
0.0
  0
POINT
  5
A8
100
AcDbEntity
  8
Defpoints
370
               0
390
0
 62
               0
100
AcDbPoint
 10
-18.104749845653018
 20
794.29318239841621
 30
0.0
  0
ENDBLK
  5
A9
100
AcDbEntity
  8
notes
390
0
100
AcDbBlockEnd
  0
BLOCK
  5
AA
100
AcDbEntity
  8
notes
390
0
100
AcDbBlockBegin
  2
*D9
 70
               1
 10
0.0
 20
0.0
 30
0.0
  3
*D9
  1

  0
LINE
  5
AB
100
AcDbEntity
  8
0
370
              -2
390
0
  6
Continuous
 62
               0
100
AcDbLine
 10
-680.604034874288
 20
794.29318239841621
 30
0.0
 11
-838.10474984565326
 21
794.29318239841621
 31
0.0
  0
LINE
  5
AC
100
AcDbEntity
  8
0
370
              -2
390
0
  6
Continuous
 62
               0
100
AcDbLine
 10
-739.10565058708744
 20
659.29318239841609
 30
0.0
 11
-838.10474984565326
 21
659.29318239841609
 31
0.0
  0
LINE
  5
AD
100
AcDbEntity
  8
0
370
              -2
390
0
  6
Continuous
 62
               0
100
AcDbLine
 10
-838.10474984565326
 20
794.29318239841621
 30
0.0
 11
-838.10474984565326
 21
659.29318239841609
 31
0.0
  0
CIRCLE
  5
AE
102
{ACAD_REACTORS
330
AF
102
}
100
AcDbEntity
  8
0
370
              -2
390
0
  6
Continuous
 62
               0
100
AcDbCircle
 10
-838.10474984565326
 20
794.29318239841621
 30
0.0
 40
1.9998779296875
  0
HATCH
  5
AF
100
AcDbEntity
  8
0
370
              -2
390
0
  6
Continuous
 62
               0
100
AcDbHatch
 10
0.0
 20
0.0
 30
0.0
210
0.0
220
0.0
230
1.0
  2
SOLID
 70
               1
 71
               1
 91
        1
 92
        1
 93
        1
 72
               2
 10
-838.10474984565326
 20
794.29318239841621
 40
1.9998779296875
 50
0.0
 51
360.0
 73
               0
 97
        1
330
AE
 75
               0
 76
               1
 98
        1
 10
0.0
 20
0.0
  0
CIRCLE
  5
B0
102
{ACAD_REACTORS
330
B1
102
}
100
AcDbEntity
  8
0
370
              -2
390
0
  6
Continuous
 62
               0
100
AcDbCircle
 10
-838.10474984565326
 20
659.29318239841609
 30
0.0
 40
1.9998779296875
  0
HATCH
  5
B1
100
AcDbEntity
  8
0
370
              -2
390
0
  6
Continuous
 62
               0
100
AcDbHatch
 10
0.0
 20
0.0
 30
0.0
210
0.0
220
0.0
230
1.0
  2
SOLID
 70
               1
 71
               1
 91
        1
 92
        1
 93
        1
 72
               2
 10
-838.10474984565326
 20
659.29318239841609
 40
1.9998779296875
 50
0.0
 51
360.0
 73
               0
 97
        1
330
B0
 75
               0
 76
               1
 98
        1
 10
0.0
 20
0.0
  0
MTEXT
  5
B2
100
AcDbEntity
  8
0
390
0
 62
               0
100
AcDbMText
 10
-871.98236703315331
 20
702.98068071624073
 30
0.0
 40
24.432617187500004
 41
0.0
 71
               1
 72
               1
  1
135
  7
ＭＳゴシック
 11
0.0
 21
1.0
 31
0.0
 73
               1
 44
0.7828267384257843
  0
POINT
  5
B3
100
AcDbEntity
  8
Defpoints
370
               0
390
0
 62
               0
100
AcDbPoint
 10
-714.10565058708744
 20
659.29318239841609
 30
0.0
  0
POINT
  5
B4
100
AcDbEntity
  8
Defpoints
370
               0
390
0
 62
               0
100
AcDbPoint
 10
-655.604034874288
 20
794.29318239841621
 30
0.0
  0
POINT
  5
B5
100
AcDbEntity
  8
Defpoints
370
               0
390
0
 62
               0
100
AcDbPoint
 10
-838.10474984565326
 20
794.29318239841621
 30
0.0
  0
ENDBLK
  5
B6
100
AcDbEntity
  8
notes
390
0
100
AcDbBlockEnd
  0
BLOCK
  5
B7
100
AcDbEntity
  8
notes
390
0
100
AcDbBlockBegin
  2
*D10
 70
               1
 10
0.0
 20
0.0
 30
0.0
  3
*D10
  1

  0
LINE
  5
B8
100
AcDbEntity
  8
0
370
              -2
390
0
  6
Continuous
 62
               0
100
AcDbLine
 10
-739.1056505873247
 20
659.2931823977367
 30
0.0
 11
-838.10474984565315
 21
659.2931823977367
 31
0.0
  0
LINE
  5
B9
100
AcDbEntity
  8
0
370
              -2
390
0
  6
Continuous
 62
               0
100
AcDbLine
 10
-641.39942856461346
 20
354.2931823977367
 30
0.0
 11
-838.10474984565315
 21
354.2931823977367
 31
0.0
  0
LINE
  5
BA
100
AcDbEntity
  8
0
370
              -2
390
0
  6
Continuous
 62
               0
100
AcDbLine
 10
-838.10474984565315
 20
659.2931823977367
 30
0.0
 11
-838.10474984565315
 21
354.2931823977367
 31
0.0
  0
CIRCLE
  5
BB
102
{ACAD_REACTORS
330
BC
102
}
100
AcDbEntity
  8
0
370
              -2
390
0
  6
Continuous
 62
               0
100
AcDbCircle
 10
-838.10474984565315
 20
659.2931823977367
 30
0.0
 40
1.9998779296875
  0
HATCH
  5
BC
100
AcDbEntity
  8
0
370
              -2
390
0
  6
Continuous
 62
               0
100
AcDbHatch
 10
0.0
 20
0.0
 30
0.0
210
0.0
220
0.0
230
1.0
  2
SOLID
 70
               1
 71
               1
 91
        1
 92
        1
 93
        1
 72
               2
 10
-838.10474984565315
 20
659.2931823977367
 40
1.9998779296875
 50
0.0
 51
360.0
 73
               0
 97
        1
330
BB
 75
               0
 76
               1
 98
        1
 10
0.0
 20
0.0
  0
CIRCLE
  5
BD
102
{ACAD_REACTORS
330
BE
102
}
100
AcDbEntity
  8
0
370
              -2
390
0
  6
Continuous
 62
               0
100
AcDbCircle
 10
-838.10474984565315
 20
354.2931823977367
 30
0.0
 40
1.9998779296875
  0
HATCH
  5
BE
100
AcDbEntity
  8
0
370
              -2
390
0
  6
Continuous
 62
               0
100
AcDbHatch
 10
0.0
 20
0.0
 30
0.0
210
0.0
220
0.0
230
1.0
  2
SOLID
 70
               1
 71
               1
 91
        1
 92
        1
 93
        1
 72
               2
 10
-838.10474984565315
 20
354.2931823977367
 40
1.9998779296875
 50
0.0
 51
360.0
 73
               0
 97
        1
330
BD
 75
               0
 76
               1
 98
        1
 10
0.0
 20
0.0
  0
MTEXT
  5
BF
100
AcDbEntity
  8
0
390
0
 62
               0
100
AcDbMText
 10
-871.9823670331532
 20
482.98068071556111
 30
0.0
 40
24.432617187500004
 41
0.0
 71
               1
 72
               1
  1
305
  7
ＭＳゴシック
 11
0.0
 21
1.0
 31
0.0
 73
               1
 44
0.7828267384257843
  0
POINT
  5
C0
100
AcDbEntity
  8
Defpoints
370
               0
390
0
 62
               0
100
AcDbPoint
 10
-616.39942856461346
 20
354.2931823977367
 30
0.0
  0
POINT
  5
C1
100
AcDbEntity
  8
Defpoints
370
               0
390
0
 62
               0
100
AcDbPoint
 10
-714.1056505873247
 20
659.2931823977367
 30
0.0
  0
POINT
  5
C2
100
AcDbEntity
  8
Defpoints
370
               0
390
0
 62
               0
100
AcDbPoint
 10
-838.10474984565315
 20
659.2931823977367
 30
0.0
  0
ENDBLK
  5
C3
100
AcDbEntity
  8
notes
390
0
100
AcDbBlockEnd
  0
BLOCK
  5
C4
100
AcDbEntity
  8
notes
390
0
100
AcDbBlockBegin
  2
*D11
 70
               1
 10
0.0
 20
0.0
 30
0.0
  3
*D11
  1

  0
LINE
  5
C5
100
AcDbEntity
  8
0
370
              -2
390
0
  6
Continuous
 62
               0
100
AcDbLine
 10
534.53395380308552
 20
-421.62964300624583
 30
0.0
 11
506.72880359530308
 21
-421.62964300624583
 31
0.0
  0
LINE
  5
C6
100
AcDbEntity
  8
0
370
              -2
390
0
  6
Continuous
 62
               0
100
AcDbLine
 10
534.53395380308552
 20
-566.62964300624583
 30
0.0
 11
506.72880359530308
 21
-566.62964300624583
 31
0.0
  0
LINE
  5
C7
100
AcDbEntity
  8
0
370
              -2
390
0
  6
Continuous
 62
               0
100
AcDbLine
 10
506.72880359530308
 20
-421.62964300624583
 30
0.0
 11
506.72880359530308
 21
-271.46263179237633
 31
0.0
  0
LINE
  5
C8
100
AcDbEntity
  8
0
370
              -2
390
0
  6
Continuous
 62
               0
100
AcDbLine
 10
506.72880359530308
 20
-421.62964300624583
 30
0.0
 11
506.72880359530308
 21
-566.62964300624583
 31
0.0
  0
CIRCLE
  5
C9
102
{ACAD_REACTORS
330
CA
102
}
100
AcDbEntity
  8
0
370
              -2
390
0
  6
Continuous
 62
               0
100
AcDbCircle
 10
506.72880359530308
 20
-421.62964300624583
 30
0.0
 40
1.9998779296875
  0
HATCH
  5
CA
100
AcDbEntity
  8
0
370
              -2
390
0
  6
Continuous
 62
               0
100
AcDbHatch
 10
0.0
 20
0.0
 30
0.0
210
0.0
220
0.0
230
1.0
  2
SOLID
 70
               1
 71
               1
 91
        1
 92
        1
 93
        1
 72
               2
 10
506.72880359530308
 20
-421.62964300624583
 40
1.9998779296875
 50
0.0
 51
360.0
 73
               0
 97
        1
330
C9
 75
               0
 76
               1
 98
        1
 10
0.0
 20
0.0
  0
CIRCLE
  5
CB
102
{ACAD_REACTORS
330
CC
102
}
100
AcDbEntity
  8
0
370
              -2
390
0
  6
Continuous
 62
               0
100
AcDbCircle
 10
506.72880359530308
 20
-566.62964300624583
 30
0.0
 40
1.9998779296875
  0
HATCH
  5
CC
100
AcDbEntity
  8
0
370
              -2
390
0
  6
Continuous
 62
               0
100
AcDbHatch
 10
0.0
 20
0.0
 30
0.0
210
0.0
220
0.0
230
1.0
  2
SOLID
 70
               1
 71
               1
 91
        1
 92
        1
 93
        1
 72
               2
 10
506.72880359530308
 20
-566.62964300624583
 40
1.9998779296875
 50
0.0
 51
360.0
 73
               0
 97
        1
330
CB
 75
               0
 76
               1
 98
        1
 10
0.0
 20
0.0
  0
MTEXT
  5
CD
100
AcDbEntity
  8
0
390
0
 62
               0
100
AcDbMText
 10
472.85118640780308
 20
-414.33763179237633
 30
0.0
 40
24.432617187500004
 41
0.0
 71
               1
 72
               1
  1
145(深さ)
  7
ＭＳゴシック
 11
0.0
 21
1.0
 31
0.0
 73
               1
 44
0.7828267384257843
  0
POINT
  5
CE
100
AcDbEntity
  8
Defpoints
370
               0
390
0
 62
               0
100
AcDbPoint
 10
559.53395380308552
 20
-566.62964300624583
 30
0.0
  0
POINT
  5
CF
100
AcDbEntity
  8
Defpoints
370
               0
390
0
 62
               0
100
AcDbPoint
 10
559.53395380308552
 20
-421.62964300624583
 30
0.0
  0
POINT
  5
D0
100
AcDbEntity
  8
Defpoints
370
               0
390
0
 62
               0
100
AcDbPoint
 10
506.72880359530308
 20
-421.62964300624583
 30
0.0
  0
ENDBLK
  5
D1
100
AcDbEntity
  8
notes
390
0
100
AcDbBlockEnd
  0
BLOCK
  5
D2
100
AcDbEntity
  8
notes
390
0
100
AcDbBlockBegin
  2
*D12
 70
               1
 10
0.0
 20
0.0
 30
0.0
  3
*D12
  1

  0
LINE
  5
D3
100
AcDbEntity
  8
0
370
              -2
390
0
  6
Continuous
 62
               0
100
AcDbLine
 10
744.25582148869159
 20
-631.62964300624583
 30
0.0
 11
744.25582148869159
 21
-691.62964300624594
 31
0.0
  0
LINE
  5
D4
100
AcDbEntity
  8
0
370
              -2
390
0
  6
Continuous
 62
               0
100
AcDbLine
 10
524.25582148869171
 20
-631.62964300624583
 30
0.0
 11
524.25582148869171
 21
-691.62964300624594
 31
0.0
  0
LINE
  5
D5
100
AcDbEntity
  8
0
370
              -2
390
0
  6
Continuous
 62
               0
100
AcDbLine
 10
744.25582148869159
 20
-691.62964300624594
 30
0.0
 11
524.25582148869171
 21
-691.62964300624594
 31
0.0
  0
CIRCLE
  5
D6
102
{ACAD_REACTORS
330
D7
102
}
100
AcDbEntity
  8
0
370
              -2
390
0
  6
Continuous
 62
               0
100
AcDbCircle
 10
744.25582148869159
 20
-691.62964300624594
 30
0.0
 40
1.9998779296875
  0
HATCH
  5
D7
100
AcDbEntity
  8
0
370
              -2
390
0
  6
Continuous
 62
               0
100
AcDbHatch
 10
0.0
 20
0.0
 30
0.0
210
0.0
220
0.0
230
1.0
  2
SOLID
 70
               1
 71
               1
 91
        1
 92
        1
 93
        1
 72
               2
 10
744.25582148869159
 20
-691.62964300624594
 40
1.9998779296875
 50
0.0
 51
360.0
 73
               0
 97
        1
330
D6
 75
               0
 76
               1
 98
        1
 10
0.0
 20
0.0
  0
CIRCLE
  5
D8
102
{ACAD_REACTORS
330
D9
102
}
100
AcDbEntity
  8
0
370
              -2
390
0
  6
Continuous
 62
               0
100
AcDbCircle
 10
524.25582148869171
 20
-691.62964300624594
 30
0.0
 40
1.9998779296875
  0
HATCH
  5
D9
100
AcDbEntity
  8
0
370
              -2
390
0
  6
Continuous
 62
               0
100
AcDbHatch
 10
0.0
 20
0.0
 30
0.0
210
0.0
220
0.0
230
1.0
  2
SOLID
 70
               1
 71
               1
 91
        1
 92
        1
 93
        1
 72
               2
 10
524.25582148869171
 20
-691.62964300624594
 40
1.9998779296875
 50
0.0
 51
360.0
 73
               0
 97
        1
330
D8
 75
               0
 76
               1
 98
        1
 10
0.0
 20
0.0
  0
MTEXT
  5
DA
100
AcDbEntity
  8
0
390
0
 62
               0
100
AcDbMText
 10
610.443319806516
 20
-657.75202581874589
 30
0.0
 40
24.432617187500004
 41
0.0
 71
               1
 72
               1
  1
220
  7
ＭＳゴシック
 73
               1
 44
0.7828267384257843
  0
POINT
  5
DB
100
AcDbEntity
  8
Defpoints
370
               0
390
0
 62
               0
100
AcDbPoint
 10
524.25582148869171
 20
-606.62964300624583
 30
0.0
  0
POINT
  5
DC
100
AcDbEntity
  8
Defpoints
370
               0
390
0
 62
               0
100
AcDbPoint
 10
744.25582148869159
 20
-606.62964300624583
 30
0.0
  0
POINT
  5
DD
100
AcDbEntity
  8
Defpoints
370
               0
390
0
 62
               0
100
AcDbPoint
 10
744.25582148869159
 20
-691.62964300624594
 30
0.0
  0
ENDBLK
  5
DE
100
AcDbEntity
  8
notes
390
0
100
AcDbBlockEnd
  0
BLOCK
  5
DF
100
AcDbEntity
  8
notes
390
0
100
AcDbBlockBegin
  2
*D13
 70
               1
 10
0.0
 20
0.0
 30
0.0
  3
*D13
  1

  0
LINE
  5
E0
100
AcDbEntity
  8
0
370
              -2
390
0
  6
Continuous
 62
               0
100
AcDbLine
 10
744.25582148869137
 20
-400.62964300624583
 30
0.0
 11
744.25582148869137
 21
-321.62964300624571
 31
0.0
  0
LINE
  5
E1
100
AcDbEntity
  8
0
370
              -2
390
0
  6
Continuous
 62
               0
100
AcDbLine
 10
674.25582148869159
 20
-396.62964300624583
 30
0.0
 11
674.25582148869159
 21
-321.62964300624571
 31
0.0
  0
LINE
  5
E2
100
AcDbEntity
  8
0
370
              -2
390
0
  6
Continuous
 62
               0
100
AcDbLine
 10
744.25582148869137
 20
-321.62964300624571
 30
0.0
 11
674.25582148869159
 21
-321.62964300624571
 31
0.0
  0
CIRCLE
  5
E3
102
{ACAD_REACTORS
330
E4
102
}
100
AcDbEntity
  8
0
370
              -2
390
0
  6
Continuous
 62
               0
100
AcDbCircle
 10
744.25582148869137
 20
-321.62964300624571
 30
0.0
 40
1.9998779296875
  0
HATCH
  5
E4
100
AcDbEntity
  8
0
370
              -2
390
0
  6
Continuous
 62
               0
100
AcDbHatch
 10
0.0
 20
0.0
 30
0.0
210
0.0
220
0.0
230
1.0
  2
SOLID
 70
               1
 71
               1
 91
        1
 92
        1
 93
        1
 72
               2
 10
744.25582148869137
 20
-321.62964300624571
 40
1.9998779296875
 50
0.0
 51
360.0
 73
               0
 97
        1
330
E3
 75
               0
 76
               1
 98
        1
 10
0.0
 20
0.0
  0
CIRCLE
  5
E5
102
{ACAD_REACTORS
330
E6
102
}
100
AcDbEntity
  8
0
370
              -2
390
0
  6
Continuous
 62
               0
100
AcDbCircle
 10
674.25582148869159
 20
-321.62964300624571
 30
0.0
 40
1.9998779296875
  0
HATCH
  5
E6
100
AcDbEntity
  8
0
370
              -2
390
0
  6
Continuous
 62
               0
100
AcDbHatch
 10
0.0
 20
0.0
 30
0.0
210
0.0
220
0.0
230
1.0
  2
SOLID
 70
               1
 71
               1
 91
        1
 92
        1
 93
        1
 72
               2
 10
674.25582148869159
 20
-321.62964300624571
 40
1.9998779296875
 50
0.0
 51
360.0
 73
               0
 97
        1
330
E5
 75
               0
 76
               1
 98
        1
 10
0.0
 20
0.0
  0
MTEXT
  5
E7
100
AcDbEntity
  8
0
390
0
 62
               0
100
AcDbMText
 10
693.38082148869148
 20
-287.75202581874578
 30
0.0
 40
24.432617187500004
 41
0.0
 71
               1
 72
               1
  1
70
  7
ＭＳゴシック
 73
               1
 44
0.7828267384257843
  0
POINT
  5
E8
100
AcDbEntity
  8
Defpoints
370
               0
390
0
 62
               0
100
AcDbPoint
 10
674.25582148869159
 20
-421.62964300624583
 30
0.0
  0
POINT
  5
E9
100
AcDbEntity
  8
Defpoints
370
               0
390
0
 62
               0
100
AcDbPoint
 10
744.25582148869137
 20
-425.62964300624583
 30
0.0
  0
POINT
  5
EA
100
AcDbEntity
  8
Defpoints
370
               0
390
0
 62
               0
100
AcDbPoint
 10
744.25582148869137
 20
-321.62964300624571
 30
0.0
  0
ENDBLK
  5
EB
100
AcDbEntity
  8
notes
390
0
100
AcDbBlockEnd
  0
BLOCK
  5
EC
100
AcDbEntity
  8
notes
390
0
100
AcDbBlockBegin
  2
*D14
 70
               1
 10
0.0
 20
0.0
 30
0.0
  3
*D14
  1

  0
LINE
  5
ED
100
AcDbEntity
  8
0
370
              -2
390
0
  6
Continuous
 62
               0
100
AcDbLine
 10
-568.10474984565315
 20
-421.63763179237617
 30
0.0
 11
-568.10474984565315
 21
-321.60533446645957
 31
0.0
  0
LINE
  5
EE
100
AcDbEntity
  8
0
370
              -2
390
0
  6
Continuous
 62
               0
100
AcDbLine
 10
-288.10474984565303
 20
-421.63763179237617
 30
0.0
 11
-288.10474984565303
 21
-321.60533446645957
 31
0.0
  0
LINE
  5
EF
100
AcDbEntity
  8
0
370
              -2
390
0
  6
Continuous
 62
               0
100
AcDbLine
 10
-568.10474984565315
 20
-321.60533446645957
 30
0.0
 11
-288.10474984565303
 21
-321.60533446645957
 31
0.0
  0
CIRCLE
  5
F0
102
{ACAD_REACTORS
330
F1
102
}
100
AcDbEntity
  8
0
370
              -2
390
0
  6
Continuous
 62
               0
100
AcDbCircle
 10
-568.10474984565315
 20
-321.60533446645957
 30
0.0
 40
1.9998779296875
  0
HATCH
  5
F1
100
AcDbEntity
  8
0
370
              -2
390
0
  6
Continuous
 62
               0
100
AcDbHatch
 10
0.0
 20
0.0
 30
0.0
210
0.0
220
0.0
230
1.0
  2
SOLID
 70
               1
 71
               1
 91
        1
 92
        1
 93
        1
 72
               2
 10
-568.10474984565315
 20
-321.60533446645957
 40
1.9998779296875
 50
0.0
 51
360.0
 73
               0
 97
        1
330
F0
 75
               0
 76
               1
 98
        1
 10
0.0
 20
0.0
  0
CIRCLE
  5
F2
102
{ACAD_REACTORS
330
F3
102
}
100
AcDbEntity
  8
0
370
              -2
390
0
  6
Continuous
 62
               0
100
AcDbCircle
 10
-288.10474984565303
 20
-321.60533446645957
 30
0.0
 40
1.9998779296875
  0
HATCH
  5
F3
100
AcDbEntity
  8
0
370
              -2
390
0
  6
Continuous
 62
               0
100
AcDbHatch
 10
0.0
 20
0.0
 30
0.0
210
0.0
220
0.0
230
1.0
  2
SOLID
 70
               1
 71
               1
 91
        1
 92
        1
 93
        1
 72
               2
 10
-288.10474984565303
 20
-321.60533446645957
 40
1.9998779296875
 50
0.0
 51
360.0
 73
               0
 97
        1
330
F2
 75
               0
 76
               1
 98
        1
 10
0.0
 20
0.0
  0
MTEXT
  5
F4
100
AcDbEntity
  8
0
390
0
 62
               0
100
AcDbMText
 10
-451.91725152782857
 20
-287.72771727895952
 30
0.0
 40
24.432617187500004
 41
0.0
 71
               1
 72
               1
  1
280
  7
ＭＳゴシック
 73
               1
 44
0.7828267384257843
  0
POINT
  5
F5
100
AcDbEntity
  8
Defpoints
370
               0
390
0
 62
               0
100
AcDbPoint
 10
-288.10474984565303
 20
-446.63763179237617
 30
0.0
  0
POINT
  5
F6
100
AcDbEntity
  8
Defpoints
370
               0
390
0
 62
               0
100
AcDbPoint
 10
-568.10474984565315
 20
-446.63763179237617
 30
0.0
  0
POINT
  5
F7
100
AcDbEntity
  8
Defpoints
370
               0
390
0
 62
               0
100
AcDbPoint
 10
-568.10474984565315
 20
-321.60533446645957
 30
0.0
  0
ENDBLK
  5
F8
100
AcDbEntity
  8
notes
390
0
100
AcDbBlockEnd
  0
BLOCK
  5
F9
100
AcDbEntity
  8
notes
390
0
100
AcDbBlockBegin
  2
*D15
 70
               1
 10
0.0
 20
0.0
 30
0.0
  3
*D15
  1

  0
LINE
  5
FA
100
AcDbEntity
  8
0
370
              -2
390
0
  6
Continuous
 62
               0
100
AcDbLine
 10
-643.10474984565315
 20
-466.62901548513594
 30
0.0
 11
-833.90546481701836
 21
-466.62901548513594
 31
0.0
  0
LINE
  5
FB
100
AcDbEntity
  8
0
370
              -2
390
0
  6
Continuous
 62
               0
100
AcDbLine
 10
-759.70474984565328
 20
-421.62901548513594
 30
0.0
 11
-833.90546481701836
 21
-421.62901548513594
 31
0.0
  0
LINE
  5
FC
100
AcDbEntity
  8
0
370
              -2
390
0
  6
Continuous
 62
               0
100
AcDbLine
 10
-833.90546481701836
 20
-466.62901548513594
 30
0.0
 11
-833.90546481701836
 21
-421.62901548513594
 31
0.0
  0
CIRCLE
  5
FD
102
{ACAD_REACTORS
330
FE
102
}
100
AcDbEntity
  8
0
370
              -2
390
0
  6
Continuous
 62
               0
100
AcDbCircle
 10
-833.90546481701836
 20
-466.62901548513594
 30
0.0
 40
1.9998779296875
  0
HATCH
  5
FE
100
AcDbEntity
  8
0
370
              -2
390
0
  6
Continuous
 62
               0
100
AcDbHatch
 10
0.0
 20
0.0
 30
0.0
210
0.0
220
0.0
230
1.0
  2
SOLID
 70
               1
 71
               1
 91
        1
 92
        1
 93
        1
 72
               2
 10
-833.90546481701836
 20
-466.62901548513594
 40
1.9998779296875
 50
0.0
 51
360.0
 73
               0
 97
        1
330
FD
 75
               0
 76
               1
 98
        1
 10
0.0
 20
0.0
  0
CIRCLE
  5
FF
102
{ACAD_REACTORS
330
100
102
}
100
AcDbEntity
  8
0
370
              -2
390
0
  6
Continuous
 62
               0
100
AcDbCircle
 10
-833.90546481701836
 20
-421.62901548513594
 30
0.0
 40
1.9998779296875
  0
HATCH
  5
100
100
AcDbEntity
  8
0
370
              -2
390
0
  6
Continuous
 62
               0
100
AcDbHatch
 10
0.0
 20
0.0
 30
0.0
210
0.0
220
0.0
230
1.0
  2
SOLID
 70
               1
 71
               1
 91
        1
 92
        1
 93
        1
 72
               2
 10
-833.90546481701836
 20
-421.62901548513594
 40
1.9998779296875
 50
0.0
 51
360.0
 73
               0
 97
        1
330
FF
 75
               0
 76
               1
 98
        1
 10
0.0
 20
0.0
  0
MTEXT
  5
101
100
AcDbEntity
  8
0
390
0
 62
               0
100
AcDbMText
 10
-867.78308200451841
 20
-460.00401548513594
 30
0.0
 40
24.432617187500004
 41
0.0
 71
               1
 72
               1
  1
45
  7
ＭＳゴシック
 11
0.0
 21
1.0
 31
0.0
 73
               1
 44
0.7828267384257843
  0
POINT
  5
102
100
AcDbEntity
  8
Defpoints
370
               0
390
0
 62
               0
100
AcDbPoint
 10
-734.70474984565328
 20
-421.62901548513594
 30
0.0
  0
POINT
  5
103
100
AcDbEntity
  8
Defpoints
370
               0
390
0
 62
               0
100
AcDbPoint
 10
-618.10474984565315
 20
-466.62901548513594
 30
0.0
  0
POINT
  5
104
100
AcDbEntity
  8
Defpoints
370
               0
390
0
 62
               0
100
AcDbPoint
 10
-833.90546481701836
 20
-466.62901548513594
 30
0.0
  0
ENDBLK
  5
105
100
AcDbEntity
  8
notes
390
0
100
AcDbBlockEnd
  0
BLOCK
  5
106
100
AcDbEntity
  8
notes
390
0
100
AcDbBlockBegin
  2
*D16
 70
               1
 10
0.0
 20
0.0
 30
0.0
  3
*D16
  1

  0
LINE
  5
107
100
AcDbEntity
  8
0
370
              -2
390
0
  6
Continuous
 62
               0
100
AcDbLine
 10
243.25673885971804
 20
-421.62964300624583
 30
0.0
 11
164.2620775154067
 21
-421.62964300624583
 31
0.0
  0
LINE
  5
108
100
AcDbEntity
  8
0
370
              -2
390
0
  6
Continuous
 62
               0
100
AcDbLine
 10
291.72886217220588
 20
-591.62964300624583
 30
0.0
 11
164.2620775154067
 21
-591.62964300624583
 31
0.0
  0
LINE
  5
109
100
AcDbEntity
  8
0
370
              -2
390
0
  6
Continuous
 62
               0
100
AcDbLine
 10
164.2620775154067
 20
-421.62964300624583
 30
0.0
 11
164.2620775154067
 21
-591.62964300624583
 31
0.0
  0
CIRCLE
  5
10A
102
{ACAD_REACTORS
330
10B
102
}
100
AcDbEntity
  8
0
370
              -2
390
0
  6
Continuous
 62
               0
100
AcDbCircle
 10
164.2620775154067
 20
-421.62964300624583
 30
0.0
 40
1.9998779296875
  0
HATCH
  5
10B
100
AcDbEntity
  8
0
370
              -2
390
0
  6
Continuous
 62
               0
100
AcDbHatch
 10
0.0
 20
0.0
 30
0.0
210
0.0
220
0.0
230
1.0
  2
SOLID
 70
               1
 71
               1
 91
        1
 92
        1
 93
        1
 72
               2
 10
164.2620775154067
 20
-421.62964300624583
 40
1.9998779296875
 50
0.0
 51
360.0
 73
               0
 97
        1
330
10A
 75
               0
 76
               1
 98
        1
 10
0.0
 20
0.0
  0
CIRCLE
  5
10C
102
{ACAD_REACTORS
330
10D
102
}
100
AcDbEntity
  8
0
370
              -2
390
0
  6
Continuous
 62
               0
100
AcDbCircle
 10
164.2620775154067
 20
-591.62964300624583
 30
0.0
 40
1.9998779296875
  0
HATCH
  5
10D
100
AcDbEntity
  8
0
370
              -2
390
0
  6
Continuous
 62
               0
100
AcDbHatch
 10
0.0
 20
0.0
 30
0.0
210
0.0
220
0.0
230
1.0
  2
SOLID
 70
               1
 71
               1
 91
        1
 92
        1
 93
        1
 72
               2
 10
164.2620775154067
 20
-591.62964300624583
 40
1.9998779296875
 50
0.0
 51
360.0
 73
               0
 97
        1
330
10C
 75
               0
 76
               1
 98
        1
 10
0.0
 20
0.0
  0
MTEXT
  5
10E
100
AcDbEntity
  8
0
390
0
 62
               0
100
AcDbMText
 10
130.38446032790671
 20
-530.44214468842131
 30
0.0
 40
24.432617187500004
 41
0.0
 71
               1
 72
               1
  1
170
  7
ＭＳゴシック
 11
0.0
 21
1.0
 31
0.0
 73
               1
 44
0.7828267384257843
  0
POINT
  5
10F
100
AcDbEntity
  8
Defpoints
370
               0
390
0
 62
               0
100
AcDbPoint
 10
316.72886217220588
 20
-591.62964300624583
 30
0.0
  0
POINT
  5
110
100
AcDbEntity
  8
Defpoints
370
               0
390
0
 62
               0
100
AcDbPoint
 10
268.25673885971804
 20
-421.62964300624583
 30
0.0
  0
POINT
  5
111
100
AcDbEntity
  8
Defpoints
370
               0
390
0
 62
               0
100
AcDbPoint
 10
164.2620775154067
 20
-421.62964300624583
 30
0.0
  0
ENDBLK
  5
112
100
AcDbEntity
  8
notes
390
0
100
AcDbBlockEnd
  0
BLOCK
  5
113
100
AcDbEntity
  8
notes
390
0
100
AcDbBlockBegin
  2
*D17
 70
               1
 10
0.0
 20
0.0
 30
0.0
  3
*D17
  1

  0
LINE
  5
114
100
AcDbEntity
  8
0
370
              -2
390
0
  6
Continuous
 62
               0
100
AcDbLine
 10
-682.45116129432256
 20
378.66236820762367
 30
0.0
 11
-682.45116129432256
 21
214.29960269197497
 31
0.0
  0
LINE
  5
115
100
AcDbEntity
  8
0
370
              -2
390
0
  6
Continuous
 62
               0
100
AcDbLine
 10
-172.45116129432228
 20
378.66236820762367
 30
0.0
 11
-172.45116129432228
 21
214.29960269197497
 31
0.0
  0
LINE
  5
116
100
AcDbEntity
  8
0
370
              -2
390
0
  6
Continuous
 62
               0
100
AcDbLine
 10
-682.45116129432256
 20
214.29960269197497
 30
0.0
 11
-172.45116129432228
 21
214.29960269197497
 31
0.0
  0
CIRCLE
  5
117
102
{ACAD_REACTORS
330
118
102
}
100
AcDbEntity
  8
0
370
              -2
390
0
  6
Continuous
 62
               0
100
AcDbCircle
 10
-682.45116129432256
 20
214.29960269197497
 30
0.0
 40
1.9998779296875
  0
HATCH
  5
118
100
AcDbEntity
  8
0
370
              -2
390
0
  6
Continuous
 62
               0
100
AcDbHatch
 10
0.0
 20
0.0
 30
0.0
210
0.0
220
0.0
230
1.0
  2
SOLID
 70
               1
 71
               1
 91
        1
 92
        1
 93
        1
 72
               2
 10
-682.45116129432256
 20
214.29960269197497
 40
1.9998779296875
 50
0.0
 51
360.0
 73
               0
 97
        1
330
117
 75
               0
 76
               1
 98
        1
 10
0.0
 20
0.0
  0
CIRCLE
  5
119
102
{ACAD_REACTORS
330
11A
102
}
100
AcDbEntity
  8
0
370
              -2
390
0
  6
Continuous
 62
               0
100
AcDbCircle
 10
-172.45116129432228
 20
214.29960269197497
 30
0.0
 40
1.9998779296875
  0
HATCH
  5
11A
100
AcDbEntity
  8
0
370
              -2
390
0
  6
Continuous
 62
               0
100
AcDbHatch
 10
0.0
 20
0.0
 30
0.0
210
0.0
220
0.0
230
1.0
  2
SOLID
 70
               1
 71
               1
 91
        1
 92
        1
 93
        1
 72
               2
 10
-172.45116129432228
 20
214.29960269197497
 40
1.9998779296875
 50
0.0
 51
360.0
 73
               0
 97
        1
330
119
 75
               0
 76
               1
 98
        1
 10
0.0
 20
0.0
  0
MTEXT
  5
11B
100
AcDbEntity
  8
0
390
0
 62
               0
100
AcDbMText
 10
-456.11653655646336
 20
248.17721987947499
 30
0.0
 40
24.432617187500004
 41
0.0
 71
               1
 72
               1
  1
510
  7
ＭＳゴシック
 73
               1
 44
0.7828267384257843
  0
POINT
  5
11C
100
AcDbEntity
  8
Defpoints
370
               0
390
0
 62
               0
100
AcDbPoint
 10
-172.45116129432228
 20
403.66236820762367
 30
0.0
  0
POINT
  5
11D
100
AcDbEntity
  8
Defpoints
370
               0
390
0
 62
               0
100
AcDbPoint
 10
-682.45116129432256
 20
403.66236820762367
 30
0.0
  0
POINT
  5
11E
100
AcDbEntity
  8
Defpoints
370
               0
390
0
 62
               0
100
AcDbPoint
 10
-682.45116129432256
 20
214.29960269197497
 30
0.0
  0
ENDBLK
  5
11F
100
AcDbEntity
  8
notes
390
0
100
AcDbBlockEnd
  0
BLOCK
  5
120
100
AcDbEntity
  8
notes
390
0
100
AcDbBlockBegin
  2
*D18
 70
               1
 10
0.0
 20
0.0
 30
0.0
  3
*D18
  1

  0
LINE
  5
121
100
AcDbEntity
  8
0
370
              -2
390
0
  6
Continuous
 62
               0
100
AcDbLine
 10
-368.10474984565298
 20
-606.56194033216241
 30
0.0
 11
-13.905464817017943
 21
-606.56194033216241
 31
0.0
  0
LINE
  5
122
100
AcDbEntity
  8
0
370
              -2
390
0
  6
Continuous
 62
               0
100
AcDbLine
 10
-95.704749845652984
 20
-421.56194033216241
 30
0.0
 11
-13.905464817017943
 21
-421.56194033216241
 31
0.0
  0
LINE
  5
123
100
AcDbEntity
  8
0
370
              -2
390
0
  6
Continuous
 62
               0
100
AcDbLine
 10
-13.905464817017943
 20
-606.56194033216241
 30
0.0
 11
-13.905464817017943
 21
-421.56194033216241
 31
0.0
  0
CIRCLE
  5
124
102
{ACAD_REACTORS
330
125
102
}
100
AcDbEntity
  8
0
370
              -2
390
0
  6
Continuous
 62
               0
100
AcDbCircle
 10
-13.905464817017943
 20
-606.56194033216241
 30
0.0
 40
1.9998779296875
  0
HATCH
  5
125
100
AcDbEntity
  8
0
370
              -2
390
0
  6
Continuous
 62
               0
100
AcDbHatch
 10
0.0
 20
0.0
 30
0.0
210
0.0
220
0.0
230
1.0
  2
SOLID
 70
               1
 71
               1
 91
        1
 92
        1
 93
        1
 72
               2
 10
-13.905464817017943
 20
-606.56194033216241
 40
1.9998779296875
 50
0.0
 51
360.0
 73
               0
 97
        1
330
124
 75
               0
 76
               1
 98
        1
 10
0.0
 20
0.0
  0
CIRCLE
  5
126
102
{ACAD_REACTORS
330
127
102
}
100
AcDbEntity
  8
0
370
              -2
390
0
  6
Continuous
 62
               0
100
AcDbCircle
 10
-13.905464817017943
 20
-421.56194033216241
 30
0.0
 40
1.9998779296875
  0
HATCH
  5
127
100
AcDbEntity
  8
0
370
              -2
390
0
  6
Continuous
 62
               0
100
AcDbHatch
 10
0.0
 20
0.0
 30
0.0
210
0.0
220
0.0
230
1.0
  2
SOLID
 70
               1
 71
               1
 91
        1
 92
        1
 93
        1
 72
               2
 10
-13.905464817017943
 20
-421.56194033216241
 40
1.9998779296875
 50
0.0
 51
360.0
 73
               0
 97
        1
330
126
 75
               0
 76
               1
 98
        1
 10
0.0
 20
0.0
  0
MTEXT
  5
128
100
AcDbEntity
  8
0
390
0
 62
               0
100
AcDbMText
 10
-47.783082004517937
 20
-537.87444201433789
 30
0.0
 40
24.432617187500004
 41
0.0
 71
               1
 72
               1
  1
185
  7
ＭＳゴシック
 11
0.0
 21
1.0
 31
0.0
 73
               1
 44
0.7828267384257843
  0
POINT
  5
129
100
AcDbEntity
  8
Defpoints
370
               0
390
0
 62
               0
100
AcDbPoint
 10
-120.70474984565298
 20
-421.56194033216241
 30
0.0
  0
POINT
  5
12A
100
AcDbEntity
  8
Defpoints
370
               0
390
0
 62
               0
100
AcDbPoint
 10
-393.10474984565298
 20
-606.56194033216241
 30
0.0
  0
POINT
  5
12B
100
AcDbEntity
  8
Defpoints
370
               0
390
0
 62
               0
100
AcDbPoint
 10
-13.905464817017943
 20
-606.56194033216241
 30
0.0
  0
ENDBLK
  5
12C
100
AcDbEntity
  8
notes
390
0
100
AcDbBlockEnd
  0
BLOCK
  5
12D
100
AcDbEntity
  8
notes
390
0
100
AcDbBlockBegin
  2
*D19
 70
               1
 10
0.0
 20
0.0
 30
0.0
  3
*D19
  1

  0
LINE
  5
12E
100
AcDbEntity
  8
0
370
              -2
390
0
  6
Continuous
 62
               0
100
AcDbLine
 10
744.25582148869159
 20
-616.62964300624583
 30
0.0
 11
744.25582148869159
 21
-741.62964300624594
 31
0.0
  0
LINE
  5
12F
100
AcDbEntity
  8
0
370
              -2
390
0
  6
Continuous
 62
               0
100
AcDbLine
 10
314.25582148869097
 20
-616.62964300624583
 30
0.0
 11
314.25582148869097
 21
-741.62964300624594
 31
0.0
  0
LINE
  5
130
100
AcDbEntity
  8
0
370
              -2
390
0
  6
Continuous
 62
               0
100
AcDbLine
 10
744.25582148869159
 20
-741.62964300624594
 30
0.0
 11
314.25582148869097
 21
-741.62964300624594
 31
0.0
  0
CIRCLE
  5
131
102
{ACAD_REACTORS
330
132
102
}
100
AcDbEntity
  8
0
370
              -2
390
0
  6
Continuous
 62
               0
100
AcDbCircle
 10
744.25582148869159
 20
-741.62964300624594
 30
0.0
 40
1.9998779296875
  0
HATCH
  5
132
100
AcDbEntity
  8
0
370
              -2
390
0
  6
Continuous
 62
               0
100
AcDbHatch
 10
0.0
 20
0.0
 30
0.0
210
0.0
220
0.0
230
1.0
  2
SOLID
 70
               1
 71
               1
 91
        1
 92
        1
 93
        1
 72
               2
 10
744.25582148869159
 20
-741.62964300624594
 40
1.9998779296875
 50
0.0
 51
360.0
 73
               0
 97
        1
330
131
 75
               0
 76
               1
 98
        1
 10
0.0
 20
0.0
  0
CIRCLE
  5
133
102
{ACAD_REACTORS
330
134
102
}
100
AcDbEntity
  8
0
370
              -2
390
0
  6
Continuous
 62
               0
100
AcDbCircle
 10
314.25582148869097
 20
-741.62964300624594
 30
0.0
 40
1.9998779296875
  0
HATCH
  5
134
100
AcDbEntity
  8
0
370
              -2
390
0
  6
Continuous
 62
               0
100
AcDbHatch
 10
0.0
 20
0.0
 30
0.0
210
0.0
220
0.0
230
1.0
  2
SOLID
 70
               1
 71
               1
 91
        1
 92
        1
 93
        1
 72
               2
 10
314.25582148869097
 20
-741.62964300624594
 40
1.9998779296875
 50
0.0
 51
360.0
 73
               0
 97
        1
330
133
 75
               0
 76
               1
 98
        1
 10
0.0
 20
0.0
  0
MTEXT
  5
135
100
AcDbEntity
  8
0
390
0
 62
               0
100
AcDbMText
 10
505.44331980651572
 20
-707.75202581874589
 30
0.0
 40
24.432617187500004
 41
0.0
 71
               1
 72
               1
  1
430
  7
ＭＳゴシック
 73
               1
 44
0.7828267384257843
  0
POINT
  5
136
100
AcDbEntity
  8
Defpoints
370
               0
390
0
 62
               0
100
AcDbPoint
 10
314.25582148869097
 20
-591.62964300624583
 30
0.0
  0
POINT
  5
137
100
AcDbEntity
  8
Defpoints
370
               0
390
0
 62
               0
100
AcDbPoint
 10
744.25582148869159
 20
-591.62964300624583
 30
0.0
  0
POINT
  5
138
100
AcDbEntity
  8
Defpoints
370
               0
390
0
 62
               0
100
AcDbPoint
 10
744.25582148869159
 20
-741.62964300624594
 30
0.0
  0
ENDBLK
  5
139
100
AcDbEntity
  8
notes
390
0
100
AcDbBlockEnd
  0
BLOCK
  5
13A
100
AcDbEntity
  8
notes
390
0
100
AcDbBlockBegin
  2
*D20
 70
               1
 10
0.0
 20
0.0
 30
0.0
  3
*D20
  1

  0
LINE
  5
13B
100
AcDbEntity
  8
0
370
              -2
390
0
  6
Continuous
 62
               0
100
AcDbLine
 10
-663.07254906548599
 20
-616.6094311055266
 30
0.0
 11
-663.07254906548599
 21
-691.6094311055266
 31
0.0
  0
LINE
  5
13C
100
AcDbEntity
  8
0
370
              -2
390
0
  6
Continuous
 62
               0
100
AcDbLine
 10
-193.07254906548593
 20
-616.6094311055266
 30
0.0
 11
-193.07254906548593
 21
-691.6094311055266
 31
0.0
  0
LINE
  5
13D
100
AcDbEntity
  8
0
370
              -2
390
0
  6
Continuous
 62
               0
100
AcDbLine
 10
-663.07254906548599
 20
-691.6094311055266
 30
0.0
 11
-193.07254906548593
 21
-691.6094311055266
 31
0.0
  0
CIRCLE
  5
13E
102
{ACAD_REACTORS
330
13F
102
}
100
AcDbEntity
  8
0
370
              -2
390
0
  6
Continuous
 62
               0
100
AcDbCircle
 10
-663.07254906548599
 20
-691.6094311055266
 30
0.0
 40
1.9998779296875
  0
HATCH
  5
13F
100
AcDbEntity
  8
0
370
              -2
390
0
  6
Continuous
 62
               0
100
AcDbHatch
 10
0.0
 20
0.0
 30
0.0
210
0.0
220
0.0
230
1.0
  2
SOLID
 70
               1
 71
               1
 91
        1
 92
        1
 93
        1
 72
               2
 10
-663.07254906548599
 20
-691.6094311055266
 40
1.9998779296875
 50
0.0
 51
360.0
 73
               0
 97
        1
330
13E
 75
               0
 76
               1
 98
        1
 10
0.0
 20
0.0
  0
CIRCLE
  5
140
102
{ACAD_REACTORS
330
141
102
}
100
AcDbEntity
  8
0
370
              -2
390
0
  6
Continuous
 62
               0
100
AcDbCircle
 10
-193.07254906548593
 20
-691.6094311055266
 30
0.0
 40
1.9998779296875
  0
HATCH
  5
141
100
AcDbEntity
  8
0
370
              -2
390
0
  6
Continuous
 62
               0
100
AcDbHatch
 10
0.0
 20
0.0
 30
0.0
210
0.0
220
0.0
230
1.0
  2
SOLID
 70
               1
 71
               1
 91
        1
 92
        1
 93
        1
 72
               2
 10
-193.07254906548593
 20
-691.6094311055266
 40
1.9998779296875
 50
0.0
 51
360.0
 73
               0
 97
        1
330
140
 75
               0
 76
               1
 98
        1
 10
0.0
 20
0.0
  0
MTEXT
  5
142
100
AcDbEntity
  8
0
390
0
 62
               0
100
AcDbMText
 10
-451.88505074766152
 20
-657.73181391802655
 30
0.0
 40
24.432617187500004
 41
0.0
 71
               1
 72
               1
  1
470
  7
ＭＳゴシック
 73
               1
 44
0.7828267384257843
  0
POINT
  5
143
100
AcDbEntity
  8
Defpoints
370
               0
390
0
 62
               0
100
AcDbPoint
 10
-193.07254906548593
 20
-591.6094311055266
 30
0.0
  0
POINT
  5
144
100
AcDbEntity
  8
Defpoints
370
               0
390
0
 62
               0
100
AcDbPoint
 10
-663.07254906548599
 20
-591.6094311055266
 30
0.0
  0
POINT
  5
145
100
AcDbEntity
  8
Defpoints
370
               0
390
0
 62
               0
100
AcDbPoint
 10
-663.07254906548599
 20
-691.6094311055266
 30
0.0
  0
ENDBLK
  5
146
100
AcDbEntity
  8
notes
390
0
100
AcDbBlockEnd
  0
BLOCK
  5
147
100
AcDbEntity
  8
notes
390
0
100
AcDbBlockBegin
  2
*D21
 70
               1
 10
0.0
 20
0.0
 30
0.0
  3
*D21
  1

  0
LINE
  5
148
100
AcDbEntity
  8
0
370
              -2
390
0
  6
Continuous
 62
               0
100
AcDbLine
 10
311.32745093451393
 20
499.29318239841609
 30
0.0
 11
311.32745093451393
 21
424.29318239841609
 31
0.0
  0
LINE
  5
149
100
AcDbEntity
  8
0
370
              -2
390
0
  6
Continuous
 62
               0
100
AcDbLine
 10
661.32745093451388
 20
499.29318239841609
 30
0.0
 11
661.32745093451388
 21
424.29318239841609
 31
0.0
  0
LINE
  5
14A
100
AcDbEntity
  8
0
370
              -2
390
0
  6
Continuous
 62
               0
100
AcDbLine
 10
311.32745093451393
 20
424.29318239841609
 30
0.0
 11
661.32745093451388
 21
424.29318239841609
 31
0.0
  0
CIRCLE
  5
14B
102
{ACAD_REACTORS
330
14C
102
}
100
AcDbEntity
  8
0
370
              -2
390
0
  6
Continuous
 62
               0
100
AcDbCircle
 10
311.32745093451393
 20
424.29318239841609
 30
0.0
 40
1.9998779296875
  0
HATCH
  5
14C
100
AcDbEntity
  8
0
370
              -2
390
0
  6
Continuous
 62
               0
100
AcDbHatch
 10
0.0
 20
0.0
 30
0.0
210
0.0
220
0.0
230
1.0
  2
SOLID
 70
               1
 71
               1
 91
        1
 92
        1
 93
        1
 72
               2
 10
311.32745093451393
 20
424.29318239841609
 40
1.9998779296875
 50
0.0
 51
360.0
 73
               0
 97
        1
330
14B
 75
               0
 76
               1
 98
        1
 10
0.0
 20
0.0
  0
CIRCLE
  5
14D
102
{ACAD_REACTORS
330
14E
102
}
100
AcDbEntity
  8
0
370
              -2
390
0
  6
Continuous
 62
               0
100
AcDbCircle
 10
661.32745093451388
 20
424.29318239841609
 30
0.0
 40
1.9998779296875
  0
HATCH
  5
14E
100
AcDbEntity
  8
0
370
              -2
390
0
  6
Continuous
 62
               0
100
AcDbHatch
 10
0.0
 20
0.0
 30
0.0
210
0.0
220
0.0
230
1.0
  2
SOLID
 70
               1
 71
               1
 91
        1
 92
        1
 93
        1
 72
               2
 10
661.32745093451388
 20
424.29318239841609
 40
1.9998779296875
 50
0.0
 51
360.0
 73
               0
 97
        1
330
14D
 75
               0
 76
               1
 98
        1
 10
0.0
 20
0.0
  0
MTEXT
  5
14F
100
AcDbEntity
  8
0
390
0
 62
               0
100
AcDbMText
 10
462.51494925233834
 20
458.17079958591603
 30
0.0
 40
24.432617187500004
 41
0.0
 71
               1
 72
               1
  1
350
  7
ＭＳゴシック
 73
               1
 44
0.7828267384257843
  0
POINT
  5
150
100
AcDbEntity
  8
Defpoints
370
               0
390
0
 62
               0
100
AcDbPoint
 10
661.32745093451388
 20
524.29318239841609
 30
0.0
  0
POINT
  5
151
100
AcDbEntity
  8
Defpoints
370
               0
390
0
 62
               0
100
AcDbPoint
 10
311.32745093451393
 20
524.29318239841609
 30
0.0
  0
POINT
  5
152
100
AcDbEntity
  8
Defpoints
370
               0
390
0
 62
               0
100
AcDbPoint
 10
311.32745093451393
 20
424.29318239841609
 30
0.0
  0
ENDBLK
  5
153
100
AcDbEntity
  8
notes
390
0
100
AcDbBlockEnd
  0
BLOCK
  5
154
100
AcDbEntity
  8
notes
390
0
100
AcDbBlockBegin
  2
*D22
 70
               1
 10
0.0
 20
0.0
 30
0.0
  3
*D22
  1

  0
LINE
  5
155
100
AcDbEntity
  8
0
370
              -2
390
0
  6
Continuous
 62
               0
100
AcDbLine
 10
686.32745093451388
 20
524.29318239841609
 30
0.0
 11
848.69663674372146
 21
524.29318239841609
 31
0.0
  0
LINE
  5
156
100
AcDbEntity
  8
0
370
              -2
390
0
  6
Continuous
 62
               0
100
AcDbLine
 10
686.32745093451388
 20
794.29318239841621
 30
0.0
 11
848.69663674372146
 21
794.29318239841621
 31
0.0
  0
LINE
  5
157
100
AcDbEntity
  8
0
370
              -2
390
0
  6
Continuous
 62
               0
100
AcDbLine
 10
848.69663674372146
 20
524.29318239841609
 30
0.0
 11
848.69663674372146
 21
794.29318239841621
 31
0.0
  0
CIRCLE
  5
158
102
{ACAD_REACTORS
330
159
102
}
100
AcDbEntity
  8
0
370
              -2
390
0
  6
Continuous
 62
               0
100
AcDbCircle
 10
848.69663674372146
 20
524.29318239841609
 30
0.0
 40
1.9998779296875
  0
HATCH
  5
159
100
AcDbEntity
  8
0
370
              -2
390
0
  6
Continuous
 62
               0
100
AcDbHatch
 10
0.0
 20
0.0
 30
0.0
210
0.0
220
0.0
230
1.0
  2
SOLID
 70
               1
 71
               1
 91
        1
 92
        1
 93
        1
 72
               2
 10
848.69663674372146
 20
524.29318239841609
 40
1.9998779296875
 50
0.0
 51
360.0
 73
               0
 97
        1
330
158
 75
               0
 76
               1
 98
        1
 10
0.0
 20
0.0
  0
CIRCLE
  5
15A
102
{ACAD_REACTORS
330
15B
102
}
100
AcDbEntity
  8
0
370
              -2
390
0
  6
Continuous
 62
               0
100
AcDbCircle
 10
848.69663674372146
 20
794.29318239841621
 30
0.0
 40
1.9998779296875
  0
HATCH
  5
15B
100
AcDbEntity
  8
0
370
              -2
390
0
  6
Continuous
 62
               0
100
AcDbHatch
 10
0.0
 20
0.0
 30
0.0
210
0.0
220
0.0
230
1.0
  2
SOLID
 70
               1
 71
               1
 91
        1
 92
        1
 93
        1
 72
               2
 10
848.69663674372146
 20
794.29318239841621
 40
1.9998779296875
 50
0.0
 51
360.0
 73
               0
 97
        1
330
15A
 75
               0
 76
               1
 98
        1
 10
0.0
 20
0.0
  0
MTEXT
  5
15C
100
AcDbEntity
  8
0
390
0
 62
               0
100
AcDbMText
 10
814.81901955622141
 20
635.48068071624061
 30
0.0
 40
24.432617187500004
 41
0.0
 71
               1
 72
               1
  1
270
  7
ＭＳゴシック
 11
0.0
 21
1.0
 31
0.0
 73
               1
 44
0.7828267384257843
  0
POINT
  5
15D
100
AcDbEntity
  8
Defpoints
370
               0
390
0
 62
               0
100
AcDbPoint
 10
661.32745093451388
 20
794.29318239841621
 30
0.0
  0
POINT
  5
15E
100
AcDbEntity
  8
Defpoints
370
               0
390
0
 62
               0
100
AcDbPoint
 10
661.32745093451388
 20
524.29318239841609
 30
0.0
  0
POINT
  5
15F
100
AcDbEntity
  8
Defpoints
370
               0
390
0
 62
               0
100
AcDbPoint
 10
848.69663674372146
 20
524.29318239841609
 30
0.0
  0
ENDBLK
  5
160
100
AcDbEntity
  8
notes
390
0
100
AcDbBlockEnd
  0
ENDSEC
  0
SECTION
  2
ENTITIES
  0
MTEXT
  5
161
100
AcDbEntity
  8
template
390
0
 62
               7
100
AcDbMText
 10
-967.9999999997591
 20
-1147.4176292337004
 30
0.0
 40
16.288411458333332
 41
0.0
 71
               1
 72
               1
  1
品名
  7
ＭＳ ゴシック
 73
               1
 44
0.7828267384257843
  0
MTEXT
  5
162
100
AcDbEntity
  8
template
390
0
 62
               7
100
AcDbMText
 10
-967.9999999997591
 20
-1232.4176292337004
 30
0.0
 40
16.288411458333332
 41
0.0
 71
               1
 72
               1
  1
仕様
  7
ＭＳ ゴシック
 73
               1
 44
0.7828267384257843
  0
MTEXT
  5
163
100
AcDbEntity
  8
template
390
0
 62
               7
100
AcDbMText
 10
-914.99999999975921
 20
-1176.0000901712006
 30
0.0
 40
24.432617187500004
 41
0.0
 71
               1
 72
               1
  1
洗面器 -CATALANO,Zero-
  7
ＭＳ ゴシック
 73
               1
 44
0.7828267384257843
  0
LINE
  5
164
100
AcDbEntity
  8
template
370
               5
390
0
  6
Continuous
 62
               7
100
AcDbLine
 10
974.99999999975876
 20
-1224.0027073587005
 30
0.0
 11
-975.00000000024113
 21
-1224.0027073587005
 31
0.0
  0
LWPOLYLINE
  5
165
100
AcDbEntity
  8
template
370
               5
390
0
  6
Continuous
 62
               7
100
AcDbPolyline
 90
        5
 70
             128
 10
975.00000000024124
 20
1405.9972926412995
 10
-974.9999999997591
 20
1405.9972926412995
 10
-974.9999999997591
 20
-1394.0027073587005
 10
975.00000000024124
 20
-1394.0027073587005
 10
975.00000000024124
 20
1405.9972926412995
  0
LINE
  5
166
100
AcDbEntity
  8
template
370
               5
390
0
  6
Continuous
 62
               7
100
AcDbLine
 10
974.99999999975876
 20
-1139.0027073587005
 30
0.0
 11
-975.00000000024113
 21
-1139.0027073587005
 31
0.0
  0
LINE
  5
167
100
AcDbEntity
  8
template
370
               5
390
0
  6
Continuous
 62
               7
100
AcDbLine
 10
975.00000000024124
 20
-1309.0027073587005
 30
0.0
 11
222.00000000024124
 21
-1309.0027073587005
 31
0.0
  0
MTEXT
  5
168
100
AcDbEntity
  8
template
390
0
 62
               7
100
AcDbMText
 10
-974.99999999955583
 20
-1405.8565294155574
 30
0.0
 40
21.717881944444446
 41
0.0
 71
               1
 72
               1
  1
100707SH
  7
ＭＳ ゴシック
 73
               1
 44
0.7828267384257843
  0
MTEXT
  5
169
100
AcDbEntity
  8
template
390
0
 62
               7
100
AcDbMText
 10
251.87140625250089
 20
-1338.9131018320081
 30
0.0
 40
24.432617187500004
 41
0.0
 71
               1
 72
               1
  1
大洋金物株式会社 ティーフォルム事業部
  7
ＭＳ ゴシック
 73
               1
 44
0.7828267384257843
  0
INSERT
  5
16A
100
AcDbEntity
  8
template
390
0
 62
               7
100
AcDbBlockReference
  2
グループ
 10
108.49477052499999
 20
144.914435
 30
0.0
  0
MTEXT
  5
16B
100
AcDbEntity
  8
template
390
0
 62
               7
100
AcDbMText
 10
784.00000000049999
 20
-1261.0000901712006
 30
0.0
 40
24.432617187500004
 41
0.0
 71
               1
 72
               1
  1
1:10
  7
ＭＳ ゴシック
 73
               1
 44
0.7828267384257843
  0
MTEXT
  5
16C
100
AcDbEntity
  8
template
390
0
 62
               7
100
AcDbMText
 10
731.00000000049999
 20
-1232.4176292337004
 30
0.0
 40
16.288411458333332
 41
0.0
 71
               1
 72
               1
  1
縮尺
  7
ＭＳ ゴシック
 73
               1
 44
0.7828267384257843
  0
LINE
  5
16D
100
AcDbEntity
  8
template
370
               5
390
0
  6
Continuous
 62
               7
100
AcDbLine
 10
724.00000000049999
 20
-1309.0027073587005
 30
0.0
 11
724.00000000049999
 21
-1224.0027073587005
 31
0.0
  0
MTEXT
  5
16E
100
AcDbEntity
  8
template
390
0
 62
               7
100
AcDbMText
 10
480.00000000049999
 20
-1232.4176292337004
 30
0.0
 40
16.288411458333332
 41
0.0
 71
               1
 72
               1
  1
容量
  7
ＭＳ ゴシック
 73
               1
 44
0.7828267384257843
  0
MTEXT
  5
16F
100
AcDbEntity
  8
template
390
0
 62
               7
100
AcDbMText
 10
533.00000000049999
 20
-1261.0000901712006
 30
0.0
 40
24.432617187500004
 41
0.0
 71
               1
 72
               1
  1
10L
  7
ＭＳ ゴシック
 73
               1
 44
0.7828267384257843
  0
LINE
  5
170
100
AcDbEntity
  8
template
370
               5
390
0
  6
Continuous
 62
               7
100
AcDbLine
 10
473.00000000049999
 20
-1309.0027073587005
 30
0.0
 11
473.00000000049999
 21
-1224.0027073587005
 31
0.0
  0
MTEXT
  5
171
100
AcDbEntity
  8
template
390
0
 62
               7
100
AcDbMText
 10
229.00000000049999
 20
-1147.4176292337004
 30
0.0
 40
16.288411458333332
 41
0.0
 71
               1
 72
               1
  1
品番
  7
ＭＳ ゴシック
 73
               1
 44
0.7828267384257843
  0
MTEXT
  5
172
100
AcDbEntity
  8
template
390
0
 62
               7
100
AcDbMText
 10
229.00000000049999
 20
-1232.4176292337004
 30
0.0
 40
16.288411458333332
 41
0.0
 71
               1
 72
               1
  1
重量
  7
ＭＳ ゴシック
 73
               1
 44
0.7828267384257843
  0
MTEXT
  5
173
100
AcDbEntity
  8
template
390
0
 62
               7
100
AcDbMText
 10
282.00000000049999
 20
-1176.0000901712006
 30
0.0
 40
24.432617187500004
 41
0.0
 71
               1
 72
               1
  1
ADF70-0301
  7
ＭＳ ゴシック
 73
               1
 44
0.7828267384257843
  0
MTEXT
  5
174
100
AcDbEntity
  8
template
390
0
 62
               7
100
AcDbMText
 10
282.00000000049999
 20
-1261.0000901712006
 30
0.0
 40
24.432617187500004
 41
0.0
 71
               1
 72
               1
  1
17kg
  7
ＭＳ ゴシック
 73
               1
 44
0.7828267384257843
  0
LINE
  5
175
100
AcDbEntity
  8
template
370
               5
390
0
  6
Continuous
 62
               7
100
AcDbLine
 10
222.00000000049999
 20
-1394.0027073587005
 30
0.0
 11
222.00000000049999
 21
-1139.0027073587005
 31
0.0
  0
MTEXT
  5
176
100
AcDbEntity
  8
template
390
0
 62
               7
100
AcDbMText
 10
-914.9999999997591
 20
-1261.0000901712006
 30
0.0
 40
24.432617187500004
 41
0.0
 71
               1
 72
               1
  1
壁掛け,カウンタ ー置き/オーバーフロー付き/壁取付ボルト付属/\P陶器/ホワイト
  7
ＭＳ ゴシック
 73
               1
 44
1.3047112307096407
  0
MTEXT
  5
177
100
AcDbEntity
  8
notes
390
0
 62
               7
100
AcDbMText
 10
-798.59588957800418
 20
156.48343705733717
 30
0.0
 40
24.432617187500004
 41
937.02334051251819
 71
               1
 72
               1
  1
＝φ30もしくはφ35の水栓取付用穴あけ加工を承ります。\P  必要な場合、ご注文の際にご指示ください。
  7
ＭＳ ゴシック
 73
               1
 44
1.0437689845677123
  0
MTEXT
  5
178
100
AcDbEntity
  8
notes
390
0
 62
               7
100
AcDbMText
 10
-211.58696863461631
 20
-343.26302821861316
 30
0.0
 40
24.432617187500004
 41
0.0
 71
               1
 72
               1
  1
壁取付ボルト穴(2ヶ所)
  7
ＭＳ ゴシック
 73
               1
 44
0.7828267384257843
  0
MTEXT
  5
179
100
AcDbEntity
  8
notes
390
0
 62
               7
100
AcDbMText
 10
349.43161760118062
 20
1043.0985895330293
 30
0.0
 40
24.432617187500004
 41
0.0
 71
               1
 72
               1
  1
カウンター切込寸法
  7
ＭＳゴシック
 73
               1
 44
0.7828267384257843
  0
LINE
  5
17A
100
AcDbEntity
  8
notes
370
               5
390
0
  6
Continuous
 62
               7
100
AcDbLine
 10
-288.10474984565303
 20
-466.66194033216232
 30
0.0
 11
-197.86393275824594
 21
-376.18295847901311
 31
0.0
  0
CIRCLE
  5
17B
100
AcDbEntity
  8
notes
370
              15
390
0
  6
STYLE_12
 62
               7
100
AcDbCircle
 10
-822.07254906548792
 20
143.1217430890195
 30
0.0
 40
17.499999999999886
  0
DIMENSION
  5
17C
100
AcDbEntity
  8
notes
370
               5
390
0
  6
Continuous
 62
               7
100
AcDbDimension
  2
*D3
 10
-738.10474984565315
 20
994.29318239841609
 30
0.0
 11
-431.80403487428799
 21
999.29318239841609
 31
0.0
 70
             128
 71
               5
 72
               1
 41
1.0
 42
0.0
  3
tform線あり
100
AcDbAlignedDimension
 13
-118.10474984565296
 23
554.87585675483319
 33
0.0
 14
-738.10474984565315
 24
554.87585675483319
 34
0.0
100
AcDbRotatedDimension
1001
ACAD
1000
DSTYLE
1002
{
1070
             279
1070
               2
1070
             340
1005
38
1070
             147
1040
5.0
1002
}
  0
DIMENSION
  5
17D
100
AcDbEntity
  8
notes
370
               5
390
0
  6
Continuous
 62
               7
100
AcDbDimension
  2
*D4
 10
-428.10474984565309
 20
894.29318239841643
 30
0.0
 11
-378.10474984565303
 21
894.29318239841643
 31
0.0
 71
               5
 72
               1
 41
1.0
 42
0.0
  3
tform線あり
100
AcDbAlignedDimension
 13
-328.10474984565298
 23
746.79318239841621
 33
0.0
 14
-428.10474984565309
 24
746.79318239841621
 34
0.0
100
AcDbRotatedDimension
1001
ACAD
1000
DSTYLE
1002
{
1070
             279
1070
               2
1070
             340
1005
38
1070
             147
1040
5.0
1002
}
  0
DIMENSION
  5
17E
100
AcDbEntity
  8
notes
370
               5
390
0
  6
Continuous
 62
               7
100
AcDbDimension
  2
*D5
 10
-428.10474984565309
 20
894.29318239841643
 30
0.0
 11
-478.10474984565298
 21
894.29318239841643
 31
0.0
 71
               5
 72
               1
 41
1.0
 42
0.0
  3
tform線あり
100
AcDbAlignedDimension
 13
-528.10474984565292
 23
746.79318239841621
 33
0.0
 14
-428.10474984565309
 24
746.79318239841621
 34
0.0
100
AcDbRotatedDimension
1001
ACAD
1000
DSTYLE
1002
{
1070
             279
1070
               2
1070
             340
1005
38
1070
             147
1040
5.0
1002
}
  0
DIMENSION
  5
17F
100
AcDbEntity
  8
notes
370
               5
390
0
  6
Continuous
 62
               7
100
AcDbDimension
  2
*D6
 10
-439.21158482613527
 20
715.76956540012998
 30
0.0
 11
-275.07254906548707
 21
838.30706389502097
 31
0.0
 70
               3
 71
               5
 72
               1
 41
1.0
 42
0.0
  3
tform線あり
100
AcDbDiametricDimension
 15
-416.99791486517091
 25
742.81679939670244
 35
0.0
 40
123.56750630636301
1001
ACAD
1000
DSTYLE
1002
{
1070
             172
1070
               0
1070
             289
1070
               0
1070
             342
1005
4A
1070
             340
1005
38
1070
              73
1070
               1
1070
              74
1070
               1
1070
               3
1000

1070
             174
1070
               0
1070
             147
1040
5.0
1002
}
  0
DIMENSION
  5
180
100
AcDbEntity
  8
notes
370
               5
390
0
  6
Continuous
 62
               7
100
AcDbDimension
  2
*D7
 10
-653.07254906548599
 20
944.29318239841621
 30
0.0
 11
-428.07254906548604
 21
944.29318239841621
 31
0.0
 71
               5
 72
               1
 41
1.0
 42
0.0
  3
tform線あり
100
AcDbAlignedDimension
 13
-203.07254906548593
 23
794.29318239841621
 33
0.0
 14
-653.07254906548599
 24
794.29318239841621
 34
0.0
100
AcDbRotatedDimension
1001
ACAD
1000
DSTYLE
1002
{
1070
             279
1070
               2
1070
             340
1005
38
1070
             147
1040
5.0
1002
}
  0
DIMENSION
  5
181
100
AcDbEntity
  8
notes
370
               5
390
0
  6
Continuous
 62
               7
100
AcDbDimension
  2
*D8
 10
-18.104749845653018
 20
794.29318239841621
 30
0.0
 11
-18.104749845653018
 21
554.29318239841609
 31
0.0
 71
               5
 72
               1
 41
1.0
 42
0.0
  3
tform線あり
100
AcDbAlignedDimension
 13
-427.90403487428802
 23
314.29318239841609
 33
0.0
 14
-203.10474984565298
 24
794.29318239841621
 34
0.0
 50
90.0
100
AcDbRotatedDimension
1001
ACAD
1000
DSTYLE
1002
{
1070
             279
1070
               2
1070
             340
1005
38
1070
             147
1040
5.0
1002
}
  0
DIMENSION
  5
182
100
AcDbEntity
  8
notes
370
               5
390
0
  6
Continuous
 62
               7
100
AcDbDimension
  2
*D9
 10
-838.10474984565326
 20
794.29318239841621
 30
0.0
 11
-838.10474984565326
 21
726.79318239841621
 31
0.0
 71
               5
 72
               1
 41
1.0
 42
0.0
  3
tform線あり
100
AcDbAlignedDimension
 13
-714.10565058708744
 23
659.29318239841609
 33
0.0
 14
-655.604034874288
 24
794.29318239841621
 34
0.0
 50
90.0
100
AcDbRotatedDimension
1001
ACAD
1000
DSTYLE
1002
{
1070
             279
1070
               2
1070
             340
1005
38
1070
             147
1040
5.0
1002
}
  0
DIMENSION
  5
183
100
AcDbEntity
  8
notes
370
               5
390
0
  6
Continuous
 62
               7
100
AcDbDimension
  2
*D10
 10
-838.10474984565315
 20
659.2931823977367
 30
0.0
 11
-838.10474984565315
 21
506.7931823977367
 31
0.0
 71
               5
 72
               1
 41
1.0
 42
0.0
  3
tform線あり
100
AcDbAlignedDimension
 13
-616.39942856461346
 23
354.2931823977367
 33
0.0
 14
-714.1056505873247
 24
659.2931823977367
 34
0.0
 50
90.0
100
AcDbRotatedDimension
1001
ACAD
1000
DSTYLE
1002
{
1070
             279
1070
               2
1070
             340
1005
38
1070
             147
1040
5.0
1002
}
  0
DIMENSION
  5
184
100
AcDbEntity
  8
notes
370
               5
390
0
  6
Continuous
 62
               7
100
AcDbDimension
  2
*D11
 10
506.72880359530308
 20
-421.62964300624583
 30
0.0
 11
501.72880359530308
 21
-414.33763179237633
 31
0.0
 70
             128
 71
               5
 72
               1
 41
1.0
 42
0.0
  3
tform線あり
100
AcDbAlignedDimension
 13
559.53395380308552
 23
-566.62964300624583
 33
0.0
 14
559.53395380308552
 24
-421.62964300624583
 34
0.0
 50
90.0
100
AcDbRotatedDimension
1001
ACAD
1000
DSTYLE
1002
{
1070
             279
1070
               2
1070
             340
1005
38
1070
               3
1000
<>(深さ)
1070
             174
1070
               0
1070
             147
1040
5.0
1002
}
  0
DIMENSION
  5
185
100
AcDbEntity
  8
notes
370
               5
390
0
  6
Continuous
 62
               7
100
AcDbDimension
  2
*D12
 10
744.25582148869159
 20
-691.62964300624594
 30
0.0
 11
634.25582148869159
 21
-691.62964300624594
 31
0.0
 71
               5
 72
               1
 41
1.0
 42
0.0
  3
tform線あり
100
AcDbAlignedDimension
 13
524.25582148869171
 23
-606.62964300624583
 33
0.0
 14
744.25582148869159
 24
-606.62964300624583
 34
0.0
100
AcDbRotatedDimension
1001
ACAD
1000
DSTYLE
1002
{
1070
             279
1070
               2
1070
             340
1005
38
1070
             147
1040
5.0
1002
}
  0
DIMENSION
  5
186
100
AcDbEntity
  8
notes
370
               5
390
0
  6
Continuous
 62
               7
100
AcDbDimension
  2
*D13
 10
744.25582148869137
 20
-321.62964300624571
 30
0.0
 11
709.25582148869148
 21
-321.62964300624571
 31
0.0
 71
               5
 72
               1
 41
1.0
 42
0.0
  3
tform線あり
100
AcDbAlignedDimension
 13
674.25582148869159
 23
-421.62964300624583
 33
0.0
 14
744.25582148869137
 24
-425.62964300624583
 34
0.0
100
AcDbRotatedDimension
1001
ACAD
1000
DSTYLE
1002
{
1070
             279
1070
               2
1070
             340
1005
38
1070
             147
1040
5.0
1002
}
  0
DIMENSION
  5
187
100
AcDbEntity
  8
notes
370
               5
390
0
  6
Continuous
 62
               7
100
AcDbDimension
  2
*D14
 10
-568.10474984565315
 20
-321.60533446645957
 30
0.0
 11
-428.10474984565309
 21
-321.60533446645957
 31
0.0
 71
               5
 72
               1
 41
1.0
 42
0.0
  3
tform線あり
100
AcDbAlignedDimension
 13
-288.10474984565303
 23
-446.63763179237617
 33
0.0
 14
-568.10474984565315
 24
-446.63763179237617
 34
0.0
100
AcDbRotatedDimension
1001
ACAD
1000
DSTYLE
1002
{
1070
             279
1070
               2
1070
             340
1005
38
1070
             147
1040
5.0
1002
}
  0
DIMENSION
  5
188
100
AcDbEntity
  8
notes
370
               5
390
0
  6
Continuous
 62
               7
100
AcDbDimension
  2
*D15
 10
-833.90546481701836
 20
-466.62901548513594
 30
0.0
 11
-833.90546481701836
 21
-444.12901548513594
 31
0.0
 71
               5
 72
               1
 41
1.0
 42
0.0
  3
tform線あり
100
AcDbAlignedDimension
 13
-734.70474984565328
 23
-421.62901548513594
 33
0.0
 14
-618.10474984565315
 24
-466.62901548513594
 34
0.0
 50
90.0
100
AcDbRotatedDimension
1001
ACAD
1000
DSTYLE
1002
{
1070
             279
1070
               2
1070
             340
1005
38
1070
             147
1040
5.0
1002
}
  0
DIMENSION
  5
189
100
AcDbEntity
  8
notes
370
               5
390
0
  6
Continuous
 62
               7
100
AcDbDimension
  2
*D16
 10
164.2620775154067
 20
-421.62964300624583
 30
0.0
 11
164.2620775154067
 21
-506.62964300624583
 31
0.0
 71
               5
 72
               1
 41
1.0
 42
0.0
  3
tform線あり
100
AcDbAlignedDimension
 13
316.72886217220588
 23
-591.62964300624583
 33
0.0
 14
268.25673885971804
 24
-421.62964300624583
 34
0.0
 50
90.0
100
AcDbRotatedDimension
1001
ACAD
1000
DSTYLE
1002
{
1070
             279
1070
               2
1070
             340
1005
38
1070
             147
1040
5.0
1002
}
  0
DIMENSION
  5
18A
100
AcDbEntity
  8
notes
370
               5
390
0
  6
Continuous
 62
               7
100
AcDbDimension
  2
*D17
 10
-682.45116129432256
 20
214.29960269197497
 30
0.0
 11
-432.30403487428788
 21
219.29960269197497
 31
0.0
 70
             128
 71
               5
 72
               1
 41
1.0
 42
0.0
  3
tform線あり
100
AcDbAlignedDimension
 13
-172.45116129432228
 23
403.66236820762367
 33
0.0
 14
-682.45116129432256
 24
403.66236820762367
 34
0.0
100
AcDbRotatedDimension
1001
ACAD
1000
DSTYLE
1002
{
1070
             279
1070
               2
1070
             340
1005
38
1070
             147
1040
5.0
1002
}
  0
DIMENSION
  5
18B
100
AcDbEntity
  8
notes
370
               5
390
0
  6
Continuous
 62
               7
100
AcDbDimension
  2
*D18
 10
-13.905464817017943
 20
-606.56194033216241
 30
0.0
 11
-13.905464817017943
 21
-514.06194033216241
 31
0.0
 71
               5
 72
               1
 41
1.0
 42
0.0
  3
tform線あり
100
AcDbAlignedDimension
 13
-120.70474984565298
 23
-421.56194033216241
 33
0.0
 14
-393.10474984565298
 24
-606.56194033216241
 34
0.0
 50
90.0
100
AcDbRotatedDimension
1001
ACAD
1000
DSTYLE
1002
{
1070
             279
1070
               2
1070
             340
1005
38
1070
             147
1040
5.0
1002
}
  0
DIMENSION
  5
18C
100
AcDbEntity
  8
notes
370
               5
390
0
  6
Continuous
 62
               7
100
AcDbDimension
  2
*D19
 10
744.25582148869159
 20
-741.62964300624594
 30
0.0
 11
529.25582148869125
 21
-741.62964300624594
 31
0.0
 71
               5
 72
               1
 41
1.0
 42
0.0
  3
tform線あり
100
AcDbAlignedDimension
 13
314.25582148869097
 23
-591.62964300624583
 33
0.0
 14
744.25582148869159
 24
-591.62964300624583
 34
0.0
100
AcDbRotatedDimension
1001
ACAD
1000
DSTYLE
1002
{
1070
             279
1070
               2
1070
             340
1005
38
1070
             147
1040
5.0
1002
}
  0
DIMENSION
  5
18D
100
AcDbEntity
  8
notes
370
               5
390
0
  6
Continuous
 62
               7
100
AcDbDimension
  2
*D20
 10
-663.07254906548599
 20
-691.6094311055266
 30
0.0
 11
-428.07254906548604
 21
-691.6094311055266
 31
0.0
 71
               5
 72
               1
 41
1.0
 42
0.0
  3
tform線あり
100
AcDbAlignedDimension
 13
-193.07254906548593
 23
-591.6094311055266
 33
0.0
 14
-663.07254906548599
 24
-591.6094311055266
 34
0.0
100
AcDbRotatedDimension
1001
ACAD
1000
DSTYLE
1002
{
1070
             279
1070
               2
1070
             340
1005
38
1070
             147
1040
5.0
1002
}
  0
DIMENSION
  5
18E
100
AcDbEntity
  8
notes
370
               5
390
0
  6
Continuous
 62
               7
100
AcDbDimension
  2
*D21
 10
311.32745093451393
 20
424.29318239841609
 30
0.0
 11
486.32745093451388
 21
424.29318239841609
 31
0.0
 71
               5
 72
               1
 41
1.0
 42
0.0
  3
tform線あり
100
AcDbAlignedDimension
 13
661.32745093451388
 23
524.29318239841609
 33
0.0
 14
311.32745093451393
 24
524.29318239841609
 34
0.0
100
AcDbRotatedDimension
1001
ACAD
1000
DSTYLE
1002
{
1070
             279
1070
               2
1070
             340
1005
38
1070
             147
1040
5.0
1002
}
  0
DIMENSION
  5
18F
100
AcDbEntity
  8
notes
370
               5
390
0
  6
Continuous
 62
               7
100
AcDbDimension
  2
*D22
 10
848.69663674372146
 20
524.29318239841609
 30
0.0
 11
848.69663674372146
 21
659.29318239841621
 31
0.0
 71
               5
 72
               1
 41
1.0
 42
0.0
  3
tform線あり
100
AcDbAlignedDimension
 13
661.32745093451388
 23
794.29318239841621
 33
0.0
 14
661.32745093451388
 24
524.29318239841609
 34
0.0
 50
90.0
100
AcDbRotatedDimension
1001
ACAD
1000
DSTYLE
1002
{
1070
             279
1070
               2
1070
             340
1005
38
1070
             147
1040
5.0
1002
}
  0
MTEXT
  5
190
100
AcDbEntity
  8
notes
390
0
 62
               7
100
AcDbMText
 10
123.10755171348936
 20
11.457328364404333
 30
0.0
 40
24.432617187500004
 41
0.0
 71
               1
 72
               1
  1
※カウンター置きの場合も壁固定が必要です。\P
  7
ＭＳ ゴシック
 73
               1
 44
0.7828267384257843
  0
MTEXT
  5
191
100
AcDbEntity
  8
notes
390
0
 62
               7
100
AcDbMText
 10
123.10755171348936
 20
156.48343705733717
 30
0.0
 40
24.432617187500004
 41
764.7717154610109
 71
               1
 72
               1
  1
※陶器製品には寸法公差があります。\P  洗面器の収め方をご確認の上、必ず現物を合わせて\P  カウンターに切込を行ってください。
  7
ＭＳ ゴシック
 73
               1
 44
1.0437689845677123
  0
LINE
  5
192
100
AcDbEntity
  8
ADF70-0301
370
              15
390
0
  6
Continuous
 62
               7
100
AcDbLine
 10
-655.604034874288
 20
794.29318239841621
 30
0.0
 11
-200.60403487428783
 21
794.29318239841621
 31
0.0
  0
SPLINE
  5
193
100
AcDbEntity
  8
ADF70-0301
370
              15
390
0
  6
Continuous
 62
               7
100
AcDbSpline
210
0.0
220
0.0
230
1.0
 70
               8
 71
               2
 72
              21
 73
              18
 74
               0
 42
0.000001
 43
0.000001
 40
0.0
 40
0.0
 40
0.0
 40
1.0
 40
1.0
 40
2.0
 40
3.0
 40
4.0
 40
5.0
 40
6.0
 40
7.0
 40
8.0
 40
9.0
 40
10.0
 40
11.0
 40
12.0
 40
13.0
 40
13.0
 40
14.0
 40
14.0
 40
14.0
 10
-735.74375113673716
 20
504.55808685085435
 30
0.0
 10
-735.74375113673716
 20
501.50467680223346
 30
0.0
 10
-735.74375113673716
 20
498.45126675361257
 30
0.0
 10
-733.79907891286382
 20
479.66233774022407
 30
0.0
 10
-721.24638913911656
 20
440.70370546734171
 30
0.0
 10
-678.63435044425762
 20
390.61943468058348
 30
0.0
 10
-612.41906632631242
 20
349.73068983350572
 30
0.0
 10
-531.37246412010143
 20
323.53094771455585
 30
0.0
 10
-448.11083848926245
 20
313.29926917653006
 30
0.0
 10
-387.99523389328175
 20
315.76001904242594
 30
0.0
 10
-324.95505331843236
 20
323.48793828987414
 30
0.0
 10
-243.9094126150373
 20
349.79689676361045
 30
0.0
 10
-177.69164106779414
 20
390.74241171221433
 30
0.0
 10
-135.26508073817757
 20
440.84950790583457
 30
0.0
 10
-122.68842336061032
 20
479.66233774022362
 30
0.0
 10
-120.74375113673675
 20
498.45126675361212
 30
0.0
 10
-120.74375113673675
 20
501.50467680223301
 30
0.0
 10
-120.74375113673675
 20
504.5580868508539
 30
0.0
  0
SPLINE
  5
194
100
AcDbEntity
  8
ADF70-0301
370
              15
390
0
  6
Continuous
 62
               7
100
AcDbSpline
210
0.0
220
0.0
230
1.0
 70
               9
 71
               2
 72
              31
 73
              28
 74
               0
 42
0.000001
 43
0.000001
 40
0.0
 40
0.0
 40
0.0
 40
1.0
 40
1.0
 40
2.0
 40
3.0
 40
4.0
 40
5.0
 40
6.0
 40
7.0
 40
8.0
 40
9.0
 40
10.0
 40
11.0
 40
12.0
 40
13.0
 40
14.0
 40
15.0
 40
16.0
 40
17.0
 40
18.0
 40
19.0
 40
20.0
 40
21.0
 40
22.0
 40
23.0
 40
23.0
 40
24.0
 40
24.0
 40
24.0
 10
-174.09700331783387
 20
506.88893231118777
 30
0.0
 10
-174.09700331783387
 20
509.3235653288807
 30
0.0
 10
-174.09700331783387
 20
511.75819834657364
 30
0.0
 10
-177.45678055000315
 20
547.46794700594114
 30
0.0
 10
-221.29960794235029
 20
597.73778659148388
 30
0.0
 10
-276.02849387742964
 20
630.34038063275943
 30
0.0
 10
-343.01590179473959
 20
651.23071511190687
 30
0.0
 10
-411.83409192441849
 20
659.38893231636507
 30
0.0
 10
-461.52141277003051
 20
657.42685622317754
 30
0.0
 10
-513.62598194868417
 20
651.26486476390141
 30
0.0
 10
-580.61259515554968
 20
630.28818439584961
 30
0.0
 10
-635.34353702433157
 20
597.63729337207337
 30
0.0
 10
-670.41034088733966
 20
557.69734878106578
 30
0.0
 10
-684.09700331783404
 20
516.67684897425511
 30
0.0
 10
-680.80531927081086
 20
487.05969787935305
 30
0.0
 10
-670.43015081903525
 20
455.96998592817727
 30
0.0
 10
-635.21004361481312
 20
416.04053903904264
 30
0.0
 10
-580.48115767973411
 20
383.43744508865984
 30
0.0
 10
-513.49374976242382
 20
362.54714938981692
 30
0.0
 10
-444.67555963274521
 20
354.38893231636507
 30
0.0
 10
-394.98823878713296
 20
356.35100840186965
 30
0.0
 10
-342.88366960847907
 20
362.51285599475682
 30
0.0
 10
-275.89705640161407
 20
383.4902740097898
 30
0.0
 10
-221.1661145328319
 20
416.13813362672113
 30
0.0
 10
-177.6329259636953
 20
466.65320684305675
 30
0.0
 10
-174.09700331783387
 20
502.01966627580236
 30
0.0
 10
-174.09700331783387
 20
504.45429929349507
 30
0.0
 10
-174.09700331783387
 20
506.88893231118777
 30
0.0
  0
ARC
  5
195
100
AcDbEntity
  8
ADF70-0301
370
              15
390
0
  6
Continuous
 62
               7
100
AcDbCircle
 10
-256.59781029621723
 20
499.47659892500997
 30
0.0
 40
484.61816338301713
100
AcDbArc
 50
155.13830379040238
 51
167.55763415727276
  0
ARC
  5
196
100
AcDbEntity
  8
ADF70-0301
370
              15
390
0
  6
Continuous
 62
               7
100
AcDbCircle
 10
-460.07920834227542
 20
536.27749766094917
 30
0.0
 40
278.09923181220279
100
AcDbArc
 50
165.92877264696628
 51
186.54928841906349
  0
ARC
  5
197
100
AcDbEntity
  8
ADF70-0301
370
              15
390
0
  6
Continuous
 62
               7
100
AcDbCircle
 10
-599.75137152801028
 20
499.47659892501269
 30
0.0
 40
484.61816338300838
100
AcDbArc
 50
12.442365842727151
 51
24.861696209597774
  0
ARC
  5
198
100
AcDbEntity
  8
ADF70-0301
370
              15
390
0
  6
Continuous
 62
               7
100
AcDbCircle
 10
-396.2699734819609
 20
536.27749766094894
 30
0.0
 40
278.09923181220324
100
AcDbArc
 50
353.45071158093663
 51
14.071227353033805
  0
LINE
  5
199
100
AcDbEntity
  8
ADF70-0301
370
              15
390
0
  6
STYLE_12
 62
               7
100
AcDbLine
 10
568.0
 20
-563.65579259608819
 30
0.0
 11
487.21019251969756
 21
-563.65579259608819
 31
0.0
  0
LINE
  5
19A
100
AcDbEntity
  8
ADF70-0301
370
              15
390
0
  6
STYLE_12
 62
               7
100
AcDbLine
 10
549.21862430910301
 20
-571.65642011719808
 30
0.0
 11
565.21862430910301
 21
-563.65642011719831
 31
0.0
  0
LINE
  5
19B
100
AcDbEntity
  8
ADF70-0301
370
              15
390
0
  6
STYLE_12
 62
               7
100
AcDbLine
 10
549.21862430910278
 20
-571.65642011719831
 30
0.0
 11
503.21862430910357
 21
-571.65642011719831
 31
0.0
  0
ARC
  5
19C
100
AcDbEntity
  8
ADF70-0301
370
              15
390
0
  6
Continuous
 62
               7
100
AcDbCircle
 10
740.25582148869137
 20
-425.62964300624583
 30
0.0
 40
4.0
100
AcDbArc
 50
0.0
 51
90.0
  0
LINE
  5
19D
100
AcDbEntity
  8
ADF70-0301
370
              15
390
0
  6
Continuous
 62
               7
100
AcDbLine
 10
744.25582148869159
 20
-591.62964300624583
 30
0.0
 11
744.25582148869137
 21
-425.62964300624583
 31
0.0
  0
CIRCLE
  5
19E
100
AcDbEntity
  8
ADF70-0301
370
              15
390
0
  6
Continuous
 62
               7
100
AcDbCircle
 10
-428.10474984565309
 20
584.29318239841609
 30
0.0
 40
39.000000000000114
  0
CIRCLE
  5
19F
100
AcDbEntity
  8
ADF70-0301
370
              15
390
0
  6
Continuous
 62
               7
100
AcDbCircle
 10
-428.10474984565309
 20
584.29318239841609
 30
0.0
 40
23.000000000000114
  0
LINE
  5
1A0
100
AcDbEntity
  8
ADF70-0301
370
              15
390
0
  6
STYLE_12
 62
               7
100
AcDbLine
 10
487.21862430910244
 20
-563.65642011719808
 30
0.0
 11
503.21862430910312
 21
-571.65642011719831
 31
0.0
  0
LINE
  5
1A1
100
AcDbEntity
  8
ADF70-0301
370
              15
390
0
  6
Continuous
 62
               7
100
AcDbLine
 10
491.70438062204306
 20
-602.23392441260796
 30
0.0
 11
490.45169651442944
 21
-591.46084108598109
 31
0.0
  0
ARC
  5
1A2
100
AcDbEntity
  8
ADF70-0301
370
              15
390
0
  6
Continuous
 62
               7
100
AcDbCircle
 10
496.67091752355651
 20
-601.6564201217958
 30
0.0
 40
5.0000000000003535
100
AcDbArc
 50
186.63251461443815
 51
270.0
  0
LINE
  5
1A3
100
AcDbEntity
  8
ADF70-0301
370
              15
390
0
  6
Continuous
 62
               7
100
AcDbLine
 10
503.21862430910312
 20
-606.65642012179603
 30
0.0
 11
496.67091752355651
 21
-606.65642012179603
 31
0.0
  0
LINE
  5
1A4
100
AcDbEntity
  8
ADF70-0301
370
              15
390
0
  6
STYLE_12
 62
               7
100
AcDbLine
 10
503.21862430910312
 20
-571.65642011719831
 30
0.0
 11
503.21862430910312
 21
-606.65642012179603
 31
0.0
  0
LINE
  5
1A5
100
AcDbEntity
  8
ADF70-0301
370
              15
390
0
  6
Continuous
 62
               7
100
AcDbLine
 10
549.21862430910278
 20
-606.65642012179603
 30
0.0
 11
503.21862430910312
 21
-606.65642012179603
 31
0.0
  0
LINE
  5
1A6
100
AcDbEntity
  8
ADF70-0301
370
              15
390
0
  6
STYLE_12
 62
               7
100
AcDbLine
 10
613.68793423637521
 20
-425.34394525820278
 30
0.0
 11
611.73900650768951
 21
-452.62893345915529
 31
0.0
  0
ARC
  5
1A7
100
AcDbEntity
  8
ADF70-0301
370
              15
390
0
  6
STYLE_12
 62
               7
100
AcDbCircle
 10
617.67776903569745
 20
-425.62893345816121
 30
0.0
 40
4.0
100
AcDbArc
 50
89.999999998614214
 51
175.91438321992914
  0
LINE
  5
1A8
100
AcDbEntity
  8
ADF70-0301
370
              15
390
0
  6
STYLE_12
 62
               7
100
AcDbLine
 10
583.87242430100173
 20
-562.06726074760911
 30
0.0
 11
565.21862430910301
 21
-563.65642011719831
 31
0.0
  0
ARC
  5
1A9
100
AcDbEntity
  8
ADF70-0301
370
              15
390
0
  6
STYLE_12
 62
               7
100
AcDbCircle
 10
580.34724634949157
 20
-537.31704619479785
 30
0.0
 40
25.000000000000103
100
AcDbArc
 50
278.10612800925099
 51
355.91438321992831
  0
LINE
  5
1AA
100
AcDbEntity
  8
ADF70-0301
370
              15
390
0
  6
STYLE_12
 62
               7
100
AcDbLine
 10
611.73900650768951
 20
-452.82924404467406
 30
0.0
 11
605.28371384525713
 21
-539.09822244453756
 31
0.0
  0
LINE
  5
1AB
100
AcDbEntity
  8
ADF70-0301
370
              15
390
0
  6
Continuous
 62
               7
100
AcDbLine
 10
549.21862430910278
 20
-606.65642012179603
 30
0.0
 11
555.76633109464956
 21
-606.65642012179603
 31
0.0
  0
LINE
  5
1AC
100
AcDbEntity
  8
ADF70-0301
370
              15
390
0
  6
STYLE_12
 62
               7
100
AcDbLine
 10
549.21862430910278
 20
-571.65642011719808
 30
0.0
 11
549.21862430910278
 21
-606.65642012179603
 31
0.0
  0
LINE
  5
1AD
100
AcDbEntity
  8
ADF70-0301
370
              15
390
0
  6
Continuous
 62
               7
100
AcDbLine
 10
560.73286799616289
 20
-602.23392441260796
 30
0.0
 11
560.73955813826205
 21
-602.17638919054878
 31
0.0
  0
ARC
  5
1AE
100
AcDbEntity
  8
ADF70-0301
370
              15
390
0
  6
Continuous
 62
               7
100
AcDbCircle
 10
555.76633109464944
 20
-601.65642012179603
 30
0.0
 40
5.0000000000001137
100
AcDbArc
 50
270.00000000000131
 51
353.36748538556151
  0
CIRCLE
  5
1AF
100
AcDbEntity
  8
ADF70-0301
370
              15
390
0
  6
Continuous
 62
               7
100
AcDbCircle
 10
-428.10474984565309
 20
729.29318239841621
 30
0.0
 40
17.5
  0
CIRCLE
  5
1B0
100
AcDbEntity
  8
ADF70-0301
370
              15
390
0
  6
STYLE_12
 62
               7
100
AcDbCircle
 10
-328.10474984565298
 20
729.29318239841621
 30
0.0
 40
17.5
  0
CIRCLE
  5
1B1
100
AcDbEntity
  8
ADF70-0301
370
              15
390
0
  6
STYLE_12
 62
               7
100
AcDbCircle
 10
-528.10474984565292
 20
729.29318239841621
 30
0.0
 40
17.499999999999886
  0
LINE
  5
1B2
100
AcDbEntity
  8
ADF70-0301
370
              15
390
0
  6
Continuous
 62
               7
100
AcDbLine
 10
-660.02337081744008
 20
-591.6094311055266
 30
0.0
 11
-196.13973461418271
 21
-591.6094311055266
 31
0.0
  0
LINE
  5
1B3
100
AcDbEntity
  8
ADF70-0301
370
              15
390
0
  6
Continuous
 62
               7
100
AcDbLine
 10
-733.1515552308482
 20
-421.62901548513594
 30
0.0
 11
-123.12015582635483
 21
-421.62901548513594
 31
0.0
  0
SPLINE
  5
1B4
100
AcDbEntity
  8
ADF70-0301
370
              15
390
0
  6
Continuous
 62
               7
100
AcDbSpline
210
0.0
220
0.0
230
1.0
 70
               8
 71
               2
 72
              12
 73
               9
 74
               0
 42
0.000001
 43
0.000001
 40
0.0
 40
0.0
 40
0.0
 40
1.0
 40
1.0
 40
2.0
 40
3.0
 40
4.0
 40
4.0
 40
5.0
 40
5.0
 40
5.0
 10
-738.05455015108134
 20
-427.0013699457146
 30
0.0
 10
-737.87024956462403
 20
-429.52340208036071
 30
0.0
 10
-737.68594897816672
 20
-432.04543421500682
 30
0.0
 10
-733.71243819452854
 20
-467.21928530220441
 30
0.0
 10
-716.9693113960351
 20
-514.32542618625791
 30
0.0
 10
-693.27246937150824
 20
-558.37401355854865
 30
0.0
 10
-669.87814439371289
 20
-584.87413792521318
 30
0.0
 10
-667.84335706727825
 20
-587.00454913693341
 30
0.0
 10
-665.80856974084361
 20
-589.13496034865352
 30
0.0
  0
ARC
  5
1B5
100
AcDbEntity
  8
ADF70-0301
370
              15
390
0
  6
Continuous
 62
               7
100
AcDbCircle
 10
-378.89904582874618
 20
-407.9842874422892
 30
0.0
 40
261.46628360070781
100
AcDbArc
 50
316.14040580125561
 51
355.82905486128726
  0
SPLINE
  5
1B6
100
AcDbEntity
  8
ADF70-0301
370
              15
390
0
  6
Continuous
 62
               7
100
AcDbSpline
210
0.0
220
0.0
230
1.0
 70
               8
 71
               2
 72
              20
 73
              17
 74
               0
 42
0.000001
 43
0.000001
 40
0.0
 40
0.0
 40
0.0
 40
1.0
 40
1.0
 40
2.0
 40
3.0
 40
4.0
 40
5.0
 40
6.0
 40
7.0
 40
8.0
 40
9.0
 40
10.0
 40
11.0
 40
12.0
 40
12.0
 40
13.0
 40
13.0
 40
13.0
 10
-733.06515001596688
 20
-421.62901548513594
 30
0.0
 10
-733.10835262340754
 20
-421.62901548513594
 30
0.0
 10
-733.1515552308482
 20
-421.62901548513594
 30
0.0
 10
-734.09886616168353
 20
-421.66523559990844
 30
0.0
 10
-735.47334904516822
 20
-422.19519141345506
 30
0.0
 10
-736.51744476830356
 20
-422.94888202622781
 30
0.0
 10
-737.33695981441099
 20
-423.93982713267826
 30
0.0
 10
-737.88487290221281
 20
-425.11848390557259
 30
0.0
 10
-738.02623890536245
 20
-425.94807854929161
 30
0.0
 10
-738.06074426083467
 20
-426.27332589067862
 30
0.0
 10
-738.07066100176178
 20
-426.68569405420487
 30
0.0
 10
-738.06895924743333
 20
-426.63312743996187
 30
0.0
 10
-738.06916923289452
 20
-426.66664442617332
 30
0.0
 10
-738.07134306433352
 20
-426.82525177090099
 30
0.0
 10
-738.05500823041837
 20
-426.99701819201562
 30
0.0
 10
-738.05477919074985
 20
-426.99919406886511
 30
0.0
 10
-738.05455015108134
 20
-427.0013699457146
 30
0.0
  0
SPLINE
  5
1B7
100
AcDbEntity
  8
ADF70-0301
370
              15
390
0
  6
Continuous
 62
               7
100
AcDbSpline
210
0.0
220
0.0
230
1.0
 70
               8
 71
               2
 72
              20
 73
              17
 74
               0
 42
0.000001
 43
0.000001
 40
0.0
 40
0.0
 40
0.0
 40
1.0
 40
1.0
 40
2.0
 40
3.0
 40
4.0
 40
5.0
 40
6.0
 40
7.0
 40
8.0
 40
9.0
 40
10.0
 40
11.0
 40
12.0
 40
12.0
 40
13.0
 40
13.0
 40
13.0
 10
-118.12525873920008
 20
-427.0013699457146
 30
0.0
 10
-118.12210944376072
 20
-426.95819596823253
 30
0.0
 10
-118.11896014832136
 20
-426.91502199075046
 30
0.0
 10
-118.08616744539687
 20
-425.96599527792966
 30
0.0
 10
-118.51480859055123
 20
-424.55655054023634
 30
0.0
 10
-119.1897501941513
 20
-423.46117773601361
 30
0.0
 10
-120.11595555847451
 20
-422.57248558112917
 30
0.0
 10
-121.24663315951862
 20
-421.94009899960145
 30
0.0
 10
-122.05845546342742
 20
-421.73747978328686
 30
0.0
 10
-122.37807907272035
 20
-421.67874895599505
 30
0.0
 10
-122.7854091679872
 20
-421.63796127600961
 30
0.0
 10
-122.73378523261145
 20
-421.64287557921978
 30
0.0
 10
-122.76095326376627
 20
-421.64012119066604
 30
0.0
 10
-122.92625053857562
 20
-421.6264305753765
 30
0.0
 10
-123.11580407265699
 20
-421.62901548513594
 30
0.0
 10
-123.11797994950591
 20
-421.62901548513594
 30
0.0
 10
-123.12015582635483
 20
-421.62901548513594
 30
0.0
  0
LINE
  5
1B8
100
AcDbEntity
  8
ADF70-0301
370
              15
390
0
  6
Continuous
 62
               7
100
AcDbLine
 10
-463.10474984565309
 20
-606.56194033216241
 30
0.0
 11
-393.10474984565298
 21
-606.56194033216241
 31
0.0
  0
LINE
  5
1B9
100
AcDbEntity
  8
ADF70-0301
370
              15
390
0
  6
Continuous
 62
               7
100
AcDbLine
 10
-473.69488847571159
 20
-591.6094311055266
 30
0.0
 11
-463.10474984565309
 21
-606.56194033216241
 31
0.0
  0
LINE
  5
1BA
100
AcDbEntity
  8
ADF70-0301
370
              15
390
0
  6
Continuous
 62
               7
100
AcDbLine
 10
-382.51461121559458
 20
-591.50638152444014
 30
0.0
 11
-393.10474984565303
 21
-606.45889075107573
 31
0.0
  0
ARC
  5
1BB
100
AcDbEntity
  8
ADF70-0301
370
              15
390
0
  6
Continuous
 62
               7
100
AcDbCircle
 10
545.51319581342295
 20
1072.0221019018038
 30
0.0
 40
796.13081504085608
100
AcDbArc
 50
200.41689109862625
 51
207.59622875024638
  0
ARC
  5
1BC
100
AcDbEntity
  8
ADF70-0301
370
              15
390
0
  6
Continuous
 62
               7
100
AcDbCircle
 10
-1691.9506286753149
 20
1201.2071776954335
 30
0.0
 40
1113.2172815538006
100
AcDbArc
 50
333.42706603165868
 51
338.55981411946891
  0
LINE
  5
1BD
100
AcDbEntity
  8
ADF70-0301
370
              15
390
0
  6
Continuous
 62
               7
100
AcDbLine
 10
565.40070271150603
 20
-602.65411838236366
 30
0.0
 11
565.49893703262182
 21
-602.65411838236366
 31
0.0
  0
LINE
  5
1BE
100
AcDbEntity
  8
ADF70-0301
370
              15
390
0
  6
Continuous
 62
               7
100
AcDbLine
 10
564.16111244216404
 20
-598.67661846827639
 30
0.0
 11
588.66476822182233
 21
-595.26449574282913
 31
0.0
  0
ARC
  5
1BF
100
AcDbEntity
  8
ADF70-0301
370
              15
390
0
  6
Continuous
 62
               7
100
AcDbCircle
 10
580.62736249238003
 20
-538.83400656241986
 30
0.0
 40
57.0
100
AcDbArc
 50
278.10612800924986
 51
292.14403075729973
  0
LINE
  5
1C0
100
AcDbEntity
  8
ADF70-0301
370
              15
390
0
  6
Continuous
 62
               7
100
AcDbLine
 10
319.71687507621704
 20
-591.62964300624583
 30
0.0
 11
744.25449059977598
 21
-591.62964300624583
 31
0.0
  0
ARC
  5
1C1
100
AcDbEntity
  8
ADF70-0301
370
              15
390
0
  6
Continuous
 62
               7
100
AcDbCircle
 10
618.71720438293016
 20
-407.66721861671897
 30
0.0
 40
354.93511168886164
100
AcDbArc
 50
182.96054662910944
 51
210.47691528067702
  0
ARC
  5
1C2
100
AcDbEntity
  8
ADF70-0301
370
              15
390
0
  6
Continuous
 62
               7
100
AcDbCircle
 10
268.25673885971827
 20
-425.62964300624583
 30
0.0
 40
4.0000000000002274
100
AcDbArc
 50
90.000000000003254
 51
182.96054662910822
  0
LWPOLYLINE
  5
1C3
100
AcDbEntity
  8
ADF70-0301
370
              15
390
0
  6
STYLE_12
 62
               7
100
AcDbPolyline
 90
        7
 70
             128
 10
487.21862430910289
 20
-563.65642011719808
 10
376.1643768290665
 20
-555.39140289598004
 42
-0.2743040330277738
 10
334.33641492437522
 20
-526.17420615560707
 42
-0.0581216687814651
 10
301.98849874104798
 20
-425.02359993971925
 10
301.95661793410818
 20
-424.86082367872484
 42
0.358635366355093
 10
298.03119861362404
 20
-421.62964300624583
 10
298.06307942056395
 20
-421.62964300624583
  0
LINE
  5
1C4
100
AcDbEntity
  8
ADF70-0301
370
              15
390
0
  6
Continuous
 62
               7
100
AcDbLine
 10
691.7288621722065
 20
-421.62964300624583
 30
0.0
 11
691.7288621722065
 21
-436.62964300624583
 31
0.0
  0
LINE
  5
1C5
100
AcDbEntity
  8
ADF70-0301
370
              15
390
0
  6
Continuous
 62
               7
100
AcDbLine
 10
656.7288621722065
 20
-421.62964300624583
 30
0.0
 11
656.7288621722065
 21
-436.62964300624583
 31
0.0
  0
ARC
  5
1C6
100
AcDbEntity
  8
ADF70-0301
370
              15
390
0
  6
Continuous
 62
               7
100
AcDbCircle
 10
564.71278765947261
 20
-602.63839262319846
 30
0.0
 40
4.0000000000000027
100
AcDbArc
 50
97.927434268122155
 51
173.36748538556185
  0
LINE
  5
1C7
100
AcDbEntity
  8
ADF70-0301
370
              15
390
0
  6
STYLE_12
 62
               7
100
AcDbLine
 10
-568.10474984565315
 20
-446.63763179237617
 30
0.0
 11
-568.10474984565315
 21
-486.63763179237617
 31
0.0
  0
LINE
  5
1C8
100
AcDbEntity
  8
ADF70-0301
370
              15
390
0
  6
Continuous
 62
               7
100
AcDbLine
 10
740.25582148869137
 20
-421.62964300624583
 30
0.0
 11
268.25673885971827
 21
-421.62964300624583
 31
0.0
  0
ARC
  5
1C9
100
AcDbEntity
  8
ADF70-0301
370
              15
390
0
  6
STYLE_01
 62
               7
100
AcDbCircle
 10
-152.22258882154114
 20
-425.62901548513571
 30
0.0
 40
3.9999999999997726
100
AcDbArc
 50
90.0
 51
168.91851629152566
  0
LWPOLYLINE
  5
1CA
100
AcDbEntity
  8
ADF70-0301
370
              15
390
0
  6
STYLE_12
 62
               7
100
AcDbPolyline
 90
        4
 70
             128
 10
-389.89542695814237
 20
-563.65579259608819
 10
-233.23884589280118
 20
-557.82271948084554
 42
0.2826005991294158
 10
-189.69078320289782
 20
-528.78739445541612
 42
0.0596947406840232
 10
-156.14800814202641
 20
-425.02297241860913
 42
0.0596947406840232
  0
LINE
  5
1CB
100
AcDbEntity
  8
ADF70-0301
370
              15
390
0
  6
STYLE_12
 62
               7
100
AcDbLine
 10
-389.70474984565249
 20
-563.56045403984342
 30
0.0
 11
-405.704749845653
 21
-571.56045403984342
 31
0.0
  0
LINE
  5
1CC
100
AcDbEntity
  8
ADF70-0301
370
              15
390
0
  6
STYLE_12
 62
               7
100
AcDbLine
 10
-405.704749845653
 20
-571.56045403984342
 30
0.0
 11
-405.704749845653
 21
-606.56045404444114
 31
0.0
  0
LINE
  5
1CD
100
AcDbEntity
  8
ADF70-0301
370
              15
390
0
  6
STYLE_12
 62
               7
100
AcDbLine
 10
-467.70474984565357
 20
-563.56045403984342
 30
0.0
 11
-451.70474984565311
 21
-571.56045403984365
 31
0.0
  0
LINE
  5
1CE
100
AcDbEntity
  8
ADF70-0301
370
              15
390
0
  6
STYLE_12
 62
               7
100
AcDbLine
 10
-451.70474984565311
 20
-571.56045403984365
 30
0.0
 11
-451.70474984565311
 21
-606.56045404444137
 31
0.0
  0
LINE
  5
1CF
100
AcDbEntity
  8
ADF70-0301
370
              15
390
0
  6
STYLE_12
 62
               7
100
AcDbLine
 10
-451.70474984565311
 20
-571.56045403984365
 30
0.0
 11
-405.704749845653
 21
-571.56045403984342
 31
0.0
  0
LINE
  5
1D0
100
AcDbEntity
  8
ADF70-0301
370
              15
390
0
  6
STYLE_12
 62
               7
100
AcDbLine
 10
-389.89542695814242
 20
-563.65579259608819
 30
0.0
 11
-467.51407273316403
 21
-563.65579259608819
 31
0.0
  0
LINE
  5
1D1
100
AcDbEntity
  8
ADF70-0301
370
               5
390
0
  6
STYLE_12
 62
               7
100
AcDbLine
 10
258.83763179237627
 20
794.29318239841621
 30
0.0
 11
713.83763179237633
 21
794.29318239841621
 31
0.0
  0
SPLINE
  5
1D2
100
AcDbEntity
  8
ADF70-0301
370
               5
390
0
  6
STYLE_12
 62
               7
100
AcDbSpline
210
0.0
220
0.0
230
1.0
 70
               8
 71
               2
 72
              21
 73
              18
 74
               0
 42
0.000001
 43
0.000001
 40
0.0
 40
0.0
 40
0.0
 40
1.0
 40
1.0
 40
2.0
 40
3.0
 40
4.0
 40
5.0
 40
6.0
 40
7.0
 40
8.0
 40
9.0
 40
10.0
 40
11.0
 40
12.0
 40
13.0
 40
13.0
 40
14.0
 40
14.0
 40
14.0
 10
178.69791552992712
 20
504.55808685085435
 30
0.0
 10
178.69791552992712
 20
501.50467680223346
 30
0.0
 10
178.69791552992712
 20
498.45126675361257
 30
0.0
 10
180.64258775380046
 20
479.66233774022407
 30
0.0
 10
193.19527752754772
 20
440.70370546734171
 30
0.0
 10
235.80731622240666
 20
390.61943468058348
 30
0.0
 10
302.02260034035186
 20
349.73068983350572
 30
0.0
 10
383.06920254656285
 20
323.53094771455585
 30
0.0
 10
466.33082817740188
 20
313.29926917653006
 30
0.0
 10
526.44643277338253
 20
315.76001904242594
 30
0.0
 10
589.48661334823191
 20
323.48793828987414
 30
0.0
 10
670.53225405162686
 20
349.79689676361045
 30
0.0
 10
736.75002559887002
 20
390.74241171221433
 30
0.0
 10
779.17658592848659
 20
440.84950790583457
 30
0.0
 10
791.75324330605383
 20
479.66233774022362
 30
0.0
 10
793.6979155299274
 20
498.45126675361212
 30
0.0
 10
793.6979155299274
 20
501.50467680223301
 30
0.0
 10
793.6979155299274
 20
504.5580868508539
 30
0.0
  0
ARC
  5
1D3
100
AcDbEntity
  8
ADF70-0301
370
               5
390
0
  6
STYLE_12
 62
               7
100
AcDbCircle
 10
657.84385637044693
 20
499.47659892500997
 30
0.0
 40
484.61816338301696
100
AcDbArc
 50
155.13830379040235
 51
167.55763415727276
  0
ARC
  5
1D4
100
AcDbEntity
  8
ADF70-0301
370
               5
390
0
  6
STYLE_12
 62
               7
100
AcDbCircle
 10
454.36245832438885
 20
536.27749766094917
 30
0.0
 40
278.09923181220279
100
AcDbArc
 50
165.92877264696628
 51
186.54928841906349
  0
ARC
  5
1D5
100
AcDbEntity
  8
ADF70-0301
370
               5
390
0
  6
STYLE_12
 62
               7
100
AcDbCircle
 10
314.69029513865399
 20
499.47659892501269
 30
0.0
 40
484.61816338300821
100
AcDbArc
 50
12.442365842727153
 51
24.861696209597785
  0
ARC
  5
1D6
100
AcDbEntity
  8
ADF70-0301
370
               5
390
0
  6
STYLE_12
 62
               7
100
AcDbCircle
 10
518.17169318470337
 20
536.27749766094894
 30
0.0
 40
278.09923181220319
100
AcDbArc
 50
353.45071158093663
 51
14.071227353033805
  0
CIRCLE
  5
1D7
100
AcDbEntity
  8
ADF70-0301
370
               5
390
0
  6
STYLE_12
 62
               7
100
AcDbCircle
 10
486.33691682101124
 20
584.29318239841609
 30
0.0
 40
23.0
  0
CIRCLE
  5
1D8
100
AcDbEntity
  8
ADF70-0301
370
               5
390
0
  6
STYLE_12
 62
               7
100
AcDbCircle
 10
486.33691682101124
 20
729.29318239841621
 30
0.0
 40
17.5
  0
CIRCLE
  5
1D9
100
AcDbEntity
  8
ADF70-0301
370
               5
390
0
  6
STYLE_12
 62
               7
100
AcDbCircle
 10
586.3369168210113
 20
729.29318239841621
 30
0.0
 40
17.5
  0
CIRCLE
  5
1DA
100
AcDbEntity
  8
ADF70-0301
370
               5
390
0
  6
STYLE_12
 62
               7
100
AcDbCircle
 10
386.33691682101136
 20
729.29318239841621
 30
0.0
 40
17.499999999999886
  0
ARC
  5
1DB
100
AcDbEntity
  8
ADF70-0301
370
               5
390
0
  6
STYLE_12
 62
               7
100
AcDbCircle
 10
1459.9548624800868
 20
1072.0221019018038
 30
0.0
 40
796.13081504085596
100
AcDbArc
 50
200.41689109862625
 51
207.59622875024638
  0
ARC
  5
1DC
100
AcDbEntity
  8
ADF70-0301
370
               5
390
0
  6
STYLE_12
 62
               7
100
AcDbCircle
 10
-487.44391318109598
 20
1072.0221019018038
 30
0.0
 40
796.13081504085665
100
AcDbArc
 50
332.40377124975373
 51
339.58310890137375
  0
LINE
  5
1DD
100
AcDbEntity
  8
ADF70-0301
370
               5
390
0
  6
Continuous
 62
               7
100
AcDbLine
 10
126.33691682101119
 20
794.29318239841621
 30
0.0
 11
846.33691682101119
 21
794.29318239841621
 31
0.0
  0
LINE
  5
1DE
100
AcDbEntity
  8
ADF70-0301
370
              15
390
0
  6
Continuous
 62
               7
100
AcDbLine
 10
763.4274509345139
 20
831.29318239841621
 30
0.0
 11
726.4274509345139
 21
794.29318239841621
 31
0.0
  0
LINE
  5
1DF
100
AcDbEntity
  8
ADF70-0301
370
              15
390
0
  6
Continuous
 62
               7
100
AcDbLine
 10
743.4274509345139
 20
831.29318239841621
 30
0.0
 11
706.4274509345139
 21
794.29318239841621
 31
0.0
  0
LINE
  5
1E0
100
AcDbEntity
  8
ADF70-0301
370
              15
390
0
  6
Continuous
 62
               7
100
AcDbLine
 10
723.4274509345139
 20
831.29318239841621
 30
0.0
 11
686.4274509345139
 21
794.29318239841621
 31
0.0
  0
POLYLINE
  5
1E1
100
AcDbEntity
  8
ADF70-0301
370
              15
390
0
  6
Continuous
 62
               7
100
AcDb2dPolyline
 66
               1
 10
0.0
 20
0.0
 30
0.0
 70
               1
 75
               5
  0
VERTEX
  5
1E2
100
AcDbEntity
  8
ADF70-0301
370
              15
390
0
  6
Continuous
 62
               7
100
AcDbVertex
100
AcDb2dVertex
 10
311.32745093451393
 20
794.29318239841621
 30
0.0
  0
VERTEX
  5
1E3
100
AcDbEntity
  8
ADF70-0301
370
              15
390
0
  6
Continuous
 62
               7
100
AcDbVertex
100
AcDb2dVertex
 10
661.32745093451388
 20
794.29318239841621
 30
0.0
  0
VERTEX
  5
1E4
100
AcDbEntity
  8
ADF70-0301
370
              15
390
0
  6
Continuous
 62
               7
100
AcDbVertex
100
AcDb2dVertex
 10
661.32745093451388
 20
524.29318239841609
 30
0.0
  0
VERTEX
  5
1E5
100
AcDbEntity
  8
ADF70-0301
370
              15
390
0
  6
Continuous
 62
               7
100
AcDbVertex
100
AcDb2dVertex
 10
311.32745093451393
 20
524.29318239841609
 30
0.0
  0
SEQEND
  5
1E6
100
AcDbEntity
  8
ADF70-0301
370
              15
390
0
  6
Continuous
 62
               7
  0
LINE
  5
1E7
100
AcDbEntity
  8
ADF70-0301
370
              15
390
0
  6
STYLE_12
 62
               7
100
AcDbLine
 10
-588.10474984565315
 20
-466.63763179237617
 30
0.0
 11
-548.10474984565315
 21
-466.63763179237617
 31
0.0
  0
CIRCLE
  5
1E8
100
AcDbEntity
  8
ADF70-0301
370
              15
390
0
  6
STYLE_12
 62
               7
100
AcDbCircle
 10
-568.10474984565315
 20
-466.63763179237617
 30
0.0
 40
10.0
  0
LINE
  5
1E9
100
AcDbEntity
  8
ADF70-0301
370
              15
390
0
  6
STYLE_12
 62
               7
100
AcDbLine
 10
-288.10474984565309
 20
-446.63763179237617
 30
0.0
 11
-288.10474984565309
 21
-486.63763179237617
 31
0.0
  0
LINE
  5
1EA
100
AcDbEntity
  8
ADF70-0301
370
              15
390
0
  6
STYLE_12
 62
               7
100
AcDbLine
 10
-308.10474984565309
 20
-466.63763179237617
 30
0.0
 11
-268.10474984565309
 21
-466.63763179237617
 31
0.0
  0
CIRCLE
  5
1EB
100
AcDbEntity
  8
ADF70-0301
370
              15
390
0
  6
STYLE_12
 62
               7
100
AcDbCircle
 10
-288.10474984565309
 20
-466.63763179237617
 30
0.0
 40
10.0
  0
ARC
  5
1EC
100
AcDbEntity
  8
ADF70-0301
370
              15
390
0
  6
Continuous
 62
               7
100
AcDbCircle
 10
-660.02337081744008
 20
-583.6094311055266
 30
0.0
 40
8.0000000000000089
100
AcDbArc
 50
223.68484473460236
 51
270.0
  0
ARC
  5
1ED
100
AcDbEntity
  8
ADF70-0301
370
               5
390
0
  6
Continuous
 62
               7
100
AcDbCircle
 10
-196.13973461418271
 20
-583.60943110552626
 30
0.0
 40
8.0000000000003411
100
AcDbArc
 50
270.0
 51
316.14040580125379
  0
ARC
  5
1EE
100
AcDbEntity
  8
ADF70-0301
370
               5
390
0
  6
Continuous
 62
               7
100
AcDbCircle
 10
319.71687507621704
 20
-583.62964300624583
 30
0.0
 40
8.0000000000000444
100
AcDbArc
 50
210.47691528067634
 51
270.0
  0
ARC
  5
1EF
100
AcDbEntity
  8
ADF70-0301
370
              15
390
0
  6
STYLE_01
 62
               7
100
AcDbCircle
 10
-152.22258882154114
 20
-425.62901548513571
 30
0.0
 40
3.9999999999997726
100
AcDbArc
 50
90.0
 51
168.91851629152566
  0
LWPOLYLINE
  5
1F0
100
AcDbEntity
  8
ADF70-0301
370
              15
390
0
  6
STYLE_12
 62
               7
100
AcDbPolyline
 90
        4
 70
             128
 10
-466.31407273316512
 20
-563.65579259608978
 10
-622.97065379850619
 20
-557.82271948084713
 42
-0.2826005991294153
 10
-666.5187164884095
 20
-528.78739445541771
 42
-0.059694740684024
 10
-700.06149154928096
 20
-425.02297241861072
 42
-0.059694740684024
  0
ENDSEC
  0
SECTION
  2
OBJECTS
  0
DICTIONARY
  5
19
100
AcDbDictionary
280
               0
281
               1
  3
ACAD_GROUP
350
1A
  3
ACAD_MLINESTYLE
350
1B
  3
ACAD_LAYOUT
350
1E
  3
ACAD_PLOTSETTINGS
350
22
  3
ACAD_PLOTSTYLENAME
350
1F
  0
DICTIONARY
  5
1A
102
{ACAD_REACTORS
330
19
102
}
100
AcDbDictionary
280
               0
281
               1
  0
DICTIONARY
  5
1B
102
{ACAD_REACTORS
330
19
102
}
100
AcDbDictionary
280
               0
281
               1
  3
Standard
350
1C
  0
MLINESTYLE
  5
1C
102
{ACAD_REACTORS
330
1B
102
}
100
AcDbMlineStyle
  2
Standard
 70
               0
  3

 62
               0
 51
90.0
 52
90.0
 71
               2
 49
0.5
 62
             256
  6
ByLayer
 49
-0.5
 62
             256
  6
ByLayer
  0
ACDBDICTIONARYWDFLT
  5
1F
102
{ACAD_REACTORS
330
19
102
}
100
AcDbDictionary
281
               1
  3
Normal
350
1D
100
AcDbDictionaryWithDefault
340
1D
  0
ACDBPLACEHOLDER
  5
1D
102
{ACAD_REACTORS
330
1F
102
}
  0
LAYOUT
  5
20
102
{ACAD_REACTORS
330
1E
102
}
100
AcDbPlotSettings
  1

  2

  4

  6

 40
0.0
 41
0.0
 42
0.0
 43
0.0
 44
0.0
 45
0.0
 46
0.0
 47
0.0
 48
0.0
 49
0.0
140
0.0
141
0.0
142
1.0
143
1.0
 70
            1024
 72
               0
 73
               0
 74
               0
  7

 75
               0
147
1.0
148
0.0
149
0.0
100
AcDbLayout
  1
Model
 70
               0
 71
               0
 10
0.0
 20
0.0
 11
0.0
 21
0.0
 12
0.0
 22
0.0
 32
0.0
 14
0.0
 24
0.0
 34
0.0
 15
0.0
 25
0.0
 35
0.0
146
0.0
 13
0.0
 23
0.0
 33
0.0
 16
0.0
 26
0.0
 36
0.0
 17
0.0
 27
0.0
 37
0.0
 76
               0
330
A
331
0
345
0
346
0
  0
LAYOUT
  5
21
102
{ACAD_REACTORS
330
1E
102
}
100
AcDbPlotSettings
  1

  2

  4

  6

 40
0.0
 41
0.0
 42
0.0
 43
0.0
 44
0.0
 45
0.0
 46
0.0
 47
0.0
 48
0.0
 49
0.0
140
0.0
141
0.0
142
1.0
143
1.0
 70
               0
 72
               0
 73
               0
 74
               0
  7

 75
               0
147
1.0
148
0.0
149
0.0
100
AcDbLayout
  1
Layout1
 70
               0
 71
               0
 10
0.0
 20
0.0
 11
0.0
 21
0.0
 12
0.0
 22
0.0
 32
0.0
 14
0.0
 24
0.0
 34
0.0
 15
0.0
 25
0.0
 35
0.0
146
0.0
 13
0.0
 23
0.0
 33
0.0
 16
0.0
 26
0.0
 36
0.0
 17
0.0
 27
0.0
 37
0.0
 76
               0
330
B
331
0
345
0
346
0
  0
DICTIONARY
  5
1E
102
{ACAD_REACTORS
330
19
102
}
100
AcDbDictionary
280
               0
281
               1
  3
Layout1
350
21
  3
Model
350
20
  0
DICTIONARY
  5
22
102
{ACAD_REACTORS
330
19
102
}
100
AcDbDictionary
280
               0
281
               1
  0
ENDSEC
  0
EOF
