  0
SECTION
  2
HEADER
  9
$ACADVER
  1
AC1015
  9
$ACADMAINTVER
 70
               6
  9
$DWGCODEPAGE
  3
ANSI_932
  9
$INSBASE
 10
0.0
 20
0.0
 30
0.0
  9
$EXTMIN
 10
-975.00000000024102
 20
-1431.5255224711127
 30
-14.834305555555552
  9
$EXTMAX
 10
975.00000000024124
 20
1405.9972926412995
 30
14.834305555555552
  9
$LIMMIN
 10
0.0
 20
0.0
  9
$LIMMAX
 10
0.0
 20
0.0
  9
$ORTHOMODE
 70
               0
  9
$REGENMODE
 70
               1
  9
$FILLMODE
 70
               1
  9
$QTEXTMODE
 70
               0
  9
$MIRRTEXT
 70
               1
  9
$LTSCALE
 40
50.799999999999997
  9
$ATTMODE
 70
               1
  9
$TEXTSIZE
 40
0.2
  9
$TRACEWID
 40
1.0
  9
$TEXTSTYLE
  7
Standard
  9
$CLAYER
  8
notes
  9
$CELTYPE
  6
Continuous
  9
$CECOLOR
 62
             256
  9
$CELTSCALE
 40
1.0
  9
$DISPSILH
 70
               0
  9
$DIMSCALE
 40
1.0
  9
$DIMASZ
 40
31.75
  9
$DIMEXO
 40
0.0
  9
$DIMDLI
 40
6.9999999999999396
  9
$DIMRND
 40
0.0
  9
$DIMDLE
 40
0.0
  9
$DIMEXE
 40
19.999999999996199
  9
$DIMTP
 40
0.0
  9
$DIMTM
 40
0.0
  9
$DIMTXT
 40
24.432617187500004
  9
$DIMCEN
 40
0.0
  9
$DIMTSZ
 40
0.0
  9
$DIMTOL
 70
               0
  9
$DIMLIM
 70
               0
  9
$DIMTIH
 70
               0
  9
$DIMTOH
 70
               0
  9
$DIMSE1
 70
               0
  9
$DIMSE2
 70
               0
  9
$DIMTAD
 70
               1
  9
$DIMZIN
 70
              11
  9
$DIMBLK
  1
VW_FILLEDARROW
  9
$DIMASO
 70
               1
  9
$DIMSHO
 70
               1
  9
$DIMPOST
  1
<>
  9
$DIMAPOST
  1
[]
  9
$DIMALT
 70
               0
  9
$DIMALTD
 70
               1
  9
$DIMALTF
 40
1.0
  9
$DIMLFAC
 40
1.0
  9
$DIMTOFL
 70
               0
  9
$DIMTVP
 40
0.0
  9
$DIMTIX
 70
               1
  9
$DIMSOXD
 70
               0
  9
$DIMSAH
 70
               0
  9
$DIMBLK1
  1

  9
$DIMBLK2
  1

  9
$DIMSTYLE
  2
JIS
  9
$DIMCLRD
 70
               0
  9
$DIMCLRE
 70
               0
  9
$DIMCLRT
 70
               0
  9
$DIMTFAC
 40
1.0
  9
$DIMGAP
 40
1.00000000000108
  9
$DIMJUST
 70
               0
  9
$DIMSD1
 70
               0
  9
$DIMSD2
 70
               0
  9
$DIMTOLJ
 70
               1
  9
$DIMTZIN
 70
              11
  9
$DIMALTZ
 70
              11
  9
$DIMALTTZ
 70
              11
  9
$DIMUPT
 70
               0
  9
$DIMDEC
 70
               1
  9
$DIMTDEC
 70
               1
  9
$DIMALTU
 70
               2
  9
$DIMALTTD
 70
               2
  9
$DIMTXSTY
  7
ＭＳ ゴシック
  9
$DIMAUNIT
 70
               0
  9
$DIMADEC
 70
               2
  9
$DIMALTRND
 40
0.0
  9
$DIMAZIN
 70
               0
  9
$DIMDSEP
 70
              46
  9
$DIMATFIT
 70
               0
  9
$DIMFRAC
 70
               2
  9
$DIMLDRBLK
  1

  9
$DIMLUNIT
 70
               2
  9
$DIMLWD
 70
              -2
  9
$DIMLWE
 70
              -2
  9
$DIMTMOVE
 70
               0
  9
$LUNITS
 70
               2
  9
$LUPREC
 70
               4
  9
$SKETCHINC
 40
0.1
  9
$FILLETRAD
 40
0.0
  9
$AUNITS
 70
               0
  9
$AUPREC
 70
               0
  9
$MENU
  1
acad
  9
$ELEVATION
 40
0.0
  9
$PELEVATION
 40
0.0
  9
$THICKNESS
 40
0.0
  9
$LIMCHECK
 70
               0
  9
$CHAMFERA
 40
0.0
  9
$CHAMFERB
 40
0.0
  9
$CHAMFERC
 40
0.0
  9
$CHAMFERD
 40
0.0
  9
$SKPOLY
 70
               0
  9
$TDCREATE
 40
2456022.601331018
  9
$TDUCREATE
 40
0.000000000
  9
$TDUPDATE
 40
2456022.601331018
  9
$TDUUPDATE
 40
0.000000000
  9
$TDINDWG
 40
0.0000000000
  9
$TDUSRTIMER
 40
0.0000000000
  9
$USRTIMER
 70
               1
  9
$ANGBASE
 50
0.0
  9
$ANGDIR
 70
               0
  9
$PDMODE
 70
               1
  9
$PDSIZE
 40
-2.0
  9
$PLINEWID
 40
0.0
  9
$SPLFRAME
 70
               0
  9
$SPLINETYPE
 70
               6
  9
$SPLINESEGS
 70
               8
  9
$HANDSEED
  5
263
  9
$SURFTAB1
 70
               6
  9
$SURFTAB2
 70
               6
  9
$SURFTYPE
 70
               6
  9
$SURFU
 70
               6
  9
$SURFV
 70
               6
  9
$UCSBASE
  2

  9
$UCSNAME
  2

  9
$UCSORG
 10
0.0
 20
0.0
 30
0.0
  9
$UCSXDIR
 10
1.0
 20
0.0
 30
0.0
  9
$UCSYDIR
 10
0.0
 20
1.0
 30
0.0
  9
$UCSORTHOREF
  2

  9
$UCSORTHOVIEW
 70
               0
  9
$UCSORGTOP
 10
0.0
 20
0.0
 30
0.0
  9
$UCSORGBOTTOM
 10
0.0
 20
0.0
 30
0.0
  9
$UCSORGLEFT
 10
0.0
 20
0.0
 30
0.0
  9
$UCSORGRIGHT
 10
0.0
 20
0.0
 30
0.0
  9
$UCSORGFRONT
 10
0.0
 20
0.0
 30
0.0
  9
$UCSORGBACK
 10
0.0
 20
0.0
 30
0.0
  9
$PUCSBASE
  2

  9
$PUCSNAME
  2

  9
$PUCSORG
 10
0.0
 20
0.0
 30
0.0
  9
$PUCSXDIR
 10
1.0
 20
0.0
 30
0.0
  9
$PUCSYDIR
 10
0.0
 20
1.0
 30
0.0
  9
$PUCSORTHOREF
  2

  9
$PUCSORTHOVIEW
 70
               0
  9
$PUCSORGTOP
 10
0.0
 20
0.0
 30
0.0
  9
$PUCSORGBOTTOM
 10
0.0
 20
0.0
 30
0.0
  9
$PUCSORGLEFT
 10
0.0
 20
0.0
 30
0.0
  9
$PUCSORGRIGHT
 10
0.0
 20
0.0
 30
0.0
  9
$PUCSORGFRONT
 10
0.0
 20
0.0
 30
0.0
  9
$PUCSORGBACK
 10
0.0
 20
0.0
 30
0.0
  9
$USERI1
 70
               0
  9
$USERI2
 70
               0
  9
$USERI3
 70
               0
  9
$USERI4
 70
               0
  9
$USERI5
 70
               0
  9
$USERR1
 40
0.0
  9
$USERR2
 40
0.0
  9
$USERR3
 40
0.0
  9
$USERR4
 40
0.0
  9
$USERR5
 40
0.0
  9
$WORLDVIEW
 70
               1
  9
$SHADEDGE
 70
               3
  9
$SHADEDIF
 70
              70
  9
$TILEMODE
 70
               1
  9
$MAXACTVP
 70
              64
  9
$PINSBASE
 10
0.0
 20
0.0
 30
0.0
  9
$PLIMCHECK
 70
               0
  9
$PEXTMIN
 10
1.0000000000000000E+20
 20
1.0000000000000000E+20
 30
1.0000000000000000E+20
  9
$PEXTMAX
 10
-1.0000000000000000E+20
 20
-1.0000000000000000E+20
 30
-1.0000000000000000E+20
  9
$PLIMMIN
 10
0.0
 20
0.0
  9
$PLIMMAX
 10
12.0
 20
9.0
  9
$UNITMODE
 70
               0
  9
$VISRETAIN
 70
               0
  9
$PLINEGEN
 70
               1
  9
$PSLTSCALE
 70
               0
  9
$TREEDEPTH
 70
            3020
  9
$CMLSTYLE
  2
Standard
  9
$CMLJUST
 70
               0
  9
$CMLSCALE
 40
1.0
  9
$PROXYGRAPHICS
 70
               0
  9
$MEASUREMENT
 70
               1
  9
$CELWEIGHT
370
               0
  9
$ENDCAPS
280
               0
  9
$JOINSTYLE
280
               0
  9
$LWDISPLAY
290
               1
  9
$INSUNITS
 70
               4
  9
$HYPERLINKBASE
  1

  9
$STYLESHEET
  1

  9
$XEDIT
290
               1
  9
$CEPSNTYPE
380
               0
  9
$PSTYLEMODE
290
               1
  9
$FINGERPRINTGUID
  2

  9
$VERSIONGUID
  2

  9
$EXTNAMES
290
               1
  9
$PSVPSCALE
 40
0.0
  0
ENDSEC
  0
SECTION
  2
CLASSES
  0
CLASS
  1
LWPOLYLINE
  2
AcDbPolyline
  3
AutoCAD 2000
 90
        0
280
               0
281
               1
  0
CLASS
  1
IMAGE
  2
AcDbRasterImage
  3
ISM
 90
      127
280
               0
281
               1
  0
CLASS
  1
OLE2FRAME
  2
AcDbOle2Frame
  3
AutoCAD 2000
 90
        0
280
               0
281
               1
  0
CLASS
  1
HATCH
  2
AcDbHatch
  3
AutoCAD 2000
 90
        0
280
               0
281
               1
  0
CLASS
  1
DICTIONARYVAR
  2
AcDbDictionaryVar
  3
AutoCAD 2000
 90
        0
280
               0
281
               0
  0
CLASS
  1
RASTERVARIABLES
  2
AcDbRasterVariables
  3
ISM
 90
        0
280
               0
281
               0
  0
CLASS
  1
IMAGEDEF
  2
AcDbRasterImageDef
  3
ISM
 90
        0
280
               0
281
               0
  0
CLASS
  1
IMAGEDEF_REACTOR
  2
AcDbRasterImageDefReactor
  3
ISM
 90
        1
280
               0
281
               0
  0
CLASS
  1
IDBUFFER
  2
AcDbIdBuffer
  3
AutoCAD 2000
 90
        0
280
               0
281
               0
  0
CLASS
  1
SPATIAL_FILTER
  2
AcDbSpatialFilter
  3
AutoCAD 2000
 90
        0
280
               0
281
               0
  0
CLASS
  1
XRECORD
  2
AcDbXrecord
  3
AutoCAD 2000
 90
        0
280
               0
281
               0
  0
CLASS
  1
SORTENTSTABLE
  2
AcDbSortentsTable
  3
AutoCAD 2000
 90
        0
280
               0
281
               0
  0
CLASS
  1
LAYER_INDEX
  2
AcDbLayerIndex
  3
AutoCAD 2000
 90
        0
280
               0
281
               0
  0
CLASS
  1
SPATIAL_INDEX
  2
AcDbSpatialIndex
  3
AutoCAD 2000
 90
        0
280
               0
281
               0
  0
CLASS
  1
OBJECT_PTR
  2
CAseDLPNTableRecord
  3
"ASE-LPNTableRecord"
 90
        1
280
               0
281
               0
  0
CLASS
  1
LAYOUT
  2
AcDbLayout
  3
AutoCAD 2000
 90
        0
280
               0
281
               0
  0
CLASS
  1
PLOTSETTINGS
  2
AcDbPlotSettings
  3
AutoCAD 2000
 90
        0
280
               0
281
               0
  0
CLASS
  1
ACDBDICTIONARYWDFLT
  2
AcDbDictionaryWithDefault
  3
AutoCAD 2000
 90
        0
280
               0
281
               0
  0
CLASS
  1
ACDBPLACEHOLDER
  2
AcDbPlaceHolder
  3
AutoCAD 2000
 90
        0
280
               0
281
               0
  0
ENDSEC
  0
SECTION
  2
TABLES
  0
TABLE
  2
VPORT
  5
7
100
AcDbSymbolTable
 70
               1
  0
VPORT
  5
15
100
AcDbSymbolTableRecord
100
AcDbViewportTableRecord
  2
*ACTIVE
 70
               0
 10
0.0
 20
0.0
 11
1.0
 21
1.0
 12
0.0000000000001137
 22
-12.764114914906713
 13
0.0
 23
0.0
 14
1.0
 24
1.0
 15
0.0
 25
0.0
 16
0.0
 26
0.0
 36
1.0
 17
0.0
 27
0.0
 37
0.0
 40
2837.522815112412
 41
0.688564
 42
50.0
 43
0.0
 44
0.0
 50
0.0
 51
0.0
 71
               0
 72
            2000
 73
               1
 74
               1
 75
               0
 76
               0
 77
               0
 78
               0
281
               0
 65
               0
110
0.0
120
0.0
130
0.0
111
1.0
121
0.0
131
0.0
112
0.0
122
1.0
132
0.0
345
0
346
0
 79
               0
146
0.0
  0
ENDTAB
  0
TABLE
  2
LTYPE
  5
4
100
AcDbSymbolTable
 70
              16
  0
LTYPE
  5
11
100
AcDbSymbolTableRecord
100
AcDbLinetypeTableRecord
  2
ByBlock
 70
              64
  3

 72
              65
 73
               0
 40
0.0
  0
LTYPE
  5
12
100
AcDbSymbolTableRecord
100
AcDbLinetypeTableRecord
  2
ByLayer
 70
              64
  3

 72
              65
 73
               0
 40
0.0
  0
LTYPE
  5
13
100
AcDbSymbolTableRecord
100
AcDbLinetypeTableRecord
  2
Continuous
 70
              64
  3
Solid line
 72
              65
 73
               0
 40
0.0
  0
LTYPE
  5
41
100
AcDbSymbolTableRecord
100
AcDbLinetypeTableRecord
  2
STYLE_01
 70
               0
  3

 72
              65
 73
               2
 40
0.375
 49
0.25
 74
               0
 49
-0.125
 74
               0
  0
LTYPE
  5
42
100
AcDbSymbolTableRecord
100
AcDbLinetypeTableRecord
  2
STYLE_02
 70
               0
  3

 72
              65
 73
               2
 40
0.6944250000000001
 49
0.48607
 74
               0
 49
-0.2083550000000001
 74
               0
  0
LTYPE
  5
43
100
AcDbSymbolTableRecord
100
AcDbLinetypeTableRecord
  2
STYLE_03
 70
               0
  3

 72
              65
 73
               2
 40
1.25
 49
1.0416400000000001
 74
               0
 49
-0.2083599999999999
 74
               0
  0
LTYPE
  5
44
100
AcDbSymbolTableRecord
100
AcDbLinetypeTableRecord
  2
STYLE_04
 70
               0
  3

 72
              65
 73
               2
 40
1.5277099999999999
 49
1.3194249999999998
 74
               0
 49
-0.208285
 74
               0
  0
LTYPE
  5
45
100
AcDbSymbolTableRecord
100
AcDbLinetypeTableRecord
  2
STYLE_05
 70
               0
  3

 72
              65
 73
               2
 40
0.20828
 49
0.069425
 74
               0
 49
-0.138855
 74
               0
  0
LTYPE
  5
46
100
AcDbSymbolTableRecord
100
AcDbLinetypeTableRecord
  2
STYLE_06
 70
               0
  3

 72
              65
 73
               4
 40
1.0416400000000001
 49
0.625
 74
               0
 49
-0.20828
 74
               0
 49
0.06943
 74
               0
 49
-0.13893
 74
               0
  0
LTYPE
  5
47
100
AcDbSymbolTableRecord
100
AcDbLinetypeTableRecord
  2
STYLE_07
 70
               0
  3

 72
              65
 73
               6
 40
1.875
 49
0.625
 74
               0
 49
-0.20828
 74
               0
 49
0.6250000000000001
 74
               0
 49
-0.2083599999999999
 74
               0
 49
0.06943
 74
               0
 49
-0.1389299999999999
 74
               0
  0
LTYPE
  5
48
100
AcDbSymbolTableRecord
100
AcDbLinetypeTableRecord
  2
STYLE_08
 70
               0
  3

 72
              65
 73
               6
 40
1.25
 49
0.625
 74
               0
 49
-0.20828
 74
               0
 49
0.06943
 74
               0
 49
-0.13893
 74
               0
 49
0.0694299999999999
 74
               0
 49
-0.13893
 74
               0
  0
LTYPE
  5
49
100
AcDbSymbolTableRecord
100
AcDbLinetypeTableRecord
  2
STYLE_09
 70
               0
  3

 72
              65
 73
               4
 40
5.0
 49
3.75
 74
               0
 49
-0.2777849999999998
 74
               0
 49
0.6944300000000003
 74
               0
 49
-0.2777849999999998
 74
               0
  0
LTYPE
  5
4A
100
AcDbSymbolTableRecord
100
AcDbLinetypeTableRecord
  2
STYLE_10
 70
               0
  3

 72
              65
 73
               6
 40
5.9375
 49
3.75
 74
               0
 49
-0.2777849999999998
 74
               0
 49
0.6944300000000003
 74
               0
 49
-0.2777849999999998
 74
               0
 49
0.625
 74
               0
 49
-0.3125
 74
               0
  0
LTYPE
  5
4B
100
AcDbSymbolTableRecord
100
AcDbLinetypeTableRecord
  2
STYLE_11
 70
               0
  3

 72
              65
 73
               2
 40
0.516732283464567
 49
0.344488188976378
 74
               0
 49
-0.172244094488189
 74
               0
  0
LTYPE
  5
4C
100
AcDbSymbolTableRecord
100
AcDbLinetypeTableRecord
  2
STYLE_12
 70
               0
  3

 72
              65
 73
               2
 40
0.0694444881889764
 49
0.0347222440944882
 74
               0
 49
-0.0347222440944882
 74
               0
  0
LTYPE
  5
4D
100
AcDbSymbolTableRecord
100
AcDbLinetypeTableRecord
  2
STYLE_13
 70
               0
  3

 72
              65
 73
               2
 40
0.3937007874015748
 49
0.1968503937007874
 74
               0
 49
-0.1968503937007874
 74
               0
  0
ENDTAB
  0
TABLE
  2
LAYER
  5
2
100
AcDbSymbolTable
 70
               5
  0
LAYER
  5
14
100
AcDbSymbolTableRecord
100
AcDbLayerTableRecord
  2
0
 70
               0
 62
               7
  6
Continuous
290
               1
370
              -3
390
1D
  0
LAYER
  5
4E
100
AcDbSymbolTableRecord
100
AcDbLayerTableRecord
  2
Defpoints
 70
               0
 62
               7
  6
Continuous
290
               0
370
              -3
390
1D
  0
LAYER
  5
4F
100
AcDbSymbolTableRecord
100
AcDbLayerTableRecord
  2
template
 70
               0
 62
               7
  6
Continuous
290
               1
370
              -3
390
1D
  0
LAYER
  5
50
100
AcDbSymbolTableRecord
100
AcDbLayerTableRecord
  2
notes
 70
               0
 62
               7
  6
Continuous
290
               1
370
              -3
390
1D
  0
LAYER
  5
51
100
AcDbSymbolTableRecord
100
AcDbLayerTableRecord
  2
ADF70-0402
 70
               0
 62
               7
  6
Continuous
290
               1
370
              -3
390
1D
  0
ENDTAB
  0
TABLE
  2
STYLE
  5
3
100
AcDbSymbolTable
 70
               2
  0
STYLE
  5
17
100
AcDbSymbolTableRecord
100
AcDbTextStyleTableRecord
  2
Standard
 70
               0
 40
0.0
 41
1.0
 50
0.0
 71
               0
 42
0.0
  3
txt
  4
BIGFONT.SHX
  0
STYLE
  5
40
100
AcDbSymbolTableRecord
100
AcDbTextStyleTableRecord
  2
ＭＳ ゴシック
 70
               0
 40
0.0
 41
1.0
 50
0.0
 71
               0
 42
0.0
  3

  4
ＭＳ ゴシック
1001
ACAD
1000
ＭＳ ゴシック
1071
        0
  0
ENDTAB
  0
TABLE
  2
VIEW
  5
5
100
AcDbSymbolTable
 70
               0
  0
ENDTAB
  0
TABLE
  2
UCS
  5
6
100
AcDbSymbolTable
 70
               0
  0
ENDTAB
  0
TABLE
  2
APPID
  5
8
100
AcDbSymbolTable
 70
               1
  0
APPID
  5
16
100
AcDbSymbolTableRecord
100
AcDbRegAppTableRecord
  2
ACAD
 70
               0
  0
ENDTAB
  0
TABLE
  2
DIMSTYLE
  5
9
100
AcDbSymbolTable
 70
               3
100
AcDbDimStyleTable
 71
               0
  0
DIMSTYLE
105
18
100
AcDbSymbolTableRecord
100
AcDbDimStyleTableRecord
  2
Standard
 70
               0
  3

  4

 40
1.0
 41
0.18
 42
0.0625
 43
0.38
 44
0.18
 45
0.0
 46
0.0
 47
0.0
 48
0.0
 71
               0
 72
               0
 73
               1
 74
               1
 75
               0
 76
               0
 77
               0
 78
               0
 79
               0
140
0.18
141
0.09
142
0.0
143
25.399999999999999
144
1.0
145
0.0
146
1.0
147
0.09
148
0.0
170
               0
171
               2
172
               0
173
               0
174
               0
175
               0
176
               0
177
               0
178
               0
179
               0
271
               4
272
               4
273
               2
274
               2
275
               0
276
               0
277
               2
278
              46
279
               0
280
               0
281
               0
282
               0
283
               1
284
               0
285
               0
286
               0
288
               0
289
               3
340
17
341
0
342
0
343
0
344
0
371
              -2
372
              -2
  0
DIMSTYLE
105
5A
100
AcDbSymbolTableRecord
100
AcDbDimStyleTableRecord
  2
tform線あり
 70
               0
  3
<>
  4
[]
 40
1.0
 41
9.9993896484374982
 42
24.999999999999996
 43
0.9999999999999999
 44
0.0
 45
0.0
 46
0.0
 47
0.0
 48
0.0
 71
               0
 72
               0
 73
               0
 74
               0
 75
               0
 76
               0
 77
               1
 78
              11
 79
               0
140
24.432617187500004
141
0.0
142
0.0
143
1.0
144
1.0
145
0.0
146
1.0
147
0.4999999999999999
148
0.0
170
               0
171
               1
172
               0
173
               0
174
               1
175
               0
176
               0
177
               0
178
               0
179
               2
271
               1
272
               1
273
               2
274
               2
275
               0
276
               2
277
               2
278
              46
279
               0
280
               0
281
               0
282
               0
283
               1
284
              11
285
              11
286
              11
288
               0
289
               0
340
40
341
52
342
52
343
0
344
0
371
              -2
372
              -2
  0
DIMSTYLE
105
5F
100
AcDbSymbolTableRecord
100
AcDbDimStyleTableRecord
  2
JIS
 70
               0
  3
<>
  4
[]
 40
1.0
 41
31.75
 42
0.0
 43
6.9999999999999396
 44
19.999999999996199
 45
0.0
 46
0.0
 47
0.0
 48
0.0
 71
               0
 72
               0
 73
               0
 74
               0
 75
               0
 76
               0
 77
               1
 78
              11
 79
               0
140
24.432617187500004
141
0.0
142
0.0
143
1.0
144
1.0
145
0.0
146
1.0
147
1.00000000000108
148
0.0
170
               0
171
               1
172
               0
173
               0
174
               1
175
               0
176
               0
177
               0
178
               0
179
               2
271
               1
272
               1
273
               2
274
               2
275
               0
276
               2
277
               2
278
              46
279
               0
280
               0
281
               0
282
               0
283
               1
284
              11
285
              11
286
              11
288
               0
289
               0
340
40
341
5B
342
5B
343
0
344
0
371
              -2
372
              -2
  0
ENDTAB
  0
TABLE
  2
BLOCK_RECORD
  5
1
100
AcDbSymbolTable
 70
              31
  0
BLOCK_RECORD
  5
A
100
AcDbSymbolTableRecord
100
AcDbBlockTableRecord
  2
*MODEL_SPACE
340
20
  0
BLOCK_RECORD
  5
B
100
AcDbSymbolTableRecord
100
AcDbBlockTableRecord
  2
*PAPER_SPACE
340
21
  0
BLOCK_RECORD
  5
52
100
AcDbSymbolTableRecord
100
AcDbBlockTableRecord
  2
_DOT
340
0
  0
BLOCK_RECORD
  5
5B
100
AcDbSymbolTableRecord
100
AcDbBlockTableRecord
  2
VW_FILLEDARROW
340
0
  0
BLOCK_RECORD
  5
23
100
AcDbSymbolTableRecord
100
AcDbBlockTableRecord
  2
グループ
340
0
102
{BLKREFS
331
1C8
102
}
  0
BLOCK_RECORD
  5
24
100
AcDbSymbolTableRecord
100
AcDbBlockTableRecord
  2
*D3
340
0
  0
BLOCK_RECORD
  5
25
100
AcDbSymbolTableRecord
100
AcDbBlockTableRecord
  2
*D4
340
0
  0
BLOCK_RECORD
  5
26
100
AcDbSymbolTableRecord
100
AcDbBlockTableRecord
  2
*D5
340
0
  0
BLOCK_RECORD
  5
27
100
AcDbSymbolTableRecord
100
AcDbBlockTableRecord
  2
*D6
340
0
  0
BLOCK_RECORD
  5
28
100
AcDbSymbolTableRecord
100
AcDbBlockTableRecord
  2
*D7
340
0
  0
BLOCK_RECORD
  5
29
100
AcDbSymbolTableRecord
100
AcDbBlockTableRecord
  2
*D8
340
0
  0
BLOCK_RECORD
  5
2A
100
AcDbSymbolTableRecord
100
AcDbBlockTableRecord
  2
*D9
340
0
  0
BLOCK_RECORD
  5
2B
100
AcDbSymbolTableRecord
100
AcDbBlockTableRecord
  2
*D10
340
0
  0
BLOCK_RECORD
  5
2C
100
AcDbSymbolTableRecord
100
AcDbBlockTableRecord
  2
*D11
340
0
  0
BLOCK_RECORD
  5
2D
100
AcDbSymbolTableRecord
100
AcDbBlockTableRecord
  2
*D12
340
0
  0
BLOCK_RECORD
  5
2E
100
AcDbSymbolTableRecord
100
AcDbBlockTableRecord
  2
*D13
340
0
  0
BLOCK_RECORD
  5
2F
100
AcDbSymbolTableRecord
100
AcDbBlockTableRecord
  2
*D14
340
0
  0
BLOCK_RECORD
  5
30
100
AcDbSymbolTableRecord
100
AcDbBlockTableRecord
  2
*D15
340
0
  0
BLOCK_RECORD
  5
31
100
AcDbSymbolTableRecord
100
AcDbBlockTableRecord
  2
*D16
340
0
  0
BLOCK_RECORD
  5
32
100
AcDbSymbolTableRecord
100
AcDbBlockTableRecord
  2
*D17
340
0
  0
BLOCK_RECORD
  5
33
100
AcDbSymbolTableRecord
100
AcDbBlockTableRecord
  2
*D18
340
0
  0
BLOCK_RECORD
  5
34
100
AcDbSymbolTableRecord
100
AcDbBlockTableRecord
  2
*D19
340
0
  0
BLOCK_RECORD
  5
35
100
AcDbSymbolTableRecord
100
AcDbBlockTableRecord
  2
*D20
340
0
  0
BLOCK_RECORD
  5
36
100
AcDbSymbolTableRecord
100
AcDbBlockTableRecord
  2
*D21
340
0
  0
BLOCK_RECORD
  5
37
100
AcDbSymbolTableRecord
100
AcDbBlockTableRecord
  2
*D22
340
0
  0
BLOCK_RECORD
  5
38
100
AcDbSymbolTableRecord
100
AcDbBlockTableRecord
  2
*D23
340
0
  0
BLOCK_RECORD
  5
39
100
AcDbSymbolTableRecord
100
AcDbBlockTableRecord
  2
*D24
340
0
  0
BLOCK_RECORD
  5
3A
100
AcDbSymbolTableRecord
100
AcDbBlockTableRecord
  2
*D25
340
0
  0
BLOCK_RECORD
  5
3B
100
AcDbSymbolTableRecord
100
AcDbBlockTableRecord
  2
*D26
340
0
  0
BLOCK_RECORD
  5
3C
100
AcDbSymbolTableRecord
100
AcDbBlockTableRecord
  2
*D27
340
0
  0
BLOCK_RECORD
  5
3D
100
AcDbSymbolTableRecord
100
AcDbBlockTableRecord
  2
グループ-1
340
0
102
{BLKREFS
331
235
102
}
  0
BLOCK_RECORD
  5
3E
100
AcDbSymbolTableRecord
100
AcDbBlockTableRecord
  2
グループ-2
340
0
102
{BLKREFS
331
1BC
102
}
  0
BLOCK_RECORD
  5
3F
100
AcDbSymbolTableRecord
100
AcDbBlockTableRecord
  2
グループ-3
340
0
102
{BLKREFS
331
236
102
}
  0
ENDTAB
  0
ENDSEC
  0
SECTION
  2
BLOCKS
  0
BLOCK
  5
D
100
AcDbEntity
  8
0
390
0
100
AcDbBlockBegin
  2
*MODEL_SPACE
 70
               0
 10
0.0
 20
0.0
 30
0.0
  3
*MODEL_SPACE
  1

  0
ENDBLK
  5
E
100
AcDbEntity
  8
0
390
0
100
AcDbBlockEnd
  0
BLOCK
  5
F
100
AcDbEntity
 67
               1
  8
0
390
0
100
AcDbBlockBegin
  2
*PAPER_SPACE
 70
               0
 10
0.0
 20
0.0
 30
0.0
  3
*PAPER_SPACE
  1

  0
ENDBLK
  5
10
100
AcDbEntity
 67
               1
  8
0
390
0
100
AcDbBlockEnd
  0
BLOCK
  5
53
100
AcDbEntity
  8
0
390
0
100
AcDbBlockBegin
  2
_DOT
 70
               0
 10
0.0
 20
0.0
 30
0.0
  3
_DOT
  1

  0
POLYLINE
  5
54
100
AcDbEntity
  8
0
370
              -2
390
0
  6
ByBlock
 62
               0
100
AcDb2dPolyline
 66
               1
 10
0.0
 20
0.0
 30
0.0
 70
               1
 40
0.5
 41
0.5
  0
VERTEX
  5
55
100
AcDbEntity
  8
0
370
              -2
390
0
  6
ByBlock
 62
               0
100
AcDbVertex
100
AcDb2dVertex
 10
-0.25
 20
0.0
 30
0.0
 42
1.0
  0
VERTEX
  5
56
100
AcDbEntity
  8
0
370
              -2
390
0
  6
ByBlock
 62
               0
100
AcDbVertex
100
AcDb2dVertex
 10
0.25
 20
0.0
 30
0.0
 42
1.0
  0
SEQEND
  5
57
100
AcDbEntity
  8
0
390
0
  0
LINE
  5
58
100
AcDbEntity
  8
0
370
              -2
390
0
  6
ByBlock
 62
               0
100
AcDbLine
 10
-0.5
 20
0.0
 30
0.0
 11
-1.0
 21
0.0
 31
0.0
  0
ENDBLK
  5
59
100
AcDbEntity
  8
0
390
0
100
AcDbBlockEnd
  0
BLOCK
  5
5C
100
AcDbEntity
  8
0
370
              -2
390
0
  6
ByBlock
 62
               0
100
AcDbBlockBegin
  2
VW_FILLEDARROW
 70
               0
 10
0.0
 20
0.0
 30
0.0
  3
VW_FILLEDARROW
  1

  0
SOLID
  5
5D
100
AcDbEntity
  8
0
370
              -2
390
0
 62
               0
100
AcDbTrace
 10
0.0
 20
0.0
 30
0.0
 11
-0.9921874999999999
 21
-0.2658558393652545
 31
0.0
 12
-0.9921874999999999
 22
0.2658558393652548
 32
0.0
 13
-0.9921874999999999
 23
0.2658558393652548
 33
0.0
  0
ENDBLK
  5
5E
100
AcDbEntity
  8
0
390
0
100
AcDbBlockEnd
  0
BLOCK
  5
60
100
AcDbEntity
  8
template
390
0
100
AcDbBlockBegin
  2
グループ
 70
               0
 10
0.0
 20
0.0
 30
0.0
  3
グループ
  1

  0
LWPOLYLINE
  5
61
100
AcDbEntity
  8
0
370
              15
390
0
  6
Continuous
 62
               7
100
AcDbPolyline
 90
        8
 70
             129
 10
-243.87752494311508
 20
-2762.7743564519437
 10
-243.87752494311508
 20
-2768.7717451455196
 10
-253.37872186111838
 20
-2768.7717451455196
 10
-253.37872186111838
 20
-2793.2227084090282
 10
-261.73409912290117
 20
-2793.2227084090282
 10
-261.73409912290117
 20
-2768.7717451455196
 10
-271.06705606921059
 20
-2768.7717451455196
 10
-271.06705606921059
 20
-2762.7743564519437
  0
LWPOLYLINE
  5
62
100
AcDbEntity
  8
0
370
              15
390
0
  6
Continuous
 62
               7
100
AcDbPolyline
 90
      101
 70
             128
 10
-231.14923311255814
 20
-2763.5026049448802
 10
-231.13388308377188
 20
-2763.4982441881948
 42
-0.0222221607812265
 10
-230.84387850710203
 20
-2763.4296197229505
 10
-230.82808474311287
 20
-2763.4266162998542
 42
-0.0146883565582565
 10
-230.56538203788426
 20
-2763.3846131129039
 42
-0.0127458844178134
 10
-230.30074307072854
 20
-2763.3570761448314
 10
-230.23828799241846
 20
-2763.3521827222435
 42
-0.0198099018570521
 10
-229.84743888295387
 20
-2763.3370975648468
 10
-229.79562741349781
 20
-2763.3371513405118
 42
-0.014761738275332
 10
-229.30100395251583
 20
-2763.3522713657571
 10
-229.22831249764957
 20
-2763.3566439726442
 42
-0.0162624549005472
 10
-228.83815886818411
 20
-2763.3928768479168
 10
-228.71662647692119
 20
-2763.4081634069139
 42
-0.0080020874654297
 10
-228.57104744583336
 20
-2763.4288462541817
 10
-228.53272797525582
 20
-2763.4349175319899
 42
-0.0053821929683359
 10
-228.46424386992351
 20
-2763.4465250558142
 10
-229.19064956912212
 20
-2765.6274535115281
 42
0.0108667757396733
 10
-229.25796663925024
 20
-2765.6142663963087
 10
-229.29543466244246
 20
-2765.6077686537137
 42
0.0170663203319076
 10
-229.43865144935671
 20
-2765.5879390564223
 10
-229.50652678204096
 20
-2765.5808918858347
 42
0.0220162375272628
 10
-229.78690618990066
 20
-2765.5642095250646
 10
-229.86476175694949
 20
-2765.5630101577981
 42
0.0282606915781743
 10
-230.20039808052627
 20
-2765.5768134347672
 10
-230.24431135429336
 20
-2765.5811134247701
 42
0.0169677213679467
 10
-230.49023584925754
 20
-2765.6136504743226
 42
0.0190576269868849
 10
-230.73314381184014
 20
-2765.6637973464294
 10
-230.73940299994842
 20
-2765.6653403205382
 42
0.0213685642850651
 10
-230.98978748443196
 20
-2765.7385406056451
 10
-230.99527737934238
 20
-2765.7404036017024
 42
0.0237595297597313
 10
-231.24877226423655
 20
-2765.8400881235962
 10
-231.25387433827075
 20
-2765.8423798990761
 42
0.0261857468823791
 10
-231.50604511450385
 20
-2765.9719162364522
 10
-231.5164713035891
 20
-2765.9779817109193
 42
0.0272553062022306
 10
-231.75290107882614
 20
-2766.1333539168636
 10
-231.78766409233461
 20
-2766.1590150649549
 42
0.03259968931681
 10
-231.93781943598714
 20
-2766.2857629379268
 10
-231.96152886511112
 20
-2766.3085809664403
 42
0.0138050960647389
 10
-232.05341202132036
 20
-2766.4020306279913
 42
0.0125280103801346
 10
-232.14025455415046
 20
-2766.5001939545873
 10
-232.16393499906223
 20
-2766.5283524527786
 42
0.0205218024732435
 10
-232.28903507457514
 20
-2766.6901457670069
 10
-232.31150141506305
 20
-2766.7218054968348
 42
0.0163110129584537
 10
-232.4672117943154
 20
-2766.9571359319066
 10
-232.46993569036533
 20
-2766.9615596938902
 42
0.0131897341893324
 10
-232.61673621126957
 20
-2767.2146917862519
 10
-232.6184363066377
 20
-2767.2178100253905
 42
0.0107895576071807
 10
-232.75621300884796
 20
-2767.4840252350245
 10
-232.75694589837354
 20
-2767.485519467672
 42
0.0091371507223387
 10
-232.88542584702083
 20
-2767.7600446654269
 10
-232.91517147843223
 20
-2767.8267511725908
 42
0.0135418326360908
 10
-233.08688541750456
 20
-2768.2416889578612
 10
-233.12049022594059
 20
-2768.329555100147
 42
0.0092834542414236
 10
-233.29171928585907
 20
-2768.8034535984461
 10
-233.31733641357661
 20
-2768.8786946682389
 42
0.0054261043585533
 10
-233.42497456186965
 20
-2769.2064586413044
 10
-233.44250054806824
 20
-2769.2618468036012
 42
0.0008225090819039
 10
-233.51117059987712
 20
-2769.4801155616833
 10
-234.49585973181058
 20
-2772.5050068549399
 10
-231.26323589173671
 20
-2772.5050068549399
 10
-231.76742832159016
 20
-2774.4094851532927
 10
-235.02348460357348
 20
-2774.4094851532927
 10
-240.8526336359273
 20
-2793.2227082192976
 10
-242.67773124623761
 20
-2793.2227082192976
 10
-236.84305321073668
 20
-2774.4094851532927
 10
-239.24816957977703
 20
-2774.4094851532927
 10
-238.74397714992358
 20
-2772.5050068549399
 10
-236.31542833897356
 20
-2772.5050068549399
 10
-235.45527342078492
 20
-2769.8685938542412
 42
-0.0005863560656416
 10
-235.41853874260457
 20
-2769.7517674340229
 10
-235.34245090892102
 20
-2769.510775134564
 42
-0.0087522378929262
 10
-235.14298276546435
 20
-2768.9154990474181
 10
-235.05071849004847
 20
-2768.6553588788979
 42
-0.0077400953825559
 10
-234.79278483091957
 20
-2767.962354201356
 10
-234.77701985934212
 20
-2767.9219233179738
 42
-0.0082369946330779
 10
-234.52993538872875
 20
-2767.3178442517747
 42
-0.0085725238364926
 10
-234.26268929272706
 20
-2766.7224182124901
 10
-234.16105969171537
 20
-2766.5059971104956
 42
-0.0168109410591532
 10
-233.87411526298848
 20
-2765.9447895843978
 10
-233.74827187253868
 20
-2765.7178255514168
 42
-0.0007817726855897
 10
-233.69398752247281
 20
-2765.6202813063692
 10
-233.69385921646054
 20
-2765.6200515976416
 42
-0.0036626142158658
 10
-233.63897135243428
 20
-2765.5234537176643
 42
-0.0080221150645175
 10
-233.58184709702437
 20
-2765.4281744829063
 10
-233.55114714566639
 20
-2765.3787835337894
 42
-0.020213932556938
 10
-233.42349140586256
 20
-2765.1908019331117
 10
-233.36942394067205
 20
-2765.1177230688672
 42
-0.0249323791798542
 10
-233.11026114695298
 20
-2764.8016778267129
 10
-233.08612133282588
 20
-2764.7750635538005
 42
-0.0242132121539234
 10
-232.74644059128303
 20
-2764.4351800675959
 10
-232.69852901853284
 20
-2764.3916709314099
 42
-0.025101752786109
 10
-232.41454731789253
 20
-2764.1586781856454
 10
-232.41310184107709
 20
-2764.1576089280652
 42
-0.0130868069040624
 10
-232.11484119112146
 20
-2763.9488284595241
 10
-232.11327937198067
 20
-2763.9477950192504
 42
-0.029032952639488
 10
-231.80216823058544
 20
-2763.7669695176201
 10
-231.77232266858732
 20
-2763.7518671347743
 42
-0.016025019004009
 10
-231.50641825483473
 20
-2763.6278510245666
 42
-0.026760037477857
 10
-231.2311421773627
 20
-2763.5271027040171
 10
-231.20440625784511
 20
-2763.5189101451924
 42
-0.0049981587688825
 10
-231.14923311255814
 20
-2763.5026049448802
 42
-0.0049981587688825
  0
LWPOLYLINE
  5
63
100
AcDbEntity
  8
0
370
              15
390
0
  6
Continuous
 62
               7
100
AcDbPolyline
 90
      118
 70
             128
 10
-211.33486554811122
 20
-2772.5789901827675
 10
-209.45974362361176
 20
-2772.5789901827675
 10
-210.29778252921164
 20
-2775.2605567091678
 42
-0.0010587229228397
 10
-210.2663267136744
 20
-2775.2236521758527
 10
-210.20813262300777
 20
-2775.1556699196362
 42
-0.0071874740404635
 10
-210.05775740491381
 20
-2774.9850292276119
 10
-209.91603463164745
 20
-2774.8287930862944
 42
-0.0148118053513966
 10
-209.46590533893632
 20
-2774.361179240283
 10
-209.37868300403233
 20
-2774.2757819194271
 42
-0.0086273358687424
 10
-209.04313420302452
 20
-2773.958406285411
 10
-208.99930048679767
 20
-2773.918356641077
 42
-0.0103138323112031
 10
-208.74127678456512
 20
-2773.6921935037399
 10
-208.69550237824157
 20
-2773.6537114564826
 42
-0.0060206748573391
 10
-208.52265431412582
 20
-2773.5119168057254
 10
-208.52062318323811
 20
-2773.5102911000927
 42
-0.0067069027299812
 10
-208.34833036857736
 20
-2773.3761404662991
 10
-208.34578160265511
 20
-2773.3742102964266
 42
-0.007618435204364
 10
-208.17487633678002
 20
-2773.24883542118
 42
-0.0089652861685027
 10
-207.99991537404074
 20
-2773.1292021608442
 10
-207.96356365390037
 20
-2773.1052909473642
 42
-0.0156916245934371
 10
-207.76760415674045
 20
-2772.9850284608901
 42
-0.0023299011069097
 10
-207.56734211280829
 20
-2772.871850521376
 10
-207.55195798038073
 20
-2772.8632505262844
 42
-0.0107669341480855
 10
-207.31772115526294
 20
-2772.7388503929265
 10
-207.29545635420453
 20
-2772.727633642985
 42
-0.0078058045900629
 10
-207.01186623626558
 20
-2772.5902721873531
 10
-207.00195914854265
 20
-2772.5856630594781
 42
-0.018182933047295
 10
-206.69164974392655
 20
-2772.4547993183819
 10
-206.63759430135821
 20
-2772.434284198438
 42
-0.0208411536034584
 10
-206.28850933391004
 20
-2772.3181937359459
 10
-206.27415323377522
 20
-2772.3140752909903
 42
-0.0222799817129656
 10
-205.94543343986533
 20
-2772.2354337248516
 10
-205.93654447663002
 20
-2772.2337217142667
 42
-0.0215509523882113
 10
-205.62007350834853
 20
-2772.1868060257325
 10
-205.57759154730175
 20
-2772.1823684989417
 42
-0.0182545924873183
 10
-205.34348276799432
 20
-2772.1665246735511
 10
-205.3040817516428
 20
-2772.1653001284717
 42
-0.0072962856544398
 10
-205.14815887195738
 20
-2772.1627307999497
 10
-205.11905920138787
 20
-2772.162675964546
 42
-0.0059227516333873
 10
-205.02130970224039
 20
-2772.1636496763363
 10
-204.99206748477334
 20
-2772.1642874429394
 42
-0.0011833111836412
 10
-204.95281620103606
 20
-2772.1652364472493
 10
-205.74820279664323
 20
-2774.7039703923483
 42
0.0143932051524153
 10
-205.7746041789988
 20
-2774.6937714223013
 10
-205.7818761514111
 20
-2774.691200203446
 42
0.0234388603580422
 10
-205.82370701734411
 20
-2774.6785809677303
 10
-205.83238868025592
 20
-2774.6764000057256
 42
0.0199162742957371
 10
-205.89267751433181
 20
-2774.6637832703914
 10
-205.91349145214213
 20
-2774.6602860709622
 42
0.0293643550673403
 10
-206.01656631090324
 20
-2774.649136025309
 10
-206.04125149162161
 20
-2774.6479244082902
 42
0.0214606686877821
 10
-206.19439240757183
 20
-2774.6469858478727
 10
-206.20376431839202
 20
-2774.6473307594169
 42
0.0167564054175888
 10
-206.37528450950234
 20
-2774.6594078017852
 10
-206.38374430225946
 20
-2774.6602891422122
 42
0.0137677553258141
 10
-206.57109761552576
 20
-2774.6850384507561
 10
-206.57844935503198
 20
-2774.6862163707237
 42
0.0118497261475223
 10
-206.77894711913623
 20
-2774.7232337209134
 10
-206.78509712638055
 20
-2774.724520583633
 42
0.0106421143891844
 10
-206.99597801366298
 20
-2774.7733529592069
 10
-207.00088682205467
 20
-2774.7746003018929
 42
0.0099746379707254
 10
-207.21934529122203
 20
-2774.8347748302094
 10
-207.2808933313874
 20
-2774.8530567088383
 42
0.0191613675861883
 10
-207.61687779390391
 20
-2774.9670340891253
 10
-207.70493756665368
 20
-2775.000720999451
 42
0.0205274080142872
 10
-208.0902443385491
 20
-2775.1665494072759
 10
-208.14789362052687
 20
-2775.1942173718462
 42
0.0181256912196294
 10
-208.40617056119811
 20
-2775.3299011908261
 10
-208.45912594450843
 20
-2775.3602188040391
 42
0.0140709242405558
 10
-208.60408087914044
 20
-2775.4487134774754
 10
-208.63032974775751
 20
-2775.4657702961899
 42
0.008666788439686
 10
-208.71925590930147
 20
-2775.5257729640734
 42
0.0036408192028793
 10
-208.80668914736117
 20
-2775.5879538218846
 10
-208.84191602180346
 20
-2775.6133947677786
 42
0.0052260781263703
 10
-208.9981447191812
 20
-2775.7287271544028
 10
-209.0143515754541
 20
-2775.7409552650311
 42
0.0050024435900661
 10
-209.20035491850609
 20
-2775.8842378332879
 10
-209.21567307502812
 20
-2775.8962838557391
 42
0.0136138710274332
 10
-209.42611434335322
 20
-2776.0712503606524
 10
-209.45978221914703
 20
-2776.1008293333666
 42
0.0172815186918681
 10
-209.72418576081148
 20
-2776.3498260059919
 10
-209.72674810665211
 20
-2776.3524118231371
 42
0.0189403857996855
 10
-209.97732990523207
 20
-2776.6252170879425
 10
-210.00996139876585
 20
-2776.6635610194371
 42
0.0185044199506124
 10
-210.20191783774726
 20
-2776.9068096005612
 42
0.0088565243896161
 10
-210.38037794437346
 20
-2777.1603260207085
 10
-210.38955592402419
 20
-2777.1738674004714
 42
0.0157195347234519
 10
-210.57277653036002
 20
-2777.4633896097903
 10
-210.61885947228694
 20
-2777.5415418068046
 42
0.0095451879782637
 10
-210.78394502242679
 20
-2777.8341364491644
 10
-210.79509294135323
 20
-2777.8548071212904
 42
0.0100351706247635
 10
-210.92713669051574
 20
-2778.111862681787
 42
0.0086935915425381
 10
-211.04946784230944
 20
-2778.3736958271911
 10
-211.05278858372424
 20
-2778.3811381501637
 42
0.007258017486883
 10
-211.17313503567411
 20
-2778.6617301417582
 10
-211.17639666897554
 20
-2778.6696501677643
 42
0.0060005122613743
 10
-211.29559733731878
 20
-2778.9692598383713
 10
-211.29880831565981
 20
-2778.9776213662744
 42
0.0049017786975557
 10
-211.41770847451753
 20
-2779.296550346879
 10
-211.4208742809077
 20
-2779.305303284109
 42
0.0039415167605434
 10
-211.54031055896806
 20
-2779.643845346533
 10
-211.54344166161655
 20
-2779.6529485473984
 42
0.0031035838766909
 10
-211.66424644730824
 20
-2780.0113884091679
 10
-211.66735649184
 20
-2780.0208090305468
 42
0.0025070747147532
 10
-211.79025784314794
 20
-2780.3994562474677
 10
-211.82755173958077
 20
-2780.5163479127436
 42
0.0029081910280946
 10
-212.01957003739403
 20
-2781.1305115710429
 10
-212.0603732059086
 20
-2781.2637348133112
 42
0.0009266453732415
 10
-212.32879058023806
 20
-2782.1459592732836
 10
-212.34967805287999
 20
-2782.2150711525237
 42
-0.0005809993667383
 10
-212.6270147334551
 20
-2783.1288792591095
 10
-212.69329653173432
 20
-2783.3463641912899
 42
-0.0012018708165492
 10
-212.84028084115727
 20
-2783.8245268557903
 10
-212.89260069267391
 20
-2783.9932859964983
 42
-0.0002691059596595
 10
-212.93617017389136
 20
-2784.1335536169977
 10
-215.7691260721806
 20
-2793.2227082192976
 10
-217.58711496415913
 20
-2793.2227082192976
 10
-211.33486554811122
 20
-2772.5789901827675
  0
SPLINE
  5
64
100
AcDbEntity
  8
0
370
              15
390
0
  6
Continuous
 62
               7
100
AcDbSpline
210
0.0
220
0.0
230
1.0
 70
              13
 71
               2
 72
             782
 73
             779
 74
               0
 42
0.000001
 43
0.000001
 40
0.0
 40
0.0
 40
0.0
 40
1.0
 40
1.0
 40
2.0
 40
2.0
 40
3.0
 40
3.0
 40
4.0
 40
4.0
 40
5.0
 40
5.0
 40
6.0
 40
6.0
 40
7.0
 40
7.0
 40
8.0
 40
8.0
 40
9.0
 40
9.0
 40
10.0
 40
10.0
 40
11.0
 40
11.0
 40
12.0
 40
12.0
 40
13.0
 40
13.0
 40
14.0
 40
14.0
 40
15.0
 40
15.0
 40
16.0
 40
16.0
 40
17.0
 40
17.0
 40
18.0
 40
18.0
 40
19.0
 40
19.0
 40
20.0
 40
20.0
 40
21.0
 40
21.0
 40
22.0
 40
22.0
 40
23.0
 40
23.0
 40
24.0
 40
24.0
 40
25.0
 40
25.0
 40
26.0
 40
26.0
 40
27.0
 40
27.0
 40
28.0
 40
28.0
 40
29.0
 40
29.0
 40
30.0
 40
30.0
 40
31.0
 40
31.0
 40
32.0
 40
32.0
 40
33.0
 40
33.0
 40
34.0
 40
34.0
 40
35.0
 40
35.0
 40
36.0
 40
36.0
 40
37.0
 40
37.0
 40
38.0
 40
38.0
 40
39.0
 40
39.0
 40
40.0
 40
40.0
 40
41.0
 40
41.0
 40
42.0
 40
42.0
 40
43.0
 40
43.0
 40
44.0
 40
44.0
 40
45.0
 40
45.0
 40
46.0
 40
46.0
 40
47.0
 40
47.0
 40
48.0
 40
48.0
 40
49.0
 40
49.0
 40
50.0
 40
50.0
 40
51.0
 40
51.0
 40
52.0
 40
52.0
 40
53.0
 40
53.0
 40
54.0
 40
54.0
 40
55.0
 40
55.0
 40
56.0
 40
56.0
 40
57.0
 40
57.0
 40
58.0
 40
58.0
 40
59.0
 40
59.0
 40
60.0
 40
60.0
 40
61.0
 40
61.0
 40
62.0
 40
62.0
 40
63.0
 40
63.0
 40
64.0
 40
64.0
 40
65.0
 40
65.0
 40
66.0
 40
66.0
 40
67.0
 40
67.0
 40
68.0
 40
68.0
 40
69.0
 40
69.0
 40
70.0
 40
70.0
 40
71.0
 40
71.0
 40
72.0
 40
72.0
 40
73.0
 40
73.0
 40
74.0
 40
74.0
 40
75.0
 40
75.0
 40
76.0
 40
76.0
 40
77.0
 40
77.0
 40
78.0
 40
78.0
 40
79.0
 40
79.0
 40
80.0
 40
80.0
 40
81.0
 40
81.0
 40
82.0
 40
82.0
 40
83.0
 40
83.0
 40
84.0
 40
84.0
 40
85.0
 40
85.0
 40
86.0
 40
86.0
 40
87.0
 40
87.0
 40
88.0
 40
88.0
 40
89.0
 40
89.0
 40
90.0
 40
90.0
 40
91.0
 40
91.0
 40
92.0
 40
92.0
 40
93.0
 40
93.0
 40
94.0
 40
94.0
 40
95.0
 40
95.0
 40
96.0
 40
96.0
 40
97.0
 40
97.0
 40
98.0
 40
98.0
 40
99.0
 40
99.0
 40
100.0
 40
100.0
 40
101.0
 40
101.0
 40
102.0
 40
102.0
 40
103.0
 40
103.0
 40
104.0
 40
104.0
 40
105.0
 40
105.0
 40
106.0
 40
106.0
 40
107.0
 40
107.0
 40
108.0
 40
108.0
 40
109.0
 40
109.0
 40
110.0
 40
110.0
 40
111.0
 40
111.0
 40
112.0
 40
112.0
 40
113.0
 40
113.0
 40
114.0
 40
114.0
 40
115.0
 40
115.0
 40
116.0
 40
116.0
 40
117.0
 40
117.0
 40
118.0
 40
118.0
 40
119.0
 40
119.0
 40
120.0
 40
120.0
 40
121.0
 40
121.0
 40
122.0
 40
122.0
 40
123.0
 40
123.0
 40
124.0
 40
124.0
 40
125.0
 40
125.0
 40
126.0
 40
126.0
 40
127.0
 40
127.0
 40
128.0
 40
128.0
 40
129.0
 40
129.0
 40
130.0
 40
130.0
 40
131.0
 40
131.0
 40
132.0
 40
132.0
 40
133.0
 40
133.0
 40
134.0
 40
134.0
 40
135.0
 40
135.0
 40
136.0
 40
136.0
 40
137.0
 40
137.0
 40
138.0
 40
138.0
 40
139.0
 40
139.0
 40
140.0
 40
140.0
 40
141.0
 40
141.0
 40
142.0
 40
142.0
 40
143.0
 40
143.0
 40
144.0
 40
144.0
 40
145.0
 40
145.0
 40
146.0
 40
146.0
 40
147.0
 40
147.0
 40
148.0
 40
148.0
 40
149.0
 40
149.0
 40
150.0
 40
150.0
 40
151.0
 40
151.0
 40
152.0
 40
152.0
 40
153.0
 40
153.0
 40
154.0
 40
154.0
 40
155.0
 40
155.0
 40
156.0
 40
156.0
 40
157.0
 40
157.0
 40
158.0
 40
158.0
 40
159.0
 40
159.0
 40
160.0
 40
160.0
 40
161.0
 40
161.0
 40
162.0
 40
162.0
 40
163.0
 40
163.0
 40
164.0
 40
164.0
 40
165.0
 40
165.0
 40
166.0
 40
166.0
 40
167.0
 40
167.0
 40
168.0
 40
168.0
 40
169.0
 40
169.0
 40
170.0
 40
170.0
 40
171.0
 40
171.0
 40
172.0
 40
172.0
 40
173.0
 40
173.0
 40
174.0
 40
174.0
 40
175.0
 40
175.0
 40
176.0
 40
176.0
 40
177.0
 40
177.0
 40
178.0
 40
178.0
 40
179.0
 40
179.0
 40
180.0
 40
180.0
 40
181.0
 40
181.0
 40
182.0
 40
182.0
 40
183.0
 40
183.0
 40
184.0
 40
184.0
 40
185.0
 40
185.0
 40
186.0
 40
186.0
 40
187.0
 40
187.0
 40
188.0
 40
188.0
 40
189.0
 40
189.0
 40
190.0
 40
190.0
 40
191.0
 40
191.0
 40
192.0
 40
192.0
 40
193.0
 40
193.0
 40
194.0
 40
194.0
 40
195.0
 40
195.0
 40
196.0
 40
196.0
 40
197.0
 40
197.0
 40
198.0
 40
198.0
 40
199.0
 40
199.0
 40
200.0
 40
200.0
 40
201.0
 40
201.0
 40
202.0
 40
202.0
 40
203.0
 40
203.0
 40
204.0
 40
204.0
 40
205.0
 40
205.0
 40
206.0
 40
206.0
 40
207.0
 40
207.0
 40
208.0
 40
208.0
 40
209.0
 40
209.0
 40
210.0
 40
210.0
 40
211.0
 40
211.0
 40
212.0
 40
212.0
 40
213.0
 40
213.0
 40
214.0
 40
214.0
 40
215.0
 40
215.0
 40
216.0
 40
216.0
 40
217.0
 40
217.0
 40
218.0
 40
218.0
 40
219.0
 40
219.0
 40
220.0
 40
220.0
 40
221.0
 40
221.0
 40
222.0
 40
222.0
 40
223.0
 40
223.0
 40
224.0
 40
224.0
 40
225.0
 40
225.0
 40
226.0
 40
226.0
 40
227.0
 40
227.0
 40
228.0
 40
228.0
 40
229.0
 40
229.0
 40
230.0
 40
230.0
 40
231.0
 40
231.0
 40
232.0
 40
232.0
 40
233.0
 40
233.0
 40
234.0
 40
234.0
 40
235.0
 40
235.0
 40
236.0
 40
236.0
 40
237.0
 40
237.0
 40
238.0
 40
238.0
 40
239.0
 40
239.0
 40
240.0
 40
240.0
 40
241.0
 40
241.0
 40
242.0
 40
242.0
 40
243.0
 40
243.0
 40
244.0
 40
244.0
 40
245.0
 40
245.0
 40
246.0
 40
246.0
 40
247.0
 40
247.0
 40
248.0
 40
248.0
 40
249.0
 40
249.0
 40
250.0
 40
250.0
 40
251.0
 40
251.0
 40
252.0
 40
252.0
 40
253.0
 40
253.0
 40
254.0
 40
254.0
 40
255.0
 40
255.0
 40
256.0
 40
256.0
 40
257.0
 40
257.0
 40
258.0
 40
258.0
 40
259.0
 40
259.0
 40
260.0
 40
260.0
 40
261.0
 40
261.0
 40
262.0
 40
262.0
 40
263.0
 40
263.0
 40
264.0
 40
264.0
 40
265.0
 40
265.0
 40
266.0
 40
266.0
 40
267.0
 40
267.0
 40
268.0
 40
268.0
 40
269.0
 40
269.0
 40
270.0
 40
270.0
 40
271.0
 40
271.0
 40
272.0
 40
272.0
 40
273.0
 40
273.0
 40
274.0
 40
274.0
 40
275.0
 40
275.0
 40
276.0
 40
276.0
 40
277.0
 40
277.0
 40
278.0
 40
278.0
 40
279.0
 40
279.0
 40
280.0
 40
280.0
 40
281.0
 40
281.0
 40
282.0
 40
282.0
 40
283.0
 40
283.0
 40
284.0
 40
284.0
 40
285.0
 40
285.0
 40
286.0
 40
286.0
 40
287.0
 40
287.0
 40
288.0
 40
288.0
 40
289.0
 40
289.0
 40
290.0
 40
290.0
 40
291.0
 40
291.0
 40
292.0
 40
292.0
 40
293.0
 40
293.0
 40
294.0
 40
294.0
 40
295.0
 40
295.0
 40
296.0
 40
296.0
 40
297.0
 40
297.0
 40
298.0
 40
298.0
 40
299.0
 40
299.0
 40
300.0
 40
300.0
 40
301.0
 40
301.0
 40
302.0
 40
302.0
 40
303.0
 40
303.0
 40
304.0
 40
304.0
 40
305.0
 40
305.0
 40
306.0
 40
306.0
 40
307.0
 40
307.0
 40
308.0
 40
308.0
 40
309.0
 40
309.0
 40
310.0
 40
310.0
 40
311.0
 40
311.0
 40
312.0
 40
312.0
 40
313.0
 40
313.0
 40
314.0
 40
314.0
 40
315.0
 40
315.0
 40
316.0
 40
316.0
 40
317.0
 40
317.0
 40
318.0
 40
318.0
 40
319.0
 40
319.0
 40
320.0
 40
320.0
 40
321.0
 40
321.0
 40
322.0
 40
322.0
 40
323.0
 40
323.0
 40
324.0
 40
324.0
 40
325.0
 40
325.0
 40
326.0
 40
326.0
 40
327.0
 40
327.0
 40
328.0
 40
328.0
 40
329.0
 40
329.0
 40
330.0
 40
330.0
 40
331.0
 40
331.0
 40
332.0
 40
332.0
 40
333.0
 40
333.0
 40
334.0
 40
334.0
 40
335.0
 40
335.0
 40
336.0
 40
336.0
 40
337.0
 40
337.0
 40
338.0
 40
338.0
 40
339.0
 40
339.0
 40
340.0
 40
340.0
 40
341.0
 40
341.0
 40
342.0
 40
342.0
 40
343.0
 40
343.0
 40
344.0
 40
344.0
 40
345.0
 40
345.0
 40
346.0
 40
346.0
 40
347.0
 40
347.0
 40
348.0
 40
348.0
 40
349.0
 40
349.0
 40
350.0
 40
350.0
 40
351.0
 40
351.0
 40
352.0
 40
352.0
 40
353.0
 40
353.0
 40
354.0
 40
354.0
 40
355.0
 40
355.0
 40
356.0
 40
356.0
 40
357.0
 40
357.0
 40
358.0
 40
358.0
 40
359.0
 40
359.0
 40
360.0
 40
360.0
 40
361.0
 40
361.0
 40
362.0
 40
362.0
 40
363.0
 40
363.0
 40
364.0
 40
364.0
 40
365.0
 40
365.0
 40
366.0
 40
366.0
 40
367.0
 40
367.0
 40
368.0
 40
368.0
 40
369.0
 40
369.0
 40
370.0
 40
370.0
 40
371.0
 40
371.0
 40
372.0
 40
372.0
 40
373.0
 40
373.0
 40
374.0
 40
374.0
 40
375.0
 40
375.0
 40
376.0
 40
376.0
 40
377.0
 40
377.0
 40
378.0
 40
378.0
 40
379.0
 40
379.0
 40
380.0
 40
380.0
 40
381.0
 40
381.0
 40
382.0
 40
382.0
 40
383.0
 40
383.0
 40
384.0
 40
384.0
 40
385.0
 40
385.0
 40
386.0
 40
386.0
 40
387.0
 40
387.0
 40
388.0
 40
388.0
 40
389.0
 40
389.0
 40
389.0
 10
-201.00616109737859
 20
-2772.5680638194053
 30
0.0
 41
1.0
 10
-200.18773698865812
 20
-2772.5680638194053
 30
0.0
 41
1.0
 10
-199.36931287993764
 20
-2772.5680638194053
 30
0.0
 41
1.0
 10
-199.7830666154544
 20
-2773.910690083655
 30
0.0
 41
1.0
 10
-200.19682035097117
 20
-2775.2533163479047
 30
0.0
 41
1.0
 10
-200.17848085580522
 20
-2775.2246155749963
 30
0.0
 41
0.9999957264323065
 10
-200.1599738589581
 20
-2775.1960225248199
 30
0.0
 41
1.0
 10
-200.129544534828
 20
-2775.1490096464549
 30
0.0
 41
1.0
 10
-200.0991152106979
 20
-2775.1019967680904
 30
0.0
 41
1.0
 10
-200.019749565593
 20
-2774.9793779611887
 30
0.0
 41
0.9995394069080675
 10
-199.93309117404101
 20
-2774.8617998994473
 30
0.0
 41
1.0
 10
-199.89733431177996
 20
-2774.8132850068523
 30
0.0
 41
1.0
 10
-199.8615774495189
 20
-2774.7647701142569
 30
0.0
 41
1.0
 10
-199.72785078170062
 20
-2774.5833298391299
 30
0.0
 41
0.9994460617143067
 10
-199.58235030041419
 20
-2774.4111874414821
 30
0.0
 41
1.0
 10
-199.57796211943969
 20
-2774.4059957610998
 30
0.0
 41
1.0
 10
-199.57357393846516
 20
-2774.400804080718
 30
0.0
 41
1.0
 10
-199.43684981912793
 20
-2774.2390450438343
 30
0.0
 41
0.9994359394934343
 10
-199.28957558877488
 20
-2774.0868288426677
 30
0.0
 41
1.0
 10
-199.2871922348204
 20
-2774.0843655122935
 30
0.0
 41
1.0
 10
-199.28480888086591
 20
-2774.0819021819188
 30
0.0
 41
1.0
 10
-199.14230135842396
 20
-2773.9346126415035
 30
0.0
 41
0.999529368856764
 10
-198.99102967744125
 20
-2773.7963394293392
 30
0.0
 41
1.0
 10
-198.97173591817887
 20
-2773.7787035436886
 30
0.0
 41
1.0
 10
-198.95244215891648
 20
-2773.7610676580384
 30
0.0
 41
1.0
 10
-198.83975799645884
 20
-2773.6580662171746
 30
0.0
 41
0.9997087614803817
 10
-198.7222351075041
 20
-2773.5606219363772
 30
0.0
 41
1.0
 10
-198.70306903433391
 20
-2773.5447303578735
 30
0.0
 41
1.0
 10
-198.68390296116368
 20
-2773.5288387793698
 30
0.0
 41
1.0
 10
-198.60471221855042
 20
-2773.4631776555802
 30
0.0
 41
0.9999595338698791
 10
-198.5243529476939
 20
-2773.3989519249244
 30
0.0
 41
1.0
 10
-198.44399367685213
 20
-2773.3347261942795
 30
0.0
 41
0.9999749417498735
 10
-198.36273314251639
 20
-2773.2716446403392
 30
0.0
 41
1.0
 10
-198.34174699633871
 20
-2773.2553533530258
 30
0.0
 41
1.0
 10
-198.32076085016101
 20
-2773.2390620657125
 30
0.0
 41
1.0
 10
-198.23619296485555
 20
-2773.1734130558684
 30
0.0
 41
0.9999792037123718
 10
-198.15078536509287
 20
-2773.1088602742302
 30
0.0
 41
1.0
 10
-198.12996053915955
 20
-2773.0931204519557
 30
0.0
 41
1.0
 10
-198.10913571322624
 20
-2773.0773806296816
 30
0.0
 41
1.0
 10
-198.06537776527944
 20
-2773.0443074925533
 30
0.0
 41
0.999999337429199
 10
-198.02169607918017
 20
-2773.0111336971627
 30
0.0
 41
1.0
 10
-197.97801439303299
 20
-2772.9779599017356
 30
0.0
 41
0.999916095381398
 10
-197.93348798211483
 20
-2772.9459288365388
 30
0.0
 41
1.0
 10
-197.90066609469659
 20
-2772.9223176809546
 30
0.0
 41
1.0
 10
-197.86784420727838
 20
-2772.8987065253705
 30
0.0
 41
1.0
 10
-197.75767402151985
 20
-2772.8194531490026
 30
0.0
 41
0.9980964527231934
 10
-197.63858502801904
 20
-2772.7543656761463
 30
0.0
 41
1.0
 10
-197.60155242109096
 20
-2772.7341256965533
 30
0.0
 41
1.0
 10
-197.56451981416291
 20
-2772.7138857169602
 30
0.0
 41
1.0
 10
-197.38519280088994
 20
-2772.6158754662592
 30
0.0
 41
0.998457281057314
 10
-197.19610423453111
 20
-2772.5383532049127
 30
0.0
 41
1.0
 10
-197.19245796513641
 20
-2772.5368583125755
 30
0.0
 41
1.0
 10
-197.18881169574172
 20
-2772.5353634202379
 30
0.0
 41
1.0
 10
-197.00701566817276
 20
-2772.4608309435662
 30
0.0
 41
0.9987838528033772
 10
-196.81876300961295
 20
-2772.4045653034004
 30
0.0
 41
1.0
 10
-196.81452506041344
 20
-2772.40329864971
 30
0.0
 41
1.0
 10
-196.81028711121394
 20
-2772.4020319960196
 30
0.0
 41
1.0
 10
-196.63051035105329
 20
-2772.3482996632347
 30
0.0
 41
0.9990652816207125
 10
-196.44676441933785
 20
-2772.3102959836929
 30
0.0
 41
1.0
 10
-196.44157601830597
 20
-2772.3092228805863
 30
0.0
 41
1.0
 10
-196.43638761727405
 20
-2772.3081497774797
 30
0.0
 41
1.0
 10
-196.26301848762128
 20
-2772.2722923041511
 30
0.0
 41
0.9992909934270884
 10
-196.08744272116365
 20
-2772.2495818716843
 30
0.0
 41
1.0
 10
-195.91186695470708
 20
-2772.2268714392176
 30
0.0
 41
0.999455353944823
 10
-195.73517552161593
 20
-2772.2157921350117
 30
0.0
 41
1.0
 10
-195.69974111381441
 20
-2772.2135702469636
 30
0.0
 41
1.0
 10
-195.66430670601287
 20
-2772.2113483589155
 30
0.0
 41
1.0
 10
-195.49808093944748
 20
-2772.2009252965045
 30
0.0
 41
0.999092809829336
 10
-195.33157114754891
 20
-2772.2046849377389
 30
0.0
 41
1.0
 10
-195.29300931228298
 20
-2772.2055556292717
 30
0.0
 41
1.0
 10
-195.25444747701704
 20
-2772.2064263208044
 30
0.0
 41
1.0
 10
-195.16506135565211
 20
-2772.2084445789728
 30
0.0
 41
0.999838208920606
 10
-195.07580567286004
 20
-2772.2136767055013
 30
0.0
 41
1.0
 10
-195.07537576664464
 20
-2772.213701906403
 30
0.0
 41
1.0
 10
-195.07494586042927
 20
-2772.2137271073052
 30
0.0
 41
1.0
 10
-194.98654999007809
 20
-2772.2189088320288
 30
0.0
 41
0.9997558016758014
 10
-194.89846941287306
 20
-2772.2279913473958
 30
0.0
 41
1.0
 10
-194.89799327443626
 20
-2772.2280404448793
 30
0.0
 41
1.0
 10
-194.89751713599949
 20
-2772.2280895423623
 30
0.0
 41
1.0
 10
-194.81038883566498
 20
-2772.2370738627637
 30
0.0
 41
0.999656514418157
 10
-194.72385098233013
 20
-2772.2506111694515
 30
0.0
 41
1.0
 10
-194.72338505695637
 20
-2772.2506840551823
 30
0.0
 41
1.0
 10
-194.72291913158264
 20
-2772.2507569409131
 30
0.0
 41
1.0
 10
-194.63731312899193
 20
-2772.2641484761398
 30
0.0
 41
0.9995321806867131
 10
-194.55268604866012
 20
-2772.2827489645697
 30
0.0
 41
1.0
 10
-194.55229685408761
 20
-2772.2828345070357
 30
0.0
 41
1.0
 10
-194.55190765951511
 20
-2772.2829200495016
 30
0.0
 41
1.0
 10
-194.46805896833075
 20
-2772.3013494529991
 30
0.0
 41
0.9993819199219211
 10
-194.38571243413594
 20
-2772.3256248362595
 30
0.0
 41
1.0
 10
-194.38547400063658
 20
-2772.3256951253693
 30
0.0
 41
1.0
 10
-194.38523556713719
 20
-2772.3257654144791
 30
0.0
 41
1.0
 10
-194.30336589993803
 20
-2772.3499002195208
 30
0.0
 41
0.9992088568506028
 10
-194.22367338095148
 20
-2772.3804654553146
 30
0.0
 41
1.0
 10
-194.14399239007227
 20
-2772.4110250560479
 30
0.0
 41
0.9990226101773428
 10
-194.0673217201653
 20
-2772.4485024876622
 30
0.0
 41
1.0
 10
-193.99066257836498
 20
-2772.4859742842173
 30
0.0
 41
0.9988424273972472
 10
-193.91795895115183
 20
-2772.530639059471
 30
0.0
 41
1.0
 10
-193.91769124277403
 20
-2772.5308035235421
 30
0.0
 41
1.0
 10
-193.91742353439622
 20
-2772.5309679876136
 30
0.0
 41
1.0
 10
-193.84418449042803
 20
-2772.5759616910086
 30
0.0
 41
0.9986928844490901
 10
-193.77592162371886
 20
-2772.6281974252875
 30
0.0
 41
1.0
 10
-193.77534033149442
 20
-2772.6286422385165
 30
0.0
 41
1.0
 10
-193.77475903927001
 20
-2772.629087051746
 30
0.0
 41
1.0
 10
-193.70533358811639
 20
-2772.6822124124801
 30
0.0
 41
0.9986007262278484
 10
-193.64190741834881
 20
-2772.7423731821741
 30
0.0
 41
1.0
 10
-193.64101300289119
 20
-2772.7432215500094
 30
0.0
 41
1.0
 10
-193.64011858743356
 20
-2772.7440699178451
 30
0.0
 41
1.0
 10
-193.57490358675136
 20
-2772.8059274232105
 30
0.0
 41
0.998558149138382
 10
-193.51669597504997
 20
-2772.8744199134812
 30
0.0
 41
1.0
 10
-193.50743752145453
 20
-2772.8853142711823
 30
0.0
 41
1.0
 10
-193.4981790678591
 20
-2772.8962086288839
 30
0.0
 41
1.0
 10
-193.42145454896584
 20
-2772.9864898345591
 30
0.0
 41
0.9970460233520372
 10
-193.3594626478075
 20
-2773.087456918739
 30
0.0
 41
1.0
 10
-193.34499328272781
 20
-2773.1110233778204
 30
0.0
 41
1.0
 10
-193.33052391764812
 20
-2773.1345898369018
 30
0.0
 41
1.0
 10
-193.29078721763474
 20
-2773.1993095609359
 30
0.0
 41
0.998846881663813
 10
-193.25744084688358
 20
-2773.2675420133623
 30
0.0
 41
1.0
 10
-193.25040482439169
 20
-2773.2819389345004
 30
0.0
 41
1.0
 10
-193.24336880189983
 20
-2773.296335855639
 30
0.0
 41
1.0
 10
-193.22409447613222
 20
-2773.3357744657897
 30
0.0
 41
0.9998431189996854
 10
-193.20622914863708
 20
-2773.375871020231
 30
0.0
 41
1.0
 10
-193.1883638211516
 20
-2773.4159675746505
 30
0.0
 41
0.99999899899425
 10
-193.17038509773448
 20
-2773.4560134122235
 30
0.0
 41
1.0
 10
-193.16421278613305
 20
-2773.4697616290523
 30
0.0
 41
1.0
 10
-193.15804047453162
 20
-2773.4835098458807
 30
0.0
 41
1.0
 10
-193.12771712792323
 20
-2773.5510521170854
 30
0.0
 41
0.9998790356321325
 10
-193.09950924778411
 20
-2773.6195048690251
 30
0.0
 41
1.0
 10
-193.09267406649914
 20
-2773.6360919704539
 30
0.0
 41
1.0
 10
-193.08583888521417
 20
-2773.6526790718831
 30
0.0
 41
1.0
 10
-193.06228122283341
 20
-2773.7098470267692
 30
0.0
 41
0.9998227574561823
 10
-193.04089247444495
 20
-2773.7678613350449
 30
0.0
 41
1.0
 10
-193.01950372605549
 20
-2773.8258756433229
 30
0.0
 41
0.9996797971041695
 10
-193.00107744109764
 20
-2773.8848977624366
 30
0.0
 41
1.0
 10
-192.99717363837146
 20
-2773.8974022206075
 30
0.0
 41
1.0
 10
-192.99326983564532
 20
-2773.9099066787785
 30
0.0
 41
1.0
 10
-192.96703594523481
 20
-2773.9939377142355
 30
0.0
 41
0.9979274938734558
 10
-192.95181142175551
 20
-2774.0806420728968
 30
0.0
 41
1.0
 10
-192.94958773449449
 20
-2774.093306073717
 30
0.0
 41
1.0
 10
-192.94736404723346
 20
-2774.1059700745373
 30
0.0
 41
1.0
 10
-192.9364341075354
 20
-2774.168216581827
 30
0.0
 41
0.999498598213788
 10
-192.92946594235826
 20
-2774.2310300829695
 30
0.0
 41
1.0
 10
-192.92249777718141
 20
-2774.2938435841088
 30
0.0
 41
0.9996372611201333
 10
-192.91892191141352
 20
-2774.3569411627946
 30
0.0
 41
1.0
 10
-192.91875333392423
 20
-2774.3599157798762
 30
0.0
 41
1.0
 10
-192.91858475643494
 20
-2774.3628903969579
 30
0.0
 41
1.0
 10
-192.91467173568859
 20
-2774.4319372098021
 30
0.0
 41
0.9997730630735736
 10
-192.91370342220046
 20
-2774.5010880338396
 30
0.0
 41
1.0
 10
-192.91364631578236
 20
-2774.5051662129808
 30
0.0
 41
1.0
 10
-192.91358920936426
 20
-2774.5092443921217
 30
0.0
 41
1.0
 10
-192.91250668304025
 20
-2774.5865515744435
 30
0.0
 41
0.9998772614071189
 10
-192.91384676977165
 20
-2774.6638547209991
 30
0.0
 41
1.0
 10
-192.91393603297041
 20
-2774.6690038848365
 30
0.0
 41
1.0
 10
-192.9140252961692
 20
-2774.6741530486738
 30
0.0
 41
1.0
 10
-192.91554390929812
 20
-2774.7617545229009
 30
0.0
 41
0.9999415567326233
 10
-192.91895621954438
 20
-2774.849302684584
 30
0.0
 41
1.0
 10
-192.9191975402197
 20
-2774.8554941443208
 30
0.0
 41
1.0
 10
-192.91943886089501
 20
-2774.861685604058
 30
0.0
 41
1.0
 10
-192.92333381249179
 20
-2774.9616166852138
 30
0.0
 41
0.9999716810435039
 10
-192.92873239561013
 20
-2775.0614778234362
 30
0.0
 41
1.0
 10
-192.93194519439896
 20
-2775.1209070730938
 30
0.0
 41
1.0
 10
-192.93515799318777
 20
-2775.1803363227518
 30
0.0
 41
1.0
 10
-192.94323190234024
 20
-2775.3296847240272
 30
0.0
 41
0.9999819129914125
 10
-192.95310169395697
 20
-2775.4789252017431
 30
0.0
 41
1.0
 10
-192.96297148557358
 20
-2775.6281656794545
 30
0.0
 41
1.0
 10
-192.96541080613747
 20
-2775.665358725304
 30
0.0
 41
1.0
 10
-192.94271257228326
 20
-2775.6266177279354
 30
0.0
 41
0.9999982128166616
 10
-192.91986801352996
 20
-2775.5879628339803
 30
0.0
 41
1.0
 10
-192.89295845365564
 20
-2775.5424296199431
 30
0.0
 41
1.0
 10
-192.86604889378134
 20
-2775.4968964059058
 30
0.0
 41
1.0
 10
-192.78938521525413
 20
-2775.3671750838334
 30
0.0
 41
0.9998609190056552
 10
-192.70843790239434
 20
-2775.2400827019078
 30
0.0
 41
1.0
 10
-192.67878958091262
 20
-2775.1935329689504
 30
0.0
 41
1.0
 10
-192.64914125943088
 20
-2775.1469832359935
 30
0.0
 41
1.0
 10
-192.56686903919064
 20
-2775.0178106659937
 30
0.0
 41
0.9999067609731747
 10
-192.48110002972913
 20
-2774.8909329765565
 30
0.0
 41
1.0
 10
-192.47869532652834
 20
-2774.8873757105021
 30
0.0
 41
1.0
 10
-192.47629062332754
 20
-2774.8838184444471
 30
0.0
 41
1.0
 10
-192.39533102026834
 20
-2774.7640552871198
 30
0.0
 41
0.9998784952148757
 10
-192.31067741058371
 20
-2774.6468740704063
 30
0.0
 41
1.0
 10
-192.22602380090194
 20
-2774.5296928536968
 30
0.0
 41
0.9998532968282484
 10
-192.13740618008228
 20
-2774.4154799452303
 30
0.0
 41
1.0
 10
-192.1174443910881
 20
-2774.3897526242063
 30
0.0
 41
1.0
 10
-192.09748260209395
 20
-2774.3640253031822
 30
0.0
 41
1.0
 10
-191.9789985523359
 20
-2774.2113196922151
 30
0.0
 41
0.9991551975795583
 10
-191.84837410271513
 20
-2774.0688601301345
 30
0.0
 41
1.0
 10
-191.84486448673641
 20
-2774.0650325285114
 30
0.0
 41
1.0
 10
-191.8413548707577
 20
-2774.061204926888
 30
0.0
 41
1.0
 10
-191.71774965309402
 20
-2773.9264005680534
 30
0.0
 41
0.9997418144181358
 10
-191.58814751339099
 20
-2773.7973511574387
 30
0.0
 41
1.0
 10
-191.45854537368831
 20
-2773.6683017468245
 30
0.0
 41
0.9989238204633677
 10
-191.31754282543673
 20
-2773.5518167847849
 30
0.0
 41
1.0
 10
-191.27229514729893
 20
-2773.514436793178
 30
0.0
 41
1.0
 10
-191.22704746916114
 20
-2773.4770568015706
 30
0.0
 41
1.0
 10
-191.0868074119393
 20
-2773.3612017482792
 30
0.0
 41
0.9990825084096708
 10
-190.9371674793349
 20
-2773.2577727504458
 30
0.0
 41
1.0
 10
-190.92712211527484
 20
-2773.2508295373641
 30
0.0
 41
1.0
 10
-190.91707675121478
 20
-2773.2438863242824
 30
0.0
 41
1.0
 10
-190.78752754672848
 20
-2773.1543437526116
 30
0.0
 41
0.9998164899824549
 10
-190.65464334335468
 20
-2773.0698295110969
 30
0.0
 41
1.0
 10
-190.6427977828298
 20
-2773.0622957445721
 30
0.0
 41
1.0
 10
-190.63095222230493
 20
-2773.0547619780468
 30
0.0
 41
1.0
 10
-190.52175913997883
 20
-2772.9853152695805
 30
0.0
 41
0.9997473449131512
 10
-190.40955518272898
 20
-2772.9208463117648
 30
0.0
 41
1.0
 10
-190.29735122548362
 20
-2772.8563773539513
 30
0.0
 41
0.9999327861147827
 10
-190.1836826147246
 20
-2772.7945273622722
 30
0.0
 41
1.0
 10
-190.18313061215963
 20
-2772.794227003591
 30
0.0
 41
1.0
 10
-190.18257860959466
 20
-2772.7939266449093
 30
0.0
 41
1.0
 10
-190.06780599370779
 20
-2772.7314759358687
 30
0.0
 41
0.9996956420483304
 10
-189.95009266786468
 20
-2772.6747624688924
 30
0.0
 41
1.0
 10
-189.91965226297481
 20
-2772.6600964921636
 30
0.0
 41
1.0
 10
-189.88921185808491
 20
-2772.6454305154352
 30
0.0
 41
1.0
 10
-189.78623475133895
 20
-2772.5958168569905
 30
0.0
 41
0.9998070570176703
 10
-189.68138836239939
 20
-2772.5502862700905
 30
0.0
 41
1.0
 10
-189.57654197345573
 20
-2772.5047556831883
 30
0.0
 41
0.999782743614845
 10
-189.46988903684107
 20
-2772.4636345118743
 30
0.0
 41
1.0
 10
-189.45066618721341
 20
-2772.4562229382436
 30
0.0
 41
1.0
 10
-189.43144333758579
 20
-2772.4488113646125
 30
0.0
 41
1.0
 10
-189.28634470171394
 20
-2772.3928670460359
 30
0.0
 41
0.9988031841976569
 10
-189.13647433911115
 20
-2772.3513669818685
 30
0.0
 41
1.0
 10
-189.11155709074654
 20
-2772.3444672360611
 30
0.0
 41
1.0
 10
-189.08663984238197
 20
-2772.3375674902541
 30
0.0
 41
1.0
 10
-188.9193698167343
 20
-2772.2912493478475
 30
0.0
 41
0.9984748040550223
 10
-188.7480129080858
 20
-2772.2636551155829
 30
0.0
 41
1.0
 10
-188.74327377183539
 20
-2772.2628919550689
 30
0.0
 41
1.0
 10
-188.73853463558498
 20
-2772.2621287945553
 30
0.0
 41
1.0
 10
-188.57665599943522
 20
-2772.2360608833178
 30
0.0
 41
0.9984436495480543
 10
-188.41288125571208
 20
-2772.2281829294989
 30
0.0
 41
1.0
 10
-188.39118404758068
 20
-2772.227139242299
 30
0.0
 41
1.0
 10
-188.36948683944925
 20
-2772.2260955550996
 30
0.0
 41
1.0
 10
-188.24910651198738
 20
-2772.2203049756804
 30
0.0
 41
0.9987954789335667
 10
-188.12873826707755
 20
-2772.2263415034226
 30
0.0
 41
1.0
 10
-188.10877347458046
 20
-2772.2273427477612
 30
0.0
 41
1.0
 10
-188.08880868208334
 20
-2772.2283439921002
 30
0.0
 41
1.0
 10
-188.00837002216508
 20
-2772.2323780311654
 30
0.0
 41
0.9997941595878414
 10
-187.92816124407329
 20
-2772.239672097086
 30
0.0
 41
1.0
 10
-187.84795246597253
 20
-2772.246966163008
 30
0.0
 41
0.9998589466237987
 10
-187.76803391911162
 20
-2772.2569500174586
 30
0.0
 41
1.0
 10
-187.73562771730951
 20
-2772.2609983743769
 30
0.0
 41
1.0
 10
-187.70322151550738
 20
-2772.2650467312956
 30
0.0
 41
1.0
 10
-187.55849056503808
 20
-2772.2831272995836
 30
0.0
 41
0.9993495063248455
 10
-187.4154393212745
 20
-2772.3115930093254
 30
0.0
 41
1.0
 10
-187.38250562411861
 20
-2772.3181464725412
 30
0.0
 41
1.0
 10
-187.34957192696268
 20
-2772.3246999357566
 30
0.0
 41
1.0
 10
-187.24027810375929
 20
-2772.3464482698914
 30
0.0
 41
0.999678871556115
 10
-187.13222653180526
 20
-2772.3737060692538
 30
0.0
 41
1.0
 10
-187.13016352926729
 20
-2772.3742264958264
 30
0.0
 41
1.0
 10
-187.1281005267293
 20
-2772.374746922399
 30
0.0
 41
1.0
 10
-187.02417495984929
 20
-2772.4009638686166
 30
0.0
 41
0.999548065449211
 10
-186.92201272461944
 20
-2772.4333788252411
 30
0.0
 41
1.0
 10
-186.92032308249429
 20
-2772.4339149301541
 30
0.0
 41
1.0
 10
-186.91863344036912
 20
-2772.4344510350666
 30
0.0
 41
1.0
 10
-186.8198504893945
 20
-2772.4657937818638
 30
0.0
 41
0.9993867959456344
 10
-186.72350333094744
 20
-2772.5039731511552
 30
0.0
 41
1.0
 10
-186.72226038185875
 20
-2772.5044656930531
 30
0.0
 41
1.0
 10
-186.72101743277008
 20
-2772.5049582349507
 30
0.0
 41
1.0
 10
-186.62715617250086
 20
-2772.542152520447
 30
0.0
 41
0.9992050256523795
 10
-186.53655649747157
 20
-2772.5867064196837
 30
0.0
 41
1.0
 10
-186.53582181476122
 20
-2772.5870677121434
 30
0.0
 41
1.0
 10
-186.53508713205085
 20
-2772.5874290046031
 30
0.0
 41
1.0
 10
-186.44595682244073
 20
-2772.6312603189212
 30
0.0
 41
0.9990222350741915
 10
-186.36104676104452
 20
-2772.6827935866208
 30
0.0
 41
1.0
 10
-186.36086287576057
 20
-2772.6829051895265
 30
0.0
 41
1.0
 10
-186.36067899047666
 20
-2772.6830167924318
 30
0.0
 41
1.0
 10
-186.27613669964992
 20
-2772.7343268543195
 30
0.0
 41
0.998864274380494
 10
-186.19686216503186
 20
-2772.7934510418445
 30
0.0
 41
1.0
 10
-186.11758763041328
 20
-2772.8525752293699
 30
0.0
 41
0.9987681233311717
 10
-186.04456384613633
 20
-2772.9192659207711
 30
0.0
 41
1.0
 10
-186.04423491817073
 20
-2772.9195663219853
 30
0.0
 41
1.0
 10
-186.04390599020513
 20
-2772.919866723199
 30
0.0
 41
1.0
 10
-185.97022434999721
 20
-2772.9871582170281
 30
0.0
 41
0.9987496570898183
 10
-185.90363054467113
 20
-2773.0614710311138
 30
0.0
 41
1.0
 10
-185.90285837491018
 20
-2773.0623327044723
 30
0.0
 41
1.0
 10
-185.90208620514926
 20
-2773.0631943778308
 30
0.0
 41
1.0
 10
-185.83394806030023
 20
-2773.1392305386344
 30
0.0
 41
0.998814766982643
 10
-185.77352580607592
 20
-2773.221531545476
 30
0.0
 41
1.0
 10
-185.77240647999832
 20
-2773.2230561768283
 30
0.0
 41
1.0
 10
-185.77128715392075
 20
-2773.2245808081807
 30
0.0
 41
1.0
 10
-185.70862624753926
 20
-2773.3099310777297
 30
0.0
 41
0.9989452636216198
 10
-185.65405933457845
 20
-2773.4006697668869
 30
0.0
 41
1.0
 10
-185.65271060849304
 20
-2773.4029125479128
 30
0.0
 41
1.0
 10
-185.65136188240763
 20
-2773.4051553289382
 30
0.0
 41
1.0
 10
-185.59409751727486
 20
-2773.500379580149
 30
0.0
 41
0.9991046436071125
 10
-185.54508830395321
 20
-2773.6001040131741
 30
0.0
 41
1.0
 10
-185.54362444236324
 20
-2773.6030826932465
 30
0.0
 41
1.0
 10
-185.54216058077327
 20
-2773.6060613733189
 30
0.0
 41
1.0
 10
-185.49022364427159
 20
-2773.7117431664892
 30
0.0
 41
0.9992763831101125
 10
-185.44647051571692
 20
-2773.821067228444
 30
0.0
 41
1.0
 10
-185.44499124605341
 20
-2773.8247634159779
 30
0.0
 41
1.0
 10
-185.44351197638986
 20
-2773.8284596035123
 30
0.0
 41
1.0
 10
-185.39680030850744
 20
-2773.9451760405377
 30
0.0
 41
0.9994163472884058
 10
-185.3581672773183
 20
-2774.0648096289992
 30
0.0
 41
1.0
 10
-185.35692912507193
 20
-2774.0686437727809
 30
0.0
 41
1.0
 10
-185.35569097282556
 20
-2774.0724779165625
 30
0.0
 41
1.0
 10
-185.31580741180838
 20
-2774.1959839780402
 30
0.0
 41
0.9997268055891542
 10
-185.28173935589552
 20
-2774.3212190099939
 30
0.0
 41
1.0
 10
-185.28080917562588
 20
-2774.3246383761029
 30
0.0
 41
1.0
 10
-185.27987899535623
 20
-2774.328057742212
 30
0.0
 41
1.0
 10
-185.24767129998378
 20
-2774.4464540419444
 30
0.0
 41
0.9996701319001009
 10
-185.22158568321305
 20
-2774.5663479952082
 30
0.0
 41
1.0
 10
-185.19550006644252
 20
-2774.6862419484728
 30
0.0
 41
0.9995785451109948
 10
-185.1764164891031
 20
-2774.8074477095015
 30
0.0
 41
1.0
 10
-185.17219670692927
 20
-2774.8342488642675
 30
0.0
 41
1.0
 10
-185.16797692475544
 20
-2774.861050019033
 30
0.0
 41
1.0
 10
-185.14140194881696
 20
-2775.0298359927351
 30
0.0
 41
0.9979925101216831
 10
-185.13637636289047
 20
-2775.2006273208281
 30
0.0
 41
1.0
 10
-185.13555155046578
 20
-2775.2286580443106
 30
0.0
 41
1.0
 10
-185.13472673804111
 20
-2775.2566887677931
 30
0.0
 41
1.0
 10
-185.13135077696415
 20
-2775.3714186489228
 30
0.0
 41
0.9995314902263401
 10
-185.13500096910263
 20
-2775.4861401326716
 30
0.0
 41
1.0
 10
-185.13865116124111
 20
-2775.6008616164213
 30
0.0
 41
0.9996245486944743
 10
-185.14858025637201
 20
-2775.7152108875475
 30
0.0
 41
1.0
 10
-185.14874330436623
 20
-2775.7170886436825
 30
0.0
 41
1.0
 10
-185.14890635236048
 20
-2775.7189663998179
 30
0.0
 41
1.0
 10
-185.15916154347937
 20
-2775.8370711832099
 30
0.0
 41
0.9997286095000786
 10
-185.17490686705125
 20
-2775.9545700921076
 30
0.0
 41
1.0
 10
-185.17530035970162
 20
-2775.9575065168092
 30
0.0
 41
1.0
 10
-185.17569385235197
 20
-2775.9604429415112
 30
0.0
 41
1.0
 10
-185.19222616122485
 20
-2776.0838146998144
 30
0.0
 41
0.9998265533969045
 10
-185.21334161995631
 20
-2776.2064851745959
 30
0.0
 41
1.0
 10
-185.21401816209368
 20
-2776.2104155531042
 30
0.0
 41
1.0
 10
-185.21469470423102
 20
-2776.214345931613
 30
0.0
 41
1.0
 10
-185.23716324723907
 20
-2776.3448771634221
 30
0.0
 41
0.9999022530851213
 10
-185.2632727118478
 20
-2776.4747291320541
 30
0.0
 41
1.0
 10
-185.26425135301321
 20
-2776.479596274442
 30
0.0
 41
1.0
 10
-185.26522999417864
 20
-2776.4844634168294
 30
0.0
 41
1.0
 10
-185.29329674112103
 20
-2776.624049670249
 30
0.0
 41
0.9999524761931613
 10
-185.32407970995308
 20
-2776.7630621634025
 30
0.0
 41
1.0
 10
-185.32535581712906
 20
-2776.7688249227072
 30
0.0
 41
1.0
 10
-185.32663192430505
 20
-2776.7745876820118
 30
0.0
 41
1.0
 10
-185.35996710748924
 20
-2776.9251256937755
 30
0.0
 41
0.9999813588730672
 10
-185.39513810828734
 20
-2777.0752454064404
 30
0.0
 41
1.0
 10
-185.39669203374348
 20
-2777.0818779968613
 30
0.0
 41
1.0
 10
-185.39824595919958
 20
-2777.0885105872817
 30
0.0
 41
1.0
 10
-185.43652481090828
 20
-2777.2518954807824
 30
0.0
 41
0.9999955237664578
 10
-185.47578068889268
 20
-2777.4150483844041
 30
0.0
 41
1.0
 10
-185.48806232452523
 20
-2777.4660925749195
 30
0.0
 41
1.0
 10
-185.50034396015781
 20
-2777.5171367654348
 30
0.0
 41
1.0
 10
-185.56416310937863
 20
-2777.7823780499693
 30
0.0
 41
0.9999993604208052
 10
-185.62858205658517
 20
-2778.0474743008135
 30
0.0
 41
1.0
 10
-185.63330089212712
 20
-2778.0668932088329
 30
0.0
 41
1.0
 10
-185.63801972766908
 20
-2778.0863121168522
 30
0.0
 41
1.0
 10
-185.71187634592957
 20
-2778.3902461836115
 30
0.0
 41
0.9999659914728358
 10
-185.79073594181889
 20
-2778.6929207301864
 30
0.0
 41
1.0
 10
-185.79568863074752
 20
-2778.7119298673611
 30
0.0
 41
1.0
 10
-185.80064131967612
 20
-2778.7309390045357
 30
0.0
 41
1.0
 10
-185.88940629341909
 20
-2779.0716318254467
 30
0.0
 41
0.9999441976025175
 10
-185.98534932638304
 20
-2779.4103732507469
 30
0.0
 41
1.0
 10
-186.00204984480956
 20
-2779.4693369632778
 30
0.0
 41
1.0
 10
-186.01875036323605
 20
-2779.5283006758091
 30
0.0
 41
1.0
 10
-186.14809443304773
 20
-2779.9849695261537
 30
0.0
 41
0.9999625120735038
 10
-186.28532720037379
 20
-2780.4393300601578
 30
0.0
 41
1.0
 10
-186.3211171434553
 20
-2780.5578260867806
 30
0.0
 41
1.0
 10
-186.35690708653681
 20
-2780.6763221134029
 30
0.0
 41
1.0
 10
-186.43142729058252
 20
-2780.9230491915205
 30
0.0
 41
0.9999793386310016
 10
-186.50911331371861
 20
-2781.1687978307518
 30
0.0
 41
1.0
 10
-186.58679933685619
 20
-2781.4145464699877
 30
0.0
 41
1.0
 10
-186.59757889572688
 20
-2781.4485643743624
 30
0.0
 41
1.0
 10
-188.44795194899604
 20
-2787.3356362968298
 30
0.0
 41
1.0
 10
-190.29832500226519
 20
-2793.2227082192976
 30
0.0
 41
1.0
 10
-191.25958169228875
 20
-2793.2227082192976
 30
0.0
 41
1.0
 10
-192.22083838231231
 20
-2793.2227082192976
 30
0.0
 41
1.0
 10
-190.60189360363387
 20
-2788.0746797175079
 30
0.0
 41
1.0
 10
-188.98294882495543
 20
-2782.9266512157183
 30
0.0
 41
1.0
 10
-188.93778300177843
 20
-2782.7826199934398
 30
0.0
 41
1.0
 10
-188.8926171786014
 20
-2782.6385887711613
 30
0.0
 41
1.0
 10
-188.72231276124404
 20
-2782.0954977420161
 30
0.0
 41
0.9999911657926583
 10
-188.55657994956385
 20
-2781.5509942106528
 30
0.0
 41
1.0
 10
-188.52688400606445
 20
-2781.4534302706056
 30
0.0
 41
1.0
 10
-188.49718806256504
 20
-2781.3558663305585
 30
0.0
 41
1.0
 10
-188.39084713788975
 20
-2781.0064906793086
 30
0.0
 41
0.9999952428185429
 10
-188.28666354855869
 20
-2780.656465654939
 30
0.0
 41
1.0
 10
-188.28160407822321
 20
-2780.6394673806535
 30
0.0
 41
1.0
 10
-188.27654460788776
 20
-2780.6224691063685
 30
0.0
 41
1.0
 10
-188.18247995923434
 20
-2780.3064406305912
 30
0.0
 41
0.9999931687504136
 10
-188.09075412136008
 20
-2779.9897254173193
 30
0.0
 41
1.0
 10
-188.08581885690342
 20
-2779.9726847080583
 30
0.0
 41
1.0
 10
-188.08088359244675
 20
-2779.9556439987973
 30
0.0
 41
1.0
 10
-187.99902828349275
 20
-2779.6730102040706
 30
0.0
 41
0.9999893840812718
 10
-187.91978105702958
 20
-2779.3896340748024
 30
0.0
 41
1.0
 10
-187.84053383057199
 20
-2779.1062579455524
 30
0.0
 41
0.9999833980066961
 10
-187.7645575898315
 20
-2778.8219873625294
 30
0.0
 41
1.0
 10
-187.75555365310834
 20
-2778.7882984840476
 30
0.0
 41
1.0
 10
-187.7465497163852
 20
-2778.7546096055657
 30
0.0
 41
1.0
 10
-187.677585167519
 20
-2778.4965737732696
 30
0.0
 41
0.9999233658068786
 10
-187.61503019629924
 20
-2778.2369096145494
 30
0.0
 41
1.0
 10
-187.55247522507898
 20
-2777.977245455827
 30
0.0
 41
1.0
 10
-187.51299180622141
 20
-2777.8134387914006
 30
0.0
 41
1.0
 10
-187.50801320224446
 20
-2777.7927838295318
 30
0.0
 41
1.0
 10
-187.50303459826748
 20
-2777.7721288676626
 30
0.0
 41
1.0
 10
-187.47350838736173
 20
-2777.6496321269647
 30
0.0
 41
0.999986867084063
 10
-187.44523930336766
 20
-2777.5268391813288
 30
0.0
 41
1.0
 10
-187.4413418162097
 20
-2777.5099095939108
 30
0.0
 41
1.0
 10
-187.43744432905174
 20
-2777.4929800064929
 30
0.0
 41
1.0
 10
-187.41697021936997
 20
-2777.4040462356775
 30
0.0
 41
0.9999778173353418
 10
-187.39768262125602
 20
-2777.3148476184529
 30
0.0
 41
1.0
 10
-187.37839502313858
 20
-2777.2256490012142
 30
0.0
 41
0.9999602692858731
 10
-187.36070066450907
 20
-2777.1361207127925
 30
0.0
 41
1.0
 10
-187.35749683243182
 20
-2777.1199102579085
 30
0.0
 41
1.0
 10
-187.35429300035457
 20
-2777.1036998030249
 30
0.0
 41
1.0
 10
-187.33019097756818
 20
-2776.9817506048248
 30
0.0
 41
0.9995617985320509
 10
-187.31334763034994
 20
-2776.8585888571224
 30
0.0
 41
1.0
 10
-187.31088314044356
 20
-2776.8405680397555
 30
0.0
 41
1.0
 10
-187.30841865053719
 20
-2776.8225472223889
 30
0.0
 41
1.0
 10
-187.28813538948901
 20
-2776.6742321726879
 30
0.0
 41
0.9991121410639671
 10
-187.28041003590079
 20
-2776.5247360738827
 30
0.0
 41
1.0
 10
-187.27949124587622
 20
-2776.5069562373064
 30
0.0
 41
1.0
 10
-187.27857245585164
 20
-2776.4891764007298
 30
0.0
 41
1.0
 10
-187.27268468231236
 20
-2776.3752399750738
 30
0.0
 41
0.998979249490493
 10
-187.27710377442986
 20
-2776.2612371391779
 30
0.0
 41
1.0
 10
-187.27775174629855
 20
-2776.2445208932495
 30
0.0
 41
1.0
 10
-187.27839971816724
 20
-2776.2278046473216
 30
0.0
 41
1.0
 10
-187.28152286654714
 20
-2776.1472343032806
 30
0.0
 41
0.9997820295394496
 10
-187.28800686392287
 20
-2776.0668645815358
 30
0.0
 41
1.0
 10
-187.29449086129853
 20
-2775.9864948597915
 30
0.0
 41
0.9998335105974378
 10
-187.30390305681075
 20
-2775.9064152433371
 30
0.0
 41
1.0
 10
-187.30549798148684
 20
-2775.8928455128562
 30
0.0
 41
1.0
 10
-187.30709290616295
 20
-2775.8792757823753
 30
0.0
 41
1.0
 10
-187.31969495102669
 20
-2775.7720567049632
 30
0.0
 41
0.9996876457879625
 10
-187.33763886382513
 20
-2775.6656012772464
 30
0.0
 41
1.0
 10
-187.33987052697083
 20
-2775.6523615420028
 30
0.0
 41
1.0
 10
-187.34210219011652
 20
-2775.6391218067588
 30
0.0
 41
1.0
 10
-187.35589801153759
 20
-2775.5572756628007
 30
0.0
 41
0.9995547496495578
 10
-187.37455133342996
 20
-2775.4763981656101
 30
0.0
 41
1.0
 10
-187.37492529030115
 20
-2775.4747767549052
 30
0.0
 41
1.0
 10
-187.37529924717234
 20
-2775.4731553442002
 30
0.0
 41
1.0
 10
-187.39320465532217
 20
-2775.3955206684213
 30
0.0
 41
0.9994899427175717
 10
-187.41602956400192
 20
-2775.3191873855844
 30
0.0
 41
1.0
 10
-187.41648809074258
 20
-2775.3176539357964
 30
0.0
 41
1.0
 10
-187.41694661748321
 20
-2775.316120486008
 30
0.0
 41
1.0
 10
-187.43885447268178
 20
-2775.2428541027489
 30
0.0
 41
0.9993784877591462
 10
-187.46587010778785
 20
-2775.1713133975909
 30
0.0
 41
1.0
 10
-187.46640179876434
 20
-2775.1699054148712
 30
0.0
 41
1.0
 10
-187.46693348974082
 20
-2775.168497432152
 30
0.0
 41
1.0
 10
-187.49288574289432
 20
-2775.0997726924325
 30
0.0
 41
0.9992430832255362
 10
-187.52410227805382
 20
-2775.0332735403636
 30
0.0
 41
1.0
 10
-187.52468439411041
 20
-2775.0320334852463
 30
0.0
 41
1.0
 10
-187.525266510167
 20
-2775.0307934301291
 30
0.0
 41
1.0
 10
-187.55531881321284
 20
-2774.966774388296
 30
0.0
 41
0.9990789632798013
 10
-187.59074943998985
 20
-2774.9055677765459
 30
0.0
 41
1.0
 10
-187.59134514617196
 20
-2774.9045386906864
 30
0.0
 41
1.0
 10
-187.59194085235407
 20
-2774.9035096048274
 30
0.0
 41
1.0
 10
-187.62618006676735
 20
-2774.8443611647949
 30
0.0
 41
0.9988874801120036
 10
-187.66583934279862
 20
-2774.7887014523785
 30
0.0
 41
1.0
 10
-187.66639486886228
 20
-2774.7879218007047
 30
0.0
 41
1.0
 10
-187.66695039492595
 20
-2774.7871421490308
 30
0.0
 41
1.0
 10
-187.70549861883012
 20
-2774.7330417399617
 30
0.0
 41
0.9986762060695154
 10
-187.7494010901068
 20
-2774.6831880255213
 30
0.0
 41
1.0
 10
-187.74984505043753
 20
-2774.6826838837064
 30
0.0
 41
1.0
 10
-187.75028901076826
 20
-2774.6821797418916
 30
0.0
 41
1.0
 10
-187.79330356138178
 20
-2774.6333343110837
 30
0.0
 41
0.9984621642489808
 10
-187.84146111816079
 20
-2774.5895510106111
 30
0.0
 41
1.0
 10
-187.84170775267773
 20
-2774.5893267784472
 30
0.0
 41
1.0
 10
-187.84195438719465
 20
-2774.5891025462834
 30
0.0
 41
1.0
 10
-187.88961867493899
 20
-2774.5457677101394
 30
0.0
 41
0.9982724693849779
 10
-187.94203730678004
 20
-2774.5083233596224
 30
0.0
 41
1.0
 10
-187.99445593861915
 20
-2774.4708790091058
 30
0.0
 41
0.9981399180156354
 10
-188.05104200201248
 20
-2774.4400924896627
 30
0.0
 41
1.0
 10
-188.05108766409211
 20
-2774.4400676465048
 30
0.0
 41
1.0
 10
-188.05113332617174
 20
-2774.4400428033468
 30
0.0
 41
1.0
 10
-188.10781071372176
 20
-2774.4092065975892
 30
0.0
 41
0.9980927086837719
 10
-188.16785606478916
 20
-2774.3855897887365
 30
0.0
 41
1.0
 10
-188.16829623450047
 20
-2774.3854166628616
 30
0.0
 41
1.0
 10
-188.16873640421176
 20
-2774.3852435369868
 30
0.0
 41
1.0
 10
-188.22966209470187
 20
-2774.3612804763839
 30
0.0
 41
0.9981411356561477
 10
-188.29305061610134
 20
-2774.3449078348785
 30
0.0
 41
1.0
 10
-188.29393273280255
 20
-2774.3446799926733
 30
0.0
 41
1.0
 10
-188.29481484950378
 20
-2774.3444521504675
 30
0.0
 41
1.0
 10
-188.35996760430709
 20
-2774.3276238245508
 30
0.0
 41
0.9983031812934614
 10
-188.42663503330203
 20
-2774.3184844633743
 30
0.0
 41
1.0
 10
-188.4355060587049
 20
-2774.3172683447028
 30
0.0
 41
1.0
 10
-188.4443770841078
 20
-2774.3160522260318
 30
0.0
 41
1.0
 10
-188.49872672661218
 20
-2774.3086014960409
 30
0.0
 41
0.9983887708264281
 10
-188.55357057590561
 20
-2774.3073568224077
 30
0.0
 41
1.0
 10
-188.56163398112432
 20
-2774.3071738245326
 30
0.0
 41
1.0
 10
-188.56969738634302
 20
-2774.306990826658
 30
0.0
 41
1.0
 10
-188.60841442519967
 20
-2774.3061121487744
 30
0.0
 41
0.9998869563080652
 10
-188.6471403784011
 20
-2774.3063980181341
 30
0.0
 41
1.0
 10
-188.68586633154891
 20
-2774.3066838874934
 30
0.0
 41
0.9999972320177806
 10
-188.72459051070581
 20
-2774.3071519870214
 30
0.0
 41
1.0
 10
-188.74394352734018
 20
-2774.3073859271117
 30
0.0
 41
1.0
 10
-188.76329654397455
 20
-2774.3076198672015
 30
0.0
 41
1.0
 10
-188.8407267563465
 20
-2774.3085558469093
 30
0.0
 41
0.9997304945087798
 10
-188.91803006258519
 20
-2774.3130849406953
 30
0.0
 41
1.0
 10
-188.9270797042883
 20
-2774.3136151466852
 30
0.0
 41
1.0
 10
-188.93612934599139
 20
-2774.314145352675
 30
0.0
 41
1.0
 10
-189.03153193563162
 20
-2774.3197348584408
 30
0.0
 41
0.999788830641565
 10
-189.12662427146745
 20
-2774.3292398229291
 30
0.0
 41
1.0
 10
-189.13534533304653
 20
-2774.3301115375616
 30
0.0
 41
1.0
 10
-189.14406639462561
 20
-2774.3309832521945
 30
0.0
 41
1.0
 10
-189.25660085361642
 20
-2774.3422316459482
 30
0.0
 41
0.99841702381911
 10
-189.3671600009703
 20
-2774.366047727885
 30
0.0
 41
1.0
 10
-189.40354113195099
 20
-2774.3738847636896
 30
0.0
 41
1.0
 10
-189.43992226293165
 20
-2774.3817217994947
 30
0.0
 41
1.0
 10
-189.5551133313559
 20
-2774.4065356660049
 30
0.0
 41
0.9976592854201787
 10
-189.6658414977644
 20
-2774.4468343431527
 30
0.0
 41
1.0
 10
-189.77656966417234
 20
-2774.4871330203009
 30
0.0
 41
0.9993255074352303
 10
-189.88404146296395
 20
-2774.5354499187938
 30
0.0
 41
1.0
 10
-189.88866664188538
 20
-2774.537529294993
 30
0.0
 41
1.0
 10
-189.89329182080678
 20
-2774.5396086711917
 30
0.0
 41
1.0
 10
-190.01001397744437
 20
-2774.5920843220842
 30
0.0
 41
0.9976475078276755
 10
-190.11846132175575
 20
-2774.6600323117427
 30
0.0
 41
1.0
 10
-190.1368037158874
 20
-2774.6715247905554
 30
0.0
 41
1.0
 10
-190.15514611001905
 20
-2774.6830172693681
 30
0.0
 41
1.0
 10
-190.23934830157273
 20
-2774.7357743901375
 30
0.0
 41
0.9995131336407749
 10
-190.32009601653374
 20
-2774.7936806020925
 30
0.0
 41
1.0
 10
-190.40084373149338
 20
-2774.8515868140476
 30
0.0
 41
0.9995810107606038
 10
-190.47810537922152
 20
-2774.9140684965132
 30
0.0
 41
1.0
 10
-190.4810754104308
 20
-2774.9164703679771
 30
0.0
 41
1.0
 10
-190.48404544164009
 20
-2774.918872239441
 30
0.0
 41
1.0
 10
-190.56724715178672
 20
-2774.9861576648341
 30
0.0
 41
0.9996617837954103
 10
-190.64683783891977
 20
-2775.0576781203918
 30
0.0
 41
1.0
 10
-190.6589685898013
 20
-2775.0685788533865
 30
0.0
 41
1.0
 10
-190.67109934068287
 20
-2775.0794795863812
 30
0.0
 41
1.0
 10
-190.73937486807768
 20
-2775.1408322018524
 30
0.0
 41
0.9997267750053513
 10
-190.80470837635954
 20
-2775.2053087383756
 30
0.0
 41
1.0
 10
-190.87004188464488
 20
-2775.2697852749025
 30
0.0
 41
0.9999667288964163
 10
-190.93431482778328
 20
-2775.3353190817888
 30
0.0
 41
1.0
 10
-191.00314227556171
 20
-2775.4054967405505
 30
0.0
 41
1.0
 10
-191.07196972334015
 20
-2775.4756743993121
 30
0.0
 41
1.0
 10
-191.27389756203792
 20
-2775.6815635237235
 30
0.0
 41
0.998820533517457
 10
-191.45490317901738
 20
-2775.9060677557845
 30
0.0
 41
1.0
 10
-191.4855431439216
 20
-2775.9440710062136
 30
0.0
 41
1.0
 10
-191.51618310882583
 20
-2775.982074256643
 30
0.0
 41
1.0
 10
-191.75846865561124
 20
-2776.2825849895589
 30
0.0
 41
0.9997077826754853
 10
-191.98594660671674
 20
-2776.5944547837753
 30
0.0
 41
1.0
 10
-191.98767002184883
 20
-2776.5968175671569
 30
0.0
 41
1.0
 10
-191.98939343698089
 20
-2776.599180350539
 30
0.0
 41
1.0
 10
-192.22031821834847
 20
-2776.9157757115167
 30
0.0
 41
0.9989147567079016
 10
-192.42078172123303
 20
-2777.2524851727035
 30
0.0
 41
1.0
 10
-192.44552286653712
 20
-2777.2940417532509
 30
0.0
 41
1.0
 10
-192.47026401184121
 20
-2777.3355983337988
 30
0.0
 41
1.0
 10
-192.62547531047801
 20
-2777.5962997182514
 30
0.0
 41
0.9997476598182838
 10
-192.7688202979914
 20
-2777.8637094668397
 30
0.0
 41
1.0
 10
-192.91216528550382
 20
-2778.1311192154271
 30
0.0
 41
0.9996258967109877
 10
-193.04067353743449
 20
-2778.4059671520499
 30
0.0
 41
1.0
 10
-193.05387344688307
 20
-2778.4341985521432
 30
0.0
 41
1.0
 10
-193.06707335633166
 20
-2778.4624299522361
 30
0.0
 41
1.0
 10
-193.20728207733029
 20
-2778.7623023501865
 30
0.0
 41
0.9998735413945363
 10
-193.33788342405251
 20
-2779.0664819496583
 30
0.0
 41
1.0
 10
-193.34132625211225
 20
-2779.0745005351209
 30
0.0
 41
1.0
 10
-193.344769080172
 20
-2779.082519120584
 30
0.0
 41
1.0
 10
-193.46848477077447
 20
-2779.3706615491292
 30
0.0
 41
0.9999377418860455
 10
-193.5857395729476
 20
-2779.6614930168012
 30
0.0
 41
1.0
 10
-193.70299437511994
 20
-2779.95232448447
 30
0.0
 41
0.9999508299507168
 10
-193.81445831849788
 20
-2780.2454241612922
 30
0.0
 41
1.0
 10
-193.81753908716149
 20
-2780.2535251872591
 30
0.0
 41
1.0
 10
-193.8206198558251
 20
-2780.261626213226
 30
0.0
 41
1.0
 10
-193.93824533652713
 20
-2780.5709279419748
 30
0.0
 41
0.9999609228430214
 10
-194.05038393940455
 20
-2780.8822609579997
 30
0.0
 41
1.0
 10
-194.05333994975263
 20
-2780.8904677984046
 30
0.0
 41
1.0
 10
-194.05629596010067
 20
-2780.89867463881
 30
0.0
 41
1.0
 10
-194.1743465836804
 20
-2781.2264213356621
 30
0.0
 41
0.9999674607398046
 10
-194.28709410974693
 20
-2781.5560299556532
 30
0.0
 41
1.0
 10
-194.33849250030562
 20
-2781.7062891513342
 30
0.0
 41
1.0
 10
-194.38989089086434
 20
-2781.8565483470152
 30
0.0
 41
1.0
 10
-194.50590149762087
 20
-2782.1956963295152
 30
0.0
 41
0.9999287532309621
 10
-194.6137829015957
 20
-2782.537517068502
 30
0.0
 41
1.0
 10
-194.66026015774702
 20
-2782.6847796129114
 30
0.0
 41
1.0
 10
-194.70673741389831
 20
-2782.8320421573212
 30
0.0
 41
1.0
 10
-194.72166430563399
 20
-2782.8793378076916
 30
0.0
 41
0.9999998225062692
 10
-194.73653481429687
 20
-2782.9266512157183
 30
0.0
 41
1.0
 10
-196.35719095109232
 20
-2788.0746797175079
 30
0.0
 41
1.0
 10
-197.97784708788777
 20
-2793.2227082192976
 30
0.0
 41
1.0
 10
-198.8831555317787
 20
-2793.2227082192976
 30
0.0
 41
1.0
 10
-199.78846397566963
 20
-2793.2227082192976
 30
0.0
 41
1.0
 10
-197.93637956428358
 20
-2787.3356362968298
 30
0.0
 41
1.0
 10
-196.08429515289754
 20
-2781.4485643743624
 30
0.0
 41
1.0
 10
-196.07417339459482
 20
-2781.4165211609125
 30
0.0
 41
1.0
 10
-196.00156572574508
 20
-2781.1862216190866
 30
0.0
 41
1.0
 10
-195.92895805689341
 20
-2780.9559220772549
 30
0.0
 41
0.9999825681973564
 10
-195.85907501768543
 20
-2780.7247811822008
 30
0.0
 41
1.0
 10
-195.81078395552339
 20
-2780.5650565987007
 30
0.0
 41
1.0
 10
-195.76249289336133
 20
-2780.4053320152007
 30
0.0
 41
1.0
 10
-195.66534054004828
 20
-2780.083996793438
 30
0.0
 41
0.9999672528964563
 10
-195.57340173442299
 20
-2779.7611312478457
 30
0.0
 41
1.0
 10
-195.57061285075423
 20
-2779.7513374024593
 30
0.0
 41
1.0
 10
-195.5678239670855
 20
-2779.7415435570729
 30
0.0
 41
1.0
 10
-195.48146292880267
 20
-2779.4382657022697
 30
0.0
 41
0.999989974916371
 10
-195.39782131926495
 20
-2779.1342266138072
 30
0.0
 41
1.0
 10
-195.38771540024629
 20
-2779.0974913761247
 30
0.0
 41
1.0
 10
-195.37760948122767
 20
-2779.0607561384422
 30
0.0
 41
1.0
 10
-195.31417970973013
 20
-2778.8301875253537
 30
0.0
 41
0.9999214200505101
 10
-195.25655028135253
 20
-2778.5981011831454
 30
0.0
 41
1.0
 10
-195.24378442917157
 20
-2778.5466902977478
 30
0.0
 41
1.0
 10
-195.23101857699064
 20
-2778.4952794123501
 30
0.0
 41
1.0
 10
-195.19892085297315
 20
-2778.3660148409294
 30
0.0
 41
0.9999828681668695
 10
-195.16833860097938
 20
-2778.2363833664685
 30
0.0
 41
1.0
 10
-195.13775634898352
 20
-2778.106751891999
 30
0.0
 41
0.9999389844479074
 10
-195.11004536019379
 20
-2777.9764764360966
 30
0.0
 41
1.0
 10
-195.10290761647406
 20
-2777.9429203322616
 30
0.0
 41
1.0
 10
-195.09576987275432
 20
-2777.9093642284261
 30
0.0
 41
1.0
 10
-195.05378339652475
 20
-2777.7119765648531
 30
0.0
 41
0.9998933699439465
 10
-195.01757913212219
 20
-2777.5134469570917
 30
0.0
 41
1.0
 10
-195.01620630690596
 20
-2777.5059189363956
 30
0.0
 41
1.0
 10
-195.01483348168972
 20
-2777.4983909156999
 30
0.0
 41
1.0
 10
-194.97588356685475
 20
-2777.2848052665481
 30
0.0
 41
0.9996850305193953
 10
-194.94769989059594
 20
-2777.0695342611102
 30
0.0
 41
1.0
 10
-194.9457048572267
 20
-2777.054295906989
 30
0.0
 41
1.0
 10
-194.94370982385749
 20
-2777.0390575528677
 30
0.0
 41
1.0
 10
-194.91630196139852
 20
-2776.8297123257153
 30
0.0
 41
0.9994697936706564
 10
-194.90257740217879
 20
-2776.6190271303822
 30
0.0
 41
1.0
 10
-194.90210033292911
 20
-2776.6117036581709
 30
0.0
 41
1.0
 10
-194.90162326367943
 20
-2776.6043801859596
 30
0.0
 41
1.0
 10
-194.88885284295904
 20
-2776.4083419350491
 30
0.0
 41
0.9991804893136669
 10
-194.89198115923199
 20
-2776.2119130850779
 30
0.0
 41
1.0
 10
-194.89206503805411
 20
-2776.2066462836651
 30
0.0
 41
1.0
 10
-194.89214891687621
 20
-2776.2013794822524
 30
0.0
 41
1.0
 10
-194.89510947550494
 20
-2776.0154842351053
 30
0.0
 41
0.9988448329322077
 10
-194.91590102112855
 20
-2775.830731645271
 30
0.0
 41
1.0
 10
-194.91749509483159
 20
-2775.8165667895
 30
0.0
 41
1.0
 10
-194.91908916853464
 20
-2775.8024019337286
 30
0.0
 41
1.0
 10
-194.93669256675213
 20
-2775.6459790554381
 30
0.0
 41
0.9985503209458078
 10
-194.97100883905188
 20
-2775.4923548713487
 30
0.0
 41
1.0
 10
-194.9785948311233
 20
-2775.4583945439472
 30
0.0
 41
1.0
 10
-194.98618082319476
 20
-2775.4244342165462
 30
0.0
 41
1.0
 10
-195.00532511135228
 20
-2775.3387306872564
 30
0.0
 41
0.9991036781370664
 10
-195.03164997300263
 20
-2775.2549535999342
 30
0.0
 41
1.0
 10
-195.03563219845796
 20
-2775.2422804374255
 30
0.0
 41
1.0
 10
-195.03961442391329
 20
-2775.2296072749173
 30
0.0
 41
1.0
 10
-195.05797483465105
 20
-2775.1711765126183
 30
0.0
 41
0.9998874504369065
 10
-195.07808004233226
 20
-2775.1133229103862
 30
0.0
 41
1.0
 10
-195.098185250011
 20
-2775.0554693081622
 30
0.0
 41
0.9994041637544783
 10
-195.12223386294548
 20
-2774.9991406042714
 30
0.0
 41
1.0
 10
-195.12643064716914
 20
-2774.9893105397905
 30
0.0
 41
1.0
 10
-195.13062743139281
 20
-2774.9794804753092
 30
0.0
 41
1.0
 10
-195.15850626238753
 20
-2774.9141803093416
 30
0.0
 41
0.9991846840701978
 10
-195.19156261908063
 20
-2774.8513422780616
 30
0.0
 41
1.0
 10
-195.19269922547511
 20
-2774.8491816616079
 30
0.0
 41
1.0
 10
-195.19383583186956
 20
-2774.8470210451542
 30
0.0
 41
1.0
 10
-195.22461897577233
 20
-2774.7885042467838
 30
0.0
 41
0.9989253167923993
 10
-195.26068839982867
 20
-2774.7330893183912
 30
0.0
 41
1.0
 10
-195.26174252450272
 20
-2774.7314698236291
 30
0.0
 41
1.0
 10
-195.26279664917675
 20
-2774.7298503288671
 30
0.0
 41
1.0
 10
-195.29675782388267
 20
-2774.6776743900023
 30
0.0
 41
0.998646717283604
 10
-195.33595497652101
 20
-2774.6293083563714
 30
0.0
 41
1.0
 10
-195.3368291052214
 20
-2774.6282297540938
 30
0.0
 41
1.0
 10
-195.33770323392181
 20
-2774.6271511518157
 30
0.0
 41
1.0
 10
-195.37515212915775
 20
-2774.5809423227429
 30
0.0
 41
0.9984001104268184
 10
-195.41757885967559
 20
-2774.5392572153733
 30
0.0
 41
1.0
 10
-195.4181659977852
 20
-2774.5386803404917
 30
0.0
 41
1.0
 10
-195.4187531358948
 20
-2774.5381034656102
 30
0.0
 41
1.0
 10
-195.46000559019282
 20
-2774.4975721080041
 30
0.0
 41
0.9982442159082885
 10
-195.50576169152833
 20
-2774.4622035467437
 30
0.0
 41
1.0
 10
-195.50597648698891
 20
-2774.4620375141012
 30
0.0
 41
1.0
 10
-195.50619128244946
 20
-2774.4618714814592
 30
0.0
 41
1.0
 10
-195.55151779286192
 20
-2774.4268349854851
 30
0.0
 41
0.9982450060836828
 10
-195.60066877193572
 20
-2774.3974032024503
 30
0.0
 41
1.0
 10
-195.64981975100787
 20
-2774.3679714194168
 30
0.0
 41
0.9983922639635215
 10
-195.70198605717496
 20
-2774.3442917847615
 30
0.0
 41
1.0
 10
-195.70221293449811
 20
-2774.3441887992803
 30
0.0
 41
1.0
 10
-195.70243981182125
 20
-2774.3440858137997
 30
0.0
 41
1.0
 10
-195.75505987263347
 20
-2774.3202002081835
 30
0.0
 41
0.9986517147148436
 10
-195.8098728454994
 20
-2774.3018990890623
 30
0.0
 41
1.0
 10
-195.81055076692903
 20
-2774.3016727426302
 30
0.0
 41
1.0
 10
-195.81122868835865
 20
-2774.3014463961981
 30
0.0
 41
1.0
 10
-195.86739750408654
 20
-2774.2826925842123
 30
0.0
 41
0.9989435598955752
 10
-195.92505089124262
 20
-2774.2691748819771
 30
0.0
 41
1.0
 10
-195.92613101081986
 20
-2774.2689216317249
 30
0.0
 41
1.0
 10
-195.9272111303971
 20
-2774.2686683814732
 30
0.0
 41
1.0
 10
-195.98702475670632
 20
-2774.254644178734
 30
0.0
 41
0.9992249241242248
 10
-196.04775626559891
 20
-2774.2453688360188
 30
0.0
 41
1.0
 10
-196.0491699538951
 20
-2774.2451529276104
 30
0.0
 41
1.0
 10
-196.05058364219133
 20
-2774.2449370192016
 30
0.0
 41
1.0
 10
-196.11414252767401
 20
-2774.2352298596702
 30
0.0
 41
0.9994396597832861
 10
-196.17820846421426
 20
-2774.2297969373244
 30
0.0
 41
1.0
 10
-196.19734913168881
 20
-2774.2281737696057
 30
0.0
 41
1.0
 10
-196.21648979916336
 20
-2774.2265506018875
 30
0.0
 41
1.0
 10
-196.31883707065461
 20
-2774.2178713441044
 30
0.0
 41
0.998769340312114
 10
-196.42154069424029
 20
-2774.2193744075571
 30
0.0
 41
1.0
 10
-196.43179502846755
 20
-2774.2195244793311
 30
0.0
 41
1.0
 10
-196.4420493626948
 20
-2774.2196745511055
 30
0.0
 41
1.0
 10
-196.55160512887483
 20
-2774.2212778953931
 30
0.0
 41
0.9989753644966951
 10
-196.66056712889281
 20
-2774.2327809023182
 30
0.0
 41
1.0
 10
-196.76952912890891
 20
-2774.2442839092437
 30
0.0
 41
0.9983190067307742
 10
-196.87642793987322
 20
-2774.2683189010299
 30
0.0
 41
1.0
 10
-196.88532889148047
 20
-2774.270320179593
 30
0.0
 41
1.0
 10
-196.89422984308771
 20
-2774.2723214581556
 30
0.0
 41
1.0
 10
-197.01893055726816
 20
-2774.300359007068
 30
0.0
 41
0.9985539388301321
 10
-197.1399003109475
 20
-2774.3416226831146
 30
0.0
 41
1.0
 10
-197.14224574190612
 20
-2774.3424227269297
 30
0.0
 41
1.0
 10
-197.14459117286475
 20
-2774.3432227707449
 30
0.0
 41
1.0
 10
-197.27025178846267
 20
-2774.3860865344222
 30
0.0
 41
0.9988468746493979
 10
-197.39122213076399
 20
-2774.4408046194849
 30
0.0
 41
1.0
 10
-197.39440495275247
 20
-2774.4422442940449
 30
0.0
 41
1.0
 10
-197.39758777474094
 20
-2774.4436839686045
 30
0.0
 41
1.0
 10
-197.52492376101571
 20
-2774.5012814027855
 30
0.0
 41
0.9991322885919683
 10
-197.6470243450722
 20
-2774.5692767349669
 30
0.0
 41
1.0
 10
-197.66462635611856
 20
-2774.579078936958
 30
0.0
 41
1.0
 10
-197.68222836716492
 20
-2774.5888811389491
 30
0.0
 41
1.0
 10
-197.78440504822063
 20
-2774.6457812547287
 30
0.0
 41
0.9993860037848976
 10
-197.88234605229388
 20
-2774.7096972703175
 30
0.0
 41
1.0
 10
-197.8879643651513
 20
-2774.7133637650159
 30
0.0
 41
1.0
 10
-197.89358267800873
 20
-2774.7170302597142
 30
0.0
 41
1.0
 10
-197.98028705637086
 20
-2774.7736132859086
 30
0.0
 41
0.9998821494952693
 10
-198.06521343218009
 20
-2774.8328315159829
 30
0.0
 41
1.0
 10
-198.15013980799137
 20
-2774.8920497460585
 30
0.0
 41
0.9997976482744734
 10
-198.23261543839686
 20
-2774.9546361541015
 30
0.0
 41
1.0
 10
-198.24725170320161
 20
-2774.9657428438813
 30
0.0
 41
1.0
 10
-198.26188796800636
 20
-2774.9768495336612
 30
0.0
 41
1.0
 10
-198.37363612802233
 20
-2775.0616493212642
 30
0.0
 41
0.9998091630800411
 10
-198.48198640605153
 20
-2775.1507496719673
 30
0.0
 41
1.0
 10
-198.49499215852683
 20
-2775.1614447724114
 30
0.0
 41
1.0
 10
-198.50799791100212
 20
-2775.172139872856
 30
0.0
 41
1.0
 10
-198.64235969398464
 20
-2775.2826304244495
 30
0.0
 41
0.9995035112316735
 10
-198.76949557174564
 20
-2775.401364241462
 30
0.0
 41
1.0
 10
-198.77914288213191
 20
-2775.4103739876191
 30
0.0
 41
1.0
 10
-198.78879019251821
 20
-2775.4193837337762
 30
0.0
 41
1.0
 10
-198.91221325528431
 20
-2775.5346501055328
 30
0.0
 41
0.9994630424299664
 10
-199.02782166107164
 20
-2775.657752848771
 30
0.0
 41
1.0
 10
-199.0315044998427
 20
-2775.6616744282837
 30
0.0
 41
1.0
 10
-199.03518733861375
 20
-2775.6655960077965
 30
0.0
 41
1.0
 10
-199.14343006685544
 20
-2775.780855592006
 30
0.0
 41
0.9995160693749533
 10
-199.24429609638753
 20
-2775.9026230098789
 30
0.0
 41
1.0
 10
-199.24622981646894
 20
-2775.9049574340879
 30
0.0
 41
1.0
 10
-199.24816353655032
 20
-2775.907291858297
 30
0.0
 41
1.0
 10
-199.34516212592123
 20
-2776.0243904277531
 30
0.0
 41
0.9996561470513774
 10
-199.43588834458535
 20
-2776.1464131902003
 30
0.0
 41
1.0
 10
-199.4420460104875
 20
-2776.1546949792428
 30
0.0
 41
1.0
 10
-199.44820367638965
 20
-2776.1629767682853
 30
0.0
 41
1.0
 10
-199.52661456325271
 20
-2776.2684359526511
 30
0.0
 41
0.9998349055174006
 10
-199.60114184518346
 20
-2776.3766745363127
 30
0.0
 41
1.0
 10
-199.67566912711351
 20
-2776.4849131199735
 30
0.0
 41
0.9999728109556294
 10
-199.74859202301383
 20
-2776.5942390455134
 30
0.0
 41
1.0
 10
-199.74990723843158
 20
-2776.5962108150252
 30
0.0
 41
1.0
 10
-199.75122245384932
 20
-2776.5981825845365
 30
0.0
 41
1.0
 10
-199.82677578060293
 20
-2776.7114520491273
 30
0.0
 41
0.9999972147362262
 10
-199.90179359098224
 20
-2776.8250768919711
 30
0.0
 41
1.0
 10
-199.90676513359199
 20
-2776.8326069804243
 30
0.0
 41
1.0
 10
-199.91173667620171
 20
-2776.8401370688775
 30
0.0
 41
1.0
 10
-199.99669757181533
 20
-2776.9688220886501
 30
0.0
 41
0.99993719790097
 10
-200.07875292121753
 20
-2777.099379002424
 30
0.0
 41
1.0
 10
-200.08226180558316
 20
-2777.1049619304949
 30
0.0
 41
1.0
 10
-200.08577068994879
 20
-2777.1105448585663
 30
0.0
 41
1.0
 10
-200.1748438080769
 20
-2777.2522676284743
 30
0.0
 41
0.9998272025610636
 10
-200.25858719896218
 20
-2777.397203505222
 30
0.0
 41
1.0
 10
-200.27380237098481
 20
-2777.4235366196763
 30
0.0
 41
1.0
 10
-200.28901754300745
 20
-2777.4498697341305
 30
0.0
 41
1.0
 10
-200.40319127793629
 20
-2777.647471839784
 30
0.0
 41
0.9995217214838926
 10
-200.50493096749258
 20
-2777.851754167647
 30
0.0
 41
1.0
 10
-200.51257453012795
 20
-2777.8671016173507
 30
0.0
 41
1.0
 10
-200.52021809276332
 20
-2777.8824490670545
 30
0.0
 41
1.0
 10
-200.60712338535319
 20
-2778.0569455251361
 30
0.0
 41
0.9998269762608627
 10
-200.68747785162509
 20
-2778.2345538118589
 30
0.0
 41
1.0
 10
-200.76783231789676
 20
-2778.4121620985811
 30
0.0
 41
0.9998944747387393
 10
-200.84299311246082
 20
-2778.5920298242095
 30
0.0
 41
1.0
 10
-200.84794678205006
 20
-2778.6038844791219
 30
0.0
 41
1.0
 10
-200.8529004516393
 20
-2778.6157391340348
 30
0.0
 41
1.0
 10
-200.93354751219357
 20
-2778.8087360740565
 30
0.0
 41
0.9999506734415293
 10
-201.01034504110089
 20
-2779.0032968789219
 30
0.0
 41
1.0
 10
-201.02494500637226
 20
-2779.0402848007288
 30
0.0
 41
1.0
 10
-201.03954497164364
 20
-2779.0772727225362
 30
0.0
 41
1.0
 10
-201.08714257000517
 20
-2779.1978576837796
 30
0.0
 41
0.9999912393958249
 10
-201.13372901402698
 20
-2779.3188368864739
 30
0.0
 41
1.0
 10
-201.18031545804871
 20
-2779.4398160891678
 30
0.0
 41
0.9999927113998763
 10
-201.22597675243313
 20
-2779.5611474966436
 30
0.0
 41
1.0
 10
-201.23994518383614
 20
-2779.5982644786563
 30
0.0
 41
1.0
 10
-201.25391361523913
 20
-2779.6353814606696
 30
0.0
 41
1.0
 10
-201.32751177243421
 20
-2779.8309468321831
 30
0.0
 41
0.9999487550952098
 10
-201.39713539740455
 20
-2780.0279621973636
 30
0.0
 41
1.0
 10
-201.42072900733922
 20
-2780.0947255076499
 30
0.0
 41
1.0
 10
-201.44432261727388
 20
-2780.1614888179365
 30
0.0
 41
1.0
 10
-201.53900825164374
 20
-2780.42942265276
 30
0.0
 41
0.9999808436942405
 10
-201.63036984028622
 20
-2780.6985080840268
 30
0.0
 41
1.0
 10
-201.72173142892547
 20
-2780.9675935152854
 30
0.0
 41
0.9999873932917226
 10
-201.81038613764704
 20
-2781.2375828703084
 30
0.0
 41
1.0
 10
-201.83047849451577
 20
-2781.2987722030593
 30
0.0
 41
1.0
 10
-201.85057085138448
 20
-2781.3599615358103
 30
0.0
 41
1.0
 10
-201.97941027384232
 20
-2781.7523295563319
 30
0.0
 41
0.9999794883034894
 10
-202.10321305879708
 20
-2782.1463157626004
 30
0.0
 41
1.0
 10
-202.11436531824103
 20
-2782.1818063728579
 30
0.0
 41
1.0
 10
-202.12551757768497
 20
-2782.2172969831154
 30
0.0
 41
1.0
 10
-202.26807574155839
 20
-2782.6709697351257
 30
0.0
 41
0.9999982761699361
 10
-202.40894818158699
 20
-2783.1251687572908
 30
0.0
 41
1.0
 10
-203.9970885141596
 20
-2788.173938488294
 30
0.0
 41
1.0
 10
-205.58522884673221
 20
-2793.2227082192976
 30
0.0
 41
1.0
 10
-206.53397945820859
 20
-2793.2227082192976
 30
0.0
 41
1.0
 10
-207.48273006968498
 20
-2793.2227082192976
 30
0.0
 41
1.0
 10
-204.24444558353179
 20
-2782.8953860193515
 30
0.0
 41
1.0
 10
-201.00616109737859
 20
-2772.5680638194053
 30
0.0
 41
1.0
  0
LWPOLYLINE
  5
65
100
AcDbEntity
  8
0
370
              15
390
0
  6
Continuous
 62
               7
100
AcDbPolyline
 90
      232
 70
             128
 10
-226.70970687120564
 20
-2773.6524066509201
 42
0.0004370800675607
 10
-226.7625840452358
 20
-2773.7210732901221
 10
-226.80186827640512
 20
-2773.7721804030734
 42
0.0030481992178198
 10
-226.93220699352565
 20
-2773.9439020954192
 10
-226.97071866527472
 20
-2773.9952888792054
 42
0.0042058245755173
 10
-227.17470371594388
 20
-2774.2722946242779
 10
-227.22710883844525
 20
-2774.3447274710597
 42
0.0120948898739186
 10
-227.52315275520644
 20
-2774.7754770756087
 10
-227.61934525433023
 20
-2774.9229578108366
 42
0.0141601263951039
 10
-227.9229893012506
 20
-2775.4186271475692
 10
-227.96252656867748
 20
-2775.4874711150023
 42
0.0071131081301876
 10
-228.16779889191497
 20
-2775.8569739138393
 42
0.0068458791001978
 10
-228.36267841875849
 20
-2776.2320654773157
 10
-228.3694902812158
 20
-2776.2456271910387
 42
0.0064120880287221
 10
-228.56763253125834
 20
-2776.6530516659541
 10
-228.57516721677712
 20
-2776.6690635226792
 42
0.0058857236448283
 10
-228.77792260864734
 20
-2777.1134396337106
 10
-228.78609753494277
 20
-2777.1319297873479
 42
0.0053189741892373
 10
-228.99480184760881
 20
-2777.617893261262
 10
-229.00354965329166
 20
-2777.6388751394616
 42
0.0047503650421166
 10
-229.21952337944813
 20
-2778.1710745726864
 10
-229.22879162779049
 20
-2778.1945509487796
 42
0.0042071762170235
 10
-229.45333901151514
 20
-2778.7776445428408
 10
-229.4630884138669
 20
-2778.8036107177186
 42
0.0036680086485337
 10
-229.69754305718362
 20
-2779.4422461022637
 10
-229.70775083702677
 20
-2779.470694636595
 42
0.0032573142630022
 10
-229.95338312299737
 20
-2780.1695472963593
 10
-230.02203364382882
 20
-2780.3690103803856
 42
0.0026133366647386
 10
-230.37047884259215
 20
-2781.3988736640731
 10
-230.4337356300978
 20
-2781.589104499481
 42
0.0020592950741384
 10
-230.64759869905993
 20
-2782.2412081520788
 10
-230.65065049022601
 20
-2782.2506446404977
 42
0.0025609928535255
 10
-230.85247099170886
 20
-2782.8857898628548
 10
-230.85506235883733
 20
-2782.8940922038009
 42
0.0031362356245075
 10
-231.04455314451246
 20
-2783.5148550599747
 10
-231.04668418743859
 20
-2783.5219963661816
 42
0.0037229918024102
 10
-231.22348457436624
 20
-2784.1309816681601
 10
-231.22516316357269
 20
-2784.1369285583346
 42
0.004307762370245
 10
-231.38890396563772
 20
-2784.7367472901033
 42
0.0047654161822583
 10
-231.54173268815276
 20
-2785.339433379002
 10
-231.5761972969928
 20
-2785.4809951561556
 42
0.011296936844487
 10
-231.77206165513661
 20
-2786.3726873167807
 10
-231.80006804423306
 20
-2786.5155153628775
 42
0.0130056762571681
 10
-232.00090528787968
 20
-2787.7024564345224
 10
-232.02144503802683
 20
-2787.8465345479995
 42
0.01387215321442
 10
-232.12514804256466
 20
-2788.7533640338252
 10
-232.14444353047264
 20
-2788.9768617557515
 42
0.0071254697008232
 10
-232.17779017639515
 20
-2789.4400487645976
 10
-232.18275115055857
 20
-2789.5260527591604
 42
0.0028881799210862
 10
-232.19788944384828
 20
-2789.8177944690001
 42
0.0060297297138139
 10
-232.20782164362382
 20
-2790.1097434051167
 10
-232.20888392529091
 20
-2790.1581357770469
 42
0.0229523164148084
 10
-232.20115289750515
 20
-2790.4808906233316
 10
-232.19692712398469
 20
-2790.5412941573486
 42
0.0123673300676331
 10
-232.17784847746645
 20
-2790.7424148825226
 42
0.0128577674477013
 10
-232.1486530870601
 20
-2790.9423127324494
 10
-232.14152721367316
 20
-2790.9836415470463
 42
0.0285717853759346
 10
-232.07703321197795
 20
-2791.2617576983575
 10
-232.06336468831094
 20
-2791.3084124678367
 42
0.0316283099154964
 10
-231.94755410839679
 20
-2791.6274269696628
 10
-231.94450541664085
 20
-2791.6344133419893
 42
0.0338984824243459
 10
-231.7950737056741
 20
-2791.9219793061775
 10
-231.79276497630457
 20
-2791.9257703354529
 42
0.0350228718356945
 10
-231.61040468563067
 20
-2792.1828223201301
 10
-231.60951943385501
 20
-2792.1839013978947
 42
0.0347476747535772
 10
-231.39509474661554
 20
-2792.4110864451145
 42
0.0331337701914066
 10
-231.15185142086654
 20
-2792.607215107194
 10
-231.15075132235302
 20
-2792.6079878103646
 42
0.0305233319074105
 10
-230.88220662677827
 20
-2792.7731159804566
 10
-230.87897658227843
 20
-2792.7748399923184
 42
0.0273744481142444
 10
-230.58642287070398
 20
-2792.910978136209
 10
-230.58131833556661
 20
-2792.9130217206784
 42
0.0240964406197878
 10
-230.26584125992503
 20
-2793.0220054469587
 10
-230.25925793071093
 20
-2793.023930186635
 42
0.0209636179813356
 10
-229.92185777805591
 20
-2793.1073983345673
 10
-229.91422531760963
 20
-2793.1089502475684
 42
0.0181388704692165
 10
-229.55590292560402
 20
-2793.1683663407835
 10
-229.54762207723303
 20
-2793.1694325245994
 42
0.0156086547586718
 10
-229.16943471304623
 20
-2793.2061687111759
 10
-229.12623946071352
 20
-2793.2090072136552
 42
0.0137148329029501
 10
-228.79856631541827
 20
-2793.2215274689061
 10
-228.75263012550218
 20
-2793.222021902021
 42
0.0051057823880549
 10
-228.51648453890004
 20
-2793.2221521564306
 42
0.0052256693314022
 10
-228.28038725509839
 20
-2793.2174033319661
 10
-228.21016047137198
 20
-2793.2152563659524
 42
0.0161507179045674
 10
-227.83442339327837
 20
-2793.1916059956266
 10
-227.81441043289766
 20
-2793.1896958003381
 42
0.0101216737833364
 10
-227.40038321140264
 20
-2793.1417028699725
 10
-227.3663299219802
 20
-2793.1370551731634
 42
0.0245291776394159
 10
-226.88954026643168
 20
-2793.0479800950875
 10
-226.8047169508946
 20
-2793.0277841747388
 42
0.0143509212563682
 10
-226.44808584696545
 20
-2792.9319795409624
 42
0.0156557857034106
 10
-226.0978697822448
 20
-2792.8149683251459
 10
-226.09036856774355
 20
-2792.8121981633894
 42
0.0170137333636536
 10
-225.73377257205212
 20
-2792.6665405485137
 10
-225.7266686496547
 20
-2792.6633527129547
 42
0.0183105364407567
 10
-225.36731898149924
 20
-2792.4860176711359
 10
-225.36037221684967
 20
-2792.4822672362579
 42
0.0194899958155387
 10
-225.00189147586377
 20
-2792.2702882543658
 10
-224.99487759652897
 20
-2792.2657629120722
 42
0.0204869852959154
 10
-224.64086329443649
 20
-2792.0162428969875
 10
-224.63359768584803
 20
-2792.010662831638
 42
0.0212516938559017
 10
-224.28760775474129
 20
-2791.7207588347446
 10
-224.24109106066103
 20
-2791.6782915246467
 42
0.0215248918252162
 10
-223.98106489177673
 20
-2791.4195272456554
 10
-223.93603515739704
 20
-2791.3706831243067
 42
0.0114578554953055
 10
-223.78124300371877
 20
-2791.1948601908471
 10
-223.77004846773033
 20
-2791.1815414272996
 42
0.0061531305125392
 10
-223.64357382173773
 20
-2791.0272518939964
 42
0.0006325587121945
 10
-223.51919533755944
 20
-2790.8712485182873
 10
-223.49615520253445
 20
-2790.8422749976612
 42
0.0041897761546405
 10
-223.32769979856161
 20
-2790.6267556215994
 10
-223.26923767866958
 20
-2790.5506542746143
 42
0.0092993880036633
 10
-222.99262575144945
 20
-2790.1763755107349
 10
-222.91023125824691
 20
-2790.0604385071615
 42
0.015932172708494
 10
-222.56362477560458
 20
-2789.5382642864051
 10
-222.51926864021794
 20
-2789.466584722159
 42
0.0085547317025529
 10
-222.28475687488975
 20
-2789.0727097729305
 42
0.0084601156888254
 10
-222.06378069744451
 20
-2788.6710829238928
 10
-222.05566522361732
 20
-2788.6557232416253
 42
0.0081429654281847
 10
-221.8324159531816
 20
-2788.2160017290885
 10
-221.8235557889958
 20
-2788.1978228870653
 42
0.0076574581327898
 10
-221.59714827842285
 20
-2787.7146400117981
 10
-221.58766863770541
 20
-2787.6935755335089
 42
0.0070682724201828
 10
-221.35722372989468
 20
-2787.1615382287191
 10
-221.34723344591691
 20
-2787.1375490397168
 42
0.006455951444721
 10
-221.1119002377381
 20
-2786.5512367732049
 10
-221.10149087957024
 20
-2786.5243018477554
 42
0.0058311413908326
 10
-220.86044414280659
 20
-2785.8782697533693
 10
-220.84968906541997
 20
-2785.848385412211
 42
0.0052312425818354
 10
-220.60210778738085
 20
-2785.1371829983818
 10
-220.59106395099928
 20
-2785.1043562863069
 42
0.0046680544796544
 10
-220.33613552326696
 20
-2784.3225299705582
 10
-220.29414337322086
 20
-2784.1895467332583
 42
0.0041666856444074
 10
-220.09085736082631
 20
-2783.5265779582542
 10
-220.05319492016875
 20
-2783.3999968506218
 42
0.001517097515174
 10
-219.93200834174945
 20
-2782.988128499107
 42
-0.0004887993118447
 10
-219.81166856863229
 20
-2782.5760100870857
 10
-219.73519131113125
 20
-2782.3150527011239
 42
0.0002583378926776
 10
-219.46197674106
 20
-2781.3809959979208
 10
-219.38020389148588
 20
-2781.1008967383464
 42
0.0006636169670479
 10
-219.18633613147904
 20
-2780.4335438147746
 10
-219.18123947712704
 20
-2780.4159122318774
 42
0.0010589131325425
 10
-218.99979077621538
 20
-2779.7831808888459
 10
-218.99480870573009
 20
-2779.7656679818092
 42
0.0015655524464985
 10
-218.82653849855211
 20
-2779.1670513026247
 10
-218.8217082981428
 20
-2779.1496591437094
 42
0.0021640440475779
 10
-218.66741832615111
 20
-2778.5846321256709
 10
-218.66278410671933
 20
-2778.5673673956699
 42
0.0028763871853787
 10
-218.52326838866821
 20
-2778.0353994448301
 10
-218.51888252449973
 20
-2778.0182754666707
 42
0.0037310511944822
 10
-218.39492583266411
 20
-2777.5188278726519
 10
-218.39085061237535
 20
-2777.5018676014074
 42
0.0047652197768595
 10
-218.28322671186663
 20
-2777.0343898331012
 10
-218.27953611254395
 20
-2777.0176302779541
 42
0.0060276699298074
 10
-218.18900601338959
 20
-2776.581554482807
 10
-218.1857873231009
 20
-2776.5650532684999
 42
0.0075824337750436
 10
-218.11309801368498
 20
-2776.1597861040718
 10
-218.11045263630413
 20
-2776.1436311566176
 42
0.0095130624610909
 10
-218.0563374006735
 20
-2775.7685418035489
 10
-218.04935117679096
 20
-2775.7126082454329
 42
0.0121054653222744
 10
-218.02275984621303
 20
-2775.4477124169589
 10
-218.02189335645352
 20
-2775.43630897403
 42
0.0069050827386761
 10
-218.00680453841579
 20
-2775.1933677471857
 10
-218.00566923874706
 20
-2775.1698414901366
 42
0.016906397669697
 10
-218.00284195976695
 20
-2774.9736487628402
 10
-218.00401261129821
 20
-2774.9133130014911
 42
0.0052007732875994
 10
-218.00626605989123
 20
-2774.8377196113388
 42
0.0054038123297161
 10
-218.02622957173151
 20
-2774.7177013153209
 10
-218.03131542760053
 20
-2774.6890428287479
 42
0.011205046045104
 10
-218.06669978965897
 20
-2774.512716390409
 10
-218.08452475169969
 20
-2774.433174803688
 42
0.0240764468003693
 10
-218.17542211784601
 20
-2774.1029377681866
 10
-218.19398088065989
 20
-2774.0463176031908
 42
0.0256812331834235
 10
-218.33734380084883
 20
-2773.6745933969355
 10
-218.34275322667028
 20
-2773.6624620619459
 42
0.0268360501215189
 10
-218.51218046752012
 20
-2773.331468927925
 10
-218.51771687515483
 20
-2773.3219492576131
 42
0.0274670231723382
 10
-218.70991785156849
 20
-2773.0296618826951
 10
-218.71529915153127
 20
-2773.0223827351533
 42
0.0275035967096632
 10
-218.92687203109296
 20
-2772.7668668448496
 10
-218.93194153205746
 20
-2772.7613877572212
 42
0.0269557673523151
 10
-219.15934507549906
 20
-2772.5407454712572
 10
-219.16408813328022
 20
-2772.5366155167976
 42
0.0259124802196532
 10
-219.40364296471245
 20
-2772.3489249896438
 10
-219.40817380989901
 20
-2772.3457394873103
 42
0.0245162153003638
 10
-219.65609016298913
 20
-2772.1890064782028
 10
-219.66061670931674
 20
-2772.1864462809999
 42
0.0229282588836376
 10
-219.91303626614069
 20
-2772.0585780885031
 10
-219.917816759972
 20
-2772.0564257887436
 42
0.0212984135681786
 10
-220.17085471243917
 20
-2771.9552268714988
 10
-220.17615899740784
 20
-2771.953363308739
 42
0.0197555462347731
 10
-220.42593733513166
 20
-2771.8765478907744
 42
0.0183511896789422
 10
-220.68086606058714
 20
-2771.8189649838105
 10
-220.76723125732093
 20
-2771.8027621934234
 42
0.0338057877154237
 10
-221.05273860657815
 20
-2771.7689537882834
 10
-221.14374401162934
 20
-2771.7643741330216
 42
0.009199052448336
 10
-221.24959112025408
 20
-2771.7609982771
 42
0.0028333980791221
 10
-221.35550503619655
 20
-2771.7601701695835
 10
-221.35642048929634
 20
-2771.7601681997594
 42
-0.0023619827770462
 10
-221.46416650448126
 20
-2771.7594273586801
 10
-221.50057167457811
 20
-2771.7590050522176
 42
0.0008824598477278
 10
-221.68112766446561
 20
-2771.7572292739796
 10
-221.72498909683395
 20
-2771.7568753124542
 42
0.0038132665768074
 10
-221.99327199269567
 20
-2771.7567563763869
 10
-222.00980564750625
 20
-2771.7568751425306
 42
0.0060665569332216
 10
-222.31108613906733
 20
-2771.7626954419511
 10
-222.32533647112291
 20
-2771.7631437499194
 42
0.0080356953335971
 10
-222.65479518744817
 20
-2771.7788114719851
 10
-222.66686520254939
 20
-2771.7795800549266
 42
0.0098996399105812
 10
-223.01962828719959
 20
-2771.8090652841247
 10
-223.02967399657496
 20
-2771.8101055803227
 42
0.0117740981362397
 10
-223.4008308549102
 20
-2771.8573978278509
 10
-223.40905355140626
 20
-2771.8586429444235
 42
0.013743521514318
 10
-223.79364237090019
 20
-2771.9277399179873
 10
-223.8002994100147
 20
-2771.9291258142189
 42
0.0158359869381839
 10
-224.1932965038099
 20
-2772.0240179026978
 10
-224.19870969068432
 20
-2772.0255078435703
 42
0.0180554124028077
 10
-224.59502473529886
 20
-2772.1501458598095
 10
-224.59958152338015
 20
-2772.1517618960752
 42
0.0203657431286511
 10
-224.99405904119604
 20
-2772.3100222375929
 10
-224.99820258019884
 20
-2772.3118838590326
 42
0.0226819684657518
 10
-225.38563863640115
 20
-2772.5075264377028
 10
-225.38983842742061
 20
-2772.5098920296232
 42
0.0248634984601689
 10
-225.76502036859949
 20
-2772.746518675569
 10
-225.81321529738932
 20
-2772.7803757173988
 42
0.0267044190880184
 10
-226.08750799430231
 20
-2772.9958160932647
 42
0.013930300219093
 10
-226.34367516024173
 20
-2773.2330549341768
 10
-226.34852854596204
 20
-2773.2378075970364
 42
0.0283460963434081
 10
-226.59260114018932
 20
-2773.5055382574815
 10
-226.63226964534579
 20
-2773.5543398349546
 42
0.0070695364826089
 10
-226.70970687120564
 20
-2773.6524066509201
 42
0.0070695364826089
  0
LWPOLYLINE
  5
66
100
AcDbEntity
  8
0
370
              15
390
0
  6
Continuous
 62
               7
100
AcDbPolyline
 90
      226
 70
             128
 10
-230.23852730845203
 20
-2789.3739954571042
 42
-0.0026277636602489
 10
-230.23860519225209
 20
-2789.3072235313548
 10
-230.23838783402005
 20
-2789.2540683139182
 42
-0.0088680296718592
 10
-230.23461121772698
 20
-2789.0810525315146
 10
-230.23226485861454
 20
-2789.0217725060616
 42
-0.0077381705621756
 10
-230.21621874785154
 20
-2788.7305120102651
 10
-230.21535083667834
 20
-2788.7182237765783
 42
-0.0068872530534736
 10
-230.18871875693009
 20
-2788.4030020245082
 10
-230.1875145327441
 20
-2788.3907610454903
 42
-0.0062130021494994
 10
-230.14992081591615
 20
-2788.0518913542505
 10
-230.14841691238115
 20
-2788.0397174823352
 42
-0.0056726929667907
 10
-230.09949505287929
 20
-2787.6775222602246
 10
-230.09772160723446
 20
-2787.6654284599763
 42
-0.0052341884492448
 10
-230.0371110209735
 20
-2787.2802352044528
 10
-230.03509303219784
 20
-2787.2682302744661
 42
-0.0049768450167615
 10
-229.96235435077185
 20
-2786.8603857070357
 10
-229.93810533604972
 20
-2786.7318377240276
 42
-0.0089029805622124
 10
-229.80102448425495
 20
-2786.0700622766053
 10
-229.76827910893644
 20
-2785.9250308460819
 42
-0.0080318257100672
 10
-229.53873049459597
 20
-2784.9793212142295
 10
-229.52674556814748
 20
-2784.9331905790382
 42
-0.0074265721320085
 10
-229.24273402929674
 20
-2783.903126000655
 10
-229.22285448618186
 20
-2783.8349919400716
 42
-0.0069711922702215
 10
-228.89554990767419
 20
-2782.7687241997401
 10
-228.83559796056969
 20
-2782.5827028413723
 42
-0.0052070422893824
 10
-228.60617273530937
 20
-2781.895430764338
 10
-228.58889154313928
 20
-2781.8454034837273
 42
-0.0009167004450588
 10
-228.38579965584773
 20
-2781.2609476355669
 42
-0.0025162726940567
 10
-228.17870202557461
 20
-2780.6779063713752
 10
-228.14147741378841
 20
-2780.5747568255233
 42
-0.0028212681457927
 10
-227.89330149481663
 20
-2779.8990261933282
 10
-227.88347073206171
 20
-2779.8727187486402
 42
-0.0031964916823607
 10
-227.64717847440363
 20
-2779.2525139865243
 10
-227.63754402040723
 20
-2779.2277039963878
 42
-0.0036281836455503
 10
-227.41243805930344
 20
-2778.660263315488
 10
-227.40299964914576
 20
-2778.6369658839844
 42
-0.0041269166833707
 10
-227.18838195248679
 20
-2778.119524988007
 10
-227.15574899606418
 20
-2778.0426465416417
 42
-0.0047472213055585
 10
-226.9987041905124
 20
-2777.6822250737623
 10
-226.9918101093032
 20
-2777.6668044764283
 42
-0.0025651660001563
 10
-226.84345207545402
 20
-2777.3394764206819
 42
-0.0057144634989255
 10
-226.68970238167989
 20
-2777.0146667473136
 10
-226.66167167628726
 20
-2776.9571583649372
 42
-0.0065388068370793
 10
-226.47820464854169
 20
-2776.59292586826
 10
-226.46974619276239
 20
-2776.5766662888891
 42
-0.0074510843023586
 10
-226.29356394688534
 20
-2776.2499780077678
 10
-226.2853842763493
 20
-2776.2353372304901
 42
-0.0084648979855009
 10
-226.11575042325427
 20
-2775.943428219538
 10
-226.10789429676603
 20
-2775.9304212278867
 42
-0.0095638542801363
 10
-225.94405884917194
 20
-2775.6705323559086
 10
-225.93658390550428
 20
-2775.6591629944592
 42
-0.0107191626798722
 10
-225.77778232511264
 20
-2775.4285517599092
 10
-225.77076559138047
 20
-2775.4188156675432
 42
-0.011845857389322
 10
-225.61621749286905
 20
-2775.2147434722337
 42
-0.0129184518191796
 10
-225.4517648692692
 20
-2775.0185829560651
 10
-225.42162009690219
 20
-2774.9844568771614
 42
-0.0217742579629509
 10
-225.24500777456905
 20
-2774.8012501069138
 10
-225.23426223011043
 20
-2774.7910332737124
 42
-0.0097266568649057
 10
-225.06820461125295
 20
-2774.6391856992736
 42
-0.0187720905727173
 10
-224.89385703536507
 20
-2774.497116845886
 10
-224.86315104468727
 20
-2774.4739577634869
 42
-0.0179428207520015
 10
-224.6307303246931
 20
-2774.3114055863766
 10
-224.62707799777402
 20
-2774.3090416514865
 42
-0.0170047877688725
 10
-224.39131436024695
 20
-2774.167581137337
 10
-224.38753137149922
 20
-2774.1654828323003
 42
-0.016019078836747
 10
-224.15062282386509
 20
-2774.0438315303127
 42
-0.0151102861481242
 10
-223.90659104141142
 20
-2773.9371487542553
 10
-223.85420453920665
 20
-2773.9161086213635
 42
-0.0271945441891571
 10
-223.49554198014647
 20
-2773.794243810657
 10
-223.42647717966312
 20
-2773.774894269392
 42
-0.0237596594019223
 10
-223.01068033263783
 20
-2773.6794435574097
 10
-222.9426174789092
 20
-2773.6671888692831
 42
-0.0213715440557884
 10
-222.6567425474621
 20
-2773.6282418377732
 10
-222.5965953812497
 20
-2773.6226521230728
 42
-0.0101465655833037
 10
-222.42910284924994
 20
-2773.6105085798081
 10
-222.41976246304353
 20
-2773.6100216648106
 42
-0.0100375910891639
 10
-222.27060836248916
 20
-2773.6052458468853
 10
-222.26034909280344
 20
-2773.6051234078709
 42
-0.0103625633380698
 10
-222.13164109815392
 20
-2773.6062548413975
 10
-222.10937544689773
 20
-2773.6069121998621
 42
-0.0115689250275701
 10
-222.0253247093591
 20
-2773.6113417061079
 42
-0.0072438037453422
 10
-221.94148642994307
 20
-2773.6189309058545
 10
-221.92468592044713
 20
-2773.6206974485813
 42
-0.02179173131344
 10
-221.80811615712972
 20
-2773.6381173413033
 10
-221.74251606656549
 20
-2773.6508639497174
 42
-0.0332943556752998
 10
-221.53812390153843
 20
-2773.704904241024
 10
-221.50795133298811
 20
-2773.7150723181426
 42
-0.0184824084802814
 10
-221.36944627652298
 20
-2773.767523333529
 42
-0.0198002050703719
 10
-221.23537193602925
 20
-2773.8304073937256
 10
-221.23348529864671
 20
-2773.8313851806083
 42
-0.021224234298144
 10
-221.10134635624556
 20
-2773.9071479194008
 10
-221.09953106070128
 20
-2773.9082937216099
 42
-0.0226090605798963
 10
-220.97102715947722
 20
-2773.9977733651758
 10
-220.96918271774217
 20
-2773.9991856181614
 42
-0.0238457052216024
 10
-220.84600063644834
 20
-2774.103181514025
 10
-220.84404790789017
 20
-2774.1049963917903
 42
-0.0248160564160549
 10
-220.72784640058964
 20
-2774.2242709929983
 10
-220.72574276718746
 20
-2774.2266563267031
 42
-0.0254109591447639
 10
-220.61813754932189
 20
-2774.3619447126671
 10
-220.61588952740743
 20
-2774.3650862610684
 42
-0.0255528488282614
 10
-220.51844284861045
 20
-2774.5171133153017
 10
-220.51611174869419
 20
-2774.5211949269096
 42
-0.0252146793229293
 10
-220.43033072268574
 20
-2774.6906971729054
 10
-220.42802848352744
 20
-2774.6958792548198
 42
-0.0244265635948296
 10
-220.35537378976557
 20
-2774.8836258268675
 10
-220.34612738829799
 20
-2774.9114912452028
 42
-0.0231319612896072
 10
-220.30020460930552
 20
-2775.0747922920059
 42
-0.0112130424361948
 10
-220.26556858676653
 20
-2775.240995892198
 10
-220.26436606165481
 20
-2775.2474924790818
 42
-0.0210527881223251
 10
-220.23867958628387
 20
-2775.4285481245233
 10
-220.2351689914621
 20
-2775.4639536730701
 42
-0.0190029892420816
 10
-220.21972751791756
 20
-2775.7174895193407
 10
-220.2189175414735
 20
-2775.7529651337118
 42
-0.0137974553664739
 10
-220.220466394309
 20
-2776.0779965404427
 10
-220.22131184926462
 20
-2776.104115285038
 42
-0.008133663421823
 10
-220.23617118448715
 20
-2776.409462752637
 42
-0.0073526923570374
 10
-220.26047971786136
 20
-2776.7142109969182
 10
-220.26174114164451
 20
-2776.7275476715881
 42
-0.0066886138688031
 10
-220.29747672769125
 20
-2777.0581337150875
 10
-220.29913381716091
 20
-2777.0717553340769
 42
-0.0061359187358932
 10
-220.34698441921142
 20
-2777.4285193141741
 10
-220.34902192028466
 20
-2777.4424141170061
 42
-0.0056698610056803
 10
-220.40967225105163
 20
-2777.8256926858439
 10
-220.41207768437476
 20
-2777.8398518050749
 42
-0.0052721077270837
 10
-220.48620988517368
 20
-2778.249979144749
 10
-220.48897303401611
 20
-2778.2643957801388
 42
-0.0049289272173025
 10
-220.5772671521155
 20
-2778.701704291258
 10
-220.58037964679869
 20
-2778.7163731440769
 42
-0.0047415956714279
 10
-220.68361763833161
 20
-2779.1811699014902
 10
-220.71838584869079
 20
-2779.330976996871
 42
-0.0084404470900049
 10
-220.90840229226274
 20
-2780.0912010214029
 10
-220.91452898024829
 20
-2780.1140651455557
 42
-0.0039635940259778
 10
-221.13598266453175
 20
-2780.9150540098012
 10
-221.14935945971183
 20
-2780.9619856263948
 42
-0.0072475040834781
 10
-221.41680634757489
 20
-2781.8512053427849
 10
-221.48701867439928
 20
-2782.0729456927475
 42
-0.0051345458828451
 10
-221.77377804646119
 20
-2782.9472708805679
 10
-221.795304313239
 20
-2783.010697147728
 42
-0.0019150016597757
 10
-222.05083772009539
 20
-2783.7542462679239
 10
-222.05730532448905
 20
-2783.7728337328376
 42
-0.002152436275301
 10
-222.30578337555545
 20
-2784.4771595545535
 10
-222.3149937962458
 20
-2784.5029131328379
 42
-0.0024331286819415
 10
-222.55124905528788
 20
-2785.1535124409734
 10
-222.56029700783478
 20
-2785.178055747318
 42
-0.0027449721787186
 10
-222.78491157867381
 20
-2785.777185626252
 10
-222.79380158606875
 20
-2785.8005082161112
 42
-0.0031083229767016
 10
-223.00734407267601
 20
-2786.3504322536837
 10
-223.01608020435003
 20
-2786.3725219695375
 42
-0.0035311343277157
 10
-223.21912138994338
 20
-2786.8755050952718
 10
-223.22770672908388
 20
-2786.8963478187648
 42
-0.0040245640955343
 10
-223.42081853288551
 20
-2787.3546571413744
 10
-223.42925464648783
 20
-2787.3742365094449
 42
-0.0046015135850889
 10
-223.61301093965233
 20
-2787.7901415390888
 10
-223.6212971174827
 20
-2787.8084386785458
 42
-0.005276863826804
 10
-223.79627463643618
 20
-2788.1842115628115
 10
-223.80440684706161
 20
-2788.2012049013515
 42
-0.0060672675640933
 10
-223.97118645982908
 20
-2788.5391205244687
 10
-223.97915594030621
 20
-2788.5547857834572
 42
-0.0069904648872537
 10
-224.13832433431213
 20
-2788.8571215901297
 10
-224.14611573392307
 20
-2788.8714321393572
 42
-0.008063702277139
 10
-224.29826759426879
 20
-2789.1404674425103
 10
-224.30585662689975
 20
-2789.1533953081107
 42
-0.0093006455665692
 10
-224.45159730343153
 20
-2789.391409706614
 10
-224.45894797017573
 20
-2789.4029276757879
 42
-0.0107060778057054
 10
-224.59889651361362
 20
-2789.6121979931659
 10
-224.60595828189042
 20
-2789.6222835357275
 42
-0.0122723111427221
 10
-224.74075200009139
 20
-2789.8050768652211
 10
-224.74107822364954
 20
-2789.8054972530358
 42
-0.0141836319629313
 10
-224.8846598266195
 20
-2789.9800670108598
 10
-224.89160758226748
 20
-2789.9880420111199
 42
-0.0175957477217972
 10
-225.03151375030615
 20
-2790.1376628995295
 42
-0.0080466359666338
 10
-225.1789775153382
 20
-2790.2799854276827
 10
-225.22501205985384
 20
-2790.3230058657718
 42
-0.026960026040212
 10
-225.47829230583469
 20
-2790.5353291242795
 10
-225.54485944213963
 20
-2790.5852805389095
 42
-0.0178362839741614
 10
-225.78480393178961
 20
-2790.7522984651578
 10
-225.79204890278842
 20
-2790.7569669773616
 42
-0.0174650732640093
 10
-226.02838510023133
 20
-2790.8978279423218
 42
-0.0169240130158665
 10
-226.27385134608562
 20
-2791.0221202020975
 10
-226.31983750164687
 20
-2791.0434821576664
 42
-0.0318883036834712
 10
-226.67018835726779
 20
-2791.1798204671768
 10
-226.73855389243286
 20
-2791.2015210876525
 42
-0.0284435909901279
 10
-227.11460401872262
 20
-2791.2977385231261
 10
-227.14976217921912
 20
-2791.304632118954
 42
-0.0243909341016045
 10
-227.46320564014013
 20
-2791.350353149985
 10
-227.51348636691657
 20
-2791.3551986968873
 42
-0.0196639292928276
 10
-227.72908194443852
 20
-2791.3674469824005
 10
-227.78090601558549
 20
-2791.3683502431368
 42
-0.0100501510714199
 10
-227.89332929726623
 20
-2791.3680498447839
 10
-227.92498915863453
 20
-2791.3673287728975
 42
-0.0019752031127236
 10
-227.97408149529167
 20
-2791.3660166126888
 10
-227.97684179852283
 20
-2791.3659319208623
 42
0.0065378752031168
 10
-228.02041837326857
 20
-2791.3651650296479
 42
-0.0167974694610547
 10
-228.06394919620465
 20
-2791.3635051311212
 10
-228.06802853546247
 20
-2791.3632121202263
 42
-0.0081283276306942
 10
-228.11958833319849
 20
-2791.3586651265887
 10
-228.13132790707954
 20
-2791.3574372090102
 42
-0.0126703440194646
 10
-228.20604620287145
 20
-2791.3477024179388
 10
-228.22883407054979
 20
-2791.3441441620234
 42
-0.0117852088436859
 10
-228.34837305637831
 20
-2791.3225811668672
 10
-228.4037535081452
 20
-2791.3112376266317
 42
-0.0251774592287829
 10
-228.63059754715283
 20
-2791.252739617199
 10
-228.6753167370083
 20
-2791.2387727978626
 42
-0.0146525199884088
 10
-228.86170972454261
 20
-2791.1745062706655
 42
-0.0166929435861992
 10
-229.04368738066495
 20
-2791.0986991376126
 10
-229.04834401194245
 20
-2791.0965742369967
 42
-0.0191684358427331
 10
-229.23352764319279
 20
-2791.0033381532066
 10
-229.23686022894861
 20
-2791.0014969056538
 42
-0.0221181781812582
 10
-229.42017053285528
 20
-2790.8893634072797
 10
-229.42252033685929
 20
-2790.8877791092918
 42
-0.0254984685394055
 10
-229.5988104872421
 20
-2790.7553679593243
 10
-229.62129263494592
 20
-2790.7366156503867
 42
-0.0292492648809897
 10
-229.74606157378958
 20
-2790.6195228507427
 42
-0.0159048957489048
 10
-229.85990157123945
 20
-2790.491502859144
 10
-229.86122036181899
 20
-2790.4899212461237
 42
-0.0343813379561767
 10
-229.96385762344471
 20
-2790.3480499203552
 10
-229.99534915480632
 20
-2790.2975465282598
 42
-0.0369117275696731
 10
-230.08124165670336
 20
-2790.1340692873118
 42
-0.01917513799143
 10
-230.14843504225939
 20
-2789.9616646813088
 10
-230.15019836601988
 20
-2789.956571336631
 42
-0.0378178042221469
 10
-230.19999308480419
 20
-2789.7676305605492
 10
-230.20598838053422
 20
-2789.7350699423532
 42
-0.0184846046488798
 10
-230.22670557982877
 20
-2789.593317121808
 42
-0.0179866351309952
 10
-230.23703858490248
 20
-2789.4504263087256
 10
-230.23709502734823
 20
-2789.4488686221139
 42
-0.0085497186139331
 10
-230.23852730845203
 20
-2789.3739954571042
 42
-0.0085497186139331
  0
ENDBLK
  5
67
100
AcDbEntity
  8
template
390
0
100
AcDbBlockEnd
  0
BLOCK
  5
68
100
AcDbEntity
  8
notes
390
0
100
AcDbBlockBegin
  2
*D3
 70
               1
 10
0.0
 20
0.0
 30
0.0
  3
*D3
  1

  0
LINE
  5
69
100
AcDbEntity
  8
0
370
              -2
390
0
  6
Continuous
 62
               0
100
AcDbLine
 10
-35.686646675588008
 20
852.5
 30
0.0
 11
-35.686646675588008
 21
977.5
 31
0.0
  0
LINE
  5
6A
100
AcDbEntity
  8
0
370
              -2
390
0
  6
Continuous
 62
               0
100
AcDbLine
 10
-785.68664667558596
 20
852.5
 30
0.0
 11
-785.68664667558596
 21
977.5
 31
0.0
  0
LINE
  5
6B
100
AcDbEntity
  8
0
370
              -2
390
0
  6
Continuous
 62
               0
100
AcDbLine
 10
-35.686646675588008
 20
977.5
 30
0.0
 11
-785.68664667558596
 21
977.5
 31
0.0
  0
CIRCLE
  5
6C
102
{ACAD_REACTORS
330
6D
102
}
100
AcDbEntity
  8
0
370
              -2
390
0
  6
Continuous
 62
               0
100
AcDbCircle
 10
-35.686646675588008
 20
977.5
 30
0.0
 40
4.99969482421875
  0
HATCH
  5
6D
100
AcDbEntity
  8
0
370
              -2
390
0
  6
Continuous
 62
               0
100
AcDbHatch
 10
0.0
 20
0.0
 30
0.0
210
0.0
220
0.0
230
1.0
  2
SOLID
 70
               1
 71
               1
 91
        1
 92
        1
 93
        1
 72
               2
 10
-35.686646675588008
 20
977.5
 40
4.99969482421875
 50
0.0
 51
360.0
 73
               0
 97
        1
330
6C
 75
               0
 76
               1
 98
        1
 10
0.0
 20
0.0
  0
CIRCLE
  5
6E
102
{ACAD_REACTORS
330
6F
102
}
100
AcDbEntity
  8
0
370
              -2
390
0
  6
Continuous
 62
               0
100
AcDbCircle
 10
-785.68664667558596
 20
977.5
 30
0.0
 40
4.99969482421875
  0
HATCH
  5
6F
100
AcDbEntity
  8
0
370
              -2
390
0
  6
Continuous
 62
               0
100
AcDbHatch
 10
0.0
 20
0.0
 30
0.0
210
0.0
220
0.0
230
1.0
  2
SOLID
 70
               1
 71
               1
 91
        1
 92
        1
 93
        1
 72
               2
 10
-785.68664667558596
 20
977.5
 40
4.99969482421875
 50
0.0
 51
360.0
 73
               0
 97
        1
330
6E
 75
               0
 76
               1
 98
        1
 10
0.0
 20
0.0
  0
MTEXT
  5
70
100
AcDbEntity
  8
0
390
0
 62
               0
100
AcDbMText
 10
-434.49914835776235
 20
1011.3776171874999
 30
0.0
 40
24.432617187500004
 41
0.0
 71
               1
 72
               1
  1
750
  7
ＭＳ ゴシック
 73
               1
 44
0.7828267384257843
  0
POINT
  5
71
100
AcDbEntity
  8
Defpoints
370
               0
390
0
 62
               0
100
AcDbPoint
 10
-785.68664667558596
 20
827.5
 30
0.0
  0
POINT
  5
72
100
AcDbEntity
  8
Defpoints
370
               0
390
0
 62
               0
100
AcDbPoint
 10
-35.686646675588008
 20
827.5
 30
0.0
  0
POINT
  5
73
100
AcDbEntity
  8
Defpoints
370
               0
390
0
 62
               0
100
AcDbPoint
 10
-35.686646675588008
 20
977.5
 30
0.0
  0
ENDBLK
  5
74
100
AcDbEntity
  8
notes
390
0
100
AcDbBlockEnd
  0
BLOCK
  5
75
100
AcDbEntity
  8
notes
390
0
100
AcDbBlockBegin
  2
*D4
 70
               1
 10
0.0
 20
0.0
 30
0.0
  3
*D4
  1

  0
LINE
  5
76
100
AcDbEntity
  8
0
370
              -2
390
0
  6
Continuous
 62
               0
100
AcDbLine
 10
-35.686646675588008
 20
852.5
 30
0.0
 11
-35.686646675588008
 21
927.5
 31
0.0
  0
LINE
  5
77
100
AcDbEntity
  8
0
370
              -2
390
0
  6
Continuous
 62
               0
100
AcDbLine
 10
-285.68664667558801
 20
800.0
 30
0.0
 11
-285.68664667558801
 21
927.5
 31
0.0
  0
LINE
  5
78
100
AcDbEntity
  8
0
370
              -2
390
0
  6
Continuous
 62
               0
100
AcDbLine
 10
-35.686646675588008
 20
927.5
 30
0.0
 11
-285.68664667558801
 21
927.5
 31
0.0
  0
CIRCLE
  5
79
102
{ACAD_REACTORS
330
7A
102
}
100
AcDbEntity
  8
0
370
              -2
390
0
  6
Continuous
 62
               0
100
AcDbCircle
 10
-35.686646675588008
 20
927.5
 30
0.0
 40
4.99969482421875
  0
HATCH
  5
7A
100
AcDbEntity
  8
0
370
              -2
390
0
  6
Continuous
 62
               0
100
AcDbHatch
 10
0.0
 20
0.0
 30
0.0
210
0.0
220
0.0
230
1.0
  2
SOLID
 70
               1
 71
               1
 91
        1
 92
        1
 93
        1
 72
               2
 10
-35.686646675588008
 20
927.5
 40
4.99969482421875
 50
0.0
 51
360.0
 73
               0
 97
        1
330
79
 75
               0
 76
               1
 98
        1
 10
0.0
 20
0.0
  0
CIRCLE
  5
7B
102
{ACAD_REACTORS
330
7C
102
}
100
AcDbEntity
  8
0
370
              -2
390
0
  6
Continuous
 62
               0
100
AcDbCircle
 10
-285.68664667558801
 20
927.5
 30
0.0
 40
4.99969482421875
  0
HATCH
  5
7C
100
AcDbEntity
  8
0
370
              -2
390
0
  6
Continuous
 62
               0
100
AcDbHatch
 10
0.0
 20
0.0
 30
0.0
210
0.0
220
0.0
230
1.0
  2
SOLID
 70
               1
 71
               1
 91
        1
 92
        1
 93
        1
 72
               2
 10
-285.68664667558801
 20
927.5
 40
4.99969482421875
 50
0.0
 51
360.0
 73
               0
 97
        1
330
7B
 75
               0
 76
               1
 98
        1
 10
0.0
 20
0.0
  0
MTEXT
  5
7D
100
AcDbEntity
  8
0
390
0
 62
               0
100
AcDbMText
 10
-184.49914835776349
 20
961.37761718749994
 30
0.0
 40
24.432617187500004
 41
0.0
 71
               1
 72
               1
  1
250
  7
ＭＳ ゴシック
 73
               1
 44
0.7828267384257843
  0
POINT
  5
7E
100
AcDbEntity
  8
Defpoints
370
               0
390
0
 62
               0
100
AcDbPoint
 10
-285.68664667558801
 20
775.0
 30
0.0
  0
POINT
  5
7F
100
AcDbEntity
  8
Defpoints
370
               0
390
0
 62
               0
100
AcDbPoint
 10
-35.686646675588008
 20
827.5
 30
0.0
  0
POINT
  5
80
100
AcDbEntity
  8
Defpoints
370
               0
390
0
 62
               0
100
AcDbPoint
 10
-35.686646675588008
 20
927.5
 30
0.0
  0
ENDBLK
  5
81
100
AcDbEntity
  8
notes
390
0
100
AcDbBlockEnd
  0
BLOCK
  5
82
100
AcDbEntity
  8
notes
390
0
100
AcDbBlockBegin
  2
*D5
 70
               1
 10
0.0
 20
0.0
 30
0.0
  3
*D5
  1

  0
LINE
  5
83
100
AcDbEntity
  8
0
370
              -2
390
0
  6
Continuous
 62
               0
100
AcDbLine
 10
-285.68664667558801
 20
800.0
 30
0.0
 11
-285.68664667558801
 21
927.5
 31
0.0
  0
LINE
  5
84
100
AcDbEntity
  8
0
370
              -2
390
0
  6
Continuous
 62
               0
100
AcDbLine
 10
-785.68664667558596
 20
852.5
 30
0.0
 11
-785.68664667558596
 21
927.5
 31
0.0
  0
LINE
  5
85
100
AcDbEntity
  8
0
370
              -2
390
0
  6
Continuous
 62
               0
100
AcDbLine
 10
-285.68664667558801
 20
927.5
 30
0.0
 11
-785.68664667558596
 21
927.5
 31
0.0
  0
CIRCLE
  5
86
102
{ACAD_REACTORS
330
87
102
}
100
AcDbEntity
  8
0
370
              -2
390
0
  6
Continuous
 62
               0
100
AcDbCircle
 10
-285.68664667558801
 20
927.5
 30
0.0
 40
4.99969482421875
  0
HATCH
  5
87
100
AcDbEntity
  8
0
370
              -2
390
0
  6
Continuous
 62
               0
100
AcDbHatch
 10
0.0
 20
0.0
 30
0.0
210
0.0
220
0.0
230
1.0
  2
SOLID
 70
               1
 71
               1
 91
        1
 92
        1
 93
        1
 72
               2
 10
-285.68664667558801
 20
927.5
 40
4.99969482421875
 50
0.0
 51
360.0
 73
               0
 97
        1
330
86
 75
               0
 76
               1
 98
        1
 10
0.0
 20
0.0
  0
CIRCLE
  5
88
102
{ACAD_REACTORS
330
89
102
}
100
AcDbEntity
  8
0
370
              -2
390
0
  6
Continuous
 62
               0
100
AcDbCircle
 10
-785.68664667558596
 20
927.5
 30
0.0
 40
4.99969482421875
  0
HATCH
  5
89
100
AcDbEntity
  8
0
370
              -2
390
0
  6
Continuous
 62
               0
100
AcDbHatch
 10
0.0
 20
0.0
 30
0.0
210
0.0
220
0.0
230
1.0
  2
SOLID
 70
               1
 71
               1
 91
        1
 92
        1
 93
        1
 72
               2
 10
-785.68664667558596
 20
927.5
 40
4.99969482421875
 50
0.0
 51
360.0
 73
               0
 97
        1
330
88
 75
               0
 76
               1
 98
        1
 10
0.0
 20
0.0
  0
MTEXT
  5
8A
100
AcDbEntity
  8
0
390
0
 62
               0
100
AcDbMText
 10
-559.49914835776258
 20
961.37761718749994
 30
0.0
 40
24.432617187500004
 41
0.0
 71
               1
 72
               1
  1
500
  7
ＭＳ ゴシック
 73
               1
 44
0.7828267384257843
  0
POINT
  5
8B
100
AcDbEntity
  8
Defpoints
370
               0
390
0
 62
               0
100
AcDbPoint
 10
-785.68664667558596
 20
827.5
 30
0.0
  0
POINT
  5
8C
100
AcDbEntity
  8
Defpoints
370
               0
390
0
 62
               0
100
AcDbPoint
 10
-285.68664667558801
 20
775.0
 30
0.0
  0
POINT
  5
8D
100
AcDbEntity
  8
Defpoints
370
               0
390
0
 62
               0
100
AcDbPoint
 10
-285.68664667558801
 20
927.5
 30
0.0
  0
ENDBLK
  5
8E
100
AcDbEntity
  8
notes
390
0
100
AcDbBlockEnd
  0
BLOCK
  5
8F
100
AcDbEntity
  8
notes
390
0
100
AcDbBlockBegin
  2
*D6
 70
               1
 10
0.0
 20
0.0
 30
0.0
  3
*D6
  1

  0
LINE
  5
90
100
AcDbEntity
  8
0
370
              -2
390
0
  6
Continuous
 62
               0
100
AcDbLine
 10
-385.68664667558801
 20
800.0
 30
0.0
 11
-385.68664667558801
 21
875.0
 31
0.0
  0
LINE
  5
91
100
AcDbEntity
  8
0
370
              -2
390
0
  6
Continuous
 62
               0
100
AcDbLine
 10
-285.68664667558801
 20
800.0
 30
0.0
 11
-285.68664667558801
 21
875.0
 31
0.0
  0
LINE
  5
92
100
AcDbEntity
  8
0
370
              -2
390
0
  6
Continuous
 62
               0
100
AcDbLine
 10
-385.68664667558801
 20
875.0
 30
0.0
 11
-285.68664667558801
 21
875.0
 31
0.0
  0
CIRCLE
  5
93
102
{ACAD_REACTORS
330
94
102
}
100
AcDbEntity
  8
0
370
              -2
390
0
  6
Continuous
 62
               0
100
AcDbCircle
 10
-385.68664667558801
 20
875.0
 30
0.0
 40
4.99969482421875
  0
HATCH
  5
94
100
AcDbEntity
  8
0
370
              -2
390
0
  6
Continuous
 62
               0
100
AcDbHatch
 10
0.0
 20
0.0
 30
0.0
210
0.0
220
0.0
230
1.0
  2
SOLID
 70
               1
 71
               1
 91
        1
 92
        1
 93
        1
 72
               2
 10
-385.68664667558801
 20
875.0
 40
4.99969482421875
 50
0.0
 51
360.0
 73
               0
 97
        1
330
93
 75
               0
 76
               1
 98
        1
 10
0.0
 20
0.0
  0
CIRCLE
  5
95
102
{ACAD_REACTORS
330
96
102
}
100
AcDbEntity
  8
0
370
              -2
390
0
  6
Continuous
 62
               0
100
AcDbCircle
 10
-285.68664667558801
 20
875.0
 30
0.0
 40
4.99969482421875
  0
HATCH
  5
96
100
AcDbEntity
  8
0
370
              -2
390
0
  6
Continuous
 62
               0
100
AcDbHatch
 10
0.0
 20
0.0
 30
0.0
210
0.0
220
0.0
230
1.0
  2
SOLID
 70
               1
 71
               1
 91
        1
 92
        1
 93
        1
 72
               2
 10
-285.68664667558801
 20
875.0
 40
4.99969482421875
 50
0.0
 51
360.0
 73
               0
 97
        1
330
95
 75
               0
 76
               1
 98
        1
 10
0.0
 20
0.0
  0
MTEXT
  5
97
100
AcDbEntity
  8
0
390
0
 62
               0
100
AcDbMText
 10
-359.49914835776349
 20
908.87761718750005
 30
0.0
 40
24.432617187500004
 41
0.0
 71
               1
 72
               1
  1
100
  7
ＭＳ ゴシック
 73
               1
 44
0.7828267384257843
  0
POINT
  5
98
100
AcDbEntity
  8
Defpoints
370
               0
390
0
 62
               0
100
AcDbPoint
 10
-285.68664667558801
 20
775.0
 30
0.0
  0
POINT
  5
99
100
AcDbEntity
  8
Defpoints
370
               0
390
0
 62
               0
100
AcDbPoint
 10
-385.68664667558801
 20
775.0
 30
0.0
  0
POINT
  5
9A
100
AcDbEntity
  8
Defpoints
370
               0
390
0
 62
               0
100
AcDbPoint
 10
-385.68664667558801
 20
875.0
 30
0.0
  0
ENDBLK
  5
9B
100
AcDbEntity
  8
notes
390
0
100
AcDbBlockEnd
  0
BLOCK
  5
9C
100
AcDbEntity
  8
notes
390
0
100
AcDbBlockBegin
  2
*D7
 70
               1
 10
0.0
 20
0.0
 30
0.0
  3
*D7
  1

  0
LINE
  5
9D
100
AcDbEntity
  8
0
370
              -2
390
0
  6
Continuous
 62
               0
100
AcDbLine
 10
-285.68664667558801
 20
800.0
 30
0.0
 11
-285.68664667558801
 21
875.0
 31
0.0
  0
LINE
  5
9E
100
AcDbEntity
  8
0
370
              -2
390
0
  6
Continuous
 62
               0
100
AcDbLine
 10
-185.68664667558801
 20
800.0
 30
0.0
 11
-185.68664667558801
 21
875.0
 31
0.0
  0
LINE
  5
9F
100
AcDbEntity
  8
0
370
              -2
390
0
  6
Continuous
 62
               0
100
AcDbLine
 10
-285.68664667558801
 20
875.0
 30
0.0
 11
-185.68664667558801
 21
875.0
 31
0.0
  0
CIRCLE
  5
A0
102
{ACAD_REACTORS
330
A1
102
}
100
AcDbEntity
  8
0
370
              -2
390
0
  6
Continuous
 62
               0
100
AcDbCircle
 10
-285.68664667558801
 20
875.0
 30
0.0
 40
4.99969482421875
  0
HATCH
  5
A1
100
AcDbEntity
  8
0
370
              -2
390
0
  6
Continuous
 62
               0
100
AcDbHatch
 10
0.0
 20
0.0
 30
0.0
210
0.0
220
0.0
230
1.0
  2
SOLID
 70
               1
 71
               1
 91
        1
 92
        1
 93
        1
 72
               2
 10
-285.68664667558801
 20
875.0
 40
4.99969482421875
 50
0.0
 51
360.0
 73
               0
 97
        1
330
A0
 75
               0
 76
               1
 98
        1
 10
0.0
 20
0.0
  0
CIRCLE
  5
A2
102
{ACAD_REACTORS
330
A3
102
}
100
AcDbEntity
  8
0
370
              -2
390
0
  6
Continuous
 62
               0
100
AcDbCircle
 10
-185.68664667558801
 20
875.0
 30
0.0
 40
4.99969482421875
  0
HATCH
  5
A3
100
AcDbEntity
  8
0
370
              -2
390
0
  6
Continuous
 62
               0
100
AcDbHatch
 10
0.0
 20
0.0
 30
0.0
210
0.0
220
0.0
230
1.0
  2
SOLID
 70
               1
 71
               1
 91
        1
 92
        1
 93
        1
 72
               2
 10
-185.68664667558801
 20
875.0
 40
4.99969482421875
 50
0.0
 51
360.0
 73
               0
 97
        1
330
A2
 75
               0
 76
               1
 98
        1
 10
0.0
 20
0.0
  0
MTEXT
  5
A4
100
AcDbEntity
  8
0
390
0
 62
               0
100
AcDbMText
 10
-259.49914835776349
 20
908.87761718750005
 30
0.0
 40
24.432617187500004
 41
0.0
 71
               1
 72
               1
  1
100
  7
ＭＳ ゴシック
 73
               1
 44
0.7828267384257843
  0
POINT
  5
A5
100
AcDbEntity
  8
Defpoints
370
               0
390
0
 62
               0
100
AcDbPoint
 10
-185.68664667558801
 20
775.0
 30
0.0
  0
POINT
  5
A6
100
AcDbEntity
  8
Defpoints
370
               0
390
0
 62
               0
100
AcDbPoint
 10
-285.68664667558801
 20
775.0
 30
0.0
  0
POINT
  5
A7
100
AcDbEntity
  8
Defpoints
370
               0
390
0
 62
               0
100
AcDbPoint
 10
-285.68664667558801
 20
875.0
 30
0.0
  0
ENDBLK
  5
A8
100
AcDbEntity
  8
notes
390
0
100
AcDbBlockEnd
  0
BLOCK
  5
A9
100
AcDbEntity
  8
notes
390
0
100
AcDbBlockBegin
  2
*D8
 70
               1
 10
0.0
 20
0.0
 30
0.0
  3
*D8
  1

  0
LINE
  5
AA
100
AcDbEntity
  8
0
370
              -2
390
0
  6
Continuous
 62
               0
100
AcDbLine
 10
-15.686646675588008
 20
327.5
 30
0.0
 11
64.313353324411992
 21
327.5
 31
0.0
  0
LINE
  5
AB
100
AcDbEntity
  8
0
370
              -2
390
0
  6
Continuous
 62
               0
100
AcDbLine
 10
-15.686646675588008
 20
827.5
 30
0.0
 11
64.313353324411992
 21
827.5
 31
0.0
  0
LINE
  5
AC
100
AcDbEntity
  8
0
370
              -2
390
0
  6
Continuous
 62
               0
100
AcDbLine
 10
64.313353324411992
 20
327.5
 30
0.0
 11
64.313353324411992
 21
827.5
 31
0.0
  0
CIRCLE
  5
AD
102
{ACAD_REACTORS
330
AE
102
}
100
AcDbEntity
  8
0
370
              -2
390
0
  6
Continuous
 62
               0
100
AcDbCircle
 10
64.313353324411992
 20
327.5
 30
0.0
 40
4.99969482421875
  0
HATCH
  5
AE
100
AcDbEntity
  8
0
370
              -2
390
0
  6
Continuous
 62
               0
100
AcDbHatch
 10
0.0
 20
0.0
 30
0.0
210
0.0
220
0.0
230
1.0
  2
SOLID
 70
               1
 71
               1
 91
        1
 92
        1
 93
        1
 72
               2
 10
64.313353324411992
 20
327.5
 40
4.99969482421875
 50
0.0
 51
360.0
 73
               0
 97
        1
330
AD
 75
               0
 76
               1
 98
        1
 10
0.0
 20
0.0
  0
CIRCLE
  5
AF
102
{ACAD_REACTORS
330
B0
102
}
100
AcDbEntity
  8
0
370
              -2
390
0
  6
Continuous
 62
               0
100
AcDbCircle
 10
64.313353324411992
 20
827.5
 30
0.0
 40
4.99969482421875
  0
HATCH
  5
B0
100
AcDbEntity
  8
0
370
              -2
390
0
  6
Continuous
 62
               0
100
AcDbHatch
 10
0.0
 20
0.0
 30
0.0
210
0.0
220
0.0
230
1.0
  2
SOLID
 70
               1
 71
               1
 91
        1
 92
        1
 93
        1
 72
               2
 10
64.313353324411992
 20
827.5
 40
4.99969482421875
 50
0.0
 51
360.0
 73
               0
 97
        1
330
AF
 75
               0
 76
               1
 98
        1
 10
0.0
 20
0.0
  0
MTEXT
  5
B1
100
AcDbEntity
  8
0
390
0
 62
               0
100
AcDbMText
 10
30.435736136912055
 20
553.68749831782452
 30
0.0
 40
24.432617187500004
 41
0.0
 71
               1
 72
               1
  1
500
  7
ＭＳ ゴシック
 11
0.0
 21
1.0
 31
0.0
 73
               1
 44
0.7828267384257843
  0
POINT
  5
B2
100
AcDbEntity
  8
Defpoints
370
               0
390
0
 62
               0
100
AcDbPoint
 10
-40.686646675588008
 20
827.5
 30
0.0
  0
POINT
  5
B3
100
AcDbEntity
  8
Defpoints
370
               0
390
0
 62
               0
100
AcDbPoint
 10
-40.686646675588008
 20
327.5
 30
0.0
  0
POINT
  5
B4
100
AcDbEntity
  8
Defpoints
370
               0
390
0
 62
               0
100
AcDbPoint
 10
64.313353324411992
 20
327.5
 30
0.0
  0
ENDBLK
  5
B5
100
AcDbEntity
  8
notes
390
0
100
AcDbBlockEnd
  0
BLOCK
  5
B6
100
AcDbEntity
  8
notes
390
0
100
AcDbBlockBegin
  2
*D9
 70
               1
 10
0.0
 20
0.0
 30
0.0
  3
*D9
  1

  0
LINE
  5
B7
100
AcDbEntity
  8
0
370
              -2
390
0
  6
Continuous
 62
               0
100
AcDbLine
 10
-510.68664667558801
 20
302.5
 30
0.0
 11
-510.68664667558801
 21
252.5
 31
0.0
  0
LINE
  5
B8
100
AcDbEntity
  8
0
370
              -2
390
0
  6
Continuous
 62
               0
100
AcDbLine
 10
-60.686646675588008
 20
302.5
 30
0.0
 11
-60.686646675588008
 21
252.5
 31
0.0
  0
LINE
  5
B9
100
AcDbEntity
  8
0
370
              -2
390
0
  6
Continuous
 62
               0
100
AcDbLine
 10
-510.68664667558801
 20
252.5
 30
0.0
 11
-60.686646675588008
 21
252.5
 31
0.0
  0
CIRCLE
  5
BA
102
{ACAD_REACTORS
330
BB
102
}
100
AcDbEntity
  8
0
370
              -2
390
0
  6
Continuous
 62
               0
100
AcDbCircle
 10
-510.68664667558801
 20
252.5
 30
0.0
 40
4.99969482421875
  0
HATCH
  5
BB
100
AcDbEntity
  8
0
370
              -2
390
0
  6
Continuous
 62
               0
100
AcDbHatch
 10
0.0
 20
0.0
 30
0.0
210
0.0
220
0.0
230
1.0
  2
SOLID
 70
               1
 71
               1
 91
        1
 92
        1
 93
        1
 72
               2
 10
-510.68664667558801
 20
252.5
 40
4.99969482421875
 50
0.0
 51
360.0
 73
               0
 97
        1
330
BA
 75
               0
 76
               1
 98
        1
 10
0.0
 20
0.0
  0
CIRCLE
  5
BC
102
{ACAD_REACTORS
330
BD
102
}
100
AcDbEntity
  8
0
370
              -2
390
0
  6
Continuous
 62
               0
100
AcDbCircle
 10
-60.686646675588008
 20
252.5
 30
0.0
 40
4.99969482421875
  0
HATCH
  5
BD
100
AcDbEntity
  8
0
370
              -2
390
0
  6
Continuous
 62
               0
100
AcDbHatch
 10
0.0
 20
0.0
 30
0.0
210
0.0
220
0.0
230
1.0
  2
SOLID
 70
               1
 71
               1
 91
        1
 92
        1
 93
        1
 72
               2
 10
-60.686646675588008
 20
252.5
 40
4.99969482421875
 50
0.0
 51
360.0
 73
               0
 97
        1
330
BC
 75
               0
 76
               1
 98
        1
 10
0.0
 20
0.0
  0
MTEXT
  5
BE
100
AcDbEntity
  8
0
390
0
 62
               0
100
AcDbMText
 10
-309.49914835776349
 20
286.37761718749994
 30
0.0
 40
24.432617187500004
 41
0.0
 71
               1
 72
               1
  1
450
  7
ＭＳ ゴシック
 73
               1
 44
0.7828267384257843
  0
POINT
  5
BF
100
AcDbEntity
  8
Defpoints
370
               0
390
0
 62
               0
100
AcDbPoint
 10
-60.686646675588008
 20
327.5
 30
0.0
  0
POINT
  5
C0
100
AcDbEntity
  8
Defpoints
370
               0
390
0
 62
               0
100
AcDbPoint
 10
-510.68664667558801
 20
327.5
 30
0.0
  0
POINT
  5
C1
100
AcDbEntity
  8
Defpoints
370
               0
390
0
 62
               0
100
AcDbPoint
 10
-510.68664667558801
 20
252.5
 30
0.0
  0
ENDBLK
  5
C2
100
AcDbEntity
  8
notes
390
0
100
AcDbBlockEnd
  0
BLOCK
  5
C3
100
AcDbEntity
  8
notes
390
0
100
AcDbBlockBegin
  2
*D10
 70
               1
 10
0.0
 20
0.0
 30
0.0
  3
*D10
  1

  0
LINE
  5
C4
100
AcDbEntity
  8
0
370
              -2
390
0
  6
Continuous
 62
               0
100
AcDbLine
 10
-810.68664667558596
 20
827.5
 30
0.0
 11
-865.68664667558596
 21
827.5
 31
0.0
  0
LINE
  5
C5
100
AcDbEntity
  8
0
370
              -2
390
0
  6
Continuous
 62
               0
100
AcDbLine
 10
-530.68664667558801
 20
697.5
 30
0.0
 11
-865.68664667558596
 21
697.5
 31
0.0
  0
LINE
  5
C6
100
AcDbEntity
  8
0
370
              -2
390
0
  6
Continuous
 62
               0
100
AcDbLine
 10
-865.68664667558596
 20
827.5
 30
0.0
 11
-865.68664667558596
 21
697.5
 31
0.0
  0
CIRCLE
  5
C7
102
{ACAD_REACTORS
330
C8
102
}
100
AcDbEntity
  8
0
370
              -2
390
0
  6
Continuous
 62
               0
100
AcDbCircle
 10
-865.68664667558596
 20
827.5
 30
0.0
 40
4.99969482421875
  0
HATCH
  5
C8
100
AcDbEntity
  8
0
370
              -2
390
0
  6
Continuous
 62
               0
100
AcDbHatch
 10
0.0
 20
0.0
 30
0.0
210
0.0
220
0.0
230
1.0
  2
SOLID
 70
               1
 71
               1
 91
        1
 92
        1
 93
        1
 72
               2
 10
-865.68664667558596
 20
827.5
 40
4.99969482421875
 50
0.0
 51
360.0
 73
               0
 97
        1
330
C7
 75
               0
 76
               1
 98
        1
 10
0.0
 20
0.0
  0
CIRCLE
  5
C9
102
{ACAD_REACTORS
330
CA
102
}
100
AcDbEntity
  8
0
370
              -2
390
0
  6
Continuous
 62
               0
100
AcDbCircle
 10
-865.68664667558596
 20
697.5
 30
0.0
 40
4.99969482421875
  0
HATCH
  5
CA
100
AcDbEntity
  8
0
370
              -2
390
0
  6
Continuous
 62
               0
100
AcDbHatch
 10
0.0
 20
0.0
 30
0.0
210
0.0
220
0.0
230
1.0
  2
SOLID
 70
               1
 71
               1
 91
        1
 92
        1
 93
        1
 72
               2
 10
-865.68664667558596
 20
697.5
 40
4.99969482421875
 50
0.0
 51
360.0
 73
               0
 97
        1
330
C9
 75
               0
 76
               1
 98
        1
 10
0.0
 20
0.0
  0
MTEXT
  5
CB
100
AcDbEntity
  8
0
390
0
 62
               0
100
AcDbMText
 10
-899.5642638630859
 20
738.68749831782452
 30
0.0
 40
24.432617187500004
 41
0.0
 71
               1
 72
               1
  1
130
  7
ＭＳ ゴシック
 11
0.0
 21
1.0
 31
0.0
 73
               1
 44
0.7828267384257843
  0
POINT
  5
CC
100
AcDbEntity
  8
Defpoints
370
               0
390
0
 62
               0
100
AcDbPoint
 10
-505.68664667558801
 20
697.5
 30
0.0
  0
POINT
  5
CD
100
AcDbEntity
  8
Defpoints
370
               0
390
0
 62
               0
100
AcDbPoint
 10
-785.68664667558596
 20
827.5
 30
0.0
  0
POINT
  5
CE
100
AcDbEntity
  8
Defpoints
370
               0
390
0
 62
               0
100
AcDbPoint
 10
-865.68664667558596
 20
827.5
 30
0.0
  0
ENDBLK
  5
CF
100
AcDbEntity
  8
notes
390
0
100
AcDbBlockEnd
  0
BLOCK
  5
D0
100
AcDbEntity
  8
notes
390
0
100
AcDbBlockBegin
  2
*D11
 70
               1
 10
0.0
 20
0.0
 30
0.0
  3
*D11
  1

  0
LINE
  5
D1
100
AcDbEntity
  8
0
370
              -2
390
0
  6
Continuous
 62
               0
100
AcDbLine
 10
-530.68664667558801
 20
697.5
 30
0.0
 11
-865.68664667558596
 21
697.5
 31
0.0
  0
LINE
  5
D2
100
AcDbEntity
  8
0
370
              -2
390
0
  6
Continuous
 62
               0
100
AcDbLine
 10
-530.68664667558801
 20
352.5
 30
0.0
 11
-865.68664667558596
 21
352.5
 31
0.0
  0
LINE
  5
D3
100
AcDbEntity
  8
0
370
              -2
390
0
  6
Continuous
 62
               0
100
AcDbLine
 10
-865.68664667558596
 20
697.5
 30
0.0
 11
-865.68664667558596
 21
352.5
 31
0.0
  0
CIRCLE
  5
D4
102
{ACAD_REACTORS
330
D5
102
}
100
AcDbEntity
  8
0
370
              -2
390
0
  6
Continuous
 62
               0
100
AcDbCircle
 10
-865.68664667558596
 20
697.5
 30
0.0
 40
4.99969482421875
  0
HATCH
  5
D5
100
AcDbEntity
  8
0
370
              -2
390
0
  6
Continuous
 62
               0
100
AcDbHatch
 10
0.0
 20
0.0
 30
0.0
210
0.0
220
0.0
230
1.0
  2
SOLID
 70
               1
 71
               1
 91
        1
 92
        1
 93
        1
 72
               2
 10
-865.68664667558596
 20
697.5
 40
4.99969482421875
 50
0.0
 51
360.0
 73
               0
 97
        1
330
D4
 75
               0
 76
               1
 98
        1
 10
0.0
 20
0.0
  0
CIRCLE
  5
D6
102
{ACAD_REACTORS
330
D7
102
}
100
AcDbEntity
  8
0
370
              -2
390
0
  6
Continuous
 62
               0
100
AcDbCircle
 10
-865.68664667558596
 20
352.5
 30
0.0
 40
4.99969482421875
  0
HATCH
  5
D7
100
AcDbEntity
  8
0
370
              -2
390
0
  6
Continuous
 62
               0
100
AcDbHatch
 10
0.0
 20
0.0
 30
0.0
210
0.0
220
0.0
230
1.0
  2
SOLID
 70
               1
 71
               1
 91
        1
 92
        1
 93
        1
 72
               2
 10
-865.68664667558596
 20
352.5
 40
4.99969482421875
 50
0.0
 51
360.0
 73
               0
 97
        1
330
D6
 75
               0
 76
               1
 98
        1
 10
0.0
 20
0.0
  0
MTEXT
  5
D8
100
AcDbEntity
  8
0
390
0
 62
               0
100
AcDbMText
 10
-899.5642638630859
 20
501.18749831782452
 30
0.0
 40
24.432617187500004
 41
0.0
 71
               1
 72
               1
  1
345
  7
ＭＳ ゴシック
 11
0.0
 21
1.0
 31
0.0
 73
               1
 44
0.7828267384257843
  0
POINT
  5
D9
100
AcDbEntity
  8
Defpoints
370
               0
390
0
 62
               0
100
AcDbPoint
 10
-505.68664667558801
 20
352.5
 30
0.0
  0
POINT
  5
DA
100
AcDbEntity
  8
Defpoints
370
               0
390
0
 62
               0
100
AcDbPoint
 10
-505.68664667558801
 20
697.5
 30
0.0
  0
POINT
  5
DB
100
AcDbEntity
  8
Defpoints
370
               0
390
0
 62
               0
100
AcDbPoint
 10
-865.68664667558596
 20
697.5
 30
0.0
  0
ENDBLK
  5
DC
100
AcDbEntity
  8
notes
390
0
100
AcDbBlockEnd
  0
BLOCK
  5
DD
100
AcDbEntity
  8
notes
390
0
100
AcDbBlockBegin
  2
*D12
 70
               1
 10
0.0
 20
0.0
 30
0.0
  3
*D12
  1

  0
LINE
  5
DE
100
AcDbEntity
  8
0
370
              -2
390
0
  6
Continuous
 62
               0
100
AcDbLine
 10
-510.68664667558801
 20
302.5
 30
0.0
 11
-510.68664667558801
 21
252.5
 31
0.0
  0
LINE
  5
DF
100
AcDbEntity
  8
0
370
              -2
390
0
  6
Continuous
 62
               0
100
AcDbLine
 10
-785.68664667558596
 20
315.57068533131815
 30
0.0
 11
-785.68664667558596
 21
252.5
 31
0.0
  0
LINE
  5
E0
100
AcDbEntity
  8
0
370
              -2
390
0
  6
Continuous
 62
               0
100
AcDbLine
 10
-510.68664667558801
 20
252.5
 30
0.0
 11
-785.68664667558596
 21
252.5
 31
0.0
  0
CIRCLE
  5
E1
102
{ACAD_REACTORS
330
E2
102
}
100
AcDbEntity
  8
0
370
              -2
390
0
  6
Continuous
 62
               0
100
AcDbCircle
 10
-510.68664667558801
 20
252.5
 30
0.0
 40
4.99969482421875
  0
HATCH
  5
E2
100
AcDbEntity
  8
0
370
              -2
390
0
  6
Continuous
 62
               0
100
AcDbHatch
 10
0.0
 20
0.0
 30
0.0
210
0.0
220
0.0
230
1.0
  2
SOLID
 70
               1
 71
               1
 91
        1
 92
        1
 93
        1
 72
               2
 10
-510.68664667558801
 20
252.5
 40
4.99969482421875
 50
0.0
 51
360.0
 73
               0
 97
        1
330
E1
 75
               0
 76
               1
 98
        1
 10
0.0
 20
0.0
  0
CIRCLE
  5
E3
102
{ACAD_REACTORS
330
E4
102
}
100
AcDbEntity
  8
0
370
              -2
390
0
  6
Continuous
 62
               0
100
AcDbCircle
 10
-785.68664667558596
 20
252.5
 30
0.0
 40
4.99969482421875
  0
HATCH
  5
E4
100
AcDbEntity
  8
0
370
              -2
390
0
  6
Continuous
 62
               0
100
AcDbHatch
 10
0.0
 20
0.0
 30
0.0
210
0.0
220
0.0
230
1.0
  2
SOLID
 70
               1
 71
               1
 91
        1
 92
        1
 93
        1
 72
               2
 10
-785.68664667558596
 20
252.5
 40
4.99969482421875
 50
0.0
 51
360.0
 73
               0
 97
        1
330
E3
 75
               0
 76
               1
 98
        1
 10
0.0
 20
0.0
  0
MTEXT
  5
E5
100
AcDbEntity
  8
0
390
0
 62
               0
100
AcDbMText
 10
-671.99914835776235
 20
286.37761718749994
 30
0.0
 40
24.432617187500004
 41
0.0
 71
               1
 72
               1
  1
275
  7
ＭＳ ゴシック
 73
               1
 44
0.7828267384257843
  0
POINT
  5
E6
100
AcDbEntity
  8
Defpoints
370
               0
390
0
 62
               0
100
AcDbPoint
 10
-785.68664667558596
 20
340.57068533131815
 30
0.0
  0
POINT
  5
E7
100
AcDbEntity
  8
Defpoints
370
               0
390
0
 62
               0
100
AcDbPoint
 10
-510.68664667558801
 20
327.5
 30
0.0
  0
POINT
  5
E8
100
AcDbEntity
  8
Defpoints
370
               0
390
0
 62
               0
100
AcDbPoint
 10
-510.68664667558801
 20
252.5
 30
0.0
  0
ENDBLK
  5
E9
100
AcDbEntity
  8
notes
390
0
100
AcDbBlockEnd
  0
BLOCK
  5
EA
100
AcDbEntity
  8
notes
390
0
100
AcDbBlockBegin
  2
*D13
 70
               1
 10
0.0
 20
0.0
 30
0.0
  3
*D13
  1

  0
LINE
  5
EB
100
AcDbEntity
  8
0
370
              -2
390
0
  6
Continuous
 62
               0
100
AcDbLine
 10
818.75501999107632
 20
352.5
 30
0.0
 11
818.75501999107632
 21
252.5
 31
0.0
  0
LINE
  5
EC
100
AcDbEntity
  8
0
370
              -2
390
0
  6
Continuous
 62
               0
100
AcDbLine
 10
438.75501999107644
 20
352.5
 30
0.0
 11
438.75501999107644
 21
252.5
 31
0.0
  0
LINE
  5
ED
100
AcDbEntity
  8
0
370
              -2
390
0
  6
Continuous
 62
               0
100
AcDbLine
 10
818.75501999107632
 20
252.5
 30
0.0
 11
438.75501999107644
 21
252.5
 31
0.0
  0
CIRCLE
  5
EE
102
{ACAD_REACTORS
330
EF
102
}
100
AcDbEntity
  8
0
370
              -2
390
0
  6
Continuous
 62
               0
100
AcDbCircle
 10
818.75501999107632
 20
252.5
 30
0.0
 40
4.99969482421875
  0
HATCH
  5
EF
100
AcDbEntity
  8
0
370
              -2
390
0
  6
Continuous
 62
               0
100
AcDbHatch
 10
0.0
 20
0.0
 30
0.0
210
0.0
220
0.0
230
1.0
  2
SOLID
 70
               1
 71
               1
 91
        1
 92
        1
 93
        1
 72
               2
 10
818.75501999107632
 20
252.5
 40
4.99969482421875
 50
0.0
 51
360.0
 73
               0
 97
        1
330
EE
 75
               0
 76
               1
 98
        1
 10
0.0
 20
0.0
  0
CIRCLE
  5
F0
102
{ACAD_REACTORS
330
F1
102
}
100
AcDbEntity
  8
0
370
              -2
390
0
  6
Continuous
 62
               0
100
AcDbCircle
 10
438.75501999107644
 20
252.5
 30
0.0
 40
4.99969482421875
  0
HATCH
  5
F1
100
AcDbEntity
  8
0
370
              -2
390
0
  6
Continuous
 62
               0
100
AcDbHatch
 10
0.0
 20
0.0
 30
0.0
210
0.0
220
0.0
230
1.0
  2
SOLID
 70
               1
 71
               1
 91
        1
 92
        1
 93
        1
 72
               2
 10
438.75501999107644
 20
252.5
 40
4.99969482421875
 50
0.0
 51
360.0
 73
               0
 97
        1
330
F0
 75
               0
 76
               1
 98
        1
 10
0.0
 20
0.0
  0
MTEXT
  5
F2
100
AcDbEntity
  8
0
390
0
 62
               0
100
AcDbMText
 10
604.94251830890084
 20
286.37761718749994
 30
0.0
 40
24.432617187500004
 41
0.0
 71
               1
 72
               1
  1
380
  7
ＭＳ ゴシック
 73
               1
 44
0.7828267384257843
  0
POINT
  5
F3
100
AcDbEntity
  8
Defpoints
370
               0
390
0
 62
               0
100
AcDbPoint
 10
438.75501999107644
 20
377.5
 30
0.0
  0
POINT
  5
F4
100
AcDbEntity
  8
Defpoints
370
               0
390
0
 62
               0
100
AcDbPoint
 10
818.75501999107632
 20
377.5
 30
0.0
  0
POINT
  5
F5
100
AcDbEntity
  8
Defpoints
370
               0
390
0
 62
               0
100
AcDbPoint
 10
818.75501999107632
 20
252.5
 30
0.0
  0
ENDBLK
  5
F6
100
AcDbEntity
  8
notes
390
0
100
AcDbBlockEnd
  0
BLOCK
  5
F7
100
AcDbEntity
  8
notes
390
0
100
AcDbBlockBegin
  2
*D14
 70
               1
 10
0.0
 20
0.0
 30
0.0
  3
*D14
  1

  0
LINE
  5
F8
100
AcDbEntity
  8
0
370
              -2
390
0
  6
Continuous
 62
               0
100
AcDbLine
 10
413.75501999107644
 20
377.5
 30
0.0
 11
338.75501999107644
 21
377.5
 31
0.0
  0
LINE
  5
F9
100
AcDbEntity
  8
0
370
              -2
390
0
  6
Continuous
 62
               0
100
AcDbLine
 10
413.78512396679719
 20
827.5
 30
0.0
 11
338.75501999107644
 21
827.5
 31
0.0
  0
LINE
  5
FA
100
AcDbEntity
  8
0
370
              -2
390
0
  6
Continuous
 62
               0
100
AcDbLine
 10
338.75501999107644
 20
377.5
 30
0.0
 11
338.75501999107644
 21
827.5
 31
0.0
  0
CIRCLE
  5
FB
102
{ACAD_REACTORS
330
FC
102
}
100
AcDbEntity
  8
0
370
              -2
390
0
  6
Continuous
 62
               0
100
AcDbCircle
 10
338.75501999107644
 20
377.5
 30
0.0
 40
4.99969482421875
  0
HATCH
  5
FC
100
AcDbEntity
  8
0
370
              -2
390
0
  6
Continuous
 62
               0
100
AcDbHatch
 10
0.0
 20
0.0
 30
0.0
210
0.0
220
0.0
230
1.0
  2
SOLID
 70
               1
 71
               1
 91
        1
 92
        1
 93
        1
 72
               2
 10
338.75501999107644
 20
377.5
 40
4.99969482421875
 50
0.0
 51
360.0
 73
               0
 97
        1
330
FB
 75
               0
 76
               1
 98
        1
 10
0.0
 20
0.0
  0
CIRCLE
  5
FD
102
{ACAD_REACTORS
330
FE
102
}
100
AcDbEntity
  8
0
370
              -2
390
0
  6
Continuous
 62
               0
100
AcDbCircle
 10
338.75501999107644
 20
827.5
 30
0.0
 40
4.99969482421875
  0
HATCH
  5
FE
100
AcDbEntity
  8
0
370
              -2
390
0
  6
Continuous
 62
               0
100
AcDbHatch
 10
0.0
 20
0.0
 30
0.0
210
0.0
220
0.0
230
1.0
  2
SOLID
 70
               1
 71
               1
 91
        1
 92
        1
 93
        1
 72
               2
 10
338.75501999107644
 20
827.5
 40
4.99969482421875
 50
0.0
 51
360.0
 73
               0
 97
        1
330
FD
 75
               0
 76
               1
 98
        1
 10
0.0
 20
0.0
  0
MTEXT
  5
FF
100
AcDbEntity
  8
0
390
0
 62
               0
100
AcDbMText
 10
304.87740280357639
 20
578.68749831782452
 30
0.0
 40
24.432617187500004
 41
0.0
 71
               1
 72
               1
  1
450
  7
ＭＳ ゴシック
 11
0.0
 21
1.0
 31
0.0
 73
               1
 44
0.7828267384257843
  0
POINT
  5
100
100
AcDbEntity
  8
Defpoints
370
               0
390
0
 62
               0
100
AcDbPoint
 10
438.78512396679719
 20
827.5
 30
0.0
  0
POINT
  5
101
100
AcDbEntity
  8
Defpoints
370
               0
390
0
 62
               0
100
AcDbPoint
 10
438.75501999107644
 20
377.5
 30
0.0
  0
POINT
  5
102
100
AcDbEntity
  8
Defpoints
370
               0
390
0
 62
               0
100
AcDbPoint
 10
338.75501999107644
 20
377.5
 30
0.0
  0
ENDBLK
  5
103
100
AcDbEntity
  8
notes
390
0
100
AcDbBlockEnd
  0
BLOCK
  5
104
100
AcDbEntity
  8
notes
390
0
100
AcDbBlockBegin
  2
*D15
 70
               1
 10
0.0
 20
0.0
 30
0.0
  3
*D15
  1

  0
LINE
  5
105
100
AcDbEntity
  8
0
370
              -2
390
0
  6
Continuous
 62
               0
100
AcDbLine
 10
-615.68664667558778
 20
-383.41373278967217
 30
0.0
 11
-615.68664667558778
 21
-288.37227113972563
 31
0.0
  0
LINE
  5
106
100
AcDbEntity
  8
0
370
              -2
390
0
  6
Continuous
 62
               0
100
AcDbLine
 10
-345.68664667558778
 20
-383.41373278967217
 30
0.0
 11
-345.68664667558778
 21
-288.37227113972563
 31
0.0
  0
LINE
  5
107
100
AcDbEntity
  8
0
370
              -2
390
0
  6
Continuous
 62
               0
100
AcDbLine
 10
-615.68664667558778
 20
-288.37227113972563
 30
0.0
 11
-345.68664667558778
 21
-288.37227113972563
 31
0.0
  0
CIRCLE
  5
108
102
{ACAD_REACTORS
330
109
102
}
100
AcDbEntity
  8
0
370
              -2
390
0
  6
Continuous
 62
               0
100
AcDbCircle
 10
-615.68664667558778
 20
-288.37227113972563
 30
0.0
 40
4.99969482421875
  0
HATCH
  5
109
100
AcDbEntity
  8
0
370
              -2
390
0
  6
Continuous
 62
               0
100
AcDbHatch
 10
0.0
 20
0.0
 30
0.0
210
0.0
220
0.0
230
1.0
  2
SOLID
 70
               1
 71
               1
 91
        1
 92
        1
 93
        1
 72
               2
 10
-615.68664667558778
 20
-288.37227113972563
 40
4.99969482421875
 50
0.0
 51
360.0
 73
               0
 97
        1
330
108
 75
               0
 76
               1
 98
        1
 10
0.0
 20
0.0
  0
CIRCLE
  5
10A
102
{ACAD_REACTORS
330
10B
102
}
100
AcDbEntity
  8
0
370
              -2
390
0
  6
Continuous
 62
               0
100
AcDbCircle
 10
-345.68664667558778
 20
-288.37227113972563
 30
0.0
 40
4.99969482421875
  0
HATCH
  5
10B
100
AcDbEntity
  8
0
370
              -2
390
0
  6
Continuous
 62
               0
100
AcDbHatch
 10
0.0
 20
0.0
 30
0.0
210
0.0
220
0.0
230
1.0
  2
SOLID
 70
               1
 71
               1
 91
        1
 92
        1
 93
        1
 72
               2
 10
-345.68664667558778
 20
-288.37227113972563
 40
4.99969482421875
 50
0.0
 51
360.0
 73
               0
 97
        1
330
10A
 75
               0
 76
               1
 98
        1
 10
0.0
 20
0.0
  0
MTEXT
  5
10C
100
AcDbEntity
  8
0
390
0
 62
               0
100
AcDbMText
 10
-504.49914835776326
 20
-254.49465395222569
 30
0.0
 40
24.432617187500004
 41
0.0
 71
               1
 72
               1
  1
270
  7
ＭＳ ゴシック
 73
               1
 44
0.7828267384257843
  0
POINT
  5
10D
100
AcDbEntity
  8
Defpoints
370
               0
390
0
 62
               0
100
AcDbPoint
 10
-345.68664667558778
 20
-408.41373278967217
 30
0.0
  0
POINT
  5
10E
100
AcDbEntity
  8
Defpoints
370
               0
390
0
 62
               0
100
AcDbPoint
 10
-615.68664667558778
 20
-408.41373278967217
 30
0.0
  0
POINT
  5
10F
100
AcDbEntity
  8
Defpoints
370
               0
390
0
 62
               0
100
AcDbPoint
 10
-615.68664667558778
 20
-288.37227113972563
 30
0.0
  0
ENDBLK
  5
110
100
AcDbEntity
  8
notes
390
0
100
AcDbBlockEnd
  0
BLOCK
  5
111
100
AcDbEntity
  8
notes
390
0
100
AcDbBlockBegin
  2
*D16
 70
               1
 10
0.0
 20
0.0
 30
0.0
  3
*D16
  1

  0
LINE
  5
112
100
AcDbEntity
  8
0
370
              -2
390
0
  6
Continuous
 62
               0
100
AcDbLine
 10
-345.68664667558778
 20
-383.41373278967217
 30
0.0
 11
-345.68664667558778
 21
-288.37227113972563
 31
0.0
  0
LINE
  5
113
100
AcDbEntity
  8
0
370
              -2
390
0
  6
Continuous
 62
               0
100
AcDbLine
 10
-215.68664667558778
 20
-383.41373278967217
 30
0.0
 11
-215.68664667558778
 21
-288.37227113972563
 31
0.0
  0
LINE
  5
114
100
AcDbEntity
  8
0
370
              -2
390
0
  6
Continuous
 62
               0
100
AcDbLine
 10
-345.68664667558778
 20
-288.37227113972563
 30
0.0
 11
-215.68664667558778
 21
-288.37227113972563
 31
0.0
  0
CIRCLE
  5
115
102
{ACAD_REACTORS
330
116
102
}
100
AcDbEntity
  8
0
370
              -2
390
0
  6
Continuous
 62
               0
100
AcDbCircle
 10
-345.68664667558778
 20
-288.37227113972563
 30
0.0
 40
4.99969482421875
  0
HATCH
  5
116
100
AcDbEntity
  8
0
370
              -2
390
0
  6
Continuous
 62
               0
100
AcDbHatch
 10
0.0
 20
0.0
 30
0.0
210
0.0
220
0.0
230
1.0
  2
SOLID
 70
               1
 71
               1
 91
        1
 92
        1
 93
        1
 72
               2
 10
-345.68664667558778
 20
-288.37227113972563
 40
4.99969482421875
 50
0.0
 51
360.0
 73
               0
 97
        1
330
115
 75
               0
 76
               1
 98
        1
 10
0.0
 20
0.0
  0
CIRCLE
  5
117
102
{ACAD_REACTORS
330
118
102
}
100
AcDbEntity
  8
0
370
              -2
390
0
  6
Continuous
 62
               0
100
AcDbCircle
 10
-215.68664667558778
 20
-288.37227113972563
 30
0.0
 40
4.99969482421875
  0
HATCH
  5
118
100
AcDbEntity
  8
0
370
              -2
390
0
  6
Continuous
 62
               0
100
AcDbHatch
 10
0.0
 20
0.0
 30
0.0
210
0.0
220
0.0
230
1.0
  2
SOLID
 70
               1
 71
               1
 91
        1
 92
        1
 93
        1
 72
               2
 10
-215.68664667558778
 20
-288.37227113972563
 40
4.99969482421875
 50
0.0
 51
360.0
 73
               0
 97
        1
330
117
 75
               0
 76
               1
 98
        1
 10
0.0
 20
0.0
  0
MTEXT
  5
119
100
AcDbEntity
  8
0
390
0
 62
               0
100
AcDbMText
 10
-304.49914835776326
 20
-254.49465395222569
 30
0.0
 40
24.432617187500004
 41
0.0
 71
               1
 72
               1
  1
130
  7
ＭＳ ゴシック
 73
               1
 44
0.7828267384257843
  0
POINT
  5
11A
100
AcDbEntity
  8
Defpoints
370
               0
390
0
 62
               0
100
AcDbPoint
 10
-215.68664667558778
 20
-408.41373278967217
 30
0.0
  0
POINT
  5
11B
100
AcDbEntity
  8
Defpoints
370
               0
390
0
 62
               0
100
AcDbPoint
 10
-345.68664667558778
 20
-408.41373278967217
 30
0.0
  0
POINT
  5
11C
100
AcDbEntity
  8
Defpoints
370
               0
390
0
 62
               0
100
AcDbPoint
 10
-345.68664667558778
 20
-288.37227113972563
 30
0.0
  0
ENDBLK
  5
11D
100
AcDbEntity
  8
notes
390
0
100
AcDbBlockEnd
  0
BLOCK
  5
11E
100
AcDbEntity
  8
notes
390
0
100
AcDbBlockBegin
  2
*D17
 70
               1
 10
0.0
 20
0.0
 30
0.0
  3
*D17
  1

  0
LINE
  5
11F
100
AcDbEntity
  8
0
370
              -2
390
0
  6
Continuous
 62
               0
100
AcDbLine
 10
-215.68664667558778
 20
-383.41373278967217
 30
0.0
 11
-215.68664667558778
 21
-288.37227113972563
 31
0.0
  0
LINE
  5
120
100
AcDbEntity
  8
0
370
              -2
390
0
  6
Continuous
 62
               0
100
AcDbLine
 10
-35.686646675587781
 20
-368.39784644185988
 30
0.0
 11
-35.686646675587781
 21
-288.37227113972563
 31
0.0
  0
LINE
  5
121
100
AcDbEntity
  8
0
370
              -2
390
0
  6
Continuous
 62
               0
100
AcDbLine
 10
-215.68664667558778
 20
-288.37227113972563
 30
0.0
 11
-35.686646675587781
 21
-288.37227113972563
 31
0.0
  0
CIRCLE
  5
122
102
{ACAD_REACTORS
330
123
102
}
100
AcDbEntity
  8
0
370
              -2
390
0
  6
Continuous
 62
               0
100
AcDbCircle
 10
-215.68664667558778
 20
-288.37227113972563
 30
0.0
 40
4.99969482421875
  0
HATCH
  5
123
100
AcDbEntity
  8
0
370
              -2
390
0
  6
Continuous
 62
               0
100
AcDbHatch
 10
0.0
 20
0.0
 30
0.0
210
0.0
220
0.0
230
1.0
  2
SOLID
 70
               1
 71
               1
 91
        1
 92
        1
 93
        1
 72
               2
 10
-215.68664667558778
 20
-288.37227113972563
 40
4.99969482421875
 50
0.0
 51
360.0
 73
               0
 97
        1
330
122
 75
               0
 76
               1
 98
        1
 10
0.0
 20
0.0
  0
CIRCLE
  5
124
102
{ACAD_REACTORS
330
125
102
}
100
AcDbEntity
  8
0
370
              -2
390
0
  6
Continuous
 62
               0
100
AcDbCircle
 10
-35.686646675587781
 20
-288.37227113972563
 30
0.0
 40
4.99969482421875
  0
HATCH
  5
125
100
AcDbEntity
  8
0
370
              -2
390
0
  6
Continuous
 62
               0
100
AcDbHatch
 10
0.0
 20
0.0
 30
0.0
210
0.0
220
0.0
230
1.0
  2
SOLID
 70
               1
 71
               1
 91
        1
 92
        1
 93
        1
 72
               2
 10
-35.686646675587781
 20
-288.37227113972563
 40
4.99969482421875
 50
0.0
 51
360.0
 73
               0
 97
        1
330
124
 75
               0
 76
               1
 98
        1
 10
0.0
 20
0.0
  0
MTEXT
  5
126
100
AcDbEntity
  8
0
390
0
 62
               0
100
AcDbMText
 10
-149.49914835776326
 20
-254.49465395222569
 30
0.0
 40
24.432617187500004
 41
0.0
 71
               1
 72
               1
  1
180
  7
ＭＳ ゴシック
 73
               1
 44
0.7828267384257843
  0
POINT
  5
127
100
AcDbEntity
  8
Defpoints
370
               0
390
0
 62
               0
100
AcDbPoint
 10
-35.686646675587781
 20
-393.39784644185988
 30
0.0
  0
POINT
  5
128
100
AcDbEntity
  8
Defpoints
370
               0
390
0
 62
               0
100
AcDbPoint
 10
-215.68664667558778
 20
-408.41373278967217
 30
0.0
  0
POINT
  5
129
100
AcDbEntity
  8
Defpoints
370
               0
390
0
 62
               0
100
AcDbPoint
 10
-215.68664667558778
 20
-288.37227113972563
 30
0.0
  0
ENDBLK
  5
12A
100
AcDbEntity
  8
notes
390
0
100
AcDbBlockEnd
  0
BLOCK
  5
12B
100
AcDbEntity
  8
notes
390
0
100
AcDbBlockBegin
  2
*D18
 70
               1
 10
0.0
 20
0.0
 30
0.0
  3
*D18
  1

  0
LINE
  5
12C
100
AcDbEntity
  8
0
370
              -2
390
0
  6
Continuous
 62
               0
100
AcDbLine
 10
-105.68664667558778
 20
-599.4722711397269
 30
0.0
 11
-105.68664667558778
 21
-678.3137327896734
 31
0.0
  0
LINE
  5
12D
100
AcDbEntity
  8
0
370
              -2
390
0
  6
Continuous
 62
               0
100
AcDbLine
 10
-455.68664667558778
 20
-599.4722711397269
 30
0.0
 11
-455.68664667558778
 21
-678.3137327896734
 31
0.0
  0
LINE
  5
12E
100
AcDbEntity
  8
0
370
              -2
390
0
  6
Continuous
 62
               0
100
AcDbLine
 10
-105.68664667558778
 20
-678.3137327896734
 30
0.0
 11
-455.68664667558778
 21
-678.3137327896734
 31
0.0
  0
CIRCLE
  5
12F
102
{ACAD_REACTORS
330
130
102
}
100
AcDbEntity
  8
0
370
              -2
390
0
  6
Continuous
 62
               0
100
AcDbCircle
 10
-105.68664667558778
 20
-678.3137327896734
 30
0.0
 40
4.99969482421875
  0
HATCH
  5
130
100
AcDbEntity
  8
0
370
              -2
390
0
  6
Continuous
 62
               0
100
AcDbHatch
 10
0.0
 20
0.0
 30
0.0
210
0.0
220
0.0
230
1.0
  2
SOLID
 70
               1
 71
               1
 91
        1
 92
        1
 93
        1
 72
               2
 10
-105.68664667558778
 20
-678.3137327896734
 40
4.99969482421875
 50
0.0
 51
360.0
 73
               0
 97
        1
330
12F
 75
               0
 76
               1
 98
        1
 10
0.0
 20
0.0
  0
CIRCLE
  5
131
102
{ACAD_REACTORS
330
132
102
}
100
AcDbEntity
  8
0
370
              -2
390
0
  6
Continuous
 62
               0
100
AcDbCircle
 10
-455.68664667558778
 20
-678.3137327896734
 30
0.0
 40
4.99969482421875
  0
HATCH
  5
132
100
AcDbEntity
  8
0
370
              -2
390
0
  6
Continuous
 62
               0
100
AcDbHatch
 10
0.0
 20
0.0
 30
0.0
210
0.0
220
0.0
230
1.0
  2
SOLID
 70
               1
 71
               1
 91
        1
 92
        1
 93
        1
 72
               2
 10
-455.68664667558778
 20
-678.3137327896734
 40
4.99969482421875
 50
0.0
 51
360.0
 73
               0
 97
        1
330
131
 75
               0
 76
               1
 98
        1
 10
0.0
 20
0.0
  0
MTEXT
  5
133
100
AcDbEntity
  8
0
390
0
 62
               0
100
AcDbMText
 10
-304.49914835776326
 20
-644.43611560217323
 30
0.0
 40
24.432617187500004
 41
0.0
 71
               1
 72
               1
  1
350
  7
ＭＳ ゴシック
 73
               1
 44
0.7828267384257843
  0
POINT
  5
134
100
AcDbEntity
  8
Defpoints
370
               0
390
0
 62
               0
100
AcDbPoint
 10
-455.68664667558778
 20
-574.4722711397269
 30
0.0
  0
POINT
  5
135
100
AcDbEntity
  8
Defpoints
370
               0
390
0
 62
               0
100
AcDbPoint
 10
-105.68664667558778
 20
-574.4722711397269
 30
0.0
  0
POINT
  5
136
100
AcDbEntity
  8
Defpoints
370
               0
390
0
 62
               0
100
AcDbPoint
 10
-105.68664667558778
 20
-678.3137327896734
 30
0.0
  0
ENDBLK
  5
137
100
AcDbEntity
  8
notes
390
0
100
AcDbBlockEnd
  0
BLOCK
  5
138
100
AcDbEntity
  8
notes
390
0
100
AcDbBlockBegin
  2
*D19
 70
               1
 10
0.0
 20
0.0
 30
0.0
  3
*D19
  1

  0
LINE
  5
139
100
AcDbEntity
  8
0
370
              -2
390
0
  6
Continuous
 62
               0
100
AcDbLine
 10
777.6832328187561
 20
-599.51359699541285
 30
0.0
 11
777.6832328187561
 21
-678.5135969924645
 31
0.0
  0
LINE
  5
13A
100
AcDbEntity
  8
0
370
              -2
390
0
  6
Continuous
 62
               0
100
AcDbLine
 10
577.6832328187561
 20
-603.42931466868163
 30
0.0
 11
577.6832328187561
 21
-678.5135969924645
 31
0.0
  0
LINE
  5
13B
100
AcDbEntity
  8
0
370
              -2
390
0
  6
Continuous
 62
               0
100
AcDbLine
 10
777.6832328187561
 20
-678.5135969924645
 30
0.0
 11
577.6832328187561
 21
-678.5135969924645
 31
0.0
  0
CIRCLE
  5
13C
102
{ACAD_REACTORS
330
13D
102
}
100
AcDbEntity
  8
0
370
              -2
390
0
  6
Continuous
 62
               0
100
AcDbCircle
 10
777.6832328187561
 20
-678.5135969924645
 30
0.0
 40
4.99969482421875
  0
HATCH
  5
13D
100
AcDbEntity
  8
0
370
              -2
390
0
  6
Continuous
 62
               0
100
AcDbHatch
 10
0.0
 20
0.0
 30
0.0
210
0.0
220
0.0
230
1.0
  2
SOLID
 70
               1
 71
               1
 91
        1
 92
        1
 93
        1
 72
               2
 10
777.6832328187561
 20
-678.5135969924645
 40
4.99969482421875
 50
0.0
 51
360.0
 73
               0
 97
        1
330
13C
 75
               0
 76
               1
 98
        1
 10
0.0
 20
0.0
  0
CIRCLE
  5
13E
102
{ACAD_REACTORS
330
13F
102
}
100
AcDbEntity
  8
0
370
              -2
390
0
  6
Continuous
 62
               0
100
AcDbCircle
 10
577.6832328187561
 20
-678.5135969924645
 30
0.0
 40
4.99969482421875
  0
HATCH
  5
13F
100
AcDbEntity
  8
0
370
              -2
390
0
  6
Continuous
 62
               0
100
AcDbHatch
 10
0.0
 20
0.0
 30
0.0
210
0.0
220
0.0
230
1.0
  2
SOLID
 70
               1
 71
               1
 91
        1
 92
        1
 93
        1
 72
               2
 10
577.6832328187561
 20
-678.5135969924645
 40
4.99969482421875
 50
0.0
 51
360.0
 73
               0
 97
        1
330
13E
 75
               0
 76
               1
 98
        1
 10
0.0
 20
0.0
  0
MTEXT
  5
140
100
AcDbEntity
  8
0
390
0
 62
               0
100
AcDbMText
 10
653.87073113658062
 20
-644.63597980496434
 30
0.0
 40
24.432617187500004
 41
0.0
 71
               1
 72
               1
  1
200
  7
ＭＳ ゴシック
 73
               1
 44
0.7828267384257843
  0
POINT
  5
141
100
AcDbEntity
  8
Defpoints
370
               0
390
0
 62
               0
100
AcDbPoint
 10
577.6832328187561
 20
-578.42931466868163
 30
0.0
  0
POINT
  5
142
100
AcDbEntity
  8
Defpoints
370
               0
390
0
 62
               0
100
AcDbPoint
 10
777.6832328187561
 20
-574.51359699541285
 30
0.0
  0
POINT
  5
143
100
AcDbEntity
  8
Defpoints
370
               0
390
0
 62
               0
100
AcDbPoint
 10
777.6832328187561
 20
-678.5135969924645
 30
0.0
  0
ENDBLK
  5
144
100
AcDbEntity
  8
notes
390
0
100
AcDbBlockEnd
  0
BLOCK
  5
145
100
AcDbEntity
  8
notes
390
0
100
AcDbBlockBegin
  2
*D20
 70
               1
 10
0.0
 20
0.0
 30
0.0
  3
*D20
  1

  0
LINE
  5
146
100
AcDbEntity
  8
0
370
              -2
390
0
  6
Continuous
 62
               0
100
AcDbLine
 10
777.68323281875655
 20
-599.51359699541285
 30
0.0
 11
777.68323281875655
 21
-728.5135969924645
 31
0.0
  0
LINE
  5
147
100
AcDbEntity
  8
0
370
              -2
390
0
  6
Continuous
 62
               0
100
AcDbLine
 10
362.68323281875655
 20
-599.51359699541285
 30
0.0
 11
362.68323281875655
 21
-728.5135969924645
 31
0.0
  0
LINE
  5
148
100
AcDbEntity
  8
0
370
              -2
390
0
  6
Continuous
 62
               0
100
AcDbLine
 10
777.68323281875655
 20
-728.5135969924645
 30
0.0
 11
362.68323281875655
 21
-728.5135969924645
 31
0.0
  0
CIRCLE
  5
149
102
{ACAD_REACTORS
330
14A
102
}
100
AcDbEntity
  8
0
370
              -2
390
0
  6
Continuous
 62
               0
100
AcDbCircle
 10
777.68323281875655
 20
-728.5135969924645
 30
0.0
 40
4.99969482421875
  0
HATCH
  5
14A
100
AcDbEntity
  8
0
370
              -2
390
0
  6
Continuous
 62
               0
100
AcDbHatch
 10
0.0
 20
0.0
 30
0.0
210
0.0
220
0.0
230
1.0
  2
SOLID
 70
               1
 71
               1
 91
        1
 92
        1
 93
        1
 72
               2
 10
777.68323281875655
 20
-728.5135969924645
 40
4.99969482421875
 50
0.0
 51
360.0
 73
               0
 97
        1
330
149
 75
               0
 76
               1
 98
        1
 10
0.0
 20
0.0
  0
CIRCLE
  5
14B
102
{ACAD_REACTORS
330
14C
102
}
100
AcDbEntity
  8
0
370
              -2
390
0
  6
Continuous
 62
               0
100
AcDbCircle
 10
362.68323281875655
 20
-728.5135969924645
 30
0.0
 40
4.99969482421875
  0
HATCH
  5
14C
100
AcDbEntity
  8
0
370
              -2
390
0
  6
Continuous
 62
               0
100
AcDbHatch
 10
0.0
 20
0.0
 30
0.0
210
0.0
220
0.0
230
1.0
  2
SOLID
 70
               1
 71
               1
 91
        1
 92
        1
 93
        1
 72
               2
 10
362.68323281875655
 20
-728.5135969924645
 40
4.99969482421875
 50
0.0
 51
360.0
 73
               0
 97
        1
330
14B
 75
               0
 76
               1
 98
        1
 10
0.0
 20
0.0
  0
MTEXT
  5
14D
100
AcDbEntity
  8
0
390
0
 62
               0
100
AcDbMText
 10
546.37073113658107
 20
-694.63597980496434
 30
0.0
 40
24.432617187500004
 41
0.0
 71
               1
 72
               1
  1
415
  7
ＭＳ ゴシック
 73
               1
 44
0.7828267384257843
  0
POINT
  5
14E
100
AcDbEntity
  8
Defpoints
370
               0
390
0
 62
               0
100
AcDbPoint
 10
362.68323281875655
 20
-574.51359699541285
 30
0.0
  0
POINT
  5
14F
100
AcDbEntity
  8
Defpoints
370
               0
390
0
 62
               0
100
AcDbPoint
 10
777.68323281875655
 20
-574.51359699541285
 30
0.0
  0
POINT
  5
150
100
AcDbEntity
  8
Defpoints
370
               0
390
0
 62
               0
100
AcDbPoint
 10
777.68323281875655
 20
-728.5135969924645
 30
0.0
  0
ENDBLK
  5
151
100
AcDbEntity
  8
notes
390
0
100
AcDbBlockEnd
  0
BLOCK
  5
152
100
AcDbEntity
  8
notes
390
0
100
AcDbBlockBegin
  2
*D21
 70
               1
 10
0.0
 20
0.0
 30
0.0
  3
*D21
  1

  0
LINE
  5
153
100
AcDbEntity
  8
0
370
              -2
390
0
  6
Continuous
 62
               0
100
AcDbLine
 10
777.6832328187561
 20
-366.51359699541308
 30
0.0
 11
777.6832328187561
 21
-288.51359699541308
 31
0.0
  0
LINE
  5
154
100
AcDbEntity
  8
0
370
              -2
390
0
  6
Continuous
 62
               0
100
AcDbLine
 10
712.72414397259081
 20
-363.56459940637524
 30
0.0
 11
712.72414397259081
 21
-288.51359699541308
 31
0.0
  0
LINE
  5
155
100
AcDbEntity
  8
0
370
              -2
390
0
  6
Continuous
 62
               0
100
AcDbLine
 10
777.6832328187561
 20
-288.51359699541308
 30
0.0
 11
712.72414397259081
 21
-288.51359699541308
 31
0.0
  0
CIRCLE
  5
156
102
{ACAD_REACTORS
330
157
102
}
100
AcDbEntity
  8
0
370
              -2
390
0
  6
Continuous
 62
               0
100
AcDbCircle
 10
777.6832328187561
 20
-288.51359699541308
 30
0.0
 40
4.99969482421875
  0
HATCH
  5
157
100
AcDbEntity
  8
0
370
              -2
390
0
  6
Continuous
 62
               0
100
AcDbHatch
 10
0.0
 20
0.0
 30
0.0
210
0.0
220
0.0
230
1.0
  2
SOLID
 70
               1
 71
               1
 91
        1
 92
        1
 93
        1
 72
               2
 10
777.6832328187561
 20
-288.51359699541308
 40
4.99969482421875
 50
0.0
 51
360.0
 73
               0
 97
        1
330
156
 75
               0
 76
               1
 98
        1
 10
0.0
 20
0.0
  0
CIRCLE
  5
158
102
{ACAD_REACTORS
330
159
102
}
100
AcDbEntity
  8
0
370
              -2
390
0
  6
Continuous
 62
               0
100
AcDbCircle
 10
712.72414397259081
 20
-288.51359699541308
 30
0.0
 40
4.99969482421875
  0
HATCH
  5
159
100
AcDbEntity
  8
0
370
              -2
390
0
  6
Continuous
 62
               0
100
AcDbHatch
 10
0.0
 20
0.0
 30
0.0
210
0.0
220
0.0
230
1.0
  2
SOLID
 70
               1
 71
               1
 91
        1
 92
        1
 93
        1
 72
               2
 10
712.72414397259081
 20
-288.51359699541308
 40
4.99969482421875
 50
0.0
 51
360.0
 73
               0
 97
        1
330
158
 75
               0
 76
               1
 98
        1
 10
0.0
 20
0.0
  0
MTEXT
  5
15A
100
AcDbEntity
  8
0
390
0
 62
               0
100
AcDbMText
 10
729.32868839567345
 20
-254.63597980791315
 30
0.0
 40
24.432617187500004
 41
0.0
 71
               1
 72
               1
  1
65
  7
ＭＳ ゴシック
 73
               1
 44
0.7828267384257843
  0
POINT
  5
15B
100
AcDbEntity
  8
Defpoints
370
               0
390
0
 62
               0
100
AcDbPoint
 10
712.72414397259081
 20
-388.56459940637524
 30
0.0
  0
POINT
  5
15C
100
AcDbEntity
  8
Defpoints
370
               0
390
0
 62
               0
100
AcDbPoint
 10
777.6832328187561
 20
-391.51359699541308
 30
0.0
  0
POINT
  5
15D
100
AcDbEntity
  8
Defpoints
370
               0
390
0
 62
               0
100
AcDbPoint
 10
777.6832328187561
 20
-288.51359699541308
 30
0.0
  0
ENDBLK
  5
15E
100
AcDbEntity
  8
notes
390
0
100
AcDbBlockEnd
  0
BLOCK
  5
15F
100
AcDbEntity
  8
notes
390
0
100
AcDbBlockBegin
  2
*D22
 70
               1
 10
0.0
 20
0.0
 30
0.0
  3
*D22
  1

  0
LINE
  5
160
100
AcDbEntity
  8
0
370
              -2
390
0
  6
Continuous
 62
               0
100
AcDbLine
 10
547.20851279634235
 20
-388.42931466868185
 30
0.0
 11
566.29903836424728
 21
-388.42931466868185
 31
0.0
  0
LINE
  5
161
100
AcDbEntity
  8
0
370
              -2
390
0
  6
Continuous
 62
               0
100
AcDbLine
 10
547.17093918173987
 20
-528.42931466868185
 30
0.0
 11
566.29903836424728
 21
-528.42931466868185
 31
0.0
  0
LINE
  5
162
100
AcDbEntity
  8
0
370
              -2
390
0
  6
Continuous
 62
               0
100
AcDbLine
 10
566.29903836424728
 20
-388.42931466868185
 30
0.0
 11
566.29903836424728
 21
-236.0962705296256
 31
0.0
  0
LINE
  5
163
100
AcDbEntity
  8
0
370
              -2
390
0
  6
Continuous
 62
               0
100
AcDbLine
 10
566.29903836424728
 20
-388.42931466868185
 30
0.0
 11
566.29903836424728
 21
-528.42931466868185
 31
0.0
  0
CIRCLE
  5
164
102
{ACAD_REACTORS
330
165
102
}
100
AcDbEntity
  8
0
370
              -2
390
0
  6
Continuous
 62
               0
100
AcDbCircle
 10
566.29903836424728
 20
-388.42931466868185
 30
0.0
 40
4.99969482421875
  0
HATCH
  5
165
100
AcDbEntity
  8
0
370
              -2
390
0
  6
Continuous
 62
               0
100
AcDbHatch
 10
0.0
 20
0.0
 30
0.0
210
0.0
220
0.0
230
1.0
  2
SOLID
 70
               1
 71
               1
 91
        1
 92
        1
 93
        1
 72
               2
 10
566.29903836424728
 20
-388.42931466868185
 40
4.99969482421875
 50
0.0
 51
360.0
 73
               0
 97
        1
330
164
 75
               0
 76
               1
 98
        1
 10
0.0
 20
0.0
  0
CIRCLE
  5
166
102
{ACAD_REACTORS
330
167
102
}
100
AcDbEntity
  8
0
370
              -2
390
0
  6
Continuous
 62
               0
100
AcDbCircle
 10
566.29903836424728
 20
-528.42931466868185
 30
0.0
 40
4.99969482421875
  0
HATCH
  5
167
100
AcDbEntity
  8
0
370
              -2
390
0
  6
Continuous
 62
               0
100
AcDbHatch
 10
0.0
 20
0.0
 30
0.0
210
0.0
220
0.0
230
1.0
  2
SOLID
 70
               1
 71
               1
 91
        1
 92
        1
 93
        1
 72
               2
 10
566.29903836424728
 20
-528.42931466868185
 40
4.99969482421875
 50
0.0
 51
360.0
 73
               0
 97
        1
330
166
 75
               0
 76
               1
 98
        1
 10
0.0
 20
0.0
  0
MTEXT
  5
168
100
AcDbEntity
  8
0
390
0
 62
               0
100
AcDbMText
 10
532.42142117674723
 20
-378.9712705296256
 30
0.0
 40
24.432617187500004
 41
0.0
 71
               1
 72
               1
  1
140(深さ)
  7
ＭＳ ゴシック
 11
0.0
 21
1.0
 31
0.0
 73
               1
 44
0.7828267384257843
  0
POINT
  5
169
100
AcDbEntity
  8
Defpoints
370
               0
390
0
 62
               0
100
AcDbPoint
 10
572.17093918173987
 20
-528.42931466868185
 30
0.0
  0
POINT
  5
16A
100
AcDbEntity
  8
Defpoints
370
               0
390
0
 62
               0
100
AcDbPoint
 10
572.20851279634235
 20
-388.42931466868185
 30
0.0
  0
POINT
  5
16B
100
AcDbEntity
  8
Defpoints
370
               0
390
0
 62
               0
100
AcDbPoint
 10
566.29903836424728
 20
-388.42931466868185
 30
0.0
  0
ENDBLK
  5
16C
100
AcDbEntity
  8
notes
390
0
100
AcDbBlockEnd
  0
BLOCK
  5
16D
100
AcDbEntity
  8
notes
390
0
100
AcDbBlockBegin
  2
*D23
 70
               1
 10
0.0
 20
0.0
 30
0.0
  3
*D23
  1

  0
LINE
  5
16E
100
AcDbEntity
  8
0
370
              -2
390
0
  6
Continuous
 62
               0
100
AcDbLine
 10
254.6832328187561
 20
-388.42931466868231
 30
0.0
 11
177.6832328187561
 21
-388.42931466868231
 31
0.0
  0
LINE
  5
16F
100
AcDbEntity
  8
0
370
              -2
390
0
  6
Continuous
 62
               0
100
AcDbLine
 10
254.6832328187561
 20
-483.42931466868231
 30
0.0
 11
177.6832328187561
 21
-483.42931466868231
 31
0.0
  0
LINE
  5
170
100
AcDbEntity
  8
0
370
              -2
390
0
  6
Continuous
 62
               0
100
AcDbLine
 10
177.6832328187561
 20
-388.42931466868231
 30
0.0
 11
177.6832328187561
 21
-483.42931466868231
 31
0.0
  0
CIRCLE
  5
171
102
{ACAD_REACTORS
330
172
102
}
100
AcDbEntity
  8
0
370
              -2
390
0
  6
Continuous
 62
               0
100
AcDbCircle
 10
177.6832328187561
 20
-388.42931466868231
 30
0.0
 40
4.99969482421875
  0
HATCH
  5
172
100
AcDbEntity
  8
0
370
              -2
390
0
  6
Continuous
 62
               0
100
AcDbHatch
 10
0.0
 20
0.0
 30
0.0
210
0.0
220
0.0
230
1.0
  2
SOLID
 70
               1
 71
               1
 91
        1
 92
        1
 93
        1
 72
               2
 10
177.6832328187561
 20
-388.42931466868231
 40
4.99969482421875
 50
0.0
 51
360.0
 73
               0
 97
        1
330
171
 75
               0
 76
               1
 98
        1
 10
0.0
 20
0.0
  0
CIRCLE
  5
173
102
{ACAD_REACTORS
330
174
102
}
100
AcDbEntity
  8
0
370
              -2
390
0
  6
Continuous
 62
               0
100
AcDbCircle
 10
177.6832328187561
 20
-483.42931466868231
 30
0.0
 40
4.99969482421875
  0
HATCH
  5
174
100
AcDbEntity
  8
0
370
              -2
390
0
  6
Continuous
 62
               0
100
AcDbHatch
 10
0.0
 20
0.0
 30
0.0
210
0.0
220
0.0
230
1.0
  2
SOLID
 70
               1
 71
               1
 91
        1
 92
        1
 93
        1
 72
               2
 10
177.6832328187561
 20
-483.42931466868231
 40
4.99969482421875
 50
0.0
 51
360.0
 73
               0
 97
        1
330
173
 75
               0
 76
               1
 98
        1
 10
0.0
 20
0.0
  0
MTEXT
  5
175
100
AcDbEntity
  8
0
390
0
 62
               0
100
AcDbMText
 10
143.80561563125605
 20
-451.80431466868231
 30
0.0
 40
24.432617187500004
 41
0.0
 71
               1
 72
               1
  1
95
  7
ＭＳ ゴシック
 11
0.0
 21
1.0
 31
0.0
 73
               1
 44
0.7828267384257843
  0
POINT
  5
176
100
AcDbEntity
  8
Defpoints
370
               0
390
0
 62
               0
100
AcDbPoint
 10
279.6832328187561
 20
-483.42931466868231
 30
0.0
  0
POINT
  5
177
100
AcDbEntity
  8
Defpoints
370
               0
390
0
 62
               0
100
AcDbPoint
 10
279.6832328187561
 20
-388.42931466868231
 30
0.0
  0
POINT
  5
178
100
AcDbEntity
  8
Defpoints
370
               0
390
0
 62
               0
100
AcDbPoint
 10
177.6832328187561
 20
-388.42931466868231
 30
0.0
  0
ENDBLK
  5
179
100
AcDbEntity
  8
notes
390
0
100
AcDbBlockEnd
  0
BLOCK
  5
17A
100
AcDbEntity
  8
notes
390
0
100
AcDbBlockBegin
  2
*D24
 70
               1
 10
0.0
 20
0.0
 30
0.0
  3
*D24
  1

  0
LINE
  5
17B
100
AcDbEntity
  8
0
370
              -2
390
0
  6
Continuous
 62
               0
100
AcDbLine
 10
255.18323281875655
 20
-483.42931466868231
 30
0.0
 11
177.68323281875655
 21
-483.42931466868231
 31
0.0
  0
LINE
  5
17C
100
AcDbEntity
  8
0
370
              -2
390
0
  6
Continuous
 62
               0
100
AcDbLine
 10
342.53012652278767
 20
-578.42931466868208
 30
0.0
 11
177.68323281875655
 21
-578.42931466868208
 31
0.0
  0
LINE
  5
17D
100
AcDbEntity
  8
0
370
              -2
390
0
  6
Continuous
 62
               0
100
AcDbLine
 10
177.68323281875655
 20
-483.42931466868231
 30
0.0
 11
177.68323281875655
 21
-578.42931466868208
 31
0.0
  0
CIRCLE
  5
17E
102
{ACAD_REACTORS
330
17F
102
}
100
AcDbEntity
  8
0
370
              -2
390
0
  6
Continuous
 62
               0
100
AcDbCircle
 10
177.68323281875655
 20
-483.42931466868231
 30
0.0
 40
4.99969482421875
  0
HATCH
  5
17F
100
AcDbEntity
  8
0
370
              -2
390
0
  6
Continuous
 62
               0
100
AcDbHatch
 10
0.0
 20
0.0
 30
0.0
210
0.0
220
0.0
230
1.0
  2
SOLID
 70
               1
 71
               1
 91
        1
 92
        1
 93
        1
 72
               2
 10
177.68323281875655
 20
-483.42931466868231
 40
4.99969482421875
 50
0.0
 51
360.0
 73
               0
 97
        1
330
17E
 75
               0
 76
               1
 98
        1
 10
0.0
 20
0.0
  0
CIRCLE
  5
180
102
{ACAD_REACTORS
330
181
102
}
100
AcDbEntity
  8
0
370
              -2
390
0
  6
Continuous
 62
               0
100
AcDbCircle
 10
177.68323281875655
 20
-578.42931466868208
 30
0.0
 40
4.99969482421875
  0
HATCH
  5
181
100
AcDbEntity
  8
0
370
              -2
390
0
  6
Continuous
 62
               0
100
AcDbHatch
 10
0.0
 20
0.0
 30
0.0
210
0.0
220
0.0
230
1.0
  2
SOLID
 70
               1
 71
               1
 91
        1
 92
        1
 93
        1
 72
               2
 10
177.68323281875655
 20
-578.42931466868208
 40
4.99969482421875
 50
0.0
 51
360.0
 73
               0
 97
        1
330
180
 75
               0
 76
               1
 98
        1
 10
0.0
 20
0.0
  0
MTEXT
  5
182
100
AcDbEntity
  8
0
390
0
 62
               0
100
AcDbMText
 10
143.8056156312565
 20
-546.80431466868231
 30
0.0
 40
24.432617187500004
 41
0.0
 71
               1
 72
               1
  1
95
  7
ＭＳ ゴシック
 11
0.0
 21
1.0
 31
0.0
 73
               1
 44
0.7828267384257843
  0
POINT
  5
183
100
AcDbEntity
  8
Defpoints
370
               0
390
0
 62
               0
100
AcDbPoint
 10
367.53012652278767
 20
-578.42931466868208
 30
0.0
  0
POINT
  5
184
100
AcDbEntity
  8
Defpoints
370
               0
390
0
 62
               0
100
AcDbPoint
 10
280.18323281875655
 20
-483.42931466868231
 30
0.0
  0
POINT
  5
185
100
AcDbEntity
  8
Defpoints
370
               0
390
0
 62
               0
100
AcDbPoint
 10
177.68323281875655
 20
-483.42931466868231
 30
0.0
  0
ENDBLK
  5
186
100
AcDbEntity
  8
notes
390
0
100
AcDbBlockEnd
  0
BLOCK
  5
187
100
AcDbEntity
  8
notes
390
0
100
AcDbBlockBegin
  2
*D25
 70
               1
 10
0.0
 20
0.0
 30
0.0
  3
*D25
  1

  0
LINE
  5
188
100
AcDbEntity
  8
0
370
              -2
390
0
  6
Continuous
 62
               0
100
AcDbLine
 10
546.86866947071667
 20
-573.42931466723735
 30
0.0
 11
520.80719540960308
 21
-573.42931466723735
 31
0.0
  0
LINE
  5
189
100
AcDbEntity
  8
0
370
              -2
390
0
  6
Continuous
 62
               0
100
AcDbLine
 10
547.43219540960308
 20
-578.42931466868163
 30
0.0
 11
520.80719540960308
 21
-578.42931466868163
 31
0.0
  0
LINE
  5
18A
100
AcDbEntity
  8
0
370
              -2
390
0
  6
Continuous
 62
               0
100
AcDbLine
 10
520.80719540960308
 20
-578.42931466868163
 30
0.0
 11
520.80719540960308
 21
-614.19012360456895
 31
0.0
  0
LINE
  5
18B
100
AcDbEntity
  8
0
370
              -2
390
0
  6
Continuous
 62
               0
100
AcDbLine
 10
520.80719540960308
 20
-573.42931466723735
 30
0.0
 11
520.80719540960308
 21
-578.42931466868163
 31
0.0
  0
CIRCLE
  5
18C
102
{ACAD_REACTORS
330
18D
102
}
100
AcDbEntity
  8
0
370
              -2
390
0
  6
Continuous
 62
               0
100
AcDbCircle
 10
520.80719540960308
 20
-573.42931466723735
 30
0.0
 40
4.99969482421875
  0
HATCH
  5
18D
100
AcDbEntity
  8
0
370
              -2
390
0
  6
Continuous
 62
               0
100
AcDbHatch
 10
0.0
 20
0.0
 30
0.0
210
0.0
220
0.0
230
1.0
  2
SOLID
 70
               1
 71
               1
 91
        1
 92
        1
 93
        1
 72
               2
 10
520.80719540960308
 20
-573.42931466723735
 40
4.99969482421875
 50
0.0
 51
360.0
 73
               0
 97
        1
330
18C
 75
               0
 76
               1
 98
        1
 10
0.0
 20
0.0
  0
CIRCLE
  5
18E
102
{ACAD_REACTORS
330
18F
102
}
100
AcDbEntity
  8
0
370
              -2
390
0
  6
Continuous
 62
               0
100
AcDbCircle
 10
520.80719540960308
 20
-578.42931466868163
 30
0.0
 40
4.99969482421875
  0
HATCH
  5
18F
100
AcDbEntity
  8
0
370
              -2
390
0
  6
Continuous
 62
               0
100
AcDbHatch
 10
0.0
 20
0.0
 30
0.0
210
0.0
220
0.0
230
1.0
  2
SOLID
 70
               1
 71
               1
 91
        1
 92
        1
 93
        1
 72
               2
 10
520.80719540960308
 20
-578.42931466868163
 40
4.99969482421875
 50
0.0
 51
360.0
 73
               0
 97
        1
330
18E
 75
               0
 76
               1
 98
        1
 10
0.0
 20
0.0
  0
MTEXT
  5
190
100
AcDbEntity
  8
0
390
0
 62
               0
100
AcDbMText
 10
486.92957822210303
 20
-614.19012360456918
 30
0.0
 40
24.432617187500004
 41
0.0
 71
               1
 72
               1
  1
5
  7
ＭＳ ゴシック
 11
0.0
 21
1.0
 31
0.0
 73
               1
 44
0.7828267384257843
  0
POINT
  5
191
100
AcDbEntity
  8
Defpoints
370
               0
390
0
 62
               0
100
AcDbPoint
 10
572.43219540960308
 20
-578.42931466868163
 30
0.0
  0
POINT
  5
192
100
AcDbEntity
  8
Defpoints
370
               0
390
0
 62
               0
100
AcDbPoint
 10
571.86866947071667
 20
-573.42931466723735
 30
0.0
  0
POINT
  5
193
100
AcDbEntity
  8
Defpoints
370
               0
390
0
 62
               0
100
AcDbPoint
 10
520.80719540960308
 20
-573.42931466723735
 30
0.0
  0
ENDBLK
  5
194
100
AcDbEntity
  8
notes
390
0
100
AcDbBlockEnd
  0
BLOCK
  5
195
100
AcDbEntity
  8
notes
390
0
100
AcDbBlockBegin
  2
*D26
 70
               1
 10
0.0
 20
0.0
 30
0.0
  3
*D26
  1

  0
LINE
  5
196
100
AcDbEntity
  8
0
370
              -2
390
0
  6
Continuous
 62
               0
100
AcDbLine
 10
-84.586646675587417
 20
-578.37227113972654
 30
0.0
 11
94.030321356970035
 21
-578.37227113972654
 31
0.0
  0
LINE
  5
197
100
AcDbEntity
  8
0
370
              -2
390
0
  6
Continuous
 62
               0
100
AcDbLine
 10
-14.586646675587417
 20
-388.37227113972563
 30
0.0
 11
94.030321356970035
 21
-388.37227113972563
 31
0.0
  0
LINE
  5
198
100
AcDbEntity
  8
0
370
              -2
390
0
  6
Continuous
 62
               0
100
AcDbLine
 10
94.030321356970035
 20
-578.37227113972654
 30
0.0
 11
94.030321356970035
 21
-388.37227113972563
 31
0.0
  0
CIRCLE
  5
199
102
{ACAD_REACTORS
330
19A
102
}
100
AcDbEntity
  8
0
370
              -2
390
0
  6
Continuous
 62
               0
100
AcDbCircle
 10
94.030321356970035
 20
-578.37227113972654
 30
0.0
 40
4.99969482421875
  0
HATCH
  5
19A
100
AcDbEntity
  8
0
370
              -2
390
0
  6
Continuous
 62
               0
100
AcDbHatch
 10
0.0
 20
0.0
 30
0.0
210
0.0
220
0.0
230
1.0
  2
SOLID
 70
               1
 71
               1
 91
        1
 92
        1
 93
        1
 72
               2
 10
94.030321356970035
 20
-578.37227113972654
 40
4.99969482421875
 50
0.0
 51
360.0
 73
               0
 97
        1
330
199
 75
               0
 76
               1
 98
        1
 10
0.0
 20
0.0
  0
CIRCLE
  5
19B
102
{ACAD_REACTORS
330
19C
102
}
100
AcDbEntity
  8
0
370
              -2
390
0
  6
Continuous
 62
               0
100
AcDbCircle
 10
94.030321356970035
 20
-388.37227113972563
 30
0.0
 40
4.99969482421875
  0
HATCH
  5
19C
100
AcDbEntity
  8
0
370
              -2
390
0
  6
Continuous
 62
               0
100
AcDbHatch
 10
0.0
 20
0.0
 30
0.0
210
0.0
220
0.0
230
1.0
  2
SOLID
 70
               1
 71
               1
 91
        1
 92
        1
 93
        1
 72
               2
 10
94.030321356970035
 20
-388.37227113972563
 40
4.99969482421875
 50
0.0
 51
360.0
 73
               0
 97
        1
330
19B
 75
               0
 76
               1
 98
        1
 10
0.0
 20
0.0
  0
MTEXT
  5
19D
100
AcDbEntity
  8
0
390
0
 62
               0
100
AcDbMText
 10
60.152704169470098
 20
-507.18477282190156
 30
0.0
 40
24.432617187500004
 41
0.0
 71
               1
 72
               1
  1
190
  7
ＭＳ ゴシック
 11
0.0
 21
1.0
 31
0.0
 73
               1
 44
0.7828267384257843
  0
POINT
  5
19E
100
AcDbEntity
  8
Defpoints
370
               0
390
0
 62
               0
100
AcDbPoint
 10
-39.586646675587417
 20
-388.37227113972563
 30
0.0
  0
POINT
  5
19F
100
AcDbEntity
  8
Defpoints
370
               0
390
0
 62
               0
100
AcDbPoint
 10
-109.58664667558742
 20
-578.37227113972654
 30
0.0
  0
POINT
  5
1A0
100
AcDbEntity
  8
Defpoints
370
               0
390
0
 62
               0
100
AcDbPoint
 10
94.030321356970035
 20
-578.37227113972654
 30
0.0
  0
ENDBLK
  5
1A1
100
AcDbEntity
  8
notes
390
0
100
AcDbBlockEnd
  0
BLOCK
  5
1A2
100
AcDbEntity
  8
notes
390
0
100
AcDbBlockBegin
  2
*D27
 70
               1
 10
0.0
 20
0.0
 30
0.0
  3
*D27
  1

  0
LINE
  5
1A3
100
AcDbEntity
  8
0
370
              -2
390
0
  6
Continuous
 62
               0
100
AcDbLine
 10
-660.68664667558778
 20
-428.41373278967217
 30
0.0
 11
-846.23664667558614
 21
-428.41373278967217
 31
0.0
  0
LINE
  5
1A4
100
AcDbEntity
  8
0
370
              -2
390
0
  6
Continuous
 62
               0
100
AcDbLine
 10
-806.78664667558542
 20
-388.37227113972563
 30
0.0
 11
-846.23664667558614
 21
-388.37227113972563
 31
0.0
  0
LINE
  5
1A5
100
AcDbEntity
  8
0
370
              -2
390
0
  6
Continuous
 62
               0
100
AcDbLine
 10
-846.23664667558614
 20
-428.41373278967217
 30
0.0
 11
-846.23664667558614
 21
-388.37227113972563
 31
0.0
  0
CIRCLE
  5
1A6
102
{ACAD_REACTORS
330
1A7
102
}
100
AcDbEntity
  8
0
370
              -2
390
0
  6
Continuous
 62
               0
100
AcDbCircle
 10
-846.23664667558614
 20
-428.41373278967217
 30
0.0
 40
4.99969482421875
  0
HATCH
  5
1A7
100
AcDbEntity
  8
0
370
              -2
390
0
  6
Continuous
 62
               0
100
AcDbHatch
 10
0.0
 20
0.0
 30
0.0
210
0.0
220
0.0
230
1.0
  2
SOLID
 70
               1
 71
               1
 91
        1
 92
        1
 93
        1
 72
               2
 10
-846.23664667558614
 20
-428.41373278967217
 40
4.99969482421875
 50
0.0
 51
360.0
 73
               0
 97
        1
330
1A6
 75
               0
 76
               1
 98
        1
 10
0.0
 20
0.0
  0
CIRCLE
  5
1A8
102
{ACAD_REACTORS
330
1A9
102
}
100
AcDbEntity
  8
0
370
              -2
390
0
  6
Continuous
 62
               0
100
AcDbCircle
 10
-846.23664667558614
 20
-388.37227113972563
 30
0.0
 40
4.99969482421875
  0
HATCH
  5
1A9
100
AcDbEntity
  8
0
370
              -2
390
0
  6
Continuous
 62
               0
100
AcDbHatch
 10
0.0
 20
0.0
 30
0.0
210
0.0
220
0.0
230
1.0
  2
SOLID
 70
               1
 71
               1
 91
        1
 92
        1
 93
        1
 72
               2
 10
-846.23664667558614
 20
-388.37227113972563
 40
4.99969482421875
 50
0.0
 51
360.0
 73
               0
 97
        1
330
1A8
 75
               0
 76
               1
 98
        1
 10
0.0
 20
0.0
  0
MTEXT
  5
1AA
100
AcDbEntity
  8
0
390
0
 62
               0
100
AcDbMText
 10
-880.11426386308608
 20
-424.2680019646989
 30
0.0
 40
24.432617187500004
 41
0.0
 71
               1
 72
               1
  1
40
  7
ＭＳ ゴシック
 11
0.0
 21
1.0
 31
0.0
 73
               1
 44
0.7828267384257843
  0
POINT
  5
1AB
100
AcDbEntity
  8
Defpoints
370
               0
390
0
 62
               0
100
AcDbPoint
 10
-781.78664667558542
 20
-388.37227113972563
 30
0.0
  0
POINT
  5
1AC
100
AcDbEntity
  8
Defpoints
370
               0
390
0
 62
               0
100
AcDbPoint
 10
-635.68664667558778
 20
-428.41373278967217
 30
0.0
  0
POINT
  5
1AD
100
AcDbEntity
  8
Defpoints
370
               0
390
0
 62
               0
100
AcDbPoint
 10
-846.23664667558614
 20
-428.41373278967217
 30
0.0
  0
ENDBLK
  5
1AE
100
AcDbEntity
  8
notes
390
0
100
AcDbBlockEnd
  0
BLOCK
  5
1AF
100
AcDbEntity
  8
ADF70-0402
390
0
100
AcDbBlockBegin
  2
グループ-1
 70
               0
 10
0.0
 20
0.0
 30
0.0
  3
グループ-1
  1

  0
LINE
  5
1B0
100
AcDbEntity
  8
0
370
              15
390
0
  6
STYLE_13
 62
               7
100
AcDbLine
 10
-1260.1947133358294
 20
-1911.6313312658492
 30
0.0
 11
-1195.5023233140259
 21
-1819.2410232555819
 31
0.0
  0
LINE
  5
1B1
100
AcDbEntity
  8
0
370
              15
390
0
  6
STYLE_13
 62
               7
100
AcDbLine
 10
-1563.7906455077259
 20
-1911.6313312658492
 30
0.0
 11
-1628.4830355295294
 21
-1819.2410232555819
 31
0.0
  0
ENDBLK
  5
1B2
100
AcDbEntity
  8
ADF70-0402
390
0
100
AcDbBlockEnd
  0
BLOCK
  5
1B3
100
AcDbEntity
  8
ADF70-0402
390
0
100
AcDbBlockBegin
  2
グループ-2
 70
               0
 10
0.0
 20
0.0
 30
0.0
  3
グループ-2
  1

  0
ARC
  5
1B4
100
AcDbEntity
  8
0
370
              15
390
0
  6
STYLE_13
 62
               7
100
AcDbCircle
 10
-1452.6542432667461
 20
-1960.8095863117685
 30
0.0
 40
4.9999999823385952
100
AcDbArc
 50
49.999999812920436
 51
85.416340176022302
  0
LINE
  5
1B5
100
AcDbEntity
  8
0
370
              15
390
0
  6
STYLE_13
 62
               7
100
AcDbLine
 10
-1435.0362963503699
 20
-1969.0657626612808
 30
0.0
 11
-1449.4403052171597
 21
-1956.9793641201975
 31
0.0
  0
LINE
  5
1B6
100
AcDbEntity
  8
0
370
              15
390
0
  6
STYLE_13
 62
               7
100
AcDbLine
 10
-1435.0362963503699
 20
-2001.870024754259
 30
0.0
 11
-1435.0362963503699
 21
-1969.0657626612808
 31
0.0
  0
ENDBLK
  5
1B7
100
AcDbEntity
  8
ADF70-0402
390
0
100
AcDbBlockEnd
  0
BLOCK
  5
1B8
100
AcDbEntity
  8
ADF70-0402
390
0
100
AcDbBlockBegin
  2
グループ-3
 70
               0
 10
0.0
 20
0.0
 30
0.0
  3
グループ-3
  1

  0
ARC
  5
1B9
100
AcDbEntity
  8
0
370
              15
390
0
  6
STYLE_13
 62
               7
100
AcDbCircle
 10
-1371.4175011718894
 20
-1960.7681246613517
 30
0.0
 40
4.9999999823382186
100
AcDbArc
 50
94.5836598239881
 51
130.00000018707956
  0
LINE
  5
1BA
100
AcDbEntity
  8
0
370
              15
390
0
  6
STYLE_13
 62
               7
100
AcDbLine
 10
-1389.0354480882665
 20
-1969.0243010108641
 30
0.0
 11
-1374.6314392214758
 21
-1956.9379024697807
 31
0.0
  0
LINE
  5
1BB
100
AcDbEntity
  8
0
370
              15
390
0
  6
STYLE_13
 62
               7
100
AcDbLine
 10
-1389.0354480882665
 20
-2001.8285631038423
 30
0.0
 11
-1389.0354480882665
 21
-1969.0243010108641
 31
0.0
  0
INSERT
  5
1BC
100
AcDbEntity
  8
0
390
0
 62
               7
100
AcDbBlockReference
  2
グループ-2
 10
0.0
 20
0.0
 30
0.0
  0
LINE
  5
1BD
100
AcDbEntity
  8
0
370
              15
390
0
  6
STYLE_13
 62
               7
100
AcDbLine
 10
-1389.0354480882665
 20
-1969.0243010108641
 30
0.0
 11
-1435.0857084211534
 21
-1969.0243010108641
 31
0.0
  0
ENDBLK
  5
1BE
100
AcDbEntity
  8
ADF70-0402
390
0
100
AcDbBlockEnd
  0
ENDSEC
  0
SECTION
  2
ENTITIES
  0
MTEXT
  5
1BF
100
AcDbEntity
  8
template
390
0
 62
               7
100
AcDbMText
 10
-967.99999999975898
 20
-1147.4176292337002
 30
0.0
 40
16.288411458333332
 41
0.0
 71
               1
 72
               1
  1
品名
  7
ＭＳ ゴシック
 73
               1
 44
0.7828267384257843
  0
MTEXT
  5
1C0
100
AcDbEntity
  8
template
390
0
 62
               7
100
AcDbMText
 10
-967.99999999975898
 20
-1232.4176292337002
 30
0.0
 40
16.288411458333332
 41
0.0
 71
               1
 72
               1
  1
仕様
  7
ＭＳ ゴシック
 73
               1
 44
0.7828267384257843
  0
MTEXT
  5
1C1
100
AcDbEntity
  8
template
390
0
 62
               7
100
AcDbMText
 10
-914.99999999975921
 20
-1176.0000901712001
 30
0.0
 40
24.432617187500004
 41
0.0
 71
               1
 72
               1
  1
洗面器 -CATALANO,Zero-
  7
ＭＳ ゴシック
 73
               1
 44
0.7828267384257843
  0
LINE
  5
1C2
100
AcDbEntity
  8
template
370
               5
390
0
  6
Continuous
 62
               7
100
AcDbLine
 10
974.99999999975876
 20
-1224.0027073587003
 30
0.0
 11
-975.00000000024102
 21
-1224.0027073587003
 31
0.0
  0
LWPOLYLINE
  5
1C3
100
AcDbEntity
  8
template
370
               5
390
0
  6
Continuous
 62
               7
100
AcDbPolyline
 90
        5
 70
             128
 10
975.00000000024124
 20
1405.9972926412995
 10
-974.99999999975898
 20
1405.9972926412995
 10
-974.99999999975898
 20
-1394.0027073587003
 10
975.00000000024124
 20
-1394.0027073587003
 10
975.00000000024124
 20
1405.9972926412995
  0
LINE
  5
1C4
100
AcDbEntity
  8
template
370
               5
390
0
  6
Continuous
 62
               7
100
AcDbLine
 10
974.99999999975876
 20
-1139.0027073587003
 30
0.0
 11
-975.00000000024102
 21
-1139.0027073587003
 31
0.0
  0
LINE
  5
1C5
100
AcDbEntity
  8
template
370
               5
390
0
  6
Continuous
 62
               7
100
AcDbLine
 10
975.00000000024124
 20
-1309.0027073587003
 30
0.0
 11
222.00000000024124
 21
-1309.0027073587003
 31
0.0
  0
MTEXT
  5
1C6
100
AcDbEntity
  8
template
390
0
 62
               7
100
AcDbMText
 10
-974.99999999955617
 20
-1405.8565294155574
 30
0.0
 40
21.717881944444446
 41
0.0
 71
               1
 72
               1
  1
100707SH
  7
ＭＳ ゴシック
 73
               1
 44
0.7828267384257843
  0
MTEXT
  5
1C7
100
AcDbEntity
  8
template
390
0
 62
               7
100
AcDbMText
 10
251.87140625250095
 20
-1338.9131018320077
 30
0.0
 40
24.432617187500004
 41
0.0
 71
               1
 72
               1
  1
大洋金物株式会社 ティーフォルム事業部
  7
ＭＳ ゴシック
 73
               1
 44
0.7828267384257843
  0
INSERT
  5
1C8
100
AcDbEntity
  8
template
390
0
 62
               7
100
AcDbBlockReference
  2
グループ
 10
1131.3060327461899
 20
1428.2846354282578
 30
0.0
  0
MTEXT
  5
1C9
100
AcDbEntity
  8
template
390
0
 62
               7
100
AcDbMText
 10
784.00000000049999
 20
-1261.0000901712001
 30
0.0
 40
24.432617187500004
 41
0.0
 71
               1
 72
               1
  1
1:10
  7
ＭＳ ゴシック
 73
               1
 44
0.7828267384257843
  0
MTEXT
  5
1CA
100
AcDbEntity
  8
template
390
0
 62
               7
100
AcDbMText
 10
731.00000000049999
 20
-1232.4176292337002
 30
0.0
 40
16.288411458333332
 41
0.0
 71
               1
 72
               1
  1
縮尺
  7
ＭＳ ゴシック
 73
               1
 44
0.7828267384257843
  0
LINE
  5
1CB
100
AcDbEntity
  8
template
370
               5
390
0
  6
Continuous
 62
               7
100
AcDbLine
 10
724.00000000049999
 20
-1309.0027073587003
 30
0.0
 11
724.00000000049999
 21
-1224.0027073587003
 31
0.0
  0
MTEXT
  5
1CC
100
AcDbEntity
  8
template
390
0
 62
               7
100
AcDbMText
 10
480.00000000049999
 20
-1232.4176292337002
 30
0.0
 40
16.288411458333332
 41
0.0
 71
               1
 72
               1
  1
容量
  7
ＭＳ ゴシック
 73
               1
 44
0.7828267384257843
  0
MTEXT
  5
1CD
100
AcDbEntity
  8
template
390
0
 62
               7
100
AcDbMText
 10
533.00000000049999
 20
-1261.0000901712001
 30
0.0
 40
24.432617187500004
 41
0.0
 71
               1
 72
               1
  1
8.8L
  7
ＭＳ ゴシック
 73
               1
 44
0.7828267384257843
  0
LINE
  5
1CE
100
AcDbEntity
  8
template
370
               5
390
0
  6
Continuous
 62
               7
100
AcDbLine
 10
473.00000000049999
 20
-1309.0027073587003
 30
0.0
 11
473.00000000049999
 21
-1224.0027073587003
 31
0.0
  0
MTEXT
  5
1CF
100
AcDbEntity
  8
template
390
0
 62
               7
100
AcDbMText
 10
229.00000000049999
 20
-1147.4176292337002
 30
0.0
 40
16.288411458333332
 41
0.0
 71
               1
 72
               1
  1
品番
  7
ＭＳ ゴシック
 73
               1
 44
0.7828267384257843
  0
MTEXT
  5
1D0
100
AcDbEntity
  8
template
390
0
 62
               7
100
AcDbMText
 10
229.00000000049999
 20
-1232.4176292337002
 30
0.0
 40
16.288411458333332
 41
0.0
 71
               1
 72
               1
  1
重量
  7
ＭＳ ゴシック
 73
               1
 44
0.7828267384257843
  0
MTEXT
  5
1D1
100
AcDbEntity
  8
template
390
0
 62
               7
100
AcDbMText
 10
282.00000000049999
 20
-1176.0000901712001
 30
0.0
 40
24.432617187500004
 41
0.0
 71
               1
 72
               1
  1
ADF70-0402
  7
ＭＳ ゴシック
 73
               1
 44
0.7828267384257843
  0
MTEXT
  5
1D2
100
AcDbEntity
  8
template
390
0
 62
               7
100
AcDbMText
 10
282.00000000049999
 20
-1261.0000901712001
 30
0.0
 40
24.432617187500004
 41
0.0
 71
               1
 72
               1
  1
25kg
  7
ＭＳ ゴシック
 73
               1
 44
0.7828267384257843
  0
LINE
  5
1D3
100
AcDbEntity
  8
template
370
               5
390
0
  6
Continuous
 62
               7
100
AcDbLine
 10
222.00000000049999
 20
-1394.0027073587003
 30
0.0
 11
222.00000000049999
 21
-1139.0027073587003
 31
0.0
  0
MTEXT
  5
1D4
100
AcDbEntity
  8
template
390
0
 62
               7
100
AcDbMText
 10
-914.99999999975921
 20
-1261.0000901712001
 30
0.0
 40
24.432617187500004
 41
0.0
 71
               1
 72
               1
  1
壁掛け,半埋め込み/オーバーフロー付き/壁取付ボルト付属/\P陶器/ホワイト
  7
ＭＳ ゴシック
 73
               1
 44
1.3047112307096407
  0
MTEXT
  5
1D5
100
AcDbEntity
  8
notes
390
0
 62
               7
100
AcDbMText
 10
-781.17778640793813
 20
170.23087977752493
 30
0.0
 40
24.432617187500004
 41
847.46291037473509
 71
               1
 72
               1
  1
＝φ30もしくはφ35の水栓取付用穴あけ加工を承ります。\P  必要な場合、ご注文の際にご指示ください。
  7
ＭＳ ゴシック
 73
               1
 44
1.0437689845677123
  0
MTEXT
  5
1D6
100
AcDbEntity
  8
notes
390
0
 62
               7
100
AcDbMText
 10
367.75918665774395
 20
1021.305407134613
 30
0.0
 40
24.432617187500004
 41
0.0
 71
               1
 72
               1
  1
カウンター切込寸法
  7
ＭＳ ゴシック
 73
               1
 44
0.7828267384257843
  0
MTEXT
  5
1D7
100
AcDbEntity
  8
notes
390
0
 62
               7
100
AcDbMText
 10
123.89926623629174
 20
170.23087977752493
 30
0.0
 40
24.432617187500004
 41
764.7717154610109
 71
               1
 72
               1
  1
※陶器製品には寸法公差があります。\P  洗面器の収め方をご確認の上、必ず現物を合わせて\P  カウンターに切込を行ってください。
  7
ＭＳ ゴシック
 73
               1
 44
1.0437689845677123
  0
DIMENSION
  5
1D8
100
AcDbEntity
  8
notes
370
               5
390
0
  6
Continuous
 62
               7
100
AcDbDimension
  2
*D3
 10
-35.686646675588008
 20
977.5
 30
0.0
 11
-410.68664667558687
 21
977.5
 31
0.0
 71
               5
 72
               1
 41
1.0
 42
0.0
  3
tform線あり
100
AcDbAlignedDimension
 13
-785.68664667558596
 23
827.5
 33
0.0
 14
-35.686646675588008
 24
827.5
 34
0.0
100
AcDbRotatedDimension
1001
ACAD
1000
DSTYLE
1002
{
1070
             279
1070
               2
1070
             340
1005
40
1070
             147
1040
5.0
1002
}
  0
DIMENSION
  5
1D9
100
AcDbEntity
  8
notes
370
               5
390
0
  6
Continuous
 62
               7
100
AcDbDimension
  2
*D4
 10
-35.686646675588008
 20
927.5
 30
0.0
 11
-160.68664667558801
 21
927.5
 31
0.0
 71
               5
 72
               1
 41
1.0
 42
0.0
  3
tform線あり
100
AcDbAlignedDimension
 13
-285.68664667558801
 23
775.0
 33
0.0
 14
-35.686646675588008
 24
827.5
 34
0.0
100
AcDbRotatedDimension
1001
ACAD
1000
DSTYLE
1002
{
1070
             279
1070
               2
1070
             340
1005
40
1070
             147
1040
5.0
1002
}
  0
DIMENSION
  5
1DA
100
AcDbEntity
  8
notes
370
               5
390
0
  6
Continuous
 62
               7
100
AcDbDimension
  2
*D5
 10
-285.68664667558801
 20
927.5
 30
0.0
 11
-535.6866466755871
 21
932.5
 31
0.0
 70
             128
 71
               5
 72
               1
 41
1.0
 42
0.0
  3
tform線あり
100
AcDbAlignedDimension
 13
-785.68664667558596
 23
827.5
 33
0.0
 14
-285.68664667558801
 24
775.0
 34
0.0
100
AcDbRotatedDimension
1001
ACAD
1000
DSTYLE
1002
{
1070
             279
1070
               2
1070
             340
1005
40
1070
             147
1040
5.0
1002
}
  0
DIMENSION
  5
1DB
100
AcDbEntity
  8
notes
370
               5
390
0
  6
Continuous
 62
               7
100
AcDbDimension
  2
*D6
 10
-385.68664667558801
 20
875.0
 30
0.0
 11
-335.68664667558801
 21
875.0
 31
0.0
 71
               5
 72
               1
 41
1.0
 42
0.0
  3
tform線あり
100
AcDbAlignedDimension
 13
-285.68664667558801
 23
775.0
 33
0.0
 14
-385.68664667558801
 24
775.0
 34
0.0
100
AcDbRotatedDimension
1001
ACAD
1000
DSTYLE
1002
{
1070
             279
1070
               2
1070
             340
1005
40
1070
             147
1040
5.0
1002
}
  0
DIMENSION
  5
1DC
100
AcDbEntity
  8
notes
370
               5
390
0
  6
Continuous
 62
               7
100
AcDbDimension
  2
*D7
 10
-285.68664667558801
 20
875.0
 30
0.0
 11
-235.68664667558801
 21
875.0
 31
0.0
 71
               5
 72
               1
 41
1.0
 42
0.0
  3
tform線あり
100
AcDbAlignedDimension
 13
-185.68664667558801
 23
775.0
 33
0.0
 14
-285.68664667558801
 24
775.0
 34
0.0
100
AcDbRotatedDimension
1001
ACAD
1000
DSTYLE
1002
{
1070
             279
1070
               2
1070
             340
1005
40
1070
             147
1040
5.0
1002
}
  0
DIMENSION
  5
1DD
100
AcDbEntity
  8
notes
370
               5
390
0
  6
Continuous
 62
               7
100
AcDbDimension
  2
*D8
 10
64.313353324411992
 20
327.5
 30
0.0
 11
64.313353324411992
 21
577.5
 31
0.0
 71
               5
 72
               1
 41
1.0
 42
0.0
  3
tform線あり
100
AcDbAlignedDimension
 13
-40.686646675588008
 23
827.5
 33
0.0
 14
-40.686646675588008
 24
327.5
 34
0.0
 50
90.0
100
AcDbRotatedDimension
1001
ACAD
1000
DSTYLE
1002
{
1070
             279
1070
               2
1070
             340
1005
40
1070
             147
1040
5.0
1002
}
  0
DIMENSION
  5
1DE
100
AcDbEntity
  8
notes
370
               5
390
0
  6
Continuous
 62
               7
100
AcDbDimension
  2
*D9
 10
-510.68664667558801
 20
252.5
 30
0.0
 11
-285.68664667558801
 21
252.5
 31
0.0
 71
               5
 72
               1
 41
1.0
 42
0.0
  3
tform線あり
100
AcDbAlignedDimension
 13
-60.686646675588008
 23
327.5
 33
0.0
 14
-510.68664667558801
 24
327.5
 34
0.0
100
AcDbRotatedDimension
1001
ACAD
1000
DSTYLE
1002
{
1070
             279
1070
               2
1070
             340
1005
40
1070
             147
1040
5.0
1002
}
  0
DIMENSION
  5
1DF
100
AcDbEntity
  8
notes
370
               5
390
0
  6
Continuous
 62
               7
100
AcDbDimension
  2
*D10
 10
-865.68664667558596
 20
827.5
 30
0.0
 11
-865.68664667558596
 21
762.5
 31
0.0
 71
               5
 72
               1
 41
1.0
 42
0.0
  3
tform線あり
100
AcDbAlignedDimension
 13
-505.68664667558801
 23
697.5
 33
0.0
 14
-785.68664667558596
 24
827.5
 34
0.0
 50
90.0
100
AcDbRotatedDimension
1001
ACAD
1000
DSTYLE
1002
{
1070
             279
1070
               2
1070
             340
1005
40
1070
             147
1040
5.0
1002
}
  0
DIMENSION
  5
1E0
100
AcDbEntity
  8
notes
370
               5
390
0
  6
Continuous
 62
               7
100
AcDbDimension
  2
*D11
 10
-865.68664667558596
 20
697.5
 30
0.0
 11
-865.68664667558596
 21
525.0
 31
0.0
 71
               5
 72
               1
 41
1.0
 42
0.0
  3
tform線あり
100
AcDbAlignedDimension
 13
-505.68664667558801
 23
352.5
 33
0.0
 14
-505.68664667558801
 24
697.5
 34
0.0
 50
90.0
100
AcDbRotatedDimension
1001
ACAD
1000
DSTYLE
1002
{
1070
             279
1070
               2
1070
             340
1005
40
1070
             147
1040
5.0
1002
}
  0
DIMENSION
  5
1E1
100
AcDbEntity
  8
notes
370
               5
390
0
  6
Continuous
 62
               7
100
AcDbDimension
  2
*D12
 10
-510.68664667558801
 20
252.5
 30
0.0
 11
-648.18664667558687
 21
252.5
 31
0.0
 71
               5
 72
               1
 41
1.0
 42
0.0
  3
tform線あり
100
AcDbAlignedDimension
 13
-785.68664667558596
 23
340.57068533131815
 33
0.0
 14
-510.68664667558801
 24
327.5
 34
0.0
100
AcDbRotatedDimension
1001
ACAD
1000
DSTYLE
1002
{
1070
             279
1070
               2
1070
             340
1005
40
1070
             147
1040
5.0
1002
}
  0
DIMENSION
  5
1E2
100
AcDbEntity
  8
notes
370
               5
390
0
  6
Continuous
 62
               7
100
AcDbDimension
  2
*D13
 10
818.75501999107632
 20
252.5
 30
0.0
 11
628.75501999107632
 21
252.5
 31
0.0
 71
               5
 72
               1
 41
1.0
 42
0.0
  3
tform線あり
100
AcDbAlignedDimension
 13
438.75501999107644
 23
377.5
 33
0.0
 14
818.75501999107632
 24
377.5
 34
0.0
100
AcDbRotatedDimension
1001
ACAD
1000
DSTYLE
1002
{
1070
             279
1070
               2
1070
             340
1005
40
1070
             147
1040
5.0
1002
}
  0
DIMENSION
  5
1E3
100
AcDbEntity
  8
notes
370
               5
390
0
  6
Continuous
 62
               7
100
AcDbDimension
  2
*D14
 10
338.75501999107644
 20
377.5
 30
0.0
 11
338.75501999107644
 21
602.5
 31
0.0
 71
               5
 72
               1
 41
1.0
 42
0.0
  3
tform線あり
100
AcDbAlignedDimension
 13
438.78512396679719
 23
827.5
 33
0.0
 14
438.75501999107644
 24
377.5
 34
0.0
 50
90.0
100
AcDbRotatedDimension
1001
ACAD
1000
DSTYLE
1002
{
1070
             279
1070
               2
1070
             340
1005
40
1070
             147
1040
5.0
1002
}
  0
CIRCLE
  5
1E4
100
AcDbEntity
  8
notes
370
              15
390
0
  6
STYLE_13
 62
               7
100
AcDbCircle
 10
-802.4991096601434
 20
156.41214293441521
 30
0.0
 40
17.5
  0
MTEXT
  5
1E5
100
AcDbEntity
  8
notes
390
0
 62
               7
100
AcDbMText
 10
-958.11677634476155
 20
-311.05290492423478
 30
0.0
 40
24.432617187500004
 41
0.0
 71
               1
 72
               1
  1
壁取付ボルト穴(3ヶ所)
  7
ＭＳ ゴシック
 73
               1
 44
0.7828267384257843
  0
LINE
  5
1E6
100
AcDbEntity
  8
notes
370
               5
390
0
  6
Continuous
 62
               7
100
AcDbLine
 10
-615.68664667558778
 20
-428.41373278967217
 30
0.0
 11
-659.18561313135751
 21
-342.91909734847309
 31
0.0
  0
DIMENSION
  5
1E7
100
AcDbEntity
  8
notes
370
               5
390
0
  6
Continuous
 62
               7
100
AcDbDimension
  2
*D15
 10
-615.68664667558778
 20
-288.37227113972563
 30
0.0
 11
-480.68664667558778
 21
-288.37227113972563
 31
0.0
 70
               1
 71
               5
 72
               1
 41
1.0
 42
0.0
  3
tform線あり
100
AcDbAlignedDimension
 13
-345.68664667558778
 23
-408.41373278967217
 33
0.0
 14
-615.68664667558778
 24
-408.41373278967217
 34
0.0
1001
ACAD
1000
DSTYLE
1002
{
1070
             279
1070
               2
1070
             340
1005
40
1070
             147
1040
5.0
1002
}
  0
DIMENSION
  5
1E8
100
AcDbEntity
  8
notes
370
               5
390
0
  6
Continuous
 62
               7
100
AcDbDimension
  2
*D16
 10
-345.68664667558778
 20
-288.37227113972563
 30
0.0
 11
-280.68664667558778
 21
-288.37227113972563
 31
0.0
 70
               1
 71
               5
 72
               1
 41
1.0
 42
0.0
  3
tform線あり
100
AcDbAlignedDimension
 13
-215.68664667558778
 23
-408.41373278967217
 33
0.0
 14
-345.68664667558778
 24
-408.41373278967217
 34
0.0
1001
ACAD
1000
DSTYLE
1002
{
1070
             279
1070
               2
1070
             340
1005
40
1070
             147
1040
5.0
1002
}
  0
DIMENSION
  5
1E9
100
AcDbEntity
  8
notes
370
               5
390
0
  6
Continuous
 62
               7
100
AcDbDimension
  2
*D17
 10
-215.68664667558778
 20
-288.37227113972563
 30
0.0
 11
-125.68664667558778
 21
-288.37227113972563
 31
0.0
 71
               5
 72
               1
 41
1.0
 42
0.0
  3
tform線あり
100
AcDbAlignedDimension
 13
-35.686646675587781
 23
-393.39784644185988
 33
0.0
 14
-215.68664667558778
 24
-408.41373278967217
 34
0.0
100
AcDbRotatedDimension
1001
ACAD
1000
DSTYLE
1002
{
1070
             279
1070
               2
1070
             340
1005
40
1070
             147
1040
5.0
1002
}
  0
DIMENSION
  5
1EA
100
AcDbEntity
  8
notes
370
               5
390
0
  6
Continuous
 62
               7
100
AcDbDimension
  2
*D18
 10
-105.68664667558778
 20
-678.3137327896734
 30
0.0
 11
-280.68664667558778
 21
-678.3137327896734
 31
0.0
 71
               5
 72
               1
 41
1.0
 42
0.0
  3
tform線あり
100
AcDbAlignedDimension
 13
-455.68664667558778
 23
-574.4722711397269
 33
0.0
 14
-105.68664667558778
 24
-574.4722711397269
 34
0.0
100
AcDbRotatedDimension
1001
ACAD
1000
DSTYLE
1002
{
1070
             279
1070
               2
1070
             340
1005
40
1070
             147
1040
5.0
1002
}
  0
DIMENSION
  5
1EB
100
AcDbEntity
  8
notes
370
               5
390
0
  6
Continuous
 62
               7
100
AcDbDimension
  2
*D19
 10
777.6832328187561
 20
-678.5135969924645
 30
0.0
 11
677.6832328187561
 21
-678.5135969924645
 31
0.0
 71
               5
 72
               1
 41
1.0
 42
0.0
  3
tform線あり
100
AcDbAlignedDimension
 13
577.6832328187561
 23
-578.42931466868163
 33
0.0
 14
777.6832328187561
 24
-574.51359699541285
 34
0.0
100
AcDbRotatedDimension
1001
ACAD
1000
DSTYLE
1002
{
1070
             279
1070
               2
1070
             340
1005
40
1070
             147
1040
5.0
1002
}
  0
DIMENSION
  5
1EC
100
AcDbEntity
  8
notes
370
               5
390
0
  6
Continuous
 62
               7
100
AcDbDimension
  2
*D20
 10
777.68323281875655
 20
-728.5135969924645
 30
0.0
 11
570.18323281875655
 21
-728.5135969924645
 31
0.0
 71
               5
 72
               1
 41
1.0
 42
0.0
  3
tform線あり
100
AcDbAlignedDimension
 13
362.68323281875655
 23
-574.51359699541285
 33
0.0
 14
777.68323281875655
 24
-574.51359699541285
 34
0.0
100
AcDbRotatedDimension
1001
ACAD
1000
DSTYLE
1002
{
1070
             279
1070
               2
1070
             340
1005
40
1070
             147
1040
5.0
1002
}
  0
DIMENSION
  5
1ED
100
AcDbEntity
  8
notes
370
               5
390
0
  6
Continuous
 62
               7
100
AcDbDimension
  2
*D21
 10
777.6832328187561
 20
-288.51359699541308
 30
0.0
 11
745.20368839567345
 21
-288.51359699541308
 31
0.0
 71
               5
 72
               1
 41
1.0
 42
0.0
  3
tform線あり
100
AcDbAlignedDimension
 13
712.72414397259081
 23
-388.56459940637524
 33
0.0
 14
777.6832328187561
 24
-391.51359699541308
 34
0.0
100
AcDbRotatedDimension
1001
ACAD
1000
DSTYLE
1002
{
1070
             279
1070
               2
1070
             340
1005
40
1070
             147
1040
5.0
1002
}
  0
DIMENSION
  5
1EE
100
AcDbEntity
  8
notes
370
               5
390
0
  6
Continuous
 62
               7
100
AcDbDimension
  2
*D22
 10
566.29903836424728
 20
-388.42931466868185
 30
0.0
 11
561.29903836424728
 21
-378.9712705296256
 31
0.0
 70
             128
 71
               5
 72
               1
 41
1.0
 42
0.0
  3
tform線あり
100
AcDbAlignedDimension
 13
572.17093918173987
 23
-528.42931466868185
 33
0.0
 14
572.20851279634235
 24
-388.42931466868185
 34
0.0
 50
90.0
100
AcDbRotatedDimension
1001
ACAD
1000
DSTYLE
1002
{
1070
             279
1070
               2
1070
             340
1005
40
1070
               3
1000
<>(深さ)
1070
             174
1070
               0
1070
             147
1040
5.0
1002
}
  0
DIMENSION
  5
1EF
100
AcDbEntity
  8
notes
370
               5
390
0
  6
Continuous
 62
               7
100
AcDbDimension
  2
*D23
 10
177.6832328187561
 20
-388.42931466868231
 30
0.0
 11
177.6832328187561
 21
-435.92931466868231
 31
0.0
 71
               5
 72
               1
 41
1.0
 42
0.0
  3
tform線あり
100
AcDbAlignedDimension
 13
279.6832328187561
 23
-483.42931466868231
 33
0.0
 14
279.6832328187561
 24
-388.42931466868231
 34
0.0
 50
90.0
100
AcDbRotatedDimension
1001
ACAD
1000
DSTYLE
1002
{
1070
             279
1070
               2
1070
             340
1005
40
1070
             147
1040
5.0
1002
}
  0
DIMENSION
  5
1F0
100
AcDbEntity
  8
notes
370
               5
390
0
  6
Continuous
 62
               7
100
AcDbDimension
  2
*D24
 10
177.68323281875655
 20
-483.42931466868231
 30
0.0
 11
177.68323281875655
 21
-530.92931466868231
 31
0.0
 71
               5
 72
               1
 41
1.0
 42
0.0
  3
tform線あり
100
AcDbAlignedDimension
 13
367.53012652278767
 23
-578.42931466868208
 33
0.0
 14
280.18323281875655
 24
-483.42931466868231
 34
0.0
 50
90.0
100
AcDbRotatedDimension
1001
ACAD
1000
DSTYLE
1002
{
1070
             279
1070
               2
1070
             340
1005
40
1070
             147
1040
5.0
1002
}
  0
DIMENSION
  5
1F1
100
AcDbEntity
  8
notes
370
               5
390
0
  6
Continuous
 62
               7
100
AcDbDimension
  2
*D25
 10
520.80719540960308
 20
-573.42931466723735
 30
0.0
 11
515.80719540960308
 21
-598.31512360456895
 31
0.0
 70
             128
 71
               5
 72
               1
 41
1.0
 42
0.0
  3
tform線あり
100
AcDbAlignedDimension
 13
572.43219540960308
 23
-578.42931466868163
 33
0.0
 14
571.86866947071667
 24
-573.42931466723735
 34
0.0
 50
90.0
100
AcDbRotatedDimension
1001
ACAD
1000
DSTYLE
1002
{
1070
             279
1070
               2
1070
             340
1005
40
1070
             174
1070
               0
1070
             147
1040
5.0
1002
}
  0
DIMENSION
  5
1F2
100
AcDbEntity
  8
notes
370
               5
390
0
  6
Continuous
 62
               7
100
AcDbDimension
  2
*D26
 10
94.030321356970035
 20
-578.37227113972654
 30
0.0
 11
94.030321356970035
 21
-483.37227113972608
 31
0.0
 71
               5
 72
               1
 41
1.0
 42
0.0
  3
tform線あり
100
AcDbAlignedDimension
 13
-39.586646675587417
 23
-388.37227113972563
 33
0.0
 14
-109.58664667558742
 24
-578.37227113972654
 34
0.0
 50
90.0
100
AcDbRotatedDimension
1001
ACAD
1000
DSTYLE
1002
{
1070
             279
1070
               2
1070
             340
1005
40
1070
             147
1040
5.0
1002
}
  0
DIMENSION
  5
1F3
100
AcDbEntity
  8
notes
370
               5
390
0
  6
Continuous
 62
               7
100
AcDbDimension
  2
*D27
 10
-846.23664667558614
 20
-428.41373278967217
 30
0.0
 11
-846.23664667558614
 21
-408.3930019646989
 31
0.0
 71
               5
 72
               1
 41
1.0
 42
0.0
  3
tform線あり
100
AcDbAlignedDimension
 13
-781.78664667558542
 23
-388.37227113972563
 33
0.0
 14
-635.68664667558778
 24
-428.41373278967217
 34
0.0
 50
90.0
100
AcDbRotatedDimension
1001
ACAD
1000
DSTYLE
1002
{
1070
             279
1070
               2
1070
             340
1005
40
1070
             147
1040
5.0
1002
}
  0
SPLINE
  5
1F4
100
AcDbEntity
  8
ADF70-0402
370
              15
390
0
  6
Continuous
 62
               7
100
AcDbSpline
210
0.0
220
0.0
230
1.0
 70
              12
 71
               2
 72
              12
 73
               9
 74
               0
 42
0.000001
 43
0.000001
 40
0.0
 40
0.0
 40
0.0
 40
0.25
 40
0.25
 40
0.5
 40
0.5
 40
0.75
 40
0.75
 40
1.0
 40
1.0
 40
1.0
 10
-298.18664667558801
 20
690.6624754343211
 30
0.0
 41
1.0
 10
-298.18664667558801
 20
693.6624679340307
 30
0.0
 41
0.7071076651048344
 10
-285.68667792683823
 20
693.66247543431177
 30
0.0
 41
1.0
 10
-273.18670917808845
 20
693.66248293459319
 30
0.0
 41
0.7071076651048344
 10
-273.18664667574421
 20
690.66249043492121
 30
0.0
 41
1.0
 10
-273.18658417339998
 20
687.66249793524935
 30
0.0
 41
0.7071076651048344
 10
-285.68655292183712
 20
687.66247543440545
 30
0.0
 41
1.0
 10
-298.18652167027426
 20
687.66245293356155
 30
0.0
 41
0.7071076651048344
 10
-298.18664667496296
 20
690.66244543312087
 30
0.0
 41
1.0
  0
LINE
  5
1F5
100
AcDbEntity
  8
ADF70-0402
370
              15
390
0
  6
Continuous
 62
               7
100
AcDbLine
 10
-62.151112769656493
 20
353.96446609406848
 30
0.0
 11
-142.55678754900759
 21
434.37014087344141
 31
0.0
  0
LINE
  5
1F6
100
AcDbEntity
  8
ADF70-0402
370
              15
390
0
  6
Continuous
 62
               7
100
AcDbLine
 10
-60.686646675588008
 20
692.5
 30
0.0
 11
-60.686646675588008
 21
357.5
 31
0.0
  0
LINE
  5
1F7
100
AcDbEntity
  8
ADF70-0402
370
              15
390
0
  6
Continuous
 62
               7
100
AcDbLine
 10
-509.24206473601112
 20
353.98446271309513
 30
0.0
 11
-431.01598479015115
 21
434.37014087344141
 31
0.0
  0
LINE
  5
1F8
100
AcDbEntity
  8
ADF70-0402
370
              15
390
0
  6
Continuous
 62
               7
100
AcDbLine
 10
-510.68664667558801
 20
357.5
 30
0.0
 11
-510.68664667558801
 21
692.5
 31
0.0
  0
LWPOLYLINE
  5
1F9
100
AcDbEntity
  8
ADF70-0402
370
              15
390
0
  6
Continuous
 62
               7
100
AcDbPolyline
 90
        6
 70
             129
 10
-780.68664667558596
 20
327.5
 42
-0.414213562373095
 10
-785.68664667558596
 20
332.5
 10
-785.68664667558596
 20
827.5
 10
-35.686646675588008
 20
827.5
 10
-35.686646675588008
 20
332.5
 42
-0.4142135623730817
 10
-40.686646675588008
 20
327.5
  0
ARC
  5
1FA
100
AcDbEntity
  8
ADF70-0402
370
              15
390
0
  6
Continuous
 62
               7
100
AcDbCircle
 10
-65.686646675588008
 20
357.5
 30
0.0
 40
5.0
100
AcDbArc
 50
270.0
 51
0.0
  0
ARC
  5
1FB
100
AcDbEntity
  8
ADF70-0402
370
              15
390
0
  6
Continuous
 62
               7
100
AcDbCircle
 10
-505.68664667558801
 20
357.5
 30
0.0
 40
5.0
100
AcDbArc
 50
180.0
 51
270.0
  0
LINE
  5
1FC
100
AcDbEntity
  8
ADF70-0402
370
              15
390
0
  6
Continuous
 62
               7
100
AcDbLine
 10
-65.686646675588008
 20
352.5
 30
0.0
 11
-505.68664667558801
 21
352.5
 31
0.0
  0
ARC
  5
1FD
100
AcDbEntity
  8
ADF70-0402
370
              15
390
0
  6
Continuous
 62
               7
100
AcDbCircle
 10
-65.686646675588008
 20
692.5
 30
0.0
 40
5.0
100
AcDbArc
 50
0.0
 51
90.0
  0
ARC
  5
1FE
100
AcDbEntity
  8
ADF70-0402
370
              15
390
0
  6
Continuous
 62
               7
100
AcDbCircle
 10
-147.55678754900759
 20
676.47039948572638
 30
0.0
 40
5.0
100
AcDbArc
 50
0.0
 51
90.0
  0
LINE
  5
1FF
100
AcDbEntity
  8
ADF70-0402
370
              15
390
0
  6
Continuous
 62
               7
100
AcDbLine
 10
-63.431544649602756
 20
696.96256819023256
 30
0.0
 11
-142.55678754900759
 21
681.47039948572638
 31
0.0
  0
ARC
  5
200
100
AcDbEntity
  8
ADF70-0402
370
              15
390
0
  6
Continuous
 62
               7
100
AcDbCircle
 10
-147.55678754900759
 20
439.37014087344141
 30
0.0
 40
5.0
100
AcDbArc
 50
270.0
 51
0.0
  0
LINE
  5
201
100
AcDbEntity
  8
ADF70-0402
370
              15
390
0
  6
Continuous
 62
               7
100
AcDbLine
 10
-142.55678754900759
 20
439.37014087344141
 30
0.0
 11
-142.55678754900759
 21
676.47039948572638
 31
0.0
  0
CIRCLE
  5
202
100
AcDbEntity
  8
ADF70-0402
370
              15
390
0
  6
STYLE_13
 62
               7
100
AcDbCircle
 10
-285.68664667558801
 20
762.5
 30
0.0
 40
17.5
  0
CIRCLE
  5
203
100
AcDbEntity
  8
ADF70-0402
370
              15
390
0
  6
Continuous
 62
               7
100
AcDbCircle
 10
-285.68664667558801
 20
627.5
 30
0.0
 40
37.5
  0
LWPOLYLINE
  5
204
100
AcDbEntity
  8
ADF70-0402
370
              15
390
0
  6
Continuous
 62
               7
100
AcDbPolyline
 90
        5
 70
             129
 10
-285.68664667558801
 20
604.5
 42
0.4142135623730922
 10
-262.68664667558801
 20
627.5
 42
0.414213562373095
 10
-285.68664667558801
 20
650.5
 42
0.414213562373098
 10
-308.68664667558801
 20
627.5
 42
0.414213562373095
 10
-285.68664667558801
 20
604.5
  0
ARC
  5
205
100
AcDbEntity
  8
ADF70-0402
370
              15
390
0
  6
Continuous
 62
               7
100
AcDbCircle
 10
-426.01598479015115
 20
676.47039948572638
 30
0.0
 40
5.0
100
AcDbArc
 50
90.0
 51
180.0
  0
ARC
  5
206
100
AcDbEntity
  8
ADF70-0402
370
              15
390
0
  6
Continuous
 62
               7
100
AcDbCircle
 10
-505.68664667558801
 20
692.5
 30
0.0
 40
5.0
100
AcDbArc
 50
90.0
 51
180.0
  0
LINE
  5
207
100
AcDbEntity
  8
ADF70-0402
370
              15
390
0
  6
Continuous
 62
               7
100
AcDbLine
 10
-507.96266101916149
 20
696.95193875832047
 30
0.0
 11
-431.01598479015115
 21
681.47039948572638
 31
0.0
  0
ARC
  5
208
100
AcDbEntity
  8
ADF70-0402
370
              15
390
0
  6
Continuous
 62
               7
100
AcDbCircle
 10
-426.01598479015115
 20
439.37014087344141
 30
0.0
 40
5.0
100
AcDbArc
 50
180.0
 51
270.0
  0
LINE
  5
209
100
AcDbEntity
  8
ADF70-0402
370
              15
390
0
  6
Continuous
 62
               7
100
AcDbLine
 10
-431.01598479015115
 20
676.47039948572638
 30
0.0
 11
-431.01598479015115
 21
439.37014087344141
 31
0.0
  0
LINE
  5
20A
100
AcDbEntity
  8
ADF70-0402
370
              15
390
0
  6
Continuous
 62
               7
100
AcDbLine
 10
-505.68664667558801
 20
697.5
 30
0.0
 11
-65.686646675588008
 21
697.5
 31
0.0
  0
LINE
  5
20B
100
AcDbEntity
  8
ADF70-0402
370
              15
390
0
  6
Continuous
 62
               7
100
AcDbLine
 10
-147.55678754900759
 20
434.37014087344141
 30
0.0
 11
-426.01598479015115
 21
434.37014087344141
 31
0.0
  0
LINE
  5
20C
100
AcDbEntity
  8
ADF70-0402
370
              15
390
0
  6
Continuous
 62
               7
100
AcDbLine
 10
-147.55678754900759
 20
681.47039948572638
 30
0.0
 11
-426.01598479015115
 21
681.47039948572638
 31
0.0
  0
LWPOLYLINE
  5
20D
100
AcDbEntity
  8
ADF70-0402
370
               5
390
0
  6
STYLE_13
 62
               7
100
AcDbPolyline
 90
        6
 70
             129
 10
133.75501999107826
 20
327.5
 42
-0.414213562373095
 10
128.75501999107826
 20
332.5
 10
128.75501999107826
 20
827.5
 10
878.75501999107632
 20
827.5
 10
878.75501999107632
 20
332.5
 42
-0.414213562373095
 10
873.75501999107632
 20
327.5
  0
LINE
  5
20E
100
AcDbEntity
  8
ADF70-0402
370
              15
390
0
  6
Continuous
 62
               7
100
AcDbLine
 10
818.75501999107632
 20
827.5
 30
0.0
 11
818.75501999107632
 21
377.5
 31
0.0
  0
CIRCLE
  5
20F
100
AcDbEntity
  8
ADF70-0402
370
               5
390
0
  6
STYLE_13
 62
               7
100
AcDbCircle
 10
628.75501999107632
 20
762.5
 30
0.0
 40
17.499999999999943
  0
LWPOLYLINE
  5
210
100
AcDbEntity
  8
ADF70-0402
370
               5
390
0
  6
STYLE_13
 62
               7
100
AcDbPolyline
 90
        5
 70
             129
 10
628.75501999107632
 20
604.5
 42
0.414213562373095
 10
651.75501999107632
 20
627.5
 42
0.414213562373095
 10
628.75501999107632
 20
650.5
 42
0.414213562373095
 10
605.75501999107644
 20
627.5
 42
0.4142135623730936
 10
628.75501999107632
 20
604.5
  0
LINE
  5
211
100
AcDbEntity
  8
ADF70-0402
370
              15
390
0
  6
Continuous
 62
               7
100
AcDbLine
 10
438.75501999107644
 20
377.5
 30
0.0
 11
438.75501999107644
 21
827.5
 31
0.0
  0
LINE
  5
212
100
AcDbEntity
  8
ADF70-0402
370
              15
390
0
  6
Continuous
 62
               7
100
AcDbLine
 10
438.75501999107644
 20
377.5
 30
0.0
 11
818.75501999107632
 21
377.5
 31
0.0
  0
LINE
  5
213
100
AcDbEntity
  8
ADF70-0402
370
              15
390
0
  6
Continuous
 62
               7
100
AcDbLine
 10
102.78512396679685
 20
827.5
 30
0.0
 11
908.78512396679707
 21
827.5
 31
0.0
  0
LINE
  5
214
100
AcDbEntity
  8
ADF70-0402
370
              15
390
0
  6
Continuous
 62
               7
100
AcDbLine
 10
905.60391720431846
 20
865.07068533131815
 30
0.0
 11
868.60391720431835
 21
828.07068533131815
 31
0.0
  0
LINE
  5
215
100
AcDbEntity
  8
ADF70-0402
370
              15
390
0
  6
Continuous
 62
               7
100
AcDbLine
 10
885.60391720431846
 20
865.07068533131815
 30
0.0
 11
848.60391720431835
 21
828.07068533131815
 31
0.0
  0
LINE
  5
216
100
AcDbEntity
  8
ADF70-0402
370
              15
390
0
  6
Continuous
 62
               7
100
AcDbLine
 10
865.60391720431835
 20
865.07068533131815
 30
0.0
 11
828.60391720431835
 21
828.07068533131815
 31
0.0
  0
CIRCLE
  5
217
100
AcDbEntity
  8
ADF70-0402
370
              15
390
0
  6
STYLE_13
 62
               7
100
AcDbCircle
 10
-185.68664667558801
 20
762.5
 30
0.0
 40
17.5
  0
CIRCLE
  5
218
100
AcDbEntity
  8
ADF70-0402
370
              15
390
0
  6
STYLE_13
 62
               7
100
AcDbCircle
 10
-385.68664667558801
 20
762.5
 30
0.0
 40
17.5
  0
LINE
  5
219
100
AcDbEntity
  8
ADF70-0402
370
              15
390
0
  6
Continuous
 62
               7
100
AcDbLine
 10
438.75501999107644
 20
827.5
 30
0.0
 11
818.75501999107632
 21
827.5
 31
0.0
  0
LINE
  5
21A
100
AcDbEntity
  8
ADF70-0402
370
              15
390
0
  6
Continuous
 62
               7
100
AcDbLine
 10
-35.686646675587781
 20
-392.27227113972572
 30
0.0
 11
-35.686646675587781
 21
-479.47227113972554
 31
0.0
  0
LINE
  5
21B
100
AcDbEntity
  8
ADF70-0402
370
              15
390
0
  6
Continuous
 62
               7
100
AcDbLine
 10
-781.7866547012477
 20
-483.37227113972563
 30
0.0
 11
-39.586646675587417
 21
-483.37227113972563
 31
0.0
  0
LINE
  5
21C
100
AcDbEntity
  8
ADF70-0402
370
              15
390
0
  6
Continuous
 62
               7
100
AcDbLine
 10
-781.7866547012477
 20
-388.37227113972563
 30
0.0
 11
-39.586646675587417
 21
-388.37227113972563
 31
0.0
  0
LINE
  5
21D
100
AcDbEntity
  8
ADF70-0402
370
              15
390
0
  6
Continuous
 62
               7
100
AcDbLine
 10
-109.58664667558742
 20
-578.37227113972654
 30
0.0
 11
-451.78664667558814
 21
-578.37227113972654
 31
0.0
  0
POLYLINE
  5
21E
100
AcDbEntity
  8
ADF70-0402
370
              15
390
0
  6
Continuous
 62
               7
100
AcDb2dPolyline
 66
               1
 10
0.0
 20
0.0
 30
0.0
 75
               5
  0
VERTEX
  5
21F
100
AcDbEntity
  8
ADF70-0402
370
              15
390
0
  6
Continuous
 62
               7
100
AcDbVertex
100
AcDb2dVertex
 10
-455.68664667558778
 20
-574.4722711397269
 30
0.0
  0
VERTEX
  5
220
100
AcDbEntity
  8
ADF70-0402
370
              15
390
0
  6
Continuous
 62
               7
100
AcDbVertex
100
AcDb2dVertex
 10
-455.68664667558778
 20
-483.37227113972563
 30
0.0
  0
VERTEX
  5
221
100
AcDbEntity
  8
ADF70-0402
370
              15
390
0
  6
Continuous
 62
               7
100
AcDbVertex
100
AcDb2dVertex
 10
-105.68664667558778
 20
-483.37227113972563
 30
0.0
  0
VERTEX
  5
222
100
AcDbEntity
  8
ADF70-0402
370
              15
390
0
  6
Continuous
 62
               7
100
AcDbVertex
100
AcDb2dVertex
 10
-105.68664667558778
 20
-574.4722711397269
 30
0.0
  0
SEQEND
  5
223
100
AcDbEntity
  8
ADF70-0402
370
              15
390
0
  6
Continuous
 62
               7
  0
ARC
  5
224
100
AcDbEntity
  8
ADF70-0402
370
              15
390
0
  6
Continuous
 62
               7
100
AcDbCircle
 10
-781.78664667558542
 20
-392.27227113972572
 30
0.0
 40
3.9000000000000909
100
AcDbArc
 50
90.0
 51
180.0
  0
ARC
  5
225
100
AcDbEntity
  8
ADF70-0402
370
              15
390
0
  6
Continuous
 62
               7
100
AcDbCircle
 10
-781.78664667558542
 20
-479.47227113972554
 30
0.0
 40
3.9000000000005457
100
AcDbArc
 50
180.0
 51
270.0
  0
ARC
  5
226
100
AcDbEntity
  8
ADF70-0402
370
              15
390
0
  6
Continuous
 62
               7
100
AcDbCircle
 10
-39.586646675587417
 20
-392.27227113972572
 30
0.0
 40
3.8999999999996362
100
AcDbArc
 50
0.0
 51
90.0
  0
ARC
  5
227
100
AcDbEntity
  8
ADF70-0402
370
              15
390
0
  6
Continuous
 62
               7
100
AcDbCircle
 10
-39.586646675587417
 20
-479.47227113972554
 30
0.0
 40
3.9000000000000909
100
AcDbArc
 50
270.0
 51
0.0
  0
ARC
  5
228
100
AcDbEntity
  8
ADF70-0402
370
              15
390
0
  6
Continuous
 62
               7
100
AcDbCircle
 10
-109.58664667558742
 20
-574.47227113972644
 30
0.0
 40
3.9000000000000909
100
AcDbArc
 50
270.0
 51
359.99999999999335
  0
ARC
  5
229
100
AcDbEntity
  8
ADF70-0402
370
              15
390
0
  6
Continuous
 62
               7
100
AcDbCircle
 10
-451.78664667558814
 20
-574.4722711397269
 30
0.0
 40
3.8999999999996362
100
AcDbArc
 50
180.0
 51
270.0
  0
LINE
  5
22A
100
AcDbEntity
  8
ADF70-0402
370
              15
390
0
  6
Continuous
 62
               7
100
AcDbLine
 10
-785.68664667558596
 20
-392.27227113972572
 30
0.0
 11
-785.68664667558596
 21
-479.47227113972554
 31
0.0
  0
LINE
  5
22B
100
AcDbEntity
  8
ADF70-0402
370
              15
390
0
  6
Continuous
 62
               7
100
AcDbLine
 10
-35.686646675587781
 20
-393.39784644185988
 30
0.0
 11
-35.686646675587781
 21
-478.34669583759137
 31
0.0
  0
ARC
  5
22C
100
AcDbEntity
  8
ADF70-0402
370
              15
390
0
  6
STYLE_13
 62
               7
100
AcDbCircle
 10
-59.281378305145608
 20
-394.39784643121016
 30
0.0
 40
5.9999999893502718
100
AcDbArc
 50
90.000000052943975
 51
145.00000009456502
  0
LINE
  5
22D
100
AcDbEntity
  8
ADF70-0402
370
              15
390
0
  6
STYLE_13
 62
               7
100
AcDbLine
 10
-146.34520063818991
 20
-503.44361662648839
 30
0.0
 11
-128.88868058963953
 21
-483.34669583759137
 31
0.0
  0
ARC
  5
22E
100
AcDbEntity
  8
ADF70-0402
370
              15
390
0
  6
STYLE_13
 62
               7
100
AcDbCircle
 10
-174.75023085609018
 20
-482.99479604025942
 30
0.0
 40
35.000000072108193
100
AcDbArc
 50
274.50218946850276
 51
325.0000000162928
  0
LINE
  5
22F
100
AcDbEntity
  8
ADF70-0402
370
              15
390
0
  6
STYLE_13
 62
               7
100
AcDbLine
 10
-240.51104167344192
 20
-527.49948070149298
 30
0.0
 11
-172.00282915473645
 21
-517.88679783062639
 31
0.0
  0
ARC
  5
230
100
AcDbEntity
  8
ADF70-0402
370
              15
390
0
  6
STYLE_13
 62
               7
100
AcDbCircle
 10
-502.09191504602995
 20
-394.39784643121016
 30
0.0
 40
5.9999999893505382
100
AcDbArc
 50
34.999999905434976
 51
89.999999947056025
  0
LINE
  5
231
100
AcDbEntity
  8
ADF70-0402
370
              15
390
0
  6
STYLE_13
 62
               7
100
AcDbLine
 10
-415.32716198881599
 20
-503.09931137377794
 30
0.0
 11
-432.48461276153603
 21
-483.34669583759137
 31
0.0
  0
ARC
  5
232
100
AcDbEntity
  8
ADF70-0402
370
              15
390
0
  6
STYLE_13
 62
               7
100
AcDbCircle
 10
-386.62306249508538
 20
-482.99479604025942
 30
0.0
 40
35.000000072108023
100
AcDbArc
 50
214.9999999837072
 51
265.49781053149729
  0
LINE
  5
233
100
AcDbEntity
  8
ADF70-0402
370
              15
390
0
  6
STYLE_13
 62
               7
100
AcDbLine
 10
-320.94863727281472
 20
-527.54094235190973
 30
0.0
 11
-389.37046419643912
 21
-517.88679783062639
 31
0.0
  0
LINE
  5
234
100
AcDbEntity
  8
ADF70-0402
370
              15
390
0
  6
STYLE_13
 62
               7
100
AcDbLine
 10
-215.68664667558778
 20
-448.41373278967217
 30
0.0
 11
-215.68664667558778
 21
-408.41373278967217
 31
0.0
  0
INSERT
  5
235
100
AcDbEntity
  8
ADF70-0402
390
0
 62
               7
100
AcDbBlockReference
  2
グループ-1
 10
1131.3060327461899
 20
1428.2846354282578
 30
0.0
  0
INSERT
  5
236
100
AcDbEntity
  8
ADF70-0402
390
0
 62
               7
100
AcDbBlockReference
  2
グループ-3
 10
1131.3060327461899
 20
1428.2846354282578
 30
0.0
  0
LINE
  5
237
100
AcDbEntity
  8
ADF70-0402
370
              15
390
0
  6
STYLE_13
 62
               7
100
AcDbLine
 10
-318.13427247096979
 20
-528.69472869193919
 30
0.0
 11
-243.37481854606949
 21
-528.69472869193919
 31
0.0
  0
LINE
  5
238
100
AcDbEntity
  8
ADF70-0402
370
              15
390
0
  6
STYLE_13
 62
               7
100
AcDbLine
 10
-235.68664667558778
 20
-428.41373278967217
 30
0.0
 11
-195.68664667558778
 21
-428.41373278967217
 31
0.0
  0
CIRCLE
  5
239
100
AcDbEntity
  8
ADF70-0402
370
              15
390
0
  6
STYLE_13
 62
               7
100
AcDbCircle
 10
-215.68664667558778
 20
-428.41373278967217
 30
0.0
 40
10.000000000000057
  0
LINE
  5
23A
100
AcDbEntity
  8
ADF70-0402
370
              15
390
0
  6
STYLE_13
 62
               7
100
AcDbLine
 10
-345.68664667558778
 20
-448.41373278967217
 30
0.0
 11
-345.68664667558778
 21
-408.41373278967217
 31
0.0
  0
LINE
  5
23B
100
AcDbEntity
  8
ADF70-0402
370
              15
390
0
  6
STYLE_13
 62
               7
100
AcDbLine
 10
-365.68664667558778
 20
-428.41373278967217
 30
0.0
 11
-325.68664667558778
 21
-428.41373278967217
 31
0.0
  0
CIRCLE
  5
23C
100
AcDbEntity
  8
ADF70-0402
370
              15
390
0
  6
STYLE_13
 62
               7
100
AcDbCircle
 10
-345.68664667558778
 20
-428.41373278967217
 30
0.0
 40
10.000000000000057
  0
LINE
  5
23D
100
AcDbEntity
  8
ADF70-0402
370
              15
390
0
  6
STYLE_13
 62
               7
100
AcDbLine
 10
-615.68664667558778
 20
-448.41373278967217
 30
0.0
 11
-615.68664667558778
 21
-408.41373278967217
 31
0.0
  0
LINE
  5
23E
100
AcDbEntity
  8
ADF70-0402
370
              15
390
0
  6
STYLE_13
 62
               7
100
AcDbLine
 10
-635.68664667558778
 20
-428.41373278967217
 30
0.0
 11
-595.68664667558778
 21
-428.41373278967217
 31
0.0
  0
CIRCLE
  5
23F
100
AcDbEntity
  8
ADF70-0402
370
              15
390
0
  6
STYLE_13
 62
               7
100
AcDbCircle
 10
-615.68664667558778
 20
-428.41373278967217
 30
0.0
 40
10.000000000000057
  0
LINE
  5
240
100
AcDbEntity
  8
ADF70-0402
370
              15
390
0
  6
STYLE_13
 62
               7
100
AcDbLine
 10
-257.72941534207666
 20
-573.54392767558443
 30
0.0
 11
-303.73026360417998
 21
-573.58538932600118
 31
0.0
  0
ARC
  5
241
100
AcDbEntity
  8
ADF70-0402
370
              15
390
0
  6
Continuous
 62
               7
100
AcDbCircle
 10
773.82350599263827
 20
-574.57170004647219
 30
0.0
 40
3.8601641334018524
100
AcDbArc
 50
267.91748992096393
 51
0.8624465713079417
  0
LINE
  5
242
100
AcDbEntity
  8
ADF70-0402
370
              15
390
0
  6
STYLE_13
 62
               7
100
AcDbLine
 10
540.18323281875655
 20
-528.58189201454798
 30
0.0
 11
615.1832328187561
 21
-528.58189201454798
 31
0.0
  0
LINE
  5
243
100
AcDbEntity
  8
ADF70-0402
370
              15
390
0
  6
STYLE_13
 62
               7
100
AcDbLine
 10
600.69804003333138
 20
-540.736411958394
 30
0.0
 11
554.69808004309743
 21
-540.76129498094679
 31
0.0
  0
POLYLINE
  5
244
100
AcDbEntity
  8
ADF70-0402
370
              15
390
0
  6
STYLE_13
 62
               7
100
AcDb2dPolyline
 66
               1
 10
0.0
 20
0.0
 30
0.0
 70
               1
 75
               5
  0
VERTEX
  5
245
100
AcDbEntity
  8
ADF70-0402
370
              15
390
0
  6
STYLE_13
 62
               7
100
AcDbVertex
100
AcDb2dVertex
 10
554.69808004309743
 20
-573.42931466723735
 30
0.0
  0
VERTEX
  5
246
100
AcDbEntity
  8
ADF70-0402
370
              15
390
0
  6
STYLE_13
 62
               7
100
AcDbVertex
100
AcDb2dVertex
 10
554.69808004309743
 20
-540.76129498094679
 30
0.0
  0
VERTEX
  5
247
100
AcDbEntity
  8
ADF70-0402
370
              15
390
0
  6
STYLE_13
 62
               7
100
AcDbVertex
100
AcDb2dVertex
 10
554.69808004309743
 20
-540.76129498094679
 30
0.0
  0
VERTEX
  5
248
100
AcDbEntity
  8
ADF70-0402
370
              15
390
0
  6
STYLE_13
 62
               7
100
AcDbVertex
100
AcDb2dVertex
 10
554.69808004309743
 20
-540.76129498094679
 30
0.0
  0
VERTEX
  5
249
100
AcDbEntity
  8
ADF70-0402
370
              15
390
0
  6
STYLE_13
 62
               7
100
AcDbVertex
100
AcDb2dVertex
 10
554.69808004309743
 20
-573.42931466723735
 30
0.0
  0
SEQEND
  5
24A
100
AcDbEntity
  8
ADF70-0402
370
              15
390
0
  6
STYLE_13
 62
               7
  0
LINE
  5
24B
100
AcDbEntity
  8
ADF70-0402
370
              15
390
0
  6
STYLE_13
 62
               7
100
AcDbLine
 10
600.69804003333184
 20
-540.736411958394
 30
0.0
 11
600.69804003333184
 21
-573.42931466723735
 31
0.0
  0
LINE
  5
24C
100
AcDbEntity
  8
ADF70-0402
370
              15
390
0
  6
STYLE_13
 62
               7
100
AcDbLine
 10
615.07239447530083
 20
-528.67489643973158
 30
0.0
 11
600.69804003333184
 21
-540.736411958394
 31
0.0
  0
ARC
  5
24D
100
AcDbEntity
  8
ADF70-0402
370
              15
390
0
  6
STYLE_13
 62
               7
100
AcDbCircle
 10
618.28633252461486
 20
-532.50511864296368
 30
0.0
 40
4.9999999910955184
100
AcDbArc
 50
94.583659735691768
 51
130.00000009880921
  0
LINE
  5
24E
100
AcDbEntity
  8
ADF70-0402
370
              15
390
0
  6
STYLE_13
 62
               7
100
AcDbLine
 10
622.77662528678775
 20
-527.12908437271335
 30
0.0
 11
617.88675928385419
 21
-527.52111010201679
 31
0.0
  0
ARC
  5
24F
100
AcDbEntity
  8
ADF70-0402
370
              15
390
0
  6
STYLE_13
 62
               7
100
AcDbCircle
 10
621.17833238525827
 20
-507.1930501645852
 30
0.0
 40
20.000000003668834
100
AcDbArc
 50
274.58365954987039
 51
356.50986487526569
  0
LINE
  5
250
100
AcDbEntity
  8
ADF70-0402
370
              15
390
0
  6
STYLE_13
 62
               7
100
AcDbLine
 10
647.38524301202642
 20
-394.19958125963103
 30
0.0
 11
641.14123828156926
 21
-508.4105838691562
 31
0.0
  0
LINE
  5
251
100
AcDbEntity
  8
ADF70-0402
370
              15
390
0
  6
Continuous
 62
               7
100
AcDbLine
 10
773.6832328187561
 20
-578.42931466868163
 30
0.0
 11
367.53012652278767
 21
-578.42931466868163
 31
0.0
  0
ARC
  5
252
100
AcDbEntity
  8
ADF70-0402
370
              15
390
0
  6
Continuous
 62
               7
100
AcDbCircle
 10
367.53012652506095
 20
-575.51359699780755
 30
0.0
 40
2.9999999976053884
100
AcDbArc
 50
182.99999997271101
 51
269.99999995658351
  0
LINE
  5
253
100
AcDbEntity
  8
ADF70-0402
370
              15
390
0
  6
Continuous
 62
               7
100
AcDbLine
 10
360.71336020301487
 20
-502.76391521191135
 30
0.0
 11
364.53423792311378
 21
-575.67060486498417
 31
0.0
  0
ARC
  5
254
100
AcDbEntity
  8
ADF70-0402
370
              15
390
0
  6
Continuous
 62
               7
100
AcDbCircle
 10
340.74076952204769
 20
-503.81063433591953
 30
0.0
 40
19.999999985850984
100
AcDbArc
 50
2.9999999996832236
 51
90.000000000525006
  0
LINE
  5
255
100
AcDbEntity
  8
ADF70-0402
370
              15
390
0
  6
Continuous
 62
               7
100
AcDbLine
 10
282.68323281875655
 20
-483.81063435006854
 30
0.0
 11
777.6832328187561
 21
-483.81063435006854
 31
0.0
  0
ARC
  5
256
100
AcDbEntity
  8
ADF70-0402
370
              15
390
0
  6
Continuous
 62
               7
100
AcDbCircle
 10
282.68323281875655
 20
-478.81063435006854
 30
0.0
 40
5.0
100
AcDbArc
 50
180.0
 51
270.0
  0
LINE
  5
257
100
AcDbEntity
  8
ADF70-0402
370
              15
390
0
  6
Continuous
 62
               7
100
AcDbLine
 10
277.68323281875655
 20
-393.42931466868185
 30
0.0
 11
277.68323281875655
 21
-478.81063435006854
 31
0.0
  0
LWPOLYLINE
  5
258
100
AcDbEntity
  8
ADF70-0402
370
              15
390
0
  6
STYLE_13
 62
               7
100
AcDbPolyline
 90
        8
 70
             128
 10
554.69808004309743
 20
-540.69299996181189
 10
540.18323281875655
 20
-528.51359699541308
 10
540.29407117630626
 20
-528.60660142070674
 42
0.155774906197258
 10
537.47970637446815
 20
-527.45281508068183
 10
415.28128136781106
 20
-517.83089184785149
 42
-0.2239746283263849
 10
389.35836145427402
 20
-503.01406536297782
 10
307.47474278091113
 20
-391.07213838087773
 42
0.2446984434215517
 10
302.55983052376496
 20
-388.51359699541308
 42
0.2446984434215517
  0
LINE
  5
259
100
AcDbEntity
  8
ADF70-0402
370
              15
390
0
  6
Continuous
 62
               7
100
AcDbLine
 10
696.20572630305423
 20
-388.61560181733785
 30
0.0
 11
696.20572630305423
 21
-403.61560181733785
 31
0.0
  0
ARC
  5
25A
100
AcDbEntity
  8
ADF70-0402
370
              15
390
0
  6
STYLE_13
 62
               7
100
AcDbCircle
 10
653.3770202237306
 20
-394.51359699866839
 30
0.0
 40
6.0000000032548542
100
AcDbArc
 50
89.999999970509961
 51
176.99999998652765
  0
LINE
  5
25B
100
AcDbEntity
  8
ADF70-0402
370
              15
390
0
  6
Continuous
 62
               7
100
AcDbLine
 10
731.20604003333165
 20
-388.51359699541308
 30
0.0
 11
731.20604003333165
 21
-403.51359699541308
 31
0.0
  0
LINE
  5
25C
100
AcDbEntity
  8
ADF70-0402
370
              15
390
0
  6
Continuous
 62
               7
100
AcDbLine
 10
777.6832328187561
 20
-574.51359699541285
 30
0.0
 11
777.6832328187561
 21
-391.42931466868185
 31
0.0
  0
LINE
  5
25D
100
AcDbEntity
  8
ADF70-0402
370
              15
390
0
  6
Continuous
 62
               7
100
AcDbLine
 10
774.6832328187561
 20
-388.42931466868185
 30
0.0
 11
282.68323281875655
 21
-388.42931466868185
 31
0.0
  0
ARC
  5
25E
100
AcDbEntity
  8
ADF70-0402
370
              15
390
0
  6
Continuous
 62
               7
100
AcDbCircle
 10
774.6832328187561
 20
-391.42931466868231
 30
0.0
 40
3.0
100
AcDbArc
 50
0.0
 51
90.0
  0
ARC
  5
25F
100
AcDbEntity
  8
ADF70-0402
370
              15
390
0
  6
Continuous
 62
               7
100
AcDbCircle
 10
282.68323281875655
 20
-393.42931466868185
 30
0.0
 40
5.0
100
AcDbArc
 50
90.0
 51
180.0
  0
LINE
  5
260
100
AcDbEntity
  8
ADF70-0402
370
              15
390
0
  6
STYLE_13
 62
               7
100
AcDbLine
 10
554.69808004309743
 20
-573.42931466723735
 30
0.0
 11
600.69804003333184
 21
-573.42931466723735
 31
0.0
  0
CIRCLE
  5
261
100
AcDbEntity
  8
ADF70-0402
370
              15
390
0
  6
STYLE_13
 62
               7
100
AcDbCircle
 10
728.75501999107632
 20
762.5
 30
0.0
 40
17.499999999999943
  0
CIRCLE
  5
262
100
AcDbEntity
  8
ADF70-0402
370
              15
390
0
  6
STYLE_13
 62
               7
100
AcDbCircle
 10
528.75501999107632
 20
762.5
 30
0.0
 40
17.5
  0
ENDSEC
  0
SECTION
  2
OBJECTS
  0
DICTIONARY
  5
19
100
AcDbDictionary
280
               0
281
               1
  3
ACAD_GROUP
350
1A
  3
ACAD_MLINESTYLE
350
1B
  3
ACAD_LAYOUT
350
1E
  3
ACAD_PLOTSETTINGS
350
22
  3
ACAD_PLOTSTYLENAME
350
1F
  0
DICTIONARY
  5
1A
102
{ACAD_REACTORS
330
19
102
}
100
AcDbDictionary
280
               0
281
               1
  0
DICTIONARY
  5
1B
102
{ACAD_REACTORS
330
19
102
}
100
AcDbDictionary
280
               0
281
               1
  3
Standard
350
1C
  0
MLINESTYLE
  5
1C
102
{ACAD_REACTORS
330
1B
102
}
100
AcDbMlineStyle
  2
Standard
 70
               0
  3

 62
               0
 51
90.0
 52
90.0
 71
               2
 49
0.5
 62
             256
  6
ByLayer
 49
-0.5
 62
             256
  6
ByLayer
  0
ACDBDICTIONARYWDFLT
  5
1F
102
{ACAD_REACTORS
330
19
102
}
100
AcDbDictionary
281
               1
  3
Normal
350
1D
100
AcDbDictionaryWithDefault
340
1D
  0
ACDBPLACEHOLDER
  5
1D
102
{ACAD_REACTORS
330
1F
102
}
  0
LAYOUT
  5
20
102
{ACAD_REACTORS
330
1E
102
}
100
AcDbPlotSettings
  1

  2

  4

  6

 40
0.0
 41
0.0
 42
0.0
 43
0.0
 44
0.0
 45
0.0
 46
0.0
 47
0.0
 48
0.0
 49
0.0
140
0.0
141
0.0
142
1.0
143
1.0
 70
            1024
 72
               0
 73
               0
 74
               0
  7

 75
               0
147
1.0
148
0.0
149
0.0
100
AcDbLayout
  1
Model
 70
               0
 71
               0
 10
0.0
 20
0.0
 11
0.0
 21
0.0
 12
0.0
 22
0.0
 32
0.0
 14
0.0
 24
0.0
 34
0.0
 15
0.0
 25
0.0
 35
0.0
146
0.0
 13
0.0
 23
0.0
 33
0.0
 16
0.0
 26
0.0
 36
0.0
 17
0.0
 27
0.0
 37
0.0
 76
               0
330
A
331
0
345
0
346
0
  0
LAYOUT
  5
21
102
{ACAD_REACTORS
330
1E
102
}
100
AcDbPlotSettings
  1

  2

  4

  6

 40
0.0
 41
0.0
 42
0.0
 43
0.0
 44
0.0
 45
0.0
 46
0.0
 47
0.0
 48
0.0
 49
0.0
140
0.0
141
0.0
142
1.0
143
1.0
 70
               0
 72
               0
 73
               0
 74
               0
  7

 75
               0
147
1.0
148
0.0
149
0.0
100
AcDbLayout
  1
Layout1
 70
               0
 71
               0
 10
0.0
 20
0.0
 11
0.0
 21
0.0
 12
0.0
 22
0.0
 32
0.0
 14
0.0
 24
0.0
 34
0.0
 15
0.0
 25
0.0
 35
0.0
146
0.0
 13
0.0
 23
0.0
 33
0.0
 16
0.0
 26
0.0
 36
0.0
 17
0.0
 27
0.0
 37
0.0
 76
               0
330
B
331
0
345
0
346
0
  0
DICTIONARY
  5
1E
102
{ACAD_REACTORS
330
19
102
}
100
AcDbDictionary
280
               0
281
               1
  3
Layout1
350
21
  3
Model
350
20
  0
DICTIONARY
  5
22
102
{ACAD_REACTORS
330
19
102
}
100
AcDbDictionary
280
               0
281
               1
  0
ENDSEC
  0
EOF
