  0
SECTION
  2
HEADER
  9
$ACADVER
  1
AC1015
  9
$ACADMAINTVER
 70
               6
  9
$DWGCODEPAGE
  3
ANSI_932
  9
$INSBASE
 10
0.0
 20
0.0
 30
0.0
  9
$EXTMIN
 10
-1050.0
 20
-1485.0
 30
-14.834305555555552
  9
$EXTMAX
 10
1049.9999999999998
 20
1485.0
 30
14.834305555555552
  9
$LIMMIN
 10
0.0
 20
0.0
  9
$LIMMAX
 10
0.0
 20
0.0
  9
$ORTHOMODE
 70
               0
  9
$REGENMODE
 70
               1
  9
$FILLMODE
 70
               1
  9
$QTEXTMODE
 70
               0
  9
$MIRRTEXT
 70
               1
  9
$LTSCALE
 40
5.0800000000000001
  9
$ATTMODE
 70
               1
  9
$TEXTSIZE
 40
0.2
  9
$TRACEWID
 40
1.0
  9
$TEXTSTYLE
  7
Standard
  9
$CLAYER
  8
ADF70-0404
  9
$CELTYPE
  6
Continuous
  9
$CECOLOR
 62
             256
  9
$CELTSCALE
 40
1.0
  9
$DISPSILH
 70
               0
  9
$DIMSCALE
 40
1.0
  9
$DIMASZ
 40
22.4482421875
  9
$DIMEXO
 40
15.875
  9
$DIMDLI
 40
10.16
  9
$DIMRND
 40
0.0
  9
$DIMDLE
 40
1.5874999999999999
  9
$DIMEXE
 40
31.75
  9
$DIMTP
 40
0.0
  9
$DIMTM
 40
0.0
  9
$DIMTXT
 40
21.828125
  9
$DIMCEN
 40
0.0
  9
$DIMTSZ
 40
0.0
  9
$DIMTOL
 70
               0
  9
$DIMLIM
 70
               0
  9
$DIMTIH
 70
               0
  9
$DIMTOH
 70
               0
  9
$DIMSE1
 70
               0
  9
$DIMSE2
 70
               0
  9
$DIMTAD
 70
               1
  9
$DIMZIN
 70
              11
  9
$DIMBLK
  1
VW_SLASH
  9
$DIMASO
 70
               1
  9
$DIMSHO
 70
               1
  9
$DIMPOST
  1
<>
  9
$DIMAPOST
  1
[]
  9
$DIMALT
 70
               0
  9
$DIMALTD
 70
               1
  9
$DIMALTF
 40
1.0
  9
$DIMLFAC
 40
1.0
  9
$DIMTOFL
 70
               1
  9
$DIMTVP
 40
0.0
  9
$DIMTIX
 70
               1
  9
$DIMSOXD
 70
               0
  9
$DIMSAH
 70
               0
  9
$DIMBLK1
  1

  9
$DIMBLK2
  1

  9
$DIMSTYLE
  2
Arch
  9
$DIMCLRD
 70
               0
  9
$DIMCLRE
 70
               0
  9
$DIMCLRT
 70
               0
  9
$DIMTFAC
 40
1.0
  9
$DIMGAP
 40
1.5874999999999999
  9
$DIMJUST
 70
               0
  9
$DIMSD1
 70
               0
  9
$DIMSD2
 70
               0
  9
$DIMTOLJ
 70
               1
  9
$DIMTZIN
 70
              11
  9
$DIMALTZ
 70
              11
  9
$DIMALTTZ
 70
              11
  9
$DIMUPT
 70
               0
  9
$DIMDEC
 70
               1
  9
$DIMTDEC
 70
               1
  9
$DIMALTU
 70
               2
  9
$DIMALTTD
 70
               2
  9
$DIMTXSTY
  7
MS UI Gothic
  9
$DIMAUNIT
 70
               0
  9
$DIMADEC
 70
               2
  9
$DIMALTRND
 40
0.0
  9
$DIMAZIN
 70
               0
  9
$DIMDSEP
 70
              46
  9
$DIMATFIT
 70
               0
  9
$DIMFRAC
 70
               2
  9
$DIMLDRBLK
  1

  9
$DIMLUNIT
 70
               2
  9
$DIMLWD
 70
              -2
  9
$DIMLWE
 70
              -2
  9
$DIMTMOVE
 70
               0
  9
$LUNITS
 70
               2
  9
$LUPREC
 70
               4
  9
$SKETCHINC
 40
0.1
  9
$FILLETRAD
 40
0.0
  9
$AUNITS
 70
               0
  9
$AUPREC
 70
               0
  9
$MENU
  1
acad
  9
$ELEVATION
 40
0.0
  9
$PELEVATION
 40
0.0
  9
$THICKNESS
 40
0.0
  9
$LIMCHECK
 70
               0
  9
$CHAMFERA
 40
0.0
  9
$CHAMFERB
 40
0.0
  9
$CHAMFERC
 40
0.0
  9
$CHAMFERD
 40
0.0
  9
$SKPOLY
 70
               0
  9
$TDCREATE
 40
2455995.610925926
  9
$TDUCREATE
 40
0.000000000
  9
$TDUPDATE
 40
2455995.610925926
  9
$TDUUPDATE
 40
0.000000000
  9
$TDINDWG
 40
0.0000000000
  9
$TDUSRTIMER
 40
0.0000000000
  9
$USRTIMER
 70
               1
  9
$ANGBASE
 50
0.0
  9
$ANGDIR
 70
               0
  9
$PDMODE
 70
               1
  9
$PDSIZE
 40
-2.0
  9
$PLINEWID
 40
0.0
  9
$SPLFRAME
 70
               0
  9
$SPLINETYPE
 70
               6
  9
$SPLINESEGS
 70
               8
  9
$HANDSEED
  5
2AE
  9
$SURFTAB1
 70
               6
  9
$SURFTAB2
 70
               6
  9
$SURFTYPE
 70
               6
  9
$SURFU
 70
               6
  9
$SURFV
 70
               6
  9
$UCSBASE
  2

  9
$UCSNAME
  2

  9
$UCSORG
 10
0.0
 20
0.0
 30
0.0
  9
$UCSXDIR
 10
1.0
 20
0.0
 30
0.0
  9
$UCSYDIR
 10
0.0
 20
1.0
 30
0.0
  9
$UCSORTHOREF
  2

  9
$UCSORTHOVIEW
 70
               0
  9
$UCSORGTOP
 10
0.0
 20
0.0
 30
0.0
  9
$UCSORGBOTTOM
 10
0.0
 20
0.0
 30
0.0
  9
$UCSORGLEFT
 10
0.0
 20
0.0
 30
0.0
  9
$UCSORGRIGHT
 10
0.0
 20
0.0
 30
0.0
  9
$UCSORGFRONT
 10
0.0
 20
0.0
 30
0.0
  9
$UCSORGBACK
 10
0.0
 20
0.0
 30
0.0
  9
$PUCSBASE
  2

  9
$PUCSNAME
  2

  9
$PUCSORG
 10
0.0
 20
0.0
 30
0.0
  9
$PUCSXDIR
 10
1.0
 20
0.0
 30
0.0
  9
$PUCSYDIR
 10
0.0
 20
1.0
 30
0.0
  9
$PUCSORTHOREF
  2

  9
$PUCSORTHOVIEW
 70
               0
  9
$PUCSORGTOP
 10
0.0
 20
0.0
 30
0.0
  9
$PUCSORGBOTTOM
 10
0.0
 20
0.0
 30
0.0
  9
$PUCSORGLEFT
 10
0.0
 20
0.0
 30
0.0
  9
$PUCSORGRIGHT
 10
0.0
 20
0.0
 30
0.0
  9
$PUCSORGFRONT
 10
0.0
 20
0.0
 30
0.0
  9
$PUCSORGBACK
 10
0.0
 20
0.0
 30
0.0
  9
$USERI1
 70
               0
  9
$USERI2
 70
               0
  9
$USERI3
 70
               0
  9
$USERI4
 70
               0
  9
$USERI5
 70
               0
  9
$USERR1
 40
0.0
  9
$USERR2
 40
0.0
  9
$USERR3
 40
0.0
  9
$USERR4
 40
0.0
  9
$USERR5
 40
0.0
  9
$WORLDVIEW
 70
               1
  9
$SHADEDGE
 70
               3
  9
$SHADEDIF
 70
              70
  9
$TILEMODE
 70
               1
  9
$MAXACTVP
 70
              64
  9
$PINSBASE
 10
0.0
 20
0.0
 30
0.0
  9
$PLIMCHECK
 70
               0
  9
$PEXTMIN
 10
1.0000000000000000E+20
 20
1.0000000000000000E+20
 30
1.0000000000000000E+20
  9
$PEXTMAX
 10
-1.0000000000000000E+20
 20
-1.0000000000000000E+20
 30
-1.0000000000000000E+20
  9
$PLIMMIN
 10
0.0
 20
0.0
  9
$PLIMMAX
 10
12.0
 20
9.0
  9
$UNITMODE
 70
               0
  9
$VISRETAIN
 70
               0
  9
$PLINEGEN
 70
               1
  9
$PSLTSCALE
 70
               0
  9
$TREEDEPTH
 70
            3020
  9
$CMLSTYLE
  2
Standard
  9
$CMLJUST
 70
               0
  9
$CMLSCALE
 40
1.0
  9
$PROXYGRAPHICS
 70
               0
  9
$MEASUREMENT
 70
               1
  9
$CELWEIGHT
370
               0
  9
$ENDCAPS
280
               0
  9
$JOINSTYLE
280
               0
  9
$LWDISPLAY
290
               1
  9
$INSUNITS
 70
               4
  9
$HYPERLINKBASE
  1

  9
$STYLESHEET
  1

  9
$XEDIT
290
               1
  9
$CEPSNTYPE
380
               0
  9
$PSTYLEMODE
290
               1
  9
$FINGERPRINTGUID
  2

  9
$VERSIONGUID
  2

  9
$EXTNAMES
290
               1
  9
$PSVPSCALE
 40
0.0
  0
ENDSEC
  0
SECTION
  2
CLASSES
  0
CLASS
  1
LWPOLYLINE
  2
AcDbPolyline
  3
AutoCAD 2000
 90
        0
280
               0
281
               1
  0
CLASS
  1
IMAGE
  2
AcDbRasterImage
  3
ISM
 90
      127
280
               0
281
               1
  0
CLASS
  1
OLE2FRAME
  2
AcDbOle2Frame
  3
AutoCAD 2000
 90
        0
280
               0
281
               1
  0
CLASS
  1
HATCH
  2
AcDbHatch
  3
AutoCAD 2000
 90
        0
280
               0
281
               1
  0
CLASS
  1
DICTIONARYVAR
  2
AcDbDictionaryVar
  3
AutoCAD 2000
 90
        0
280
               0
281
               0
  0
CLASS
  1
RASTERVARIABLES
  2
AcDbRasterVariables
  3
ISM
 90
        0
280
               0
281
               0
  0
CLASS
  1
IMAGEDEF
  2
AcDbRasterImageDef
  3
ISM
 90
        0
280
               0
281
               0
  0
CLASS
  1
IMAGEDEF_REACTOR
  2
AcDbRasterImageDefReactor
  3
ISM
 90
        1
280
               0
281
               0
  0
CLASS
  1
IDBUFFER
  2
AcDbIdBuffer
  3
AutoCAD 2000
 90
        0
280
               0
281
               0
  0
CLASS
  1
SPATIAL_FILTER
  2
AcDbSpatialFilter
  3
AutoCAD 2000
 90
        0
280
               0
281
               0
  0
CLASS
  1
XRECORD
  2
AcDbXrecord
  3
AutoCAD 2000
 90
        0
280
               0
281
               0
  0
CLASS
  1
SORTENTSTABLE
  2
AcDbSortentsTable
  3
AutoCAD 2000
 90
        0
280
               0
281
               0
  0
CLASS
  1
LAYER_INDEX
  2
AcDbLayerIndex
  3
AutoCAD 2000
 90
        0
280
               0
281
               0
  0
CLASS
  1
SPATIAL_INDEX
  2
AcDbSpatialIndex
  3
AutoCAD 2000
 90
        0
280
               0
281
               0
  0
CLASS
  1
OBJECT_PTR
  2
CAseDLPNTableRecord
  3
"ASE-LPNTableRecord"
 90
        1
280
               0
281
               0
  0
CLASS
  1
LAYOUT
  2
AcDbLayout
  3
AutoCAD 2000
 90
        0
280
               0
281
               0
  0
CLASS
  1
PLOTSETTINGS
  2
AcDbPlotSettings
  3
AutoCAD 2000
 90
        0
280
               0
281
               0
  0
CLASS
  1
ACDBDICTIONARYWDFLT
  2
AcDbDictionaryWithDefault
  3
AutoCAD 2000
 90
        0
280
               0
281
               0
  0
CLASS
  1
ACDBPLACEHOLDER
  2
AcDbPlaceHolder
  3
AutoCAD 2000
 90
        0
280
               0
281
               0
  0
ENDSEC
  0
SECTION
  2
TABLES
  0
TABLE
  2
VPORT
  5
7
100
AcDbSymbolTable
 70
               1
  0
VPORT
  5
15
100
AcDbSymbolTableRecord
100
AcDbViewportTableRecord
  2
*ACTIVE
 70
               0
 10
0.0
 20
0.0
 11
1.0
 21
1.0
 12
0.0
 22
0.0
 13
0.0
 23
0.0
 14
1.0
 24
1.0
 15
0.0
 25
0.0
 16
0.0
 26
0.0
 36
1.0
 17
0.0
 27
0.0
 37
0.0
 40
2970.0
 41
0.688564
 42
50.0
 43
0.0
 44
0.0
 50
0.0
 51
0.0
 71
               0
 72
            2000
 73
               1
 74
               1
 75
               0
 76
               0
 77
               0
 78
               0
281
               0
 65
               0
110
0.0
120
0.0
130
0.0
111
1.0
121
0.0
131
0.0
112
0.0
122
1.0
132
0.0
345
0
346
0
 79
               0
146
0.0
  0
ENDTAB
  0
TABLE
  2
LTYPE
  5
4
100
AcDbSymbolTable
 70
              27
  0
LTYPE
  5
11
100
AcDbSymbolTableRecord
100
AcDbLinetypeTableRecord
  2
ByBlock
 70
              64
  3

 72
              65
 73
               0
 40
0.0
  0
LTYPE
  5
12
100
AcDbSymbolTableRecord
100
AcDbLinetypeTableRecord
  2
ByLayer
 70
              64
  3

 72
              65
 73
               0
 40
0.0
  0
LTYPE
  5
13
100
AcDbSymbolTableRecord
100
AcDbLinetypeTableRecord
  2
Continuous
 70
              64
  3
Solid line
 72
              65
 73
               0
 40
0.0
  0
LTYPE
  5
44
100
AcDbSymbolTableRecord
100
AcDbLinetypeTableRecord
  2
STYLE_01
 70
               0
  3

 72
              65
 73
               2
 40
0.6944448818897638
 49
0.3472224409448819
 74
               0
 49
-0.3472224409448819
 74
               0
  0
LTYPE
  5
45
100
AcDbSymbolTableRecord
100
AcDbLinetypeTableRecord
  2
STYLE_02
 70
               0
  3

 72
              65
 73
               4
 40
1.128472933070866
 49
0.3472224409448819
 74
               0
 49
-0.3472224409448819
 74
               0
 49
0.0868056102362205
 74
               0
 49
-0.3472224409448818
 74
               0
  0
LTYPE
  5
46
100
AcDbSymbolTableRecord
100
AcDbLinetypeTableRecord
  2
STYLE_03
 70
               0
  3

 72
              65
 73
               4
 40
1.128472933070866
 49
0.3472224409448819
 74
               0
 49
-0.3472224409448819
 74
               0
 49
0.0868056102362205
 74
               0
 49
-0.3472224409448818
 74
               0
  0
LTYPE
  5
47
100
AcDbSymbolTableRecord
100
AcDbLinetypeTableRecord
  2
STYLE_04
 70
               0
  3

 72
              65
 73
               4
 40
0.749496062992126
 49
0.6192883858267717
 74
               0
 49
-0.0434025590551181
 74
               0
 49
0.0434025590551181
 74
               0
 49
-0.0434025590551181
 74
               0
  0
LTYPE
  5
48
100
AcDbSymbolTableRecord
100
AcDbLinetypeTableRecord
  2
STYLE_05
 70
               0
  3

 72
              65
 73
               4
 40
0.749496062992126
 49
0.6192883858267717
 74
               0
 49
-0.0434025590551181
 74
               0
 49
0.0434025590551181
 74
               0
 49
-0.0434025590551181
 74
               0
  0
LTYPE
  5
49
100
AcDbSymbolTableRecord
100
AcDbLinetypeTableRecord
  2
STYLE_06
 70
               0
  3

 72
              65
 73
               4
 40
0.6591845472440944
 49
0.5024827755905512
 74
               0
 49
-0.0364758858267716
 74
               0
 49
0.08375
 74
               0
 49
-0.0364758858267716
 74
               0
  0
LTYPE
  5
4A
100
AcDbSymbolTableRecord
100
AcDbLinetypeTableRecord
  2
STYLE_07
 70
               0
  3

 72
              65
 73
               4
 40
0.6591845472440944
 49
0.5024827755905512
 74
               0
 49
-0.0364758858267716
 74
               0
 49
0.08375
 74
               0
 49
-0.0364758858267716
 74
               0
  0
LTYPE
  5
4B
100
AcDbSymbolTableRecord
100
AcDbLinetypeTableRecord
  2
STYLE_08
 70
               0
  3

 72
              65
 73
               6
 40
6.25
 49
3.125
 74
               0
 49
-1.0413999999999999
 74
               0
 49
0.3471500000000002
 74
               0
 49
-0.6946500000000001
 74
               0
 49
0.3471499999999995
 74
               0
 49
-0.6946500000000001
 74
               0
  0
LTYPE
  5
4C
100
AcDbSymbolTableRecord
100
AcDbLinetypeTableRecord
  2
STYLE_09
 70
               0
  3

 72
              65
 73
               4
 40
25.0
 49
18.75
 74
               0
 49
-1.3889249999999991
 74
               0
 49
3.4721500000000018
 74
               0
 49
-1.3889249999999991
 74
               0
  0
LTYPE
  5
4D
100
AcDbSymbolTableRecord
100
AcDbLinetypeTableRecord
  2
STYLE_10
 70
               0
  3

 72
              65
 73
               6
 40
29.6875
 49
18.75
 74
               0
 49
-1.3889249999999991
 74
               0
 49
3.4721500000000018
 74
               0
 49
-1.3889249999999991
 74
               0
 49
3.125
 74
               0
 49
-1.5625
 74
               0
  0
LTYPE
  5
4E
100
AcDbSymbolTableRecord
100
AcDbLinetypeTableRecord
  2
STYLE_11
 70
               0
  3

 72
              65
 73
               8
 40
0.3149606299212597
 49
0.1771653543307086
 74
               0
 49
-0.0196850393700787
 74
               0
 49
0.0196850393700787
 74
               0
 49
-0.0196850393700787
 74
               0
 49
0.0196850393700787
 74
               0
 49
-0.0196850393700787
 74
               0
 49
0.0196850393700787
 74
               0
 49
-0.0196850393700787
 74
               0
  0
LTYPE
  5
4F
100
AcDbSymbolTableRecord
100
AcDbLinetypeTableRecord
  2
STYLE_12
 70
               0
  3

 72
              65
 73
              10
 40
0.3149606299212597
 49
0.1377952755905512
 74
               0
 49
-0.0196850393700787
 74
               0
 49
0.0196850393700787
 74
               0
 49
-0.0196850393700787
 74
               0
 49
0.0196850393700787
 74
               0
 49
-0.0196850393700787
 74
               0
 49
0.0196850393700787
 74
               0
 49
-0.0196850393700787
 74
               0
 49
0.0196850393700787
 74
               0
 49
-0.0196850393700787
 74
               0
  0
LTYPE
  5
50
100
AcDbSymbolTableRecord
100
AcDbLinetypeTableRecord
  2
STYLE_13
 70
               0
  3

 72
              65
 73
              10
 40
0.3149606299212597
 49
0.1377952755905512
 74
               0
 49
-0.0196850393700787
 74
               0
 49
0.0196850393700787
 74
               0
 49
-0.0196850393700787
 74
               0
 49
0.0196850393700787
 74
               0
 49
-0.0196850393700787
 74
               0
 49
0.0196850393700787
 74
               0
 49
-0.0196850393700787
 74
               0
 49
0.0196850393700787
 74
               0
 49
-0.0196850393700787
 74
               0
  0
LTYPE
  5
51
100
AcDbSymbolTableRecord
100
AcDbLinetypeTableRecord
  2
STYLE_14
 70
               0
  3

 72
              65
 73
              10
 40
0.2755905511811023
 49
0.0984251968503937
 74
               0
 49
-0.0196850393700787
 74
               0
 49
0.0196850393700787
 74
               0
 49
-0.0196850393700787
 74
               0
 49
0.0196850393700787
 74
               0
 49
-0.0196850393700787
 74
               0
 49
0.0196850393700787
 74
               0
 49
-0.0196850393700787
 74
               0
 49
0.0196850393700787
 74
               0
 49
-0.0196850393700787
 74
               0
  0
LTYPE
  5
52
100
AcDbSymbolTableRecord
100
AcDbLinetypeTableRecord
  2
STYLE_15
 70
               0
  3

 72
              65
 73
              10
 40
0.2755905511811023
 49
0.0984251968503937
 74
               0
 49
-0.0196850393700787
 74
               0
 49
0.0196850393700787
 74
               0
 49
-0.0196850393700787
 74
               0
 49
0.0196850393700787
 74
               0
 49
-0.0196850393700787
 74
               0
 49
0.0196850393700787
 74
               0
 49
-0.0196850393700787
 74
               0
 49
0.0196850393700787
 74
               0
 49
-0.0196850393700787
 74
               0
  0
LTYPE
  5
53
100
AcDbSymbolTableRecord
100
AcDbLinetypeTableRecord
  2
STYLE_16
 70
               0
  3

 72
              65
 73
               2
 40
0.3169606299212598
 49
0.3149606299212598
 74
               0
 49
-0.005
 74
               0
  0
LTYPE
  5
54
100
AcDbSymbolTableRecord
100
AcDbLinetypeTableRecord
  2
STYLE_17
 70
               0
  3

 72
              65
 73
               2
 40
0.3169606299212598
 49
0.3149606299212598
 74
               0
 49
-0.005
 74
               0
  0
LTYPE
  5
55
100
AcDbSymbolTableRecord
100
AcDbLinetypeTableRecord
  2
STYLE_18
 70
               0
  3

 72
              65
 73
               4
 40
0.2559055118110236
 49
0.1838582677165354
 74
               0
 49
-0.024015748031496
 74
               0
 49
0.0240157480314961
 74
               0
 49
-0.0240157480314961
 74
               0
  0
LTYPE
  5
56
100
AcDbSymbolTableRecord
100
AcDbLinetypeTableRecord
  2
STYLE_19
 70
               0
  3

 72
              65
 73
               2
 40
0.3169606299212598
 49
0.3149606299212598
 74
               0
 49
-0.005
 74
               0
  0
LTYPE
  5
57
100
AcDbSymbolTableRecord
100
AcDbLinetypeTableRecord
  2
STYLE_20
 70
               0
  3

 72
              65
 73
               4
 40
0.2559055118110236
 49
0.1838582677165354
 74
               0
 49
-0.024015748031496
 74
               0
 49
0.0240157480314961
 74
               0
 49
-0.0240157480314961
 74
               0
  0
LTYPE
  5
58
100
AcDbSymbolTableRecord
100
AcDbLinetypeTableRecord
  2
STYLE_21
 70
               0
  3

 72
              65
 73
               2
 40
1.3888897637795274
 49
0.6944448818897637
 74
               0
 49
-0.6944448818897637
 74
               0
  0
LTYPE
  5
59
100
AcDbSymbolTableRecord
100
AcDbLinetypeTableRecord
  2
STYLE_22
 70
               0
  3

 72
              65
 73
               6
 40
59.375
 49
37.5
 74
               0
 49
-2.7778499999999982
 74
               0
 49
6.9443000000000037
 74
               0
 49
-2.7778499999999982
 74
               0
 49
6.25
 74
               0
 49
-3.125
 74
               0
  0
LTYPE
  5
5A
100
AcDbSymbolTableRecord
100
AcDbLinetypeTableRecord
  2
STYLE_23
 70
               0
  3

 72
              65
 73
               2
 40
3.9370078740157481
 49
1.9685039370078741
 74
               0
 49
-1.9685039370078741
 74
               0
  0
LTYPE
  5
5B
100
AcDbSymbolTableRecord
100
AcDbLinetypeTableRecord
  2
STYLE_24
 70
               0
  3

 72
              65
 73
               2
 40
39.370078740157474
 49
19.685039370078737
 74
               0
 49
-19.685039370078737
 74
               0
  0
ENDTAB
  0
TABLE
  2
LAYER
  5
2
100
AcDbSymbolTable
 70
               6
  0
LAYER
  5
14
100
AcDbSymbolTableRecord
100
AcDbLayerTableRecord
  2
0
 70
               0
 62
               7
  6
Continuous
290
               1
370
              -3
390
1D
  0
LAYER
  5
5C
100
AcDbSymbolTableRecord
100
AcDbLayerTableRecord
  2
Defpoints
 70
               0
 62
               7
  6
Continuous
290
               0
370
              -3
390
1D
  0
LAYER
  5
5D
100
AcDbSymbolTableRecord
100
AcDbLayerTableRecord
  2
template
 70
               0
 62
               7
  6
Continuous
290
               1
370
              -3
390
1D
  0
LAYER
  5
5E
100
AcDbSymbolTableRecord
100
AcDbLayerTableRecord
  2
cut
 70
               0
 62
               7
  6
Continuous
290
               1
370
              -3
390
1D
  0
LAYER
  5
5F
100
AcDbSymbolTableRecord
100
AcDbLayerTableRecord
  2
notes
 70
               0
 62
               7
  6
Continuous
290
               1
370
              -3
390
1D
  0
LAYER
  5
60
100
AcDbSymbolTableRecord
100
AcDbLayerTableRecord
  2
ADF70-0404
 70
               0
 62
               7
  6
Continuous
290
               1
370
              -3
390
1D
  0
ENDTAB
  0
TABLE
  2
STYLE
  5
3
100
AcDbSymbolTable
 70
               3
  0
STYLE
  5
17
100
AcDbSymbolTableRecord
100
AcDbTextStyleTableRecord
  2
Standard
 70
               0
 40
0.0
 41
1.0
 50
0.0
 71
               0
 42
0.0
  3
txt
  4
BIGFONT.SHX
  0
STYLE
  5
42
100
AcDbSymbolTableRecord
100
AcDbTextStyleTableRecord
  2
MS UI Gothic
 70
               0
 40
0.0
 41
1.0
 50
0.0
 71
               0
 42
0.0
  3

  4
MS UI Gothic
1001
ACAD
1000
MS UI Gothic
1071
        0
  0
STYLE
  5
43
100
AcDbSymbolTableRecord
100
AcDbTextStyleTableRecord
  2
ＭＳ ゴシック
 70
               0
 40
0.0
 41
1.0
 50
0.0
 71
               0
 42
0.0
  3

  4
ＭＳ ゴシック
1001
ACAD
1000
ＭＳ ゴシック
1071
        0
  0
ENDTAB
  0
TABLE
  2
VIEW
  5
5
100
AcDbSymbolTable
 70
               0
  0
ENDTAB
  0
TABLE
  2
UCS
  5
6
100
AcDbSymbolTable
 70
               0
  0
ENDTAB
  0
TABLE
  2
APPID
  5
8
100
AcDbSymbolTable
 70
               1
  0
APPID
  5
16
100
AcDbSymbolTableRecord
100
AcDbRegAppTableRecord
  2
ACAD
 70
               0
  0
ENDTAB
  0
TABLE
  2
DIMSTYLE
  5
9
100
AcDbSymbolTable
 70
               4
100
AcDbDimStyleTable
 71
               0
  0
DIMSTYLE
105
18
100
AcDbSymbolTableRecord
100
AcDbDimStyleTableRecord
  2
Standard
 70
               0
  3

  4

 40
1.0
 41
0.18
 42
0.0625
 43
0.38
 44
0.18
 45
0.0
 46
0.0
 47
0.0
 48
0.0
 71
               0
 72
               0
 73
               1
 74
               1
 75
               0
 76
               0
 77
               0
 78
               0
 79
               0
140
0.18
141
0.09
142
0.0
143
25.399999999999999
144
1.0
145
0.0
146
1.0
147
0.09
148
0.0
170
               0
171
               2
172
               0
173
               0
174
               0
175
               0
176
               0
177
               0
178
               0
179
               0
271
               4
272
               4
273
               2
274
               2
275
               0
276
               0
277
               2
278
              46
279
               0
280
               0
281
               0
282
               0
283
               1
284
               0
285
               0
286
               0
288
               0
289
               3
340
17
341
0
342
0
343
0
344
0
371
              -2
372
              -2
  0
DIMSTYLE
105
69
100
AcDbSymbolTableRecord
100
AcDbDimStyleTableRecord
  2
tform線あり
 70
               0
  3
<>
  4
[]
 40
1.0
 41
3.999755859375
 42
24.999999999999996
 43
0.9999999999999999
 44
0.0
 45
0.0
 46
0.0
 47
0.0
 48
0.0
 71
               0
 72
               0
 73
               0
 74
               0
 75
               0
 76
               0
 77
               1
 78
              11
 79
               0
140
21.828125
141
0.0
142
0.0
143
1.0
144
1.0
145
0.0
146
1.0
147
0.4999999999999999
148
0.0
170
               0
171
               1
172
               0
173
               0
174
               1
175
               0
176
               0
177
               0
178
               0
179
               2
271
               1
272
               1
273
               2
274
               2
275
               0
276
               2
277
               2
278
              46
279
               0
280
               0
281
               0
282
               0
283
               1
284
              11
285
              11
286
              11
288
               0
289
               0
340
42
341
61
342
61
343
0
344
0
371
              -2
372
              -2
  0
DIMSTYLE
105
6A
100
AcDbSymbolTableRecord
100
AcDbDimStyleTableRecord
  2
TformSENN
 70
               0
  3
<>
  4
[]
 40
1.0
 41
3.999755859375
 42
24.999999999999996
 43
0.9999999999999999
 44
0.0
 45
0.0
 46
0.0
 47
0.0
 48
0.0
 71
               0
 72
               0
 73
               0
 74
               0
 75
               0
 76
               0
 77
               1
 78
              11
 79
               0
140
21.828125
141
0.0
142
0.0
143
1.0
144
1.0
145
0.0
146
0.8
147
0.4999999999999999
148
0.0
170
               0
171
               1
172
               1
173
               0
174
               1
175
               0
176
               0
177
               0
178
               0
179
               2
271
               1
272
               1
273
               2
274
               2
275
               0
276
               2
277
               2
278
              46
279
               0
280
               0
281
               0
282
               0
283
               1
284
              11
285
              11
286
              11
288
               0
289
               0
340
42
341
61
342
61
343
0
344
0
371
              -2
372
              -2
  0
DIMSTYLE
105
74
100
AcDbSymbolTableRecord
100
AcDbDimStyleTableRecord
  2
Arch
 70
               0
  3
<>
  4
[]
 40
1.0
 41
22.4482421875
 42
15.875
 43
10.16
 44
31.75
 45
0.0
 46
1.5874999999999999
 47
0.0
 48
0.0
 71
               0
 72
               0
 73
               0
 74
               0
 75
               0
 76
               0
 77
               1
 78
              11
 79
               0
140
21.828125
141
0.0
142
0.0
143
1.0
144
1.0
145
0.0
146
1.0
147
1.5874999999999999
148
0.0
170
               0
171
               1
172
               1
173
               0
174
               1
175
               0
176
               0
177
               0
178
               0
179
               2
271
               1
272
               1
273
               2
274
               2
275
               0
276
               2
277
               2
278
              46
279
               0
280
               0
281
               0
282
               0
283
               1
284
              11
285
              11
286
              11
288
               0
289
               0
340
42
341
70
342
6B
343
0
344
0
371
              -2
372
              -2
  0
ENDTAB
  0
TABLE
  2
BLOCK_RECORD
  5
1
100
AcDbSymbolTable
 70
              34
  0
BLOCK_RECORD
  5
A
100
AcDbSymbolTableRecord
100
AcDbBlockTableRecord
  2
*MODEL_SPACE
340
20
  0
BLOCK_RECORD
  5
B
100
AcDbSymbolTableRecord
100
AcDbBlockTableRecord
  2
*PAPER_SPACE
340
21
  0
BLOCK_RECORD
  5
61
100
AcDbSymbolTableRecord
100
AcDbBlockTableRecord
  2
_DOT
340
0
  0
BLOCK_RECORD
  5
6B
100
AcDbSymbolTableRecord
100
AcDbBlockTableRecord
  2
VW_SLASH
340
0
  0
BLOCK_RECORD
  5
70
100
AcDbSymbolTableRecord
100
AcDbBlockTableRecord
  2
VW_FILLEDARROW
340
0
  0
BLOCK_RECORD
  5
23
100
AcDbSymbolTableRecord
100
AcDbBlockTableRecord
  2
グループ
340
0
102
{BLKREFS
331
213
102
}
  0
BLOCK_RECORD
  5
24
100
AcDbSymbolTableRecord
100
AcDbBlockTableRecord
  2
グループ-1
340
0
102
{BLKREFS
331
220
102
}
  0
BLOCK_RECORD
  5
25
100
AcDbSymbolTableRecord
100
AcDbBlockTableRecord
  2
*D5
340
0
  0
BLOCK_RECORD
  5
26
100
AcDbSymbolTableRecord
100
AcDbBlockTableRecord
  2
*D6
340
0
  0
BLOCK_RECORD
  5
27
100
AcDbSymbolTableRecord
100
AcDbBlockTableRecord
  2
*D7
340
0
  0
BLOCK_RECORD
  5
28
100
AcDbSymbolTableRecord
100
AcDbBlockTableRecord
  2
*D8
340
0
  0
BLOCK_RECORD
  5
29
100
AcDbSymbolTableRecord
100
AcDbBlockTableRecord
  2
グループ-2
340
0
102
{BLKREFS
331
221
102
}
  0
BLOCK_RECORD
  5
2A
100
AcDbSymbolTableRecord
100
AcDbBlockTableRecord
  2
*D10
340
0
  0
BLOCK_RECORD
  5
2B
100
AcDbSymbolTableRecord
100
AcDbBlockTableRecord
  2
*D11
340
0
  0
BLOCK_RECORD
  5
2C
100
AcDbSymbolTableRecord
100
AcDbBlockTableRecord
  2
*D12
340
0
  0
BLOCK_RECORD
  5
2D
100
AcDbSymbolTableRecord
100
AcDbBlockTableRecord
  2
*D13
340
0
  0
BLOCK_RECORD
  5
2E
100
AcDbSymbolTableRecord
100
AcDbBlockTableRecord
  2
*D14
340
0
  0
BLOCK_RECORD
  5
2F
100
AcDbSymbolTableRecord
100
AcDbBlockTableRecord
  2
*D15
340
0
  0
BLOCK_RECORD
  5
30
100
AcDbSymbolTableRecord
100
AcDbBlockTableRecord
  2
*D16
340
0
  0
BLOCK_RECORD
  5
31
100
AcDbSymbolTableRecord
100
AcDbBlockTableRecord
  2
*D17
340
0
  0
BLOCK_RECORD
  5
32
100
AcDbSymbolTableRecord
100
AcDbBlockTableRecord
  2
*D18
340
0
  0
BLOCK_RECORD
  5
33
100
AcDbSymbolTableRecord
100
AcDbBlockTableRecord
  2
*D19
340
0
  0
BLOCK_RECORD
  5
34
100
AcDbSymbolTableRecord
100
AcDbBlockTableRecord
  2
*D20
340
0
  0
BLOCK_RECORD
  5
35
100
AcDbSymbolTableRecord
100
AcDbBlockTableRecord
  2
*D21
340
0
  0
BLOCK_RECORD
  5
36
100
AcDbSymbolTableRecord
100
AcDbBlockTableRecord
  2
*D22
340
0
  0
BLOCK_RECORD
  5
37
100
AcDbSymbolTableRecord
100
AcDbBlockTableRecord
  2
*D23
340
0
  0
BLOCK_RECORD
  5
38
100
AcDbSymbolTableRecord
100
AcDbBlockTableRecord
  2
*D24
340
0
  0
BLOCK_RECORD
  5
39
100
AcDbSymbolTableRecord
100
AcDbBlockTableRecord
  2
*D25
340
0
  0
BLOCK_RECORD
  5
3A
100
AcDbSymbolTableRecord
100
AcDbBlockTableRecord
  2
*D26
340
0
  0
BLOCK_RECORD
  5
3B
100
AcDbSymbolTableRecord
100
AcDbBlockTableRecord
  2
*D27
340
0
  0
BLOCK_RECORD
  5
3C
100
AcDbSymbolTableRecord
100
AcDbBlockTableRecord
  2
*D28
340
0
  0
BLOCK_RECORD
  5
3D
100
AcDbSymbolTableRecord
100
AcDbBlockTableRecord
  2
*D29
340
0
  0
BLOCK_RECORD
  5
3E
100
AcDbSymbolTableRecord
100
AcDbBlockTableRecord
  2
*D30
340
0
  0
BLOCK_RECORD
  5
3F
100
AcDbSymbolTableRecord
100
AcDbBlockTableRecord
  2
*D31
340
0
  0
BLOCK_RECORD
  5
40
100
AcDbSymbolTableRecord
100
AcDbBlockTableRecord
  2
グループ-3
340
0
102
{BLKREFS
331
207
102
}
  0
BLOCK_RECORD
  5
41
100
AcDbSymbolTableRecord
100
AcDbBlockTableRecord
  2
グループ-4
340
0
102
{BLKREFS
331
27B
102
}
  0
ENDTAB
  0
ENDSEC
  0
SECTION
  2
BLOCKS
  0
BLOCK
  5
D
100
AcDbEntity
  8
0
390
0
100
AcDbBlockBegin
  2
*MODEL_SPACE
 70
               0
 10
0.0
 20
0.0
 30
0.0
  3
*MODEL_SPACE
  1

  0
ENDBLK
  5
E
100
AcDbEntity
  8
0
390
0
100
AcDbBlockEnd
  0
BLOCK
  5
F
100
AcDbEntity
 67
               1
  8
0
390
0
100
AcDbBlockBegin
  2
*PAPER_SPACE
 70
               0
 10
0.0
 20
0.0
 30
0.0
  3
*PAPER_SPACE
  1

  0
ENDBLK
  5
10
100
AcDbEntity
 67
               1
  8
0
390
0
100
AcDbBlockEnd
  0
BLOCK
  5
62
100
AcDbEntity
  8
0
390
0
100
AcDbBlockBegin
  2
_DOT
 70
               0
 10
0.0
 20
0.0
 30
0.0
  3
_DOT
  1

  0
POLYLINE
  5
63
100
AcDbEntity
  8
0
370
              -2
390
0
  6
ByBlock
 62
               0
100
AcDb2dPolyline
 66
               1
 10
0.0
 20
0.0
 30
0.0
 70
               1
 40
0.5
 41
0.5
  0
VERTEX
  5
64
100
AcDbEntity
  8
0
370
              -2
390
0
  6
ByBlock
 62
               0
100
AcDbVertex
100
AcDb2dVertex
 10
-0.25
 20
0.0
 30
0.0
 42
1.0
  0
VERTEX
  5
65
100
AcDbEntity
  8
0
370
              -2
390
0
  6
ByBlock
 62
               0
100
AcDbVertex
100
AcDb2dVertex
 10
0.25
 20
0.0
 30
0.0
 42
1.0
  0
SEQEND
  5
66
100
AcDbEntity
  8
0
390
0
  0
LINE
  5
67
100
AcDbEntity
  8
0
370
              -2
390
0
  6
ByBlock
 62
               0
100
AcDbLine
 10
-0.5
 20
0.0
 30
0.0
 11
-1.0
 21
0.0
 31
0.0
  0
ENDBLK
  5
68
100
AcDbEntity
  8
0
390
0
100
AcDbBlockEnd
  0
BLOCK
  5
6C
100
AcDbEntity
  8
0
370
              -2
390
0
  6
ByBlock
 62
               0
100
AcDbBlockBegin
  2
VW_SLASH
 70
               0
 10
0.0
 20
0.0
 30
0.0
  3
VW_SLASH
  1

  0
LINE
  5
6D
100
AcDbEntity
  8
0
370
              -2
390
0
  6
ByBlock
 62
               0
100
AcDbLine
 10
0.0
 20
0.0
 30
0.0
 11
-1.0
 21
0.0
 31
0.0
  0
LINE
  5
6E
100
AcDbEntity
  8
0
370
              20
390
0
  6
ByBlock
 62
               0
100
AcDbLine
 10
-0.4987813153181721
 20
-0.4987813153181719
 30
0.0
 11
0.4987813153181721
 21
0.4987813153181719
 31
0.0
  0
ENDBLK
  5
6F
100
AcDbEntity
  8
0
390
0
100
AcDbBlockEnd
  0
BLOCK
  5
71
100
AcDbEntity
  8
0
370
              -2
390
0
  6
ByBlock
 62
               0
100
AcDbBlockBegin
  2
VW_FILLEDARROW
 70
               0
 10
0.0
 20
0.0
 30
0.0
  3
VW_FILLEDARROW
  1

  0
SOLID
  5
72
100
AcDbEntity
  8
0
370
              -2
390
0
 62
               0
100
AcDbTrace
 10
0.0
 20
0.0
 30
0.0
 11
-1.4107666015625
 21
-0.3780137715974714
 31
0.0
 12
-1.4107666015625
 22
0.3780137715974717
 32
0.0
 13
-1.4107666015625
 23
0.3780137715974717
 33
0.0
  0
ENDBLK
  5
73
100
AcDbEntity
  8
0
390
0
100
AcDbBlockEnd
  0
BLOCK
  5
75
100
AcDbEntity
  8
template
390
0
100
AcDbBlockBegin
  2
グループ
 70
               0
 10
0.0
 20
0.0
 30
0.0
  3
グループ
  1

  0
LWPOLYLINE
  5
76
100
AcDbEntity
  8
0
370
              15
390
0
  6
Continuous
 62
               7
100
AcDbPolyline
 90
        8
 70
             129
 10
435.20227531513808
 20
-3411.6795367575137
 10
435.20227531513808
 20
-3417.6769254510896
 10
425.70107839713478
 20
-3417.6769254510896
 10
425.70107839713478
 20
-3442.1278887145982
 10
417.34570113535199
 20
-3442.1278887145982
 10
417.34570113535199
 20
-3417.6769254510896
 10
408.01274418904256
 20
-3417.6769254510896
 10
408.01274418904256
 20
-3411.6795367575137
  0
LWPOLYLINE
  5
77
100
AcDbEntity
  8
0
370
              15
390
0
  6
Continuous
 62
               7
100
AcDbPolyline
 90
      101
 70
             128
 10
447.93056714569502
 20
-3412.4077852504502
 10
447.94591717447457
 20
-3412.4034244937666
 42
-0.0222221607817352
 10
448.23592175115112
 20
-3412.3348000285205
 10
448.25171551515342
 20
-3412.3317966054219
 42
-0.0146883565579525
 10
448.5144182203689
 20
-3412.2897934184739
 42
-0.0127458844179431
 10
448.77905718752589
 20
-3412.2622564504013
 10
448.84151226583469
 20
-3412.2573630278134
 42
-0.0198099018563133
 10
449.23236137531325
 20
-3412.2422778704167
 10
449.28417284475535
 20
-3412.2423316460818
 42
-0.0147617382760141
 10
449.7787963057242
 20
-3412.2574516713266
 10
449.85148776060515
 20
-3412.2618242782146
 42
-0.0162624549009235
 10
450.24164139006905
 20
-3412.2980571534868
 10
450.36317378133737
 20
-3412.3133437124848
 42
-0.0080020874658686
 10
450.5087528124198
 20
-3412.3340265597517
 10
450.54707228300168
 20
-3412.3400978375603
 42
-0.0053821929666365
 10
450.61555638832965
 20
-3412.3517053613841
 10
449.88915068913104
 20
-3414.532633817098
 42
0.0108667757400502
 10
449.82183361899564
 20
-3414.5194467018773
 10
449.7843655958107
 20
-3414.5129489592837
 42
0.017066320331709
 10
449.64114880890008
 20
-3414.4931193619927
 10
449.57327347621219
 20
-3414.4860721914047
 42
0.0220162375276986
 10
449.29289406834863
 20
-3414.4693898306346
 10
449.21503850131029
 20
-3414.4681904633685
 42
0.028260691578145
 10
448.87940217772689
 20
-3414.4819937403372
 10
448.83548890395355
 20
-3414.486293730341
 42
0.0169677213689547
 10
448.58956440899561
 20
-3414.5188307798926
 42
0.0190576269868795
 10
448.34665644641086
 20
-3414.5689776519998
 10
448.34039725830473
 20
-3414.5705206261082
 42
0.0213685642853907
 10
448.09001277382765
 20
-3414.6437209112132
 10
448.08452287891078
 20
-3414.6455839072723
 42
0.0237595297606214
 10
447.83102799400501
 20
-3414.7452684291711
 10
447.82592591998241
 20
-3414.7475602046461
 42
0.0261857468820262
 10
447.57375514374979
 20
-3414.8770965420217
 10
447.56332895466727
 20
-3414.8831620164874
 42
0.0272553062019425
 10
447.32689917942702
 20
-3415.0385342224336
 10
447.29213616591522
 20
-3415.0641953705276
 42
0.0325996893182638
 10
447.14198082226602
 20
-3415.1909432434968
 10
447.11827139314448
 20
-3415.213761272008
 42
0.0138050960641413
 10
447.0263882369328
 20
-3415.3072109335612
 42
0.0125280103793626
 10
446.93954570410085
 20
-3415.4053742601595
 10
446.91586525919092
 20
-3415.4335327583485
 42
0.0205218024733075
 10
446.79076518367526
 20
-3415.5953260725805
 10
446.76829884319011
 20
-3415.6269858024048
 42
0.0163110129578059
 10
446.61258846394173
 20
-3415.8623162374697
 10
446.60986456788783
 20
-3415.8667399994602
 42
0.013189734189702
 10
446.46306404698328
 20
-3416.1198720918223
 10
446.46136395161545
 20
-3416.1229903309604
 42
0.0107895576081754
 10
446.32358724939934
 20
-3416.3892055406063
 10
446.32285435987961
 20
-3416.390699773242
 42
0.0091371507215714
 10
446.19437441123807
 20
-3416.6652249709841
 10
446.16462877982093
 20
-3416.7319314781607
 42
0.0135418326358077
 10
445.99291484075144
 20
-3417.1468692634239
 10
445.95931003231397
 20
-3417.2347354057133
 42
0.0092834542413271
 10
445.78808097239408
 20
-3417.7086339040161
 10
445.76246384468328
 20
-3417.7838749737894
 42
0.0054261043584485
 10
445.65482569638351
 20
-3418.1116389468743
 10
445.63729971017284
 20
-3418.1670271092094
 42
0.0008225090816677
 10
445.56862965837604
 20
-3418.3852958672533
 10
444.58394052644257
 20
-3421.4101871605098
 10
447.81656436651645
 20
-3421.4101871605098
 10
447.312371936663
 20
-3423.3146654588627
 10
444.05631565467968
 20
-3423.3146654588627
 10
438.22716662232585
 20
-3442.1278885248676
 10
436.40206901201555
 20
-3442.1278885248676
 10
442.23674704751647
 20
-3423.3146654588627
 10
439.83163067847613
 20
-3423.3146654588627
 10
440.33582310832958
 20
-3421.4101871605098
 10
442.7643719192796
 20
-3421.4101871605098
 10
443.62452683746824
 20
-3418.7737741598112
 42
-0.0005863560651919
 10
443.66126151562889
 20
-3418.6569477396556
 10
443.73734934933213
 20
-3418.415955440134
 42
-0.0087522378923402
 10
443.9368174927904
 20
-3417.8206793529835
 10
444.02908176820335
 20
-3417.5605391844715
 42
-0.0077400953825523
 10
444.28701542733359
 20
-3416.8675345069259
 10
444.30278039890953
 20
-3416.8271036235474
 42
-0.0082369946331681
 10
444.54986486952441
 20
-3416.2230245573446
 42
-0.0085725238365209
 10
444.81711096552863
 20
-3415.6275985180546
 10
444.91874056653654
 20
-3415.4111774160683
 42
-0.0168109410594896
 10
445.20568499526468
 20
-3414.8499698899677
 10
445.33152838564433
 20
-3414.6230058571136
 42
-0.0007817726860778
 10
445.38581273578035
 20
-3414.5254616119391
 10
445.38594104178549
 20
-3414.5252319032243
 42
-0.0036626142157029
 10
445.44082890581888
 20
-3414.4286340232343
 42
-0.0080221150684576
 10
445.49795316122459
 20
-3414.3333547884836
 10
445.52865311258677
 20
-3414.2839638393593
 42
-0.0202139325562198
 10
445.65630885239602
 20
-3414.0959822386744
 10
445.71037631758111
 20
-3414.0229033744372
 42
-0.0249323791798692
 10
445.96953911130146
 20
-3413.7068581322815
 10
445.99367892542728
 20
-3413.6802438593704
 42
-0.0242132121537278
 10
446.33335966696899
 20
-3413.3403603731667
 10
446.38127123971702
 20
-3413.296851236983
 42
-0.0251017527866812
 10
446.66525294036063
 20
-3413.0638584912153
 10
446.66669841718101
 20
-3413.0627892336315
 42
-0.0130868069035318
 10
446.9649590671317
 20
-3412.854008765094
 10
446.96652088627167
 20
-3412.8529753248208
 42
-0.0290329526394058
 10
447.27763202766772
 20
-3412.67214982319
 10
447.30747758965259
 20
-3412.6570474403511
 42
-0.0160250190050354
 10
447.57338200341843
 20
-3412.5330313301365
 42
-0.0267600374778629
 10
447.84865808088671
 20
-3412.432283009588
 10
447.87539400040805
 20
-3412.4240904507624
 42
-0.0049981587688853
 10
447.93056714569502
 20
-3412.4077852504502
 42
-0.0049981587688853
  0
LWPOLYLINE
  5
78
100
AcDbEntity
  8
0
370
              15
390
0
  6
Continuous
 62
               7
100
AcDbPolyline
 90
      118
 70
             128
 10
467.74493471014193
 20
-3421.4841704883374
 10
469.6200566346414
 20
-3421.4841704883374
 10
468.78201772904151
 20
-3424.1657370147377
 42
-0.0010587229239867
 10
468.81347354459371
 20
-3424.1288324814054
 10
468.87166763524539
 20
-3424.0608502252062
 42
-0.0071874740407436
 10
469.02204285332994
 20
-3423.8902095331928
 10
469.16376562660571
 20
-3423.7339733918643
 42
-0.0148118053510014
 10
469.61389491932022
 20
-3423.2663595458494
 10
469.70111725421492
 20
-3423.180962225003
 42
-0.0086273358690063
 10
470.03666605522864
 20
-3422.863586590981
 10
470.08049977144748
 20
-3422.8235369466543
 42
-0.0103138323113107
 10
470.33852347368804
 20
-3422.5973738093098
 10
470.38429788001133
 20
-3422.558891762053
 42
-0.0060206748581529
 10
470.55714594412734
 20
-3422.4170971112953
 10
470.55917707500475
 20
-3422.4154714056708
 42
-0.00670690273072
 10
470.73146988967579
 20
-3422.2813207718691
 10
470.73401865559947
 20
-3422.2793906019956
 42
-0.0076184352051565
 10
470.90492392147314
 20
-3422.15401572675
 42
-0.0089652861682132
 10
471.07988488420784
 20
-3422.0343824664169
 10
471.11623660434776
 20
-3422.0104712529374
 42
-0.015691624593677
 10
471.31219610151271
 20
-3421.8902087664601
 42
-0.0023299011044825
 10
471.51245814552465
 20
-3421.777030826901
 10
471.52784227787242
 20
-3421.7684308318544
 42
-0.0107669341501881
 10
471.76207910296637
 20
-3421.6440306985087
 10
471.78434390404863
 20
-3421.6328139485549
 42
-0.0078058045888608
 10
472.06793402201197
 20
-3421.4954524929117
 10
472.0778411097105
 20
-3421.490843365048
 42
-0.0181829330475166
 10
472.38815051432567
 20
-3421.3599796239523
 10
472.44220595689137
 20
-3421.3394645040094
 42
-0.0208411536036535
 10
472.79129092434312
 20
-3421.2233740415159
 10
472.8056470244718
 20
-3421.2192555965621
 42
-0.0222799817133791
 10
473.13436681838783
 20
-3421.1406140304216
 10
473.14325578162993
 20
-3421.1389020198358
 42
-0.0215509523883707
 10
473.45972674990463
 20
-3421.0919863313025
 10
473.50220871095382
 20
-3421.0875488045117
 42
-0.0182545924876525
 10
473.73631749025884
 20
-3421.071704979121
 10
473.77571850660655
 20
-3421.0704804340417
 42
-0.0072962856542467
 10
473.93164138629578
 20
-3421.0679111055197
 10
473.960741056855
 20
-3421.067856270116
 42
-0.0059227516339063
 10
474.05849055601277
 20
-3421.0688299819062
 10
474.08773277367146
 20
-3421.0694677485135
 42
-0.0011833111766748
 10
474.1269840572171
 20
-3421.0704167528193
 10
473.33159746160993
 20
-3423.6091506979183
 42
0.0143932051498311
 10
473.30519607926271
 20
-3423.5989517278745
 10
473.29792410684206
 20
-3423.5963805090159
 42
0.0234388603549605
 10
473.25609324090976
 20
-3423.5837612733003
 10
473.24741157799724
 20
-3423.5815803112955
 42
0.0199162742980525
 10
473.18712274391999
 20
-3423.5689635759613
 10
473.16630880611103
 20
-3423.5654663765322
 42
0.0293643550685245
 10
473.06323394734778
 20
-3423.5543163308789
 10
473.03854876663155
 20
-3423.5531047138602
 42
0.0214606686877601
 10
472.88540785068164
 20
-3423.5521661534426
 10
472.87603593986114
 20
-3423.5525110649869
 42
0.0167564054181526
 10
472.70451574874744
 20
-3423.5645881073556
 10
472.6960559559937
 20
-3423.5654694477821
 42
0.0137677553244987
 10
472.5087026427376
 20
-3423.5902187563242
 10
472.50135090322118
 20
-3423.5913966762937
 42
0.0118497261481867
 10
472.30085313911138
 20
-3423.6284140264847
 10
472.29470313187261
 20
-3423.6297008892029
 42
0.0106421143894839
 10
472.08382224458853
 20
-3423.6785332647773
 10
472.07891343619849
 20
-3423.6797806074628
 42
0.0099746379705305
 10
471.86045496702752
 20
-3423.7399551357803
 10
471.79890692686575
 20
-3423.7582370144082
 42
0.019161367586028
 10
471.46292246435405
 20
-3423.8722143946934
 10
471.3748626916024
 20
-3423.9059013050201
 42
0.0205274080143075
 10
470.98955591970406
 20
-3424.0717297128458
 10
470.93190663772191
 20
-3424.0993976774184
 42
0.018125691220089
 10
470.67362969705505
 20
-3424.2350814963961
 10
470.6206743137418
 20
-3424.2653991096104
 42
0.014070924240999
 10
470.47571937911272
 20
-3424.3538937830454
 10
470.44947051050133
 20
-3424.3709506017562
 42
0.0086667884375621
 10
470.36054434895169
 20
-3424.4309532696434
 42
0.003640819203535
 10
470.27311111089904
 20
-3424.4931341274496
 10
470.2378842364497
 20
-3424.5185750733485
 42
0.0052260781264115
 10
470.08165553908088
 20
-3424.6339074599664
 10
470.06544868279906
 20
-3424.646135570601
 42
0.0050024435905488
 10
469.87944533972785
 20
-3424.7894181388729
 10
469.86412718322504
 20
-3424.801464161309
 42
0.0136138710274531
 10
469.65368591490522
 20
-3424.9764306662178
 10
469.62001803910613
 20
-3425.0060096389366
 42
0.0172815186920237
 10
469.35561449743966
 20
-3425.2550063115641
 10
469.35305215160105
 20
-3425.2575921287071
 42
0.0189403857996819
 10
469.1024703530212
 20
-3425.5303973935124
 10
469.06983885948728
 20
-3425.5687413250071
 42
0.0185044199495287
 10
468.8778824205059
 20
-3425.8119899061312
 42
0.0088565243894484
 10
468.69942231387603
 20
-3426.0655063262834
 10
468.69024433422896
 20
-3426.0790477060414
 42
0.0157195347232182
 10
468.50702372789596
 20
-3426.3685699153557
 10
468.4609407859698
 20
-3426.4467221123682
 42
0.0095451879778899
 10
468.29585523582637
 20
-3426.7393167547343
 10
468.28470731689214
 20
-3426.7599874268749
 42
0.0100351706255403
 10
468.15266356773742
 20
-3427.0170429873569
 42
0.0086935915427377
 10
468.03033241593926
 20
-3427.2788761327711
 10
468.02701167452892
 20
-3427.2863184557336
 42
0.0072580174864757
 10
467.90666522258545
 20
-3427.5669104473127
 10
467.90340358927762
 20
-3427.5748304733343
 42
0.006000512261601
 10
467.78420292092801
 20
-3427.8744401439576
 10
467.78099194259335
 20
-3427.8828016718444
 42
0.0049017786978006
 10
467.66209178373691
 20
-3428.2017306524458
 10
467.65892597734546
 20
-3428.2104835896789
 42
0.0039415167600734
 10
467.53948969928859
 20
-3428.549025652093
 10
467.5363585966366
 20
-3428.5581288529684
 42
0.0031035838766194
 10
467.4155538109494
 20
-3428.9165687147242
 10
467.41244376641316
 20
-3428.9259893361168
 42
0.0025070747149829
 10
467.28954241508973
 20
-3429.3046365530859
 10
467.25224851867239
 20
-3429.4215282183136
 42
0.0029081910280111
 10
467.06023022086862
 20
-3430.035691876582
 10
467.01942705234455
 20
-3430.1689151188812
 42
0.0009266453733988
 10
466.75100967802473
 20
-3431.0511395788217
 10
466.7301222053776
 20
-3431.1202514580791
 42
-0.0005809993666308
 10
466.45278552479806
 20
-3432.0340595646794
 10
466.38650372652216
 20
-3432.251544496849
 42
-0.0012018708162721
 10
466.23951941709589
 20
-3432.7297071613602
 10
466.18719956549251
 20
-3432.8984663023475
 42
-0.0002691059600978
 10
466.1436300843618
 20
-3433.0387339225676
 10
463.31067418607256
 20
-3442.1278885248676
 10
461.49268529409403
 20
-3442.1278885248676
 10
467.74493471014193
 20
-3421.4841704883374
  0
SPLINE
  5
79
100
AcDbEntity
  8
0
370
              15
390
0
  6
Continuous
 62
               7
100
AcDbSpline
210
0.0
220
0.0
230
1.0
 70
              13
 71
               2
 72
             782
 73
             779
 74
               0
 42
0.000001
 43
0.000001
 40
0.0
 40
0.0
 40
0.0
 40
1.0
 40
1.0
 40
2.0
 40
2.0
 40
3.0
 40
3.0
 40
4.0
 40
4.0
 40
5.0
 40
5.0
 40
6.0
 40
6.0
 40
7.0
 40
7.0
 40
8.0
 40
8.0
 40
9.0
 40
9.0
 40
10.0
 40
10.0
 40
11.0
 40
11.0
 40
12.0
 40
12.0
 40
13.0
 40
13.0
 40
14.0
 40
14.0
 40
15.0
 40
15.0
 40
16.0
 40
16.0
 40
17.0
 40
17.0
 40
18.0
 40
18.0
 40
19.0
 40
19.0
 40
20.0
 40
20.0
 40
21.0
 40
21.0
 40
22.0
 40
22.0
 40
23.0
 40
23.0
 40
24.0
 40
24.0
 40
25.0
 40
25.0
 40
26.0
 40
26.0
 40
27.0
 40
27.0
 40
28.0
 40
28.0
 40
29.0
 40
29.0
 40
30.0
 40
30.0
 40
31.0
 40
31.0
 40
32.0
 40
32.0
 40
33.0
 40
33.0
 40
34.0
 40
34.0
 40
35.0
 40
35.0
 40
36.0
 40
36.0
 40
37.0
 40
37.0
 40
38.0
 40
38.0
 40
39.0
 40
39.0
 40
40.0
 40
40.0
 40
41.0
 40
41.0
 40
42.0
 40
42.0
 40
43.0
 40
43.0
 40
44.0
 40
44.0
 40
45.0
 40
45.0
 40
46.0
 40
46.0
 40
47.0
 40
47.0
 40
48.0
 40
48.0
 40
49.0
 40
49.0
 40
50.0
 40
50.0
 40
51.0
 40
51.0
 40
52.0
 40
52.0
 40
53.0
 40
53.0
 40
54.0
 40
54.0
 40
55.0
 40
55.0
 40
56.0
 40
56.0
 40
57.0
 40
57.0
 40
58.0
 40
58.0
 40
59.0
 40
59.0
 40
60.0
 40
60.0
 40
61.0
 40
61.0
 40
62.0
 40
62.0
 40
63.0
 40
63.0
 40
64.0
 40
64.0
 40
65.0
 40
65.0
 40
66.0
 40
66.0
 40
67.0
 40
67.0
 40
68.0
 40
68.0
 40
69.0
 40
69.0
 40
70.0
 40
70.0
 40
71.0
 40
71.0
 40
72.0
 40
72.0
 40
73.0
 40
73.0
 40
74.0
 40
74.0
 40
75.0
 40
75.0
 40
76.0
 40
76.0
 40
77.0
 40
77.0
 40
78.0
 40
78.0
 40
79.0
 40
79.0
 40
80.0
 40
80.0
 40
81.0
 40
81.0
 40
82.0
 40
82.0
 40
83.0
 40
83.0
 40
84.0
 40
84.0
 40
85.0
 40
85.0
 40
86.0
 40
86.0
 40
87.0
 40
87.0
 40
88.0
 40
88.0
 40
89.0
 40
89.0
 40
90.0
 40
90.0
 40
91.0
 40
91.0
 40
92.0
 40
92.0
 40
93.0
 40
93.0
 40
94.0
 40
94.0
 40
95.0
 40
95.0
 40
96.0
 40
96.0
 40
97.0
 40
97.0
 40
98.0
 40
98.0
 40
99.0
 40
99.0
 40
100.0
 40
100.0
 40
101.0
 40
101.0
 40
102.0
 40
102.0
 40
103.0
 40
103.0
 40
104.0
 40
104.0
 40
105.0
 40
105.0
 40
106.0
 40
106.0
 40
107.0
 40
107.0
 40
108.0
 40
108.0
 40
109.0
 40
109.0
 40
110.0
 40
110.0
 40
111.0
 40
111.0
 40
112.0
 40
112.0
 40
113.0
 40
113.0
 40
114.0
 40
114.0
 40
115.0
 40
115.0
 40
116.0
 40
116.0
 40
117.0
 40
117.0
 40
118.0
 40
118.0
 40
119.0
 40
119.0
 40
120.0
 40
120.0
 40
121.0
 40
121.0
 40
122.0
 40
122.0
 40
123.0
 40
123.0
 40
124.0
 40
124.0
 40
125.0
 40
125.0
 40
126.0
 40
126.0
 40
127.0
 40
127.0
 40
128.0
 40
128.0
 40
129.0
 40
129.0
 40
130.0
 40
130.0
 40
131.0
 40
131.0
 40
132.0
 40
132.0
 40
133.0
 40
133.0
 40
134.0
 40
134.0
 40
135.0
 40
135.0
 40
136.0
 40
136.0
 40
137.0
 40
137.0
 40
138.0
 40
138.0
 40
139.0
 40
139.0
 40
140.0
 40
140.0
 40
141.0
 40
141.0
 40
142.0
 40
142.0
 40
143.0
 40
143.0
 40
144.0
 40
144.0
 40
145.0
 40
145.0
 40
146.0
 40
146.0
 40
147.0
 40
147.0
 40
148.0
 40
148.0
 40
149.0
 40
149.0
 40
150.0
 40
150.0
 40
151.0
 40
151.0
 40
152.0
 40
152.0
 40
153.0
 40
153.0
 40
154.0
 40
154.0
 40
155.0
 40
155.0
 40
156.0
 40
156.0
 40
157.0
 40
157.0
 40
158.0
 40
158.0
 40
159.0
 40
159.0
 40
160.0
 40
160.0
 40
161.0
 40
161.0
 40
162.0
 40
162.0
 40
163.0
 40
163.0
 40
164.0
 40
164.0
 40
165.0
 40
165.0
 40
166.0
 40
166.0
 40
167.0
 40
167.0
 40
168.0
 40
168.0
 40
169.0
 40
169.0
 40
170.0
 40
170.0
 40
171.0
 40
171.0
 40
172.0
 40
172.0
 40
173.0
 40
173.0
 40
174.0
 40
174.0
 40
175.0
 40
175.0
 40
176.0
 40
176.0
 40
177.0
 40
177.0
 40
178.0
 40
178.0
 40
179.0
 40
179.0
 40
180.0
 40
180.0
 40
181.0
 40
181.0
 40
182.0
 40
182.0
 40
183.0
 40
183.0
 40
184.0
 40
184.0
 40
185.0
 40
185.0
 40
186.0
 40
186.0
 40
187.0
 40
187.0
 40
188.0
 40
188.0
 40
189.0
 40
189.0
 40
190.0
 40
190.0
 40
191.0
 40
191.0
 40
192.0
 40
192.0
 40
193.0
 40
193.0
 40
194.0
 40
194.0
 40
195.0
 40
195.0
 40
196.0
 40
196.0
 40
197.0
 40
197.0
 40
198.0
 40
198.0
 40
199.0
 40
199.0
 40
200.0
 40
200.0
 40
201.0
 40
201.0
 40
202.0
 40
202.0
 40
203.0
 40
203.0
 40
204.0
 40
204.0
 40
205.0
 40
205.0
 40
206.0
 40
206.0
 40
207.0
 40
207.0
 40
208.0
 40
208.0
 40
209.0
 40
209.0
 40
210.0
 40
210.0
 40
211.0
 40
211.0
 40
212.0
 40
212.0
 40
213.0
 40
213.0
 40
214.0
 40
214.0
 40
215.0
 40
215.0
 40
216.0
 40
216.0
 40
217.0
 40
217.0
 40
218.0
 40
218.0
 40
219.0
 40
219.0
 40
220.0
 40
220.0
 40
221.0
 40
221.0
 40
222.0
 40
222.0
 40
223.0
 40
223.0
 40
224.0
 40
224.0
 40
225.0
 40
225.0
 40
226.0
 40
226.0
 40
227.0
 40
227.0
 40
228.0
 40
228.0
 40
229.0
 40
229.0
 40
230.0
 40
230.0
 40
231.0
 40
231.0
 40
232.0
 40
232.0
 40
233.0
 40
233.0
 40
234.0
 40
234.0
 40
235.0
 40
235.0
 40
236.0
 40
236.0
 40
237.0
 40
237.0
 40
238.0
 40
238.0
 40
239.0
 40
239.0
 40
240.0
 40
240.0
 40
241.0
 40
241.0
 40
242.0
 40
242.0
 40
243.0
 40
243.0
 40
244.0
 40
244.0
 40
245.0
 40
245.0
 40
246.0
 40
246.0
 40
247.0
 40
247.0
 40
248.0
 40
248.0
 40
249.0
 40
249.0
 40
250.0
 40
250.0
 40
251.0
 40
251.0
 40
252.0
 40
252.0
 40
253.0
 40
253.0
 40
254.0
 40
254.0
 40
255.0
 40
255.0
 40
256.0
 40
256.0
 40
257.0
 40
257.0
 40
258.0
 40
258.0
 40
259.0
 40
259.0
 40
260.0
 40
260.0
 40
261.0
 40
261.0
 40
262.0
 40
262.0
 40
263.0
 40
263.0
 40
264.0
 40
264.0
 40
265.0
 40
265.0
 40
266.0
 40
266.0
 40
267.0
 40
267.0
 40
268.0
 40
268.0
 40
269.0
 40
269.0
 40
270.0
 40
270.0
 40
271.0
 40
271.0
 40
272.0
 40
272.0
 40
273.0
 40
273.0
 40
274.0
 40
274.0
 40
275.0
 40
275.0
 40
276.0
 40
276.0
 40
277.0
 40
277.0
 40
278.0
 40
278.0
 40
279.0
 40
279.0
 40
280.0
 40
280.0
 40
281.0
 40
281.0
 40
282.0
 40
282.0
 40
283.0
 40
283.0
 40
284.0
 40
284.0
 40
285.0
 40
285.0
 40
286.0
 40
286.0
 40
287.0
 40
287.0
 40
288.0
 40
288.0
 40
289.0
 40
289.0
 40
290.0
 40
290.0
 40
291.0
 40
291.0
 40
292.0
 40
292.0
 40
293.0
 40
293.0
 40
294.0
 40
294.0
 40
295.0
 40
295.0
 40
296.0
 40
296.0
 40
297.0
 40
297.0
 40
298.0
 40
298.0
 40
299.0
 40
299.0
 40
300.0
 40
300.0
 40
301.0
 40
301.0
 40
302.0
 40
302.0
 40
303.0
 40
303.0
 40
304.0
 40
304.0
 40
305.0
 40
305.0
 40
306.0
 40
306.0
 40
307.0
 40
307.0
 40
308.0
 40
308.0
 40
309.0
 40
309.0
 40
310.0
 40
310.0
 40
311.0
 40
311.0
 40
312.0
 40
312.0
 40
313.0
 40
313.0
 40
314.0
 40
314.0
 40
315.0
 40
315.0
 40
316.0
 40
316.0
 40
317.0
 40
317.0
 40
318.0
 40
318.0
 40
319.0
 40
319.0
 40
320.0
 40
320.0
 40
321.0
 40
321.0
 40
322.0
 40
322.0
 40
323.0
 40
323.0
 40
324.0
 40
324.0
 40
325.0
 40
325.0
 40
326.0
 40
326.0
 40
327.0
 40
327.0
 40
328.0
 40
328.0
 40
329.0
 40
329.0
 40
330.0
 40
330.0
 40
331.0
 40
331.0
 40
332.0
 40
332.0
 40
333.0
 40
333.0
 40
334.0
 40
334.0
 40
335.0
 40
335.0
 40
336.0
 40
336.0
 40
337.0
 40
337.0
 40
338.0
 40
338.0
 40
339.0
 40
339.0
 40
340.0
 40
340.0
 40
341.0
 40
341.0
 40
342.0
 40
342.0
 40
343.0
 40
343.0
 40
344.0
 40
344.0
 40
345.0
 40
345.0
 40
346.0
 40
346.0
 40
347.0
 40
347.0
 40
348.0
 40
348.0
 40
349.0
 40
349.0
 40
350.0
 40
350.0
 40
351.0
 40
351.0
 40
352.0
 40
352.0
 40
353.0
 40
353.0
 40
354.0
 40
354.0
 40
355.0
 40
355.0
 40
356.0
 40
356.0
 40
357.0
 40
357.0
 40
358.0
 40
358.0
 40
359.0
 40
359.0
 40
360.0
 40
360.0
 40
361.0
 40
361.0
 40
362.0
 40
362.0
 40
363.0
 40
363.0
 40
364.0
 40
364.0
 40
365.0
 40
365.0
 40
366.0
 40
366.0
 40
367.0
 40
367.0
 40
368.0
 40
368.0
 40
369.0
 40
369.0
 40
370.0
 40
370.0
 40
371.0
 40
371.0
 40
372.0
 40
372.0
 40
373.0
 40
373.0
 40
374.0
 40
374.0
 40
375.0
 40
375.0
 40
376.0
 40
376.0
 40
377.0
 40
377.0
 40
378.0
 40
378.0
 40
379.0
 40
379.0
 40
380.0
 40
380.0
 40
381.0
 40
381.0
 40
382.0
 40
382.0
 40
383.0
 40
383.0
 40
384.0
 40
384.0
 40
385.0
 40
385.0
 40
386.0
 40
386.0
 40
387.0
 40
387.0
 40
388.0
 40
388.0
 40
389.0
 40
389.0
 40
389.0
 10
478.07363916087456
 20
-3421.4732441249753
 30
0.0
 41
1.0
 10
478.89206326959504
 20
-3421.4732441249753
 30
0.0
 41
1.0
 10
479.71048737831552
 20
-3421.4732441249753
 30
0.0
 41
1.0
 10
479.29673364279876
 20
-3422.815870389225
 30
0.0
 41
1.0
 10
478.88297990728199
 20
-3424.1584966534747
 30
0.0
 41
1.0
 10
478.90131940247358
 20
-3424.1297958805267
 30
0.0
 41
0.9999957264328796
 10
478.91982639931945
 20
-3424.1012028303521
 30
0.0
 41
1.0
 10
478.95025572343735
 20
-3424.0541899520063
 30
0.0
 41
1.0
 10
478.98068504755526
 20
-3424.0071770736604
 30
0.0
 41
1.0
 10
479.06005069266308
 20
-3423.884558266755
 30
0.0
 41
0.9995394069081666
 10
479.14670908421368
 20
-3423.766980205015
 30
0.0
 41
1.0
 10
479.18246594647383
 20
-3423.7184653124214
 30
0.0
 41
1.0
 10
479.21822280873397
 20
-3423.6699504198273
 30
0.0
 41
1.0
 10
479.35194947654998
 20
-3423.488510144703
 30
0.0
 41
0.9994460617143419
 10
479.49744995783897
 20
-3423.316367747052
 30
0.0
 41
1.0
 10
479.50183813881335
 20
-3423.3111760666702
 30
0.0
 41
1.0
 10
479.5062263197878
 20
-3423.3059843862884
 30
0.0
 41
1.0
 10
479.64295043912739
 20
-3423.1442253494019
 30
0.0
 41
0.999435939493444
 10
479.79022466947828
 20
-3422.9920091482377
 30
0.0
 41
1.0
 10
479.79260802343015
 20
-3422.9895458178662
 30
0.0
 41
1.0
 10
479.79499137738202
 20
-3422.9870824874943
 30
0.0
 41
1.0
 10
479.93749889982809
 20
-3422.8397929470748
 30
0.0
 41
0.9995293688567472
 10
480.08877058081191
 20
-3422.7015197349092
 30
0.0
 41
1.0
 10
480.10806434007378
 20
-3422.6838838492595
 30
0.0
 41
1.0
 10
480.12735809933565
 20
-3422.6662479636093
 30
0.0
 41
1.0
 10
480.24004226179267
 20
-3422.5632465227459
 30
0.0
 41
0.9997087614802481
 10
480.35756515074905
 20
-3422.4658022419471
 30
0.0
 41
1.0
 10
480.37673122392232
 20
-3422.4499106634412
 30
0.0
 41
1.0
 10
480.39589729709553
 20
-3422.4340190849352
 30
0.0
 41
1.0
 10
480.47508803969708
 20
-3422.3683579611547
 30
0.0
 41
0.9999595338690041
 10
480.55544731055926
 20
-3422.3041322304944
 30
0.0
 41
1.0
 10
480.63580658140711
 20
-3422.2399064998449
 30
0.0
 41
0.9999749417511813
 10
480.7170671157495
 20
-3422.1768249458992
 30
0.0
 41
1.0
 10
480.73805326192792
 20
-3422.1605336585853
 30
0.0
 41
1.0
 10
480.75903940810633
 20
-3422.144242371271
 30
0.0
 41
1.0
 10
480.84360729339085
 20
-3422.0785933614438
 30
0.0
 41
0.9999792037120753
 10
480.92901489316029
 20
-3422.0140405798002
 30
0.0
 41
1.0
 10
480.94983971913564
 20
-3421.9983007574942
 30
0.0
 41
1.0
 10
480.97066454511094
 20
-3421.9825609351883
 30
0.0
 41
1.0
 10
481.01442249294041
 20
-3421.9494877981488
 30
0.0
 41
0.9999993374161716
 10
481.05810417907298
 20
-3421.9163140027326
 30
0.0
 41
1.0
 10
481.10178586522096
 20
-3421.8831402073051
 30
0.0
 41
0.9999160953815501
 10
481.14631227615229
 20
-3421.8511091420987
 30
0.0
 41
1.0
 10
481.1791341635635
 20
-3421.8274979865196
 30
0.0
 41
1.0
 10
481.21195605097478
 20
-3421.8038868309404
 30
0.0
 41
1.0
 10
481.32212623673377
 20
-3421.7246334545721
 30
0.0
 41
0.9980964527231335
 10
481.44121523023449
 20
-3421.6595459817163
 30
0.0
 41
1.0
 10
481.47824783716135
 20
-3421.6393060021237
 30
0.0
 41
1.0
 10
481.51528044408826
 20
-3421.6190660225311
 30
0.0
 41
1.0
 10
481.69460745736149
 20
-3421.5210557718301
 30
0.0
 41
0.9984572810573116
 10
481.88369602372205
 20
-3421.4435335104827
 30
0.0
 41
1.0
 10
481.88734229311893
 20
-3421.4420386181446
 30
0.0
 41
1.0
 10
481.89098856251582
 20
-3421.440543725806
 30
0.0
 41
1.0
 10
482.07278459008205
 20
-3421.3660112491357
 30
0.0
 41
0.9987838528033942
 10
482.26103724864021
 20
-3421.3097456089704
 30
0.0
 41
1.0
 10
482.26527519783792
 20
-3421.3084789552804
 30
0.0
 41
1.0
 10
482.2695131470357
 20
-3421.3072123015904
 30
0.0
 41
1.0
 10
482.44928990719831
 20
-3421.2534799688051
 30
0.0
 41
0.9990652816207145
 10
482.6330358389153
 20
-3421.2154762892628
 30
0.0
 41
1.0
 10
482.63822423994475
 20
-3421.2144031861567
 30
0.0
 41
1.0
 10
482.64341264097413
 20
-3421.2133300830506
 30
0.0
 41
1.0
 10
482.8167817706294
 20
-3421.1774726097215
 30
0.0
 41
0.9992909934270913
 10
482.9923575370895
 20
-3421.1547621772543
 30
0.0
 41
1.0
 10
483.1679333035504
 20
-3421.1320517447875
 30
0.0
 41
0.9994553539448196
 10
483.34462473664667
 20
-3421.1209724405812
 30
0.0
 41
1.0
 10
483.38005914443562
 20
-3421.118750552534
 30
0.0
 41
1.0
 10
483.41549355222458
 20
-3421.1165286644864
 30
0.0
 41
1.0
 10
483.58171931879798
 20
-3421.1061056020744
 30
0.0
 41
0.9990928098293199
 10
483.74822911070424
 20
-3421.1098652433088
 30
0.0
 41
1.0
 10
483.78679094597993
 20
-3421.1107359348416
 30
0.0
 41
1.0
 10
483.82535278125562
 20
-3421.1116066263749
 30
0.0
 41
1.0
 10
483.91473890261079
 20
-3421.1136248845432
 30
0.0
 41
0.9998382089206104
 10
484.00399458539312
 20
-3421.1188570110712
 30
0.0
 41
1.0
 10
484.00442449161244
 20
-3421.1188822119734
 30
0.0
 41
1.0
 10
484.00485439783176
 20
-3421.1189074128756
 30
0.0
 41
1.0
 10
484.09325026817874
 20
-3421.1240891375992
 30
0.0
 41
0.9997558016757958
 10
484.1813308453801
 20
-3421.1331716529658
 30
0.0
 41
1.0
 10
484.18180698381349
 20
-3421.1332207504488
 30
0.0
 41
1.0
 10
484.18228312224687
 20
-3421.1332698479318
 30
0.0
 41
1.0
 10
484.26941142258471
 20
-3421.1422541683328
 30
0.0
 41
0.9996565144181512
 10
484.35594927592302
 20
-3421.1557914750215
 30
0.0
 41
1.0
 10
484.35641520130099
 20
-3421.1558643607532
 30
0.0
 41
1.0
 10
484.35688112667896
 20
-3421.1559372464844
 30
0.0
 41
1.0
 10
484.44248712926611
 20
-3421.1693287817106
 30
0.0
 41
0.9995321806867816
 10
484.52711420959304
 20
-3421.1879292701396
 30
0.0
 41
1.0
 10
484.52750340416196
 20
-3421.1880148126047
 30
0.0
 41
1.0
 10
484.52789259873094
 20
-3421.1881003550702
 30
0.0
 41
1.0
 10
484.61174128991837
 20
-3421.2065297585677
 30
0.0
 41
0.9993819199218166
 10
484.69408782411722
 20
-3421.2308051418295
 30
0.0
 41
1.0
 10
484.6943262576151
 20
-3421.2308754309388
 30
0.0
 41
1.0
 10
484.69456469111299
 20
-3421.2309457200481
 30
0.0
 41
1.0
 10
484.77643435831277
 20
-3421.2550805250899
 30
0.0
 41
0.999208856850587
 10
484.85612687730168
 20
-3421.2856457608846
 30
0.0
 41
1.0
 10
484.9358078681808
 20
-3421.3162053616179
 30
0.0
 41
0.9990226101773384
 10
485.01247853808786
 20
-3421.3536827932321
 30
0.0
 41
1.0
 10
485.08913767988497
 20
-3421.3911545897854
 30
0.0
 41
0.9988424273972067
 10
485.1618413070974
 20
-3421.4358193650387
 30
0.0
 41
1.0
 10
485.1621090154772
 20
-3421.4359838291111
 30
0.0
 41
1.0
 10
485.16237672385694
 20
-3421.4361482931836
 30
0.0
 41
1.0
 10
485.23561576782845
 20
-3421.4811419965813
 30
0.0
 41
0.9986928844492513
 10
485.30387863453819
 20
-3421.5333777308606
 30
0.0
 41
1.0
 10
485.30445992676067
 20
-3421.5338225440883
 30
0.0
 41
1.0
 10
485.30504121898315
 20
-3421.5342673573159
 30
0.0
 41
1.0
 10
485.37446667013933
 20
-3421.5873927180523
 30
0.0
 41
0.9986007262279367
 10
485.4378928399048
 20
-3421.6475534877445
 30
0.0
 41
1.0
 10
485.43878725536217
 20
-3421.6484018555798
 30
0.0
 41
1.0
 10
485.4396816708196
 20
-3421.649250223415
 30
0.0
 41
1.0
 10
485.50489667150026
 20
-3421.7111077287786
 30
0.0
 41
0.9985581491383484
 10
485.56310428320126
 20
-3421.7796002190489
 30
0.0
 41
1.0
 10
485.57236273679769
 20
-3421.7904945767514
 30
0.0
 41
1.0
 10
485.58162119039406
 20
-3421.8013889344538
 30
0.0
 41
1.0
 10
485.65834570928655
 20
-3421.8916701401276
 30
0.0
 41
0.9970460233518588
 10
485.72033761044577
 20
-3421.9926372243094
 30
0.0
 41
1.0
 10
485.73480697552702
 20
-3422.0162036833935
 30
0.0
 41
1.0
 10
485.74927634060822
 20
-3422.0397701424772
 30
0.0
 41
1.0
 10
485.78901304061981
 20
-3422.1044898665086
 30
0.0
 41
0.9988468816638616
 10
485.82235941136958
 20
-3422.1727223189323
 30
0.0
 41
1.0
 10
485.82939543386044
 20
-3422.1871192400686
 30
0.0
 41
1.0
 10
485.83643145635136
 20
-3422.2015161612048
 30
0.0
 41
1.0
 10
485.8557057821215
 20
-3422.240954771361
 30
0.0
 41
0.9998431189998123
 10
485.87357110961608
 20
-3422.2810513258009
 30
0.0
 41
1.0
 10
485.8914364371069
 20
-3422.3211478802323
 30
0.0
 41
0.9999989989824537
 10
485.90941516052868
 20
-3422.3611937178157
 30
0.0
 41
1.0
 10
485.91558747212514
 20
-3422.3749419346332
 30
0.0
 41
1.0
 10
485.92175978372154
 20
-3422.3886901514506
 30
0.0
 41
1.0
 10
485.95208313033174
 20
-3422.4562324226595
 30
0.0
 41
0.9998790356322733
 10
485.98029101046831
 20
-3422.5246851745933
 30
0.0
 41
1.0
 10
485.98712619175456
 20
-3422.5412722760257
 30
0.0
 41
1.0
 10
485.99396137304086
 20
-3422.5578593774576
 30
0.0
 41
1.0
 10
486.01751903541992
 20
-3422.6150273323401
 30
0.0
 41
0.9998227574560463
 10
486.03890778380821
 20
-3422.6730416406149
 30
0.0
 41
1.0
 10
486.06029653219798
 20
-3422.7310559488938
 30
0.0
 41
0.9996797971041203
 10
486.07872281715555
 20
-3422.790078068007
 30
0.0
 41
1.0
 10
486.08262661988169
 20
-3422.8025825261775
 30
0.0
 41
1.0
 10
486.08653042260784
 20
-3422.8150869843485
 30
0.0
 41
1.0
 10
486.11276431301843
 20
-3422.8991180198054
 30
0.0
 41
0.9979274938733617
 10
486.12798883649731
 20
-3422.9858223784649
 30
0.0
 41
1.0
 10
486.13021252375836
 20
-3422.9984863792852
 30
0.0
 41
1.0
 10
486.13243621101935
 20
-3423.0111503801054
 30
0.0
 41
1.0
 10
486.14336615071744
 20
-3423.0733968873938
 30
0.0
 41
0.9994985982137541
 10
486.1503343158949
 20
-3423.1362103885394
 30
0.0
 41
1.0
 10
486.15730248107178
 20
-3423.1990238896792
 30
0.0
 41
0.9996372611201221
 10
486.16087834683964
 20
-3423.2621214683645
 30
0.0
 41
1.0
 10
486.16104692432896
 20
-3423.2650960854462
 30
0.0
 41
1.0
 10
486.16121550181822
 20
-3423.2680707025279
 30
0.0
 41
1.0
 10
486.16512852256471
 20
-3423.3371175153761
 30
0.0
 41
0.9997730630736558
 10
486.16609683605276
 20
-3423.4062683394141
 30
0.0
 41
1.0
 10
486.16615394247083
 20
-3423.4103465185526
 30
0.0
 41
1.0
 10
486.1662110488889
 20
-3423.4144246976916
 30
0.0
 41
1.0
 10
486.16729357521314
 20
-3423.4917318800126
 30
0.0
 41
0.9998772614071518
 10
486.16595348848125
 20
-3423.5690350265836
 30
0.0
 41
1.0
 10
486.16586422528258
 20
-3423.5741841904137
 30
0.0
 41
1.0
 10
486.16577496208396
 20
-3423.5793333542438
 30
0.0
 41
1.0
 10
486.1642563489545
 20
-3423.6669348284786
 30
0.0
 41
0.9999415567329991
 10
486.160844038709
 20
-3423.7544829901485
 30
0.0
 41
1.0
 10
486.1606027180336
 20
-3423.760674449888
 30
0.0
 41
1.0
 10
486.16036139735814
 20
-3423.766865909628
 30
0.0
 41
1.0
 10
486.15646644576179
 20
-3423.8667969907719
 30
0.0
 41
0.9999716810424641
 10
486.15106786264283
 20
-3423.9666581290098
 30
0.0
 41
1.0
 10
486.14785506385454
 20
-3424.0260873786583
 30
0.0
 41
1.0
 10
486.14464226506618
 20
-3424.0855166283063
 30
0.0
 41
1.0
 10
486.1365683559128
 20
-3424.2348650295994
 30
0.0
 41
0.999981912990034
 10
486.12669856429619
 20
-3424.3841055073131
 30
0.0
 41
1.0
 10
486.11682877267958
 20
-3424.5333459850244
 30
0.0
 41
1.0
 10
486.11438945211569
 20
-3424.570539030874
 30
0.0
 41
1.0
 10
486.13708768589424
 20
-3424.5317980336331
 30
0.0
 41
0.9999982128160666
 10
486.15993224463159
 20
-3424.4931431397058
 30
0.0
 41
1.0
 10
486.1868418045517
 20
-3424.4476099255908
 30
0.0
 41
1.0
 10
486.21375136447182
 20
-3424.4020767114757
 30
0.0
 41
1.0
 10
486.29041504299676
 20
-3424.2723553894075
 30
0.0
 41
0.9998609190055895
 10
486.37136235586183
 20
-3424.1452630074732
 30
0.0
 41
1.0
 10
486.40101067734446
 20
-3424.0987132745149
 30
0.0
 41
1.0
 10
486.43065899882708
 20
-3424.0521635415562
 30
0.0
 41
1.0
 10
486.51293121906161
 20
-3423.922990971565
 30
0.0
 41
0.9999067609733379
 10
486.59870022852402
 20
-3423.7961132821265
 30
0.0
 41
1.0
 10
486.60110493171908
 20
-3423.7925560160802
 30
0.0
 41
1.0
 10
486.60350963491419
 20
-3423.7889987500339
 30
0.0
 41
1.0
 10
486.68446923798496
 20
-3423.6692355926893
 30
0.0
 41
0.9998784952148412
 10
486.76912284766945
 20
-3423.5520543759762
 30
0.0
 41
1.0
 10
486.85377645735463
 20
-3423.4348731592622
 30
0.0
 41
0.9998532968281989
 10
486.94239407817486
 20
-3423.3206602507953
 30
0.0
 41
1.0
 10
486.96235586716671
 20
-3423.2949329297744
 30
0.0
 41
1.0
 10
486.98231765615861
 20
-3423.2692056087531
 30
0.0
 41
1.0
 10
487.10080170591624
 20
-3423.1164999977864
 30
0.0
 41
0.9991551975795483
 10
487.23142615553803
 20
-3422.9740404357044
 30
0.0
 41
1.0
 10
487.23493577151578
 20
-3422.9702128340823
 30
0.0
 41
1.0
 10
487.23844538749347
 20
-3422.9663852324602
 30
0.0
 41
1.0
 10
487.36205060516136
 20
-3422.8315808736211
 30
0.0
 41
0.999741814418099
 10
487.49165274486217
 20
-3422.7025314630087
 30
0.0
 41
1.0
 10
487.62125488456235
 20
-3422.5734820523962
 30
0.0
 41
0.9989238204632761
 10
487.76225743281441
 20
-3422.4569970903567
 30
0.0
 41
1.0
 10
487.80750511095425
 20
-3422.4196170987479
 30
0.0
 41
1.0
 10
487.8527527890941
 20
-3422.3822371071387
 30
0.0
 41
1.0
 10
487.99299284631383
 20
-3422.2663820538492
 30
0.0
 41
0.9990825084097059
 10
488.14263277891826
 20
-3422.1629530560158
 30
0.0
 41
1.0
 10
488.15267814297522
 20
-3422.1560098429363
 30
0.0
 41
1.0
 10
488.16272350703218
 20
-3422.1490666298569
 30
0.0
 41
1.0
 10
488.29227271152371
 20
-3422.059524058182
 30
0.0
 41
0.9998164899825782
 10
488.42515691489848
 20
-3421.9750098166669
 30
0.0
 41
1.0
 10
488.43700247542102
 20
-3421.9674760501434
 30
0.0
 41
1.0
 10
488.44884803594357
 20
-3421.95994228362
 30
0.0
 41
1.0
 10
488.55804111827092
 20
-3421.8904955751527
 30
0.0
 41
0.9997473449129509
 10
488.67024507552418
 20
-3421.8260266173347
 30
0.0
 41
1.0
 10
488.78244903277294
 20
-3421.7615576595194
 30
0.0
 41
0.9999327861143335
 10
488.89611764353259
 20
-3421.6997076678399
 30
0.0
 41
1.0
 10
488.89666964609557
 20
-3421.6994073091596
 30
0.0
 41
1.0
 10
488.8972216486585
 20
-3421.6991069504793
 30
0.0
 41
1.0
 10
489.01199426454696
 20
-3421.6366562414378
 30
0.0
 41
0.999695642048388
 10
489.12970759038831
 20
-3421.5799427744628
 30
0.0
 41
1.0
 10
489.16014799528534
 20
-3421.5652767977308
 30
0.0
 41
1.0
 10
489.19058840018232
 20
-3421.5506108209984
 30
0.0
 41
1.0
 10
489.29356550692148
 20
-3421.5009971625577
 30
0.0
 41
0.9998070570176874
 10
489.39841189585377
 20
-3421.4554665756605
 30
0.0
 41
1.0
 10
489.50325828479197
 20
-3421.4099359887605
 30
0.0
 41
0.9997827436147324
 10
489.60991122140166
 20
-3421.3688148174483
 30
0.0
 41
1.0
 10
489.62913407103451
 20
-3421.3614032438154
 30
0.0
 41
1.0
 10
489.64835692066737
 20
-3421.3539916701825
 30
0.0
 41
1.0
 10
489.79345555654095
 20
-3421.2980473516054
 30
0.0
 41
0.9988031841976349
 10
489.94332591914571
 20
-3421.2565472874376
 30
0.0
 41
1.0
 10
489.96824316750605
 20
-3421.2496475416315
 30
0.0
 41
1.0
 10
489.99316041586638
 20
-3421.2427477958254
 30
0.0
 41
1.0
 10
490.16043044151581
 20
-3421.1964296534179
 30
0.0
 41
0.9984748040549497
 10
490.33178735016736
 20
-3421.1688354211528
 30
0.0
 41
1.0
 10
490.33652648641373
 20
-3421.1680722606397
 30
0.0
 41
1.0
 10
490.3412656226601
 20
-3421.1673091001267
 30
0.0
 41
1.0
 10
490.50314425881351
 20
-3421.1412411888878
 30
0.0
 41
0.9984436495479633
 10
490.66691900254108
 20
-3421.1333632350688
 30
0.0
 41
1.0
 10
490.6886162106756
 20
-3421.132319547869
 30
0.0
 41
1.0
 10
490.71031341881013
 20
-3421.1312758606691
 30
0.0
 41
1.0
 10
490.83069374626893
 20
-3421.1254852812503
 30
0.0
 41
0.9987954789336683
 10
490.95106199117561
 20
-3421.1315218089926
 30
0.0
 41
1.0
 10
490.97102678366548
 20
-3421.1325230533312
 30
0.0
 41
1.0
 10
490.9909915761553
 20
-3421.1335242976693
 30
0.0
 41
1.0
 10
491.07143023608074
 20
-3421.1375583367344
 30
0.0
 41
0.9997941595876918
 10
491.15163901417986
 20
-3421.1448524026559
 30
0.0
 41
1.0
 10
491.23184779227824
 20
-3421.1521464685775
 30
0.0
 41
0.999858946623685
 10
491.31176633913856
 20
-3421.1621303230281
 30
0.0
 41
1.0
 10
491.34417254094217
 20
-3421.1661786799468
 30
0.0
 41
1.0
 10
491.37657874274578
 20
-3421.1702270368655
 30
0.0
 41
1.0
 10
491.52130969321564
 20
-3421.1883076051536
 30
0.0
 41
0.9993495063249106
 10
491.66436093697962
 20
-3421.2167733148954
 30
0.0
 41
1.0
 10
491.69729463412659
 20
-3421.2233267781094
 30
0.0
 41
1.0
 10
491.73022833127362
 20
-3421.2298802413229
 30
0.0
 41
1.0
 10
491.83952215448573
 20
-3421.2516285754596
 30
0.0
 41
0.999678871556145
 10
491.9475737264479
 20
-3421.2788863748237
 30
0.0
 41
1.0
 10
491.94963672898757
 20
-3421.2794068013968
 30
0.0
 41
1.0
 10
491.9516997315273
 20
-3421.2799272279699
 30
0.0
 41
1.0
 10
492.05562529840455
 20
-3421.3061441741866
 30
0.0
 41
0.9995480654492464
 10
492.15778753363372
 20
-3421.3385591308111
 30
0.0
 41
1.0
 10
492.1594771757658
 20
-3421.3390952357258
 30
0.0
 41
1.0
 10
492.16116681789794
 20
-3421.3396313406411
 30
0.0
 41
1.0
 10
492.25994976886631
 20
-3421.3709740874369
 30
0.0
 41
0.9993867959456932
 10
492.35629692730572
 20
-3421.4091534567251
 30
0.0
 41
1.0
 10
492.3575398763918
 20
-3421.4096459986222
 30
0.0
 41
1.0
 10
492.35878282547793
 20
-3421.4101385405188
 30
0.0
 41
1.0
 10
492.45264408574843
 20
-3421.4473328260151
 30
0.0
 41
0.9992050256522665
 10
492.54324376078159
 20
-3421.4918867252536
 30
0.0
 41
1.0
 10
492.54397844349603
 20
-3421.4922480177156
 30
0.0
 41
1.0
 10
492.54471312621047
 20
-3421.4926093101772
 30
0.0
 41
1.0
 10
492.63384343581629
 20
-3421.5364406244935
 30
0.0
 41
0.999022235074292
 10
492.71875349720864
 20
-3421.5879738921908
 30
0.0
 41
1.0
 10
492.71893738248974
 20
-3421.5880854950947
 30
0.0
 41
1.0
 10
492.71912126777084
 20
-3421.5881970979985
 30
0.0
 41
1.0
 10
492.80366355860167
 20
-3421.6395071598886
 30
0.0
 41
0.998864274380396
 10
492.8829380932213
 20
-3421.6986313474144
 30
0.0
 41
1.0
 10
492.96221262784081
 20
-3421.7577555349403
 30
0.0
 41
0.9987681233312539
 10
493.03523641211865
 20
-3421.8244462263424
 30
0.0
 41
1.0
 10
493.03556534008334
 20
-3421.8247466275557
 30
0.0
 41
1.0
 10
493.03589426804803
 20
-3421.8250470287689
 30
0.0
 41
1.0
 10
493.10957590825529
 20
-3421.8923385225976
 30
0.0
 41
0.9987496570898348
 10
493.17616971358279
 20
-3421.9666513366847
 30
0.0
 41
1.0
 10
493.17694188334337
 20
-3421.9675130100427
 30
0.0
 41
1.0
 10
493.1777140531039
 20
-3421.9683746834007
 30
0.0
 41
1.0
 10
493.24585219795222
 20
-3422.044410844203
 30
0.0
 41
0.9988147669826103
 10
493.30627445217584
 20
-3422.1267118510441
 30
0.0
 41
1.0
 10
493.3073937782541
 20
-3422.1282364823974
 30
0.0
 41
1.0
 10
493.30851310433241
 20
-3422.1297611137506
 30
0.0
 41
1.0
 10
493.37117401071367
 20
-3422.2151113832992
 30
0.0
 41
0.9989452636216044
 10
493.42574092367425
 20
-3422.305850072456
 30
0.0
 41
1.0
 10
493.42708964975986
 20
-3422.3080928534819
 30
0.0
 41
1.0
 10
493.42843837584553
 20
-3422.3103356345082
 30
0.0
 41
1.0
 10
493.4857027409775
 20
-3422.4055598857176
 30
0.0
 41
0.9991046436071662
 10
493.53471195429984
 20
-3422.5052843187436
 30
0.0
 41
1.0
 10
493.53617581588986
 20
-3422.5082629988165
 30
0.0
 41
1.0
 10
493.53763967747989
 20
-3422.5112416788888
 30
0.0
 41
1.0
 10
493.58957661398205
 20
-3422.6169234720601
 30
0.0
 41
0.9992763831101053
 10
493.63332974253586
 20
-3422.7262475340131
 30
0.0
 41
1.0
 10
493.63480901219958
 20
-3422.7299437215479
 30
0.0
 41
1.0
 10
493.6362882818633
 20
-3422.7336399090823
 30
0.0
 41
1.0
 10
493.68299994974535
 20
-3422.8503563461059
 30
0.0
 41
0.9994163472883614
 10
493.72163298093511
 20
-3422.9699899345701
 30
0.0
 41
1.0
 10
493.72287113318168
 20
-3422.9738240783522
 30
0.0
 41
1.0
 10
493.7241092854282
 20
-3422.9776582221343
 30
0.0
 41
1.0
 10
493.7639928464443
 20
-3423.1011642836083
 30
0.0
 41
0.9997268055889853
 10
493.79806090235763
 20
-3423.2263993155639
 30
0.0
 41
1.0
 10
493.79899108262714
 20
-3423.2298186816724
 30
0.0
 41
1.0
 10
493.7999212628967
 20
-3423.2332380477815
 30
0.0
 41
1.0
 10
493.83212895827029
 20
-3423.3516343475185
 30
0.0
 41
0.999670131900115
 10
493.85821457504011
 20
-3423.4715283007781
 30
0.0
 41
1.0
 10
493.88430019181021
 20
-3423.5914222540396
 30
0.0
 41
0.9995785451109391
 10
493.90338376915065
 20
-3423.7126280150751
 30
0.0
 41
1.0
 10
493.90760355132426
 20
-3423.7394291698392
 30
0.0
 41
1.0
 10
493.91182333349786
 20
-3423.7662303246038
 30
0.0
 41
1.0
 10
493.93839830943631
 20
-3423.9350162983083
 30
0.0
 41
0.9979925101217472
 10
493.94342389536268
 20
-3424.105807626398
 30
0.0
 41
1.0
 10
493.94424870778732
 20
-3424.1338383498796
 30
0.0
 41
1.0
 10
493.94507352021202
 20
-3424.1618690733612
 30
0.0
 41
1.0
 10
493.948449481289
 20
-3424.2765989544923
 30
0.0
 41
0.9995314902263142
 10
493.94479928915052
 20
-3424.3913204382416
 30
0.0
 41
1.0
 10
493.94114909701176
 20
-3424.5060419219972
 30
0.0
 41
0.9996245486944226
 10
493.93122000188089
 20
-3424.6203911931202
 30
0.0
 41
1.0
 10
493.93105695388681
 20
-3424.6222689492542
 30
0.0
 41
1.0
 10
493.93089390589267
 20
-3424.6241467053878
 30
0.0
 41
1.0
 10
493.92063871477308
 20
-3424.7422514887835
 30
0.0
 41
0.9997286095001394
 10
493.90489339120211
 20
-3424.8597503976757
 30
0.0
 41
1.0
 10
493.90449989855165
 20
-3424.8626868223782
 30
0.0
 41
1.0
 10
493.90410640590119
 20
-3424.8656232470812
 30
0.0
 41
1.0
 10
493.88757409702833
 20
-3424.9889950053839
 30
0.0
 41
0.9998265533969293
 10
493.86645863829636
 20
-3425.1116654801685
 30
0.0
 41
1.0
 10
493.86578209615925
 20
-3425.115595858676
 30
0.0
 41
1.0
 10
493.86510555402214
 20
-3425.119526237183
 30
0.0
 41
1.0
 10
493.84263701101429
 20
-3425.2500574689902
 30
0.0
 41
0.9999022530854784
 10
493.81652754640481
 20
-3425.3799094376268
 30
0.0
 41
1.0
 10
493.81554890523967
 20
-3425.3847765800128
 30
0.0
 41
1.0
 10
493.81457026407452
 20
-3425.3896437223993
 30
0.0
 41
1.0
 10
493.78650351713543
 20
-3425.5292299758048
 30
0.0
 41
0.9999524761940367
 10
493.75572054829928
 20
-3425.6682424689761
 30
0.0
 41
1.0
 10
493.75444444112372
 20
-3425.6740052282789
 30
0.0
 41
1.0
 10
493.75316833394811
 20
-3425.6797679875817
 30
0.0
 41
1.0
 10
493.71983315076034
 20
-3425.8303059993596
 30
0.0
 41
0.9999813588713676
 10
493.68466214996647
 20
-3425.9804257120077
 30
0.0
 41
1.0
 10
493.68310822451002
 20
-3425.9870583024294
 30
0.0
 41
1.0
 10
493.68155429905357
 20
-3425.9936908928516
 30
0.0
 41
1.0
 10
493.64327544735454
 20
-3426.1570757863119
 30
0.0
 41
0.9999955237712992
 10
493.60401956937312
 20
-3426.3202286899214
 30
0.0
 41
1.0
 10
493.59173793373424
 20
-3426.371272880463
 30
0.0
 41
1.0
 10
493.57945629809535
 20
-3426.4223170710047
 30
0.0
 41
1.0
 10
493.51563714885901
 20
-3426.6875583556034
 30
0.0
 41
0.9999993604387112
 10
493.45121820165207
 20
-3426.9526546064485
 30
0.0
 41
1.0
 10
493.44649936611808
 20
-3426.9720735144356
 30
0.0
 41
1.0
 10
493.44178053058408
 20
-3426.9914924224222
 30
0.0
 41
1.0
 10
493.36792391232325
 20
-3427.2954264891832
 30
0.0
 41
0.9999659914730842
 10
493.28906431643759
 20
-3427.5981010357436
 30
0.0
 41
1.0
 10
493.28411162750729
 20
-3427.6171101729246
 30
0.0
 41
1.0
 10
493.27915893857704
 20
-3427.6361193101056
 30
0.0
 41
1.0
 10
493.19039396483288
 20
-3427.9768121310212
 30
0.0
 41
0.9999441976022684
 10
493.09445093187117
 20
-3428.3155535563133
 30
0.0
 41
1.0
 10
493.07775041344416
 20
-3428.3745172688459
 30
0.0
 41
1.0
 10
493.06104989501711
 20
-3428.433480981379
 30
0.0
 41
1.0
 10
492.93170582519537
 20
-3428.8901498317564
 30
0.0
 41
0.9999625120739901
 10
492.79447305787062
 20
-3429.3445103657568
 30
0.0
 41
1.0
 10
492.75868311478848
 20
-3429.4630063923814
 30
0.0
 41
1.0
 10
492.7228931717064
 20
-3429.5815024190056
 30
0.0
 41
1.0
 10
492.64837296766672
 20
-3429.8282294971027
 30
0.0
 41
0.9999793386317049
 10
492.57068694453454
 20
-3430.0739781363218
 30
0.0
 41
1.0
 10
492.49300092139697
 20
-3430.3197267755577
 30
0.0
 41
1.0
 10
492.48222136252627
 20
-3430.3537446799323
 30
0.0
 41
1.0
 10
490.63184830925712
 20
-3436.2408166023997
 30
0.0
 41
1.0
 10
488.78147525598797
 20
-3442.1278885248676
 30
0.0
 41
1.0
 10
487.82021856596441
 20
-3442.1278885248676
 30
0.0
 41
1.0
 10
486.85896187594085
 20
-3442.1278885248676
 30
0.0
 41
1.0
 10
488.47790665461929
 20
-3436.9798600230779
 30
0.0
 41
1.0
 10
490.09685143329773
 20
-3431.8318315212882
 30
0.0
 41
1.0
 10
490.14201725647604
 20
-3431.6878002990056
 30
0.0
 41
1.0
 10
490.18718307965429
 20
-3431.543769076723
 30
0.0
 41
1.0
 10
490.35748749701679
 20
-3431.000678047561
 30
0.0
 41
0.9999911657924413
 10
490.5232203086893
 20
-3430.4561745162227
 30
0.0
 41
1.0
 10
490.55291625219564
 20
-3430.3586105761528
 30
0.0
 41
1.0
 10
490.58261219570198
 20
-3430.2610466360829
 30
0.0
 41
1.0
 10
490.68895312037949
 20
-3429.9116709848263
 30
0.0
 41
0.9999952428127058
 10
490.79313670969447
 20
-3429.5616459605089
 30
0.0
 41
1.0
 10
490.79819618002625
 20
-3429.5446476862362
 30
0.0
 41
1.0
 10
490.8032556503581
 20
-3429.527649411963
 30
0.0
 41
1.0
 10
490.89732029901518
 20
-3429.2116209361729
 30
0.0
 41
0.999993168751396
 10
490.98904613689308
 20
-3428.8949057228892
 30
0.0
 41
1.0
 10
490.99398140134866
 20
-3428.8778650136319
 30
0.0
 41
1.0
 10
490.99891666580424
 20
-3428.8608243043745
 30
0.0
 41
1.0
 10
491.08077197476962
 20
-3428.5781905096092
 30
0.0
 41
0.9999893840807618
 10
491.16001920122358
 20
-3428.2948143803724
 30
0.0
 41
1.0
 10
491.23926642767924
 20
-3428.0114382511292
 30
0.0
 41
0.999983398008237
 10
491.31524266842115
 20
-3427.7271676681012
 30
0.0
 41
1.0
 10
491.32424660514641
 20
-3427.6934787896116
 30
0.0
 41
1.0
 10
491.33325054187162
 20
-3427.6597899111221
 30
0.0
 41
1.0
 10
491.40221509073575
 20
-3427.4017540788336
 30
0.0
 41
0.9999233658064206
 10
491.46477006195391
 20
-3427.1420899201194
 30
0.0
 41
1.0
 10
491.52732503317418
 20
-3426.8824257613969
 30
0.0
 41
1.0
 10
491.56680845203175
 20
-3426.7186190969705
 30
0.0
 41
1.0
 10
491.57178705600597
 20
-3426.6979641351127
 30
0.0
 41
1.0
 10
491.5767656599802
 20
-3426.6773091732553
 30
0.0
 41
1.0
 10
491.60629187088915
 20
-3426.5548124325442
 30
0.0
 41
0.9999868670869281
 10
491.6345609548855
 20
-3426.4320194868988
 30
0.0
 41
1.0
 10
491.63845844204445
 20
-3426.4150898994762
 30
0.0
 41
1.0
 10
491.64235592920346
 20
-3426.3981603120537
 30
0.0
 41
1.0
 10
491.66283003888032
 20
-3426.3092265412588
 30
0.0
 41
0.9999778173347595
 10
491.68211763699713
 20
-3426.2200279240228
 30
0.0
 41
1.0
 10
491.70140523511594
 20
-3426.1308293067777
 30
0.0
 41
0.9999602692860662
 10
491.71909959374551
 20
-3426.0413010183552
 30
0.0
 41
1.0
 10
491.72230342582202
 20
-3426.0250905634748
 30
0.0
 41
1.0
 10
491.72550725789858
 20
-3426.0088801085949
 30
0.0
 41
1.0
 10
491.74960928068401
 20
-3425.8869309103998
 30
0.0
 41
0.9995617985321047
 10
491.76645262790299
 20
-3425.7637691626942
 30
0.0
 41
1.0
 10
491.76891711780945
 20
-3425.7457483453263
 30
0.0
 41
1.0
 10
491.77138160771597
 20
-3425.7277275279589
 30
0.0
 41
1.0
 10
491.79166486876414
 20
-3425.5794124782574
 30
0.0
 41
0.9991121410639913
 10
491.79939022235237
 20
-3425.4299163794526
 30
0.0
 41
1.0
 10
491.80030901237694
 20
-3425.4121365428755
 30
0.0
 41
1.0
 10
491.80122780240157
 20
-3425.3943567062988
 30
0.0
 41
1.0
 10
491.80711557594083
 20
-3425.2804202806437
 30
0.0
 41
0.9989792494904612
 10
491.8026964838233
 20
-3425.1664174447478
 30
0.0
 41
1.0
 10
491.80204851195469
 20
-3425.1497011988213
 30
0.0
 41
1.0
 10
491.80140054008609
 20
-3425.1329849528952
 30
0.0
 41
1.0
 10
491.79827739170594
 20
-3425.052414608856
 30
0.0
 41
0.9997820295395622
 10
491.79179339433028
 20
-3424.9720448871058
 30
0.0
 41
1.0
 10
491.78530939695446
 20
-3424.8916751653592
 30
0.0
 41
0.9998335105973321
 10
491.77589720144306
 20
-3424.8115955489125
 30
0.0
 41
1.0
 10
491.77430227676666
 20
-3424.7980258184289
 30
0.0
 41
1.0
 10
491.77270735209021
 20
-3424.7844560879453
 30
0.0
 41
1.0
 10
491.76010530722613
 20
-3424.6772370105305
 30
0.0
 41
0.9996876457878969
 10
491.74216139442711
 20
-3424.5707815828109
 30
0.0
 41
1.0
 10
491.73992973128213
 20
-3424.557541847571
 30
0.0
 41
1.0
 10
491.73769806813709
 20
-3424.544302112331
 30
0.0
 41
1.0
 10
491.72390224671585
 20
-3424.4624559683721
 30
0.0
 41
0.9995547496495897
 10
491.7052489248232
 20
-3424.3815784711801
 30
0.0
 41
1.0
 10
491.70487496795181
 20
-3424.3799570604742
 30
0.0
 41
1.0
 10
491.70450101108042
 20
-3424.3783356497684
 30
0.0
 41
1.0
 10
491.68659560293099
 20
-3424.3007009739908
 30
0.0
 41
0.9994899427176046
 10
491.66377069425124
 20
-3424.2243676911544
 30
0.0
 41
1.0
 10
491.66331216750996
 20
-3424.2228342413637
 30
0.0
 41
1.0
 10
491.66285364076862
 20
-3424.2213007915734
 30
0.0
 41
1.0
 10
491.64094578557098
 20
-3424.1480344083175
 30
0.0
 41
0.9993784877591188
 10
491.61393015046531
 20
-3424.0764937031608
 30
0.0
 41
1.0
 10
491.61339845948879
 20
-3424.0750857204412
 30
0.0
 41
1.0
 10
491.61286676851228
 20
-3424.0736777377219
 30
0.0
 41
1.0
 10
491.58691451535844
 20
-3424.004952998002
 30
0.0
 41
0.999243083225542
 10
491.55569798019934
 20
-3423.9384538459335
 30
0.0
 41
1.0
 10
491.5551158641419
 20
-3423.9372137908144
 30
0.0
 41
1.0
 10
491.55453374808445
 20
-3423.9359737356954
 30
0.0
 41
1.0
 10
491.52448144503956
 20
-3423.8719546938651
 30
0.0
 41
0.999078963279935
 10
491.48905081826331
 20
-3423.8107480821159
 30
0.0
 41
1.0
 10
491.48845511208174
 20
-3423.8097189962573
 30
0.0
 41
1.0
 10
491.48785940590022
 20
-3423.8086899103992
 30
0.0
 41
1.0
 10
491.45362019148769
 20
-3423.7495414703676
 30
0.0
 41
0.9988874801119866
 10
491.41396091545454
 20
-3423.6938817579485
 30
0.0
 41
1.0
 10
491.41340538939141
 20
-3423.6931021062755
 30
0.0
 41
1.0
 10
491.41284986332835
 20
-3423.6923224546022
 30
0.0
 41
1.0
 10
491.37430163942258
 20
-3423.6382220455307
 30
0.0
 41
0.998676206069366
 10
491.33039916814636
 20
-3423.5883683310913
 30
0.0
 41
1.0
 10
491.32995520781378
 20
-3423.5878641892741
 30
0.0
 41
1.0
 10
491.32951124748115
 20
-3423.587360047457
 30
0.0
 41
1.0
 10
491.28649669686911
 20
-3423.5385146166509
 30
0.0
 41
0.9984621642486486
 10
491.23833914009236
 20
-3423.4947313161811
 30
0.0
 41
1.0
 10
491.23809250557531
 20
-3423.4945070840172
 30
0.0
 41
1.0
 10
491.2378458710582
 20
-3423.4942828518533
 30
0.0
 41
1.0
 10
491.19018158331443
 20
-3423.4509480157099
 30
0.0
 41
0.9982724693850952
 10
491.13776295147312
 20
-3423.4135036651924
 30
0.0
 41
1.0
 10
491.08534431962977
 20
-3423.3760593146731
 30
0.0
 41
0.9981399180153699
 10
491.02875825623414
 20
-3423.345272795229
 30
0.0
 41
1.0
 10
491.02871259415781
 20
-3423.3452479520729
 30
0.0
 41
1.0
 10
491.02866693208142
 20
-3423.3452231089168
 30
0.0
 41
1.0
 10
490.97198954453154
 20
-3423.3143869031592
 30
0.0
 41
0.9980927086838229
 10
490.9119441934655
 20
-3423.2907700943069
 30
0.0
 41
1.0
 10
490.91150402375342
 20
-3423.2905969684316
 30
0.0
 41
1.0
 10
490.9110638540414
 20
-3423.2904238425567
 30
0.0
 41
1.0
 10
490.85013816355217
 20
-3423.2664607819543
 30
0.0
 41
0.9981411356562683
 10
490.78674964215253
 20
-3423.2500881404485
 30
0.0
 41
1.0
 10
490.78586752545095
 20
-3423.2498602982432
 30
0.0
 41
1.0
 10
490.78498540874938
 20
-3423.2496324560375
 30
0.0
 41
1.0
 10
490.71983265394971
 20
-3423.2328041301216
 30
0.0
 41
0.998303181293608
 10
490.65316522495709
 20
-3423.2236647689451
 30
0.0
 41
1.0
 10
490.6442941995482
 20
-3423.2224486502732
 30
0.0
 41
1.0
 10
490.63542317413931
 20
-3423.2212325316013
 30
0.0
 41
1.0
 10
490.58107353163786
 20
-3423.2137818016104
 30
0.0
 41
0.998388770826011
 10
490.52622968234755
 20
-3423.2125371279776
 30
0.0
 41
1.0
 10
490.51816627712975
 20
-3423.2123541301025
 30
0.0
 41
1.0
 10
490.51010287191195
 20
-3423.2121711322279
 30
0.0
 41
1.0
 10
490.47138583305451
 20
-3423.2112924543444
 30
0.0
 41
0.999886956307983
 10
490.43265987985205
 20
-3423.2115783237041
 30
0.0
 41
1.0
 10
490.39393392665562
 20
-3423.2118641930638
 30
0.0
 41
0.9999972320173125
 10
490.35520974745071
 20
-3423.2123322925927
 30
0.0
 41
1.0
 10
490.33585673086463
 20
-3423.2125662326821
 30
0.0
 41
1.0
 10
490.31650371427861
 20
-3423.2128001727715
 30
0.0
 41
1.0
 10
490.23907350191382
 20
-3423.2137361524792
 30
0.0
 41
0.9997304945088043
 10
490.16177019568192
 20
-3423.2182652462643
 30
0.0
 41
1.0
 10
490.15272055397185
 20
-3423.2187954522547
 30
0.0
 41
1.0
 10
490.14367091226177
 20
-3423.219325658245
 30
0.0
 41
1.0
 10
490.04826832262137
 20
-3423.2249151640108
 30
0.0
 41
0.9997888306416118
 10
489.95317598678423
 20
-3423.2344201284991
 30
0.0
 41
1.0
 10
489.94445492520589
 20
-3423.2352918431316
 30
0.0
 41
1.0
 10
489.93573386362755
 20
-3423.2361635577645
 30
0.0
 41
1.0
 10
489.82319940463549
 20
-3423.2474119515186
 30
0.0
 41
0.9984170238190737
 10
489.71264025728084
 20
-3423.2712280334554
 30
0.0
 41
1.0
 10
489.67625912630081
 20
-3423.27906506926
 30
0.0
 41
1.0
 10
489.63987799532083
 20
-3423.2869021050647
 30
0.0
 41
1.0
 10
489.52468692689655
 20
-3423.3117159715753
 30
0.0
 41
0.9976592854202045
 10
489.41395876048875
 20
-3423.3520146487226
 30
0.0
 41
1.0
 10
489.30323059408147
 20
-3423.3923133258709
 30
0.0
 41
0.9993255074352427
 10
489.1957587952873
 20
-3423.4406302243647
 30
0.0
 41
1.0
 10
489.19113361636687
 20
-3423.4427096005629
 30
0.0
 41
1.0
 10
489.18650843744638
 20
-3423.4447889767616
 30
0.0
 41
1.0
 10
489.06978628081004
 20
-3423.4972646276533
 30
0.0
 41
0.9976475078276788
 10
488.96133893650131
 20
-3423.5652126173104
 30
0.0
 41
1.0
 10
488.94299654236158
 20
-3423.5767050961281
 30
0.0
 41
1.0
 10
488.92465414822186
 20
-3423.5881975749458
 30
0.0
 41
1.0
 10
488.8404519566742
 20
-3423.6409546957111
 30
0.0
 41
0.999513133640666
 10
488.75970424171942
 20
-3423.6988609076625
 30
0.0
 41
1.0
 10
488.67895652676464
 20
-3423.7567671196139
 30
0.0
 41
0.999581010760667
 10
488.60169487903602
 20
-3423.8192488020795
 30
0.0
 41
1.0
 10
488.59872484782454
 20
-3423.8216506735453
 30
0.0
 41
1.0
 10
488.59575481661307
 20
-3423.824052545011
 30
0.0
 41
1.0
 10
488.51255310646729
 20
-3423.8913379704031
 30
0.0
 41
0.9996617837954442
 10
488.43296241933564
 20
-3423.9628584259599
 30
0.0
 41
1.0
 10
488.42083166845453
 20
-3423.9737591589542
 30
0.0
 41
1.0
 10
488.40870091757347
 20
-3423.9846598919485
 30
0.0
 41
1.0
 10
488.34042539017685
 20
-3424.046012507421
 30
0.0
 41
0.9997267750052702
 10
488.27509188189362
 20
-3424.1104890439456
 30
0.0
 41
1.0
 10
488.20975837362079
 20
-3424.1749655804601
 30
0.0
 41
0.9999667288958366
 10
488.14548543048056
 20
-3424.2404993873479
 30
0.0
 41
1.0
 10
488.07665798269682
 20
-3424.310677046115
 30
0.0
 41
1.0
 10
488.00783053491301
 20
-3424.380854704882
 30
0.0
 41
1.0
 10
487.80590269621564
 20
-3424.586743829293
 30
0.0
 41
0.9988205335174679
 10
487.62489707923419
 20
-3424.8112480613563
 30
0.0
 41
1.0
 10
487.59425711433073
 20
-3424.8492513117844
 30
0.0
 41
1.0
 10
487.56361714942733
 20
-3424.887254562213
 30
0.0
 41
1.0
 10
487.32133160264118
 20
-3425.1877652951298
 30
0.0
 41
0.9997077826754669
 10
487.09385365153548
 20
-3425.4996350893466
 30
0.0
 41
1.0
 10
487.09213023640388
 20
-3425.5019978727278
 30
0.0
 41
1.0
 10
487.09040682127227
 20
-3425.5043606561089
 30
0.0
 41
1.0
 10
486.85948203990642
 20
-3425.8209560170844
 30
0.0
 41
0.9989147567079
 10
486.65901853702292
 20
-3426.1576654782689
 30
0.0
 41
1.0
 10
486.6342773917147
 20
-3426.1992220588236
 30
0.0
 41
1.0
 10
486.60953624640649
 20
-3426.2407786393778
 30
0.0
 41
1.0
 10
486.45432494777231
 20
-3426.5014800238259
 30
0.0
 41
0.9997476598181272
 10
486.31097996026176
 20
-3426.7688897724097
 30
0.0
 41
1.0
 10
486.16763497275275
 20
-3427.0362995209907
 30
0.0
 41
0.999625896710899
 10
486.03912672082123
 20
-3427.3111474576144
 30
0.0
 41
1.0
 10
486.02592681137139
 20
-3427.3393788577105
 30
0.0
 41
1.0
 10
486.0127269019215
 20
-3427.3676102578061
 30
0.0
 41
1.0
 10
485.87251818092295
 20
-3427.667482655756
 30
0.0
 41
0.9998735413943212
 10
485.74191683420065
 20
-3427.9716622552282
 30
0.0
 41
1.0
 10
485.73847400613761
 20
-3427.9796808406991
 30
0.0
 41
1.0
 10
485.73503117807451
 20
-3427.9876994261695
 30
0.0
 41
1.0
 10
485.61131548747983
 20
-3428.2758418546969
 30
0.0
 41
0.9999377418861097
 10
485.49406068530556
 20
-3428.5666733223711
 30
0.0
 41
1.0
 10
485.37680588313384
 20
-3428.8575047900385
 30
0.0
 41
0.9999508299507612
 10
485.26534193975664
 20
-3429.1506044668586
 30
0.0
 41
1.0
 10
485.26226117109235
 20
-3429.1587054928273
 30
0.0
 41
1.0
 10
485.25918040242806
 20
-3429.166806518796
 30
0.0
 41
1.0
 10
485.14155492172063
 20
-3429.4761082475588
 30
0.0
 41
0.9999609228440101
 10
485.029416318843
 20
-3429.7874412635852
 30
0.0
 41
1.0
 10
485.02646030849775
 20
-3429.7956481039828
 30
0.0
 41
1.0
 10
485.02350429815249
 20
-3429.80385494438
 30
0.0
 41
1.0
 10
484.90545367457958
 20
-3430.1316016412129
 30
0.0
 41
0.9999674607397608
 10
484.7927061485172
 20
-3430.4612102611914
 30
0.0
 41
1.0
 10
484.74130775795089
 20
-3430.6114694568946
 30
0.0
 41
1.0
 10
484.68990936738459
 20
-3430.7617286525979
 30
0.0
 41
1.0
 10
484.57389876062587
 20
-3431.1008766351033
 30
0.0
 41
0.99992875323089
 10
484.46601735665746
 20
-3431.4426973740719
 30
0.0
 41
1.0
 10
484.41954010053621
 20
-3431.5899599183858
 30
0.0
 41
1.0
 10
484.3730628444149
 20
-3431.7372224627002
 30
0.0
 41
1.0
 10
484.35813595275658
 20
-3431.7845181128264
 30
0.0
 41
0.9999998223608427
 10
484.34326544395628
 20
-3431.8318315212882
 30
0.0
 41
1.0
 10
482.72260930716084
 20
-3436.9798600230779
 30
0.0
 41
1.0
 10
481.10195317036539
 20
-3442.1278885248676
 30
0.0
 41
1.0
 10
480.19664472647446
 20
-3442.1278885248676
 30
0.0
 41
1.0
 10
479.29133628258353
 20
-3442.1278885248676
 30
0.0
 41
1.0
 10
481.14342069396957
 20
-3436.2408166023997
 30
0.0
 41
1.0
 10
482.99550510535562
 20
-3430.3537446799323
 30
0.0
 41
1.0
 10
483.00562686365834
 20
-3430.3217014664824
 30
0.0
 41
1.0
 10
483.07823453250808
 20
-3430.0914019246566
 30
0.0
 41
1.0
 10
483.15084220135248
 20
-3429.8611023828475
 30
0.0
 41
0.999982568197443
 10
483.22072524056165
 20
-3429.6299614877912
 30
0.0
 41
1.0
 10
483.26901630272414
 20
-3429.4702369042898
 30
0.0
 41
1.0
 10
483.31730736488663
 20
-3429.3105123207879
 30
0.0
 41
1.0
 10
483.41445971820599
 20
-3428.9891770990052
 30
0.0
 41
0.9999672528966885
 10
483.50639852383017
 20
-3428.6663115534157
 30
0.0
 41
1.0
 10
483.50918740749427
 20
-3428.6565177080456
 30
0.0
 41
1.0
 10
483.51197629115836
 20
-3428.6467238626756
 30
0.0
 41
1.0
 10
483.59833732945151
 20
-3428.3434460078356
 30
0.0
 41
0.9999899749158421
 10
483.68197893898821
 20
-3428.0394069193771
 30
0.0
 41
1.0
 10
483.69208485800687
 20
-3428.0026716816947
 30
0.0
 41
1.0
 10
483.70219077702546
 20
-3427.9659364440122
 30
0.0
 41
1.0
 10
483.76562054852337
 20
-3427.7353678309228
 30
0.0
 41
0.9999214200503327
 10
483.82324997690063
 20
-3427.5032814887154
 30
0.0
 41
1.0
 10
483.83601582908466
 20
-3427.451870603305
 30
0.0
 41
1.0
 10
483.84878168126875
 20
-3427.4004597178946
 30
0.0
 41
1.0
 10
483.88087940528578
 20
-3427.2711951464753
 30
0.0
 41
0.999982868166735
 10
483.91146165727378
 20
-3427.1415636720385
 30
0.0
 41
1.0
 10
483.9420439092678
 20
-3427.0119321975767
 30
0.0
 41
0.9999389844477021
 10
483.96975489805487
 20
-3426.8816567416875
 30
0.0
 41
1.0
 10
483.97689264177689
 20
-3426.8481006378415
 30
0.0
 41
1.0
 10
483.98403038549884
 20
-3426.814544533996
 30
0.0
 41
1.0
 10
484.02601686172932
 20
-3426.6171568704185
 30
0.0
 41
0.9998933699439498
 10
484.06222112612897
 20
-3426.4186272626725
 30
0.0
 41
1.0
 10
484.06359395134621
 20
-3426.411099241971
 30
0.0
 41
1.0
 10
484.06496677656344
 20
-3426.4035712212699
 30
0.0
 41
1.0
 10
484.10391669139898
 20
-3426.1899855721149
 30
0.0
 41
0.9996850305193153
 10
484.13210036765736
 20
-3425.9747145666793
 30
0.0
 41
1.0
 10
484.13409540102634
 20
-3425.9594762125598
 30
0.0
 41
1.0
 10
484.13609043439533
 20
-3425.9442378584404
 30
0.0
 41
1.0
 10
484.16349829685475
 20
-3425.7348926312816
 30
0.0
 41
0.9994697936706756
 10
484.17722285607437
 20
-3425.5242074359521
 30
0.0
 41
1.0
 10
484.17769992532402
 20
-3425.5168839637413
 30
0.0
 41
1.0
 10
484.17817699457368
 20
-3425.5095604915305
 30
0.0
 41
1.0
 10
484.19094741529409
 20
-3425.313522240619
 30
0.0
 41
0.9991804893136942
 10
484.18781909902117
 20
-3425.1170933906478
 30
0.0
 41
1.0
 10
484.1877352201991
 20
-3425.111826589236
 30
0.0
 41
1.0
 10
484.18765134137698
 20
-3425.1065597878242
 30
0.0
 41
1.0
 10
484.18469078274831
 20
-3424.9206645406766
 30
0.0
 41
0.9988448329322206
 10
484.16389923712461
 20
-3424.735911950841
 30
0.0
 41
1.0
 10
484.16230516342159
 20
-3424.72174709507
 30
0.0
 41
1.0
 10
484.16071108971863
 20
-3424.7075822392994
 30
0.0
 41
1.0
 10
484.14310769150086
 20
-3424.551159361009
 30
0.0
 41
0.9985503209459232
 10
484.10879141920128
 20
-3424.3975351769186
 30
0.0
 41
1.0
 10
484.10120542712986
 20
-3424.3635748495171
 30
0.0
 41
1.0
 10
484.09361943505843
 20
-3424.3296145221161
 30
0.0
 41
1.0
 10
484.07447514690097
 20
-3424.2439109928264
 30
0.0
 41
0.9991036781370475
 10
484.04815028525053
 20
-3424.1601339055042
 30
0.0
 41
1.0
 10
484.04416805979491
 20
-3424.1474607429946
 30
0.0
 41
1.0
 10
484.0401858343393
 20
-3424.1347875804854
 30
0.0
 41
1.0
 10
484.02182542360066
 20
-3424.0763568181837
 30
0.0
 41
0.9998874504369698
 10
484.0017202159209
 20
-3424.0185032159561
 30
0.0
 41
1.0
 10
483.98161500824085
 20
-3423.9606496137285
 30
0.0
 41
0.9994041637543911
 10
483.95756639530697
 20
-3423.9043209098395
 30
0.0
 41
1.0
 10
483.95336961108325
 20
-3423.8944908453582
 30
0.0
 41
1.0
 10
483.94917282685952
 20
-3423.8846607808769
 30
0.0
 41
1.0
 10
483.9212939958656
 20
-3423.8193606149111
 30
0.0
 41
0.9991846840701942
 10
483.88823763917253
 20
-3423.7565225836315
 30
0.0
 41
1.0
 10
483.88710103277811
 20
-3423.7543619671778
 30
0.0
 41
1.0
 10
483.88596442638362
 20
-3423.7522013507241
 30
0.0
 41
1.0
 10
483.85518128247884
 20
-3423.6936845523501
 30
0.0
 41
0.9989253167922629
 10
483.81911185842449
 20
-3423.6382696239612
 30
0.0
 41
1.0
 10
483.8180577337497
 20
-3423.6366501291977
 30
0.0
 41
1.0
 10
483.81700360907485
 20
-3423.6350306344348
 30
0.0
 41
1.0
 10
483.78304243436872
 20
-3423.5828546955699
 30
0.0
 41
0.9986467172835996
 10
483.74384528173215
 20
-3423.5344886619414
 30
0.0
 41
1.0
 10
483.74297115303222
 20
-3423.5334100596642
 30
0.0
 41
1.0
 10
483.74209702433228
 20
-3423.532331457387
 30
0.0
 41
1.0
 10
483.70464812909631
 20
-3423.4861226283138
 30
0.0
 41
0.9984001104267994
 10
483.66222139857757
 20
-3423.4444375209432
 30
0.0
 41
1.0
 10
483.66163426046853
 20
-3423.4438606460626
 30
0.0
 41
1.0
 10
483.66104712235949
 20
-3423.4432837711815
 30
0.0
 41
1.0
 10
483.61979466806025
 20
-3423.4027524135736
 30
0.0
 41
0.9982442159080224
 10
483.57403856672482
 20
-3423.3673838523137
 30
0.0
 41
1.0
 10
483.57382377126271
 20
-3423.3672178196703
 30
0.0
 41
1.0
 10
483.57360897580065
 20
-3423.3670517870269
 30
0.0
 41
1.0
 10
483.52828246538814
 20
-3423.3320152910528
 30
0.0
 41
0.9982450060836188
 10
483.47913148631744
 20
-3423.3025835080202
 30
0.0
 41
1.0
 10
483.42998050724691
 20
-3423.2731517249877
 30
0.0
 41
0.998392263963771
 10
483.37781420108291
 20
-3423.2494720903333
 30
0.0
 41
1.0
 10
483.37758732375744
 20
-3423.2493691048512
 30
0.0
 41
1.0
 10
483.37736044643191
 20
-3423.2492661193696
 30
0.0
 41
1.0
 10
483.32474038561793
 20
-3423.2253805137525
 30
0.0
 41
0.9986517147148739
 10
483.26992741274904
 20
-3423.2070793946305
 30
0.0
 41
1.0
 10
483.26924949132177
 20
-3423.2068530481993
 30
0.0
 41
1.0
 10
483.2685715698945
 20
-3423.2066267017681
 30
0.0
 41
1.0
 10
483.2124027541696
 20
-3423.1878728897832
 30
0.0
 41
0.9989435598956529
 10
483.15474936701804
 20
-3423.1743551875488
 30
0.0
 41
1.0
 10
483.15366924743705
 20
-3423.1741019372957
 30
0.0
 41
1.0
 10
483.15258912785606
 20
-3423.1738486870431
 30
0.0
 41
1.0
 10
483.09277550154383
 20
-3423.159824484303
 30
0.0
 41
0.9992249241240371
 10
483.03204399264894
 20
-3423.1505491415883
 30
0.0
 41
1.0
 10
483.03063030435538
 20
-3423.1503332331799
 30
0.0
 41
1.0
 10
483.02921661606183
 20
-3423.1501173247716
 30
0.0
 41
1.0
 10
482.96565773058074
 20
-3423.1404101652402
 30
0.0
 41
0.9994396597833556
 10
482.90159179404213
 20
-3423.1349772428944
 30
0.0
 41
1.0
 10
482.88245112656597
 20
-3423.1333540751757
 30
0.0
 41
1.0
 10
482.8633104590898
 20
-3423.1317309074575
 30
0.0
 41
1.0
 10
482.7609631875963
 20
-3423.1230516496744
 30
0.0
 41
0.9987693403120741
 10
482.65825956400806
 20
-3423.1245547131271
 30
0.0
 41
1.0
 10
482.648005229783
 20
-3423.124704784901
 30
0.0
 41
1.0
 10
482.63775089555793
 20
-3423.1248548566755
 30
0.0
 41
1.0
 10
482.5281951293781
 20
-3423.126458200963
 30
0.0
 41
0.9989753644966845
 10
482.41923312936035
 20
-3423.1379612078881
 30
0.0
 41
1.0
 10
482.31027112934436
 20
-3423.1494642148136
 30
0.0
 41
0.9983190067308166
 10
482.20337231837931
 20
-3423.1734992065999
 30
0.0
 41
1.0
 10
482.1944713667724
 20
-3423.175500485163
 30
0.0
 41
1.0
 10
482.18557041516544
 20
-3423.1775017637256
 30
0.0
 41
1.0
 10
482.06086970098579
 20
-3423.2055393126375
 30
0.0
 41
0.9985539388301882
 10
481.93989994730782
 20
-3423.2468029886836
 30
0.0
 41
1.0
 10
481.93755451634809
 20
-3423.2476030324992
 30
0.0
 41
1.0
 10
481.93520908538841
 20
-3423.2484030763148
 30
0.0
 41
1.0
 10
481.80954846978699
 20
-3423.2912668399931
 30
0.0
 41
0.9988468746493755
 10
481.68857812748473
 20
-3423.3459849250567
 30
0.0
 41
1.0
 10
481.68539530549845
 20
-3423.3474245996158
 30
0.0
 41
1.0
 10
481.68221248351222
 20
-3423.3488642741745
 30
0.0
 41
1.0
 10
481.5548764972342
 20
-3423.4064617083568
 30
0.0
 41
0.9991322885919906
 10
481.43277591317707
 20
-3423.4744570405387
 30
0.0
 41
1.0
 10
481.4151739021338
 20
-3423.4842592425284
 30
0.0
 41
1.0
 10
481.39757189109054
 20
-3423.4940614445177
 30
0.0
 41
1.0
 10
481.29539521003352
 20
-3423.5509615602982
 30
0.0
 41
0.9993860037849164
 10
481.19745420595927
 20
-3423.6148775758875
 30
0.0
 41
1.0
 10
481.19183589310722
 20
-3423.6185440705822
 30
0.0
 41
1.0
 10
481.18621758025517
 20
-3423.6222105652769
 30
0.0
 41
1.0
 10
481.09951320188361
 20
-3423.6787935914776
 30
0.0
 41
0.9998821494953538
 10
481.01458682607307
 20
-3423.7380118215528
 30
0.0
 41
1.0
 10
480.92966045026247
 20
-3423.797230051628
 30
0.0
 41
0.9997976482744392
 10
480.84718481986204
 20
-3423.8598164596674
 30
0.0
 41
1.0
 10
480.83254855505442
 20
-3423.8709231494495
 30
0.0
 41
1.0
 10
480.8179122902468
 20
-3423.8820298392311
 30
0.0
 41
1.0
 10
480.70616413023259
 20
-3423.9668296268328
 30
0.0
 41
0.9998091630799875
 10
480.59781385220566
 20
-3424.0559299775337
 30
0.0
 41
1.0
 10
480.58480809972832
 20
-3424.0666250779796
 30
0.0
 41
1.0
 10
480.57180234725104
 20
-3424.0773201784259
 30
0.0
 41
1.0
 10
480.43744056427261
 20
-3424.1878107300158
 30
0.0
 41
0.999503511231717
 10
480.31030468650931
 20
-3424.3065445470306
 30
0.0
 41
1.0
 10
480.30065737612017
 20
-3424.31555429319
 30
0.0
 41
1.0
 10
480.29101006573109
 20
-3424.3245640393498
 30
0.0
 41
1.0
 10
480.16758700296504
 20
-3424.4398304111064
 30
0.0
 41
0.9994630424299243
 10
480.05197859718152
 20
-3424.562933154341
 30
0.0
 41
1.0
 10
480.0482957584104
 20
-3424.5668547338537
 30
0.0
 41
1.0
 10
480.04461291963929
 20
-3424.5707763133664
 30
0.0
 41
1.0
 10
479.93637019139868
 20
-3424.6860358975746
 30
0.0
 41
0.999516069374926
 10
479.83550416186563
 20
-3424.8078033154488
 30
0.0
 41
1.0
 10
479.83357044178467
 20
-3424.810137739657
 30
0.0
 41
1.0
 10
479.83163672170372
 20
-3424.8124721638656
 30
0.0
 41
1.0
 10
479.7346381323328
 20
-3424.9295707333222
 30
0.0
 41
0.9996561470514408
 10
479.64391191366781
 20
-3425.0515934957702
 30
0.0
 41
1.0
 10
479.63775424776264
 20
-3425.0598752848168
 30
0.0
 41
1.0
 10
479.63159658185748
 20
-3425.0681570738634
 30
0.0
 41
1.0
 10
479.55318569499877
 20
-3425.1736162582233
 30
0.0
 41
0.9998349055172184
 10
479.4786584130697
 20
-3425.2818548418827
 30
0.0
 41
1.0
 10
479.40413113114909
 20
-3425.3900934255298
 30
0.0
 41
0.9999728109564144
 10
479.33120823525036
 20
-3425.499419351067
 30
0.0
 41
1.0
 10
479.32989301982707
 20
-3425.501391120587
 30
0.0
 41
1.0
 10
479.32857780440384
 20
-3425.5033628901065
 30
0.0
 41
1.0
 10
479.25302447767871
 20
-3425.616632354654
 30
0.0
 41
0.9999972147373483
 10
479.1780066673029
 20
-3425.7302571974928
 30
0.0
 41
1.0
 10
479.1730351246772
 20
-3425.7377872859702
 30
0.0
 41
1.0
 10
479.16806358205145
 20
-3425.7453173744475
 30
0.0
 41
1.0
 10
479.08310268642651
 20
-3425.8740023942369
 30
0.0
 41
0.9999371979007085
 10
479.00104733701556
 20
-3426.0045593080258
 30
0.0
 41
1.0
 10
478.99753845265997
 20
-3426.0101422360813
 30
0.0
 41
1.0
 10
478.99402956830437
 20
-3426.0157251641363
 30
0.0
 41
1.0
 10
478.90495645018109
 20
-3426.1574479340366
 30
0.0
 41
0.9998272025611141
 10
478.82121305930053
 20
-3426.3023838107756
 30
0.0
 41
1.0
 10
478.80599788727312
 20
-3426.328716925238
 30
0.0
 41
1.0
 10
478.79078271524571
 20
-3426.3550500397005
 30
0.0
 41
1.0
 10
478.67660898031357
 20
-3426.5526521453598
 30
0.0
 41
0.9995217214838353
 10
478.57486929075594
 20
-3426.7569344732265
 30
0.0
 41
1.0
 10
478.56722572811907
 20
-3426.772281922933
 30
0.0
 41
1.0
 10
478.55958216548214
 20
-3426.7876293726399
 30
0.0
 41
1.0
 10
478.47267687289616
 20
-3426.9621258307138
 30
0.0
 41
0.9998269762607678
 10
478.39232240662807
 20
-3427.1397341174288
 30
0.0
 41
1.0
 10
478.31196794035225
 20
-3427.3173424041606
 30
0.0
 41
0.9998944747387497
 10
478.23680714578285
 20
-3427.4972101298022
 30
0.0
 41
1.0
 10
478.23185347619687
 20
-3427.5090647847073
 30
0.0
 41
1.0
 10
478.22689980661085
 20
-3427.5209194396125
 30
0.0
 41
1.0
 10
478.14625274605487
 20
-3427.7139163796382
 30
0.0
 41
0.9999506734410611
 10
478.06945521715227
 20
-3427.9084771844919
 30
0.0
 41
1.0
 10
478.05485525188703
 20
-3427.9454651062833
 30
0.0
 41
1.0
 10
478.04025528662174
 20
-3427.9824530280753
 30
0.0
 41
1.0
 10
477.99265768825637
 20
-3428.1030379893282
 30
0.0
 41
0.9999912393909982
 10
477.94607124422618
 20
-3428.2240171920439
 30
0.0
 41
1.0
 10
477.89948480019791
 20
-3428.3449963947551
 30
0.0
 41
0.9999927113991174
 10
477.85382350580414
 20
-3428.4663278022558
 30
0.0
 41
1.0
 10
477.83985507440912
 20
-3428.5034447842477
 30
0.0
 41
1.0
 10
477.82588664301403
 20
-3428.5405617662395
 30
0.0
 41
1.0
 10
477.75228848582719
 20
-3428.7361271377317
 30
0.0
 41
0.9999487550947475
 10
477.68266486085173
 20
-3428.9331425029245
 30
0.0
 41
1.0
 10
477.65907125091519
 20
-3428.9999058132162
 30
0.0
 41
1.0
 10
477.63547764097859
 20
-3429.0666691235083
 30
0.0
 41
1.0
 10
477.54079200661494
 20
-3429.3346029583136
 30
0.0
 41
0.9999808436935193
 10
477.44943041796694
 20
-3429.6036883895968
 30
0.0
 41
1.0
 10
477.35806882932366
 20
-3429.8727738208672
 30
0.0
 41
0.9999873932916404
 10
477.26941412061092
 20
-3430.1427631758638
 30
0.0
 41
1.0
 10
477.24932176373977
 20
-3430.203952508622
 30
0.0
 41
1.0
 10
477.22922940686868
 20
-3430.2651418413802
 30
0.0
 41
1.0
 10
477.10038998441519
 20
-3430.6575098618887
 30
0.0
 41
0.9999794883031216
 10
476.97658719944917
 20
-3431.0514960681921
 30
0.0
 41
1.0
 10
476.96543494003396
 20
-3431.0869866783582
 30
0.0
 41
1.0
 10
476.95428268061875
 20
-3431.1224772885244
 30
0.0
 41
1.0
 10
476.81172451671046
 20
-3431.5761500406461
 30
0.0
 41
0.9999982761843113
 10
476.67085207666616
 20
-3432.0303490628608
 30
0.0
 41
1.0
 10
475.08271174409356
 20
-3437.0791187938639
 30
0.0
 41
1.0
 10
473.49457141152095
 20
-3442.1278885248676
 30
0.0
 41
1.0
 10
472.54582080004457
 20
-3442.1278885248676
 30
0.0
 41
1.0
 10
471.59707018856818
 20
-3442.1278885248676
 30
0.0
 41
1.0
 10
474.83535467472137
 20
-3431.8005663249214
 30
0.0
 41
1.0
 10
478.07363916087456
 20
-3421.4732441249753
 30
0.0
 41
1.0
  0
LWPOLYLINE
  5
7A
100
AcDbEntity
  8
0
370
              15
390
0
  6
Continuous
 62
               7
100
AcDbPolyline
 90
      232
 70
             128
 10
452.37009338704752
 20
-3422.55758695649
 42
0.0004370800663859
 10
452.31721621287028
 20
-3422.6262535958831
 10
452.27793198184804
 20
-3422.6773607086434
 42
0.0030481992180884
 10
452.14759326472512
 20
-3422.8490824009923
 10
452.10908159297844
 20
-3422.9004691847754
 42
0.0042058245752549
 10
451.90509654229743
 20
-3423.1774749298643
 10
451.85269141980791
 20
-3423.2499077766297
 42
0.0120948898739955
 10
451.55664750304982
 20
-3423.6806573811741
 10
451.46045500392302
 20
-3423.8281381164061
 42
0.0141601263948646
 10
451.15681095700256
 20
-3424.3238074531391
 10
451.11727368957753
 20
-3424.3926514205696
 42
0.0071131081303769
 10
450.91200136633819
 20
-3424.7621542194092
 42
0.0068458791006094
 10
450.71712183949046
 20
-3425.1372457828943
 10
450.71030997703735
 20
-3425.1508074966086
 42
0.0064120880290522
 10
450.51216772699064
 20
-3425.5582319715331
 10
450.50463304147604
 20
-3425.5742438282491
 42
0.0058857236448071
 10
450.30187764960539
 20
-3426.0186199392815
 10
450.29370272331039
 20
-3426.0371100929178
 42
0.005318974189587
 10
450.08499841063593
 20
-3426.523073566852
 10
450.0762506049615
 20
-3426.5440554450315
 42
0.0047503650419354
 10
449.86027687880789
 20
-3427.0762548782491
 10
449.85100863046267
 20
-3427.0997312543495
 42
0.004207176217172
 10
449.62646124673864
 20
-3427.6828248484089
 10
449.61671184438626
 20
-3427.7087910232885
 42
0.0036680086483918
 10
449.38225720107806
 20
-3428.3474264078095
 10
449.37204942122639
 20
-3428.375874942165
 42
0.0032573142629277
 10
449.12641713526079
 20
-3429.0747276019147
 10
449.05776661441803
 20
-3429.2741906859737
 42
0.0026133366647412
 10
448.70932141566101
 20
-3430.3040539696431
 10
448.64606462816772
 20
-3430.4942848050136
 42
0.0020592950736195
 10
448.43220155919323
 20
-3431.1463884576488
 10
448.42914976804684
 20
-3431.1558249460068
 42
0.0025609928531679
 10
448.2273292665443
 20
-3431.7909701684248
 10
448.22473789941353
 20
-3431.7992725093782
 42
0.0031362356245474
 10
448.0352471137407
 20
-3432.4200353655447
 10
448.03311607081781
 20
-3432.4271766717407
 42
0.0037229918029806
 10
447.85631568388692
 20
-3433.03616197373
 10
447.85463709468252
 20
-3433.0421088638973
 42
0.0043077623707154
 10
447.69089629261543
 20
-3433.6419275956732
 42
0.0047654161822437
 10
447.53806757010216
 20
-3434.2446136845647
 10
447.50360296126036
 20
-3434.3861754617255
 42
0.0112969368443813
 10
447.30773860311666
 20
-3435.2778676223497
 10
447.2797322140201
 20
-3435.4206956684475
 42
0.0130056762571718
 10
447.07889497037348
 20
-3436.6076367400924
 10
447.05835522022699
 20
-3436.7517148535649
 42
0.0138721532144645
 10
446.9546522156885
 20
-3437.6585443393951
 10
446.93535672778046
 20
-3437.8820420613224
 42
0.0071254697009235
 10
446.90201008185801
 20
-3438.3452290701675
 10
446.89704910769439
 20
-3438.431233064734
 42
0.0028881799199305
 10
446.88191081440488
 20
-3438.72297477457
 42
0.0060297297141868
 10
446.8719786146292
 20
-3439.014923710693
 10
446.87091633296222
 20
-3439.0633160826178
 42
0.0229523164148684
 10
446.878647360748
 20
-3439.3860709289015
 10
446.88287313426827
 20
-3439.4464744629158
 42
0.0123673300657384
 10
446.9019517807867
 20
-3439.6475951880925
 42
0.0128577674470489
 10
446.93114717119335
 20
-3439.8474930380212
 10
446.93827304458
 20
-3439.8888218526163
 42
0.0285717853760401
 10
447.00276704627566
 20
-3440.1669380039293
 10
447.01643556994196
 20
-3440.2135927734057
 42
0.0316283099163431
 10
447.13224614985637
 20
-3440.5326072752327
 10
447.13529484161154
 20
-3440.5395936475575
 42
0.0338984824233331
 10
447.28472655257906
 20
-3440.8271596117474
 10
447.2870352819499
 20
-3440.8309506410251
 42
0.03502287183597
 10
447.46939557262249
 20
-3441.0880026257
 10
447.4702808243963
 20
-3441.0890817034624
 42
0.0347476747532856
 10
447.68470551163762
 20
-3441.3162667506845
 42
0.0331337701910639
 10
447.92794883738588
 20
-3441.5123954127635
 10
447.92904893590014
 20
-3441.5131681159346
 42
0.0305233319074986
 10
448.19759363147347
 20
-3441.6782962860257
 10
448.20082367597473
 20
-3441.6800202978884
 42
0.0273744481146918
 10
448.49337738754758
 20
-3441.816158441778
 10
448.49848192268655
 20
-3441.8182020262484
 42
0.0240964406198254
 10
448.81395899832933
 20
-3441.9271857525291
 10
448.82054232754223
 20
-3441.9291104922049
 42
0.0209636179810319
 10
449.15794248019262
 20
-3442.0125786401363
 10
449.16557494064352
 20
-3442.0141305531383
 42
0.0181388704692138
 10
449.52389733264914
 20
-3442.0735466463534
 10
449.53217818102013
 20
-3442.0746128301694
 42
0.01560865475903
 10
449.91036554520508
 20
-3442.1113490167454
 10
449.95356079753111
 20
-3442.1141875192243
 42
0.0137148329031131
 10
450.28123394283489
 20
-3442.126707774476
 10
450.32717013274646
 20
-3442.1272022075909
 42
0.0051057823878551
 10
450.56331571935311
 20
-3442.1273324620006
 42
0.0052256693317063
 10
450.79941300317063
 20
-3442.1225836375356
 10
450.86963978688118
 20
-3442.1204366715224
 42
0.0161507179052052
 10
451.24537686498161
 20
-3442.0967863011956
 10
451.2653898253555
 20
-3442.094876105908
 42
0.0101216737834468
 10
451.67941704684182
 20
-3442.0468831755434
 10
451.71347033627296
 20
-3442.0422354787333
 42
0.0245291776392829
 10
452.1902599918248
 20
-3441.953160400657
 10
452.27508330734463
 20
-3441.932964480312
 42
0.0143509212560314
 10
452.6317144112877
 20
-3441.8371598465324
 42
0.0156557857040011
 10
452.9819304760195
 20
-3441.7201486307117
 10
452.9894316905096
 20
-3441.7173784689594
 42
0.01701373336273
 10
453.34602768618504
 20
-3441.5717208540909
 10
453.35313160859846
 20
-3441.5685330185247
 42
0.0183105364416154
 10
453.71248127676625
 20
-3441.391197976699
 10
453.71942804140349
 20
-3441.3874475418279
 42
0.019489995815493
 10
454.07790878238728
 20
-3441.1754685599371
 10
454.08492266172419
 20
-3441.1709432176422
 42
0.0204869852954173
 10
454.43893696381036
 20
-3440.9214232025624
 10
454.44620257240513
 20
-3440.915843137208
 42
0.0212516938558972
 10
454.7921925035119
 20
-3440.6259391403146
 10
454.83870919759011
 20
-3440.5834718302185
 42
0.021524891824943
 10
455.09873536647643
 20
-3440.3247075512254
 10
455.14376510085697
 20
-3440.2758634298757
 42
0.0114578554967428
 10
455.29855725453439
 20
-3440.100040496417
 10
455.30975179051865
 20
-3440.0867217328746
 42
0.006153130512961
 10
455.43622643651543
 20
-3439.9324321995664
 42
0.0006325587123262
 10
455.56060492070219
 20
-3439.7764288238463
 10
455.5836450557187
 20
-3439.7474553032312
 42
0.0041897761554952
 10
455.7521004596972
 20
-3439.5319359271616
 10
455.81056257958357
 20
-3439.4558345801843
 42
0.0092993880035678
 10
456.08717450681036
 20
-3439.0815558162958
 10
456.16956900000486
 20
-3438.9656188127333
 42
0.0159321727084966
 10
456.51617548264858
 20
-3438.4434445919751
 10
456.56053161802868
 20
-3438.3717650277399
 42
0.0085547317015241
 10
456.79504338336341
 20
-3437.9778900785004
 42
0.0084601156887663
 10
457.01601956080532
 20
-3437.5762632294686
 10
457.02413503463583
 20
-3437.5609035471953
 42
0.0081429654285163
 10
457.24738430508052
 20
-3437.1211820346398
 10
457.25624446925735
 20
-3437.1030031926352
 42
0.0076574581327988
 10
457.4826519798238
 20
-3436.6198203173826
 10
457.49213162054775
 20
-3436.5987558390789
 42
0.00706827242006
 10
457.72257652835657
 20
-3436.0667185342936
 10
457.73256681233624
 20
-3436.0427293452867
 42
0.0064559514445942
 10
457.96790002051409
 20
-3435.4564170787776
 10
457.97830937868292
 20
-3435.4294821533254
 42
0.0058311413908386
 10
458.21935611544524
 20
-3434.7834500589429
 10
458.23011119283319
 20
-3434.7535657177809
 42
0.0052312425817929
 10
458.47769247087444
 20
-3434.0423633039454
 10
458.48873630725387
 20
-3434.0095365918769
 42
0.0046680544797288
 10
458.74366473498731
 20
-3433.227710276125
 10
458.78565688502459
 20
-3433.0947270388529
 42
0.0041666856442359
 10
458.98894289742685
 20
-3432.4317582638241
 10
459.02660533809649
 20
-3432.3051771561509
 42
0.0015170975152106
 10
459.14779191650371
 20
-3431.893308804677
 42
-0.0004887993111491
 10
459.26813168964776
 20
-3431.4811903925638
 10
459.34460894712191
 20
-3431.2202330066939
 42
0.0002583378926776
 10
459.61782351723724
 20
-3430.2861763033397
 10
459.69959636678368
 20
-3430.0060770438599
 42
0.0006636169671734
 10
459.89346412677412
 20
-3429.3387241203445
 10
459.89856078111984
 20
-3429.3210925374692
 42
0.0010589131325556
 10
460.08000948203778
 20
-3428.6883611944158
 10
460.0849915525298
 20
-3428.6708482873555
 42
0.0015655524464896
 10
460.25326175970105
 20
-3428.0722316081947
 10
460.25809196010459
 20
-3428.0548394493003
 42
0.0021640440475843
 10
460.41238193210205
 20
-3427.4898124312408
 10
460.41701615153409
 20
-3427.4725477012389
 42
0.0028763871847925
 10
460.55653186958494
 20
-3426.9405797504
 10
460.56091773375158
 20
-3426.923455772248
 42
0.0037310511943892
 10
460.68487442558904
 20
-3426.4240081782218
 10
460.68894964588219
 20
-3426.4070479069592
 42
0.0047652197768668
 10
460.79657354638653
 20
-3425.9395701386711
 10
460.80026414570762
 20
-3425.9228105835314
 42
0.0060276699304394
 10
460.89079424486357
 20
-3425.4867347883769
 10
460.89401293515067
 20
-3425.4702335740781
 42
0.0075824337757365
 10
460.96670224456818
 20
-3425.0649664096418
 10
460.96934762194934
 20
-3425.0488114621858
 42
0.0095130624603517
 10
461.02346285757966
 20
-3424.6737221091189
 10
461.03044908146262
 20
-3424.6177885509992
 42
0.0121054653224872
 10
461.05704041204012
 20
-3424.3528927225288
 10
461.05790690179964
 20
-3424.3414892796
 42
0.0069050827387012
 10
461.07299571983737
 20
-3424.0985480527556
 10
461.07413101950607
 20
-3424.0750217957075
 42
0.0169063976696186
 10
461.0769582984862
 20
-3423.8788290684101
 10
461.07578764695489
 20
-3423.8184933070593
 42
0.0052007732874593
 10
461.07353419836193
 20
-3423.7428999169088
 42
0.0054038123303197
 10
461.05357068652228
 20
-3423.6228816208945
 10
461.04848483065263
 20
-3423.5942231343179
 42
0.0112050460453531
 10
461.01310046859379
 20
-3423.4178966959771
 10
460.99527550655347
 20
-3423.3383551092579
 42
0.0240764468003126
 10
460.90437814040718
 20
-3423.0081180737566
 10
460.88581937759301
 20
-3422.9514979087603
 42
0.0256812331843958
 10
460.74245645740433
 20
-3422.5797737025055
 10
460.7370470315833
 20
-3422.5676423675168
 42
0.0268360501213778
 10
460.56761979073303
 20
-3422.236649233495
 10
460.56208338309716
 20
-3422.2271295631813
 42
0.0274670231734258
 10
460.36988240668467
 20
-3421.9348421882651
 10
460.36450110672268
 20
-3421.9275630407246
 42
0.0275035967096776
 10
460.1529282271602
 20
-3421.6720471504195
 10
460.14785872619046
 20
-3421.6665680627857
 42
0.02695576735284
 10
459.9204551827541
 20
-3421.4459257768272
 10
459.9157121249753
 20
-3421.4417958223698
 42
0.0259124802197343
 10
459.67615729354071
 20
-3421.2541052952138
 10
459.67162644835474
 20
-3421.2509197928807
 42
0.0245162153005317
 10
459.42371009526403
 20
-3421.0941867837728
 10
459.41918354893852
 20
-3421.0916265865712
 42
0.0229282588835615
 10
459.16676399211246
 20
-3420.963758394073
 10
459.161983498273
 20
-3420.9616060943099
 42
0.0212984135689567
 10
458.90894554581399
 20
-3420.8604071770687
 10
458.90364126084887
 20
-3420.8585436143103
 42
0.0197555462346503
 10
458.65386292312149
 20
-3420.7817281963444
 42
0.0183511896793341
 10
458.39893419765076
 20
-3420.7241452893772
 10
458.31256900093462
 20
-3420.7079424989934
 42
0.0338057877141271
 10
458.02706165167501
 20
-3420.6741340938534
 10
457.9360562466436
 20
-3420.6695544385925
 42
0.0091990524462768
 10
457.83020913799908
 20
-3420.66617858267
 42
0.0028333980823108
 10
457.72429522197035
 20
-3420.6653504751534
 10
457.72337976895682
 20
-3420.6653485053293
 42
-0.0023619827810328
 10
457.61563375385242
 20
-3420.6646076642505
 10
457.57922858367505
 20
-3420.6641853577876
 42
0.0008824598466426
 10
457.39867259382714
 20
-3420.6624095795496
 10
457.35481116141921
 20
-3420.6620556180242
 42
0.0038132665776827
 10
457.08652826552384
 20
-3420.6619366819573
 10
457.0699946107469
 20
-3420.6620554481005
 42
0.0060665569332045
 10
456.76871411916181
 20
-3420.6678757475215
 10
456.75446378713025
 20
-3420.6683240554894
 42
0.0080356953343805
 10
456.42500507078705
 20
-3420.6839917775565
 10
456.41293505570377
 20
-3420.6847603604965
 42
0.0098996399103105
 10
456.06017197104586
 20
-3420.7142455896951
 10
456.0501262616782
 20
-3420.7152858858926
 42
0.0117740981365204
 10
455.67896940333389
 20
-3420.7625781334223
 10
455.6707467068469
 20
-3420.7638232499935
 42
0.0137435215137814
 10
455.2861578873609
 20
-3420.8329202235554
 10
455.27950084823846
 20
-3420.8343061197888
 42
0.0158359869382519
 10
454.88650375443785
 20
-3420.9291982082691
 10
454.88109056756883
 20
-3420.9306881491402
 42
0.0180554124027361
 10
454.4847755229502
 20
-3421.0553261653808
 10
454.48021873487301
 20
-3421.0569422016451
 42
0.0203657431281454
 10
454.08574121706351
 20
-3421.2152025431596
 10
454.08159767805432
 20
-3421.2170641646026
 42
0.0226819684659946
 10
453.69416162184797
 20
-3421.4127067432751
 10
453.68996183083254
 20
-3421.4150723351931
 42
0.0248634984603927
 10
453.31477988965196
 20
-3421.6516989811403
 10
453.26658496086804
 20
-3421.685556022966
 42
0.0267044190878514
 10
452.99229226395084
 20
-3421.9009963988346
 42
0.013930300219589
 10
452.73612509801075
 20
-3422.1382352397477
 10
452.73127171229112
 20
-3422.1429879026064
 42
0.0283460963435571
 10
452.48719911806552
 20
-3422.4107185630496
 10
452.44753061290737
 20
-3422.4595201405245
 42
0.0070695364826285
 10
452.37009338704752
 20
-3422.55758695649
 42
0.0070695364826285
  0
LWPOLYLINE
  5
7B
100
AcDbEntity
  8
0
370
              15
390
0
  6
Continuous
 62
               7
100
AcDbPolyline
 90
      226
 70
             128
 10
448.84127294980112
 20
-3438.2791757626742
 42
-0.002627763661255
 10
448.84119506600103
 20
-3438.2124038369393
 10
448.84141242423311
 20
-3438.1592486194882
 42
-0.0088680296744014
 10
448.8451890405259
 20
-3437.9862328370918
 10
448.84753539963862
 20
-3437.9269528116315
 42
-0.0077381705605871
 10
448.86358151040201
 20
-3437.6356923158296
 10
448.86444942157482
 20
-3437.6234040821482
 42
-0.0068872530537064
 10
448.8910815013225
 20
-3437.3081823300836
 10
448.89228572550905
 20
-3437.2959413510603
 42
-0.0062130021484081
 10
448.92987944233647
 20
-3436.957071659825
 10
448.93138334587201
 20
-3436.9448977879051
 42
-0.0056726929670745
 10
448.98030520537492
 20
-3436.5827025657873
 10
448.9820786510187
 20
-3436.5706087655462
 42
-0.0052341884489929
 10
449.04268923727813
 20
-3436.1854155100318
 10
449.04470722605532
 20
-3436.173410580036
 42
-0.0049768450169734
 10
449.11744590748032
 20
-3435.7655660126111
 10
449.14169492220344
 20
-3435.6370180295976
 42
-0.008902980562097
 10
449.278775774
 20
-3434.9752425821671
 10
449.31152114931672
 20
-3434.8302111516518
 42
-0.0080318257100577
 10
449.54106976365625
 20
-3433.8845015198026
 10
449.55305469010568
 20
-3433.8383708846081
 42
-0.0074265721316235
 10
449.83706622895721
 20
-3432.8083063062222
 10
449.8569457720705
 20
-3432.7401722456443
 42
-0.0069711922701897
 10
450.18425035057896
 20
-3431.67390450531
 10
450.2442022976856
 20
-3431.4878831469359
 42
-0.0052070422894797
 10
450.47362752294379
 20
-3430.800611069908
 10
450.49090871509122
 20
-3430.7505837893627
 42
-0.000916700445074
 10
450.69400060240542
 20
-3430.1661279411369
 42
-0.0025162726942138
 10
450.90109823268284
 20
-3429.5830866769334
 10
450.93832284446472
 20
-3429.4799371310933
 42
-0.0028212681457853
 10
451.18649876343653
 20
-3428.8042064988981
 10
451.19632952619895
 20
-3428.7778990541897
 42
-0.0031964916819938
 10
451.43262178384953
 20
-3428.1576942920942
 10
451.44225623784695
 20
-3428.1328843019551
 42
-0.0036281836457607
 10
451.66736219894972
 20
-3427.565443621058
 10
451.67680060910368
 20
-3427.5421461895639
 42
-0.004126916683628
 10
451.89141830576636
 20
-3427.024705293577
 10
451.92405126219285
 20
-3426.9478268472026
 42
-0.0047472213051813
 10
452.08109606774076
 20
-3426.5874053793323
 10
452.08799014894464
 20
-3426.5719847820101
 42
-0.0025651660000346
 10
452.23634818279913
 20
-3426.2446567262518
 42
-0.0057144634995461
 10
452.39009787656448
 20
-3425.9198470529018
 10
452.41812858196948
 20
-3425.8623386704999
 42
-0.0065388068370559
 10
452.60159560971147
 20
-3425.4981061738299
 10
452.61005406548753
 20
-3425.481846594465
 42
-0.0074510843023446
 10
452.78623631136782
 20
-3425.1551583133378
 10
452.79441598189987
 20
-3425.1405175360674
 42
-0.0084648979856739
 10
452.96404983499889
 20
-3424.8486085251079
 10
452.97190596149073
 20
-3424.8356015334507
 42
-0.0095638542800042
 10
453.13574140908122
 20
-3424.5757126614785
 10
453.14321635275087
 20
-3424.5643433000264
 42
-0.010719162680503
 10
453.30201793314052
 20
-3424.3337320654791
 10
453.30903466687596
 20
-3424.3239959731086
 42
-0.0118458573889088
 10
453.4635827653841
 20
-3424.1199237778037
 42
-0.0129184518192709
 10
453.62803538898487
 20
-3423.9237632616341
 10
453.65818016134892
 20
-3423.8896371827336
 42
-0.0217742579635467
 10
453.83479248368411
 20
-3423.7064304124838
 10
453.84553802814793
 20
-3423.6962135792778
 42
-0.0097266568649428
 10
454.01159564700021
 20
-3423.5443660048436
 42
-0.0187720905722231
 10
454.1859432228847
 20
-3423.4022971514582
 10
454.21664921356779
 20
-3423.3791380690554
 42
-0.0179428207518579
 10
454.44906993356005
 20
-3423.2165858919466
 10
454.45272226047581
 20
-3423.2142219570587
 42
-0.0170047877693836
 10
454.68848589800621
 20
-3423.072761442907
 10
454.69226888674825
 20
-3423.070663137873
 42
-0.0160190788362522
 10
454.92917743438807
 20
-3422.9490118358826
 42
-0.0151102861482497
 10
455.17320921684006
 20
-3422.8423290598262
 10
455.22559571904651
 20
-3422.8212889269334
 42
-0.0271945441894944
 10
455.58425827810566
 20
-3422.6994241162274
 10
455.65332307858955
 20
-3422.680074574962
 42
-0.023759659401804
 10
456.06911992561533
 20
-3422.5846238629797
 10
456.13718277934737
 20
-3422.5723691748526
 42
-0.0213715440558538
 10
456.42305771079106
 20
-3422.5334221433432
 10
456.48320487700096
 20
-3422.5278324286428
 42
-0.0101465655828084
 10
456.65069740900321
 20
-3422.515688885378
 10
456.66003779520628
 20
-3422.5152019703805
 42
-0.0100375910888085
 10
456.809191895764
 20
-3422.5104261524552
 10
456.81945116545336
 20
-3422.5103037134409
 42
-0.0103625633379345
 10
456.94815916009924
 20
-3422.5114351469674
 10
456.970424811361
 20
-3422.5120925054321
 42
-0.0115689250258616
 10
457.05447554889406
 20
-3422.5165220116778
 42
-0.0072438037454534
 10
457.13831382832507
 20
-3422.5241112114263
 10
457.15511433780603
 20
-3422.5258777541512
 42
-0.0217917313145598
 10
457.27168410111904
 20
-3422.5432976468724
 10
457.33728419168614
 20
-3422.5560442552869
 42
-0.0332943556751277
 10
457.54167635671473
 20
-3422.610084546594
 10
457.57184892526629
 20
-3422.620252623713
 42
-0.0184824084805619
 10
457.71035398173018
 20
-3422.6727036390989
 42
-0.0198002050676194
 10
457.84442832223385
 20
-3422.7355876993006
 10
457.84631495960645
 20
-3422.7365654861783
 42
-0.0212242342984083
 10
457.97845390200808
 20
-3422.8123282249712
 10
457.98026919755188
 20
-3422.8134740271798
 42
-0.0226090605794079
 10
458.10877309877395
 20
-3422.9029536707444
 10
458.11061754051099
 20
-3422.9043659237313
 42
-0.0238457052233625
 10
458.2337996218061
 20
-3423.0083618195963
 10
458.23575235036299
 20
-3423.0101766973603
 42
-0.0248160564154912
 10
458.35195385766087
 20
-3423.1294512985655
 10
458.3540574910657
 20
-3423.131836632273
 42
-0.0254109591443883
 10
458.46166270893247
 20
-3423.2671250182389
 10
458.46391073084573
 20
-3423.2702665666384
 42
-0.0255528488289252
 10
458.56135740964334
 20
-3423.422293620873
 10
458.56368850955897
 20
-3423.4263752324796
 42
-0.0252146793224531
 10
458.64946953556824
 20
-3423.5958774784772
 10
458.65177177472572
 20
-3423.6010595603898
 42
-0.0244265635943802
 10
458.72442646848725
 20
-3423.7888061324365
 10
458.73367286995551
 20
-3423.8166715507741
 42
-0.0231319612893818
 10
458.77959564894763
 20
-3423.9799725975759
 42
-0.0112130424362667
 10
458.81423167148557
 20
-3424.1461761977625
 10
458.81543419659835
 20
-3424.1526727846517
 42
-0.0210527881247149
 10
458.84112067196918
 20
-3424.3337284300924
 10
458.84463126679105
 20
-3424.3691339786401
 42
-0.0190029892421438
 10
458.86007274033562
 20
-3424.6226698249116
 10
458.86088271677966
 20
-3424.6581454392817
 42
-0.0137974553665716
 10
458.85933386394419
 20
-3424.9831768460117
 10
458.85848840898842
 20
-3425.0092955906107
 42
-0.0081336634216275
 10
458.84362907376601
 20
-3425.3146430582069
 42
-0.0073526923571186
 10
458.81932054039146
 20
-3425.6193913024917
 10
458.81805911660865
 20
-3425.6327279771581
 42
-0.0066886138688602
 10
458.78232353056234
 20
-3425.9633140206538
 10
458.78066644109225
 20
-3425.9769356396469
 42
-0.006135918735218
 10
458.73281583904253
 20
-3426.3336996197386
 10
458.7307783379685
 20
-3426.3475944225761
 42
-0.0056698610063106
 10
458.67012800720198
 20
-3426.7308729914112
 10
458.66772257387839
 20
-3426.7450321106448
 42
-0.0052721077280327
 10
458.59359037307809
 20
-3427.1551594503262
 10
458.59082722423705
 20
-3427.1695760857087
 42
-0.0049289272174109
 10
458.50253310613692
 20
-3427.6068845968316
 10
458.49942061145447
 20
-3427.6215534496469
 42
-0.0047415956709244
 10
458.3961826199228
 20
-3428.0863502070547
 10
458.36141440956237
 20
-3428.2361573024409
 42
-0.0084404470905008
 10
458.17139796598946
 20
-3428.9963813269765
 10
458.16527127800487
 20
-3429.0192454511257
 42
-0.0039635940259008
 10
457.94381759372351
 20
-3429.8202343153639
 10
457.93044079854133
 20
-3429.8671659319648
 42
-0.0072475040837855
 10
457.66299391067713
 20
-3430.7563856483584
 10
457.59278158385644
 20
-3430.9781259983092
 42
-0.0051345458830613
 10
457.30602221179197
 20
-3431.8524511861378
 10
457.28449594501939
 20
-3431.9158774532825
 42
-0.0019150016599678
 10
457.02896253815777
 20
-3432.6594265734939
 10
457.02249493376155
 20
-3432.6780140384153
 42
-0.0021524362750076
 10
456.77401688269771
 20
-3433.3823398601235
 10
456.76480646200991
 20
-3433.4080934384006
 42
-0.0024331286818845
 10
456.52855120296528
 20
-3434.0586927465433
 10
456.51950325041065
 20
-3434.0832360529089
 42
-0.0027449721786402
 10
456.29488867957934
 20
-3434.682365931822
 10
456.28599867218583
 20
-3434.7056885216775
 42
-0.0031083229767418
 10
456.07245618557715
 20
-3435.2556125592537
 10
456.06372005390136
 20
-3435.277702275112
 42
-0.0035311343277078
 10
455.86067886830978
 20
-3435.7806854008418
 10
455.85209352917082
 20
-3435.8015281243311
 42
-0.0040245640952584
 10
455.65898172536765
 20
-3436.2598374469444
 10
455.65054561176265
 20
-3436.2794168150212
 42
-0.0046015135850014
 10
455.46678931860083
 20
-3436.6953218446588
 10
455.45850314077012
 20
-3436.7136189841162
 42
-0.0052768638265646
 10
455.28352562181698
 20
-3437.0893918683814
 10
455.27539341118535
 20
-3437.1063852069346
 42
-0.0060672675639251
 10
455.10861379842407
 20
-3437.4443008300386
 10
455.10064431793865
 20
-3437.4599660890435
 42
-0.0069904648866838
 10
454.94147592394103
 20
-3437.7623018956997
 10
454.93368452433981
 20
-3437.7766124449095
 42
-0.0080637022778405
 10
454.78153266398436
 20
-3438.0456477480802
 10
454.77394363135448
 20
-3438.0585756136788
 42
-0.0093006455661767
 10
454.62820295482163
 20
-3438.296590012184
 10
454.62085228807518
 20
-3438.3081079813614
 42
-0.0107060778054434
 10
454.48090374463953
 20
-3438.5173782987358
 10
454.47384197635671
 20
-3438.5274638413061
 42
-0.0122723111419114
 10
454.33904825816177
 20
-3438.710257170791
 10
454.3387220346068
 20
-3438.7106775586017
 42
-0.0141836319632916
 10
454.19514043163366
 20
-3438.8852473164297
 10
454.18819267598406
 20
-3438.8932223166917
 42
-0.0175957477211797
 10
454.04828650794701
 20
-3439.0428432050994
 42
-0.0080466359672161
 10
453.9008227429137
 20
-3439.1851657332536
 10
453.85478819839932
 20
-3439.2281861713418
 42
-0.0269600260400001
 10
453.60150795241924
 20
-3439.440509429849
 10
453.53494081611854
 20
-3439.4904608444758
 42
-0.0178362839743955
 10
453.29499632646355
 20
-3439.6574787707277
 10
453.28775135546636
 20
-3439.6621472829306
 42
-0.0174650732641915
 10
453.05141515802183
 20
-3439.8030082478917
 42
-0.0169240130159494
 10
452.80594891216526
 20
-3439.9273005076684
 10
452.75996275660628
 20
-3439.9486624632364
 42
-0.0318883036838962
 10
452.40961190098767
 20
-3440.0850007727458
 10
452.34124636581788
 20
-3440.1067013932229
 42
-0.028443590990277
 10
451.96519623953054
 20
-3440.2029188286961
 10
451.93003807903011
 20
-3440.2098124245249
 42
-0.0243909341011134
 10
451.61659461811303
 20
-3440.255533455555
 10
451.56631389134128
 20
-3440.2603790024568
 42
-0.0196639292932898
 10
451.35071831381464
 20
-3440.2726272879704
 10
451.2988942426561
 20
-3440.2735305487072
 42
-0.0100501510692448
 10
451.18647096098692
 20
-3440.2732301503538
 10
451.1548110996585
 20
-3440.2725090784684
 42
-0.0019752031143607
 10
451.10571876296149
 20
-3440.2711969182587
 10
451.10295845972649
 20
-3440.2711122264318
 42
0.0065378751997253
 10
451.05938188498459
 20
-3440.2703453352178
 42
-0.0167974694645758
 10
451.0158510620555
 20
-3440.2686854366916
 10
451.01177172279068
 20
-3440.2683924257963
 42
-0.0081283276308334
 10
450.96021192505543
 20
-3440.2638454321586
 10
450.94847235117362
 20
-3440.2626175145801
 42
-0.0126703440169246
 10
450.873754055375
 20
-3440.2528827235078
 10
450.85096618770336
 20
-3440.2493244675934
 42
-0.0117852088435875
 10
450.73142720187093
 20
-3440.2277614724362
 10
450.67604675010796
 20
-3440.2164179322017
 42
-0.0251774592297298
 10
450.44920271110533
 20
-3440.1579199227704
 10
450.40448352124531
 20
-3440.1439531034325
 42
-0.0146525199888273
 10
450.21809053371055
 20
-3440.0796865762354
 42
-0.0166929435852204
 10
450.03611287758071
 20
-3440.0038794431794
 10
450.03145624631071
 20
-3440.0017545425667
 42
-0.0191684358427103
 10
449.84627261505835
 20
-3439.9085184587752
 10
449.84294002930454
 20
-3439.9066772112237
 42
-0.0221181781810111
 10
449.65962972540024
 20
-3439.7945437128515
 10
449.65727992139387
 20
-3439.7929594148618
 42
-0.0254984685381783
 10
449.4809897710104
 20
-3439.6605482648938
 10
449.45850762330582
 20
-3439.6417959559553
 42
-0.0292492648811385
 10
449.33373868446358
 20
-3439.5247031563126
 42
-0.0159048957477096
 10
449.21989868700831
 20
-3439.3966831647076
 10
449.21857989643416
 20
-3439.3951015516936
 42
-0.0343813379572609
 10
449.1159426348097
 20
-3439.2532302259269
 10
449.08445110344701
 20
-3439.2027268338297
 42
-0.0369117275696043
 10
448.9985586015498
 20
-3439.0392495928818
 42
-0.0191751379907509
 10
448.93136521599251
 20
-3438.8668449868751
 10
448.92960189223328
 20
-3438.8617516422009
 42
-0.0378178042221385
 10
448.87980717344897
 20
-3438.6728108661191
 10
448.87381187771877
 20
-3438.6402502479223
 42
-0.0184846046474811
 10
448.85309467842438
 20
-3438.498497427378
 42
-0.01798663513096
 10
448.84276167335076
 20
-3438.3556066142974
 10
448.84270523090493
 20
-3438.3540489276838
 42
-0.0085497186138568
 10
448.84127294980112
 20
-3438.2791757626742
 42
-0.0085497186138568
  0
ENDBLK
  5
7C
100
AcDbEntity
  8
template
390
0
100
AcDbBlockEnd
  0
BLOCK
  5
7D
100
AcDbEntity
  8
cut
390
0
100
AcDbBlockBegin
  2
グループ-1
 70
               0
 10
0.0
 20
0.0
 30
0.0
  3
グループ-1
  1

  0
MTEXT
  5
7E
100
AcDbEntity
  8
0
390
0
 62
               7
100
AcDbMText
 10
-2608.6060542128102
 20
-2901.9398157338273
 30
0.0
 40
48.865234375000007
 41
0.0
 71
               1
 72
               1
  1
カウンター切込寸法（Not To Scale）
  7
ＭＳ ゴシック
 11
0.0
 21
1.0
 31
0.0
 73
               1
 44
0.7828267384257843
  0
MTEXT
  5
7F
100
AcDbEntity
  8
0
390
0
 62
               7
100
AcDbMText
 10
-2458.2314668629365
 20
-2694.4398291912321
 30
0.0
 40
48.865234375000007
 41
0.0
 71
               1
 72
               1
  1
半埋め込み
  7
ＭＳ ゴシック
 11
0.0
 21
1.0
 31
0.0
 73
               1
 44
0.7828267384257843
  0
MTEXT
  5
80
100
AcDbEntity
  8
0
390
0
 62
               7
100
AcDbMText
 10
-2332.7169457881805
 20
-2566.6974013089293
 30
0.0
 40
48.865234375000007
 41
0.0
 71
               1
 72
               1
  1
カウンター置き
  7
ＭＳ ゴシック
 11
0.0
 21
1.0
 31
0.0
 73
               1
 44
0.7828267384257843
  0
MTEXT
  5
81
100
AcDbEntity
  8
0
390
0
 62
               7
100
AcDbMText
 10
-1071.3984086296871
 20
-3108.5793675721479
 30
0.0
 40
48.865234375000007
 41
0.0
 71
               1
 72
               1
  1
※カウンター置きの場合も壁固定が必要です。\P
  7
ＭＳ ゴシック
 11
0.0
 21
1.0
 31
0.0
 73
               1
 44
0.7828267384257843
  0
MTEXT
  5
82
100
AcDbEntity
  8
0
390
0
 62
               7
100
AcDbMText
 10
-1362.87217696828
 20
-3112.4726549123429
 30
0.0
 40
48.865234375000007
 41
0.0
 71
               1
 72
               1
  1
※陶器製品には寸法公差があります。\P　洗面器の収め方をご確認の上、必ず現物を合わせて\P  カウンターに切込を行ってください。
  7
ＭＳ ゴシック
 11
0.0
 21
1.0
 31
0.0
 73
               1
 44
1.0437689845677123
  0
LINE
  5
83
100
AcDbEntity
  8
0
370
               5
390
0
  6
Continuous
 62
               7
100
AcDbLine
 10
-2272.2262324879366
 20
-2540.2429909928555
 30
0.0
 11
-2187.6330317092761
 21
-2540.2429909928555
 31
0.0
  0
LINE
  5
84
100
AcDbEntity
  8
0
370
               5
390
0
  6
Continuous
 62
               7
100
AcDbLine
 10
-2398.2262324879366
 20
-2639.0834652157723
 30
0.0
 11
-2187.6330317092761
 21
-2639.0834652157723
 31
0.0
  0
ENDBLK
  5
85
100
AcDbEntity
  8
cut
390
0
100
AcDbBlockEnd
  0
BLOCK
  5
86
100
AcDbEntity
  8
cut
390
0
100
AcDbBlockBegin
  2
*D5
 70
               1
 10
0.0
 20
0.0
 30
0.0
  3
*D5
  1

  0
LINE
  5
87
100
AcDbEntity
  8
0
370
              -2
390
0
  6
Continuous
 62
               0
100
AcDbLine
 10
-1687.6330317092763
 20
-2037.1898157338278
 30
0.0
 11
-1587.633031709277
 21
-2037.1898157338278
 31
0.0
  0
LINE
  5
88
100
AcDbEntity
  8
0
370
              -2
390
0
  6
Continuous
 62
               0
100
AcDbLine
 10
-1687.6330317092763
 20
-2687.1898157338278
 30
0.0
 11
-1587.633031709277
 21
-2687.1898157338278
 31
0.0
  0
LINE
  5
89
100
AcDbEntity
  8
0
370
              -2
390
0
  6
Continuous
 62
               0
100
AcDbLine
 10
-1587.633031709277
 20
-2037.1898157338278
 30
0.0
 11
-1587.633031709277
 21
-2687.1898157338278
 31
0.0
  0
CIRCLE
  5
8A
102
{ACAD_REACTORS
330
8B
102
}
100
AcDbEntity
  8
0
370
              -2
390
0
  6
Continuous
 62
               0
100
AcDbCircle
 10
-1587.633031709277
 20
-2037.1898157338278
 30
0.0
 40
3.999755859375
  0
HATCH
  5
8B
100
AcDbEntity
  8
0
370
              -2
390
0
  6
Continuous
 62
               0
100
AcDbHatch
 10
0.0
 20
0.0
 30
0.0
210
0.0
220
0.0
230
1.0
  2
SOLID
 70
               1
 71
               1
 91
        1
 92
        1
 93
        1
 72
               2
 10
-1587.633031709277
 20
-2037.1898157338278
 40
3.999755859375
 50
0.0
 51
360.0
 73
               0
 97
        1
330
8A
 75
               0
 76
               1
 98
        1
 10
0.0
 20
0.0
  0
CIRCLE
  5
8C
102
{ACAD_REACTORS
330
8D
102
}
100
AcDbEntity
  8
0
370
              -2
390
0
  6
Continuous
 62
               0
100
AcDbCircle
 10
-1587.633031709277
 20
-2687.1898157338278
 30
0.0
 40
3.999755859375
  0
HATCH
  5
8D
100
AcDbEntity
  8
0
370
              -2
390
0
  6
Continuous
 62
               0
100
AcDbHatch
 10
0.0
 20
0.0
 30
0.0
210
0.0
220
0.0
230
1.0
  2
SOLID
 70
               1
 71
               1
 91
        1
 92
        1
 93
        1
 72
               2
 10
-1587.633031709277
 20
-2687.1898157338278
 40
3.999755859375
 50
0.0
 51
360.0
 73
               0
 97
        1
330
8C
 75
               0
 76
               1
 98
        1
 10
0.0
 20
0.0
  0
MTEXT
  5
8E
100
AcDbEntity
  8
0
390
0
 62
               0
100
AcDbMText
 10
-1650.1792817092771
 20
-2409.8148190981788
 30
0.0
 40
43.65625
 41
0.0
 71
               1
 72
               1
  1
650
  7
MS UI Gothic
 11
0.0
 21
1.0
 31
0.0
 73
               1
 44
0.8762322015334064
  0
POINT
  5
8F
100
AcDbEntity
  8
Defpoints
370
               0
390
0
 62
               0
100
AcDbPoint
 10
-1737.6330317092763
 20
-2687.1898157338278
 30
0.0
  0
POINT
  5
90
100
AcDbEntity
  8
Defpoints
370
               0
390
0
 62
               0
100
AcDbPoint
 10
-1737.6330317092763
 20
-2037.1898157338278
 30
0.0
  0
POINT
  5
91
100
AcDbEntity
  8
Defpoints
370
               0
390
0
 62
               0
100
AcDbPoint
 10
-1587.633031709277
 20
-2037.1898157338278
 30
0.0
  0
ENDBLK
  5
92
100
AcDbEntity
  8
cut
390
0
100
AcDbBlockEnd
  0
BLOCK
  5
93
100
AcDbEntity
  8
cut
390
0
100
AcDbBlockBegin
  2
*D6
 70
               1
 10
0.0
 20
0.0
 30
0.0
  3
*D6
  1

  0
LINE
  5
94
100
AcDbEntity
  8
0
370
              -2
390
0
  6
Continuous
 62
               0
100
AcDbLine
 10
-1737.6330317092763
 20
-1987.1898157338278
 30
0.0
 11
-1737.6330317092763
 21
-1937.1898157338278
 31
0.0
  0
LINE
  5
95
100
AcDbEntity
  8
0
370
              -2
390
0
  6
Continuous
 62
               0
100
AcDbLine
 10
-2187.6330317092761
 20
-1987.1898157338278
 30
0.0
 11
-2187.6330317092761
 21
-1937.1898157338278
 31
0.0
  0
LINE
  5
96
100
AcDbEntity
  8
0
370
              -2
390
0
  6
Continuous
 62
               0
100
AcDbLine
 10
-1737.6330317092763
 20
-1937.1898157338278
 30
0.0
 11
-2187.6330317092761
 21
-1937.1898157338278
 31
0.0
  0
CIRCLE
  5
97
102
{ACAD_REACTORS
330
98
102
}
100
AcDbEntity
  8
0
370
              -2
390
0
  6
Continuous
 62
               0
100
AcDbCircle
 10
-1737.6330317092763
 20
-1937.1898157338278
 30
0.0
 40
3.999755859375
  0
HATCH
  5
98
100
AcDbEntity
  8
0
370
              -2
390
0
  6
Continuous
 62
               0
100
AcDbHatch
 10
0.0
 20
0.0
 30
0.0
210
0.0
220
0.0
230
1.0
  2
SOLID
 70
               1
 71
               1
 91
        1
 92
        1
 93
        1
 72
               2
 10
-1737.6330317092763
 20
-1937.1898157338278
 40
3.999755859375
 50
0.0
 51
360.0
 73
               0
 97
        1
330
97
 75
               0
 76
               1
 98
        1
 10
0.0
 20
0.0
  0
CIRCLE
  5
99
102
{ACAD_REACTORS
330
9A
102
}
100
AcDbEntity
  8
0
370
              -2
390
0
  6
Continuous
 62
               0
100
AcDbCircle
 10
-2187.6330317092761
 20
-1937.1898157338278
 30
0.0
 40
3.999755859375
  0
HATCH
  5
9A
100
AcDbEntity
  8
0
370
              -2
390
0
  6
Continuous
 62
               0
100
AcDbHatch
 10
0.0
 20
0.0
 30
0.0
210
0.0
220
0.0
230
1.0
  2
SOLID
 70
               1
 71
               1
 91
        1
 92
        1
 93
        1
 72
               2
 10
-2187.6330317092761
 20
-1937.1898157338278
 40
3.999755859375
 50
0.0
 51
360.0
 73
               0
 97
        1
330
99
 75
               0
 76
               1
 98
        1
 10
0.0
 20
0.0
  0
MTEXT
  5
9B
100
AcDbEntity
  8
0
390
0
 62
               0
100
AcDbMText
 10
-2010.2580350736271
 20
-1874.6435657338277
 30
0.0
 40
43.65625
 41
0.0
 71
               1
 72
               1
  1
450
  7
MS UI Gothic
 73
               1
 44
0.8762322015334064
  0
POINT
  5
9C
100
AcDbEntity
  8
Defpoints
370
               0
390
0
 62
               0
100
AcDbPoint
 10
-2187.6330317092761
 20
-2037.1898157338278
 30
0.0
  0
POINT
  5
9D
100
AcDbEntity
  8
Defpoints
370
               0
390
0
 62
               0
100
AcDbPoint
 10
-1737.6330317092763
 20
-2037.1898157338278
 30
0.0
  0
POINT
  5
9E
100
AcDbEntity
  8
Defpoints
370
               0
390
0
 62
               0
100
AcDbPoint
 10
-1737.6330317092763
 20
-1937.1898157338278
 30
0.0
  0
ENDBLK
  5
9F
100
AcDbEntity
  8
cut
390
0
100
AcDbBlockEnd
  0
BLOCK
  5
A0
100
AcDbEntity
  8
cut
390
0
100
AcDbBlockBegin
  2
*D7
 70
               1
 10
0.0
 20
0.0
 30
0.0
  3
*D7
  1

  0
LINE
  5
A1
100
AcDbEntity
  8
0
370
              -2
390
0
  6
Continuous
 62
               0
100
AcDbLine
 10
-1887.6330317092763
 20
-2137.1898157338278
 30
0.0
 11
-1837.6330317092763
 21
-2137.1898157338278
 31
0.0
  0
LINE
  5
A2
100
AcDbEntity
  8
0
370
              -2
390
0
  6
Continuous
 62
               0
100
AcDbLine
 10
-1887.6330317092763
 20
-2587.1898157338278
 30
0.0
 11
-1837.6330317092763
 21
-2587.1898157338278
 31
0.0
  0
LINE
  5
A3
100
AcDbEntity
  8
0
370
              -2
390
0
  6
Continuous
 62
               0
100
AcDbLine
 10
-1837.6330317092763
 20
-2137.1898157338278
 30
0.0
 11
-1837.6330317092763
 21
-2587.1898157338278
 31
0.0
  0
CIRCLE
  5
A4
102
{ACAD_REACTORS
330
A5
102
}
100
AcDbEntity
  8
0
370
              -2
390
0
  6
Continuous
 62
               0
100
AcDbCircle
 10
-1837.6330317092763
 20
-2137.1898157338278
 30
0.0
 40
3.999755859375
  0
HATCH
  5
A5
100
AcDbEntity
  8
0
370
              -2
390
0
  6
Continuous
 62
               0
100
AcDbHatch
 10
0.0
 20
0.0
 30
0.0
210
0.0
220
0.0
230
1.0
  2
SOLID
 70
               1
 71
               1
 91
        1
 92
        1
 93
        1
 72
               2
 10
-1837.6330317092763
 20
-2137.1898157338278
 40
3.999755859375
 50
0.0
 51
360.0
 73
               0
 97
        1
330
A4
 75
               0
 76
               1
 98
        1
 10
0.0
 20
0.0
  0
CIRCLE
  5
A6
102
{ACAD_REACTORS
330
A7
102
}
100
AcDbEntity
  8
0
370
              -2
390
0
  6
Continuous
 62
               0
100
AcDbCircle
 10
-1837.6330317092763
 20
-2587.1898157338278
 30
0.0
 40
3.999755859375
  0
HATCH
  5
A7
100
AcDbEntity
  8
0
370
              -2
390
0
  6
Continuous
 62
               0
100
AcDbHatch
 10
0.0
 20
0.0
 30
0.0
210
0.0
220
0.0
230
1.0
  2
SOLID
 70
               1
 71
               1
 91
        1
 92
        1
 93
        1
 72
               2
 10
-1837.6330317092763
 20
-2587.1898157338278
 40
3.999755859375
 50
0.0
 51
360.0
 73
               0
 97
        1
330
A6
 75
               0
 76
               1
 98
        1
 10
0.0
 20
0.0
  0
MTEXT
  5
A8
100
AcDbEntity
  8
0
390
0
 62
               0
100
AcDbMText
 10
-1900.1792817092764
 20
-2409.8148190981788
 30
0.0
 40
43.65625
 41
0.0
 71
               1
 72
               1
  1
450
  7
MS UI Gothic
 11
0.0
 21
1.0
 31
0.0
 73
               1
 44
0.8762322015334064
  0
POINT
  5
A9
100
AcDbEntity
  8
Defpoints
370
               0
390
0
 62
               0
100
AcDbPoint
 10
-1937.6330317092763
 20
-2587.1898157338278
 30
0.0
  0
POINT
  5
AA
100
AcDbEntity
  8
Defpoints
370
               0
390
0
 62
               0
100
AcDbPoint
 10
-1937.6330317092763
 20
-2137.1898157338278
 30
0.0
  0
POINT
  5
AB
100
AcDbEntity
  8
Defpoints
370
               0
390
0
 62
               0
100
AcDbPoint
 10
-1837.6330317092763
 20
-2137.1898157338278
 30
0.0
  0
ENDBLK
  5
AC
100
AcDbEntity
  8
cut
390
0
100
AcDbBlockEnd
  0
BLOCK
  5
AD
100
AcDbEntity
  8
cut
390
0
100
AcDbBlockBegin
  2
*D8
 70
               1
 10
0.0
 20
0.0
 30
0.0
  3
*D8
  1

  0
LINE
  5
AE
100
AcDbEntity
  8
0
370
              -2
390
0
  6
Continuous
 62
               0
100
AcDbLine
 10
-1937.6330317092763
 20
-2637.1898157338278
 30
0.0
 11
-1937.6330317092763
 21
-2787.1898157338278
 31
0.0
  0
LINE
  5
AF
100
AcDbEntity
  8
0
370
              -2
390
0
  6
Continuous
 62
               0
100
AcDbLine
 10
-2187.6330317092761
 20
-2637.1898157338278
 30
0.0
 11
-2187.6330317092761
 21
-2787.1898157338278
 31
0.0
  0
LINE
  5
B0
100
AcDbEntity
  8
0
370
              -2
390
0
  6
Continuous
 62
               0
100
AcDbLine
 10
-1937.6330317092763
 20
-2787.1898157338278
 30
0.0
 11
-2187.6330317092761
 21
-2787.1898157338278
 31
0.0
  0
CIRCLE
  5
B1
102
{ACAD_REACTORS
330
B2
102
}
100
AcDbEntity
  8
0
370
              -2
390
0
  6
Continuous
 62
               0
100
AcDbCircle
 10
-1937.6330317092763
 20
-2787.1898157338278
 30
0.0
 40
3.999755859375
  0
HATCH
  5
B2
100
AcDbEntity
  8
0
370
              -2
390
0
  6
Continuous
 62
               0
100
AcDbHatch
 10
0.0
 20
0.0
 30
0.0
210
0.0
220
0.0
230
1.0
  2
SOLID
 70
               1
 71
               1
 91
        1
 92
        1
 93
        1
 72
               2
 10
-1937.6330317092763
 20
-2787.1898157338278
 40
3.999755859375
 50
0.0
 51
360.0
 73
               0
 97
        1
330
B1
 75
               0
 76
               1
 98
        1
 10
0.0
 20
0.0
  0
CIRCLE
  5
B3
102
{ACAD_REACTORS
330
B4
102
}
100
AcDbEntity
  8
0
370
              -2
390
0
  6
Continuous
 62
               0
100
AcDbCircle
 10
-2187.6330317092761
 20
-2787.1898157338278
 30
0.0
 40
3.999755859375
  0
HATCH
  5
B4
100
AcDbEntity
  8
0
370
              -2
390
0
  6
Continuous
 62
               0
100
AcDbHatch
 10
0.0
 20
0.0
 30
0.0
210
0.0
220
0.0
230
1.0
  2
SOLID
 70
               1
 71
               1
 91
        1
 92
        1
 93
        1
 72
               2
 10
-2187.6330317092761
 20
-2787.1898157338278
 40
3.999755859375
 50
0.0
 51
360.0
 73
               0
 97
        1
330
B3
 75
               0
 76
               1
 98
        1
 10
0.0
 20
0.0
  0
MTEXT
  5
B5
100
AcDbEntity
  8
0
390
0
 62
               0
100
AcDbMText
 10
-2110.2580350736271
 20
-2724.6435657338279
 30
0.0
 40
43.65625
 41
0.0
 71
               1
 72
               1
  1
250
  7
MS UI Gothic
 73
               1
 44
0.8762322015334064
  0
POINT
  5
B6
100
AcDbEntity
  8
Defpoints
370
               0
390
0
 62
               0
100
AcDbPoint
 10
-2187.6330317092761
 20
-2587.1898157338278
 30
0.0
  0
POINT
  5
B7
100
AcDbEntity
  8
Defpoints
370
               0
390
0
 62
               0
100
AcDbPoint
 10
-1937.6330317092763
 20
-2587.1898157338278
 30
0.0
  0
POINT
  5
B8
100
AcDbEntity
  8
Defpoints
370
               0
390
0
 62
               0
100
AcDbPoint
 10
-1937.6330317092763
 20
-2787.1898157338278
 30
0.0
  0
ENDBLK
  5
B9
100
AcDbEntity
  8
cut
390
0
100
AcDbBlockEnd
  0
BLOCK
  5
BA
100
AcDbEntity
  8
cut
390
0
100
AcDbBlockBegin
  2
グループ-2
 70
               0
 10
0.0
 20
0.0
 30
0.0
  3
グループ-2
  1

  0
LINE
  5
BB
100
AcDbEntity
  8
0
370
               5
390
0
  6
Continuous
 62
               7
100
AcDbLine
 10
-2187.6330317092761
 20
-3037.1898157338264
 30
0.0
 11
-2187.6330317092761
 21
-1687.1898157338278
 31
0.0
  0
LINE
  5
BC
100
AcDbEntity
  8
0
370
               5
390
0
  6
Continuous
 62
               7
100
AcDbLine
 10
-2187.6330317092761
 20
-1773.9135547970209
 30
0.0
 11
-2224.6330317092761
 21
-1736.9135547970209
 31
0.0
  0
LINE
  5
BD
100
AcDbEntity
  8
0
370
               5
390
0
  6
Continuous
 62
               7
100
AcDbLine
 10
-2187.6330317092761
 20
-1753.9135547970209
 30
0.0
 11
-2224.6330317092761
 21
-1716.9135547970209
 31
0.0
  0
LINE
  5
BE
100
AcDbEntity
  8
0
370
               5
390
0
  6
Continuous
 62
               7
100
AcDbLine
 10
-2187.6330317092761
 20
-1733.9135547970209
 30
0.0
 11
-2224.6330317092761
 21
-1696.9135547970209
 31
0.0
  0
CIRCLE
  5
BF
100
AcDbEntity
  8
0
370
               5
390
0
  6
STYLE_23
 62
               7
100
AcDbCircle
 10
-2117.6330317092761
 20
-2362.1898157338278
 30
0.0
 40
17.5
  0
CIRCLE
  5
C0
100
AcDbEntity
  8
0
370
               5
390
0
  6
STYLE_23
 62
               7
100
AcDbCircle
 10
-2117.6330317092761
 20
-2262.1898157338278
 30
0.0
 40
17.5
  0
CIRCLE
  5
C1
100
AcDbEntity
  8
0
370
               5
390
0
  6
STYLE_23
 62
               7
100
AcDbCircle
 10
-2117.6330317092761
 20
-2462.1898157338278
 30
0.0
 40
17.5
  0
CIRCLE
  5
C2
100
AcDbEntity
  8
0
370
               5
390
0
  6
STYLE_23
 62
               7
100
AcDbCircle
 10
-2117.6330317092761
 20
-2562.1898157338278
 30
0.0
 40
17.5
  0
CIRCLE
  5
C3
100
AcDbEntity
  8
0
370
               5
390
0
  6
STYLE_23
 62
               7
100
AcDbCircle
 10
-2117.6330317092761
 20
-2162.1898157338278
 30
0.0
 40
17.5
  0
LINE
  5
C4
100
AcDbEntity
  8
0
370
               5
390
0
  6
STYLE_23
 62
               7
100
AcDbLine
 10
-2184.633031709277
 20
-1737.1898157338283
 30
0.0
 11
-1693.6330317092777
 21
-1737.1898157338287
 31
0.0
  0
LINE
  5
C5
100
AcDbEntity
  8
0
370
               5
390
0
  6
STYLE_23
 62
               7
100
AcDbLine
 10
-1687.6330317092777
 20
-1743.1898157338287
 30
0.0
 11
-1687.6330317092772
 21
-1992.1898157338278
 31
0.0
  0
LINE
  5
C6
100
AcDbEntity
  8
0
370
               5
390
0
  6
STYLE_23
 62
               7
100
AcDbLine
 10
-1687.6330317092772
 20
-2732.1898157338269
 30
0.0
 11
-1687.6330317092772
 21
-1992.1898157338278
 31
0.0
  0
LINE
  5
C7
100
AcDbEntity
  8
0
370
               5
390
0
  6
STYLE_23
 62
               7
100
AcDbLine
 10
-2184.6330317092761
 20
-2987.1898157338264
 30
0.0
 11
-1693.6330317092772
 21
-2987.189815733826
 31
0.0
  0
LINE
  5
C8
100
AcDbEntity
  8
0
370
               5
390
0
  6
STYLE_23
 62
               7
100
AcDbLine
 10
-1687.6330317092772
 20
-2981.189815733826
 30
0.0
 11
-1687.6330317092772
 21
-2732.1898157338269
 31
0.0
  0
CIRCLE
  5
C9
100
AcDbEntity
  8
0
370
               5
390
0
  6
STYLE_23
 62
               7
100
AcDbCircle
 10
-1987.6330317092782
 20
-2362.1898157338278
 30
0.0
 40
22.5
  0
ARC
  5
CA
100
AcDbEntity
  8
0
370
              15
390
0
  6
STYLE_23
 62
               7
100
AcDbCircle
 10
-2184.6330317092761
 20
-2984.1898157338264
 30
0.0
 40
3.0
100
AcDbArc
 50
180.0
 51
270.0
  0
ARC
  5
CB
100
AcDbEntity
  8
0
370
              15
390
0
  6
STYLE_23
 62
               7
100
AcDbCircle
 10
-2184.633031709277
 20
-1740.1898157338283
 30
0.0
 40
3.0
100
AcDbArc
 50
90.0
 51
180.0
  0
ARC
  5
CC
100
AcDbEntity
  8
0
370
               5
390
0
  6
STYLE_23
 62
               7
100
AcDbCircle
 10
-1693.6330317092772
 20
-2981.189815733826
 30
0.0
 40
6.0
100
AcDbArc
 50
270.0
 51
0.0
  0
ARC
  5
CD
100
AcDbEntity
  8
0
370
               5
390
0
  6
STYLE_23
 62
               7
100
AcDbCircle
 10
-1693.6330317092777
 20
-1743.1898157338287
 30
0.0
 40
6.0
100
AcDbArc
 50
0.0
 51
90.0
  0
POLYLINE
  5
CE
100
AcDbEntity
  8
0
370
              15
390
0
  6
Continuous
 62
               7
100
AcDb2dPolyline
 66
               1
 10
0.0
 20
0.0
 30
0.0
 70
               1
 75
               5
  0
VERTEX
  5
CF
100
AcDbEntity
  8
0
370
              15
390
0
  6
Continuous
 62
               7
100
AcDbVertex
100
AcDb2dVertex
 10
-2187.6330317092761
 20
-2037.1898157338278
 30
0.0
  0
VERTEX
  5
D0
100
AcDbEntity
  8
0
370
              15
390
0
  6
Continuous
 62
               7
100
AcDbVertex
100
AcDb2dVertex
 10
-1737.6330317092763
 20
-2037.1898157338278
 30
0.0
  0
VERTEX
  5
D1
100
AcDbEntity
  8
0
370
              15
390
0
  6
Continuous
 62
               7
100
AcDbVertex
100
AcDb2dVertex
 10
-1737.6330317092763
 20
-2687.1898157338278
 30
0.0
  0
VERTEX
  5
D2
100
AcDbEntity
  8
0
370
              15
390
0
  6
Continuous
 62
               7
100
AcDbVertex
100
AcDb2dVertex
 10
-2187.6330317092761
 20
-2687.1898157338278
 30
0.0
  0
SEQEND
  5
D3
100
AcDbEntity
  8
0
370
              15
390
0
  6
Continuous
 62
               7
  0
DIMENSION
  5
D4
100
AcDbEntity
  8
0
370
               5
390
0
  6
Continuous
 62
               7
100
AcDbDimension
  2
*D5
 10
-1587.633031709277
 20
-2037.1898157338278
 30
0.0
 11
-1587.633031709277
 21
-2362.1898157338278
 31
0.0
 71
               5
 72
               1
 41
1.0
 42
0.0
  3
TformSENN
100
AcDbAlignedDimension
 13
-1737.6330317092763
 23
-2687.1898157338278
 33
0.0
 14
-1737.6330317092763
 24
-2037.1898157338278
 34
0.0
 50
90.0
100
AcDbRotatedDimension
1001
ACAD
1000
DSTYLE
1002
{
1070
             279
1070
               2
1070
             340
1005
42
1070
             144
1040
2.0
1070
             147
1040
10.0
1002
}
  0
DIMENSION
  5
D5
100
AcDbEntity
  8
0
370
               5
390
0
  6
Continuous
 62
               7
100
AcDbDimension
  2
*D6
 10
-1737.6330317092763
 20
-1937.1898157338278
 30
0.0
 11
-1962.6330317092761
 21
-1937.1898157338278
 31
0.0
 71
               5
 72
               1
 41
1.0
 42
0.0
  3
TformSENN
100
AcDbAlignedDimension
 13
-2187.6330317092761
 23
-2037.1898157338278
 33
0.0
 14
-1737.6330317092763
 24
-2037.1898157338278
 34
0.0
100
AcDbRotatedDimension
1001
ACAD
1000
DSTYLE
1002
{
1070
             279
1070
               2
1070
             340
1005
42
1070
             144
1040
2.0
1070
             147
1040
10.0
1002
}
  0
POLYLINE
  5
D6
100
AcDbEntity
  8
0
370
              15
390
0
  6
Continuous
 62
               7
100
AcDb2dPolyline
 66
               1
 10
0.0
 20
0.0
 30
0.0
 70
               1
 75
               5
  0
VERTEX
  5
D7
100
AcDbEntity
  8
0
370
              15
390
0
  6
Continuous
 62
               7
100
AcDbVertex
100
AcDb2dVertex
 10
-2187.6330317092761
 20
-2137.1898157338278
 30
0.0
  0
VERTEX
  5
D8
100
AcDbEntity
  8
0
370
              15
390
0
  6
Continuous
 62
               7
100
AcDbVertex
100
AcDb2dVertex
 10
-1937.6330317092763
 20
-2137.1898157338278
 30
0.0
  0
VERTEX
  5
D9
100
AcDbEntity
  8
0
370
              15
390
0
  6
Continuous
 62
               7
100
AcDbVertex
100
AcDb2dVertex
 10
-1937.6330317092763
 20
-2587.1898157338278
 30
0.0
  0
VERTEX
  5
DA
100
AcDbEntity
  8
0
370
              15
390
0
  6
Continuous
 62
               7
100
AcDbVertex
100
AcDb2dVertex
 10
-2187.6330317092761
 20
-2587.1898157338278
 30
0.0
  0
SEQEND
  5
DB
100
AcDbEntity
  8
0
370
              15
390
0
  6
Continuous
 62
               7
  0
DIMENSION
  5
DC
100
AcDbEntity
  8
0
370
               5
390
0
  6
Continuous
 62
               7
100
AcDbDimension
  2
*D7
 10
-1837.6330317092763
 20
-2137.1898157338278
 30
0.0
 11
-1837.6330317092763
 21
-2362.1898157338278
 31
0.0
 71
               5
 72
               1
 41
1.0
 42
0.0
  3
TformSENN
100
AcDbAlignedDimension
 13
-1937.6330317092763
 23
-2587.1898157338278
 33
0.0
 14
-1937.6330317092763
 24
-2137.1898157338278
 34
0.0
 50
90.0
100
AcDbRotatedDimension
1001
ACAD
1000
DSTYLE
1002
{
1070
             279
1070
               2
1070
             340
1005
42
1070
             144
1040
2.0
1070
             147
1040
10.0
1002
}
  0
DIMENSION
  5
DD
100
AcDbEntity
  8
0
370
               5
390
0
  6
Continuous
 62
               7
100
AcDbDimension
  2
*D8
 10
-1937.6330317092763
 20
-2787.1898157338278
 30
0.0
 11
-2062.6330317092761
 21
-2787.1898157338278
 31
0.0
 71
               5
 72
               1
 41
1.0
 42
0.0
  3
TformSENN
100
AcDbAlignedDimension
 13
-2187.6330317092761
 23
-2587.1898157338278
 33
0.0
 14
-1937.6330317092763
 24
-2587.1898157338278
 34
0.0
100
AcDbRotatedDimension
1001
ACAD
1000
DSTYLE
1002
{
1070
             279
1070
               2
1070
             340
1005
42
1070
             144
1040
2.0
1070
             147
1040
10.0
1002
}
  0
ENDBLK
  5
DE
100
AcDbEntity
  8
cut
390
0
100
AcDbBlockEnd
  0
BLOCK
  5
DF
100
AcDbEntity
  8
notes
390
0
100
AcDbBlockBegin
  2
*D10
 70
               1
 10
0.0
 20
0.0
 30
0.0
  3
*D10
  1

  0
LINE
  5
E0
100
AcDbEntity
  8
0
370
              -2
390
0
  6
Continuous
 62
               0
100
AcDbLine
 10
-641.4978543138144
 20
370.95064536137465
 30
0.0
 11
-641.4978543138144
 21
448.95064536137465
 31
0.0
  0
LINE
  5
E1
100
AcDbEntity
  8
0
370
              -2
390
0
  6
Continuous
 62
               0
100
AcDbLine
 10
-141.49785431381383
 20
367.9506453613742
 30
0.0
 11
-141.49785431381383
 21
448.95064536137465
 31
0.0
  0
LINE
  5
E2
100
AcDbEntity
  8
0
370
              -2
390
0
  6
Continuous
 62
               0
100
AcDbLine
 10
-641.4978543138144
 20
448.95064536137465
 30
0.0
 11
-141.49785431381383
 21
448.95064536137465
 31
0.0
  0
CIRCLE
  5
E3
102
{ACAD_REACTORS
330
E4
102
}
100
AcDbEntity
  8
0
370
              -2
390
0
  6
Continuous
 62
               0
100
AcDbCircle
 10
-641.4978543138144
 20
448.95064536137465
 30
0.0
 40
1.9998779296875
  0
HATCH
  5
E4
100
AcDbEntity
  8
0
370
              -2
390
0
  6
Continuous
 62
               0
100
AcDbHatch
 10
0.0
 20
0.0
 30
0.0
210
0.0
220
0.0
230
1.0
  2
SOLID
 70
               1
 71
               1
 91
        1
 92
        1
 93
        1
 72
               2
 10
-641.4978543138144
 20
448.95064536137465
 40
1.9998779296875
 50
0.0
 51
360.0
 73
               0
 97
        1
330
E3
 75
               0
 76
               1
 98
        1
 10
0.0
 20
0.0
  0
CIRCLE
  5
E5
102
{ACAD_REACTORS
330
E6
102
}
100
AcDbEntity
  8
0
370
              -2
390
0
  6
Continuous
 62
               0
100
AcDbCircle
 10
-141.49785431381383
 20
448.95064536137465
 30
0.0
 40
1.9998779296875
  0
HATCH
  5
E6
100
AcDbEntity
  8
0
370
              -2
390
0
  6
Continuous
 62
               0
100
AcDbHatch
 10
0.0
 20
0.0
 30
0.0
210
0.0
220
0.0
230
1.0
  2
SOLID
 70
               1
 71
               1
 91
        1
 92
        1
 93
        1
 72
               2
 10
-141.49785431381383
 20
448.95064536137465
 40
1.9998779296875
 50
0.0
 51
360.0
 73
               0
 97
        1
330
E5
 75
               0
 76
               1
 98
        1
 10
0.0
 20
0.0
  0
MTEXT
  5
E7
100
AcDbEntity
  8
0
390
0
 62
               0
100
AcDbMText
 10
-415.31035599598965
 20
482.82826254887459
 30
0.0
 40
24.432617187500004
 41
0.0
 71
               1
 72
               1
  1
500
  7
ＭＳ ゴシック
 73
               1
 44
0.7828267384257843
  0
POINT
  5
E8
100
AcDbEntity
  8
Defpoints
370
               0
390
0
 62
               0
100
AcDbPoint
 10
-141.49785431381383
 20
342.9506453613742
 30
0.0
  0
POINT
  5
E9
100
AcDbEntity
  8
Defpoints
370
               0
390
0
 62
               0
100
AcDbPoint
 10
-641.4978543138144
 20
345.95064536137465
 30
0.0
  0
POINT
  5
EA
100
AcDbEntity
  8
Defpoints
370
               0
390
0
 62
               0
100
AcDbPoint
 10
-641.4978543138144
 20
448.95064536137465
 30
0.0
  0
ENDBLK
  5
EB
100
AcDbEntity
  8
notes
390
0
100
AcDbBlockEnd
  0
BLOCK
  5
EC
100
AcDbEntity
  8
notes
390
0
100
AcDbBlockBegin
  2
*D11
 70
               1
 10
0.0
 20
0.0
 30
0.0
  3
*D11
  1

  0
LINE
  5
ED
100
AcDbEntity
  8
0
370
              -2
390
0
  6
Continuous
 62
               0
100
AcDbLine
 10
457.87114166134768
 20
370.05064536137411
 30
0.0
 11
457.87114166134768
 21
448.9506453613742
 31
0.0
  0
LINE
  5
EE
100
AcDbEntity
  8
0
370
              -2
390
0
  6
Continuous
 62
               0
100
AcDbLine
 10
647.87114166134654
 20
35.048927156906302
 30
0.0
 11
647.87114166134654
 21
448.9506453613742
 31
0.0
  0
LINE
  5
EF
100
AcDbEntity
  8
0
370
              -2
390
0
  6
Continuous
 62
               0
100
AcDbLine
 10
457.87114166134768
 20
448.9506453613742
 30
0.0
 11
647.87114166134654
 21
448.9506453613742
 31
0.0
  0
CIRCLE
  5
F0
102
{ACAD_REACTORS
330
F1
102
}
100
AcDbEntity
  8
0
370
              -2
390
0
  6
Continuous
 62
               0
100
AcDbCircle
 10
457.87114166134768
 20
448.9506453613742
 30
0.0
 40
1.9998779296875
  0
HATCH
  5
F1
100
AcDbEntity
  8
0
370
              -2
390
0
  6
Continuous
 62
               0
100
AcDbHatch
 10
0.0
 20
0.0
 30
0.0
210
0.0
220
0.0
230
1.0
  2
SOLID
 70
               1
 71
               1
 91
        1
 92
        1
 93
        1
 72
               2
 10
457.87114166134768
 20
448.9506453613742
 40
1.9998779296875
 50
0.0
 51
360.0
 73
               0
 97
        1
330
F0
 75
               0
 76
               1
 98
        1
 10
0.0
 20
0.0
  0
CIRCLE
  5
F2
102
{ACAD_REACTORS
330
F3
102
}
100
AcDbEntity
  8
0
370
              -2
390
0
  6
Continuous
 62
               0
100
AcDbCircle
 10
647.87114166134654
 20
448.9506453613742
 30
0.0
 40
1.9998779296875
  0
HATCH
  5
F3
100
AcDbEntity
  8
0
370
              -2
390
0
  6
Continuous
 62
               0
100
AcDbHatch
 10
0.0
 20
0.0
 30
0.0
210
0.0
220
0.0
230
1.0
  2
SOLID
 70
               1
 71
               1
 91
        1
 92
        1
 93
        1
 72
               2
 10
647.87114166134654
 20
448.9506453613742
 40
1.9998779296875
 50
0.0
 51
360.0
 73
               0
 97
        1
330
F2
 75
               0
 76
               1
 98
        1
 10
0.0
 20
0.0
  0
MTEXT
  5
F4
100
AcDbEntity
  8
0
390
0
 62
               0
100
AcDbMText
 10
542.05487283884452
 20
482.82826254887414
 30
0.0
 40
24.432617187500004
 41
0.0
 71
               1
 72
               1
  1
190
  7
ＭＳ ゴシック
 73
               1
 44
0.7828267384257843
  0
POINT
  5
F5
100
AcDbEntity
  8
Defpoints
370
               0
390
0
 62
               0
100
AcDbPoint
 10
647.87114166134654
 20
10.048927156906302
 30
0.0
  0
POINT
  5
F6
100
AcDbEntity
  8
Defpoints
370
               0
390
0
 62
               0
100
AcDbPoint
 10
457.87114166134768
 20
345.05064536137411
 30
0.0
  0
POINT
  5
F7
100
AcDbEntity
  8
Defpoints
370
               0
390
0
 62
               0
100
AcDbPoint
 10
457.87114166134768
 20
448.9506453613742
 30
0.0
  0
ENDBLK
  5
F8
100
AcDbEntity
  8
notes
390
0
100
AcDbBlockEnd
  0
BLOCK
  5
F9
100
AcDbEntity
  8
notes
390
0
100
AcDbBlockBegin
  2
*D12
 70
               1
 10
0.0
 20
0.0
 30
0.0
  3
*D12
  1

  0
LINE
  5
FA
100
AcDbEntity
  8
0
370
              -2
390
0
  6
Continuous
 62
               0
100
AcDbLine
 10
668.9711416613485
 20
13.948927156906393
 30
0.0
 11
747.87114166134813
 21
13.948927156906393
 31
0.0
  0
LINE
  5
FB
100
AcDbEntity
  8
0
370
              -2
390
0
  6
Continuous
 62
               0
100
AcDbLine
 10
668.9711416613485
 20
-556.04935463862785
 30
0.0
 11
747.87114166134813
 21
-556.04935463862785
 31
0.0
  0
LINE
  5
FC
100
AcDbEntity
  8
0
370
              -2
390
0
  6
Continuous
 62
               0
100
AcDbLine
 10
747.87114166134813
 20
13.948927156906393
 30
0.0
 11
747.87114166134813
 21
-556.04935463862785
 31
0.0
  0
CIRCLE
  5
FD
102
{ACAD_REACTORS
330
FE
102
}
100
AcDbEntity
  8
0
370
              -2
390
0
  6
Continuous
 62
               0
100
AcDbCircle
 10
747.87114166134813
 20
13.948927156906393
 30
0.0
 40
1.9998779296875
  0
HATCH
  5
FE
100
AcDbEntity
  8
0
370
              -2
390
0
  6
Continuous
 62
               0
100
AcDbHatch
 10
0.0
 20
0.0
 30
0.0
210
0.0
220
0.0
230
1.0
  2
SOLID
 70
               1
 71
               1
 91
        1
 92
        1
 93
        1
 72
               2
 10
747.87114166134813
 20
13.948927156906393
 40
1.9998779296875
 50
0.0
 51
360.0
 73
               0
 97
        1
330
FD
 75
               0
 76
               1
 98
        1
 10
0.0
 20
0.0
  0
CIRCLE
  5
FF
102
{ACAD_REACTORS
330
100
102
}
100
AcDbEntity
  8
0
370
              -2
390
0
  6
Continuous
 62
               0
100
AcDbCircle
 10
747.87114166134813
 20
-556.04935463862785
 30
0.0
 40
1.9998779296875
  0
HATCH
  5
100
100
AcDbEntity
  8
0
370
              -2
390
0
  6
Continuous
 62
               0
100
AcDbHatch
 10
0.0
 20
0.0
 30
0.0
210
0.0
220
0.0
230
1.0
  2
SOLID
 70
               1
 71
               1
 91
        1
 92
        1
 93
        1
 72
               2
 10
747.87114166134813
 20
-556.04935463862785
 40
1.9998779296875
 50
0.0
 51
360.0
 73
               0
 97
        1
330
FF
 75
               0
 76
               1
 98
        1
 10
0.0
 20
0.0
  0
MTEXT
  5
101
100
AcDbEntity
  8
0
390
0
 62
               0
100
AcDbMText
 10
713.99352447384808
 20
-294.86271542303621
 30
0.0
 40
24.432617187500004
 41
0.0
 71
               1
 72
               1
  1
570
  7
ＭＳ ゴシック
 11
0.0
 21
1.0
 31
0.0
 73
               1
 44
0.7828267384257843
  0
POINT
  5
102
100
AcDbEntity
  8
Defpoints
370
               0
390
0
 62
               0
100
AcDbPoint
 10
643.9711416613485
 20
-556.04935463862785
 30
0.0
  0
POINT
  5
103
100
AcDbEntity
  8
Defpoints
370
               0
390
0
 62
               0
100
AcDbPoint
 10
643.9711416613485
 20
13.948927156906393
 30
0.0
  0
POINT
  5
104
100
AcDbEntity
  8
Defpoints
370
               0
390
0
 62
               0
100
AcDbPoint
 10
747.87114166134813
 20
13.948927156906393
 30
0.0
  0
ENDBLK
  5
105
100
AcDbEntity
  8
notes
390
0
100
AcDbBlockEnd
  0
BLOCK
  5
106
100
AcDbEntity
  8
notes
390
0
100
AcDbBlockBegin
  2
*D13
 70
               1
 10
0.0
 20
0.0
 30
0.0
  3
*D13
  1

  0
LINE
  5
107
100
AcDbEntity
  8
0
370
              -2
390
0
  6
Continuous
 62
               0
100
AcDbLine
 10
-116.4978543138136
 20
-626.04935463862512
 30
0.0
 11
-41.497854313813605
 21
-626.04935463862512
 31
0.0
  0
LINE
  5
108
100
AcDbEntity
  8
0
370
              -2
390
0
  6
Continuous
 62
               0
100
AcDbLine
 10
-116.4978543138136
 20
73.950645361374882
 30
0.0
 11
-41.497854313813605
 21
73.950645361374882
 31
0.0
  0
LINE
  5
109
100
AcDbEntity
  8
0
370
              -2
390
0
  6
Continuous
 62
               0
100
AcDbLine
 10
-41.497854313813605
 20
-626.04935463862512
 30
0.0
 11
-41.497854313813605
 21
73.950645361374882
 31
0.0
  0
CIRCLE
  5
10A
102
{ACAD_REACTORS
330
10B
102
}
100
AcDbEntity
  8
0
370
              -2
390
0
  6
Continuous
 62
               0
100
AcDbCircle
 10
-41.497854313813605
 20
-626.04935463862512
 30
0.0
 40
1.9998779296875
  0
HATCH
  5
10B
100
AcDbEntity
  8
0
370
              -2
390
0
  6
Continuous
 62
               0
100
AcDbHatch
 10
0.0
 20
0.0
 30
0.0
210
0.0
220
0.0
230
1.0
  2
SOLID
 70
               1
 71
               1
 91
        1
 92
        1
 93
        1
 72
               2
 10
-41.497854313813605
 20
-626.04935463862512
 40
1.9998779296875
 50
0.0
 51
360.0
 73
               0
 97
        1
330
10A
 75
               0
 76
               1
 98
        1
 10
0.0
 20
0.0
  0
CIRCLE
  5
10C
102
{ACAD_REACTORS
330
10D
102
}
100
AcDbEntity
  8
0
370
              -2
390
0
  6
Continuous
 62
               0
100
AcDbCircle
 10
-41.497854313813605
 20
73.950645361374882
 30
0.0
 40
1.9998779296875
  0
HATCH
  5
10D
100
AcDbEntity
  8
0
370
              -2
390
0
  6
Continuous
 62
               0
100
AcDbHatch
 10
0.0
 20
0.0
 30
0.0
210
0.0
220
0.0
230
1.0
  2
SOLID
 70
               1
 71
               1
 91
        1
 92
        1
 93
        1
 72
               2
 10
-41.497854313813605
 20
73.950645361374882
 40
1.9998779296875
 50
0.0
 51
360.0
 73
               0
 97
        1
330
10C
 75
               0
 76
               1
 98
        1
 10
0.0
 20
0.0
  0
MTEXT
  5
10E
100
AcDbEntity
  8
0
390
0
 62
               0
100
AcDbMText
 10
-75.375471501313655
 20
-299.8618563208006
 30
0.0
 40
24.432617187500004
 41
0.0
 71
               1
 72
               1
  1
700
  7
ＭＳ ゴシック
 11
0.0
 21
1.0
 31
0.0
 73
               1
 44
0.7828267384257843
  0
POINT
  5
10F
100
AcDbEntity
  8
Defpoints
370
               0
390
0
 62
               0
100
AcDbPoint
 10
-141.4978543138136
 20
73.950645361374882
 30
0.0
  0
POINT
  5
110
100
AcDbEntity
  8
Defpoints
370
               0
390
0
 62
               0
100
AcDbPoint
 10
-141.4978543138136
 20
-626.04935463862512
 30
0.0
  0
POINT
  5
111
100
AcDbEntity
  8
Defpoints
370
               0
390
0
 62
               0
100
AcDbPoint
 10
-41.497854313813605
 20
-626.04935463862512
 30
0.0
  0
ENDBLK
  5
112
100
AcDbEntity
  8
notes
390
0
100
AcDbBlockEnd
  0
BLOCK
  5
113
100
AcDbEntity
  8
notes
390
0
100
AcDbBlockBegin
  2
*D14
 70
               1
 10
0.0
 20
0.0
 30
0.0
  3
*D14
  1

  0
LINE
  5
114
100
AcDbEntity
  8
0
370
              -2
390
0
  6
Continuous
 62
               0
100
AcDbLine
 10
452.91260331129467
 20
-759.25107284309343
 30
0.0
 11
377.87114166134768
 21
-759.25107284309343
 31
0.0
  0
LINE
  5
115
100
AcDbEntity
  8
0
370
              -2
390
0
  6
Continuous
 62
               0
100
AcDbLine
 10
452.91260331129467
 20
-419.25107284309343
 30
0.0
 11
377.87114166134768
 21
-419.25107284309343
 31
0.0
  0
LINE
  5
116
100
AcDbEntity
  8
0
370
              -2
390
0
  6
Continuous
 62
               0
100
AcDbLine
 10
377.87114166134768
 20
-759.25107284309343
 30
0.0
 11
377.87114166134768
 21
-419.25107284309343
 31
0.0
  0
CIRCLE
  5
117
102
{ACAD_REACTORS
330
118
102
}
100
AcDbEntity
  8
0
370
              -2
390
0
  6
Continuous
 62
               0
100
AcDbCircle
 10
377.87114166134768
 20
-759.25107284309343
 30
0.0
 40
1.9998779296875
  0
HATCH
  5
118
100
AcDbEntity
  8
0
370
              -2
390
0
  6
Continuous
 62
               0
100
AcDbHatch
 10
0.0
 20
0.0
 30
0.0
210
0.0
220
0.0
230
1.0
  2
SOLID
 70
               1
 71
               1
 91
        1
 92
        1
 93
        1
 72
               2
 10
377.87114166134768
 20
-759.25107284309343
 40
1.9998779296875
 50
0.0
 51
360.0
 73
               0
 97
        1
330
117
 75
               0
 76
               1
 98
        1
 10
0.0
 20
0.0
  0
CIRCLE
  5
119
102
{ACAD_REACTORS
330
11A
102
}
100
AcDbEntity
  8
0
370
              -2
390
0
  6
Continuous
 62
               0
100
AcDbCircle
 10
377.87114166134768
 20
-419.25107284309343
 30
0.0
 40
1.9998779296875
  0
HATCH
  5
11A
100
AcDbEntity
  8
0
370
              -2
390
0
  6
Continuous
 62
               0
100
AcDbHatch
 10
0.0
 20
0.0
 30
0.0
210
0.0
220
0.0
230
1.0
  2
SOLID
 70
               1
 71
               1
 91
        1
 92
        1
 93
        1
 72
               2
 10
377.87114166134768
 20
-419.25107284309343
 40
1.9998779296875
 50
0.0
 51
360.0
 73
               0
 97
        1
330
119
 75
               0
 76
               1
 98
        1
 10
0.0
 20
0.0
  0
MTEXT
  5
11B
100
AcDbEntity
  8
0
390
0
 62
               0
100
AcDbMText
 10
343.99352447384769
 20
-613.0635745252689
 30
0.0
 40
24.432617187500004
 41
0.0
 71
               1
 72
               1
  1
340
  7
ＭＳ ゴシック
 11
0.0
 21
1.0
 31
0.0
 73
               1
 44
0.7828267384257843
  0
POINT
  5
11C
100
AcDbEntity
  8
Defpoints
370
               0
390
0
 62
               0
100
AcDbPoint
 10
477.91260331129467
 20
-419.25107284309343
 30
0.0
  0
POINT
  5
11D
100
AcDbEntity
  8
Defpoints
370
               0
390
0
 62
               0
100
AcDbPoint
 10
477.91260331129467
 20
-759.25107284309343
 30
0.0
  0
POINT
  5
11E
100
AcDbEntity
  8
Defpoints
370
               0
390
0
 62
               0
100
AcDbPoint
 10
377.87114166134768
 20
-759.25107284309343
 30
0.0
  0
ENDBLK
  5
11F
100
AcDbEntity
  8
notes
390
0
100
AcDbBlockEnd
  0
BLOCK
  5
120
100
AcDbEntity
  8
notes
390
0
100
AcDbBlockBegin
  2
*D15
 70
               1
 10
0.0
 20
0.0
 30
0.0
  3
*D15
  1

  0
LINE
  5
121
100
AcDbEntity
  8
0
370
              -2
390
0
  6
Continuous
 62
               0
100
AcDbLine
 10
452.91260331129467
 20
-419.25107284309343
 30
0.0
 11
377.87114166134768
 21
-419.25107284309343
 31
0.0
  0
LINE
  5
122
100
AcDbEntity
  8
0
370
              -2
390
0
  6
Continuous
 62
               0
100
AcDbLine
 10
452.91260331129467
 20
-139.25107284309343
 30
0.0
 11
377.87114166134768
 21
-139.25107284309343
 31
0.0
  0
LINE
  5
123
100
AcDbEntity
  8
0
370
              -2
390
0
  6
Continuous
 62
               0
100
AcDbLine
 10
377.87114166134768
 20
-419.25107284309343
 30
0.0
 11
377.87114166134768
 21
-139.25107284309343
 31
0.0
  0
CIRCLE
  5
124
102
{ACAD_REACTORS
330
125
102
}
100
AcDbEntity
  8
0
370
              -2
390
0
  6
Continuous
 62
               0
100
AcDbCircle
 10
377.87114166134768
 20
-419.25107284309343
 30
0.0
 40
1.9998779296875
  0
HATCH
  5
125
100
AcDbEntity
  8
0
370
              -2
390
0
  6
Continuous
 62
               0
100
AcDbHatch
 10
0.0
 20
0.0
 30
0.0
210
0.0
220
0.0
230
1.0
  2
SOLID
 70
               1
 71
               1
 91
        1
 92
        1
 93
        1
 72
               2
 10
377.87114166134768
 20
-419.25107284309343
 40
1.9998779296875
 50
0.0
 51
360.0
 73
               0
 97
        1
330
124
 75
               0
 76
               1
 98
        1
 10
0.0
 20
0.0
  0
CIRCLE
  5
126
102
{ACAD_REACTORS
330
127
102
}
100
AcDbEntity
  8
0
370
              -2
390
0
  6
Continuous
 62
               0
100
AcDbCircle
 10
377.87114166134768
 20
-139.25107284309343
 30
0.0
 40
1.9998779296875
  0
HATCH
  5
127
100
AcDbEntity
  8
0
370
              -2
390
0
  6
Continuous
 62
               0
100
AcDbHatch
 10
0.0
 20
0.0
 30
0.0
210
0.0
220
0.0
230
1.0
  2
SOLID
 70
               1
 71
               1
 91
        1
 92
        1
 93
        1
 72
               2
 10
377.87114166134768
 20
-139.25107284309343
 40
1.9998779296875
 50
0.0
 51
360.0
 73
               0
 97
        1
330
126
 75
               0
 76
               1
 98
        1
 10
0.0
 20
0.0
  0
MTEXT
  5
128
100
AcDbEntity
  8
0
390
0
 62
               0
100
AcDbMText
 10
343.99352447384769
 20
-303.0635745252689
 30
0.0
 40
24.432617187500004
 41
0.0
 71
               1
 72
               1
  1
280
  7
ＭＳ ゴシック
 11
0.0
 21
1.0
 31
0.0
 73
               1
 44
0.7828267384257843
  0
POINT
  5
129
100
AcDbEntity
  8
Defpoints
370
               0
390
0
 62
               0
100
AcDbPoint
 10
477.91260331129467
 20
-139.25107284309343
 30
0.0
  0
POINT
  5
12A
100
AcDbEntity
  8
Defpoints
370
               0
390
0
 62
               0
100
AcDbPoint
 10
477.91260331129467
 20
-419.25107284309343
 30
0.0
  0
POINT
  5
12B
100
AcDbEntity
  8
Defpoints
370
               0
390
0
 62
               0
100
AcDbPoint
 10
377.87114166134768
 20
-419.25107284309343
 30
0.0
  0
ENDBLK
  5
12C
100
AcDbEntity
  8
notes
390
0
100
AcDbBlockEnd
  0
BLOCK
  5
12D
100
AcDbEntity
  8
notes
390
0
100
AcDbBlockBegin
  2
*D16
 70
               1
 10
0.0
 20
0.0
 30
0.0
  3
*D16
  1

  0
LINE
  5
12E
100
AcDbEntity
  8
0
370
              -2
390
0
  6
Continuous
 62
               0
100
AcDbLine
 10
452.91260331129467
 20
-139.25107284309343
 30
0.0
 11
377.87114166134768
 21
-139.25107284309343
 31
0.0
  0
LINE
  5
12F
100
AcDbEntity
  8
0
370
              -2
390
0
  6
Continuous
 62
               0
100
AcDbLine
 10
452.91260331129467
 20
200.7489271569068
 30
0.0
 11
377.87114166134768
 21
200.7489271569068
 31
0.0
  0
LINE
  5
130
100
AcDbEntity
  8
0
370
              -2
390
0
  6
Continuous
 62
               0
100
AcDbLine
 10
377.87114166134768
 20
-139.25107284309343
 30
0.0
 11
377.87114166134768
 21
200.7489271569068
 31
0.0
  0
CIRCLE
  5
131
102
{ACAD_REACTORS
330
132
102
}
100
AcDbEntity
  8
0
370
              -2
390
0
  6
Continuous
 62
               0
100
AcDbCircle
 10
377.87114166134768
 20
-139.25107284309343
 30
0.0
 40
1.9998779296875
  0
HATCH
  5
132
100
AcDbEntity
  8
0
370
              -2
390
0
  6
Continuous
 62
               0
100
AcDbHatch
 10
0.0
 20
0.0
 30
0.0
210
0.0
220
0.0
230
1.0
  2
SOLID
 70
               1
 71
               1
 91
        1
 92
        1
 93
        1
 72
               2
 10
377.87114166134768
 20
-139.25107284309343
 40
1.9998779296875
 50
0.0
 51
360.0
 73
               0
 97
        1
330
131
 75
               0
 76
               1
 98
        1
 10
0.0
 20
0.0
  0
CIRCLE
  5
133
102
{ACAD_REACTORS
330
134
102
}
100
AcDbEntity
  8
0
370
              -2
390
0
  6
Continuous
 62
               0
100
AcDbCircle
 10
377.87114166134768
 20
200.7489271569068
 30
0.0
 40
1.9998779296875
  0
HATCH
  5
134
100
AcDbEntity
  8
0
370
              -2
390
0
  6
Continuous
 62
               0
100
AcDbHatch
 10
0.0
 20
0.0
 30
0.0
210
0.0
220
0.0
230
1.0
  2
SOLID
 70
               1
 71
               1
 91
        1
 92
        1
 93
        1
 72
               2
 10
377.87114166134768
 20
200.7489271569068
 40
1.9998779296875
 50
0.0
 51
360.0
 73
               0
 97
        1
330
133
 75
               0
 76
               1
 98
        1
 10
0.0
 20
0.0
  0
MTEXT
  5
135
100
AcDbEntity
  8
0
390
0
 62
               0
100
AcDbMText
 10
343.99352447384769
 20
6.9364254747310952
 30
0.0
 40
24.432617187500004
 41
0.0
 71
               1
 72
               1
  1
340
  7
ＭＳ ゴシック
 11
0.0
 21
1.0
 31
0.0
 73
               1
 44
0.7828267384257843
  0
POINT
  5
136
100
AcDbEntity
  8
Defpoints
370
               0
390
0
 62
               0
100
AcDbPoint
 10
477.91260331129467
 20
200.7489271569068
 30
0.0
  0
POINT
  5
137
100
AcDbEntity
  8
Defpoints
370
               0
390
0
 62
               0
100
AcDbPoint
 10
477.91260331129467
 20
-139.25107284309343
 30
0.0
  0
POINT
  5
138
100
AcDbEntity
  8
Defpoints
370
               0
390
0
 62
               0
100
AcDbPoint
 10
377.87114166134768
 20
-139.25107284309343
 30
0.0
  0
ENDBLK
  5
139
100
AcDbEntity
  8
notes
390
0
100
AcDbBlockEnd
  0
BLOCK
  5
13A
100
AcDbEntity
  8
notes
390
0
100
AcDbBlockBegin
  2
*D17
 70
               1
 10
0.0
 20
0.0
 30
0.0
  3
*D17
  1

  0
LINE
  5
13B
100
AcDbEntity
  8
0
370
              -2
390
0
  6
Continuous
 62
               0
100
AcDbLine
 10
-116.4978543138136
 20
-626.04935463862512
 30
0.0
 11
-41.497854313813605
 21
-626.04935463862512
 31
0.0
  0
LINE
  5
13C
100
AcDbEntity
  8
0
370
              -2
390
0
  6
Continuous
 62
               0
100
AcDbLine
 10
-122.4978543138136
 20
-901.04935463862466
 30
0.0
 11
-41.497854313813605
 21
-901.04935463862466
 31
0.0
  0
LINE
  5
13D
100
AcDbEntity
  8
0
370
              -2
390
0
  6
Continuous
 62
               0
100
AcDbLine
 10
-41.497854313813605
 20
-626.04935463862512
 30
0.0
 11
-41.497854313813605
 21
-901.04935463862466
 31
0.0
  0
CIRCLE
  5
13E
102
{ACAD_REACTORS
330
13F
102
}
100
AcDbEntity
  8
0
370
              -2
390
0
  6
Continuous
 62
               0
100
AcDbCircle
 10
-41.497854313813605
 20
-626.04935463862512
 30
0.0
 40
1.9998779296875
  0
HATCH
  5
13F
100
AcDbEntity
  8
0
370
              -2
390
0
  6
Continuous
 62
               0
100
AcDbHatch
 10
0.0
 20
0.0
 30
0.0
210
0.0
220
0.0
230
1.0
  2
SOLID
 70
               1
 71
               1
 91
        1
 92
        1
 93
        1
 72
               2
 10
-41.497854313813605
 20
-626.04935463862512
 40
1.9998779296875
 50
0.0
 51
360.0
 73
               0
 97
        1
330
13E
 75
               0
 76
               1
 98
        1
 10
0.0
 20
0.0
  0
CIRCLE
  5
140
102
{ACAD_REACTORS
330
141
102
}
100
AcDbEntity
  8
0
370
              -2
390
0
  6
Continuous
 62
               0
100
AcDbCircle
 10
-41.497854313813605
 20
-901.04935463862466
 30
0.0
 40
1.9998779296875
  0
HATCH
  5
141
100
AcDbEntity
  8
0
370
              -2
390
0
  6
Continuous
 62
               0
100
AcDbHatch
 10
0.0
 20
0.0
 30
0.0
210
0.0
220
0.0
230
1.0
  2
SOLID
 70
               1
 71
               1
 91
        1
 92
        1
 93
        1
 72
               2
 10
-41.497854313813605
 20
-901.04935463862466
 40
1.9998779296875
 50
0.0
 51
360.0
 73
               0
 97
        1
330
140
 75
               0
 76
               1
 98
        1
 10
0.0
 20
0.0
  0
MTEXT
  5
142
100
AcDbEntity
  8
0
390
0
 62
               0
100
AcDbMText
 10
-78.58409563325813
 20
-790.00768797195769
 30
0.0
 40
27.147352430555557
 41
0.0
 71
               1
 72
               1
  1
275
  7
ＭＳ ゴシック
 11
0.0
 21
1.0
 31
0.0
 73
               1
 44
0.7828267384257843
  0
POINT
  5
143
100
AcDbEntity
  8
Defpoints
370
               0
390
0
 62
               0
100
AcDbPoint
 10
-147.4978543138136
 20
-901.04935463862466
 30
0.0
  0
POINT
  5
144
100
AcDbEntity
  8
Defpoints
370
               0
390
0
 62
               0
100
AcDbPoint
 10
-141.4978543138136
 20
-626.04935463862512
 30
0.0
  0
POINT
  5
145
100
AcDbEntity
  8
Defpoints
370
               0
390
0
 62
               0
100
AcDbPoint
 10
-41.497854313813605
 20
-626.04935463862512
 30
0.0
  0
ENDBLK
  5
146
100
AcDbEntity
  8
notes
390
0
100
AcDbBlockEnd
  0
BLOCK
  5
147
100
AcDbEntity
  8
notes
390
0
100
AcDbBlockBegin
  2
*D18
 70
               1
 10
0.0
 20
0.0
 30
0.0
  3
*D18
  1

  0
LINE
  5
148
100
AcDbEntity
  8
0
370
              -2
390
0
  6
Continuous
 62
               0
100
AcDbLine
 10
-663.49785431381349
 20
-901.04935463862512
 30
0.0
 11
-791.49785431381349
 21
-901.04935463862512
 31
0.0
  0
LINE
  5
149
100
AcDbEntity
  8
0
370
              -2
390
0
  6
Continuous
 62
               0
100
AcDbLine
 10
-663.4978543138144
 20
348.95064536137465
 30
0.0
 11
-791.49785431381349
 21
348.95064536137465
 31
0.0
  0
LINE
  5
14A
100
AcDbEntity
  8
0
370
              -2
390
0
  6
Continuous
 62
               0
100
AcDbLine
 10
-791.49785431381349
 20
-901.04935463862512
 30
0.0
 11
-791.49785431381349
 21
348.95064536137465
 31
0.0
  0
CIRCLE
  5
14B
102
{ACAD_REACTORS
330
14C
102
}
100
AcDbEntity
  8
0
370
              -2
390
0
  6
Continuous
 62
               0
100
AcDbCircle
 10
-791.49785431381349
 20
-901.04935463862512
 30
0.0
 40
1.9998779296875
  0
HATCH
  5
14C
100
AcDbEntity
  8
0
370
              -2
390
0
  6
Continuous
 62
               0
100
AcDbHatch
 10
0.0
 20
0.0
 30
0.0
210
0.0
220
0.0
230
1.0
  2
SOLID
 70
               1
 71
               1
 91
        1
 92
        1
 93
        1
 72
               2
 10
-791.49785431381349
 20
-901.04935463862512
 40
1.9998779296875
 50
0.0
 51
360.0
 73
               0
 97
        1
330
14B
 75
               0
 76
               1
 98
        1
 10
0.0
 20
0.0
  0
CIRCLE
  5
14D
102
{ACAD_REACTORS
330
14E
102
}
100
AcDbEntity
  8
0
370
              -2
390
0
  6
Continuous
 62
               0
100
AcDbCircle
 10
-791.49785431381349
 20
348.95064536137465
 30
0.0
 40
1.9998779296875
  0
HATCH
  5
14E
100
AcDbEntity
  8
0
370
              -2
390
0
  6
Continuous
 62
               0
100
AcDbHatch
 10
0.0
 20
0.0
 30
0.0
210
0.0
220
0.0
230
1.0
  2
SOLID
 70
               1
 71
               1
 91
        1
 92
        1
 93
        1
 72
               2
 10
-791.49785431381349
 20
348.95064536137465
 40
1.9998779296875
 50
0.0
 51
360.0
 73
               0
 97
        1
330
14D
 75
               0
 76
               1
 98
        1
 10
0.0
 20
0.0
  0
MTEXT
  5
14F
100
AcDbEntity
  8
0
390
0
 62
               0
100
AcDbMText
 10
-825.37547150131343
 20
-307.79935463862512
 30
0.0
 40
24.432617187500004
 41
0.0
 71
               1
 72
               1
  1
1250
  7
ＭＳ ゴシック
 11
0.0
 21
1.0
 31
0.0
 73
               1
 44
0.7828267384257843
  0
POINT
  5
150
100
AcDbEntity
  8
Defpoints
370
               0
390
0
 62
               0
100
AcDbPoint
 10
-638.4978543138144
 20
348.95064536137465
 30
0.0
  0
POINT
  5
151
100
AcDbEntity
  8
Defpoints
370
               0
390
0
 62
               0
100
AcDbPoint
 10
-638.49785431381349
 20
-901.04935463862512
 30
0.0
  0
POINT
  5
152
100
AcDbEntity
  8
Defpoints
370
               0
390
0
 62
               0
100
AcDbPoint
 10
-791.49785431381349
 20
-901.04935463862512
 30
0.0
  0
ENDBLK
  5
153
100
AcDbEntity
  8
notes
390
0
100
AcDbBlockEnd
  0
BLOCK
  5
154
100
AcDbEntity
  8
notes
390
0
100
AcDbBlockBegin
  2
*D19
 70
               1
 10
0.0
 20
0.0
 30
0.0
  3
*D19
  1

  0
LINE
  5
155
100
AcDbEntity
  8
0
370
              -2
390
0
  6
Continuous
 62
               0
100
AcDbLine
 10
-618.44865153688022
 20
-476.04935463862512
 30
0.0
 11
-733.59659003635522
 21
-476.04935463862512
 31
0.0
  0
LINE
  5
156
100
AcDbEntity
  8
0
370
              -2
390
0
  6
Continuous
 62
               0
100
AcDbLine
 10
-630.9499158143384
 20
-376.04935463862512
 30
0.0
 11
-733.59659003635522
 21
-376.04935463862512
 31
0.0
  0
LINE
  5
157
100
AcDbEntity
  8
0
370
              -2
390
0
  6
Continuous
 62
               0
100
AcDbLine
 10
-733.59659003635522
 20
-476.04935463862512
 30
0.0
 11
-733.59659003635522
 21
-376.04935463862512
 31
0.0
  0
CIRCLE
  5
158
102
{ACAD_REACTORS
330
159
102
}
100
AcDbEntity
  8
0
370
              -2
390
0
  6
Continuous
 62
               0
100
AcDbCircle
 10
-733.59659003635522
 20
-476.04935463862512
 30
0.0
 40
1.9998779296875
  0
HATCH
  5
159
100
AcDbEntity
  8
0
370
              -2
390
0
  6
Continuous
 62
               0
100
AcDbHatch
 10
0.0
 20
0.0
 30
0.0
210
0.0
220
0.0
230
1.0
  2
SOLID
 70
               1
 71
               1
 91
        1
 92
        1
 93
        1
 72
               2
 10
-733.59659003635522
 20
-476.04935463862512
 40
1.9998779296875
 50
0.0
 51
360.0
 73
               0
 97
        1
330
158
 75
               0
 76
               1
 98
        1
 10
0.0
 20
0.0
  0
CIRCLE
  5
15A
102
{ACAD_REACTORS
330
15B
102
}
100
AcDbEntity
  8
0
370
              -2
390
0
  6
Continuous
 62
               0
100
AcDbCircle
 10
-733.59659003635522
 20
-376.04935463862512
 30
0.0
 40
1.9998779296875
  0
HATCH
  5
15B
100
AcDbEntity
  8
0
370
              -2
390
0
  6
Continuous
 62
               0
100
AcDbHatch
 10
0.0
 20
0.0
 30
0.0
210
0.0
220
0.0
230
1.0
  2
SOLID
 70
               1
 71
               1
 91
        1
 92
        1
 93
        1
 72
               2
 10
-733.59659003635522
 20
-376.04935463862512
 40
1.9998779296875
 50
0.0
 51
360.0
 73
               0
 97
        1
330
15A
 75
               0
 76
               1
 98
        1
 10
0.0
 20
0.0
  0
MTEXT
  5
15C
100
AcDbEntity
  8
0
390
0
 62
               0
100
AcDbMText
 10
-767.47420722385516
 20
-449.8618563208006
 30
0.0
 40
24.432617187500004
 41
0.0
 71
               1
 72
               1
  1
100
  7
ＭＳ ゴシック
 11
0.0
 21
1.0
 31
0.0
 73
               1
 44
0.7828267384257843
  0
POINT
  5
15D
100
AcDbEntity
  8
Defpoints
370
               0
390
0
 62
               0
100
AcDbPoint
 10
-605.9499158143384
 20
-376.04935463862512
 30
0.0
  0
POINT
  5
15E
100
AcDbEntity
  8
Defpoints
370
               0
390
0
 62
               0
100
AcDbPoint
 10
-593.44865153688022
 20
-476.04935463862512
 30
0.0
  0
POINT
  5
15F
100
AcDbEntity
  8
Defpoints
370
               0
390
0
 62
               0
100
AcDbPoint
 10
-733.59659003635522
 20
-476.04935463862512
 30
0.0
  0
ENDBLK
  5
160
100
AcDbEntity
  8
notes
390
0
100
AcDbBlockEnd
  0
BLOCK
  5
161
100
AcDbEntity
  8
notes
390
0
100
AcDbBlockBegin
  2
*D20
 70
               1
 10
0.0
 20
0.0
 30
0.0
  3
*D20
  1

  0
LINE
  5
162
100
AcDbEntity
  8
0
370
              -2
390
0
  6
Continuous
 62
               0
100
AcDbLine
 10
-618.44865153688022
 20
-376.04935463862512
 30
0.0
 11
-733.59659003635522
 21
-376.04935463862512
 31
0.0
  0
LINE
  5
163
100
AcDbEntity
  8
0
370
              -2
390
0
  6
Continuous
 62
               0
100
AcDbLine
 10
-630.9499158143384
 20
-276.04935463862512
 30
0.0
 11
-733.59659003635522
 21
-276.04935463862512
 31
0.0
  0
LINE
  5
164
100
AcDbEntity
  8
0
370
              -2
390
0
  6
Continuous
 62
               0
100
AcDbLine
 10
-733.59659003635522
 20
-376.04935463862512
 30
0.0
 11
-733.59659003635522
 21
-276.04935463862512
 31
0.0
  0
CIRCLE
  5
165
102
{ACAD_REACTORS
330
166
102
}
100
AcDbEntity
  8
0
370
              -2
390
0
  6
Continuous
 62
               0
100
AcDbCircle
 10
-733.59659003635522
 20
-376.04935463862512
 30
0.0
 40
1.9998779296875
  0
HATCH
  5
166
100
AcDbEntity
  8
0
370
              -2
390
0
  6
Continuous
 62
               0
100
AcDbHatch
 10
0.0
 20
0.0
 30
0.0
210
0.0
220
0.0
230
1.0
  2
SOLID
 70
               1
 71
               1
 91
        1
 92
        1
 93
        1
 72
               2
 10
-733.59659003635522
 20
-376.04935463862512
 40
1.9998779296875
 50
0.0
 51
360.0
 73
               0
 97
        1
330
165
 75
               0
 76
               1
 98
        1
 10
0.0
 20
0.0
  0
CIRCLE
  5
167
102
{ACAD_REACTORS
330
168
102
}
100
AcDbEntity
  8
0
370
              -2
390
0
  6
Continuous
 62
               0
100
AcDbCircle
 10
-733.59659003635522
 20
-276.04935463862512
 30
0.0
 40
1.9998779296875
  0
HATCH
  5
168
100
AcDbEntity
  8
0
370
              -2
390
0
  6
Continuous
 62
               0
100
AcDbHatch
 10
0.0
 20
0.0
 30
0.0
210
0.0
220
0.0
230
1.0
  2
SOLID
 70
               1
 71
               1
 91
        1
 92
        1
 93
        1
 72
               2
 10
-733.59659003635522
 20
-276.04935463862512
 40
1.9998779296875
 50
0.0
 51
360.0
 73
               0
 97
        1
330
167
 75
               0
 76
               1
 98
        1
 10
0.0
 20
0.0
  0
MTEXT
  5
169
100
AcDbEntity
  8
0
390
0
 62
               0
100
AcDbMText
 10
-767.47420722385516
 20
-349.8618563208006
 30
0.0
 40
24.432617187500004
 41
0.0
 71
               1
 72
               1
  1
100
  7
ＭＳ ゴシック
 11
0.0
 21
1.0
 31
0.0
 73
               1
 44
0.7828267384257843
  0
POINT
  5
16A
100
AcDbEntity
  8
Defpoints
370
               0
390
0
 62
               0
100
AcDbPoint
 10
-605.9499158143384
 20
-276.04935463862512
 30
0.0
  0
POINT
  5
16B
100
AcDbEntity
  8
Defpoints
370
               0
390
0
 62
               0
100
AcDbPoint
 10
-593.44865153688022
 20
-376.04935463862512
 30
0.0
  0
POINT
  5
16C
100
AcDbEntity
  8
Defpoints
370
               0
390
0
 62
               0
100
AcDbPoint
 10
-733.59659003635522
 20
-376.04935463862512
 30
0.0
  0
ENDBLK
  5
16D
100
AcDbEntity
  8
notes
390
0
100
AcDbBlockEnd
  0
BLOCK
  5
16E
100
AcDbEntity
  8
notes
390
0
100
AcDbBlockBegin
  2
*D21
 70
               1
 10
0.0
 20
0.0
 30
0.0
  3
*D21
  1

  0
LINE
  5
16F
100
AcDbEntity
  8
0
370
              -2
390
0
  6
Continuous
 62
               0
100
AcDbLine
 10
-618.44865153688022
 20
-276.04935463862512
 30
0.0
 11
-733.59659003635522
 21
-276.04935463862512
 31
0.0
  0
LINE
  5
170
100
AcDbEntity
  8
0
370
              -2
390
0
  6
Continuous
 62
               0
100
AcDbLine
 10
-630.9499158143384
 20
-176.04935463862512
 30
0.0
 11
-733.59659003635522
 21
-176.04935463862512
 31
0.0
  0
LINE
  5
171
100
AcDbEntity
  8
0
370
              -2
390
0
  6
Continuous
 62
               0
100
AcDbLine
 10
-733.59659003635522
 20
-276.04935463862512
 30
0.0
 11
-733.59659003635522
 21
-176.04935463862512
 31
0.0
  0
CIRCLE
  5
172
102
{ACAD_REACTORS
330
173
102
}
100
AcDbEntity
  8
0
370
              -2
390
0
  6
Continuous
 62
               0
100
AcDbCircle
 10
-733.59659003635522
 20
-276.04935463862512
 30
0.0
 40
1.9998779296875
  0
HATCH
  5
173
100
AcDbEntity
  8
0
370
              -2
390
0
  6
Continuous
 62
               0
100
AcDbHatch
 10
0.0
 20
0.0
 30
0.0
210
0.0
220
0.0
230
1.0
  2
SOLID
 70
               1
 71
               1
 91
        1
 92
        1
 93
        1
 72
               2
 10
-733.59659003635522
 20
-276.04935463862512
 40
1.9998779296875
 50
0.0
 51
360.0
 73
               0
 97
        1
330
172
 75
               0
 76
               1
 98
        1
 10
0.0
 20
0.0
  0
CIRCLE
  5
174
102
{ACAD_REACTORS
330
175
102
}
100
AcDbEntity
  8
0
370
              -2
390
0
  6
Continuous
 62
               0
100
AcDbCircle
 10
-733.59659003635522
 20
-176.04935463862512
 30
0.0
 40
1.9998779296875
  0
HATCH
  5
175
100
AcDbEntity
  8
0
370
              -2
390
0
  6
Continuous
 62
               0
100
AcDbHatch
 10
0.0
 20
0.0
 30
0.0
210
0.0
220
0.0
230
1.0
  2
SOLID
 70
               1
 71
               1
 91
        1
 92
        1
 93
        1
 72
               2
 10
-733.59659003635522
 20
-176.04935463862512
 40
1.9998779296875
 50
0.0
 51
360.0
 73
               0
 97
        1
330
174
 75
               0
 76
               1
 98
        1
 10
0.0
 20
0.0
  0
MTEXT
  5
176
100
AcDbEntity
  8
0
390
0
 62
               0
100
AcDbMText
 10
-767.47420722385516
 20
-249.8618563208006
 30
0.0
 40
24.432617187500004
 41
0.0
 71
               1
 72
               1
  1
100
  7
ＭＳ ゴシック
 11
0.0
 21
1.0
 31
0.0
 73
               1
 44
0.7828267384257843
  0
POINT
  5
177
100
AcDbEntity
  8
Defpoints
370
               0
390
0
 62
               0
100
AcDbPoint
 10
-605.9499158143384
 20
-176.04935463862512
 30
0.0
  0
POINT
  5
178
100
AcDbEntity
  8
Defpoints
370
               0
390
0
 62
               0
100
AcDbPoint
 10
-593.44865153688022
 20
-276.04935463862512
 30
0.0
  0
POINT
  5
179
100
AcDbEntity
  8
Defpoints
370
               0
390
0
 62
               0
100
AcDbPoint
 10
-733.59659003635522
 20
-276.04935463862512
 30
0.0
  0
ENDBLK
  5
17A
100
AcDbEntity
  8
notes
390
0
100
AcDbBlockEnd
  0
BLOCK
  5
17B
100
AcDbEntity
  8
notes
390
0
100
AcDbBlockBegin
  2
*D22
 70
               1
 10
0.0
 20
0.0
 30
0.0
  3
*D22
  1

  0
LINE
  5
17C
100
AcDbEntity
  8
0
370
              -2
390
0
  6
Continuous
 62
               0
100
AcDbLine
 10
-618.44865153688022
 20
-176.04935463862512
 30
0.0
 11
-733.59659003635522
 21
-176.04935463862512
 31
0.0
  0
LINE
  5
17D
100
AcDbEntity
  8
0
370
              -2
390
0
  6
Continuous
 62
               0
100
AcDbLine
 10
-618.44865153688022
 20
-76.049354638625118
 30
0.0
 11
-733.59659003635522
 21
-76.049354638625118
 31
0.0
  0
LINE
  5
17E
100
AcDbEntity
  8
0
370
              -2
390
0
  6
Continuous
 62
               0
100
AcDbLine
 10
-733.59659003635522
 20
-176.04935463862512
 30
0.0
 11
-733.59659003635522
 21
-76.049354638625118
 31
0.0
  0
CIRCLE
  5
17F
102
{ACAD_REACTORS
330
180
102
}
100
AcDbEntity
  8
0
370
              -2
390
0
  6
Continuous
 62
               0
100
AcDbCircle
 10
-733.59659003635522
 20
-176.04935463862512
 30
0.0
 40
1.9998779296875
  0
HATCH
  5
180
100
AcDbEntity
  8
0
370
              -2
390
0
  6
Continuous
 62
               0
100
AcDbHatch
 10
0.0
 20
0.0
 30
0.0
210
0.0
220
0.0
230
1.0
  2
SOLID
 70
               1
 71
               1
 91
        1
 92
        1
 93
        1
 72
               2
 10
-733.59659003635522
 20
-176.04935463862512
 40
1.9998779296875
 50
0.0
 51
360.0
 73
               0
 97
        1
330
17F
 75
               0
 76
               1
 98
        1
 10
0.0
 20
0.0
  0
CIRCLE
  5
181
102
{ACAD_REACTORS
330
182
102
}
100
AcDbEntity
  8
0
370
              -2
390
0
  6
Continuous
 62
               0
100
AcDbCircle
 10
-733.59659003635522
 20
-76.049354638625118
 30
0.0
 40
1.9998779296875
  0
HATCH
  5
182
100
AcDbEntity
  8
0
370
              -2
390
0
  6
Continuous
 62
               0
100
AcDbHatch
 10
0.0
 20
0.0
 30
0.0
210
0.0
220
0.0
230
1.0
  2
SOLID
 70
               1
 71
               1
 91
        1
 92
        1
 93
        1
 72
               2
 10
-733.59659003635522
 20
-76.049354638625118
 40
1.9998779296875
 50
0.0
 51
360.0
 73
               0
 97
        1
330
181
 75
               0
 76
               1
 98
        1
 10
0.0
 20
0.0
  0
MTEXT
  5
183
100
AcDbEntity
  8
0
390
0
 62
               0
100
AcDbMText
 10
-767.47420722385516
 20
-149.8618563208006
 30
0.0
 40
24.432617187500004
 41
0.0
 71
               1
 72
               1
  1
100
  7
ＭＳ ゴシック
 11
0.0
 21
1.0
 31
0.0
 73
               1
 44
0.7828267384257843
  0
POINT
  5
184
100
AcDbEntity
  8
Defpoints
370
               0
390
0
 62
               0
100
AcDbPoint
 10
-593.44865153688022
 20
-76.049354638625118
 30
0.0
  0
POINT
  5
185
100
AcDbEntity
  8
Defpoints
370
               0
390
0
 62
               0
100
AcDbPoint
 10
-593.44865153688022
 20
-176.04935463862512
 30
0.0
  0
POINT
  5
186
100
AcDbEntity
  8
Defpoints
370
               0
390
0
 62
               0
100
AcDbPoint
 10
-733.59659003635522
 20
-176.04935463862512
 30
0.0
  0
ENDBLK
  5
187
100
AcDbEntity
  8
notes
390
0
100
AcDbBlockEnd
  0
BLOCK
  5
188
100
AcDbEntity
  8
notes
390
0
100
AcDbBlockBegin
  2
*D23
 70
               1
 10
0.0
 20
0.0
 30
0.0
  3
*D23
  1

  0
LINE
  5
189
100
AcDbEntity
  8
0
370
              -2
390
0
  6
Continuous
 62
               0
100
AcDbLine
 10
-641.49785431381349
 20
-923.04935463862512
 30
0.0
 11
-641.49785431381349
 21
-1001.0493546386251
 31
0.0
  0
LINE
  5
18A
100
AcDbEntity
  8
0
370
              -2
390
0
  6
Continuous
 62
               0
100
AcDbLine
 10
-511.49785431381338
 20
-926.04935463862512
 30
0.0
 11
-511.49785431381338
 21
-1001.0493546386251
 31
0.0
  0
LINE
  5
18B
100
AcDbEntity
  8
0
370
              -2
390
0
  6
Continuous
 62
               0
100
AcDbLine
 10
-641.49785431381349
 20
-1001.0493546386251
 30
0.0
 11
-511.49785431381338
 21
-1001.0493546386251
 31
0.0
  0
CIRCLE
  5
18C
102
{ACAD_REACTORS
330
18D
102
}
100
AcDbEntity
  8
0
370
              -2
390
0
  6
Continuous
 62
               0
100
AcDbCircle
 10
-641.49785431381349
 20
-1001.0493546386251
 30
0.0
 40
1.9998779296875
  0
HATCH
  5
18D
100
AcDbEntity
  8
0
370
              -2
390
0
  6
Continuous
 62
               0
100
AcDbHatch
 10
0.0
 20
0.0
 30
0.0
210
0.0
220
0.0
230
1.0
  2
SOLID
 70
               1
 71
               1
 91
        1
 92
        1
 93
        1
 72
               2
 10
-641.49785431381349
 20
-1001.0493546386251
 40
1.9998779296875
 50
0.0
 51
360.0
 73
               0
 97
        1
330
18C
 75
               0
 76
               1
 98
        1
 10
0.0
 20
0.0
  0
CIRCLE
  5
18E
102
{ACAD_REACTORS
330
18F
102
}
100
AcDbEntity
  8
0
370
              -2
390
0
  6
Continuous
 62
               0
100
AcDbCircle
 10
-511.49785431381338
 20
-1001.0493546386251
 30
0.0
 40
1.9998779296875
  0
HATCH
  5
18F
100
AcDbEntity
  8
0
370
              -2
390
0
  6
Continuous
 62
               0
100
AcDbHatch
 10
0.0
 20
0.0
 30
0.0
210
0.0
220
0.0
230
1.0
  2
SOLID
 70
               1
 71
               1
 91
        1
 92
        1
 93
        1
 72
               2
 10
-511.49785431381338
 20
-1001.0493546386251
 40
1.9998779296875
 50
0.0
 51
360.0
 73
               0
 97
        1
330
18E
 75
               0
 76
               1
 98
        1
 10
0.0
 20
0.0
  0
MTEXT
  5
190
100
AcDbEntity
  8
0
390
0
 62
               0
100
AcDbMText
 10
-600.31035599598897
 20
-967.17173745112495
 30
0.0
 40
24.432617187500004
 41
0.0
 71
               1
 72
               1
  1
130
  7
ＭＳ ゴシック
 73
               1
 44
0.7828267384257843
  0
POINT
  5
191
100
AcDbEntity
  8
Defpoints
370
               0
390
0
 62
               0
100
AcDbPoint
 10
-511.49785431381338
 20
-901.04935463862512
 30
0.0
  0
POINT
  5
192
100
AcDbEntity
  8
Defpoints
370
               0
390
0
 62
               0
100
AcDbPoint
 10
-641.49785431381349
 20
-898.04935463862512
 30
0.0
  0
POINT
  5
193
100
AcDbEntity
  8
Defpoints
370
               0
390
0
 62
               0
100
AcDbPoint
 10
-641.49785431381349
 20
-1001.0493546386251
 30
0.0
  0
ENDBLK
  5
194
100
AcDbEntity
  8
notes
390
0
100
AcDbBlockEnd
  0
BLOCK
  5
195
100
AcDbEntity
  8
notes
390
0
100
AcDbBlockBegin
  2
*D24
 70
               1
 10
0.0
 20
0.0
 30
0.0
  3
*D24
  1

  0
LINE
  5
196
100
AcDbEntity
  8
0
370
              -2
390
0
  6
Continuous
 62
               0
100
AcDbLine
 10
-511.49785431381338
 20
-639.04935463862512
 30
0.0
 11
-511.49785431381338
 21
-1001.0493546386251
 31
0.0
  0
LINE
  5
197
100
AcDbEntity
  8
0
370
              -2
390
0
  6
Continuous
 62
               0
100
AcDbLine
 10
-171.49785431381406
 20
-926.04935463862512
 30
0.0
 11
-171.49785431381406
 21
-1001.0493546386251
 31
0.0
  0
LINE
  5
198
100
AcDbEntity
  8
0
370
              -2
390
0
  6
Continuous
 62
               0
100
AcDbLine
 10
-511.49785431381338
 20
-1001.0493546386251
 30
0.0
 11
-171.49785431381406
 21
-1001.0493546386251
 31
0.0
  0
CIRCLE
  5
199
102
{ACAD_REACTORS
330
19A
102
}
100
AcDbEntity
  8
0
370
              -2
390
0
  6
Continuous
 62
               0
100
AcDbCircle
 10
-511.49785431381338
 20
-1001.0493546386251
 30
0.0
 40
1.9998779296875
  0
HATCH
  5
19A
100
AcDbEntity
  8
0
370
              -2
390
0
  6
Continuous
 62
               0
100
AcDbHatch
 10
0.0
 20
0.0
 30
0.0
210
0.0
220
0.0
230
1.0
  2
SOLID
 70
               1
 71
               1
 91
        1
 92
        1
 93
        1
 72
               2
 10
-511.49785431381338
 20
-1001.0493546386251
 40
1.9998779296875
 50
0.0
 51
360.0
 73
               0
 97
        1
330
199
 75
               0
 76
               1
 98
        1
 10
0.0
 20
0.0
  0
CIRCLE
  5
19B
102
{ACAD_REACTORS
330
19C
102
}
100
AcDbEntity
  8
0
370
              -2
390
0
  6
Continuous
 62
               0
100
AcDbCircle
 10
-171.49785431381406
 20
-1001.0493546386251
 30
0.0
 40
1.9998779296875
  0
HATCH
  5
19C
100
AcDbEntity
  8
0
370
              -2
390
0
  6
Continuous
 62
               0
100
AcDbHatch
 10
0.0
 20
0.0
 30
0.0
210
0.0
220
0.0
230
1.0
  2
SOLID
 70
               1
 71
               1
 91
        1
 92
        1
 93
        1
 72
               2
 10
-171.49785431381406
 20
-1001.0493546386251
 40
1.9998779296875
 50
0.0
 51
360.0
 73
               0
 97
        1
330
19B
 75
               0
 76
               1
 98
        1
 10
0.0
 20
0.0
  0
MTEXT
  5
19D
100
AcDbEntity
  8
0
390
0
 62
               0
100
AcDbMText
 10
-365.3103559959892
 20
-967.17173745112495
 30
0.0
 40
24.432617187500004
 41
0.0
 71
               1
 72
               1
  1
340
  7
ＭＳ ゴシック
 73
               1
 44
0.7828267384257843
  0
POINT
  5
19E
100
AcDbEntity
  8
Defpoints
370
               0
390
0
 62
               0
100
AcDbPoint
 10
-171.49785431381406
 20
-901.04935463862512
 30
0.0
  0
POINT
  5
19F
100
AcDbEntity
  8
Defpoints
370
               0
390
0
 62
               0
100
AcDbPoint
 10
-511.49785431381338
 20
-614.04935463862512
 30
0.0
  0
POINT
  5
1A0
100
AcDbEntity
  8
Defpoints
370
               0
390
0
 62
               0
100
AcDbPoint
 10
-511.49785431381338
 20
-1001.0493546386251
 30
0.0
  0
ENDBLK
  5
1A1
100
AcDbEntity
  8
notes
390
0
100
AcDbBlockEnd
  0
BLOCK
  5
1A2
100
AcDbEntity
  8
notes
390
0
100
AcDbBlockBegin
  2
*D25
 70
               1
 10
0.0
 20
0.0
 30
0.0
  3
*D25
  1

  0
LINE
  5
1A3
100
AcDbEntity
  8
0
370
              -2
390
0
  6
Continuous
 62
               0
100
AcDbLine
 10
497.91260331129467
 20
-831.05107284309361
 30
0.0
 11
497.91260331129467
 21
-1001.0493546386251
 31
0.0
  0
LINE
  5
1A4
100
AcDbEntity
  8
0
370
              -2
390
0
  6
Continuous
 62
               0
100
AcDbLine
 10
457.87114166134768
 20
-922.14935463862548
 30
0.0
 11
457.87114166134768
 21
-1001.0493546386251
 31
0.0
  0
LINE
  5
1A5
100
AcDbEntity
  8
0
370
              -2
390
0
  6
Continuous
 62
               0
100
AcDbLine
 10
497.91260331129467
 20
-1001.0493546386251
 30
0.0
 11
457.87114166134768
 21
-1001.0493546386251
 31
0.0
  0
CIRCLE
  5
1A6
102
{ACAD_REACTORS
330
1A7
102
}
100
AcDbEntity
  8
0
370
              -2
390
0
  6
Continuous
 62
               0
100
AcDbCircle
 10
497.91260331129467
 20
-1001.0493546386251
 30
0.0
 40
1.9998779296875
  0
HATCH
  5
1A7
100
AcDbEntity
  8
0
370
              -2
390
0
  6
Continuous
 62
               0
100
AcDbHatch
 10
0.0
 20
0.0
 30
0.0
210
0.0
220
0.0
230
1.0
  2
SOLID
 70
               1
 71
               1
 91
        1
 92
        1
 93
        1
 72
               2
 10
497.91260331129467
 20
-1001.0493546386251
 40
1.9998779296875
 50
0.0
 51
360.0
 73
               0
 97
        1
330
1A6
 75
               0
 76
               1
 98
        1
 10
0.0
 20
0.0
  0
CIRCLE
  5
1A8
102
{ACAD_REACTORS
330
1A9
102
}
100
AcDbEntity
  8
0
370
              -2
390
0
  6
Continuous
 62
               0
100
AcDbCircle
 10
457.87114166134768
 20
-1001.0493546386251
 30
0.0
 40
1.9998779296875
  0
HATCH
  5
1A9
100
AcDbEntity
  8
0
370
              -2
390
0
  6
Continuous
 62
               0
100
AcDbHatch
 10
0.0
 20
0.0
 30
0.0
210
0.0
220
0.0
230
1.0
  2
SOLID
 70
               1
 71
               1
 91
        1
 92
        1
 93
        1
 72
               2
 10
457.87114166134768
 20
-1001.0493546386251
 40
1.9998779296875
 50
0.0
 51
360.0
 73
               0
 97
        1
330
1A8
 75
               0
 76
               1
 98
        1
 10
0.0
 20
0.0
  0
MTEXT
  5
1AA
100
AcDbEntity
  8
0
390
0
 62
               0
100
AcDbMText
 10
462.01687248632118
 20
-967.17173745112495
 30
0.0
 40
24.432617187500004
 41
0.0
 71
               1
 72
               1
  1
40
  7
ＭＳ ゴシック
 73
               1
 44
0.7828267384257843
  0
POINT
  5
1AB
100
AcDbEntity
  8
Defpoints
370
               0
390
0
 62
               0
100
AcDbPoint
 10
457.87114166134768
 20
-897.14935463862548
 30
0.0
  0
POINT
  5
1AC
100
AcDbEntity
  8
Defpoints
370
               0
390
0
 62
               0
100
AcDbPoint
 10
497.91260331129467
 20
-806.05107284309361
 30
0.0
  0
POINT
  5
1AD
100
AcDbEntity
  8
Defpoints
370
               0
390
0
 62
               0
100
AcDbPoint
 10
497.91260331129467
 20
-1001.0493546386251
 30
0.0
  0
ENDBLK
  5
1AE
100
AcDbEntity
  8
notes
390
0
100
AcDbBlockEnd
  0
BLOCK
  5
1AF
100
AcDbEntity
  8
notes
390
0
100
AcDbBlockBegin
  2
*D26
 70
               1
 10
0.0
 20
0.0
 30
0.0
  3
*D26
  1

  0
LINE
  5
1B0
100
AcDbEntity
  8
0
370
              -2
390
0
  6
Continuous
 62
               0
100
AcDbLine
 10
668.86797268843645
 20
1187.7430805351316
 30
0.0
 11
747.78369036166748
 21
1187.7430805351316
 31
0.0
  0
LINE
  5
1B1
100
AcDbEntity
  8
0
370
              -2
390
0
  6
Continuous
 62
               0
100
AcDbLine
 10
672.78369036166703
 20
987.74308053513187
 30
0.0
 11
747.78369036166748
 21
987.74308053513187
 31
0.0
  0
LINE
  5
1B2
100
AcDbEntity
  8
0
370
              -2
390
0
  6
Continuous
 62
               0
100
AcDbLine
 10
747.78369036166748
 20
1187.7430805351316
 30
0.0
 11
747.78369036166748
 21
987.74308053513187
 31
0.0
  0
CIRCLE
  5
1B3
102
{ACAD_REACTORS
330
1B4
102
}
100
AcDbEntity
  8
0
370
              -2
390
0
  6
Continuous
 62
               0
100
AcDbCircle
 10
747.78369036166748
 20
1187.7430805351316
 30
0.0
 40
1.9998779296875
  0
HATCH
  5
1B4
100
AcDbEntity
  8
0
370
              -2
390
0
  6
Continuous
 62
               0
100
AcDbHatch
 10
0.0
 20
0.0
 30
0.0
210
0.0
220
0.0
230
1.0
  2
SOLID
 70
               1
 71
               1
 91
        1
 92
        1
 93
        1
 72
               2
 10
747.78369036166748
 20
1187.7430805351316
 40
1.9998779296875
 50
0.0
 51
360.0
 73
               0
 97
        1
330
1B3
 75
               0
 76
               1
 98
        1
 10
0.0
 20
0.0
  0
CIRCLE
  5
1B5
102
{ACAD_REACTORS
330
1B6
102
}
100
AcDbEntity
  8
0
370
              -2
390
0
  6
Continuous
 62
               0
100
AcDbCircle
 10
747.78369036166748
 20
987.74308053513187
 30
0.0
 40
1.9998779296875
  0
HATCH
  5
1B6
100
AcDbEntity
  8
0
370
              -2
390
0
  6
Continuous
 62
               0
100
AcDbHatch
 10
0.0
 20
0.0
 30
0.0
210
0.0
220
0.0
230
1.0
  2
SOLID
 70
               1
 71
               1
 91
        1
 92
        1
 93
        1
 72
               2
 10
747.78369036166748
 20
987.74308053513187
 40
1.9998779296875
 50
0.0
 51
360.0
 73
               0
 97
        1
330
1B5
 75
               0
 76
               1
 98
        1
 10
0.0
 20
0.0
  0
MTEXT
  5
1B7
100
AcDbEntity
  8
0
390
0
 62
               0
100
AcDbMText
 10
713.90607317416743
 20
1063.9305788529564
 30
0.0
 40
24.432617187500004
 41
0.0
 71
               1
 72
               1
  1
200
  7
ＭＳ ゴシック
 11
0.0
 21
1.0
 31
0.0
 73
               1
 44
0.7828267384257843
  0
POINT
  5
1B8
100
AcDbEntity
  8
Defpoints
370
               0
390
0
 62
               0
100
AcDbPoint
 10
647.78369036166703
 20
987.74308053513187
 30
0.0
  0
POINT
  5
1B9
100
AcDbEntity
  8
Defpoints
370
               0
390
0
 62
               0
100
AcDbPoint
 10
643.86797268843645
 20
1187.7430805351316
 30
0.0
  0
POINT
  5
1BA
100
AcDbEntity
  8
Defpoints
370
               0
390
0
 62
               0
100
AcDbPoint
 10
747.78369036166748
 20
1187.7430805351316
 30
0.0
  0
ENDBLK
  5
1BB
100
AcDbEntity
  8
notes
390
0
100
AcDbBlockEnd
  0
BLOCK
  5
1BC
100
AcDbEntity
  8
notes
390
0
100
AcDbBlockBegin
  2
*D27
 70
               1
 10
0.0
 20
0.0
 30
0.0
  3
*D27
  1

  0
LINE
  5
1BD
100
AcDbEntity
  8
0
370
              -2
390
0
  6
Continuous
 62
               0
100
AcDbLine
 10
668.86797268838279
 20
1187.7430805351273
 30
0.0
 11
797.84222871172062
 21
1187.7430805351273
 31
0.0
  0
LINE
  5
1BE
100
AcDbEntity
  8
0
370
              -2
390
0
  6
Continuous
 62
               0
100
AcDbLine
 10
668.86797268838279
 20
777.74308053512755
 30
0.0
 11
797.84222871172062
 21
777.74308053512755
 31
0.0
  0
LINE
  5
1BF
100
AcDbEntity
  8
0
370
              -2
390
0
  6
Continuous
 62
               0
100
AcDbLine
 10
797.84222871172062
 20
1187.7430805351273
 30
0.0
 11
797.84222871172062
 21
777.74308053512755
 31
0.0
  0
CIRCLE
  5
1C0
102
{ACAD_REACTORS
330
1C1
102
}
100
AcDbEntity
  8
0
370
              -2
390
0
  6
Continuous
 62
               0
100
AcDbCircle
 10
797.84222871172062
 20
1187.7430805351273
 30
0.0
 40
1.9998779296875
  0
HATCH
  5
1C1
100
AcDbEntity
  8
0
370
              -2
390
0
  6
Continuous
 62
               0
100
AcDbHatch
 10
0.0
 20
0.0
 30
0.0
210
0.0
220
0.0
230
1.0
  2
SOLID
 70
               1
 71
               1
 91
        1
 92
        1
 93
        1
 72
               2
 10
797.84222871172062
 20
1187.7430805351273
 40
1.9998779296875
 50
0.0
 51
360.0
 73
               0
 97
        1
330
1C0
 75
               0
 76
               1
 98
        1
 10
0.0
 20
0.0
  0
CIRCLE
  5
1C2
102
{ACAD_REACTORS
330
1C3
102
}
100
AcDbEntity
  8
0
370
              -2
390
0
  6
Continuous
 62
               0
100
AcDbCircle
 10
797.84222871172062
 20
777.74308053512755
 30
0.0
 40
1.9998779296875
  0
HATCH
  5
1C3
100
AcDbEntity
  8
0
370
              -2
390
0
  6
Continuous
 62
               0
100
AcDbHatch
 10
0.0
 20
0.0
 30
0.0
210
0.0
220
0.0
230
1.0
  2
SOLID
 70
               1
 71
               1
 91
        1
 92
        1
 93
        1
 72
               2
 10
797.84222871172062
 20
777.74308053512755
 40
1.9998779296875
 50
0.0
 51
360.0
 73
               0
 97
        1
330
1C2
 75
               0
 76
               1
 98
        1
 10
0.0
 20
0.0
  0
MTEXT
  5
1C4
100
AcDbEntity
  8
0
390
0
 62
               0
100
AcDbMText
 10
763.96461152422057
 20
958.93057885295184
 30
0.0
 40
24.432617187500004
 41
0.0
 71
               1
 72
               1
  1
410
  7
ＭＳ ゴシック
 11
0.0
 21
1.0
 31
0.0
 73
               1
 44
0.7828267384257843
  0
POINT
  5
1C5
100
AcDbEntity
  8
Defpoints
370
               0
390
0
 62
               0
100
AcDbPoint
 10
643.86797268838279
 20
777.74308053512755
 30
0.0
  0
POINT
  5
1C6
100
AcDbEntity
  8
Defpoints
370
               0
390
0
 62
               0
100
AcDbPoint
 10
643.86797268838279
 20
1187.7430805351273
 30
0.0
  0
POINT
  5
1C7
100
AcDbEntity
  8
Defpoints
370
               0
390
0
 62
               0
100
AcDbPoint
 10
797.84222871172062
 20
1187.7430805351273
 30
0.0
  0
ENDBLK
  5
1C8
100
AcDbEntity
  8
notes
390
0
100
AcDbBlockEnd
  0
BLOCK
  5
1C9
100
AcDbEntity
  8
notes
390
0
100
AcDbBlockBegin
  2
*D28
 70
               1
 10
0.0
 20
0.0
 30
0.0
  3
*D28
  1

  0
LINE
  5
1CA
100
AcDbEntity
  8
0
370
              -2
390
0
  6
Continuous
 62
               0
100
AcDbLine
 10
435.86797268838291
 20
1187.7430805351273
 30
0.0
 11
357.84222871172051
 21
1187.7430805351273
 31
0.0
  0
LINE
  5
1CB
100
AcDbEntity
  8
0
370
              -2
390
0
  6
Continuous
 62
               0
100
AcDbLine
 10
432.90738352202925
 20
1122.7430805351273
 30
0.0
 11
357.84222871172051
 21
1122.7430805351273
 31
0.0
  0
LINE
  5
1CC
100
AcDbEntity
  8
0
370
              -2
390
0
  6
Continuous
 62
               0
100
AcDbLine
 10
357.84222871172051
 20
1187.7430805351273
 30
0.0
 11
357.84222871172051
 21
1122.7430805351273
 31
0.0
  0
CIRCLE
  5
1CD
102
{ACAD_REACTORS
330
1CE
102
}
100
AcDbEntity
  8
0
370
              -2
390
0
  6
Continuous
 62
               0
100
AcDbCircle
 10
357.84222871172051
 20
1187.7430805351273
 30
0.0
 40
1.9998779296875
  0
HATCH
  5
1CE
100
AcDbEntity
  8
0
370
              -2
390
0
  6
Continuous
 62
               0
100
AcDbHatch
 10
0.0
 20
0.0
 30
0.0
210
0.0
220
0.0
230
1.0
  2
SOLID
 70
               1
 71
               1
 91
        1
 92
        1
 93
        1
 72
               2
 10
357.84222871172051
 20
1187.7430805351273
 40
1.9998779296875
 50
0.0
 51
360.0
 73
               0
 97
        1
330
1CD
 75
               0
 76
               1
 98
        1
 10
0.0
 20
0.0
  0
CIRCLE
  5
1CF
102
{ACAD_REACTORS
330
1D0
102
}
100
AcDbEntity
  8
0
370
              -2
390
0
  6
Continuous
 62
               0
100
AcDbCircle
 10
357.84222871172051
 20
1122.7430805351273
 30
0.0
 40
1.9998779296875
  0
HATCH
  5
1D0
100
AcDbEntity
  8
0
370
              -2
390
0
  6
Continuous
 62
               0
100
AcDbHatch
 10
0.0
 20
0.0
 30
0.0
210
0.0
220
0.0
230
1.0
  2
SOLID
 70
               1
 71
               1
 91
        1
 92
        1
 93
        1
 72
               2
 10
357.84222871172051
 20
1122.7430805351273
 40
1.9998779296875
 50
0.0
 51
360.0
 73
               0
 97
        1
330
1CF
 75
               0
 76
               1
 98
        1
 10
0.0
 20
0.0
  0
MTEXT
  5
1D1
100
AcDbEntity
  8
0
390
0
 62
               0
100
AcDbMText
 10
323.96461152422052
 20
1139.3680805351273
 30
0.0
 40
24.432617187500004
 41
0.0
 71
               1
 72
               1
  1
65
  7
ＭＳ ゴシック
 11
0.0
 21
1.0
 31
0.0
 73
               1
 44
0.7828267384257843
  0
POINT
  5
1D2
100
AcDbEntity
  8
Defpoints
370
               0
390
0
 62
               0
100
AcDbPoint
 10
457.90738352202925
 20
1122.7430805351273
 30
0.0
  0
POINT
  5
1D3
100
AcDbEntity
  8
Defpoints
370
               0
390
0
 62
               0
100
AcDbPoint
 10
460.86797268838291
 20
1187.7430805351273
 30
0.0
  0
POINT
  5
1D4
100
AcDbEntity
  8
Defpoints
370
               0
390
0
 62
               0
100
AcDbPoint
 10
357.84222871172051
 20
1187.7430805351273
 30
0.0
  0
ENDBLK
  5
1D5
100
AcDbEntity
  8
notes
390
0
100
AcDbBlockEnd
  0
BLOCK
  5
1D6
100
AcDbEntity
  8
notes
390
0
100
AcDbBlockBegin
  2
*D29
 70
               1
 10
0.0
 20
0.0
 30
0.0
  3
*D29
  1

  0
LINE
  5
1D7
100
AcDbEntity
  8
0
370
              -2
390
0
  6
Continuous
 62
               0
100
AcDbLine
 10
457.94023195707291
 20
978.67692052673942
 30
0.0
 11
457.94023195707291
 21
974.67692052673942
 31
0.0
  0
LINE
  5
1D8
100
AcDbEntity
  8
0
370
              -2
390
0
  6
Continuous
 62
               0
100
AcDbLine
 10
602.94023195707268
 20
978.67692052673942
 30
0.0
 11
602.94023195707268
 21
974.67692052673942
 31
0.0
  0
LINE
  5
1D9
100
AcDbEntity
  8
0
370
              -2
390
0
  6
Continuous
 62
               0
100
AcDbLine
 10
457.94023195707291
 20
974.67692052673942
 30
0.0
 11
310.96722871172051
 21
974.67692052673942
 31
0.0
  0
LINE
  5
1DA
100
AcDbEntity
  8
0
370
              -2
390
0
  6
Continuous
 62
               0
100
AcDbLine
 10
457.94023195707291
 20
974.67692052673942
 30
0.0
 11
602.94023195707268
 21
974.67692052673942
 31
0.0
  0
CIRCLE
  5
1DB
102
{ACAD_REACTORS
330
1DC
102
}
100
AcDbEntity
  8
0
370
              -2
390
0
  6
Continuous
 62
               0
100
AcDbCircle
 10
457.94023195707291
 20
974.67692052673942
 30
0.0
 40
1.9998779296875
  0
HATCH
  5
1DC
100
AcDbEntity
  8
0
370
              -2
390
0
  6
Continuous
 62
               0
100
AcDbHatch
 10
0.0
 20
0.0
 30
0.0
210
0.0
220
0.0
230
1.0
  2
SOLID
 70
               1
 71
               1
 91
        1
 92
        1
 93
        1
 72
               2
 10
457.94023195707291
 20
974.67692052673942
 40
1.9998779296875
 50
0.0
 51
360.0
 73
               0
 97
        1
330
1DB
 75
               0
 76
               1
 98
        1
 10
0.0
 20
0.0
  0
CIRCLE
  5
1DD
102
{ACAD_REACTORS
330
1DE
102
}
100
AcDbEntity
  8
0
370
              -2
390
0
  6
Continuous
 62
               0
100
AcDbCircle
 10
602.94023195707268
 20
974.67692052673942
 30
0.0
 40
1.9998779296875
  0
HATCH
  5
1DE
100
AcDbEntity
  8
0
370
              -2
390
0
  6
Continuous
 62
               0
100
AcDbHatch
 10
0.0
 20
0.0
 30
0.0
210
0.0
220
0.0
230
1.0
  2
SOLID
 70
               1
 71
               1
 91
        1
 92
        1
 93
        1
 72
               2
 10
602.94023195707268
 20
974.67692052673942
 40
1.9998779296875
 50
0.0
 51
360.0
 73
               0
 97
        1
330
1DD
 75
               0
 76
               1
 98
        1
 10
0.0
 20
0.0
  0
MTEXT
  5
1DF
100
AcDbEntity
  8
0
390
0
 62
               0
100
AcDbMText
 10
310.96722871172051
 20
1008.5545377142394
 30
0.0
 40
24.432617187500004
 41
0.0
 71
               1
 72
               1
  1
145(深さ)
  7
ＭＳ ゴシック
 73
               1
 44
0.7828267384257843
  0
POINT
  5
1E0
100
AcDbEntity
  8
Defpoints
370
               0
390
0
 62
               0
100
AcDbPoint
 10
602.94023195707268
 20
1003.6769205267394
 30
0.0
  0
POINT
  5
1E1
100
AcDbEntity
  8
Defpoints
370
               0
390
0
 62
               0
100
AcDbPoint
 10
457.94023195707291
 20
1003.6769205267394
 30
0.0
  0
POINT
  5
1E2
100
AcDbEntity
  8
Defpoints
370
               0
390
0
 62
               0
100
AcDbPoint
 10
457.94023195707291
 20
974.67692052673942
 30
0.0
  0
ENDBLK
  5
1E3
100
AcDbEntity
  8
notes
390
0
100
AcDbBlockEnd
  0
BLOCK
  5
1E4
100
AcDbEntity
  8
notes
390
0
100
AcDbBlockBegin
  2
*D30
 70
               1
 10
0.0
 20
0.0
 30
0.0
  3
*D30
  1

  0
LINE
  5
1E5
100
AcDbEntity
  8
0
370
              -2
390
0
  6
Continuous
 62
               0
100
AcDbLine
 10
457.86797268838291
 20
667.74308053512459
 30
0.0
 11
457.86797268838291
 21
587.74308053512459
 31
0.0
  0
LINE
  5
1E6
100
AcDbEntity
  8
0
370
              -2
390
0
  6
Continuous
 62
               0
100
AcDbLine
 10
552.86797268838291
 20
667.74308053512459
 30
0.0
 11
552.86797268838291
 21
587.74308053512459
 31
0.0
  0
LINE
  5
1E7
100
AcDbEntity
  8
0
370
              -2
390
0
  6
Continuous
 62
               0
100
AcDbLine
 10
457.86797268838291
 20
587.74308053512459
 30
0.0
 11
552.86797268838291
 21
587.74308053512459
 31
0.0
  0
CIRCLE
  5
1E8
102
{ACAD_REACTORS
330
1E9
102
}
100
AcDbEntity
  8
0
370
              -2
390
0
  6
Continuous
 62
               0
100
AcDbCircle
 10
457.86797268838291
 20
587.74308053512459
 30
0.0
 40
1.9998779296875
  0
HATCH
  5
1E9
100
AcDbEntity
  8
0
370
              -2
390
0
  6
Continuous
 62
               0
100
AcDbHatch
 10
0.0
 20
0.0
 30
0.0
210
0.0
220
0.0
230
1.0
  2
SOLID
 70
               1
 71
               1
 91
        1
 92
        1
 93
        1
 72
               2
 10
457.86797268838291
 20
587.74308053512459
 40
1.9998779296875
 50
0.0
 51
360.0
 73
               0
 97
        1
330
1E8
 75
               0
 76
               1
 98
        1
 10
0.0
 20
0.0
  0
CIRCLE
  5
1EA
102
{ACAD_REACTORS
330
1EB
102
}
100
AcDbEntity
  8
0
370
              -2
390
0
  6
Continuous
 62
               0
100
AcDbCircle
 10
552.86797268838291
 20
587.74308053512459
 30
0.0
 40
1.9998779296875
  0
HATCH
  5
1EB
100
AcDbEntity
  8
0
370
              -2
390
0
  6
Continuous
 62
               0
100
AcDbHatch
 10
0.0
 20
0.0
 30
0.0
210
0.0
220
0.0
230
1.0
  2
SOLID
 70
               1
 71
               1
 91
        1
 92
        1
 93
        1
 72
               2
 10
552.86797268838291
 20
587.74308053512459
 40
1.9998779296875
 50
0.0
 51
360.0
 73
               0
 97
        1
330
1EA
 75
               0
 76
               1
 98
        1
 10
0.0
 20
0.0
  0
MTEXT
  5
1EC
100
AcDbEntity
  8
0
390
0
 62
               0
100
AcDbMText
 10
489.49297268838291
 20
621.62069772262453
 30
0.0
 40
24.432617187500004
 41
0.0
 71
               1
 72
               1
  1
95
  7
ＭＳ ゴシック
 73
               1
 44
0.7828267384257843
  0
POINT
  5
1ED
100
AcDbEntity
  8
Defpoints
370
               0
390
0
 62
               0
100
AcDbPoint
 10
552.86797268838291
 20
692.74308053512459
 30
0.0
  0
POINT
  5
1EE
100
AcDbEntity
  8
Defpoints
370
               0
390
0
 62
               0
100
AcDbPoint
 10
457.86797268838291
 20
692.74308053512459
 30
0.0
  0
POINT
  5
1EF
100
AcDbEntity
  8
Defpoints
370
               0
390
0
 62
               0
100
AcDbPoint
 10
457.86797268838291
 20
587.74308053512459
 30
0.0
  0
ENDBLK
  5
1F0
100
AcDbEntity
  8
notes
390
0
100
AcDbBlockEnd
  0
BLOCK
  5
1F1
100
AcDbEntity
  8
notes
390
0
100
AcDbBlockBegin
  2
*D31
 70
               1
 10
0.0
 20
0.0
 30
0.0
  3
*D31
  1

  0
LINE
  5
1F2
100
AcDbEntity
  8
0
370
              -2
390
0
  6
Continuous
 62
               0
100
AcDbLine
 10
552.86797268838291
 20
667.74308053512459
 30
0.0
 11
552.86797268838291
 21
587.74308053512459
 31
0.0
  0
LINE
  5
1F3
100
AcDbEntity
  8
0
370
              -2
390
0
  6
Continuous
 62
               0
100
AcDbLine
 10
647.86797268838279
 20
752.58997423916253
 30
0.0
 11
647.86797268838279
 21
587.74308053512459
 31
0.0
  0
LINE
  5
1F4
100
AcDbEntity
  8
0
370
              -2
390
0
  6
Continuous
 62
               0
100
AcDbLine
 10
552.86797268838291
 20
587.74308053512459
 30
0.0
 11
647.86797268838279
 21
587.74308053512459
 31
0.0
  0
CIRCLE
  5
1F5
102
{ACAD_REACTORS
330
1F6
102
}
100
AcDbEntity
  8
0
370
              -2
390
0
  6
Continuous
 62
               0
100
AcDbCircle
 10
552.86797268838291
 20
587.74308053512459
 30
0.0
 40
1.9998779296875
  0
HATCH
  5
1F6
100
AcDbEntity
  8
0
370
              -2
390
0
  6
Continuous
 62
               0
100
AcDbHatch
 10
0.0
 20
0.0
 30
0.0
210
0.0
220
0.0
230
1.0
  2
SOLID
 70
               1
 71
               1
 91
        1
 92
        1
 93
        1
 72
               2
 10
552.86797268838291
 20
587.74308053512459
 40
1.9998779296875
 50
0.0
 51
360.0
 73
               0
 97
        1
330
1F5
 75
               0
 76
               1
 98
        1
 10
0.0
 20
0.0
  0
CIRCLE
  5
1F7
102
{ACAD_REACTORS
330
1F8
102
}
100
AcDbEntity
  8
0
370
              -2
390
0
  6
Continuous
 62
               0
100
AcDbCircle
 10
647.86797268838279
 20
587.74308053512459
 30
0.0
 40
1.9998779296875
  0
HATCH
  5
1F8
100
AcDbEntity
  8
0
370
              -2
390
0
  6
Continuous
 62
               0
100
AcDbHatch
 10
0.0
 20
0.0
 30
0.0
210
0.0
220
0.0
230
1.0
  2
SOLID
 70
               1
 71
               1
 91
        1
 92
        1
 93
        1
 72
               2
 10
647.86797268838279
 20
587.74308053512459
 40
1.9998779296875
 50
0.0
 51
360.0
 73
               0
 97
        1
330
1F7
 75
               0
 76
               1
 98
        1
 10
0.0
 20
0.0
  0
MTEXT
  5
1F9
100
AcDbEntity
  8
0
390
0
 62
               0
100
AcDbMText
 10
584.49297268838291
 20
621.62069772262453
 30
0.0
 40
24.432617187500004
 41
0.0
 71
               1
 72
               1
  1
95
  7
ＭＳ ゴシック
 73
               1
 44
0.7828267384257843
  0
POINT
  5
1FA
100
AcDbEntity
  8
Defpoints
370
               0
390
0
 62
               0
100
AcDbPoint
 10
647.86797268838279
 20
777.58997423916253
 30
0.0
  0
POINT
  5
1FB
100
AcDbEntity
  8
Defpoints
370
               0
390
0
 62
               0
100
AcDbPoint
 10
552.86797268838291
 20
692.74308053512459
 30
0.0
  0
POINT
  5
1FC
100
AcDbEntity
  8
Defpoints
370
               0
390
0
 62
               0
100
AcDbPoint
 10
552.86797268838291
 20
587.74308053512459
 30
0.0
  0
ENDBLK
  5
1FD
100
AcDbEntity
  8
notes
390
0
100
AcDbBlockEnd
  0
BLOCK
  5
1FE
100
AcDbEntity
  8
ADF70-0404
390
0
100
AcDbBlockBegin
  2
グループ-3
 70
               0
 10
0.0
 20
0.0
 30
0.0
  3
グループ-3
  1

  0
ARC
  5
1FF
100
AcDbEntity
  8
0
370
              15
390
0
  6
STYLE_23
 62
               7
100
AcDbCircle
 10
154.62593238086879
 20
-2393.8328353844881
 30
0.0
 40
4.9999999823385952
100
AcDbArc
 50
139.99999981292044
 51
175.41634017602274
  0
LINE
  5
200
100
AcDbEntity
  8
0
370
              15
390
0
  6
STYLE_23
 62
               7
100
AcDbLine
 10
162.88210873038065
 20
-2376.2148884681119
 30
0.0
 11
150.79571018929732
 21
-2390.6188973349017
 31
0.0
  0
LINE
  5
201
100
AcDbEntity
  8
0
370
              15
390
0
  6
STYLE_23
 62
               7
100
AcDbLine
 10
195.68637082335795
 20
-2376.2148884681119
 30
0.0
 11
162.88210873038065
 21
-2376.2148884681119
 31
0.0
  0
ENDBLK
  5
202
100
AcDbEntity
  8
ADF70-0404
390
0
100
AcDbBlockEnd
  0
BLOCK
  5
203
100
AcDbEntity
  8
ADF70-0404
390
0
100
AcDbBlockBegin
  2
グループ-4
 70
               0
 10
0.0
 20
0.0
 30
0.0
  3
グループ-4
  1

  0
ARC
  5
204
100
AcDbEntity
  8
0
370
              15
390
0
  6
STYLE_23
 62
               7
100
AcDbCircle
 10
154.58447073045204
 20
-2312.5960932896323
 30
0.0
 40
4.9999999823386716
100
AcDbArc
 50
184.58365982398766
 51
220.00000018707877
  0
LINE
  5
205
100
AcDbEntity
  8
0
370
              15
390
0
  6
STYLE_23
 62
               7
100
AcDbLine
 10
162.8406470799639
 20
-2330.2140402060095
 30
0.0
 11
150.75424853888057
 21
-2315.8100313392188
 31
0.0
  0
LINE
  5
206
100
AcDbEntity
  8
0
370
              15
390
0
  6
STYLE_23
 62
               7
100
AcDbLine
 10
195.6449091729412
 20
-2330.2140402060095
 30
0.0
 11
162.8406470799639
 21
-2330.2140402060095
 31
0.0
  0
INSERT
  5
207
100
AcDbEntity
  8
0
390
0
 62
               7
100
AcDbBlockReference
  2
グループ-3
 10
0.0
 20
0.0
 30
0.0
  0
LINE
  5
208
100
AcDbEntity
  8
0
370
              15
390
0
  6
STYLE_23
 62
               7
100
AcDbLine
 10
162.8406470799639
 20
-2330.2140402060095
 30
0.0
 11
162.8406470799639
 21
-2376.2643005388964
 31
0.0
  0
ENDBLK
  5
209
100
AcDbEntity
  8
ADF70-0404
390
0
100
AcDbBlockEnd
  0
ENDSEC
  0
SECTION
  2
ENTITIES
  0
MTEXT
  5
20A
100
AcDbEntity
  8
template
390
0
 62
               7
100
AcDbMText
 10
-967.99999999975932
 20
-1147.4176292337002
 30
0.0
 40
16.288411458333332
 41
0.0
 71
               1
 72
               1
  1
品名
  7
ＭＳ ゴシック
 73
               1
 44
0.7828267384257843
  0
MTEXT
  5
20B
100
AcDbEntity
  8
template
390
0
 62
               7
100
AcDbMText
 10
-967.99999999975932
 20
-1232.4176292337002
 30
0.0
 40
16.288411458333332
 41
0.0
 71
               1
 72
               1
  1
仕様
  7
ＭＳ ゴシック
 73
               1
 44
0.7828267384257843
  0
MTEXT
  5
20C
100
AcDbEntity
  8
template
390
0
 62
               7
100
AcDbMText
 10
-914.99999999975932
 20
-1176.0000901712001
 30
0.0
 40
24.432617187500004
 41
0.0
 71
               1
 72
               1
  1
洗面器 -CATALANO,Zero-
  7
ＭＳ ゴシック
 73
               1
 44
0.7828267384257843
  0
LINE
  5
20D
100
AcDbEntity
  8
template
370
               5
390
0
  6
Continuous
 62
               7
100
AcDbLine
 10
974.99999999975876
 20
-1224.0027073587003
 30
0.0
 11
-975.00000000024136
 21
-1224.0027073587003
 31
0.0
  0
LWPOLYLINE
  5
20E
100
AcDbEntity
  8
template
370
               5
390
0
  6
Continuous
 62
               7
100
AcDbPolyline
 90
        5
 70
             128
 10
975.00000000024124
 20
1405.9972926412995
 10
-974.99999999975932
 20
1405.9972926412995
 10
-974.99999999975932
 20
-1394.0027073587003
 10
975.00000000024124
 20
-1394.0027073587003
 10
975.00000000024124
 20
1405.9972926412995
  0
LINE
  5
20F
100
AcDbEntity
  8
template
370
               5
390
0
  6
Continuous
 62
               7
100
AcDbLine
 10
974.99999999975876
 20
-1139.0027073587003
 30
0.0
 11
-975.00000000024136
 21
-1139.0027073587003
 31
0.0
  0
LINE
  5
210
100
AcDbEntity
  8
template
370
               5
390
0
  6
Continuous
 62
               7
100
AcDbLine
 10
975.00000000024124
 20
-1309.0027073587003
 30
0.0
 11
222.00000000024124
 21
-1309.0027073587003
 31
0.0
  0
MTEXT
  5
211
100
AcDbEntity
  8
template
390
0
 62
               7
100
AcDbMText
 10
-974.99999999955605
 20
-1405.8565294155574
 30
0.0
 40
21.717881944444446
 41
0.0
 71
               1
 72
               1
  1
100707SH
  7
ＭＳ ゴシック
 73
               1
 44
0.7828267384257843
  0
MTEXT
  5
212
100
AcDbEntity
  8
template
390
0
 62
               7
100
AcDbMText
 10
251.87140625250089
 20
-1338.9131018320077
 30
0.0
 40
24.432617187500004
 41
0.0
 71
               1
 72
               1
  1
大洋金物株式会社 ティーフォルム事業部
  7
ＭＳ ゴシック
 73
               1
 44
0.7828267384257843
  0
INSERT
  5
213
100
AcDbEntity
  8
template
390
0
 62
               7
100
AcDbBlockReference
  2
グループ
 10
452.22623248793673
 20
2077.1898157338278
 30
0.0
  0
MTEXT
  5
214
100
AcDbEntity
  8
template
390
0
 62
               7
100
AcDbMText
 10
784.00000000049999
 20
-1261.0000901712001
 30
0.0
 40
24.432617187500004
 41
0.0
 71
               1
 72
               1
  1
1:10
  7
ＭＳ ゴシック
 73
               1
 44
0.7828267384257843
  0
MTEXT
  5
215
100
AcDbEntity
  8
template
390
0
 62
               7
100
AcDbMText
 10
731.00000000049999
 20
-1232.4176292337002
 30
0.0
 40
16.288411458333332
 41
0.0
 71
               1
 72
               1
  1
縮尺
  7
ＭＳ ゴシック
 73
               1
 44
0.7828267384257843
  0
LINE
  5
216
100
AcDbEntity
  8
template
370
               5
390
0
  6
Continuous
 62
               7
100
AcDbLine
 10
724.00000000049999
 20
-1309.0027073587003
 30
0.0
 11
724.00000000049999
 21
-1224.0027073587003
 31
0.0
  0
MTEXT
  5
217
100
AcDbEntity
  8
template
390
0
 62
               7
100
AcDbMText
 10
480.00000000049999
 20
-1232.4176292337002
 30
0.0
 40
16.288411458333332
 41
0.0
 71
               1
 72
               1
  1
容量
  7
ＭＳ ゴシック
 73
               1
 44
0.7828267384257843
  0
MTEXT
  5
218
100
AcDbEntity
  8
template
390
0
 62
               7
100
AcDbMText
 10
533.00000000049999
 20
-1261.0000901712001
 30
0.0
 40
24.432617187500004
 41
0.0
 71
               1
 72
               1
  1
13.5L
  7
ＭＳ ゴシック
 73
               1
 44
0.7828267384257843
  0
LINE
  5
219
100
AcDbEntity
  8
template
370
               5
390
0
  6
Continuous
 62
               7
100
AcDbLine
 10
473.00000000049999
 20
-1309.0027073587003
 30
0.0
 11
473.00000000049999
 21
-1224.0027073587003
 31
0.0
  0
MTEXT
  5
21A
100
AcDbEntity
  8
template
390
0
 62
               7
100
AcDbMText
 10
229.00000000049999
 20
-1147.4176292337002
 30
0.0
 40
16.288411458333332
 41
0.0
 71
               1
 72
               1
  1
品番
  7
ＭＳ ゴシック
 73
               1
 44
0.7828267384257843
  0
MTEXT
  5
21B
100
AcDbEntity
  8
template
390
0
 62
               7
100
AcDbMText
 10
229.00000000049999
 20
-1232.4176292337002
 30
0.0
 40
16.288411458333332
 41
0.0
 71
               1
 72
               1
  1
重量
  7
ＭＳ ゴシック
 73
               1
 44
0.7828267384257843
  0
MTEXT
  5
21C
100
AcDbEntity
  8
template
390
0
 62
               7
100
AcDbMText
 10
282.00000000049999
 20
-1176.0000901712001
 30
0.0
 40
24.432617187500004
 41
0.0
 71
               1
 72
               1
  1
ADF70-0404
  7
ＭＳ ゴシック
 73
               1
 44
0.7828267384257843
  0
MTEXT
  5
21D
100
AcDbEntity
  8
template
390
0
 62
               7
100
AcDbMText
 10
282.00000000049999
 20
-1261.0000901712001
 30
0.0
 40
24.432617187500004
 41
0.0
 71
               1
 72
               1
  1
36kg
  7
ＭＳ ゴシック
 73
               1
 44
0.7828267384257843
  0
LINE
  5
21E
100
AcDbEntity
  8
template
370
               5
390
0
  6
Continuous
 62
               7
100
AcDbLine
 10
222.00000000049999
 20
-1394.0027073587003
 30
0.0
 11
222.00000000049999
 21
-1139.0027073587003
 31
0.0
  0
MTEXT
  5
21F
100
AcDbEntity
  8
template
390
0
 62
               7
100
AcDbMText
 10
-914.99999999975932
 20
-1261.0000901712001
 30
0.0
 40
24.432617187500004
 41
0.0
 71
               1
 72
               1
  1
壁掛け,カウンタ ー置き,半埋め込み/オーバーフロー付き/壁取付ボルト付属/\P陶器/ホワイト
  7
ＭＳ ゴシック
 73
               1
 44
1.3047112307096407
  0
INSERT
  5
220
100
AcDbEntity
  8
cut
390
0
 62
               7
100
AcDbBlockReference
  2
グループ-1
 10
452.22623248793673
 20
2077.1898157338278
 30
0.0
 41
0.5
 42
0.5
 43
0.5
  0
INSERT
  5
221
100
AcDbEntity
  8
cut
390
0
 62
               7
100
AcDbBlockReference
  2
グループ-2
 10
452.22623248793673
 20
2077.1898157338278
 30
0.0
 41
0.5
 42
0.5
 43
0.5
  0
MTEXT
  5
222
100
AcDbEntity
  8
notes
390
0
 62
               7
100
AcDbMText
 10
40.668462299338046
 20
-666.50160167036802
 30
0.0
 40
24.432617187500004
 41
860.90107042603313
 71
               1
 72
               1
  1
＝φ30もしくはφ35の水栓取付用穴あけ加工を承ります。\P  必要な場合、ご注文の際にご指示ください。
  7
ＭＳ ゴシック
 11
0.0
 21
1.0
 31
0.0
 73
               1
 44
1.0437689845677123
  0
MTEXT
  5
223
100
AcDbEntity
  8
notes
390
0
 62
               7
100
AcDbMText
 10
378.01906943587488
 20
218.20497717583976
 30
0.0
 40
24.432617187500004
 41
0.0
 71
               1
 72
               1
  1
壁取付ボルト穴(4ヶ所)
  7
ＭＳ ゴシック
 11
0.0
 21
1.0
 31
0.0
 73
               1
 44
0.7828267384257843
  0
LINE
  5
224
100
AcDbEntity
  8
notes
370
               5
390
0
  6
Continuous
 62
               7
100
AcDbLine
 10
497.91260331129467
 20
200.7489271569068
 30
0.0
 11
411.89711701807425
 21
239.46294768956568
 31
0.0
  0
MTEXT
  5
225
100
AcDbEntity
  8
notes
390
0
 62
               7
100
AcDbMText
 10
834.76949983057489
 20
-1030.5293159104294
 30
0.0
 40
24.432617187500004
 41
0.0
 71
               1
 72
               1
  1
半埋め込み
  7
ＭＳ ゴシック
 11
0.0
 21
1.0
 31
0.0
 73
               1
 44
0.7828267384257843
  0
MTEXT
  5
226
100
AcDbEntity
  8
notes
390
0
 62
               7
100
AcDbMText
 10
788.81148707633861
 20
-711.25882542845238
 30
0.0
 40
24.432617187500004
 41
0.0
 71
               1
 72
               1
  1
カウンター置き
  7
ＭＳ ゴシック
 11
0.0
 21
1.0
 31
0.0
 73
               1
 44
0.7828267384257843
  0
LINE
  5
227
100
AcDbEntity
  8
notes
370
               5
390
0
  6
Continuous
 62
               7
100
AcDbLine
 10
647.9932688431478
 20
-586.81715876178532
 30
0.0
 11
647.9932688431478
 21
-713.51715876178559
 31
0.0
  0
LINE
  5
228
100
AcDbEntity
  8
notes
370
               5
390
0
  6
Continuous
 62
               7
100
AcDbLine
 10
552.99326884314917
 20
-1013.7228633528798
 30
0.0
 11
824.40340996364489
 21
-1013.7228633528798
 31
0.0
  0
LINE
  5
229
100
AcDbEntity
  8
notes
370
               5
390
0
  6
Continuous
 62
               7
100
AcDbLine
 10
647.9932688431478
 20
-688.51715876178559
 30
0.0
 11
774.40340996364489
 21
-688.51715876178559
 31
0.0
  0
DIMENSION
  5
22A
100
AcDbEntity
  8
notes
370
               5
390
0
  6
Continuous
 62
               7
100
AcDbDimension
  2
*D10
 10
-641.4978543138144
 20
448.95064536137465
 30
0.0
 11
-391.49785431381417
 21
448.95064536137465
 31
0.0
 71
               5
 72
               1
 41
1.0
 42
0.0
  3
TformSENN
100
AcDbAlignedDimension
 13
-141.49785431381383
 23
342.9506453613742
 33
0.0
 14
-641.4978543138144
 24
345.95064536137465
 34
0.0
100
AcDbRotatedDimension
1001
ACAD
1000
DSTYLE
1002
{
1070
             279
1070
               2
1070
             340
1005
43
1070
             140
1040
24.432617187500004
1070
             147
1040
5.0
1002
}
  0
DIMENSION
  5
22B
100
AcDbEntity
  8
notes
370
               5
390
0
  6
Continuous
 62
               7
100
AcDbDimension
  2
*D11
 10
457.87114166134768
 20
448.9506453613742
 30
0.0
 11
565.86737452102011
 21
453.9506453613742
 31
0.0
 70
             128
 71
               5
 72
               1
 41
1.0
 42
0.0
  3
TformSENN
100
AcDbAlignedDimension
 13
647.87114166134654
 23
10.048927156906302
 33
0.0
 14
457.87114166134768
 24
345.05064536137411
 34
0.0
100
AcDbRotatedDimension
1001
ACAD
1000
DSTYLE
1002
{
1070
             279
1070
               2
1070
             340
1005
43
1070
             140
1040
24.432617187500004
1070
             147
1040
5.0
1002
}
  0
DIMENSION
  5
22C
100
AcDbEntity
  8
notes
370
               5
390
0
  6
Continuous
 62
               7
100
AcDbDimension
  2
*D12
 10
747.87114166134813
 20
13.948927156906393
 30
0.0
 11
747.87114166134813
 21
-271.05021374086073
 31
0.0
 71
               5
 72
               1
 41
1.0
 42
0.0
  3
TformSENN
100
AcDbAlignedDimension
 13
643.9711416613485
 23
-556.04935463862785
 33
0.0
 14
643.9711416613485
 24
13.948927156906393
 34
0.0
 50
90.0
100
AcDbRotatedDimension
1001
ACAD
1000
DSTYLE
1002
{
1070
             279
1070
               2
1070
             340
1005
43
1070
             140
1040
24.432617187500004
1070
             147
1040
5.0
1002
}
  0
CIRCLE
  5
22D
100
AcDbEntity
  8
notes
370
              15
390
0
  6
STYLE_23
 62
               7
100
AcDbCircle
 10
52.688307022126764
 20
-696.11844509665616
 30
0.0
 40
17.5
  0
DIMENSION
  5
22E
100
AcDbEntity
  8
notes
370
               5
390
0
  6
Continuous
 62
               7
100
AcDbDimension
  2
*D13
 10
-41.497854313813605
 20
-626.04935463862512
 30
0.0
 11
-41.497854313813605
 21
-276.04935463862512
 31
0.0
 71
               5
 72
               1
 41
1.0
 42
0.0
  3
TformSENN
100
AcDbAlignedDimension
 13
-141.4978543138136
 23
73.950645361374882
 33
0.0
 14
-141.4978543138136
 24
-626.04935463862512
 34
0.0
 50
90.0
100
AcDbRotatedDimension
1001
ACAD
1000
DSTYLE
1002
{
1070
             279
1070
               2
1070
             340
1005
43
1070
             140
1040
24.432617187500004
1070
             147
1040
5.0
1002
}
  0
DIMENSION
  5
22F
100
AcDbEntity
  8
notes
370
               5
390
0
  6
Continuous
 62
               7
100
AcDbDimension
  2
*D14
 10
377.87114166134768
 20
-759.25107284309343
 30
0.0
 11
377.87114166134768
 21
-589.25107284309343
 31
0.0
 71
               5
 72
               1
 41
1.0
 42
0.0
  3
TformSENN
100
AcDbAlignedDimension
 13
477.91260331129467
 23
-419.25107284309343
 33
0.0
 14
477.91260331129467
 24
-759.25107284309343
 34
0.0
 50
90.0
100
AcDbRotatedDimension
1001
ACAD
1000
DSTYLE
1002
{
1070
             279
1070
               2
1070
             340
1005
43
1070
             140
1040
24.432617187500004
1070
             147
1040
5.0
1002
}
  0
DIMENSION
  5
230
100
AcDbEntity
  8
notes
370
               5
390
0
  6
Continuous
 62
               7
100
AcDbDimension
  2
*D15
 10
377.87114166134768
 20
-419.25107284309343
 30
0.0
 11
377.87114166134768
 21
-279.25107284309343
 31
0.0
 71
               5
 72
               1
 41
1.0
 42
0.0
  3
TformSENN
100
AcDbAlignedDimension
 13
477.91260331129467
 23
-139.25107284309343
 33
0.0
 14
477.91260331129467
 24
-419.25107284309343
 34
0.0
 50
90.0
100
AcDbRotatedDimension
1001
ACAD
1000
DSTYLE
1002
{
1070
             279
1070
               2
1070
             340
1005
43
1070
             140
1040
24.432617187500004
1070
             147
1040
5.0
1002
}
  0
DIMENSION
  5
231
100
AcDbEntity
  8
notes
370
               5
390
0
  6
Continuous
 62
               7
100
AcDbDimension
  2
*D16
 10
377.87114166134768
 20
-139.25107284309343
 30
0.0
 11
377.87114166134768
 21
30.748927156906575
 31
0.0
 71
               5
 72
               1
 41
1.0
 42
0.0
  3
TformSENN
100
AcDbAlignedDimension
 13
477.91260331129467
 23
200.7489271569068
 33
0.0
 14
477.91260331129467
 24
-139.25107284309343
 34
0.0
 50
90.0
100
AcDbRotatedDimension
1001
ACAD
1000
DSTYLE
1002
{
1070
             279
1070
               2
1070
             340
1005
43
1070
             140
1040
24.432617187500004
1070
             147
1040
5.0
1002
}
  0
DIMENSION
  5
232
100
AcDbEntity
  8
notes
370
               5
390
0
  6
Continuous
 62
               7
100
AcDbDimension
  2
*D17
 10
-41.497854313813605
 20
-626.04935463862512
 30
0.0
 11
-41.497854313813605
 21
-763.54935463862466
 31
0.0
 71
               5
 72
               1
 41
1.0
 42
0.0
  3
TformSENN
100
AcDbAlignedDimension
 13
-147.4978543138136
 23
-901.04935463862466
 33
0.0
 14
-141.4978543138136
 24
-626.04935463862512
 34
0.0
 50
90.0
100
AcDbRotatedDimension
1001
ACAD
1000
DSTYLE
1002
{
1070
             279
1070
               2
1070
             340
1005
43
1070
             140
1040
27.147352430555557
1070
             147
1040
5.0
1002
}
  0
DIMENSION
  5
233
100
AcDbEntity
  8
notes
370
               5
390
0
  6
Continuous
 62
               7
100
AcDbDimension
  2
*D18
 10
-791.49785431381349
 20
-901.04935463862512
 30
0.0
 11
-796.49785431381349
 21
-276.04935463862512
 31
0.0
 70
             128
 71
               5
 72
               1
 41
1.0
 42
0.0
  3
TformSENN
100
AcDbAlignedDimension
 13
-638.4978543138144
 23
348.95064536137465
 33
0.0
 14
-638.49785431381349
 24
-901.04935463862512
 34
0.0
 50
90.0
100
AcDbRotatedDimension
1001
ACAD
1000
DSTYLE
1002
{
1070
             279
1070
               2
1070
             340
1005
43
1070
             140
1040
24.432617187500004
1070
             147
1040
5.0
1002
}
  0
DIMENSION
  5
234
100
AcDbEntity
  8
notes
370
               5
390
0
  6
Continuous
 62
               7
100
AcDbDimension
  2
*D19
 10
-733.59659003635522
 20
-476.04935463862512
 30
0.0
 11
-733.59659003635522
 21
-426.04935463862512
 31
0.0
 71
               5
 72
               1
 41
1.0
 42
0.0
  3
TformSENN
100
AcDbAlignedDimension
 13
-605.9499158143384
 23
-376.04935463862512
 33
0.0
 14
-593.44865153688022
 24
-476.04935463862512
 34
0.0
 50
90.0
100
AcDbRotatedDimension
1001
ACAD
1000
DSTYLE
1002
{
1070
             279
1070
               2
1070
             340
1005
43
1070
             140
1040
24.432617187500004
1070
             147
1040
5.0
1002
}
  0
DIMENSION
  5
235
100
AcDbEntity
  8
notes
370
               5
390
0
  6
Continuous
 62
               7
100
AcDbDimension
  2
*D20
 10
-733.59659003635522
 20
-376.04935463862512
 30
0.0
 11
-733.59659003635522
 21
-326.04935463862512
 31
0.0
 71
               5
 72
               1
 41
1.0
 42
0.0
  3
TformSENN
100
AcDbAlignedDimension
 13
-605.9499158143384
 23
-276.04935463862512
 33
0.0
 14
-593.44865153688022
 24
-376.04935463862512
 34
0.0
 50
90.0
100
AcDbRotatedDimension
1001
ACAD
1000
DSTYLE
1002
{
1070
             279
1070
               2
1070
             340
1005
43
1070
             140
1040
24.432617187500004
1070
             147
1040
5.0
1002
}
  0
DIMENSION
  5
236
100
AcDbEntity
  8
notes
370
               5
390
0
  6
Continuous
 62
               7
100
AcDbDimension
  2
*D21
 10
-733.59659003635522
 20
-276.04935463862512
 30
0.0
 11
-733.59659003635522
 21
-226.04935463862512
 31
0.0
 71
               5
 72
               1
 41
1.0
 42
0.0
  3
TformSENN
100
AcDbAlignedDimension
 13
-605.9499158143384
 23
-176.04935463862512
 33
0.0
 14
-593.44865153688022
 24
-276.04935463862512
 34
0.0
 50
90.0
100
AcDbRotatedDimension
1001
ACAD
1000
DSTYLE
1002
{
1070
             279
1070
               2
1070
             340
1005
43
1070
             140
1040
24.432617187500004
1070
             147
1040
5.0
1002
}
  0
DIMENSION
  5
237
100
AcDbEntity
  8
notes
370
               5
390
0
  6
Continuous
 62
               7
100
AcDbDimension
  2
*D22
 10
-733.59659003635522
 20
-176.04935463862512
 30
0.0
 11
-733.59659003635522
 21
-126.04935463862512
 31
0.0
 71
               5
 72
               1
 41
1.0
 42
0.0
  3
TformSENN
100
AcDbAlignedDimension
 13
-593.44865153688022
 23
-76.049354638625118
 33
0.0
 14
-593.44865153688022
 24
-176.04935463862512
 34
0.0
 50
90.0
100
AcDbRotatedDimension
1001
ACAD
1000
DSTYLE
1002
{
1070
             279
1070
               2
1070
             340
1005
43
1070
             140
1040
24.432617187500004
1070
             147
1040
5.0
1002
}
  0
DIMENSION
  5
238
100
AcDbEntity
  8
notes
370
               5
390
0
  6
Continuous
 62
               7
100
AcDbDimension
  2
*D23
 10
-641.49785431381349
 20
-1001.0493546386251
 30
0.0
 11
-576.49785431381349
 21
-1001.0493546386251
 31
0.0
 71
               5
 72
               1
 41
1.0
 42
0.0
  3
TformSENN
100
AcDbAlignedDimension
 13
-511.49785431381338
 23
-901.04935463862512
 33
0.0
 14
-641.49785431381349
 24
-898.04935463862512
 34
0.0
100
AcDbRotatedDimension
1001
ACAD
1000
DSTYLE
1002
{
1070
             279
1070
               2
1070
             340
1005
43
1070
             140
1040
24.432617187500004
1070
             147
1040
5.0
1002
}
  0
DIMENSION
  5
239
100
AcDbEntity
  8
notes
370
               5
390
0
  6
Continuous
 62
               7
100
AcDbDimension
  2
*D24
 10
-511.49785431381338
 20
-1001.0493546386251
 30
0.0
 11
-341.49785431381372
 21
-1001.0493546386251
 31
0.0
 71
               5
 72
               1
 41
1.0
 42
0.0
  3
TformSENN
100
AcDbAlignedDimension
 13
-171.49785431381406
 23
-901.04935463862512
 33
0.0
 14
-511.49785431381338
 24
-614.04935463862512
 34
0.0
100
AcDbRotatedDimension
1001
ACAD
1000
DSTYLE
1002
{
1070
             279
1070
               2
1070
             340
1005
43
1070
             140
1040
24.432617187500004
1070
             147
1040
5.0
1002
}
  0
DIMENSION
  5
23A
100
AcDbEntity
  8
notes
370
               5
390
0
  6
Continuous
 62
               7
100
AcDbDimension
  2
*D25
 10
497.91260331129467
 20
-1001.0493546386251
 30
0.0
 11
477.89187248632118
 21
-1001.0493546386251
 31
0.0
 71
               5
 72
               1
 41
1.0
 42
0.0
  3
TformSENN
100
AcDbAlignedDimension
 13
457.87114166134768
 23
-897.14935463862548
 33
0.0
 14
497.91260331129467
 24
-806.05107284309361
 34
0.0
100
AcDbRotatedDimension
1001
ACAD
1000
DSTYLE
1002
{
1070
             279
1070
               2
1070
             340
1005
43
1070
             140
1040
24.432617187500004
1070
             147
1040
5.0
1002
}
  0
LINE
  5
23B
100
AcDbEntity
  8
notes
370
               5
390
0
  6
Continuous
 62
               7
100
AcDbLine
 10
552.87114166134813
 20
-917.37286335287945
 30
0.0
 11
552.87114166134813
 21
-1044.0728633528802
 31
0.0
  0
DIMENSION
  5
23C
100
AcDbEntity
  8
notes
370
               5
390
0
  6
Continuous
 62
               7
100
AcDbDimension
  2
*D26
 10
747.78369036166748
 20
1187.7430805351316
 30
0.0
 11
747.78369036166748
 21
1087.7430805351319
 31
0.0
 71
               5
 72
               1
 41
1.0
 42
0.0
  3
tform線あり
100
AcDbAlignedDimension
 13
647.78369036166703
 23
987.74308053513187
 33
0.0
 14
643.86797268843645
 24
1187.7430805351316
 34
0.0
 50
90.0
100
AcDbRotatedDimension
1001
ACAD
1000
DSTYLE
1002
{
1070
             279
1070
               2
1070
             340
1005
43
1070
             140
1040
24.432617187500004
1070
             147
1040
5.0
1002
}
  0
DIMENSION
  5
23D
100
AcDbEntity
  8
notes
370
               5
390
0
  6
Continuous
 62
               7
100
AcDbDimension
  2
*D27
 10
797.84222871172062
 20
1187.7430805351273
 30
0.0
 11
797.84222871172062
 21
982.74308053512732
 31
0.0
 71
               5
 72
               1
 41
1.0
 42
0.0
  3
tform線あり
100
AcDbAlignedDimension
 13
643.86797268838279
 23
777.74308053512755
 33
0.0
 14
643.86797268838279
 24
1187.7430805351273
 34
0.0
 50
90.0
100
AcDbRotatedDimension
1001
ACAD
1000
DSTYLE
1002
{
1070
             279
1070
               2
1070
             340
1005
43
1070
             140
1040
24.432617187500004
1070
             147
1040
5.0
1002
}
  0
DIMENSION
  5
23E
100
AcDbEntity
  8
notes
370
               5
390
0
  6
Continuous
 62
               7
100
AcDbDimension
  2
*D28
 10
357.84222871172051
 20
1187.7430805351273
 30
0.0
 11
357.84222871172051
 21
1155.2430805351273
 31
0.0
 71
               5
 72
               1
 41
1.0
 42
0.0
  3
tform線あり
100
AcDbAlignedDimension
 13
457.90738352202925
 23
1122.7430805351273
 33
0.0
 14
460.86797268838291
 24
1187.7430805351273
 34
0.0
 50
90.0
100
AcDbRotatedDimension
1001
ACAD
1000
DSTYLE
1002
{
1070
             279
1070
               2
1070
             340
1005
43
1070
             140
1040
24.432617187500004
1070
             147
1040
5.0
1002
}
  0
DIMENSION
  5
23F
100
AcDbEntity
  8
notes
370
               5
390
0
  6
Continuous
 62
               7
100
AcDbDimension
  2
*D29
 10
457.94023195707291
 20
974.67692052673942
 30
0.0
 11
453.84222871172051
 21
979.67692052673942
 31
0.0
 70
             128
 71
               5
 72
               1
 41
1.0
 42
0.0
  3
tform線あり
100
AcDbAlignedDimension
 13
602.94023195707268
 23
1003.6769205267394
 33
0.0
 14
457.94023195707291
 24
1003.6769205267394
 34
0.0
100
AcDbRotatedDimension
1001
ACAD
1000
DSTYLE
1002
{
1070
             279
1070
               2
1070
             340
1005
43
1070
             140
1040
24.432617187500004
1070
               3
1000
<>(深さ)
1070
             174
1070
               0
1070
             147
1040
5.0
1002
}
  0
DIMENSION
  5
240
100
AcDbEntity
  8
notes
370
               5
390
0
  6
Continuous
 62
               7
100
AcDbDimension
  2
*D30
 10
457.86797268838291
 20
587.74308053512459
 30
0.0
 11
505.36797268838291
 21
587.74308053512459
 31
0.0
 71
               5
 72
               1
 41
1.0
 42
0.0
  3
tform線あり
100
AcDbAlignedDimension
 13
552.86797268838291
 23
692.74308053512459
 33
0.0
 14
457.86797268838291
 24
692.74308053512459
 34
0.0
100
AcDbRotatedDimension
1001
ACAD
1000
DSTYLE
1002
{
1070
             279
1070
               2
1070
             340
1005
43
1070
             140
1040
24.432617187500004
1070
             147
1040
5.0
1002
}
  0
DIMENSION
  5
241
100
AcDbEntity
  8
notes
370
               5
390
0
  6
Continuous
 62
               7
100
AcDbDimension
  2
*D31
 10
552.86797268838291
 20
587.74308053512459
 30
0.0
 11
600.36797268838291
 21
587.74308053512459
 31
0.0
 71
               5
 72
               1
 41
1.0
 42
0.0
  3
tform線あり
100
AcDbAlignedDimension
 13
647.86797268838279
 23
777.58997423916253
 33
0.0
 14
552.86797268838291
 24
692.74308053512459
 34
0.0
100
AcDbRotatedDimension
1001
ACAD
1000
DSTYLE
1002
{
1070
             279
1070
               2
1070
             340
1005
43
1070
             140
1040
24.432617187500004
1070
             147
1040
5.0
1002
}
  0
LINE
  5
242
100
AcDbEntity
  8
ADF70-0404
370
              15
390
0
  6
Continuous
 62
               7
100
AcDbLine
 10
-171.49785431381406
 20
-614.04935463862512
 30
0.0
 11
-171.4978543138136
 21
61.950645361374882
 31
0.0
  0
LINE
  5
243
100
AcDbEntity
  8
ADF70-0404
370
              15
390
0
  6
Continuous
 62
               7
100
AcDbLine
 10
-499.49785431381338
 20
-626.04935463862512
 30
0.0
 11
-183.49785431381406
 21
-626.04935463862512
 31
0.0
  0
LINE
  5
244
100
AcDbEntity
  8
ADF70-0404
370
              15
390
0
  6
Continuous
 62
               7
100
AcDbLine
 10
-183.4978543138136
 20
73.950645361374882
 30
0.0
 11
-499.49785431381338
 21
73.950645361374882
 31
0.0
  0
LINE
  5
245
100
AcDbEntity
  8
ADF70-0404
370
              15
390
0
  6
Continuous
 62
               7
100
AcDbLine
 10
-258.3679951872532
 20
-544.17921376518552
 30
0.0
 11
-490.4682537995343
 21
-544.17921376518507
 31
0.0
  0
SPLINE
  5
246
100
AcDbEntity
  8
ADF70-0404
370
              15
390
0
  6
Continuous
 62
               7
100
AcDbSpline
210
0.0
220
0.0
230
1.0
 70
               8
 71
               2
 72
              30
 73
              27
 74
               0
 42
0.000001
 43
0.000001
 40
0.0
 40
0.0
 40
0.0
 40
1.0
 40
1.0
 40
2.0
 40
3.0
 40
4.0
 40
5.0
 40
6.0
 40
7.0
 40
8.0
 40
9.0
 40
10.0
 40
11.0
 40
12.0
 40
13.0
 40
14.0
 40
15.0
 40
16.0
 40
17.0
 40
18.0
 40
19.0
 40
20.0
 40
21.0
 40
22.0
 40
22.0
 40
23.0
 40
23.0
 40
23.0
 10
-504.6603297048498
 20
-263.54935463862557
 30
0.0
 10
-504.73609477625973
 20
-263.54935463393031
 30
0.0
 10
-504.81185984766967
 20
-263.54935462923504
 30
0.0
 10
-505.61664756207597
 20
-263.86775564037225
 30
0.0
 10
-506.52876524334465
 20
-266.15779356761641
 30
0.0
 10
-507.03441123330617
 20
-268.264690313134
 30
0.0
 10
-507.4018462812794
 20
-270.77074336943178
 30
0.0
 10
-507.71149397899285
 20
-274.76590490306216
 30
0.0
 10
-507.61300133903046
 20
-278.64514163815375
 30
0.0
 10
-507.40185175508418
 20
-281.32790854102541
 30
0.0
 10
-507.03442579482021
 20
-283.83396928581169
 30
0.0
 10
-506.52874697545326
 20
-285.94087661277808
 30
0.0
 10
-505.60543147250269
 20
-288.22549917276638
 30
0.0
 10
-504.66034484902434
 20
-288.61529233609735
 30
0.0
 10
-503.70471059344277
 20
-288.2313915679124
 30
0.0
 10
-502.7919362948262
 20
-285.94095457466437
 30
0.0
 10
-502.28625241160739
 20
-283.83406834797643
 30
0.0
 10
-501.91882042813381
 20
-281.32802293468967
 30
0.0
 10
-501.609166783923
 20
-277.33286784219217
 30
0.0
 10
-501.70765519480597
 20
-273.45362905836646
 30
0.0
 10
-501.91880052816964
 20
-270.77085776339709
 30
0.0
 10
-502.28622955291689
 20
-268.26478937547199
 30
0.0
 10
-502.79187047900018
 20
-266.15787153125757
 30
0.0
 10
-503.71117037722456
 20
-263.87249833988062
 30
0.0
 10
-504.5087696052999
 20
-263.54936095267203
 30
0.0
 10
-504.5845346767062
 20
-263.54935779596099
 30
0.0
 10
-504.66029974811249
 20
-263.5493546392504
 30
0.0
  0
LINE
  5
247
100
AcDbEntity
  8
ADF70-0404
370
              15
390
0
  6
Continuous
 62
               7
100
AcDbLine
 10
-511.49785431381338
 20
61.950645361374882
 30
0.0
 11
-511.49785431381338
 21
-614.04935463862512
 31
0.0
  0
LINE
  5
248
100
AcDbEntity
  8
ADF70-0404
370
              15
390
0
  6
Continuous
 62
               7
100
AcDbLine
 10
-507.50703771971553
 20
-619.55379626762306
 30
0.0
 11
-495.4682537995343
 21
-544.17921376518507
 31
0.0
  0
LINE
  5
249
100
AcDbEntity
  8
ADF70-0404
370
              15
390
0
  6
Continuous
 62
               7
100
AcDbLine
 10
-253.3679951872532
 20
-539.17921376518552
 30
0.0
 11
-253.36799518725297
 21
-12.949354638625209
 31
0.0
  0
LINE
  5
24A
100
AcDbEntity
  8
ADF70-0404
370
              15
390
0
  6
Continuous
 62
               7
100
AcDbLine
 10
-495.4682537995343
 20
-539.17921376518507
 30
0.0
 11
-495.4682537995343
 21
-12.949354638625209
 31
0.0
  0
ARC
  5
24B
100
AcDbEntity
  8
ADF70-0404
370
              15
390
0
  6
Continuous
 62
               7
100
AcDbCircle
 10
-490.4682537995343
 20
-539.17921376518552
 30
0.0
 40
5.0
100
AcDbArc
 50
180.0
 51
270.0
  0
LINE
  5
24C
100
AcDbEntity
  8
ADF70-0404
370
              15
390
0
  6
Continuous
 62
               7
100
AcDbLine
 10
-641.49785431381349
 20
98.950645361375109
 30
0.0
 11
-641.4978543138144
 21
345.95064536137465
 31
0.0
  0
LINE
  5
24D
100
AcDbEntity
  8
ADF70-0404
370
              15
390
0
  6
Continuous
 62
               7
100
AcDbLine
 10
-638.4978543138144
 20
348.95064536137465
 30
0.0
 11
-147.49785431381383
 21
348.9506453613742
 31
0.0
  0
LINE
  5
24E
100
AcDbEntity
  8
ADF70-0404
370
              15
390
0
  6
Continuous
 62
               7
100
AcDbLine
 10
-641.49785431381349
 20
98.950645361375109
 30
0.0
 11
-641.49785431381349
 21
-651.04935463862512
 31
0.0
  0
LINE
  5
24F
100
AcDbEntity
  8
ADF70-0404
370
              15
390
0
  6
Continuous
 62
               7
100
AcDbLine
 10
-141.4978543138136
 20
-646.04935463862512
 30
0.0
 11
-141.49785431381383
 21
342.9506453613742
 31
0.0
  0
LINE
  5
250
100
AcDbEntity
  8
ADF70-0404
370
              15
390
0
  6
Continuous
 62
               7
100
AcDbLine
 10
-641.49785431381349
 20
-651.04935463862512
 30
0.0
 11
-641.49785431381349
 21
-898.04935463862512
 31
0.0
  0
LINE
  5
251
100
AcDbEntity
  8
ADF70-0404
370
              15
390
0
  6
Continuous
 62
               7
100
AcDbLine
 10
-638.49785431381349
 20
-901.04935463862512
 30
0.0
 11
-147.4978543138136
 21
-901.04935463862466
 31
0.0
  0
LINE
  5
252
100
AcDbEntity
  8
ADF70-0404
370
              15
390
0
  6
Continuous
 62
               7
100
AcDbLine
 10
-141.4978543138136
 20
-895.04935463862466
 30
0.0
 11
-141.4978543138136
 21
-646.04935463862512
 31
0.0
  0
CIRCLE
  5
253
100
AcDbEntity
  8
ADF70-0404
370
              15
390
0
  6
Continuous
 62
               7
100
AcDbCircle
 10
-441.49785431381429
 20
-276.04935463862512
 30
0.0
 40
39.0
  0
CIRCLE
  5
254
100
AcDbEntity
  8
ADF70-0404
370
              15
390
0
  6
Continuous
 62
               7
100
AcDbCircle
 10
-441.49785431381429
 20
-276.04935463862512
 30
0.0
 40
22.5
  0
ARC
  5
255
100
AcDbEntity
  8
ADF70-0404
370
              15
390
0
  6
Continuous
 62
               7
100
AcDbCircle
 10
-258.3679951872532
 20
-539.17921376518552
 30
0.0
 40
5.0
100
AcDbArc
 50
270.0
 51
0.0
  0
ARC
  5
256
100
AcDbEntity
  8
ADF70-0404
370
              15
390
0
  6
Continuous
 62
               7
100
AcDbCircle
 10
-638.49785431381349
 20
-898.04935463862512
 30
0.0
 40
3.0
100
AcDbArc
 50
180.0
 51
270.0
  0
ARC
  5
257
100
AcDbEntity
  8
ADF70-0404
370
              15
390
0
  6
Continuous
 62
               7
100
AcDbCircle
 10
-638.4978543138144
 20
345.95064536137465
 30
0.0
 40
3.0
100
AcDbArc
 50
90.0
 51
180.0
  0
ARC
  5
258
100
AcDbEntity
  8
ADF70-0404
370
              15
390
0
  6
Continuous
 62
               7
100
AcDbCircle
 10
-147.4978543138136
 20
-895.04935463862466
 30
0.0
 40
6.0
100
AcDbArc
 50
270.0
 51
0.0
  0
ARC
  5
259
100
AcDbEntity
  8
ADF70-0404
370
              15
390
0
  6
Continuous
 62
               7
100
AcDbCircle
 10
-147.49785431381383
 20
342.9506453613742
 30
0.0
 40
6.0
100
AcDbArc
 50
0.0
 51
90.0
  0
ARC
  5
25A
100
AcDbEntity
  8
ADF70-0404
370
              15
390
0
  6
Continuous
 62
               7
100
AcDbCircle
 10
-183.4978543138136
 20
61.950645361374882
 30
0.0
 40
12.0
100
AcDbArc
 50
0.0
 51
90.0
  0
ARC
  5
25B
100
AcDbEntity
  8
ADF70-0404
370
              15
390
0
  6
Continuous
 62
               7
100
AcDbCircle
 10
-499.49785431381338
 20
61.950645361374882
 30
0.0
 40
12.0
100
AcDbArc
 50
90.0
 51
180.0
  0
ARC
  5
25C
100
AcDbEntity
  8
ADF70-0404
370
              15
390
0
  6
Continuous
 62
               7
100
AcDbCircle
 10
-499.49785431381338
 20
-614.04935463862512
 30
0.0
 40
12.0
100
AcDbArc
 50
180.0
 51
270.0
  0
ARC
  5
25D
100
AcDbEntity
  8
ADF70-0404
370
              15
390
0
  6
Continuous
 62
               7
100
AcDbCircle
 10
-183.49785431381406
 20
-614.04935463862512
 30
0.0
 40
12.0
100
AcDbArc
 50
270.0
 51
0.0
  0
LINE
  5
25E
100
AcDbEntity
  8
ADF70-0404
370
              15
390
0
  6
Continuous
 62
               7
100
AcDbLine
 10
-177.99341268481589
 20
-619.55379626762306
 30
0.0
 11
-253.3679951872532
 21
-544.17921376518507
 31
0.0
  0
LINE
  5
25F
100
AcDbEntity
  8
ADF70-0404
370
              15
390
0
  6
Continuous
 62
               7
100
AcDbLine
 10
-258.36799518725297
 20
-7.9493546386252092
 30
0.0
 11
-490.4682537995343
 21
-7.9493546386252092
 31
0.0
  0
ARC
  5
260
100
AcDbEntity
  8
ADF70-0404
370
              15
390
0
  6
Continuous
 62
               7
100
AcDbCircle
 10
-258.36799518725297
 20
-12.949354638625209
 30
0.0
 40
5.0
100
AcDbArc
 50
0.0
 51
90.0
  0
ARC
  5
261
100
AcDbEntity
  8
ADF70-0404
370
              15
390
0
  6
Continuous
 62
               7
100
AcDbCircle
 10
-490.4682537995343
 20
-12.949354638625209
 30
0.0
 40
5.0
100
AcDbArc
 50
90.0
 51
180.0
  0
LINE
  5
262
100
AcDbEntity
  8
ADF70-0404
370
              15
390
0
  6
Continuous
 62
               7
100
AcDbLine
 10
-507.50703771971553
 20
67.425227863812552
 30
0.0
 11
-495.4682537995343
 21
-7.9493546386256639
 31
0.0
  0
LINE
  5
263
100
AcDbEntity
  8
ADF70-0404
370
              15
390
0
  6
Continuous
 62
               7
100
AcDbLine
 10
-177.99341268481589
 20
67.425227863812552
 30
0.0
 11
-253.3679951872532
 21
-7.9493546386256639
 31
0.0
  0
LINE
  5
264
100
AcDbEntity
  8
ADF70-0404
370
              15
390
0
  6
Continuous
 62
               7
100
AcDbLine
 10
461.77114166134777
 20
348.95064536137465
 30
0.0
 11
548.9711416613485
 21
348.95064536137465
 31
0.0
  0
LINE
  5
265
100
AcDbEntity
  8
ADF70-0404
370
              15
390
0
  6
Continuous
 62
               7
100
AcDbLine
 10
552.87114166134813
 20
-897.14936266428685
 30
0.0
 11
552.87114166134813
 21
-154.94935463862839
 31
0.0
  0
LINE
  5
266
100
AcDbEntity
  8
ADF70-0404
370
              15
390
0
  6
Continuous
 62
               7
100
AcDbLine
 10
457.87114166134768
 20
-897.14936266428685
 30
0.0
 11
457.87114166134722
 21
345.05064536137411
 31
0.0
  0
LINE
  5
267
100
AcDbEntity
  8
ADF70-0404
370
              15
390
0
  6
Continuous
 62
               7
100
AcDbLine
 10
647.87114166134654
 20
10.048927156906302
 30
0.0
 11
647.87114166134904
 21
-552.1493546386273
 31
0.0
  0
POLYLINE
  5
268
100
AcDbEntity
  8
ADF70-0404
370
              15
390
0
  6
Continuous
 62
               7
100
AcDb2dPolyline
 66
               1
 10
0.0
 20
0.0
 30
0.0
 75
               5
  0
VERTEX
  5
269
100
AcDbEntity
  8
ADF70-0404
370
              15
390
0
  6
Continuous
 62
               7
100
AcDbVertex
100
AcDb2dVertex
 10
643.9711416613485
 20
-556.0493546386283
 30
0.0
  0
VERTEX
  5
26A
100
AcDbEntity
  8
ADF70-0404
370
              15
390
0
  6
Continuous
 62
               7
100
AcDbVertex
100
AcDb2dVertex
 10
552.86605535338379
 20
-556.0493546386283
 30
0.0
  0
VERTEX
  5
26B
100
AcDbEntity
  8
ADF70-0404
370
              15
390
0
  6
Continuous
 62
               7
100
AcDbVertex
100
AcDb2dVertex
 10
552.86605535338379
 20
13.950645361371699
 30
0.0
  0
VERTEX
  5
26C
100
AcDbEntity
  8
ADF70-0404
370
              15
390
0
  6
Continuous
 62
               7
100
AcDbVertex
100
AcDb2dVertex
 10
643.9711416613485
 20
13.950645361371699
 30
0.0
  0
SEQEND
  5
26D
100
AcDbEntity
  8
ADF70-0404
370
              15
390
0
  6
Continuous
 62
               7
  0
ARC
  5
26E
100
AcDbEntity
  8
ADF70-0404
370
              15
390
0
  6
Continuous
 62
               7
100
AcDbCircle
 10
461.77114166134777
 20
-897.14935463862548
 30
0.0
 40
3.9000000000000892
100
AcDbArc
 50
180.0
 51
270.0
  0
ARC
  5
26F
100
AcDbEntity
  8
ADF70-0404
370
              15
390
0
  6
Continuous
 62
               7
100
AcDbCircle
 10
548.9711416613485
 20
-897.14935463862548
 30
0.0
 40
3.8999999999996362
100
AcDbArc
 50
270.0
 51
0.0
  0
ARC
  5
270
100
AcDbEntity
  8
ADF70-0404
370
              15
390
0
  6
Continuous
 62
               7
100
AcDbCircle
 10
461.77114166134777
 20
345.05064536137411
 30
0.0
 40
3.9000000000005457
100
AcDbArc
 50
90.0
 51
180.0
  0
ARC
  5
271
100
AcDbEntity
  8
ADF70-0404
370
              15
390
0
  6
Continuous
 62
               7
100
AcDbCircle
 10
548.97114166134804
 20
345.05064536137411
 30
0.0
 40
3.9000000000000909
100
AcDbArc
 50
0.0
 51
89.999999999993349
  0
ARC
  5
272
100
AcDbEntity
  8
ADF70-0404
370
              15
390
0
  6
Continuous
 62
               7
100
AcDbCircle
 10
643.97114166134804
 20
10.048927156907666
 30
0.0
 40
3.8999999999984993
100
AcDbArc
 50
359.99999999997993
 51
89.999999999993292
  0
ARC
  5
273
100
AcDbEntity
  8
ADF70-0404
370
              15
390
0
  6
Continuous
 62
               7
100
AcDbCircle
 10
643.9711416613485
 20
-552.1493546386273
 30
0.0
 40
3.9000000000005457
100
AcDbArc
 50
270.0
 51
0.0
  0
LINE
  5
274
100
AcDbEntity
  8
ADF70-0404
370
              15
390
0
  6
Continuous
 62
               7
100
AcDbLine
 10
461.77114166134777
 20
-901.04935463862512
 30
0.0
 11
548.9711416613485
 21
-901.04935463862512
 31
0.0
  0
LINE
  5
275
100
AcDbEntity
  8
ADF70-0404
370
              15
390
0
  6
Continuous
 62
               7
100
AcDbLine
 10
552.84556635921388
 20
345.49655259397991
 30
0.0
 11
552.84556635921388
 21
-237.31764278039736
 31
0.0
  0
LINE
  5
276
100
AcDbEntity
  8
ADF70-0404
370
              15
390
0
  6
Continuous
 62
               7
100
AcDbLine
 10
462.89671696348194
 20
348.95064536137465
 30
0.0
 11
547.84556635921388
 21
348.95064536137465
 31
0.0
  0
ARC
  5
277
100
AcDbEntity
  8
ADF70-0404
370
              15
390
0
  6
STYLE_23
 62
               7
100
AcDbCircle
 10
463.89671695283221
 20
-617.45462300907002
 30
0.0
 40
5.9999999893512834
100
AcDbArc
 50
124.99999990543
 51
179.99999994705601
  0
LINE
  5
278
100
AcDbEntity
  8
ADF70-0404
370
              15
390
0
  6
STYLE_23
 62
               7
100
AcDbLine
 10
577.39718533104713
 20
-530.65609207301623
 30
0.0
 11
552.84556635921388
 21
-547.84732072457609
 31
0.0
  0
ARC
  5
279
100
AcDbEntity
  8
ADF70-0404
370
              15
390
0
  6
STYLE_23
 62
               7
100
AcDbCircle
 10
557.32201002555428
 20
-501.98577045812544
 30
0.0
 40
35.000000072107767
100
AcDbArc
 50
304.99999998370657
 51
355.49781053149729
  0
LINE
  5
27A
100
AcDbEntity
  8
ADF70-0404
370
              15
390
0
  6
STYLE_23
 62
               7
100
AcDbLine
 10
601.86815633720414
 20
-316.24344640291883
 30
0.0
 11
592.2140118159208
 21
-504.73317215947918
 31
0.0
  0
INSERT
  5
27B
100
AcDbEntity
  8
ADF70-0404
390
0
 62
               7
100
AcDbBlockReference
  2
グループ-4
 10
452.22623248793673
 20
2077.1898157338278
 30
0.0
  0
LINE
  5
27C
100
AcDbEntity
  8
ADF70-0404
370
              15
390
0
  6
STYLE_23
 62
               7
100
AcDbLine
 10
603.02194267723405
 20
-313.4290816010739
 30
0.0
 11
603.02194267723405
 21
-238.66962767617451
 31
0.0
  0
ARC
  5
27D
100
AcDbEntity
  8
ADF70-0404
370
              15
390
0
  6
STYLE_23
 62
               7
100
AcDbCircle
 10
463.89671695283221
 20
75.204550909237014
 30
0.0
 40
5.99999998935027
100
AcDbArc
 50
180.00000005294399
 51
235.00000009457068
  0
LINE
  5
27E
100
AcDbEntity
  8
ADF70-0404
370
              15
390
0
  6
STYLE_23
 62
               7
100
AcDbLine
 10
577.39718533104713
 20
-11.593980026817007
 30
0.0
 11
552.84556635921388
 21
5.5972486247428606
 31
0.0
  0
ARC
  5
27F
100
AcDbEntity
  8
ADF70-0404
370
              15
390
0
  6
STYLE_23
 62
               7
100
AcDbCircle
 10
557.32201002555428
 20
-40.264301641707789
 30
0.0
 40
35.000000072107738
100
AcDbArc
 50
4.5021894685028059
 51
55.000000016293399
  0
LINE
  5
280
100
AcDbEntity
  8
ADF70-0404
370
              15
390
0
  6
STYLE_23
 62
               7
100
AcDbLine
 10
601.86815633720414
 20
-226.0066256969144
 30
0.0
 11
592.2140118159208
 21
-37.516899940354051
 31
0.0
  0
LINE
  5
281
100
AcDbEntity
  8
ADF70-0404
370
              15
390
0
  6
STYLE_23
 62
               7
100
AcDbLine
 10
460.45525834894613
 20
-612.53971074637866
 30
0.0
 11
552.84556635921388
 21
-547.84732072457609
 31
0.0
  0
LINE
  5
282
100
AcDbEntity
  8
ADF70-0404
370
              15
390
0
  6
STYLE_23
 62
               7
100
AcDbLine
 10
552.84556635921388
 20
5.5972486247428606
 30
0.0
 11
460.45525834894613
 21
70.289638646545654
 31
0.0
  0
LINE
  5
283
100
AcDbEntity
  8
ADF70-0404
370
              15
390
0
  6
STYLE_23
 62
               7
100
AcDbLine
 10
517.91260331129467
 20
-759.25107284309343
 30
0.0
 11
477.91260331129467
 21
-759.25107284309343
 31
0.0
  0
CIRCLE
  5
284
100
AcDbEntity
  8
ADF70-0404
370
              15
390
0
  6
STYLE_23
 62
               7
100
AcDbCircle
 10
-576.49659003635531
 20
-276.04935463862512
 30
0.0
 40
17.5
  0
CIRCLE
  5
285
100
AcDbEntity
  8
ADF70-0404
370
              15
390
0
  6
STYLE_23
 62
               7
100
AcDbCircle
 10
-576.49659003635531
 20
-176.04935463862512
 30
0.0
 40
17.5
  0
CIRCLE
  5
286
100
AcDbEntity
  8
ADF70-0404
370
              15
390
0
  6
STYLE_23
 62
               7
100
AcDbCircle
 10
-576.49659003635531
 20
-376.04935463862512
 30
0.0
 40
17.5
  0
CIRCLE
  5
287
100
AcDbEntity
  8
ADF70-0404
370
              15
390
0
  6
STYLE_23
 62
               7
100
AcDbCircle
 10
-576.49659003635531
 20
-476.04935463862512
 30
0.0
 40
17.5
  0
CIRCLE
  5
288
100
AcDbEntity
  8
ADF70-0404
370
              15
390
0
  6
STYLE_23
 62
               7
100
AcDbCircle
 10
-576.49659003635531
 20
-76.049354638625118
 30
0.0
 40
17.5
  0
LINE
  5
289
100
AcDbEntity
  8
ADF70-0404
370
              15
390
0
  6
STYLE_23
 62
               7
100
AcDbLine
 10
497.91260331129467
 20
-739.25107284309343
 30
0.0
 11
497.91260331129467
 21
-779.25107284309343
 31
0.0
  0
CIRCLE
  5
28A
100
AcDbEntity
  8
ADF70-0404
370
              15
390
0
  6
STYLE_23
 62
               7
100
AcDbCircle
 10
497.91260331129467
 20
-759.25107284309343
 30
0.0
 40
10.0
  0
LINE
  5
28B
100
AcDbEntity
  8
ADF70-0404
370
              15
390
0
  6
STYLE_23
 62
               7
100
AcDbLine
 10
497.91260331129467
 20
-399.25107284309343
 30
0.0
 11
497.91260331129467
 21
-439.25107284309343
 31
0.0
  0
CIRCLE
  5
28C
100
AcDbEntity
  8
ADF70-0404
370
              15
390
0
  6
STYLE_23
 62
               7
100
AcDbCircle
 10
497.91260331129467
 20
-419.25107284309343
 30
0.0
 40
10.0
  0
LINE
  5
28D
100
AcDbEntity
  8
ADF70-0404
370
              15
390
0
  6
STYLE_23
 62
               7
100
AcDbLine
 10
517.91260331129467
 20
-419.25107284309343
 30
0.0
 11
477.91260331129467
 21
-419.25107284309343
 31
0.0
  0
LINE
  5
28E
100
AcDbEntity
  8
ADF70-0404
370
              15
390
0
  6
STYLE_23
 62
               7
100
AcDbLine
 10
497.91260331129467
 20
-119.25107284309343
 30
0.0
 11
497.91260331129467
 21
-159.25107284309343
 31
0.0
  0
CIRCLE
  5
28F
100
AcDbEntity
  8
ADF70-0404
370
              15
390
0
  6
STYLE_23
 62
               7
100
AcDbCircle
 10
497.91260331129467
 20
-139.25107284309343
 30
0.0
 40
10.0
  0
LINE
  5
290
100
AcDbEntity
  8
ADF70-0404
370
              15
390
0
  6
STYLE_23
 62
               7
100
AcDbLine
 10
517.91260331129467
 20
-139.25107284309343
 30
0.0
 11
477.91260331129467
 21
-139.25107284309343
 31
0.0
  0
LINE
  5
291
100
AcDbEntity
  8
ADF70-0404
370
              15
390
0
  6
STYLE_23
 62
               7
100
AcDbLine
 10
497.91260331129467
 20
220.7489271569068
 30
0.0
 11
497.91260331129467
 21
180.7489271569068
 31
0.0
  0
CIRCLE
  5
292
100
AcDbEntity
  8
ADF70-0404
370
              15
390
0
  6
STYLE_23
 62
               7
100
AcDbCircle
 10
497.91260331129467
 20
200.7489271569068
 30
0.0
 40
10.0
  0
LINE
  5
293
100
AcDbEntity
  8
ADF70-0404
370
              15
390
0
  6
STYLE_23
 62
               7
100
AcDbLine
 10
517.91260331129467
 20
200.7489271569068
 30
0.0
 11
477.91260331129467
 21
200.7489271569068
 31
0.0
  0
LINE
  5
294
100
AcDbEntity
  8
ADF70-0404
370
              15
390
0
  6
Continuous
 62
               7
100
AcDbLine
 10
457.86797349418066
 20
1184.7452793543389
 30
0.0
 11
457.86797349418066
 21
712.62278779967119
 31
0.0
  0
LINE
  5
295
100
AcDbEntity
  8
ADF70-0404
370
              15
390
0
  6
STYLE_23
 62
               7
100
AcDbLine
 10
615.02249263225258
 20
1010.7578877497021
 30
0.0
 11
615.04737565478445
 21
964.75792775947207
 31
0.0
  0
LINE
  5
296
100
AcDbEntity
  8
ADF70-0404
370
              15
390
0
  6
STYLE_23
 62
               7
100
AcDbLine
 10
601.80719077367121
 20
947.53955409083687
 30
0.0
 11
601.80719077367121
 21
1027.9466070276781
 31
0.0
  0
LINE
  5
297
100
AcDbEntity
  8
ADF70-0404
370
              15
390
0
  6
Continuous
 62
               7
100
AcDbLine
 10
647.86797268838279
 20
1183.7430805351273
 30
0.0
 11
647.86797268838279
 21
777.58997423916253
 31
0.0
  0
LWPOLYLINE
  5
298
100
AcDbEntity
  8
ADF70-0404
370
              15
390
0
  6
Continuous
 62
               7
100
AcDbPolyline
 90
        2
 70
             129
 10
538.44391751177045
 20
759.95528940350005
 42
-0.000042770669138
 10
538.44433793316148
 20
759.95558378571104
  0
LWPOLYLINE
  5
299
100
AcDbEntity
  8
ADF70-0404
370
              15
390
0
  6
STYLE_23
 62
               7
100
AcDbPolyline
 90
        5
 70
             128
 10
601.80719077367121
 20
947.53955409083687
 10
592.18526754084178
 20
825.34112908418274
 42
-0.2239746283263792
 10
577.3684410559481
 20
799.4182091706457
 10
460.42651407386893
 20
717.5345904972778
 42
0.2446984434215539
 10
457.86797268838291
 20
712.61967824013823
 42
0.2446984434215539
  0
ARC
  5
29A
100
AcDbEntity
  8
ADF70-0404
370
              15
390
0
  6
STYLE_23
 62
               7
100
AcDbCircle
 10
606.79119930527122
 20
947.13998084309605
 30
0.0
 40
4.9999999823369663
100
AcDbArc
 50
139.99999981291836
 51
175.41634017602405
  0
LINE
  5
29B
100
AcDbEntity
  8
ADF70-0404
370
              15
390
0
  6
STYLE_23
 62
               7
100
AcDbLine
 10
615.04737565478445
 20
964.75792775947207
 30
0.0
 11
602.96097711370112
 21
950.35391889268203
 31
0.0
  0
LINE
  5
29C
100
AcDbEntity
  8
ADF70-0404
370
              15
390
0
  6
STYLE_23
 62
               7
100
AcDbLine
 10
647.85163774776163
 20
964.75792775947207
 30
0.0
 11
615.04737565478445
 21
964.75792775947207
 31
0.0
  0
ARC
  5
29D
100
AcDbEntity
  8
ADF70-0404
370
              15
390
0
  6
Continuous
 62
               7
100
AcDbCircle
 10
644.86797269078932
 20
777.58997424142262
 30
0.0
 40
2.9999999975937457
100
AcDbArc
 50
272.99999997294879
 51
359.99999995683538
  0
LINE
  5
29E
100
AcDbEntity
  8
ADF70-0404
370
              15
390
0
  6
Continuous
 62
               7
100
AcDbLine
 10
572.11829090489209
 20
770.77320791938791
 30
0.0
 11
645.02498055797776
 21
774.59408563948773
 31
0.0
  0
ARC
  5
29F
100
AcDbEntity
  8
ADF70-0404
370
              15
390
0
  6
Continuous
 62
               7
100
AcDbCircle
 10
573.16501002890072
 20
750.80061723842391
 30
0.0
 40
19.999999985847388
100
AcDbArc
 50
92.999999999685727
 51
180.00000000000063
  0
ARC
  5
2A0
100
AcDbEntity
  8
ADF70-0404
370
              15
390
0
  6
Continuous
 62
               7
100
AcDbCircle
 10
548.16501004305337
 20
692.74308053512482
 30
0.0
 40
5.0000000000002274
100
AcDbArc
 50
270.0
 51
359.99999999999739
  0
LINE
  5
2A1
100
AcDbEntity
  8
ADF70-0404
370
              15
390
0
  6
Continuous
 62
               7
100
AcDbLine
 10
462.86797268838291
 20
687.74308053512459
 30
0.0
 11
548.16501004305337
 21
687.74308053512459
 31
0.0
  0
ARC
  5
2A2
100
AcDbEntity
  8
ADF70-0404
370
              15
390
0
  6
Continuous
 62
               7
100
AcDbCircle
 10
462.86797268838291
 20
692.74308053512459
 30
0.0
 40
5.0
100
AcDbArc
 50
180.0
 51
270.0
  0
LINE
  5
2A3
100
AcDbEntity
  8
ADF70-0404
370
              15
390
0
  6
Continuous
 62
               7
100
AcDbLine
 10
457.86797268838291
 20
712.61967820961536
 30
0.0
 11
457.86797268838291
 21
692.74308053512459
 31
0.0
  0
ARC
  5
2A4
100
AcDbEntity
  8
ADF70-0404
370
              15
390
0
  6
Continuous
 62
               7
100
AcDbCircle
 10
643.92607573944849
 20
1183.8833537090127
 30
0.0
 40
3.8601641334015464
100
AcDbArc
 50
357.91748992108882
 51
90.86244657060594
  0
LINE
  5
2A5
100
AcDbEntity
  8
ADF70-0404
370
              15
390
0
  6
Continuous
 62
               7
100
AcDbLine
 10
643.86797268838279
 20
1187.7430805351273
 30
0.0
 11
460.86797268838291
 21
1187.7430805351273
 31
0.0
  0
LINE
  5
2A6
100
AcDbEntity
  8
ADF70-0404
370
              15
390
0
  6
STYLE_23
 62
               7
100
AcDbLine
 10
615.02249263225258
 20
1010.7578877497021
 30
0.0
 11
647.78369036166703
 21
1010.7578877497021
 31
0.0
  0
LINE
  5
2A7
100
AcDbEntity
  8
ADF70-0404
370
              15
390
0
  6
STYLE_23
 62
               7
100
AcDbLine
 10
602.9609771135847
 20
1025.1322421916725
 30
0.0
 11
615.02249263225258
 21
1010.7578877497021
 31
0.0
  0
ARC
  5
2A8
100
AcDbEntity
  8
ADF70-0404
370
              15
390
0
  6
STYLE_23
 62
               7
100
AcDbCircle
 10
606.79119931680998
 20
1028.3461802410125
 30
0.0
 40
4.9999999911074893
100
AcDbArc
 50
184.5836597359683
 51
220.00000009907629
  0
LWPOLYLINE
  5
2A9
100
AcDbEntity
  8
ADF70-0404
370
              15
390
0
  6
STYLE_23
 62
               7
100
AcDbPolyline
 90
        5
 70
             128
 10
457.86797268838291
 20
1063.4368679431959
 42
0.3989595460547641
 10
463.55395695262723
 20
1057.4450907283995
 10
582.69666454299022
 20
1051.2010859979443
 42
-0.3735177227341959
 10
601.41516504656192
 20
1032.8364730031631
 10
601.807190775854
 20
1027.9466070002259
  0
LINE
  5
2AA
100
AcDbEntity
  8
ADF70-0404
370
              15
390
0
  6
Continuous
 62
               7
100
AcDbLine
 10
457.98369036166696
 20
1105.2430805351273
 30
0.0
 11
472.98369036166696
 21
1105.2430805351273
 31
0.0
  0
LINE
  5
2AB
100
AcDbEntity
  8
ADF70-0404
370
              15
390
0
  6
Continuous
 62
               7
100
AcDbLine
 10
457.88369036166705
 20
1140.2430805351273
 30
0.0
 11
472.88369036166705
 21
1140.2430805351273
 31
0.0
  0
ARC
  5
2AC
100
AcDbEntity
  8
ADF70-0404
370
              15
390
0
  6
Continuous
 62
               7
100
AcDbCircle
 10
460.86797268838291
 20
1184.7430805351273
 30
0.0
 40
3.0
100
AcDbArc
 50
90.0
 51
180.0
  0
LINE
  5
2AD
100
AcDbEntity
  8
ADF70-0404
370
              15
390
0
  6
Continuous
 62
               7
100
AcDbLine
 10
553.16501004305337
 20
692.74308053512459
 30
0.0
 11
553.16501004305337
 21
1187.7430805351273
 31
0.0
  0
ENDSEC
  0
SECTION
  2
OBJECTS
  0
DICTIONARY
  5
19
100
AcDbDictionary
280
               0
281
               1
  3
ACAD_GROUP
350
1A
  3
ACAD_MLINESTYLE
350
1B
  3
ACAD_LAYOUT
350
1E
  3
ACAD_PLOTSETTINGS
350
22
  3
ACAD_PLOTSTYLENAME
350
1F
  0
DICTIONARY
  5
1A
102
{ACAD_REACTORS
330
19
102
}
100
AcDbDictionary
280
               0
281
               1
  0
DICTIONARY
  5
1B
102
{ACAD_REACTORS
330
19
102
}
100
AcDbDictionary
280
               0
281
               1
  3
Standard
350
1C
  0
MLINESTYLE
  5
1C
102
{ACAD_REACTORS
330
1B
102
}
100
AcDbMlineStyle
  2
Standard
 70
               0
  3

 62
               0
 51
90.0
 52
90.0
 71
               2
 49
0.5
 62
             256
  6
ByLayer
 49
-0.5
 62
             256
  6
ByLayer
  0
ACDBDICTIONARYWDFLT
  5
1F
102
{ACAD_REACTORS
330
19
102
}
100
AcDbDictionary
281
               1
  3
Normal
350
1D
100
AcDbDictionaryWithDefault
340
1D
  0
ACDBPLACEHOLDER
  5
1D
102
{ACAD_REACTORS
330
1F
102
}
  0
LAYOUT
  5
20
102
{ACAD_REACTORS
330
1E
102
}
100
AcDbPlotSettings
  1

  2

  4

  6

 40
0.0
 41
0.0
 42
0.0
 43
0.0
 44
0.0
 45
0.0
 46
0.0
 47
0.0
 48
0.0
 49
0.0
140
0.0
141
0.0
142
1.0
143
1.0
 70
            1024
 72
               0
 73
               0
 74
               0
  7

 75
               0
147
1.0
148
0.0
149
0.0
100
AcDbLayout
  1
Model
 70
               0
 71
               0
 10
0.0
 20
0.0
 11
0.0
 21
0.0
 12
0.0
 22
0.0
 32
0.0
 14
0.0
 24
0.0
 34
0.0
 15
0.0
 25
0.0
 35
0.0
146
0.0
 13
0.0
 23
0.0
 33
0.0
 16
0.0
 26
0.0
 36
0.0
 17
0.0
 27
0.0
 37
0.0
 76
               0
330
A
331
0
345
0
346
0
  0
LAYOUT
  5
21
102
{ACAD_REACTORS
330
1E
102
}
100
AcDbPlotSettings
  1

  2

  4

  6

 40
0.0
 41
0.0
 42
0.0
 43
0.0
 44
0.0
 45
0.0
 46
0.0
 47
0.0
 48
0.0
 49
0.0
140
0.0
141
0.0
142
1.0
143
1.0
 70
               0
 72
               0
 73
               0
 74
               0
  7

 75
               0
147
1.0
148
0.0
149
0.0
100
AcDbLayout
  1
Layout1
 70
               0
 71
               0
 10
0.0
 20
0.0
 11
0.0
 21
0.0
 12
0.0
 22
0.0
 32
0.0
 14
0.0
 24
0.0
 34
0.0
 15
0.0
 25
0.0
 35
0.0
146
0.0
 13
0.0
 23
0.0
 33
0.0
 16
0.0
 26
0.0
 36
0.0
 17
0.0
 27
0.0
 37
0.0
 76
               0
330
B
331
0
345
0
346
0
  0
DICTIONARY
  5
1E
102
{ACAD_REACTORS
330
19
102
}
100
AcDbDictionary
280
               0
281
               1
  3
Layout1
350
21
  3
Model
350
20
  0
DICTIONARY
  5
22
102
{ACAD_REACTORS
330
19
102
}
100
AcDbDictionary
280
               0
281
               1
  0
ENDSEC
  0
EOF
