  0
SECTION
  2
HEADER
  9
$ACADVER
  1
AC1015
  9
$ACADMAINTVER
 70
               6
  9
$DWGCODEPAGE
  3
ANSI_932
  9
$INSBASE
 10
0.0
 20
0.0
 30
0.0
  9
$EXTMIN
 10
-975.00000000024102
 20
-1431.5255224711129
 30
-14.834305555555554
  9
$EXTMAX
 10
975.00000000024102
 20
1405.9972926412993
 30
14.834305555555554
  9
$LIMMIN
 10
0.0
 20
0.0
  9
$LIMMAX
 10
0.0
 20
0.0
  9
$ORTHOMODE
 70
               0
  9
$REGENMODE
 70
               1
  9
$FILLMODE
 70
               1
  9
$QTEXTMODE
 70
               0
  9
$MIRRTEXT
 70
               1
  9
$LTSCALE
 40
50.799999999999997
  9
$ATTMODE
 70
               1
  9
$TEXTSIZE
 40
0.2
  9
$TRACEWID
 40
1.0
  9
$TEXTSTYLE
  7
Standard
  9
$CLAYER
  8
template
  9
$CELTYPE
  6
Continuous
  9
$CECOLOR
 62
             256
  9
$CELTSCALE
 40
1.0
  9
$DISPSILH
 70
               0
  9
$DIMSCALE
 40
1.0
  9
$DIMASZ
 40
31.75
  9
$DIMEXO
 40
0.0
  9
$DIMDLI
 40
6.9999999999999396
  9
$DIMRND
 40
0.0
  9
$DIMDLE
 40
0.0
  9
$DIMEXE
 40
19.999999999996199
  9
$DIMTP
 40
0.0
  9
$DIMTM
 40
0.0
  9
$DIMTXT
 40
24.432617187500004
  9
$DIMCEN
 40
0.0
  9
$DIMTSZ
 40
0.0
  9
$DIMTOL
 70
               0
  9
$DIMLIM
 70
               0
  9
$DIMTIH
 70
               0
  9
$DIMTOH
 70
               0
  9
$DIMSE1
 70
               0
  9
$DIMSE2
 70
               0
  9
$DIMTAD
 70
               1
  9
$DIMZIN
 70
              11
  9
$DIMBLK
  1
VW_FILLEDARROW
  9
$DIMASO
 70
               1
  9
$DIMSHO
 70
               1
  9
$DIMPOST
  1
<>
  9
$DIMAPOST
  1
[]
  9
$DIMALT
 70
               0
  9
$DIMALTD
 70
               1
  9
$DIMALTF
 40
1.0
  9
$DIMLFAC
 40
1.0
  9
$DIMTOFL
 70
               0
  9
$DIMTVP
 40
0.0
  9
$DIMTIX
 70
               1
  9
$DIMSOXD
 70
               0
  9
$DIMSAH
 70
               0
  9
$DIMBLK1
  1

  9
$DIMBLK2
  1

  9
$DIMSTYLE
  2
JIS
  9
$DIMCLRD
 70
               0
  9
$DIMCLRE
 70
               0
  9
$DIMCLRT
 70
               0
  9
$DIMTFAC
 40
1.0
  9
$DIMGAP
 40
1.00000000000108
  9
$DIMJUST
 70
               0
  9
$DIMSD1
 70
               0
  9
$DIMSD2
 70
               0
  9
$DIMTOLJ
 70
               1
  9
$DIMTZIN
 70
              11
  9
$DIMALTZ
 70
              11
  9
$DIMALTTZ
 70
              11
  9
$DIMUPT
 70
               0
  9
$DIMDEC
 70
               1
  9
$DIMTDEC
 70
               1
  9
$DIMALTU
 70
               2
  9
$DIMALTTD
 70
               2
  9
$DIMTXSTY
  7
ＭＳ ゴシック
  9
$DIMAUNIT
 70
               0
  9
$DIMADEC
 70
               2
  9
$DIMALTRND
 40
0.0
  9
$DIMAZIN
 70
               0
  9
$DIMDSEP
 70
              46
  9
$DIMATFIT
 70
               0
  9
$DIMFRAC
 70
               2
  9
$DIMLDRBLK
  1

  9
$DIMLUNIT
 70
               2
  9
$DIMLWD
 70
              -2
  9
$DIMLWE
 70
              -2
  9
$DIMTMOVE
 70
               0
  9
$LUNITS
 70
               2
  9
$LUPREC
 70
               4
  9
$SKETCHINC
 40
0.1
  9
$FILLETRAD
 40
0.0
  9
$AUNITS
 70
               0
  9
$AUPREC
 70
               0
  9
$MENU
  1
acad
  9
$ELEVATION
 40
0.0
  9
$PELEVATION
 40
0.0
  9
$THICKNESS
 40
0.0
  9
$LIMCHECK
 70
               0
  9
$CHAMFERA
 40
0.0
  9
$CHAMFERB
 40
0.0
  9
$CHAMFERC
 40
0.0
  9
$CHAMFERD
 40
0.0
  9
$SKPOLY
 70
               0
  9
$TDCREATE
 40
2455840.724062500
  9
$TDUCREATE
 40
0.000000000
  9
$TDUPDATE
 40
2455840.724062500
  9
$TDUUPDATE
 40
0.000000000
  9
$TDINDWG
 40
0.0000000000
  9
$TDUSRTIMER
 40
0.0000000000
  9
$USRTIMER
 70
               1
  9
$ANGBASE
 50
0.0
  9
$ANGDIR
 70
               0
  9
$PDMODE
 70
               1
  9
$PDSIZE
 40
-2.0
  9
$PLINEWID
 40
0.0
  9
$SPLFRAME
 70
               0
  9
$SPLINETYPE
 70
               6
  9
$SPLINESEGS
 70
               8
  9
$HANDSEED
  5
27A
  9
$SURFTAB1
 70
               6
  9
$SURFTAB2
 70
               6
  9
$SURFTYPE
 70
               6
  9
$SURFU
 70
               6
  9
$SURFV
 70
               6
  9
$UCSBASE
  2

  9
$UCSNAME
  2

  9
$UCSORG
 10
0.0
 20
0.0
 30
0.0
  9
$UCSXDIR
 10
1.0
 20
0.0
 30
0.0
  9
$UCSYDIR
 10
0.0
 20
1.0
 30
0.0
  9
$UCSORTHOREF
  2

  9
$UCSORTHOVIEW
 70
               0
  9
$UCSORGTOP
 10
0.0
 20
0.0
 30
0.0
  9
$UCSORGBOTTOM
 10
0.0
 20
0.0
 30
0.0
  9
$UCSORGLEFT
 10
0.0
 20
0.0
 30
0.0
  9
$UCSORGRIGHT
 10
0.0
 20
0.0
 30
0.0
  9
$UCSORGFRONT
 10
0.0
 20
0.0
 30
0.0
  9
$UCSORGBACK
 10
0.0
 20
0.0
 30
0.0
  9
$PUCSBASE
  2

  9
$PUCSNAME
  2

  9
$PUCSORG
 10
0.0
 20
0.0
 30
0.0
  9
$PUCSXDIR
 10
1.0
 20
0.0
 30
0.0
  9
$PUCSYDIR
 10
0.0
 20
1.0
 30
0.0
  9
$PUCSORTHOREF
  2

  9
$PUCSORTHOVIEW
 70
               0
  9
$PUCSORGTOP
 10
0.0
 20
0.0
 30
0.0
  9
$PUCSORGBOTTOM
 10
0.0
 20
0.0
 30
0.0
  9
$PUCSORGLEFT
 10
0.0
 20
0.0
 30
0.0
  9
$PUCSORGRIGHT
 10
0.0
 20
0.0
 30
0.0
  9
$PUCSORGFRONT
 10
0.0
 20
0.0
 30
0.0
  9
$PUCSORGBACK
 10
0.0
 20
0.0
 30
0.0
  9
$USERI1
 70
               0
  9
$USERI2
 70
               0
  9
$USERI3
 70
               0
  9
$USERI4
 70
               0
  9
$USERI5
 70
               0
  9
$USERR1
 40
0.0
  9
$USERR2
 40
0.0
  9
$USERR3
 40
0.0
  9
$USERR4
 40
0.0
  9
$USERR5
 40
0.0
  9
$WORLDVIEW
 70
               1
  9
$SHADEDGE
 70
               3
  9
$SHADEDIF
 70
              70
  9
$TILEMODE
 70
               1
  9
$MAXACTVP
 70
              64
  9
$PINSBASE
 10
0.0
 20
0.0
 30
0.0
  9
$PLIMCHECK
 70
               0
  9
$PEXTMIN
 10
1.0000000000000000E+20
 20
1.0000000000000000E+20
 30
1.0000000000000000E+20
  9
$PEXTMAX
 10
-1.0000000000000000E+20
 20
-1.0000000000000000E+20
 30
-1.0000000000000000E+20
  9
$PLIMMIN
 10
0.0
 20
0.0
  9
$PLIMMAX
 10
12.0
 20
9.0
  9
$UNITMODE
 70
               0
  9
$VISRETAIN
 70
               0
  9
$PLINEGEN
 70
               1
  9
$PSLTSCALE
 70
               0
  9
$TREEDEPTH
 70
            3020
  9
$CMLSTYLE
  2
Standard
  9
$CMLJUST
 70
               0
  9
$CMLSCALE
 40
1.0
  9
$PROXYGRAPHICS
 70
               0
  9
$MEASUREMENT
 70
               1
  9
$CELWEIGHT
370
               0
  9
$ENDCAPS
280
               0
  9
$JOINSTYLE
280
               0
  9
$LWDISPLAY
290
               1
  9
$INSUNITS
 70
               4
  9
$HYPERLINKBASE
  1

  9
$STYLESHEET
  1

  9
$XEDIT
290
               1
  9
$CEPSNTYPE
380
               0
  9
$PSTYLEMODE
290
               1
  9
$FINGERPRINTGUID
  2

  9
$VERSIONGUID
  2

  9
$EXTNAMES
290
               1
  9
$PSVPSCALE
 40
0.0
  0
ENDSEC
  0
SECTION
  2
CLASSES
  0
CLASS
  1
LWPOLYLINE
  2
AcDbPolyline
  3
AutoCAD 2000
 90
        0
280
               0
281
               1
  0
CLASS
  1
IMAGE
  2
AcDbRasterImage
  3
ISM
 90
      127
280
               0
281
               1
  0
CLASS
  1
OLE2FRAME
  2
AcDbOle2Frame
  3
AutoCAD 2000
 90
        0
280
               0
281
               1
  0
CLASS
  1
HATCH
  2
AcDbHatch
  3
AutoCAD 2000
 90
        0
280
               0
281
               1
  0
CLASS
  1
DICTIONARYVAR
  2
AcDbDictionaryVar
  3
AutoCAD 2000
 90
        0
280
               0
281
               0
  0
CLASS
  1
RASTERVARIABLES
  2
AcDbRasterVariables
  3
ISM
 90
        0
280
               0
281
               0
  0
CLASS
  1
IMAGEDEF
  2
AcDbRasterImageDef
  3
ISM
 90
        0
280
               0
281
               0
  0
CLASS
  1
IMAGEDEF_REACTOR
  2
AcDbRasterImageDefReactor
  3
ISM
 90
        1
280
               0
281
               0
  0
CLASS
  1
IDBUFFER
  2
AcDbIdBuffer
  3
AutoCAD 2000
 90
        0
280
               0
281
               0
  0
CLASS
  1
SPATIAL_FILTER
  2
AcDbSpatialFilter
  3
AutoCAD 2000
 90
        0
280
               0
281
               0
  0
CLASS
  1
XRECORD
  2
AcDbXrecord
  3
AutoCAD 2000
 90
        0
280
               0
281
               0
  0
CLASS
  1
SORTENTSTABLE
  2
AcDbSortentsTable
  3
AutoCAD 2000
 90
        0
280
               0
281
               0
  0
CLASS
  1
LAYER_INDEX
  2
AcDbLayerIndex
  3
AutoCAD 2000
 90
        0
280
               0
281
               0
  0
CLASS
  1
SPATIAL_INDEX
  2
AcDbSpatialIndex
  3
AutoCAD 2000
 90
        0
280
               0
281
               0
  0
CLASS
  1
OBJECT_PTR
  2
CAseDLPNTableRecord
  3
"ASE-LPNTableRecord"
 90
        1
280
               0
281
               0
  0
CLASS
  1
LAYOUT
  2
AcDbLayout
  3
AutoCAD 2000
 90
        0
280
               0
281
               0
  0
CLASS
  1
PLOTSETTINGS
  2
AcDbPlotSettings
  3
AutoCAD 2000
 90
        0
280
               0
281
               0
  0
CLASS
  1
ACDBDICTIONARYWDFLT
  2
AcDbDictionaryWithDefault
  3
AutoCAD 2000
 90
        0
280
               0
281
               0
  0
CLASS
  1
ACDBPLACEHOLDER
  2
AcDbPlaceHolder
  3
AutoCAD 2000
 90
        0
280
               0
281
               0
  0
ENDSEC
  0
SECTION
  2
TABLES
  0
TABLE
  2
VPORT
  5
7
100
AcDbSymbolTable
 70
               1
  0
VPORT
  5
15
100
AcDbSymbolTableRecord
100
AcDbViewportTableRecord
  2
*ACTIVE
 70
               0
 10
0.0
 20
0.0
 11
1.0
 21
1.0
 12
0.0
 22
-12.764114914906941
 13
0.0
 23
0.0
 14
1.0
 24
1.0
 15
0.0
 25
0.0
 16
0.0
 26
0.0
 36
1.0
 17
0.0
 27
0.0
 37
0.0
 40
2837.522815112412
 41
0.688564
 42
50.0
 43
0.0
 44
0.0
 50
0.0
 51
0.0
 71
               0
 72
            2000
 73
               1
 74
               1
 75
               0
 76
               0
 77
               0
 78
               0
281
               0
 65
               0
110
0.0
120
0.0
130
0.0
111
1.0
121
0.0
131
0.0
112
0.0
122
1.0
132
0.0
345
0
346
0
 79
               0
146
0.0
  0
ENDTAB
  0
TABLE
  2
LTYPE
  5
4
100
AcDbSymbolTable
 70
              15
  0
LTYPE
  5
11
100
AcDbSymbolTableRecord
100
AcDbLinetypeTableRecord
  2
ByBlock
 70
              64
  3

 72
              65
 73
               0
 40
0.0
  0
LTYPE
  5
12
100
AcDbSymbolTableRecord
100
AcDbLinetypeTableRecord
  2
ByLayer
 70
              64
  3

 72
              65
 73
               0
 40
0.0
  0
LTYPE
  5
13
100
AcDbSymbolTableRecord
100
AcDbLinetypeTableRecord
  2
Continuous
 70
              64
  3
Solid line
 72
              65
 73
               0
 40
0.0
  0
LTYPE
  5
3E
100
AcDbSymbolTableRecord
100
AcDbLinetypeTableRecord
  2
STYLE_01
 70
               0
  3

 72
              65
 73
               2
 40
0.1875
 49
0.125
 74
               0
 49
-0.0625
 74
               0
  0
LTYPE
  5
3F
100
AcDbSymbolTableRecord
100
AcDbLinetypeTableRecord
  2
STYLE_02
 70
               0
  3

 72
              65
 73
               2
 40
0.6944250000000001
 49
0.48607
 74
               0
 49
-0.2083550000000001
 74
               0
  0
LTYPE
  5
40
100
AcDbSymbolTableRecord
100
AcDbLinetypeTableRecord
  2
STYLE_03
 70
               0
  3

 72
              65
 73
               2
 40
1.25
 49
1.0416400000000001
 74
               0
 49
-0.2083599999999999
 74
               0
  0
LTYPE
  5
41
100
AcDbSymbolTableRecord
100
AcDbLinetypeTableRecord
  2
STYLE_04
 70
               0
  3

 72
              65
 73
               2
 40
1.5277099999999999
 49
1.3194249999999998
 74
               0
 49
-0.208285
 74
               0
  0
LTYPE
  5
42
100
AcDbSymbolTableRecord
100
AcDbLinetypeTableRecord
  2
STYLE_05
 70
               0
  3

 72
              65
 73
               2
 40
0.20828
 49
0.069425
 74
               0
 49
-0.138855
 74
               0
  0
LTYPE
  5
43
100
AcDbSymbolTableRecord
100
AcDbLinetypeTableRecord
  2
STYLE_06
 70
               0
  3

 72
              65
 73
               4
 40
1.0416400000000001
 49
0.625
 74
               0
 49
-0.20828
 74
               0
 49
0.06943
 74
               0
 49
-0.13893
 74
               0
  0
LTYPE
  5
44
100
AcDbSymbolTableRecord
100
AcDbLinetypeTableRecord
  2
STYLE_07
 70
               0
  3

 72
              65
 73
               6
 40
1.875
 49
0.625
 74
               0
 49
-0.20828
 74
               0
 49
0.6250000000000001
 74
               0
 49
-0.2083599999999999
 74
               0
 49
0.06943
 74
               0
 49
-0.1389299999999999
 74
               0
  0
LTYPE
  5
45
100
AcDbSymbolTableRecord
100
AcDbLinetypeTableRecord
  2
STYLE_08
 70
               0
  3

 72
              65
 73
               6
 40
1.25
 49
0.625
 74
               0
 49
-0.20828
 74
               0
 49
0.06943
 74
               0
 49
-0.13893
 74
               0
 49
0.0694299999999999
 74
               0
 49
-0.13893
 74
               0
  0
LTYPE
  5
46
100
AcDbSymbolTableRecord
100
AcDbLinetypeTableRecord
  2
STYLE_09
 70
               0
  3

 72
              65
 73
               4
 40
5.0
 49
3.75
 74
               0
 49
-0.2777849999999998
 74
               0
 49
0.6944300000000003
 74
               0
 49
-0.2777849999999998
 74
               0
  0
LTYPE
  5
47
100
AcDbSymbolTableRecord
100
AcDbLinetypeTableRecord
  2
STYLE_10
 70
               0
  3

 72
              65
 73
               6
 40
5.9375
 49
3.75
 74
               0
 49
-0.2777849999999998
 74
               0
 49
0.6944300000000003
 74
               0
 49
-0.2777849999999998
 74
               0
 49
0.625
 74
               0
 49
-0.3125
 74
               0
  0
LTYPE
  5
48
100
AcDbSymbolTableRecord
100
AcDbLinetypeTableRecord
  2
STYLE_11
 70
               0
  3

 72
              65
 73
               2
 40
0.0694444881889764
 49
0.0347222440944882
 74
               0
 49
-0.0347222440944882
 74
               0
  0
LTYPE
  5
49
100
AcDbSymbolTableRecord
100
AcDbLinetypeTableRecord
  2
STYLE_12
 70
               0
  3

 72
              65
 73
               2
 40
0.3937007874015748
 49
0.1968503937007874
 74
               0
 49
-0.1968503937007874
 74
               0
  0
ENDTAB
  0
TABLE
  2
LAYER
  5
2
100
AcDbSymbolTable
 70
               5
  0
LAYER
  5
14
100
AcDbSymbolTableRecord
100
AcDbLayerTableRecord
  2
0
 70
               0
 62
               7
  6
Continuous
290
               1
370
              -3
390
1D
  0
LAYER
  5
4A
100
AcDbSymbolTableRecord
100
AcDbLayerTableRecord
  2
Defpoints
 70
               0
 62
               7
  6
Continuous
290
               0
370
              -3
390
1D
  0
LAYER
  5
4B
100
AcDbSymbolTableRecord
100
AcDbLayerTableRecord
  2
template
 70
               0
 62
               7
  6
Continuous
290
               1
370
              -3
390
1D
  0
LAYER
  5
4C
100
AcDbSymbolTableRecord
100
AcDbLayerTableRecord
  2
notes
 70
               0
 62
               7
  6
Continuous
290
               1
370
              -3
390
1D
  0
LAYER
  5
4D
100
AcDbSymbolTableRecord
100
AcDbLayerTableRecord
  2
ADF70-0501
 70
               0
 62
               7
  6
Continuous
290
               1
370
              -3
390
1D
  0
ENDTAB
  0
TABLE
  2
STYLE
  5
3
100
AcDbSymbolTable
 70
               2
  0
STYLE
  5
17
100
AcDbSymbolTableRecord
100
AcDbTextStyleTableRecord
  2
Standard
 70
               0
 40
0.0
 41
1.0
 50
0.0
 71
               0
 42
0.0
  3
txt
  4
BIGFONT.SHX
  0
STYLE
  5
3D
100
AcDbSymbolTableRecord
100
AcDbTextStyleTableRecord
  2
ＭＳ ゴシック
 70
               0
 40
0.0
 41
1.0
 50
0.0
 71
               0
 42
0.0
  3

  4
ＭＳ ゴシック
1001
ACAD
1000
ＭＳ ゴシック
1071
        0
  0
ENDTAB
  0
TABLE
  2
VIEW
  5
5
100
AcDbSymbolTable
 70
               0
  0
ENDTAB
  0
TABLE
  2
UCS
  5
6
100
AcDbSymbolTable
 70
               0
  0
ENDTAB
  0
TABLE
  2
APPID
  5
8
100
AcDbSymbolTable
 70
               1
  0
APPID
  5
16
100
AcDbSymbolTableRecord
100
AcDbRegAppTableRecord
  2
ACAD
 70
               0
  0
ENDTAB
  0
TABLE
  2
DIMSTYLE
  5
9
100
AcDbSymbolTable
 70
               3
100
AcDbDimStyleTable
 71
               0
  0
DIMSTYLE
105
18
100
AcDbSymbolTableRecord
100
AcDbDimStyleTableRecord
  2
Standard
 70
               0
  3

  4

 40
1.0
 41
0.18
 42
0.0625
 43
0.38
 44
0.18
 45
0.0
 46
0.0
 47
0.0
 48
0.0
 71
               0
 72
               0
 73
               1
 74
               1
 75
               0
 76
               0
 77
               0
 78
               0
 79
               0
140
0.18
141
0.09
142
0.0
143
25.399999999999999
144
1.0
145
0.0
146
1.0
147
0.09
148
0.0
170
               0
171
               2
172
               0
173
               0
174
               0
175
               0
176
               0
177
               0
178
               0
179
               0
271
               4
272
               4
273
               2
274
               2
275
               0
276
               0
277
               2
278
              46
279
               0
280
               0
281
               0
282
               0
283
               1
284
               0
285
               0
286
               0
288
               0
289
               3
340
17
341
0
342
0
343
0
344
0
371
              -2
372
              -2
  0
DIMSTYLE
105
56
100
AcDbSymbolTableRecord
100
AcDbDimStyleTableRecord
  2
tform線あり
 70
               0
  3
<>
  4
[]
 40
1.0
 41
3.999755859375
 42
24.999999999999996
 43
0.9999999999999999
 44
0.0
 45
0.0
 46
0.0
 47
0.0
 48
0.0
 71
               0
 72
               0
 73
               0
 74
               0
 75
               0
 76
               0
 77
               1
 78
              11
 79
               0
140
24.432617187500004
141
0.0
142
0.0
143
1.0
144
1.0
145
0.0
146
1.0
147
0.4999999999999999
148
0.0
170
               0
171
               1
172
               0
173
               0
174
               1
175
               0
176
               0
177
               0
178
               0
179
               2
271
               1
272
               1
273
               2
274
               2
275
               0
276
               2
277
               2
278
              46
279
               0
280
               0
281
               0
282
               0
283
               1
284
              11
285
              11
286
              11
288
               0
289
               0
340
3D
341
4E
342
4E
343
0
344
0
371
              -2
372
              -2
  0
DIMSTYLE
105
5B
100
AcDbSymbolTableRecord
100
AcDbDimStyleTableRecord
  2
JIS
 70
               0
  3
<>
  4
[]
 40
1.0
 41
31.75
 42
0.0
 43
6.9999999999999396
 44
19.999999999996199
 45
0.0
 46
0.0
 47
0.0
 48
0.0
 71
               0
 72
               0
 73
               0
 74
               0
 75
               0
 76
               0
 77
               1
 78
              11
 79
               0
140
24.432617187500004
141
0.0
142
0.0
143
1.0
144
1.0
145
0.0
146
1.0
147
1.00000000000108
148
0.0
170
               0
171
               1
172
               0
173
               0
174
               1
175
               0
176
               0
177
               0
178
               0
179
               2
271
               1
272
               1
273
               2
274
               2
275
               0
276
               2
277
               2
278
              46
279
               0
280
               0
281
               0
282
               0
283
               1
284
              11
285
              11
286
              11
288
               0
289
               0
340
3D
341
57
342
57
343
0
344
0
371
              -2
372
              -2
  0
ENDTAB
  0
TABLE
  2
BLOCK_RECORD
  5
1
100
AcDbSymbolTable
 70
              28
  0
BLOCK_RECORD
  5
A
100
AcDbSymbolTableRecord
100
AcDbBlockTableRecord
  2
*MODEL_SPACE
340
20
  0
BLOCK_RECORD
  5
B
100
AcDbSymbolTableRecord
100
AcDbBlockTableRecord
  2
*PAPER_SPACE
340
21
  0
BLOCK_RECORD
  5
4E
100
AcDbSymbolTableRecord
100
AcDbBlockTableRecord
  2
_DOT
340
0
  0
BLOCK_RECORD
  5
57
100
AcDbSymbolTableRecord
100
AcDbBlockTableRecord
  2
VW_FILLEDARROW
340
0
  0
BLOCK_RECORD
  5
23
100
AcDbSymbolTableRecord
100
AcDbBlockTableRecord
  2
グループ
340
0
102
{BLKREFS
331
1AA
102
}
  0
BLOCK_RECORD
  5
24
100
AcDbSymbolTableRecord
100
AcDbBlockTableRecord
  2
*D3
340
0
  0
BLOCK_RECORD
  5
25
100
AcDbSymbolTableRecord
100
AcDbBlockTableRecord
  2
*D4
340
0
  0
BLOCK_RECORD
  5
26
100
AcDbSymbolTableRecord
100
AcDbBlockTableRecord
  2
*D5
340
0
  0
BLOCK_RECORD
  5
27
100
AcDbSymbolTableRecord
100
AcDbBlockTableRecord
  2
*D6
340
0
  0
BLOCK_RECORD
  5
28
100
AcDbSymbolTableRecord
100
AcDbBlockTableRecord
  2
*D7
340
0
  0
BLOCK_RECORD
  5
29
100
AcDbSymbolTableRecord
100
AcDbBlockTableRecord
  2
*D8
340
0
  0
BLOCK_RECORD
  5
2A
100
AcDbSymbolTableRecord
100
AcDbBlockTableRecord
  2
*D9
340
0
  0
BLOCK_RECORD
  5
2B
100
AcDbSymbolTableRecord
100
AcDbBlockTableRecord
  2
*D10
340
0
  0
BLOCK_RECORD
  5
2C
100
AcDbSymbolTableRecord
100
AcDbBlockTableRecord
  2
*D11
340
0
  0
BLOCK_RECORD
  5
2D
100
AcDbSymbolTableRecord
100
AcDbBlockTableRecord
  2
*D12
340
0
  0
BLOCK_RECORD
  5
2E
100
AcDbSymbolTableRecord
100
AcDbBlockTableRecord
  2
*D13
340
0
  0
BLOCK_RECORD
  5
2F
100
AcDbSymbolTableRecord
100
AcDbBlockTableRecord
  2
*D14
340
0
  0
BLOCK_RECORD
  5
30
100
AcDbSymbolTableRecord
100
AcDbBlockTableRecord
  2
*D15
340
0
  0
BLOCK_RECORD
  5
31
100
AcDbSymbolTableRecord
100
AcDbBlockTableRecord
  2
*D16
340
0
  0
BLOCK_RECORD
  5
32
100
AcDbSymbolTableRecord
100
AcDbBlockTableRecord
  2
*D17
340
0
  0
BLOCK_RECORD
  5
33
100
AcDbSymbolTableRecord
100
AcDbBlockTableRecord
  2
*D18
340
0
  0
BLOCK_RECORD
  5
34
100
AcDbSymbolTableRecord
100
AcDbBlockTableRecord
  2
*D19
340
0
  0
BLOCK_RECORD
  5
35
100
AcDbSymbolTableRecord
100
AcDbBlockTableRecord
  2
*D20
340
0
  0
BLOCK_RECORD
  5
36
100
AcDbSymbolTableRecord
100
AcDbBlockTableRecord
  2
*D21
340
0
  0
BLOCK_RECORD
  5
37
100
AcDbSymbolTableRecord
100
AcDbBlockTableRecord
  2
*D22
340
0
  0
BLOCK_RECORD
  5
38
100
AcDbSymbolTableRecord
100
AcDbBlockTableRecord
  2
*D23
340
0
  0
BLOCK_RECORD
  5
39
100
AcDbSymbolTableRecord
100
AcDbBlockTableRecord
  2
*D24
340
0
  0
BLOCK_RECORD
  5
3A
100
AcDbSymbolTableRecord
100
AcDbBlockTableRecord
  2
*D25
340
0
  0
BLOCK_RECORD
  5
3B
100
AcDbSymbolTableRecord
100
AcDbBlockTableRecord
  2
*D26
340
0
  0
BLOCK_RECORD
  5
3C
100
AcDbSymbolTableRecord
100
AcDbBlockTableRecord
  2
グループ-1
340
0
102
{BLKREFS
331
269
102
}
  0
ENDTAB
  0
ENDSEC
  0
SECTION
  2
BLOCKS
  0
BLOCK
  5
D
100
AcDbEntity
  8
0
390
0
100
AcDbBlockBegin
  2
*MODEL_SPACE
 70
               0
 10
0.0
 20
0.0
 30
0.0
  3
*MODEL_SPACE
  1

  0
ENDBLK
  5
E
100
AcDbEntity
  8
0
390
0
100
AcDbBlockEnd
  0
BLOCK
  5
F
100
AcDbEntity
 67
               1
  8
0
390
0
100
AcDbBlockBegin
  2
*PAPER_SPACE
 70
               0
 10
0.0
 20
0.0
 30
0.0
  3
*PAPER_SPACE
  1

  0
ENDBLK
  5
10
100
AcDbEntity
 67
               1
  8
0
390
0
100
AcDbBlockEnd
  0
BLOCK
  5
4F
100
AcDbEntity
  8
0
390
0
100
AcDbBlockBegin
  2
_DOT
 70
               0
 10
0.0
 20
0.0
 30
0.0
  3
_DOT
  1

  0
POLYLINE
  5
50
100
AcDbEntity
  8
0
370
              -2
390
0
  6
ByBlock
 62
               0
100
AcDb2dPolyline
 66
               1
 10
0.0
 20
0.0
 30
0.0
 70
               1
 40
0.5
 41
0.5
  0
VERTEX
  5
51
100
AcDbEntity
  8
0
370
              -2
390
0
  6
ByBlock
 62
               0
100
AcDbVertex
100
AcDb2dVertex
 10
-0.25
 20
0.0
 30
0.0
 42
1.0
  0
VERTEX
  5
52
100
AcDbEntity
  8
0
370
              -2
390
0
  6
ByBlock
 62
               0
100
AcDbVertex
100
AcDb2dVertex
 10
0.25
 20
0.0
 30
0.0
 42
1.0
  0
SEQEND
  5
53
100
AcDbEntity
  8
0
390
0
  0
LINE
  5
54
100
AcDbEntity
  8
0
370
              -2
390
0
  6
ByBlock
 62
               0
100
AcDbLine
 10
-0.5
 20
0.0
 30
0.0
 11
-1.0
 21
0.0
 31
0.0
  0
ENDBLK
  5
55
100
AcDbEntity
  8
0
390
0
100
AcDbBlockEnd
  0
BLOCK
  5
58
100
AcDbEntity
  8
0
370
              -2
390
0
  6
ByBlock
 62
               0
100
AcDbBlockBegin
  2
VW_FILLEDARROW
 70
               0
 10
0.0
 20
0.0
 30
0.0
  3
VW_FILLEDARROW
  1

  0
SOLID
  5
59
100
AcDbEntity
  8
0
370
              -2
390
0
 62
               0
100
AcDbTrace
 10
0.0
 20
0.0
 30
0.0
 11
-0.9921874999999999
 21
-0.2658558393652545
 31
0.0
 12
-0.9921874999999999
 22
0.2658558393652548
 32
0.0
 13
-0.9921874999999999
 23
0.2658558393652548
 33
0.0
  0
ENDBLK
  5
5A
100
AcDbEntity
  8
0
390
0
100
AcDbBlockEnd
  0
BLOCK
  5
5C
100
AcDbEntity
  8
template
390
0
100
AcDbBlockBegin
  2
グループ
 70
               0
 10
0.0
 20
0.0
 30
0.0
  3
グループ
  1

  0
LWPOLYLINE
  5
5D
100
AcDbEntity
  8
0
370
              15
390
0
  6
Continuous
 62
               7
100
AcDbPolyline
 90
        8
 70
             129
 10
-3161.5829146331766
 20
-833.55543478320726
 10
-3161.5829146331766
 20
-839.55282347678315
 10
-3171.0841115511798
 20
-839.55282347678315
 10
-3171.0841115511798
 20
-864.00378674029196
 10
-3179.4394888129627
 20
-864.00378674029196
 10
-3179.4394888129627
 20
-839.55282347678315
 10
-3188.7724457592722
 20
-839.55282347678315
 10
-3188.7724457592722
 20
-833.55543478320726
  0
LWPOLYLINE
  5
5E
100
AcDbEntity
  8
0
370
              15
390
0
  6
Continuous
 62
               7
100
AcDbPolyline
 90
      101
 70
             128
 10
-3148.8546228026198
 20
-834.28368327614373
 10
-3148.8392727738337
 20
-834.27932251945833
 42
-0.0222221607812527
 10
-3148.5492681971637
 20
-834.21069805421405
 10
-3148.5334744331722
 20
-834.20769463111742
 42
-0.0146883565597275
 10
-3148.2707717279459
 20
-834.16569144416769
 42
-0.0127458844191802
 10
-3148.0061327607928
 20
-834.13815447609522
 10
-3147.94367768248
 20
-834.133261053507
 42
-0.019809901856549
 10
-3147.5528285730056
 20
-834.11817589611042
 10
-3147.5010171035592
 20
-834.11822967177545
 42
-0.0147617382765025
 10
-3147.0063936425854
 20
-834.13334969702032
 10
-3146.9337021877063
 20
-834.13772230390828
 42
-0.0162624548995293
 10
-3146.5435485582457
 20
-834.17395517918033
 10
-3146.4220161669855
 20
-834.18924173817697
 42
-0.0080020874650472
 10
-3146.2764371358953
 20
-834.20992458544526
 10
-3146.2381176652971
 20
-834.21599586325669
 42
-0.0053821929668724
 10
-3146.169633559985
 20
-834.22760338707792
 10
-3146.8960392591835
 20
-836.40853184279183
 42
0.0108667757395148
 10
-3146.9633563293078
 20
-836.39534472757327
 10
-3147.0008243525044
 20
-836.38884698497748
 42
0.0170663203298312
 10
-3147.1440411394142
 20
-836.36901738768631
 10
-3147.2119164721025
 20
-836.36197021709825
 42
0.0220162375267676
 10
-3147.4922958799575
 20
-836.34528785632813
 10
-3147.5701514470106
 20
-836.34408848906162
 42
0.0282606915796399
 10
-3147.9057877705882
 20
-836.35789176603066
 10
-3147.9497010443633
 20
-836.36219175603469
 42
0.0169677213686825
 10
-3148.1956255393188
 20
-836.39472880558628
 42
0.0190576269867052
 10
-3148.4385335018997
 20
-836.44487567769272
 10
-3148.4447926900102
 20
-836.44641865180199
 42
0.0213685642840817
 10
-3148.695177174488
 20
-836.5196189369068
 10
-3148.7006670694041
 20
-836.5214819329658
 42
0.0237595297603697
 10
-3148.9541619543065
 20
-836.6211664548631
 10
-3148.9592640283327
 20
-836.62345823033957
 42
0.026185746881363
 10
-3149.2114348045607
 20
-836.75299456771324
 10
-3149.2218609936499
 20
-836.7590600421828
 42
0.0272553062018202
 10
-3149.4582907688873
 20
-836.91443224812679
 10
-3149.4930537823934
 20
-836.94009339621618
 42
0.0325996893176837
 10
-3149.6432091260485
 20
-837.06684126919038
 10
-3149.666918555175
 20
-837.08965929770613
 42
0.0138050960626841
 10
-3149.7588017113821
 20
-837.18310895925492
 42
0.012528010380169
 10
-3149.8456442442121
 20
-837.28127228585083
 10
-3149.8693246891239
 20
-837.30943078404232
 42
0.0205218024727635
 10
-3149.9944247646363
 20
-837.47122409826977
 10
-3150.0168911051246
 20
-837.50288382809833
 42
0.0163110129575709
 10
-3150.1726014843716
 20
-837.73821426316113
 10
-3150.1753253804268
 20
-837.74263802515372
 42
0.0131897341894124
 10
-3150.3221259013317
 20
-837.99577011751649
 10
-3150.3238259966993
 20
-837.99888835665388
 42
0.0107895576072128
 10
-3150.4616026989111
 20
-838.26510356629149
 10
-3150.4623355884351
 20
-838.26659779893555
 42
0.0091371507211612
 10
-3150.5908155370744
 20
-838.54112299667213
 10
-3150.6205611684936
 20
-838.60782950385396
 42
0.0135418326354026
 10
-3150.7922751075685
 20
-839.02276728913034
 10
-3150.825879916008
 20
-839.11063343142621
 42
0.0092834542418961
 10
-3150.9971089759206
 20
-839.58453192970933
 10
-3151.0227261036343
 20
-839.65977299949157
 42
0.0054261043576338
 10
-3151.1303642519315
 20
-839.9875369725678
 10
-3151.147890238125
 20
-840.04292513484972
 42
0.0008225090836249
 10
-3151.2165602899386
 20
-840.26119389294706
 10
-3152.201249421872
 20
-843.28608518620365
 10
-3148.9686255817983
 20
-843.28608518620365
 10
-3149.4728180116517
 20
-845.19056348455604
 10
-3152.7288742936353
 20
-845.19056348455604
 10
-3158.5580233259889
 20
-864.0037865505609
 10
-3160.3831209362993
 20
-864.0037865505609
 10
-3154.5484429007984
 20
-845.19056348455604
 10
-3156.9535592698385
 20
-845.19056348455604
 10
-3156.449366839985
 20
-843.28608518620365
 10
-3154.0208180290351
 20
-843.28608518620365
 10
-3153.1606631108466
 20
-840.64967218550476
 42
-0.0005863560634168
 10
-3153.1239284326357
 20
-840.5328457651915
 10
-3153.0478405989825
 20
-840.29185346582756
 42
-0.0087522378931467
 10
-3152.8483724555294
 20
-839.69657737869193
 10
-3152.7561081801246
 20
-839.43643721020135
 42
-0.0077400953834589
 10
-3152.4981745209811
 20
-838.74343253261986
 10
-3152.482409549405
 20
-838.7030016492406
 42
-0.0082369946329068
 10
-3152.2353250787901
 20
-838.09892258303807
 42
-0.0085725238365711
 10
-3151.9680789827944
 20
-837.50349654376578
 10
-3151.8664493817805
 20
-837.28707544176632
 42
-0.0168109410597003
 10
-3151.5795049530502
 20
-836.72586791566152
 10
-3151.4536615627217
 20
-836.4989038828985
 42
-0.0007817726867968
 10
-3151.3993772125345
 20
-836.40135963763305
 10
-3151.3992489064804
 20
-836.40112992883041
 42
-0.0036626142127132
 10
-3151.3443610424961
 20
-836.30453204892808
 42
-0.0080221150655757
 10
-3151.2872367870746
 20
-836.20925281415134
 10
-3151.2565368357282
 20
-836.15986186505302
 42
-0.0202139325559798
 10
-3151.1288810959163
 20
-835.97188026436459
 10
-3151.0748136307338
 20
-835.89880140013076
 42
-0.0249323791798698
 10
-3150.8156508370166
 20
-835.58275615797834
 10
-3150.7915110228878
 20
-835.55614188506388
 42
-0.024213212153573
 10
-3150.4518302813444
 20
-835.21625839885905
 10
-3150.4039187085982
 20
-835.17274926267692
 42
-0.0251017527859167
 10
-3150.1199370079539
 20
-834.93975651690903
 10
-3150.118491531151
 20
-834.93868725933805
 42
-0.0130868069040804
 10
-3149.8202308811833
 20
-834.7299067907876
 10
-3149.8186690620437
 20
-834.72887335051462
 42
-0.0290329526393113
 10
-3149.5075579206468
 20
-834.54804784888324
 10
-3149.4777123586591
 20
-834.53294546604286
 42
-0.0160250190052721
 10
-3149.2118079448965
 20
-834.40892935583042
 42
-0.0267600374778242
 10
-3148.9365318674263
 20
-834.30818103528134
 10
-3148.9097959479068
 20
-834.29998847645618
 42
-0.0049981587651532
 10
-3148.8546228026198
 20
-834.28368327614373
 42
-0.0049981587651532
  0
LWPOLYLINE
  5
5F
100
AcDbEntity
  8
0
370
              15
390
0
  6
Continuous
 62
               7
100
AcDbPolyline
 90
      118
 70
             128
 10
-3129.0402552381729
 20
-843.36006851403101
 10
-3127.1651333136733
 20
-843.36006851403101
 10
-3128.0031722192734
 20
-846.04163504043106
 42
-0.0010587229237966
 10
-3127.9717164037129
 20
-846.00473050708945
 10
-3127.9135223130693
 20
-845.9367482509
 42
-0.007187474040536
 10
-3127.7631470949682
 20
-845.76610755886782
 10
-3127.6214243217091
 20
-845.60987141755777
 42
-0.0148118053512011
 10
-3127.1712950289993
 20
-845.14225757154736
 10
-3127.0840726941015
 20
-845.05686025069792
 42
-0.0086273358693522
 10
-3126.7485238930858
 20
-844.73948461667476
 10
-3126.7046901768545
 20
-844.69943497233658
 42
-0.0103138323106633
 10
-3126.4466664746269
 20
-844.4732718350034
 10
-3126.4008920683104
 20
-844.43478978775204
 42
-0.006020674856598
 10
-3126.2280440041877
 20
-844.29299513698879
 10
-3126.2260128733064
 20
-844.29136943136143
 42
-0.0067069027292693
 10
-3126.0537200586391
 20
-844.15721879756256
 10
-3126.0511712927046
 20
-844.15528862768076
 42
-0.0076184352053952
 10
-3125.8802660268416
 20
-844.02991375244346
 42
-0.008965286167569
 10
-3125.7053050641102
 20
-843.91028049211286
 10
-3125.6689533439626
 20
-843.88636927862808
 42
-0.0156916245942166
 10
-3125.4729938468017
 20
-843.76610679215355
 42
-0.0023299011078211
 10
-3125.2727318028433
 20
-843.65292885262465
 10
-3125.257347670442
 20
-843.64432885754798
 42
-0.010766934149513
 10
-3125.0231108453413
 20
-843.51992872419873
 10
-3125.0008460442659
 20
-843.50871197424851
 42
-0.0078058045901474
 10
-3124.7172559263108
 20
-843.37135051860901
 10
-3124.707348838604
 20
-843.36674139074159
 42
-0.0181829330477444
 10
-3124.3970394339913
 20
-843.23587764964691
 10
-3124.3429839914224
 20
-843.2153625297027
 42
-0.0208411536028591
 10
-3123.9938990239716
 20
-843.09927206720931
 10
-3123.9795429238443
 20
-843.09515362225591
 42
-0.0222799817145368
 10
-3123.6508231299267
 20
-843.01651205611552
 10
-3123.6419341666897
 20
-843.01480004553048
 42
-0.0215509523885933
 10
-3123.32546319841
 20
-842.96788435699614
 10
-3123.2829812373584
 20
-842.96344683020504
 42
-0.018254592488032
 10
-3123.0488724580555
 20
-842.94760300481437
 10
-3123.0094714417091
 20
-842.94637845973523
 42
-0.0072962856527276
 10
-3122.8535485620187
 20
-842.94380913121302
 10
-3122.8244488914434
 20
-842.9437542958093
 42
-0.0059227516330416
 10
-3122.7266993923022
 20
-842.94472800759968
 10
-3122.6974571747746
 20
-842.94536577420422
 42
-0.0011833111881741
 10
-3122.6582058910976
 20
-842.94631477851306
 10
-3123.453592486705
 20
-845.48504872361207
 42
0.0143932051720794
 10
-3123.4799938690617
 20
-845.47484975356451
 10
-3123.4872658414724
 20
-845.4722785347094
 42
0.0234388603478351
 10
-3123.5290967074052
 20
-845.4596592989941
 10
-3123.5377783703175
 20
-845.45747833698908
 42
0.0199162743019095
 10
-3123.5980672043929
 20
-845.44486160165479
 10
-3123.6188811422035
 20
-845.44136440222553
 42
0.0293643550671597
 10
-3123.7219560009653
 20
-845.43021435657226
 10
-3123.7466411816831
 20
-845.42900273955377
 42
0.0214606686876927
 10
-3123.8997820976333
 20
-845.4280641791363
 10
-3123.9091540084537
 20
-845.42840909068059
 42
0.01675640541793
 10
-3124.0806741995625
 20
-845.44048613304869
 10
-3124.089133992321
 20
-845.44136747347579
 42
0.013767755324764
 10
-3124.2764873055867
 20
-845.46611678201941
 10
-3124.2838390450934
 20
-845.46729470198727
 42
0.011849726147343
 10
-3124.4843368091961
 20
-845.50431205217649
 10
-3124.4904868164422
 20
-845.5055989148965
 42
0.0106421143879033
 10
-3124.7013677037312
 20
-845.55443129047217
 10
-3124.7062765121163
 20
-845.55567863315639
 42
0.0099746379697128
 10
-3124.9247349812795
 20
-845.61585316147136
 10
-3124.9862830214488
 20
-845.6341350401018
 42
0.0191613675871976
 10
-3125.3222674839653
 20
-845.74811242038902
 10
-3125.4103272567095
 20
-845.7817993307126
 42
0.0205274080144551
 10
-3125.7956340286109
 20
-845.94762773853938
 10
-3125.853283310591
 20
-845.97529570311087
 42
0.0181256912181283
 10
-3126.11156025126
 20
-846.11097952208956
 10
-3126.1645156345776
 20
-846.14129713530644
 42
0.0140709242418345
 10
-3126.3094705692019
 20
-846.2297918087387
 10
-3126.33571943781
 20
-846.24684862744721
 42
0.0086667884393897
 10
-3126.4246455993634
 20
-846.30685129533697
 42
0.0036408192026239
 10
-3126.5120788374043
 20
-846.36903215313464
 10
-3126.5473057118652
 20
-846.3944730990421
 42
0.0052260781272945
 10
-3126.7035344092305
 20
-846.50980548565701
 10
-3126.7197412655159
 20
-846.52203359629448
 42
0.0050024435893197
 10
-3126.905744608589
 20
-846.66531616456791
 10
-3126.92106276509
 20
-846.67736218700247
 42
0.0136138710277326
 10
-3127.1315040334139
 20
-846.85232869191486
 10
-3127.1651719092088
 20
-846.88190766463003
 42
0.0172815186920575
 10
-3127.4295754508685
 20
-847.13090433725108
 10
-3127.4321377967135
 20
-847.13349015440053
 42
0.0189403857990255
 10
-3127.682719595291
 20
-847.40629541920293
 10
-3127.7153510888261
 20
-847.44463935069928
 42
0.0185044199496632
 10
-3127.9073075278088
 20
-847.68788793182489
 42
0.0088565243898591
 10
-3128.0857676344449
 20
-847.9414043519854
 10
-3128.0949456140861
 20
-847.95494573173494
 42
0.0157195347232999
 10
-3128.2781662204238
 20
-848.24446794105791
 10
-3128.3242491623587
 20
-848.32262013808486
 42
0.0095451879786993
 10
-3128.4893347124885
 20
-848.615214780428
 10
-3128.5004826314125
 20
-848.63588545254981
 42
0.0100351706247406
 10
-3128.6325263805775
 20
-848.89294101305074
 42
0.008693591540847
 10
-3128.7548575323676
 20
-849.1547741584468
 10
-3128.7581782737857
 20
-849.16221648142698
 42
0.0072580174865598
 10
-3128.8785247257288
 20
-849.44280847300536
 10
-3128.8817863590371
 20
-849.45072849902795
 42
0.0060005122617895
 10
-3129.000987027378
 20
-849.75033816962923
 10
-3129.0041980057213
 20
-849.75869969753785
 42
0.0049017786984618
 10
-3129.1230981645754
 20
-850.07762867813176
 10
-3129.1262639709694
 20
-850.0863816153726
 42
0.0039415167616825
 10
-3129.2457002490473
 20
-850.42492367784916
 10
-3129.2488313516778
 20
-850.43402687866194
 42
0.0031035838762102
 10
-3129.3696361373632
 20
-850.79246674041121
 10
-3129.3727461819017
 20
-850.80188736181026
 42
0.0025070747157994
 10
-3129.4956475332551
 20
-851.18053457887379
 10
-3129.5329414296421
 20
-851.29742624400717
 42
0.0029081910286815
 10
-3129.7249597274663
 20
-851.91158990234112
 10
-3129.7657628959705
 20
-852.04481314457473
 42
0.0009266453733688
 10
-3130.0341802703274
 20
-852.92703760463769
 10
-3130.0550677429951
 20
-852.99614948396334
 42
-0.0005809993664516
 10
-3130.3324044235169
 20
-853.9099575903731
 10
-3130.3986862217716
 20
-854.12744252247398
 42
-0.0012018708174614
 10
-3130.545670531219
 20
-854.60560518705347
 10
-3130.5979903827856
 20
-854.77436432792285
 42
-0.0002691059612066
 10
-3130.6415598639528
 20
-854.91463194826122
 10
-3133.4745157622419
 20
-864.0037865505609
 10
-3135.2925046542205
 20
-864.0037865505609
 10
-3129.0402552381729
 20
-843.36006851403101
  0
SPLINE
  5
60
100
AcDbEntity
  8
0
370
              15
390
0
  6
Continuous
 62
               7
100
AcDbSpline
210
0.0
220
0.0
230
1.0
 70
              13
 71
               2
 72
             782
 73
             779
 74
               0
 42
0.000001
 43
0.000001
 40
0.0
 40
0.0
 40
0.0
 40
1.0
 40
1.0
 40
2.0
 40
2.0
 40
3.0
 40
3.0
 40
4.0
 40
4.0
 40
5.0
 40
5.0
 40
6.0
 40
6.0
 40
7.0
 40
7.0
 40
8.0
 40
8.0
 40
9.0
 40
9.0
 40
10.0
 40
10.0
 40
11.0
 40
11.0
 40
12.0
 40
12.0
 40
13.0
 40
13.0
 40
14.0
 40
14.0
 40
15.0
 40
15.0
 40
16.0
 40
16.0
 40
17.0
 40
17.0
 40
18.0
 40
18.0
 40
19.0
 40
19.0
 40
20.0
 40
20.0
 40
21.0
 40
21.0
 40
22.0
 40
22.0
 40
23.0
 40
23.0
 40
24.0
 40
24.0
 40
25.0
 40
25.0
 40
26.0
 40
26.0
 40
27.0
 40
27.0
 40
28.0
 40
28.0
 40
29.0
 40
29.0
 40
30.0
 40
30.0
 40
31.0
 40
31.0
 40
32.0
 40
32.0
 40
33.0
 40
33.0
 40
34.0
 40
34.0
 40
35.0
 40
35.0
 40
36.0
 40
36.0
 40
37.0
 40
37.0
 40
38.0
 40
38.0
 40
39.0
 40
39.0
 40
40.0
 40
40.0
 40
41.0
 40
41.0
 40
42.0
 40
42.0
 40
43.0
 40
43.0
 40
44.0
 40
44.0
 40
45.0
 40
45.0
 40
46.0
 40
46.0
 40
47.0
 40
47.0
 40
48.0
 40
48.0
 40
49.0
 40
49.0
 40
50.0
 40
50.0
 40
51.0
 40
51.0
 40
52.0
 40
52.0
 40
53.0
 40
53.0
 40
54.0
 40
54.0
 40
55.0
 40
55.0
 40
56.0
 40
56.0
 40
57.0
 40
57.0
 40
58.0
 40
58.0
 40
59.0
 40
59.0
 40
60.0
 40
60.0
 40
61.0
 40
61.0
 40
62.0
 40
62.0
 40
63.0
 40
63.0
 40
64.0
 40
64.0
 40
65.0
 40
65.0
 40
66.0
 40
66.0
 40
67.0
 40
67.0
 40
68.0
 40
68.0
 40
69.0
 40
69.0
 40
70.0
 40
70.0
 40
71.0
 40
71.0
 40
72.0
 40
72.0
 40
73.0
 40
73.0
 40
74.0
 40
74.0
 40
75.0
 40
75.0
 40
76.0
 40
76.0
 40
77.0
 40
77.0
 40
78.0
 40
78.0
 40
79.0
 40
79.0
 40
80.0
 40
80.0
 40
81.0
 40
81.0
 40
82.0
 40
82.0
 40
83.0
 40
83.0
 40
84.0
 40
84.0
 40
85.0
 40
85.0
 40
86.0
 40
86.0
 40
87.0
 40
87.0
 40
88.0
 40
88.0
 40
89.0
 40
89.0
 40
90.0
 40
90.0
 40
91.0
 40
91.0
 40
92.0
 40
92.0
 40
93.0
 40
93.0
 40
94.0
 40
94.0
 40
95.0
 40
95.0
 40
96.0
 40
96.0
 40
97.0
 40
97.0
 40
98.0
 40
98.0
 40
99.0
 40
99.0
 40
100.0
 40
100.0
 40
101.0
 40
101.0
 40
102.0
 40
102.0
 40
103.0
 40
103.0
 40
104.0
 40
104.0
 40
105.0
 40
105.0
 40
106.0
 40
106.0
 40
107.0
 40
107.0
 40
108.0
 40
108.0
 40
109.0
 40
109.0
 40
110.0
 40
110.0
 40
111.0
 40
111.0
 40
112.0
 40
112.0
 40
113.0
 40
113.0
 40
114.0
 40
114.0
 40
115.0
 40
115.0
 40
116.0
 40
116.0
 40
117.0
 40
117.0
 40
118.0
 40
118.0
 40
119.0
 40
119.0
 40
120.0
 40
120.0
 40
121.0
 40
121.0
 40
122.0
 40
122.0
 40
123.0
 40
123.0
 40
124.0
 40
124.0
 40
125.0
 40
125.0
 40
126.0
 40
126.0
 40
127.0
 40
127.0
 40
128.0
 40
128.0
 40
129.0
 40
129.0
 40
130.0
 40
130.0
 40
131.0
 40
131.0
 40
132.0
 40
132.0
 40
133.0
 40
133.0
 40
134.0
 40
134.0
 40
135.0
 40
135.0
 40
136.0
 40
136.0
 40
137.0
 40
137.0
 40
138.0
 40
138.0
 40
139.0
 40
139.0
 40
140.0
 40
140.0
 40
141.0
 40
141.0
 40
142.0
 40
142.0
 40
143.0
 40
143.0
 40
144.0
 40
144.0
 40
145.0
 40
145.0
 40
146.0
 40
146.0
 40
147.0
 40
147.0
 40
148.0
 40
148.0
 40
149.0
 40
149.0
 40
150.0
 40
150.0
 40
151.0
 40
151.0
 40
152.0
 40
152.0
 40
153.0
 40
153.0
 40
154.0
 40
154.0
 40
155.0
 40
155.0
 40
156.0
 40
156.0
 40
157.0
 40
157.0
 40
158.0
 40
158.0
 40
159.0
 40
159.0
 40
160.0
 40
160.0
 40
161.0
 40
161.0
 40
162.0
 40
162.0
 40
163.0
 40
163.0
 40
164.0
 40
164.0
 40
165.0
 40
165.0
 40
166.0
 40
166.0
 40
167.0
 40
167.0
 40
168.0
 40
168.0
 40
169.0
 40
169.0
 40
170.0
 40
170.0
 40
171.0
 40
171.0
 40
172.0
 40
172.0
 40
173.0
 40
173.0
 40
174.0
 40
174.0
 40
175.0
 40
175.0
 40
176.0
 40
176.0
 40
177.0
 40
177.0
 40
178.0
 40
178.0
 40
179.0
 40
179.0
 40
180.0
 40
180.0
 40
181.0
 40
181.0
 40
182.0
 40
182.0
 40
183.0
 40
183.0
 40
184.0
 40
184.0
 40
185.0
 40
185.0
 40
186.0
 40
186.0
 40
187.0
 40
187.0
 40
188.0
 40
188.0
 40
189.0
 40
189.0
 40
190.0
 40
190.0
 40
191.0
 40
191.0
 40
192.0
 40
192.0
 40
193.0
 40
193.0
 40
194.0
 40
194.0
 40
195.0
 40
195.0
 40
196.0
 40
196.0
 40
197.0
 40
197.0
 40
198.0
 40
198.0
 40
199.0
 40
199.0
 40
200.0
 40
200.0
 40
201.0
 40
201.0
 40
202.0
 40
202.0
 40
203.0
 40
203.0
 40
204.0
 40
204.0
 40
205.0
 40
205.0
 40
206.0
 40
206.0
 40
207.0
 40
207.0
 40
208.0
 40
208.0
 40
209.0
 40
209.0
 40
210.0
 40
210.0
 40
211.0
 40
211.0
 40
212.0
 40
212.0
 40
213.0
 40
213.0
 40
214.0
 40
214.0
 40
215.0
 40
215.0
 40
216.0
 40
216.0
 40
217.0
 40
217.0
 40
218.0
 40
218.0
 40
219.0
 40
219.0
 40
220.0
 40
220.0
 40
221.0
 40
221.0
 40
222.0
 40
222.0
 40
223.0
 40
223.0
 40
224.0
 40
224.0
 40
225.0
 40
225.0
 40
226.0
 40
226.0
 40
227.0
 40
227.0
 40
228.0
 40
228.0
 40
229.0
 40
229.0
 40
230.0
 40
230.0
 40
231.0
 40
231.0
 40
232.0
 40
232.0
 40
233.0
 40
233.0
 40
234.0
 40
234.0
 40
235.0
 40
235.0
 40
236.0
 40
236.0
 40
237.0
 40
237.0
 40
238.0
 40
238.0
 40
239.0
 40
239.0
 40
240.0
 40
240.0
 40
241.0
 40
241.0
 40
242.0
 40
242.0
 40
243.0
 40
243.0
 40
244.0
 40
244.0
 40
245.0
 40
245.0
 40
246.0
 40
246.0
 40
247.0
 40
247.0
 40
248.0
 40
248.0
 40
249.0
 40
249.0
 40
250.0
 40
250.0
 40
251.0
 40
251.0
 40
252.0
 40
252.0
 40
253.0
 40
253.0
 40
254.0
 40
254.0
 40
255.0
 40
255.0
 40
256.0
 40
256.0
 40
257.0
 40
257.0
 40
258.0
 40
258.0
 40
259.0
 40
259.0
 40
260.0
 40
260.0
 40
261.0
 40
261.0
 40
262.0
 40
262.0
 40
263.0
 40
263.0
 40
264.0
 40
264.0
 40
265.0
 40
265.0
 40
266.0
 40
266.0
 40
267.0
 40
267.0
 40
268.0
 40
268.0
 40
269.0
 40
269.0
 40
270.0
 40
270.0
 40
271.0
 40
271.0
 40
272.0
 40
272.0
 40
273.0
 40
273.0
 40
274.0
 40
274.0
 40
275.0
 40
275.0
 40
276.0
 40
276.0
 40
277.0
 40
277.0
 40
278.0
 40
278.0
 40
279.0
 40
279.0
 40
280.0
 40
280.0
 40
281.0
 40
281.0
 40
282.0
 40
282.0
 40
283.0
 40
283.0
 40
284.0
 40
284.0
 40
285.0
 40
285.0
 40
286.0
 40
286.0
 40
287.0
 40
287.0
 40
288.0
 40
288.0
 40
289.0
 40
289.0
 40
290.0
 40
290.0
 40
291.0
 40
291.0
 40
292.0
 40
292.0
 40
293.0
 40
293.0
 40
294.0
 40
294.0
 40
295.0
 40
295.0
 40
296.0
 40
296.0
 40
297.0
 40
297.0
 40
298.0
 40
298.0
 40
299.0
 40
299.0
 40
300.0
 40
300.0
 40
301.0
 40
301.0
 40
302.0
 40
302.0
 40
303.0
 40
303.0
 40
304.0
 40
304.0
 40
305.0
 40
305.0
 40
306.0
 40
306.0
 40
307.0
 40
307.0
 40
308.0
 40
308.0
 40
309.0
 40
309.0
 40
310.0
 40
310.0
 40
311.0
 40
311.0
 40
312.0
 40
312.0
 40
313.0
 40
313.0
 40
314.0
 40
314.0
 40
315.0
 40
315.0
 40
316.0
 40
316.0
 40
317.0
 40
317.0
 40
318.0
 40
318.0
 40
319.0
 40
319.0
 40
320.0
 40
320.0
 40
321.0
 40
321.0
 40
322.0
 40
322.0
 40
323.0
 40
323.0
 40
324.0
 40
324.0
 40
325.0
 40
325.0
 40
326.0
 40
326.0
 40
327.0
 40
327.0
 40
328.0
 40
328.0
 40
329.0
 40
329.0
 40
330.0
 40
330.0
 40
331.0
 40
331.0
 40
332.0
 40
332.0
 40
333.0
 40
333.0
 40
334.0
 40
334.0
 40
335.0
 40
335.0
 40
336.0
 40
336.0
 40
337.0
 40
337.0
 40
338.0
 40
338.0
 40
339.0
 40
339.0
 40
340.0
 40
340.0
 40
341.0
 40
341.0
 40
342.0
 40
342.0
 40
343.0
 40
343.0
 40
344.0
 40
344.0
 40
345.0
 40
345.0
 40
346.0
 40
346.0
 40
347.0
 40
347.0
 40
348.0
 40
348.0
 40
349.0
 40
349.0
 40
350.0
 40
350.0
 40
351.0
 40
351.0
 40
352.0
 40
352.0
 40
353.0
 40
353.0
 40
354.0
 40
354.0
 40
355.0
 40
355.0
 40
356.0
 40
356.0
 40
357.0
 40
357.0
 40
358.0
 40
358.0
 40
359.0
 40
359.0
 40
360.0
 40
360.0
 40
361.0
 40
361.0
 40
362.0
 40
362.0
 40
363.0
 40
363.0
 40
364.0
 40
364.0
 40
365.0
 40
365.0
 40
366.0
 40
366.0
 40
367.0
 40
367.0
 40
368.0
 40
368.0
 40
369.0
 40
369.0
 40
370.0
 40
370.0
 40
371.0
 40
371.0
 40
372.0
 40
372.0
 40
373.0
 40
373.0
 40
374.0
 40
374.0
 40
375.0
 40
375.0
 40
376.0
 40
376.0
 40
377.0
 40
377.0
 40
378.0
 40
378.0
 40
379.0
 40
379.0
 40
380.0
 40
380.0
 40
381.0
 40
381.0
 40
382.0
 40
382.0
 40
383.0
 40
383.0
 40
384.0
 40
384.0
 40
385.0
 40
385.0
 40
386.0
 40
386.0
 40
387.0
 40
387.0
 40
388.0
 40
388.0
 40
389.0
 40
389.0
 40
389.0
 10
-3118.71155078744
 20
-843.34914215066863
 30
0.0
 41
1.0
 10
-3117.8931266787195
 20
-843.34914215066863
 30
0.0
 41
1.0
 10
-3117.0747025699993
 20
-843.34914215066863
 30
0.0
 41
1.0
 10
-3117.4884563055161
 20
-844.69176841491833
 30
0.0
 41
1.0
 10
-3117.902210041033
 20
-846.03439467916803
 30
0.0
 41
1.0
 10
-3117.8838705458375
 20
-846.00569390621399
 30
0.0
 41
0.999995726433947
 10
-3117.8653635489663
 20
-845.97710085600147
 30
0.0
 41
1.0
 10
-3117.834934224863
 20
-845.93008797767789
 30
0.0
 41
1.0
 10
-3117.8045049007596
 20
-845.88307509935419
 30
0.0
 41
1.0
 10
-3117.7251392556509
 20
-845.76045629244766
 30
0.0
 41
0.9995394069081448
 10
-3117.638480864096
 20
-845.64287823070197
 30
0.0
 41
1.0
 10
-3117.6027240018366
 20
-845.59436333810936
 30
0.0
 41
1.0
 10
-3117.5669671395776
 20
-845.54584844551664
 30
0.0
 41
1.0
 10
-3117.4332404717629
 20
-845.36440817039488
 30
0.0
 41
0.9994460617143297
 10
-3117.2877399904755
 20
-845.19226577274571
 30
0.0
 41
1.0
 10
-3117.2833518094976
 20
-845.18707409235958
 30
0.0
 41
1.0
 10
-3117.2789636285197
 20
-845.18188241197356
 30
0.0
 41
1.0
 10
-3117.1422395091845
 20
-845.02012337509268
 30
0.0
 41
0.9994359394934649
 10
-3116.9949652788364
 20
-844.86790717393148
 30
0.0
 41
1.0
 10
-3116.9925819248842
 20
-844.86544384355966
 30
0.0
 41
1.0
 10
-3116.9901985709321
 20
-844.86298051318784
 30
0.0
 41
1.0
 10
-3116.847691048486
 20
-844.71569097276756
 30
0.0
 41
0.9995293688568138
 10
-3116.696419367503
 20
-844.57741776060266
 30
0.0
 41
1.0
 10
-3116.6771256082375
 20
-844.55978187494964
 30
0.0
 41
1.0
 10
-3116.6578318489724
 20
-844.54214598929661
 30
0.0
 41
1.0
 10
-3116.5451476865164
 20
-844.43914454843525
 30
0.0
 41
0.9997087614803877
 10
-3116.4276247975658
 20
-844.3417002676407
 30
0.0
 41
1.0
 10
-3116.408458724397
 20
-844.3258086891384
 30
0.0
 41
1.0
 10
-3116.3892926512285
 20
-844.30991711063609
 30
0.0
 41
1.0
 10
-3116.3101019086134
 20
-844.24425598684502
 30
0.0
 41
0.9999595338695589
 10
-3116.2297426377554
 20
-844.18003025618782
 30
0.0
 41
1.0
 10
-3116.1493833668942
 20
-844.11580452552835
 30
0.0
 41
0.9999749417501147
 10
-3116.0681228325438
 20
-844.05272297157626
 30
0.0
 41
1.0
 10
-3116.0471366863812
 20
-844.0364316842747
 30
0.0
 41
1.0
 10
-3116.0261505402191
 20
-844.02014039697315
 30
0.0
 41
1.0
 10
-3115.9415826549339
 20
-843.95449138714503
 30
0.0
 41
0.9999792037122129
 10
-3115.8561750551544
 20
-843.88993860549385
 30
0.0
 41
1.0
 10
-3115.8353502293148
 20
-843.87419878329047
 30
0.0
 41
1.0
 10
-3115.8145254034753
 20
-843.85845896108719
 30
0.0
 41
1.0
 10
-3115.7707674555209
 20
-843.82538582395262
 30
0.0
 41
0.9999993373789525
 10
-3115.727085769242
 20
-843.79221202842621
 30
0.0
 41
1.0
 10
-3115.6834040830913
 20
-843.75903823299677
 30
0.0
 41
0.9999160953816484
 10
-3115.6388776721751
 20
-843.72700716780116
 30
0.0
 41
1.0
 10
-3115.6060557847577
 20
-843.70339601221758
 30
0.0
 41
1.0
 10
-3115.5732338973398
 20
-843.67978485663411
 30
0.0
 41
1.0
 10
-3115.4630637115806
 20
-843.60053148026566
 30
0.0
 41
0.9980964527231404
 10
-3115.3439747180792
 20
-843.53544400740952
 30
0.0
 41
1.0
 10
-3115.3069421111522
 20
-843.51520402781694
 30
0.0
 41
1.0
 10
-3115.2699095042253
 20
-843.49496404822446
 30
0.0
 41
1.0
 10
-3115.090582490951
 20
-843.39695379752266
 30
0.0
 41
0.9984572810573141
 10
-3114.9014939245926
 20
-843.31943153617635
 30
0.0
 41
1.0
 10
-3114.8978476551965
 20
-843.31793664383827
 30
0.0
 41
1.0
 10
-3114.8942013858
 20
-843.31644175150007
 30
0.0
 41
1.0
 10
-3114.7124053582356
 20
-843.2419092748305
 30
0.0
 41
0.9987838528033967
 10
-3114.5241526996747
 20
-843.18564363466419
 30
0.0
 41
1.0
 10
-3114.5199147504754
 20
-843.18437698097387
 30
0.0
 41
1.0
 10
-3114.5156768012766
 20
-843.18311032728354
 30
0.0
 41
1.0
 10
-3114.3359000411147
 20
-843.12937799449855
 30
0.0
 41
0.9990652816207932
 10
-3114.1521541093998
 20
-843.0913743149564
 30
0.0
 41
1.0
 10
-3114.146965708369
 20
-843.09030121185003
 30
0.0
 41
1.0
 10
-3114.1417773073385
 20
-843.08922810874367
 30
0.0
 41
1.0
 10
-3113.9684081776845
 20
-843.05337063541469
 30
0.0
 41
0.9992909934270714
 10
-3113.7928324112254
 20
-843.03066020294784
 30
0.0
 41
1.0
 10
-3113.6172566447676
 20
-843.00794977048122
 30
0.0
 41
0.9994553539448348
 10
-3113.440565211672
 20
-842.99687046627491
 30
0.0
 41
1.0
 10
-3113.405130803877
 20
-842.99464857822727
 30
0.0
 41
1.0
 10
-3113.3696963960824
 20
-842.99242669017951
 30
0.0
 41
1.0
 10
-3113.2034706295117
 20
-842.98200362776788
 30
0.0
 41
0.9990928098293428
 10
-3113.0369608376104
 20
-842.98576326900229
 30
0.0
 41
1.0
 10
-3112.9983990023375
 20
-842.9866339605353
 30
0.0
 41
1.0
 10
-3112.959837167065
 20
-842.98750465206831
 30
0.0
 41
1.0
 10
-3112.870451045701
 20
-842.98952291023727
 30
0.0
 41
0.9998382089206026
 10
-3112.7811953629216
 20
-842.9947550367649
 30
0.0
 41
1.0
 10
-3112.780765456705
 20
-842.99478023766687
 30
0.0
 41
1.0
 10
-3112.7803355504889
 20
-842.99480543856896
 30
0.0
 41
1.0
 10
-3112.6919396801363
 20
-842.99998716329276
 30
0.0
 41
0.9997558016758055
 10
-3112.6038591029346
 20
-843.00906967865944
 30
0.0
 41
1.0
 10
-3112.6033829645048
 20
-843.00911877614203
 30
0.0
 41
1.0
 10
-3112.6029068260755
 20
-843.00916787362462
 30
0.0
 41
1.0
 10
-3112.5157785257384
 20
-843.01815219402511
 30
0.0
 41
0.9996565144181019
 10
-3112.4292406723916
 20
-843.03168950071495
 30
0.0
 41
1.0
 10
-3112.4287747470116
 20
-843.03176238644664
 30
0.0
 41
1.0
 10
-3112.4283088216312
 20
-843.03183527217845
 30
0.0
 41
1.0
 10
-3112.3427028190467
 20
-843.04522680740479
 30
0.0
 41
0.9995321806868454
 10
-3112.2580757387213
 20
-843.06382729583322
 30
0.0
 41
1.0
 10
-3112.2576865441501
 20
-843.06391283829896
 30
0.0
 41
1.0
 10
-3112.2572973495789
 20
-843.0639983807647
 30
0.0
 41
1.0
 10
-3112.173448658396
 20
-843.08242778426165
 30
0.0
 41
0.9993819199218573
 10
-3112.0911021241973
 20
-843.10670316752316
 30
0.0
 41
1.0
 10
-3112.0908636907016
 20
-843.1067734566318
 30
0.0
 41
1.0
 10
-3112.0906252572063
 20
-843.10684374574043
 30
0.0
 41
1.0
 10
-3112.0087555900036
 20
-843.13097855078297
 30
0.0
 41
0.9992088568505299
 10
-3111.9290630710129
 20
-843.16154378657825
 30
0.0
 41
1.0
 10
-3111.8493820801318
 20
-843.1921033873125
 30
0.0
 41
0.9990226101774415
 10
-3111.7727114102267
 20
-843.22958081892602
 30
0.0
 41
1.0
 10
-3111.6960522684253
 20
-843.26705261548113
 30
0.0
 41
0.9988424273971994
 10
-3111.6233486412102
 20
-843.31171739073625
 30
0.0
 41
1.0
 10
-3111.623080932834
 20
-843.31188185480653
 30
0.0
 41
1.0
 10
-3111.6228132244578
 20
-843.31204631887681
 30
0.0
 41
1.0
 10
-3111.549574180488
 20
-843.3570400222734
 30
0.0
 41
0.9986928844491051
 10
-3111.4813113137784
 20
-843.40927575655303
 30
0.0
 41
1.0
 10
-3111.4807300215552
 20
-843.40972056978126
 30
0.0
 41
1.0
 10
-3111.4801487293316
 20
-843.4101653830096
 30
0.0
 41
1.0
 10
-3111.4107232781762
 20
-843.46329074374512
 30
0.0
 41
0.9986007262277538
 10
-3111.3472971084097
 20
-843.52345151343866
 30
0.0
 41
1.0
 10
-3111.3464026929523
 20
-843.52429988127369
 30
0.0
 41
1.0
 10
-3111.3455082774954
 20
-843.52514824910872
 30
0.0
 41
1.0
 10
-3111.2802932768113
 20
-843.58700575447574
 30
0.0
 41
0.9985581491381919
 10
-3111.2220856651056
 20
-843.65549824475227
 30
0.0
 41
1.0
 10
-3111.2128272115133
 20
-843.66639260244983
 30
0.0
 41
1.0
 10
-3111.2035687579209
 20
-843.67728696014751
 30
0.0
 41
1.0
 10
-3111.1268442390287
 20
-843.76756816582008
 30
0.0
 41
0.9970460233518775
 10
-3111.0648523378709
 20
-843.86853524999947
 30
0.0
 41
1.0
 10
-3111.0503829727895
 20
-843.89210170908325
 30
0.0
 41
1.0
 10
-3111.0359136077086
 20
-843.91566816816703
 30
0.0
 41
1.0
 10
-3110.9961769076963
 20
-843.98038789219902
 30
0.0
 41
0.9988468816635834
 10
-3110.9628305369451
 20
-844.0486203446261
 30
0.0
 41
1.0
 10
-3110.9557945144525
 20
-844.06301726576612
 30
0.0
 41
1.0
 10
-3110.9487584919598
 20
-844.07741418690603
 30
0.0
 41
1.0
 10
-3110.9294841661936
 20
-844.11685279705466
 30
0.0
 41
0.9998431189997827
 10
-3110.9116188386988
 20
-844.15694935149452
 30
0.0
 41
1.0
 10
-3110.8937535111972
 20
-844.19704590595063
 30
0.0
 41
0.9999989989692392
 10
-3110.8757747877621
 20
-844.23709174356338
 30
0.0
 41
1.0
 10
-3110.8696024761775
 20
-844.25083996035391
 30
0.0
 41
1.0
 10
-3110.8634301645934
 20
-844.26458817714433
 30
0.0
 41
1.0
 10
-3110.833106817985
 20
-844.33213044834758
 30
0.0
 41
0.9998790356321208
 10
-3110.8048989378481
 20
-844.40058320028209
 30
0.0
 41
1.0
 10
-3110.7980637565647
 20
-844.41717030170753
 30
0.0
 41
1.0
 10
-3110.7912285752814
 20
-844.43375740313286
 30
0.0
 41
1.0
 10
-3110.7676709128982
 20
-844.49092535802447
 30
0.0
 41
0.9998227574560394
 10
-3110.7462821645067
 20
-844.54893966630834
 30
0.0
 41
1.0
 10
-3110.7248934161175
 20
-844.60695397458471
 30
0.0
 41
0.9996797971040363
 10
-3110.7064671311591
 20
-844.66597609370035
 30
0.0
 41
1.0
 10
-3110.7025633284329
 20
-844.67848055187108
 30
0.0
 41
1.0
 10
-3110.6986595257067
 20
-844.6909850100418
 30
0.0
 41
1.0
 10
-3110.6724256352959
 20
-844.77501604549946
 30
0.0
 41
0.997927493873486
 10
-3110.6572011118164
 20
-844.86172040416216
 30
0.0
 41
1.0
 10
-3110.6549774245564
 20
-844.87438440497783
 30
0.0
 41
1.0
 10
-3110.6527537372963
 20
-844.88704840579351
 30
0.0
 41
1.0
 10
-3110.6418237975972
 20
-844.94929491308676
 30
0.0
 41
0.9994985982135942
 10
-3110.6348556324201
 20
-845.01210841423267
 30
0.0
 41
1.0
 10
-3110.6278874672425
 20
-845.0749219153804
 30
0.0
 41
0.9996372611202179
 10
-3110.6243116014743
 20
-845.13801949406923
 30
0.0
 41
1.0
 10
-3110.6241430239852
 20
-845.14099411114523
 30
0.0
 41
1.0
 10
-3110.6239744464965
 20
-845.14396872822124
 30
0.0
 41
1.0
 10
-3110.62006142575
 20
-845.2130155410631
 30
0.0
 41
0.9997730630735504
 10
-3110.6190931122624
 20
-845.28216636509296
 30
0.0
 41
1.0
 10
-3110.6190360058445
 20
-845.28624454423903
 30
0.0
 41
1.0
 10
-3110.6189788994261
 20
-845.2903227233852
 30
0.0
 41
1.0
 10
-3110.6178963731022
 20
-845.36762990572595
 30
0.0
 41
0.9998772614071886
 10
-3110.6192364598342
 20
-845.44493305231322
 30
0.0
 41
1.0
 10
-3110.6193257230325
 20
-845.45008221612534
 30
0.0
 41
1.0
 10
-3110.6194149862308
 20
-845.45523137993735
 30
0.0
 41
1.0
 10
-3110.6209335993599
 20
-845.54283285417443
 30
0.0
 41
0.9999415567330918
 10
-3110.6243459096058
 20
-845.63038101585278
 30
0.0
 41
1.0
 10
-3110.6245872302811
 20
-845.63657247558706
 30
0.0
 41
1.0
 10
-3110.6248285509564
 20
-845.64276393532134
 30
0.0
 41
1.0
 10
-3110.6287235025529
 20
-845.74269501647348
 30
0.0
 41
0.9999716810429276
 10
-3110.6341220856716
 20
-845.84255615470317
 30
0.0
 41
1.0
 10
-3110.63733488446
 20
-845.90198540435051
 30
0.0
 41
1.0
 10
-3110.6405476832483
 20
-845.96141465399785
 30
0.0
 41
1.0
 10
-3110.6486215924015
 20
-846.11076305528661
 30
0.0
 41
0.9999819129904068
 10
-3110.6584913840188
 20
-846.26000353300685
 30
0.0
 41
1.0
 10
-3110.6683611756353
 20
-846.40924401071823
 30
0.0
 41
1.0
 10
-3110.6708004961993
 20
-846.44643705656756
 30
0.0
 41
1.0
 10
-3110.6481022623684
 20
-846.40769605923811
 30
0.0
 41
0.999998212820549
 10
-3110.6252577035884
 20
-846.36904116523897
 30
0.0
 41
1.0
 10
-3110.5983481437156
 20
-846.32350795120419
 30
0.0
 41
1.0
 10
-3110.5714385838428
 20
-846.27797473716953
 30
0.0
 41
1.0
 10
-3110.4947749053181
 20
-846.14825341510186
 30
0.0
 41
0.9998609190059674
 10
-3110.4138275924583
 20
-846.02116103317553
 30
0.0
 41
1.0
 10
-3110.3841792709709
 20
-845.97461130020895
 30
0.0
 41
1.0
 10
-3110.354530949483
 20
-845.92806156724237
 30
0.0
 41
1.0
 10
-3110.2722587292469
 20
-845.79888899724949
 30
0.0
 41
0.999906760973543
 10
-3110.1864897197906
 20
-845.67201130781973
 30
0.0
 41
1.0
 10
-3110.1840850165891
 20
-845.66845404176343
 30
0.0
 41
1.0
 10
-3110.181680313387
 20
-845.66489677570712
 30
0.0
 41
1.0
 10
-3110.1007207103285
 20
-845.54513361838121
 30
0.0
 41
0.9998784952150429
 10
-3110.0160671006452
 20
-845.4279524016697
 30
0.0
 41
1.0
 10
-3109.9314134909687
 20
-845.31077118496739
 30
0.0
 41
0.999853296828143
 10
-3109.8427958701463
 20
-845.19655827649763
 30
0.0
 41
1.0
 10
-3109.8228340811525
 20
-845.17083095547389
 30
0.0
 41
1.0
 10
-3109.8028722921586
 20
-845.14510363445015
 30
0.0
 41
1.0
 10
-3109.6843882423991
 20
-844.9923980234812
 30
0.0
 41
0.9991551975795437
 10
-3109.5537637927764
 20
-844.84993846139821
 30
0.0
 41
1.0
 10
-3109.5502541767946
 20
-844.84611085977167
 30
0.0
 41
1.0
 10
-3109.5467445608128
 20
-844.84228325814524
 30
0.0
 41
1.0
 10
-3109.4231393431501
 20
-844.70747889931135
 30
0.0
 41
0.9997418144181377
 10
-3109.2935372034526
 20
-844.57842948870223
 30
0.0
 41
1.0
 10
-3109.1639350637533
 20
-844.44938007809071
 30
0.0
 41
0.9989238204633287
 10
-3109.0229325155042
 20
-844.33289511605335
 30
0.0
 41
1.0
 10
-3108.9776848373658
 20
-844.2955151244455
 30
0.0
 41
1.0
 10
-3108.9324371592274
 20
-844.25813513283765
 30
0.0
 41
1.0
 10
-3108.792197102005
 20
-844.14228007954546
 30
0.0
 41
0.9990825084096014
 10
-3108.6425571693962
 20
-844.03885108170948
 30
0.0
 41
1.0
 10
-3108.6325118053392
 20
-844.03190786863001
 30
0.0
 41
1.0
 10
-3108.6224664412825
 20
-844.02496465555043
 30
0.0
 41
1.0
 10
-3108.4929172367947
 20
-843.93542208387794
 30
0.0
 41
0.9998164899826565
 10
-3108.3600330334166
 20
-843.85090784236013
 30
0.0
 41
1.0
 10
-3108.3481874728914
 20
-843.84337407583496
 30
0.0
 41
1.0
 10
-3108.3363419123662
 20
-843.83584030930979
 30
0.0
 41
1.0
 10
-3108.2271488300389
 20
-843.76639360084289
 30
0.0
 41
0.9997473449130582
 10
-3108.1149448727906
 20
-843.70192464302806
 30
0.0
 41
1.0
 10
-3108.0027409155427
 20
-843.63745568521358
 30
0.0
 41
0.9999327861145659
 10
-3107.8890723047648
 20
-843.57560569352393
 30
0.0
 41
1.0
 10
-3107.8885203022105
 20
-843.57530533484828
 30
0.0
 41
1.0
 10
-3107.8879682996562
 20
-843.57500497617264
 30
0.0
 41
1.0
 10
-3107.7731956837733
 20
-843.51255426713385
 30
0.0
 41
0.9996956420484486
 10
-3107.6554823579354
 20
-843.45584080016022
 30
0.0
 41
1.0
 10
-3107.6250419530415
 20
-843.44117482342972
 30
0.0
 41
1.0
 10
-3107.5946015481477
 20
-843.42650884669911
 30
0.0
 41
1.0
 10
-3107.4916244414076
 20
-843.37689518825744
 30
0.0
 41
0.9998070570176791
 10
-3107.3867780524606
 20
-843.3313646013537
 30
0.0
 41
1.0
 10
-3107.2819316635141
 20
-843.28583401445064
 30
0.0
 41
0.9997827436148135
 10
-3107.1752787269088
 20
-843.24471284314041
 30
0.0
 41
1.0
 10
-3107.156055877278
 20
-843.23730126950818
 30
0.0
 41
1.0
 10
-3107.1368330276473
 20
-843.22988969587607
 30
0.0
 41
1.0
 10
-3106.9917343917755
 20
-843.17394537729956
 30
0.0
 41
0.9988031841976364
 10
-3106.8418640291702
 20
-843.13244531313171
 30
0.0
 41
1.0
 10
-3106.8169467808061
 20
-843.12554556732471
 30
0.0
 41
1.0
 10
-3106.792029532442
 20
-843.11864582151759
 30
0.0
 41
1.0
 10
-3106.6247595067935
 20
-843.0723276791108
 30
0.0
 41
0.998474804055114
 10
-3106.4534025981475
 20
-843.04473344684618
 30
0.0
 41
1.0
 10
-3106.4486634618988
 20
-843.04397028633275
 30
0.0
 41
1.0
 10
-3106.4439243256506
 20
-843.04320712581944
 30
0.0
 41
1.0
 10
-3106.2820456895001
 20
-843.01713921458156
 30
0.0
 41
0.9984436495480509
 10
-3106.1182709457735
 20
-843.00926126076263
 30
0.0
 41
1.0
 10
-3106.0965737376414
 20
-843.00821757356289
 30
0.0
 41
1.0
 10
-3106.0748765295093
 20
-843.00717388636326
 30
0.0
 41
1.0
 10
-3105.9544962020473
 20
-843.00138330694392
 30
0.0
 41
0.9987954789335622
 10
-3105.8341279571391
 20
-843.00741983468617
 30
0.0
 41
1.0
 10
-3105.8141631646427
 20
-843.00842107902486
 30
0.0
 41
1.0
 10
-3105.7941983721462
 20
-843.00942232336354
 30
0.0
 41
1.0
 10
-3105.7137597122214
 20
-843.01345636242922
 30
0.0
 41
0.9997941595877636
 10
-3105.6335509341352
 20
-843.02075042834952
 30
0.0
 41
1.0
 10
-3105.5533421560499
 20
-843.02804449426924
 30
0.0
 41
0.9998589466237121
 10
-3105.4734236091904
 20
-843.0380283487201
 30
0.0
 41
1.0
 10
-3105.4410174073801
 20
-843.0420767056396
 30
0.0
 41
1.0
 10
-3105.4086112055693
 20
-843.0461250625591
 30
0.0
 41
1.0
 10
-3105.2638802550932
 20
-843.06420563084873
 30
0.0
 41
0.9993495063250474
 10
-3105.1208290113277
 20
-843.09267134059007
 30
0.0
 41
1.0
 10
-3105.0878953141741
 20
-843.09922480380521
 30
0.0
 41
1.0
 10
-3105.0549616170206
 20
-843.10577826702036
 30
0.0
 41
1.0
 10
-3104.9456677938242
 20
-843.12752660115382
 30
0.0
 41
0.9996788715560582
 10
-3104.8376162218669
 20
-843.15478440051731
 30
0.0
 41
1.0
 10
-3104.8355532193309
 20
-843.15530482708948
 30
0.0
 41
1.0
 10
-3104.8334902167949
 20
-843.15582525366165
 30
0.0
 41
1.0
 10
-3104.7295646499151
 20
-843.18204219987877
 30
0.0
 41
0.9995480654491852
 10
-3104.627402414681
 20
-843.21445715650475
 30
0.0
 41
1.0
 10
-3104.6257127725485
 20
-843.21499326141986
 30
0.0
 41
1.0
 10
-3104.6240231304155
 20
-843.21552936633498
 30
0.0
 41
1.0
 10
-3104.5252401794464
 20
-843.24687211313142
 30
0.0
 41
0.9993867959457677
 10
-3104.4288930210087
 20
-843.28505148241891
 30
0.0
 41
1.0
 10
-3104.4276500719216
 20
-843.2855440243161
 30
0.0
 41
1.0
 10
-3104.4264071228345
 20
-843.28603656621317
 30
0.0
 41
1.0
 10
-3104.3325458625632
 20
-843.32323085170992
 30
0.0
 41
0.9992050256521456
 10
-3104.2419461875334
 20
-843.36778475094741
 30
0.0
 41
1.0
 10
-3104.2412115048178
 20
-843.36814604340975
 30
0.0
 41
1.0
 10
-3104.2404768221022
 20
-843.3685073358721
 30
0.0
 41
1.0
 10
-3104.1513465124981
 20
-843.41233865018728
 30
0.0
 41
0.9990222350742468
 10
-3104.0664364511063
 20
-843.46387191788449
 30
0.0
 41
1.0
 10
-3104.0662525658217
 20
-843.46398352079041
 30
0.0
 41
1.0
 10
-3104.0660686805372
 20
-843.46409512369632
 30
0.0
 41
1.0
 10
-3103.9815263897103
 20
-843.51540518558431
 30
0.0
 41
0.998864274380487
 10
-3103.9022518550937
 20
-843.57452937310802
 30
0.0
 41
1.0
 10
-3103.822977320478
 20
-843.6336535606298
 30
0.0
 41
0.9987681233308403
 10
-3103.749953536204
 20
-843.7003442520288
 30
0.0
 41
1.0
 10
-3103.7496246082355
 20
-843.7006446532456
 30
0.0
 41
1.0
 10
-3103.7492956802666
 20
-843.70094505446241
 30
0.0
 41
1.0
 10
-3103.6756140400607
 20
-843.76823654828934
 30
0.0
 41
0.9987496570897471
 10
-3103.6090202347359
 20
-843.84254936237346
 30
0.0
 41
1.0
 10
-3103.6082480649734
 20
-843.84341103573377
 30
0.0
 41
1.0
 10
-3103.6074758952109
 20
-843.84427270909407
 30
0.0
 41
1.0
 10
-3103.5393377503628
 20
-843.92030886989676
 30
0.0
 41
0.9988147669827774
 10
-3103.4789154961359
 20
-844.0026098767413
 30
0.0
 41
1.0
 10
-3103.4777961700593
 20
-844.00413450809265
 30
0.0
 41
1.0
 10
-3103.4766768439822
 20
-844.00565913944399
 30
0.0
 41
1.0
 10
-3103.4140159376002
 20
-844.0910094089943
 30
0.0
 41
0.9989452636217737
 10
-3103.359449024636
 20
-844.18174809815628
 30
0.0
 41
1.0
 10
-3103.3581002985525
 20
-844.18399087917896
 30
0.0
 41
1.0
 10
-3103.356751572469
 20
-844.18623366020165
 30
0.0
 41
1.0
 10
-3103.2994872073377
 20
-844.28145791140946
 30
0.0
 41
0.9991046436070321
 10
-3103.2504779940168
 20
-844.38118234443357
 30
0.0
 41
1.0
 10
-3103.2490141324261
 20
-844.38416102450788
 30
0.0
 41
1.0
 10
-3103.2475502708348
 20
-844.3871397045823
 30
0.0
 41
1.0
 10
-3103.1956133343328
 20
-844.49282149775422
 30
0.0
 41
0.9992763831100601
 10
-3103.1518602057772
 20
-844.60214555971197
 30
0.0
 41
1.0
 10
-3103.1503809361147
 20
-844.60584174724386
 30
0.0
 41
1.0
 10
-3103.1489016664518
 20
-844.60953793477586
 30
0.0
 41
1.0
 10
-3103.1021899985699
 20
-844.7262543717984
 30
0.0
 41
0.9994163472883906
 10
-3103.0635569673805
 20
-844.84588796026082
 30
0.0
 41
1.0
 10
-3103.0623188151335
 20
-844.84972210404419
 30
0.0
 41
1.0
 10
-3103.0610806628865
 20
-844.85355624782756
 30
0.0
 41
1.0
 10
-3103.0211971018689
 20
-844.97706230930589
 30
0.0
 41
0.9997268055891523
 10
-3102.9871290459569
 20
-845.10229734125767
 30
0.0
 41
1.0
 10
-3102.9861988656871
 20
-845.10571670736704
 30
0.0
 41
1.0
 10
-3102.9852686854174
 20
-845.10913607347629
 30
0.0
 41
1.0
 10
-3102.9530609900448
 20
-845.22753237320944
 30
0.0
 41
0.9996701319000618
 10
-3102.9269753732742
 20
-845.3474263264718
 30
0.0
 41
1.0
 10
-3102.9008897565041
 20
-845.46732027973599
 30
0.0
 41
0.9995785451109864
 10
-3102.8818061791635
 20
-845.58852604076992
 30
0.0
 41
1.0
 10
-3102.8775863969904
 20
-845.61532719553315
 30
0.0
 41
1.0
 10
-3102.8733666148169
 20
-845.64212835029628
 30
0.0
 41
1.0
 10
-3102.8467916388781
 20
-845.81091432400001
 30
0.0
 41
0.9979925101215825
 10
-3102.8417660529522
 20
-845.98170565209159
 30
0.0
 41
1.0
 10
-3102.8409412405272
 20
-846.00973637557308
 30
0.0
 41
1.0
 10
-3102.8401164281026
 20
-846.03776709905458
 30
0.0
 41
1.0
 10
-3102.8367404670257
 20
-846.15249698018317
 30
0.0
 41
0.9995314902264085
 10
-3102.8403906591639
 20
-846.26721846393525
 30
0.0
 41
1.0
 10
-3102.8440408513025
 20
-846.38193994768528
 30
0.0
 41
0.9996245486944084
 10
-3102.8539699464332
 20
-846.49628921880799
 30
0.0
 41
1.0
 10
-3102.8541329944273
 20
-846.49816697494475
 30
0.0
 41
1.0
 10
-3102.854296042422
 20
-846.50004473108163
 30
0.0
 41
1.0
 10
-3102.8645512335415
 20
-846.61814951447718
 30
0.0
 41
0.9997286095001413
 10
-3102.8802965571131
 20
-846.73564842337225
 30
0.0
 41
1.0
 10
-3102.8806900497634
 20
-846.7385848480734
 30
0.0
 41
1.0
 10
-3102.8810835424138
 20
-846.74152127277455
 30
0.0
 41
1.0
 10
-3102.8976158512846
 20
-846.86489303106657
 30
0.0
 41
0.9998265533968703
 10
-3102.918731310016
 20
-846.98756350584824
 30
0.0
 41
1.0
 10
-3102.9194078521541
 20
-846.9914938843624
 30
0.0
 41
1.0
 10
-3102.9200843942926
 20
-846.99542426287644
 30
0.0
 41
1.0
 10
-3102.9425529372961
 20
-847.12595549466312
 30
0.0
 41
0.9999022530852133
 10
-3102.9686624019027
 20
-847.25580746328592
 30
0.0
 41
1.0
 10
-3102.9696410430715
 20
-847.26067460568947
 30
0.0
 41
1.0
 10
-3102.9706196842399
 20
-847.26554174809291
 30
0.0
 41
1.0
 10
-3102.9986864311832
 20
-847.40512800151726
 30
0.0
 41
0.9999524761940042
 10
-3103.0294694000204
 20
-847.54414049469199
 30
0.0
 41
1.0
 10
-3103.0307455071934
 20
-847.54990325398376
 30
0.0
 41
1.0
 10
-3103.0320216143664
 20
-847.55566601327541
 30
0.0
 41
1.0
 10
-3103.0653567975605
 20
-847.7062040250803
 30
0.0
 41
0.9999813588732019
 10
-3103.1005277983654
 20
-847.85632373777366
 30
0.0
 41
1.0
 10
-3103.1020817238132
 20
-847.8629563281595
 30
0.0
 41
1.0
 10
-3103.1036356492614
 20
-847.86958891854522
 30
0.0
 41
1.0
 10
-3103.1419145009659
 20
-848.03297381202674
 30
0.0
 41
0.9999955237726864
 10
-3103.1811703789413
 20
-848.19612671561447
 30
0.0
 41
1.0
 10
-3103.1934520145805
 20
-848.2471709061565
 30
0.0
 41
1.0
 10
-3103.2057336502194
 20
-848.29821509669853
 30
0.0
 41
1.0
 10
-3103.2695527994592
 20
-848.56345638131279
 30
0.0
 41
0.9999993604255751
 10
-3103.3339717466242
 20
-848.82855263198371
 30
0.0
 41
1.0
 10
-3103.3386905821776
 20
-848.8479715400498
 30
0.0
 41
1.0
 10
-3103.343409417731
 20
-848.86739044811588
 30
0.0
 41
1.0
 10
-3103.4172660359932
 20
-849.17132451488169
 30
0.0
 41
0.9999659914730426
 10
-3103.4961256318793
 20
-849.47399906144426
 30
0.0
 41
1.0
 10
-3103.5010783208086
 20
-849.49300819862162
 30
0.0
 41
1.0
 10
-3103.5060310097379
 20
-849.51201733579899
 30
0.0
 41
1.0
 10
-3103.5947959834789
 20
-849.85271015670401
 30
0.0
 41
0.999944197603013
 10
-3103.6907390164411
 20
-850.19145158199774
 30
0.0
 41
1.0
 10
-3103.7074395348691
 20
-850.25041529453506
 30
0.0
 41
1.0
 10
-3103.7241400532976
 20
-850.30937900707249
 30
0.0
 41
1.0
 10
-3103.8534841231117
 20
-850.76604785742563
 30
0.0
 41
0.9999625120732942
 10
-3103.9907168904324
 20
-851.22040839141232
 30
0.0
 41
1.0
 10
-3104.0265068335111
 20
-851.33890441802555
 30
0.0
 41
1.0
 10
-3104.0622967765898
 20
-851.45740044463889
 30
0.0
 41
1.0
 10
-3104.1368169806365
 20
-851.70412752275865
 30
0.0
 41
0.9999793386303515
 10
-3104.21450300378
 20
-851.94987616201513
 30
0.0
 41
1.0
 10
-3104.2921890269176
 20
-852.19562480125126
 30
0.0
 41
1.0
 10
-3104.3029685857882
 20
-852.22964270562591
 30
0.0
 41
1.0
 10
-3106.1533416390575
 20
-858.1167146280934
 30
0.0
 41
1.0
 10
-3108.0037146923269
 20
-864.0037865505609
 30
0.0
 41
1.0
 10
-3108.9649713823501
 20
-864.0037865505609
 30
0.0
 41
1.0
 10
-3109.9262280723738
 20
-864.0037865505609
 30
0.0
 41
1.0
 10
-3108.307283293695
 20
-858.85575804877146
 30
0.0
 41
1.0
 10
-3106.6883385150168
 20
-853.70772954698202
 30
0.0
 41
1.0
 10
-3106.643172691854
 20
-853.56369832474934
 30
0.0
 41
1.0
 10
-3106.5980068686913
 20
-853.41966710251654
 30
0.0
 41
1.0
 10
-3106.4277024513185
 20
-852.87657607331926
 30
0.0
 41
0.9999911657912889
 10
-3106.2619696396255
 20
-852.33207254191609
 30
0.0
 41
1.0
 10
-3106.2322736961096
 20
-852.23450860181515
 30
0.0
 41
1.0
 10
-3106.2025777525937
 20
-852.13694466171432
 30
0.0
 41
1.0
 10
-3106.0962368279334
 20
-851.78756901051406
 30
0.0
 41
0.9999952428144245
 10
-3105.9920532386204
 20
-851.43754398620285
 30
0.0
 41
1.0
 10
-3105.9869937682752
 20
-851.42054571188498
 30
0.0
 41
1.0
 10
-3105.9819342979299
 20
-851.40354743756711
 30
0.0
 41
1.0
 10
-3105.8878696492825
 20
-851.08751896181025
 30
0.0
 41
0.99999316875228
 10
-3105.7961438114216
 20
-850.77080374858281
 30
0.0
 41
1.0
 10
-3105.7912085469607
 20
-850.75376303930591
 30
0.0
 41
1.0
 10
-3105.7862732824992
 20
-850.73672233002901
 30
0.0
 41
1.0
 10
-3105.7044179735476
 20
-850.45408853531035
 30
0.0
 41
0.9999893840803271
 10
-3105.625170747091
 20
-850.17071240606572
 30
0.0
 41
1.0
 10
-3105.5459235206317
 20
-849.88733627680983
 30
0.0
 41
0.9999833980060437
 10
-3105.4699472798889
 20
-849.60306569377667
 30
0.0
 41
1.0
 10
-3105.4609433431665
 20
-849.56937681529803
 30
0.0
 41
1.0
 10
-3105.4519394064441
 20
-849.5356879368195
 30
0.0
 41
1.0
 10
-3105.382974857579
 20
-849.27765210452878
 30
0.0
 41
0.9999233658066883
 10
-3105.3204198863605
 20
-849.01798794581271
 30
0.0
 41
1.0
 10
-3105.2578649151405
 20
-848.75832378709026
 30
0.0
 41
1.0
 10
-3105.2183814962827
 20
-848.59451712266412
 30
0.0
 41
1.0
 10
-3105.2134028923083
 20
-848.57386216080431
 30
0.0
 41
1.0
 10
-3105.2084242883334
 20
-848.55320719894462
 30
0.0
 41
1.0
 10
-3105.1788980774277
 20
-848.43071045824809
 30
0.0
 41
0.9999868670840648
 10
-3105.1506289934291
 20
-848.30791751259255
 30
0.0
 41
1.0
 10
-3105.1467315062719
 20
-848.29098792517698
 30
0.0
 41
1.0
 10
-3105.1428340191142
 20
-848.27405833776129
 30
0.0
 41
1.0
 10
-3105.1223599094342
 20
-848.18512456695305
 30
0.0
 41
0.9999778173352041
 10
-3105.1030723113172
 20
-848.09592594971662
 30
0.0
 41
1.0
 10
-3105.0837847131984
 20
-848.00672733247006
 30
0.0
 41
0.9999602692861989
 10
-3105.0660903545631
 20
-847.91719904401737
 30
0.0
 41
1.0
 10
-3105.0628865224899
 20
-847.90098858915292
 30
0.0
 41
1.0
 10
-3105.0596826904161
 20
-847.88477813428847
 30
0.0
 41
1.0
 10
-3105.0355806676303
 20
-847.76282893609095
 30
0.0
 41
0.9995617985321464
 10
-3105.0187373204112
 20
-847.63966718838549
 30
0.0
 41
1.0
 10
-3105.0162728305049
 20
-847.62164637101887
 30
0.0
 41
1.0
 10
-3105.0138083405986
 20
-847.60362555365236
 30
0.0
 41
1.0
 10
-3104.9935250795506
 20
-847.45531050395209
 30
0.0
 41
0.9991121410639756
 10
-3104.9857997259624
 20
-847.30581440514607
 30
0.0
 41
1.0
 10
-3104.9848809359378
 20
-847.28803456857077
 30
0.0
 41
1.0
 10
-3104.9839621459132
 20
-847.27025473199558
 30
0.0
 41
1.0
 10
-3104.9780743723741
 20
-847.15631830634072
 30
0.0
 41
0.998979249490624
 10
-3104.9824934644912
 20
-847.04231547044151
 30
0.0
 41
1.0
 10
-3104.9831414363603
 20
-847.02559922450382
 30
0.0
 41
1.0
 10
-3104.9837894082293
 20
-847.00888297856613
 30
0.0
 41
1.0
 10
-3104.9869125566092
 20
-846.92831263453274
 30
0.0
 41
0.9997820295394362
 10
-3104.9933965539844
 20
-846.84794291279911
 30
0.0
 41
1.0
 10
-3104.9998805513592
 20
-846.76757319106764
 30
0.0
 41
0.9998335105974553
 10
-3105.0092927468691
 20
-846.68749357462991
 30
0.0
 41
1.0
 10
-3105.0108876715467
 20
-846.67392384413438
 30
0.0
 41
1.0
 10
-3105.0124825962248
 20
-846.66035411363896
 30
0.0
 41
1.0
 10
-3105.0250846410895
 20
-846.55313503621778
 30
0.0
 41
0.9996876457878521
 10
-3105.0430285538891
 20
-846.44667960849722
 30
0.0
 41
1.0
 10
-3105.0452602170349
 20
-846.43343987325227
 30
0.0
 41
1.0
 10
-3105.0474918801806
 20
-846.42020013800732
 30
0.0
 41
1.0
 10
-3105.0612877016001
 20
-846.33835399405677
 30
0.0
 41
0.9995547496494134
 10
-3105.0799410234913
 20
-846.25747649687366
 30
0.0
 41
1.0
 10
-3105.0803149803642
 20
-846.25585508616041
 30
0.0
 41
1.0
 10
-3105.0806889372375
 20
-846.25423367544704
 30
0.0
 41
1.0
 10
-3105.0985943453861
 20
-846.17659899967464
 30
0.0
 41
0.9994899427174366
 10
-3105.1214192540638
 20
-846.10026571684807
 30
0.0
 41
1.0
 10
-3105.1218777808049
 20
-846.09873226705827
 30
0.0
 41
1.0
 10
-3105.122336307546
 20
-846.09719881726846
 30
0.0
 41
1.0
 10
-3105.1442441627428
 20
-846.02393243401332
 30
0.0
 41
0.9993784877590274
 10
-3105.1712597978494
 20
-845.95239172885465
 30
0.0
 41
1.0
 10
-3105.1717914888259
 20
-845.95098374613576
 30
0.0
 41
1.0
 10
-3105.1723231798019
 20
-845.94957576341687
 30
0.0
 41
1.0
 10
-3105.1982754329551
 20
-845.88085102369803
 30
0.0
 41
0.9992430832255121
 10
-3105.2294919681153
 20
-845.81435187162731
 30
0.0
 41
1.0
 10
-3105.2300740841715
 20
-845.81311181651085
 30
0.0
 41
1.0
 10
-3105.2306562002277
 20
-845.8118717613944
 30
0.0
 41
1.0
 10
-3105.2607085032741
 20
-845.74785271955989
 30
0.0
 41
0.9990789632798454
 10
-3105.2961391300514
 20
-845.68664610780945
 30
0.0
 41
1.0
 10
-3105.2967348362345
 20
-845.6856170219487
 30
0.0
 41
1.0
 10
-3105.2973305424171
 20
-845.68458793608795
 30
0.0
 41
1.0
 10
-3105.3315697568291
 20
-845.62543949605856
 30
0.0
 41
0.9988874801121864
 10
-3105.3712290328604
 20
-845.56977978364193
 30
0.0
 41
1.0
 10
-3105.3717845589235
 20
-845.56900013196901
 30
0.0
 41
1.0
 10
-3105.3723400849863
 20
-845.56822048029608
 30
0.0
 41
1.0
 10
-3105.4108883088902
 20
-845.5141200712269
 30
0.0
 41
0.9986762060694415
 10
-3105.454790780168
 20
-845.46426635678495
 30
0.0
 41
1.0
 10
-3105.4552347404988
 20
-845.46376221496962
 30
0.0
 41
1.0
 10
-3105.45567870083
 20
-845.46325807315441
 30
0.0
 41
1.0
 10
-3105.4986932514444
 20
-845.41441264234629
 30
0.0
 41
0.9984621642490659
 10
-3105.5468508082222
 20
-845.37062934187463
 30
0.0
 41
1.0
 10
-3105.5470974427403
 20
-845.37040510970974
 30
0.0
 41
1.0
 10
-3105.5473440772585
 20
-845.37018087754473
 30
0.0
 41
1.0
 10
-3105.5950083650005
 20
-845.32684604140343
 30
0.0
 41
0.998272469385404
 10
-3105.6474269968417
 20
-845.28940169088582
 30
0.0
 41
1.0
 10
-3105.6998456286847
 20
-845.25195734036708
 30
0.0
 41
0.9981399180158546
 10
-3105.7564316920816
 20
-845.22117082092166
 30
0.0
 41
1.0
 10
-3105.7564773541571
 20
-845.22114597776601
 30
0.0
 41
1.0
 10
-3105.7565230162331
 20
-845.22112113461037
 30
0.0
 41
1.0
 10
-3105.8132004037807
 20
-845.19028492885388
 30
0.0
 41
0.9980927086835988
 10
-3105.8732457548454
 20
-845.16666812000199
 30
0.0
 41
1.0
 10
-3105.8736859245591
 20
-845.16649499412597
 30
0.0
 41
1.0
 10
-3105.8741260942734
 20
-845.16632186825007
 30
0.0
 41
1.0
 10
-3105.9350517847606
 20
-845.14235880764852
 30
0.0
 41
0.998141135656314
 10
-3105.9984403061603
 20
-845.12598616614252
 30
0.0
 41
1.0
 10
-3105.9993224228629
 20
-845.12575832393679
 30
0.0
 41
1.0
 10
-3106.0002045395649
 20
-845.12553048173106
 30
0.0
 41
1.0
 10
-3106.0653572943693
 20
-845.10870215581429
 30
0.0
 41
0.9983031812936164
 10
-3106.1320247233662
 20
-845.09956279463779
 30
0.0
 41
1.0
 10
-3106.1408957487665
 20
-845.09834667596692
 30
0.0
 41
1.0
 10
-3106.1497667741669
 20
-845.09713055729617
 30
0.0
 41
1.0
 10
-3106.2041164166703
 20
-845.08967982730519
 30
0.0
 41
0.9983887708266326
 10
-3106.2589602659673
 20
-845.0884351536713
 30
0.0
 41
1.0
 10
-3106.2670236711879
 20
-845.08825215579645
 30
0.0
 41
1.0
 10
-3106.2750870764085
 20
-845.0880691579215
 30
0.0
 41
1.0
 10
-3106.3138041152633
 20
-845.08719048003786
 30
0.0
 41
0.9998869563079852
 10
-3106.3525300684628
 20
-845.08747634939766
 30
0.0
 41
1.0
 10
-3106.3912560216972
 20
-845.08776221875758
 30
0.0
 41
0.9999972320158478
 10
-3106.4299802008418
 20
-845.08823031828604
 30
0.0
 41
1.0
 10
-3106.4493332174388
 20
-845.08846425837555
 30
0.0
 41
1.0
 10
-3106.4686862340359
 20
-845.08869819846518
 30
0.0
 41
1.0
 10
-3106.5461164464127
 20
-845.08963417817301
 30
0.0
 41
0.9997304945086244
 10
-3106.6234197526464
 20
-845.09416327195913
 30
0.0
 41
1.0
 10
-3106.6324693943498
 20
-845.09469347794902
 30
0.0
 41
1.0
 10
-3106.6415190360531
 20
-845.09522368393891
 30
0.0
 41
1.0
 10
-3106.7369216256993
 20
-845.1008131897047
 30
0.0
 41
0.999788830641398
 10
-3106.8320139615416
 20
-845.11031815419392
 30
0.0
 41
1.0
 10
-3106.8407350231146
 20
-845.11118986882605
 30
0.0
 41
1.0
 10
-3106.8494560846871
 20
-845.11206158345817
 30
0.0
 41
1.0
 10
-3106.9619905436757
 20
-845.12330997721142
 30
0.0
 41
0.9984170238190295
 10
-3107.0725496910263
 20
-845.14712605914713
 30
0.0
 41
1.0
 10
-3107.1089308220126
 20
-845.15496309495325
 30
0.0
 41
1.0
 10
-3107.1453119529992
 20
-845.16280013075936
 30
0.0
 41
1.0
 10
-3107.2605030214218
 20
-845.1876139972693
 30
0.0
 41
0.9976592854199008
 10
-3107.3712311878262
 20
-845.2279126744163
 30
0.0
 41
1.0
 10
-3107.4819593542306
 20
-845.26821135156342
 30
0.0
 41
0.9993255074352827
 10
-3107.5894311530201
 20
-845.31652825005517
 30
0.0
 41
1.0
 10
-3107.5940563319441
 20
-845.31860762625524
 30
0.0
 41
1.0
 10
-3107.5986815108681
 20
-845.32068700245532
 30
0.0
 41
1.0
 10
-3107.7154036675051
 20
-845.37316265334687
 30
0.0
 41
0.9976475078274452
 10
-3107.8238510118144
 20
-845.44111064300444
 30
0.0
 41
1.0
 10
-3107.8421934059506
 20
-845.45260312181972
 30
0.0
 41
1.0
 10
-3107.8605358000864
 20
-845.46409560063501
 30
0.0
 41
1.0
 10
-3107.9447379916373
 20
-845.51685272140321
 30
0.0
 41
0.9995131336408122
 10
-3108.0254857065952
 20
-845.57475893335629
 30
0.0
 41
1.0
 10
-3108.1062334215494
 20
-845.63266514530744
 30
0.0
 41
0.9995810107606777
 10
-3108.1834950692805
 20
-845.69514682777492
 30
0.0
 41
1.0
 10
-3108.1864651004908
 20
-845.69754869923963
 30
0.0
 41
1.0
 10
-3108.1894351317014
 20
-845.69995057070446
 30
0.0
 41
1.0
 10
-3108.2726368418548
 20
-845.76723599610295
 30
0.0
 41
0.9996617837954174
 10
-3108.352227528992
 20
-845.83875645166506
 30
0.0
 41
1.0
 10
-3108.3643582798632
 20
-845.84965718465037
 30
0.0
 41
1.0
 10
-3108.3764890307343
 20
-845.86055791763579
 30
0.0
 41
1.0
 10
-3108.4447645581349
 20
-845.92191053311183
 30
0.0
 41
0.9997267750052247
 10
-3108.5100980664211
 20
-845.98638706963925
 30
0.0
 41
1.0
 10
-3108.5754315747045
 20
-846.05086360616428
 30
0.0
 41
0.9999667288959909
 10
-3108.6397045178378
 20
-846.11639741304498
 30
0.0
 41
1.0
 10
-3108.7085319656198
 20
-846.18657507181024
 30
0.0
 41
1.0
 10
-3108.7773594134014
 20
-846.2567527305755
 30
0.0
 41
1.0
 10
-3108.9792872520961
 20
-846.46264185498421
 30
0.0
 41
0.9988205335175329
 10
-3109.1602928690754
 20
-846.68714608704397
 30
0.0
 41
1.0
 10
-3109.1909328339816
 20
-846.72514933747539
 30
0.0
 41
1.0
 10
-3109.2215727988873
 20
-846.7631525879068
 30
0.0
 41
1.0
 10
-3109.4638583456785
 20
-847.06366332083007
 30
0.0
 41
0.9997077826754998
 10
-3109.6913362967821
 20
-847.37553311504428
 30
0.0
 41
1.0
 10
-3109.6930597119126
 20
-847.3778958984235
 30
0.0
 41
1.0
 10
-3109.6947831270427
 20
-847.38025868180273
 30
0.0
 41
1.0
 10
-3109.9257079084091
 20
-847.6968540427788
 30
0.0
 41
0.9989147567078687
 10
-3110.1261714112929
 20
-848.03356350396496
 30
0.0
 41
1.0
 10
-3110.1509125565963
 20
-848.07512008451101
 30
0.0
 41
1.0
 10
-3110.1756537018991
 20
-848.11667666505707
 30
0.0
 41
1.0
 10
-3110.3308650005401
 20
-848.37737804951553
 30
0.0
 41
0.9997476598183039
 10
-3110.4742099880527
 20
-848.64478779810304
 30
0.0
 41
1.0
 10
-3110.6175549755612
 20
-848.91219754668361
 30
0.0
 41
0.9996258967109801
 10
-3110.746063227492
 20
-849.1870454833055
 30
0.0
 41
1.0
 10
-3110.7592631369444
 20
-849.2152768834062
 30
0.0
 41
1.0
 10
-3110.7724630463963
 20
-849.24350828350691
 30
0.0
 41
1.0
 10
-3110.9126717673939
 20
-849.54338068145512
 30
0.0
 41
0.9998735413946798
 10
-3111.0432731141141
 20
-849.84756028092193
 30
0.0
 41
1.0
 10
-3111.0467159421778
 20
-849.85557886639413
 30
0.0
 41
1.0
 10
-3111.0501587702415
 20
-849.86359745186633
 30
0.0
 41
1.0
 10
-3111.1738744608388
 20
-850.15173988039987
 30
0.0
 41
0.9999377418858662
 10
-3111.2911292630092
 20
-850.44257134806458
 30
0.0
 41
1.0
 10
-3111.4083840651761
 20
-850.73340281571973
 30
0.0
 41
0.9999508299504837
 10
-3111.5198480085446
 20
-851.02650249251565
 30
0.0
 41
1.0
 10
-3111.5229287772158
 20
-851.03460351850265
 30
0.0
 41
1.0
 10
-3111.5260095458871
 20
-851.04270454448965
 30
0.0
 41
1.0
 10
-3111.6436350265785
 20
-851.35200627321069
 30
0.0
 41
0.9999609228430952
 10
-3111.755773629442
 20
-851.66333928919641
 30
0.0
 41
1.0
 10
-3111.7587296398024
 20
-851.67154612963486
 30
0.0
 41
1.0
 10
-3111.7616856501622
 20
-851.6797529700732
 30
0.0
 41
1.0
 10
-3111.8797362737469
 20
-852.00749966693979
 30
0.0
 41
0.9999674607397159
 10
-3111.9924837998269
 20
-852.33710828697053
 30
0.0
 41
1.0
 10
-3112.0438821903786
 20
-852.48736748263082
 30
0.0
 41
1.0
 10
-3112.0952805809302
 20
-852.63762667829099
 30
0.0
 41
1.0
 10
-3112.2112911876879
 20
-852.97677466079369
 30
0.0
 41
0.9999287532309384
 10
-3112.3191725916572
 20
-853.3185953997654
 30
0.0
 41
1.0
 10
-3112.3656498477758
 20
-853.46585794407031
 30
0.0
 41
1.0
 10
-3112.4121271038939
 20
-853.61312048837522
 30
0.0
 41
1.0
 10
-3112.4270539956051
 20
-853.66041613866923
 30
0.0
 41
0.99999982231526
 10
-3112.4419245043582
 20
-853.70772954698202
 30
0.0
 41
1.0
 10
-3114.0625806411535
 20
-858.85575804877146
 30
0.0
 41
1.0
 10
-3115.6832367779493
 20
-864.0037865505609
 30
0.0
 41
1.0
 10
-3116.5885452218399
 20
-864.0037865505609
 30
0.0
 41
1.0
 10
-3117.493853665731
 20
-864.0037865505609
 30
0.0
 41
1.0
 10
-3115.641769254345
 20
-858.1167146280934
 30
0.0
 41
1.0
 10
-3113.7896848429591
 20
-852.22964270562591
 30
0.0
 41
1.0
 10
-3113.7795630846563
 20
-852.19759949217621
 30
0.0
 41
1.0
 10
-3113.7069554158065
 20
-851.96729995035037
 30
0.0
 41
1.0
 10
-3113.6343477469613
 20
-851.73700040853862
 30
0.0
 41
0.9999825681973038
 10
-3113.5644647077575
 20
-851.50585951349888
 30
0.0
 41
1.0
 10
-3113.5161736456012
 20
-851.34613493001893
 30
0.0
 41
1.0
 10
-3113.4678825834453
 20
-851.18641034653899
 30
0.0
 41
1.0
 10
-3113.3707302301182
 20
-850.86507512472963
 30
0.0
 41
0.9999672528966823
 10
-3113.2787914244846
 20
-850.54220957910957
 30
0.0
 41
1.0
 10
-3113.2760025408043
 20
-850.532415733682
 30
0.0
 41
1.0
 10
-3113.2732136571235
 20
-850.52262188825455
 30
0.0
 41
1.0
 10
-3113.1868526188487
 20
-850.21934403347927
 30
0.0
 41
0.9999899749169283
 10
-3113.1032110093265
 20
-849.91530494507083
 30
0.0
 41
1.0
 10
-3113.09310509031
 20
-849.8785697073954
 30
0.0
 41
1.0
 10
-3113.0829991712931
 20
-849.84183446971997
 30
0.0
 41
1.0
 10
-3113.019569399793
 20
-849.61126585662339
 30
0.0
 41
0.9999214200504745
 10
-3112.9619399714138
 20
-849.37917951440909
 30
0.0
 41
1.0
 10
-3112.9491741192387
 20
-849.32776862903472
 30
0.0
 41
1.0
 10
-3112.9364082670636
 20
-849.27635774366036
 30
0.0
 41
1.0
 10
-3112.9043105430428
 20
-849.14709317222537
 30
0.0
 41
0.9999828681668453
 10
-3112.8737282910411
 20
-849.0174616977323
 30
0.0
 41
1.0
 10
-3112.8431460390457
 20
-848.88783022326538
 30
0.0
 41
0.9999389844479213
 10
-3112.8154350502559
 20
-848.75755476736344
 30
0.0
 41
1.0
 10
-3112.8082973065357
 20
-848.72399866352669
 30
0.0
 41
1.0
 10
-3112.8011595628159
 20
-848.69044255968993
 30
0.0
 41
1.0
 10
-3112.7591730865856
 20
-848.4930548961122
 30
0.0
 41
0.9998933699440266
 10
-3112.7229688221828
 20
-848.29452528835202
 30
0.0
 41
1.0
 10
-3112.7215959969672
 20
-848.28699726765763
 30
0.0
 41
1.0
 10
-3112.7202231717511
 20
-848.27946924696323
 30
0.0
 41
1.0
 10
-3112.6812732569165
 20
-848.06588359781256
 30
0.0
 41
0.9996850305193644
 10
-3112.6530895806577
 20
-847.85061259237557
 30
0.0
 41
1.0
 10
-3112.6510945472883
 20
-847.83537423825146
 30
0.0
 41
1.0
 10
-3112.6490995139188
 20
-847.82013588412735
 30
0.0
 41
1.0
 10
-3112.6216916514595
 20
-847.6107906569739
 30
0.0
 41
0.9994697936706382
 10
-3112.6079670922404
 20
-847.40010546164558
 30
0.0
 41
1.0
 10
-3112.6074900229905
 20
-847.3927819894293
 30
0.0
 41
1.0
 10
-3112.6070129537402
 20
-847.38545851721312
 30
0.0
 41
1.0
 10
-3112.5942425330204
 20
-847.18942026630987
 30
0.0
 41
0.9991804893136471
 10
-3112.5973708492938
 20
-846.9929914163414
 30
0.0
 41
1.0
 10
-3112.5974547281157
 20
-846.98772461493172
 30
0.0
 41
1.0
 10
-3112.5975386069381
 20
-846.98245781352193
 30
0.0
 41
1.0
 10
-3112.6004991655664
 20
-846.79656256637077
 30
0.0
 41
0.9988448329321213
 10
-3112.6212907111903
 20
-846.61180997653457
 30
0.0
 41
1.0
 10
-3112.6228847848934
 20
-846.59764512076561
 30
0.0
 41
1.0
 10
-3112.6244788585959
 20
-846.58348026499664
 30
0.0
 41
1.0
 10
-3112.6420822568134
 20
-846.42705738670372
 30
0.0
 41
0.9985503209458349
 10
-3112.6763985291136
 20
-846.27343320261195
 30
0.0
 41
1.0
 10
-3112.6839845211848
 20
-846.23947287521162
 30
0.0
 41
1.0
 10
-3112.691570513256
 20
-846.20551254781128
 30
0.0
 41
1.0
 10
-3112.7107148014129
 20
-846.11980901852326
 30
0.0
 41
0.999103678137039
 10
-3112.737039663064
 20
-846.03603193119773
 30
0.0
 41
1.0
 10
-3112.7410218885216
 20
-846.02335876868187
 30
0.0
 41
1.0
 10
-3112.7450041139796
 20
-846.01068560616591
 30
0.0
 41
1.0
 10
-3112.7633645247165
 20
-845.95225484386822
 30
0.0
 41
0.9998874504366225
 10
-3112.7834697323938
 20
-845.89440124164946
 30
0.0
 41
1.0
 10
-3112.8035749400688
 20
-845.83654763943639
 30
0.0
 41
0.9994041637545255
 10
-3112.8276235529984
 20
-845.78021893555649
 30
0.0
 41
1.0
 10
-3112.8318203372255
 20
-845.7703888710663
 30
0.0
 41
1.0
 10
-3112.8360171214531
 20
-845.76055880657611
 30
0.0
 41
1.0
 10
-3112.8638959524483
 20
-845.69525864060802
 30
0.0
 41
0.9991846840702613
 10
-3112.8969523091423
 20
-845.6324206093251
 30
0.0
 41
1.0
 10
-3112.8980889155364
 20
-845.6302599928722
 30
0.0
 41
1.0
 10
-3112.8992255219305
 20
-845.62809937641941
 30
0.0
 41
1.0
 10
-3112.9300086658345
 20
-845.56958257804683
 30
0.0
 41
0.9989253167924379
 10
-3112.9660780898903
 20
-845.51416764965461
 30
0.0
 41
1.0
 10
-3112.9671322145641
 20
-845.51254815489256
 30
0.0
 41
1.0
 10
-3112.9681863392384
 20
-845.51092866013039
 30
0.0
 41
1.0
 10
-3113.0021475139447
 20
-845.458752721265
 30
0.0
 41
0.9986467172835998
 10
-3113.0413446665825
 20
-845.41038668763485
 30
0.0
 41
1.0
 10
-3113.0422187952809
 20
-845.40930808535984
 30
0.0
 41
1.0
 10
-3113.0430929239787
 20
-845.40822948308482
 30
0.0
 41
1.0
 10
-3113.0805418192176
 20
-845.36202065400812
 30
0.0
 41
0.9984001104267852
 10
-3113.1229685497374
 20
-845.32033554663644
 30
0.0
 41
1.0
 10
-3113.1235556878469
 20
-845.31975867175515
 30
0.0
 41
1.0
 10
-3113.1241428259564
 20
-845.31918179687375
 30
0.0
 41
1.0
 10
-3113.1653952802553
 20
-845.27865043926658
 30
0.0
 41
0.9982442159081095
 10
-3113.2111513815898
 20
-845.24328187800745
 30
0.0
 41
1.0
 10
-3113.2113661770518
 20
-845.24311584536395
 30
0.0
 41
1.0
 10
-3113.2115809725142
 20
-845.24294981272044
 30
0.0
 41
1.0
 10
-3113.2569074829262
 20
-845.2079133167465
 30
0.0
 41
0.9982450060834803
 10
-3113.3060584619971
 20
-845.17848153371369
 30
0.0
 41
1.0
 10
-3113.3552094410679
 20
-845.14904975068066
 30
0.0
 41
0.9983922639636848
 10
-3113.4073757472347
 20
-845.12537011602546
 30
0.0
 41
1.0
 10
-3113.4076026245584
 20
-845.12526713054433
 30
0.0
 41
1.0
 10
-3113.4078295018826
 20
-845.1251641450632
 30
0.0
 41
1.0
 10
-3113.4604495626963
 20
-845.10127853944641
 30
0.0
 41
0.9986517147151105
 10
-3113.5152625355627
 20
-845.08297742032528
 30
0.0
 41
1.0
 10
-3113.5159404569913
 20
-845.08275107389341
 30
0.0
 41
1.0
 10
-3113.5166183784204
 20
-845.08252472746165
 30
0.0
 41
1.0
 10
-3113.5727871941453
 20
-845.06377091547677
 30
0.0
 41
0.99894355989575
 10
-3113.6304405812994
 20
-845.0502532132416
 30
0.0
 41
1.0
 10
-3113.6315207008793
 20
-845.04999996298898
 30
0.0
 41
1.0
 10
-3113.6326008204587
 20
-845.04974671273646
 30
0.0
 41
1.0
 10
-3113.6924144467689
 20
-845.03572250999707
 30
0.0
 41
0.9992249241240976
 10
-3113.7531459556672
 20
-845.02644716728139
 30
0.0
 41
1.0
 10
-3113.7545596439604
 20
-845.02623125887317
 30
0.0
 41
1.0
 10
-3113.7559733322532
 20
-845.02601535046506
 30
0.0
 41
1.0
 10
-3113.819532217733
 20
-845.01630819093407
 30
0.0
 41
0.999439659783298
 10
-3113.8835981542638
 20
-845.01087526858896
 30
0.0
 41
1.0
 10
-3113.9027388217446
 20
-845.00925210087007
 30
0.0
 41
1.0
 10
-3113.9218794892249
 20
-845.00762893315118
 30
0.0
 41
1.0
 10
-3114.0242267607173
 20
-844.99894967536807
 30
0.0
 41
0.9987693403120679
 10
-3114.126930384306
 20
-845.00045273882085
 30
0.0
 41
1.0
 10
-3114.1371847185328
 20
-845.00060281059507
 30
0.0
 41
1.0
 10
-3114.1474390527596
 20
-845.00075288236928
 30
0.0
 41
1.0
 10
-3114.2569948189393
 20
-845.00235622665684
 30
0.0
 41
0.9989753644966751
 10
-3114.3659568189541
 20
-845.0138592335818
 30
0.0
 41
1.0
 10
-3114.4749188189717
 20
-845.02536224050698
 30
0.0
 41
0.9983190067304659
 10
-3114.5818176299367
 20
-845.04939723229404
 30
0.0
 41
1.0
 10
-3114.5907185815431
 20
-845.05139851085664
 30
0.0
 41
1.0
 10
-3114.5996195331491
 20
-845.05339978941913
 30
0.0
 41
1.0
 10
-3114.7243202473283
 20
-845.08143733833117
 30
0.0
 41
0.9985539388301956
 10
-3114.8452900010066
 20
-845.12270101437718
 30
0.0
 41
1.0
 10
-3114.8476354319664
 20
-845.12350105819291
 30
0.0
 41
1.0
 10
-3114.8499808629263
 20
-845.12430110200853
 30
0.0
 41
1.0
 10
-3114.9756414785247
 20
-845.16716486568589
 30
0.0
 41
0.998846874649365
 10
-3115.0966118208275
 20
-845.22188295074955
 30
0.0
 41
1.0
 10
-3115.0997946428151
 20
-845.22332262530881
 30
0.0
 41
1.0
 10
-3115.1029774648023
 20
-845.22476229986808
 30
0.0
 41
1.0
 10
-3115.2303134510807
 20
-845.28235973405049
 30
0.0
 41
0.999132288591894
 10
-3115.3524140351378
 20
-845.35035506623274
 30
0.0
 41
1.0
 10
-3115.3700160461794
 20
-845.3601572682212
 30
0.0
 41
1.0
 10
-3115.3876180572206
 20
-845.36995947020966
 30
0.0
 41
1.0
 10
-3115.4897947382769
 20
-845.42685958598975
 30
0.0
 41
0.9993860037849495
 10
-3115.5877357423551
 20
-845.49077560158105
 30
0.0
 41
1.0
 10
-3115.5933540552087
 20
-845.49444209627654
 30
0.0
 41
1.0
 10
-3115.5989723680618
 20
-845.49810859097215
 30
0.0
 41
1.0
 10
-3115.6856767464292
 20
-845.55469161717008
 30
0.0
 41
0.9998821494952689
 10
-3115.7706031222415
 20
-845.6139098472463
 30
0.0
 41
1.0
 10
-3115.8555294980547
 20
-845.6731280773231
 30
0.0
 41
0.9997976482744638
 10
-3115.9380051284661
 20
-845.73571448537064
 30
0.0
 41
1.0
 10
-3115.9526413932672
 20
-845.74682117514749
 30
0.0
 41
1.0
 10
-3115.9672776580678
 20
-845.75792786492445
 30
0.0
 41
1.0
 10
-3116.0790258180814
 20
-845.8427276525257
 30
0.0
 41
0.9998091630799738
 10
-3116.1873760961153
 20
-845.93182800323223
 30
0.0
 41
1.0
 10
-3116.2003818485896
 20
-845.94252310367574
 30
0.0
 41
1.0
 10
-3116.2133876010639
 20
-845.95321820411937
 30
0.0
 41
1.0
 10
-3116.3477493840487
 20
-846.06370875571497
 30
0.0
 41
0.999503511231717
 10
-3116.4748852618118
 20
-846.18244257272988
 30
0.0
 41
1.0
 10
-3116.4845325721999
 20
-846.19145231888888
 30
0.0
 41
1.0
 10
-3116.4941798825885
 20
-846.20046206504776
 30
0.0
 41
1.0
 10
-3116.6176029453504
 20
-846.31572843680021
 30
0.0
 41
0.9994630424298707
 10
-3116.7332113511329
 20
-846.43883118003453
 30
0.0
 41
1.0
 10
-3116.7368941899049
 20
-846.44275275954806
 30
0.0
 41
1.0
 10
-3116.7405770286769
 20
-846.4466743390617
 30
0.0
 41
1.0
 10
-3116.8488197569168
 20
-846.56193392326963
 30
0.0
 41
0.9995160693749948
 10
-3116.9496857864488
 20
-846.6837013411423
 30
0.0
 41
1.0
 10
-3116.9516195065275
 20
-846.68603576534815
 30
0.0
 41
1.0
 10
-3116.9535532266063
 20
-846.68837018955412
 30
0.0
 41
1.0
 10
-3117.0505518159816
 20
-846.8054687590153
 30
0.0
 41
0.9996561470514108
 10
-3117.1412780346473
 20
-846.92749152146405
 30
0.0
 41
1.0
 10
-3117.1474357005418
 20
-846.93577331049687
 30
0.0
 41
1.0
 10
-3117.1535933664368
 20
-846.94405509952958
 30
0.0
 41
1.0
 10
-3117.2320042533061
 20
-847.04951428390405
 30
0.0
 41
0.9998349055172003
 10
-3117.3065315352451
 20
-847.15775286757662
 30
0.0
 41
1.0
 10
-3117.3810588171737
 20
-847.26599145123498
 30
0.0
 41
0.9999728109556229
 10
-3117.4539817130881
 20
-847.37531737679615
 30
0.0
 41
1.0
 10
-3117.4552969284996
 20
-847.37728914629815
 30
0.0
 41
1.0
 10
-3117.4566121439111
 20
-847.37926091580027
 30
0.0
 41
1.0
 10
-3117.5321654706477
 20
-847.49253038036591
 30
0.0
 41
0.9999972147396999
 10
-3117.6071832810385
 20
-847.60615522322587
 30
0.0
 41
1.0
 10
-3117.6121548236511
 20
-847.61368531168341
 30
0.0
 41
1.0
 10
-3117.6171263662636
 20
-847.62121540014095
 30
0.0
 41
1.0
 10
-3117.7020872618891
 20
-847.74990041993215
 30
0.0
 41
0.9999371979004988
 10
-3117.7841426112964
 20
-847.88045733371462
 30
0.0
 41
1.0
 10
-3117.7876514956533
 20
-847.88604026177211
 30
0.0
 41
1.0
 10
-3117.7911603800103
 20
-847.8916231898296
 30
0.0
 41
1.0
 10
-3117.8802334981342
 20
-848.03334595973115
 30
0.0
 41
0.9998272025611673
 10
-3117.9639768890111
 20
-848.17828183646338
 30
0.0
 41
1.0
 10
-3117.9791920610401
 20
-848.20461495092866
 30
0.0
 41
1.0
 10
-3117.9944072330691
 20
-848.23094806539393
 30
0.0
 41
1.0
 10
-3118.1085809679985
 20
-848.42855017104864
 30
0.0
 41
0.9995217214838388
 10
-3118.2103206575543
 20
-848.63283249891049
 30
0.0
 41
1.0
 10
-3118.2179642201868
 20
-848.64817994860857
 30
0.0
 41
1.0
 10
-3118.2256077828192
 20
-848.66352739830666
 30
0.0
 41
1.0
 10
-3118.3125130754106
 20
-848.83802385639069
 30
0.0
 41
0.9998269762606316
 10
-3118.3928675416864
 20
-849.01563214312262
 30
0.0
 41
1.0
 10
-3118.4732220079577
 20
-849.19324042984442
 30
0.0
 41
0.9998944747388265
 10
-3118.5483828025194
 20
-849.37310815546618
 30
0.0
 41
1.0
 10
-3118.5533364721077
 20
-849.38496281037669
 30
0.0
 41
1.0
 10
-3118.558290141696
 20
-849.39681746528731
 30
0.0
 41
1.0
 10
-3118.6389372022522
 20
-849.58981440531306
 30
0.0
 41
0.999950673440534
 10
-3118.7157347311627
 20
-849.78437521018554
 30
0.0
 41
1.0
 10
-3118.730334696425
 20
-849.82136313196975
 30
0.0
 41
1.0
 10
-3118.7449346616872
 20
-849.85835105375406
 30
0.0
 41
1.0
 10
-3118.7925322600636
 20
-849.97893601503506
 30
0.0
 41
0.9999912393923447
 10
-3118.8391187040888
 20
-850.09991521773748
 30
0.0
 41
1.0
 10
-3118.8857051481109
 20
-850.22089442043284
 30
0.0
 41
0.9999927113955478
 10
-3118.9313664425076
 20
-850.34222582794177
 30
0.0
 41
1.0
 10
-3118.9453348739044
 20
-850.3793428099375
 30
0.0
 41
1.0
 10
-3118.9593033053006
 20
-850.41645979193311
 30
0.0
 41
1.0
 10
-3119.0329014624945
 20
-850.61202516344406
 30
0.0
 41
0.9999487550951478
 10
-3119.1025250874695
 20
-850.80904052863627
 30
0.0
 41
1.0
 10
-3119.1261186974111
 20
-850.8758038389426
 30
0.0
 41
1.0
 10
-3119.1497123073527
 20
-850.94256714924904
 30
0.0
 41
1.0
 10
-3119.244397941713
 20
-851.21050098404453
 30
0.0
 41
0.9999808436947483
 10
-3119.3357595303478
 20
-851.47958641529033
 30
0.0
 41
1.0
 10
-3119.4271211190025
 20
-851.74867184659502
 30
0.0
 41
0.999987393292335
 10
-3119.515775827736
 20
-852.01866120165528
 30
0.0
 41
1.0
 10
-3119.535868184591
 20
-852.0798505343646
 30
0.0
 41
1.0
 10
-3119.555960541446
 20
-852.14103986707403
 30
0.0
 41
1.0
 10
-3119.6847999639003
 20
-852.53340788758544
 30
0.0
 41
0.999979488303922
 10
-3119.808602748858
 20
-852.92739409386138
 30
0.0
 41
1.0
 10
-3119.8197550083178
 20
-852.96288470416994
 30
0.0
 41
1.0
 10
-3119.830907267778
 20
-852.99837531447838
 30
0.0
 41
1.0
 10
-3119.973465431648
 20
-853.45204806647735
 30
0.0
 41
0.9999982761713615
 10
-3120.1143378716488
 20
-853.90624708855432
 30
0.0
 41
1.0
 10
-3121.7024782042213
 20
-858.95501681955761
 30
0.0
 41
1.0
 10
-3123.2906185367938
 20
-864.0037865505609
 30
0.0
 41
1.0
 10
-3124.2393691482703
 20
-864.0037865505609
 30
0.0
 41
1.0
 10
-3125.1881197597468
 20
-864.0037865505609
 30
0.0
 41
1.0
 10
-3121.9498352735936
 20
-853.67646435061476
 30
0.0
 41
1.0
 10
-3118.71155078744
 20
-843.34914215066863
 30
0.0
 41
1.0
  0
LWPOLYLINE
  5
61
100
AcDbEntity
  8
0
370
              15
390
0
  6
Continuous
 62
               7
100
AcDbPolyline
 90
      232
 70
             128
 10
-3144.4150965612671
 20
-844.43348498218381
 42
0.0004370800694975
 10
-3144.4679737353349
 20
-844.50215162143445
 10
-3144.5072579664666
 20
-844.55325873433662
 42
0.0030481992176968
 10
-3144.637596683639
 20
-844.72498042675159
 10
-3144.6761083553365
 20
-844.77636721046895
 42
0.004205824576339
 10
-3144.8800934060282
 20
-845.05337295557331
 10
-3144.9324985285066
 20
-845.12580580232338
 42
0.0120948898741287
 10
-3145.2285424452652
 20
-845.55655540686769
 10
-3145.3247349443959
 20
-845.70403614210602
 42
0.0141601263951108
 10
-3145.6283789913123
 20
-846.1997054788327
 10
-3145.6679162587311
 20
-846.26854944625234
 42
0.0071131081300208
 10
-3145.8731885819766
 20
-846.63805224510259
 42
0.0068458791005658
 10
-3146.0680681088111
 20
-847.01314380856206
 10
-3146.0748799712774
 20
-847.02670552230234
 42
0.0064120880290522
 10
-3146.2730222213163
 20
-847.43412999720999
 10
-3146.2805569068387
 20
-847.45014185394245
 42
0.0058857236448283
 10
-3146.4833122987066
 20
-847.89451796496871
 10
-3146.4914872250042
 20
-847.9130081186114
 42
0.0053189741895739
 10
-3146.7001915376759
 20
-848.39897159253985
 10
-3146.708939343353
 20
-848.41995347072543
 42
0.0047503650418463
 10
-3146.9249130694925
 20
-848.95215290390718
 10
-3146.9341813178517
 20
-848.97562928004299
 42
0.004207176217558
 10
-3147.1587287016046
 20
-849.55872287417799
 10
-3147.1684781039285
 20
-849.58468904898245
 42
0.0036680086485526
 10
-3147.402932747234
 20
-850.22332443349569
 10
-3147.4131405270882
 20
-850.25177296785819
 42
0.0032573142631322
 10
-3147.6587728130598
 20
-850.95062562762553
 10
-3147.7274233339017
 20
-851.15008871168175
 42
0.0026133366647757
 10
-3148.0758685326537
 20
-852.17995199533641
 10
-3148.1391253201555
 20
-852.37018283073303
 42
0.0020592950744181
 10
-3148.3529883891215
 20
-853.02228648334255
 10
-3148.3560401802943
 20
-853.03172297178287
 42
0.0025609928535716
 10
-3148.5578606817703
 20
-853.66686819411814
 10
-3148.5604520489014
 20
-853.67517053507345
 42
0.0031362356242996
 10
-3148.7499428345741
 20
-854.29593339123824
 10
-3148.7520738774947
 20
-854.30307469742672
 42
0.0037229918028016
 10
-3148.928874264428
 20
-854.91205999942349
 10
-3148.9305528536383
 20
-854.91800688961121
 42
0.0043077623707524
 10
-3149.0942936556994
 20
-855.51782562136691
 42
0.0047654161821345
 10
-3149.2471223782113
 20
-856.12051171025246
 10
-3149.2815869870547
 20
-856.262073487419
 42
0.0112969368446529
 10
-3149.4774513451957
 20
-857.15376564803398
 10
-3149.5054577342944
 20
-857.29659369414105
 42
0.0130056762571627
 10
-3149.7062949779411
 20
-858.48353476578598
 10
-3149.7268347280888
 20
-858.62761287926651
 42
0.0138721532144305
 10
-3149.830537732626
 20
-859.53444236508869
 10
-3149.849833220534
 20
-859.75794008701587
 42
0.0071254697004307
 10
-3149.8831798664569
 20
-860.22112709586099
 10
-3149.8881408406237
 20
-860.30713109048179
 42
0.0028881799211294
 10
-3149.9032791339096
 20
-860.59887280026373
 42
0.006029729714646
 10
-3149.9132113336868
 20
-860.89082173644795
 10
-3149.9142736153522
 20
-860.93921410829489
 42
0.0229523164138704
 10
-3149.9065425875669
 20
-861.2619689545952
 10
-3149.9023168140461
 20
-861.32237248861475
 42
0.0123673300662689
 10
-3149.8832381675284
 20
-861.5234932137862
 42
0.0128577674466234
 10
-3149.8540427771236
 20
-861.72339106370362
 10
-3149.8469169037348
 20
-861.76471987830996
 42
0.0285717853772384
 10
-3149.7824229020366
 20
-862.04283602963153
 10
-3149.7687543783741
 20
-862.08949079909553
 42
0.0316283099155801
 10
-3149.6529437984582
 20
-862.40850530092632
 10
-3149.6498951067033
 20
-862.41549167325059
 42
0.0338984824235447
 10
-3149.500463395736
 20
-862.70305763744102
 10
-3149.4981546663657
 20
-862.70684866671741
 42
0.0350228718356841
 10
-3149.3157943756923
 20
-862.96390065139383
 10
-3149.3149091239161
 20
-862.96497972915915
 42
0.0347476747532687
 10
-3149.1004844366771
 20
-863.19216477637792
 42
0.0331337701907873
 10
-3148.8572411109303
 20
-863.38829343845578
 10
-3148.8561410124148
 20
-863.38906614162784
 42
0.0305233319081826
 10
-3148.5875963168428
 20
-863.55419431171845
 10
-3148.58436627234
 20
-863.55591832358186
 42
0.0273744481156208
 10
-3148.2918125607684
 20
-863.69205646747116
 10
-3148.2867080256283
 20
-863.69410005194197
 42
0.0240964406196045
 10
-3147.9712309499823
 20
-863.80308377822337
 10
-3147.9646476207727
 20
-863.80500851789839
 42
0.02096361798087
 10
-3147.6272474681209
 20
-863.88847666583024
 10
-3147.6196150076712
 20
-863.8900285788319
 42
0.018138870469341
 10
-3147.2612926156708
 20
-863.94944467204607
 10
-3147.2530117672945
 20
-863.95051085586294
 42
0.0156086547587171
 10
-3146.8748244031071
 20
-863.98724704243955
 10
-3146.8316291507731
 20
-863.99008554491888
 42
0.0137148329025152
 10
-3146.5039560054797
 20
-864.00260580016993
 10
-3146.458019815539
 20
-864.00310023328518
 42
0.0051057823881759
 10
-3146.2218742289615
 20
-864.00323048769428
 42
0.0052256693321419
 10
-3145.9857769451769
 20
-863.99848166323
 10
-3145.9155501614332
 20
-863.99633469721596
 42
0.0161507179053545
 10
-3145.5398130833273
 20
-863.97268432688895
 10
-3145.5198001229592
 20
-863.97077413160184
 42
0.0101216737826094
 10
-3145.1057729014706
 20
-863.9227812012366
 10
-3145.0717196120418
 20
-863.91813350442669
 42
0.0245291776405355
 10
-3144.5949299564918
 20
-863.82905842635057
 10
-3144.5101066409661
 20
-863.80886250600452
 42
0.0143509212560875
 10
-3144.1534755370271
 20
-863.71305787222582
 42
0.015655785703597
 10
-3143.8032594722972
 20
-863.59604665640609
 10
-3143.7957582578051
 20
-863.59327649465286
 42
0.0170137333631779
 10
-3143.439162262122
 20
-863.44761887978098
 10
-3143.4320583397161
 20
-863.44443104421805
 42
0.0183105364408451
 10
-3143.0727086715524
 20
-863.26709600239508
 10
-3143.0657619069111
 20
-863.26334556752158
 42
0.0194899958153233
 10
-3142.7072811659277
 20
-863.0513665856314
 10
-3142.7002672865901
 20
-863.04684124333585
 42
0.0204869852945332
 10
-3142.346252984496
 20
-862.79732122824953
 10
-3142.3389873759097
 20
-862.79174116290164
 42
0.0212516938560437
 10
-3141.9929974448019
 20
-862.50183716600759
 10
-3141.9464807507284
 20
-862.45936985591561
 42
0.0215248918247001
 10
-3141.686454581838
 20
-862.20060557691886
 10
-3141.6414248474512
 20
-862.15176145556211
 42
0.0114578554957188
 10
-3141.4866326937804
 20
-861.97593852211071
 10
-3141.4754381577932
 20
-861.96261975856453
 42
0.0061531305136084
 10
-3141.3489635117994
 20
-861.80833022525962
 42
0.0006325587121726
 10
-3141.2245850274853
 20
-861.65232684937985
 10
-3141.2015448925958
 20
-861.62335332892451
 42
0.004189776155795
 10
-3141.0330894886151
 20
-861.40783395285166
 10
-3140.9746273687315
 20
-861.33173260587751
 42
0.0092993880035499
 10
-3140.6980154415096
 20
-860.95745384199677
 10
-3140.6156209483042
 20
-860.84151683841924
 42
0.015932172709076
 10
-3140.2690144656663
 20
-860.31934261766889
 10
-3140.2246583302731
 20
-860.24766305341234
 42
0.0085547317024588
 10
-3139.9901465649509
 20
-859.85378810419422
 42
0.0084601156886908
 10
-3139.7691703875021
 20
-859.45216125514901
 10
-3139.7610549136789
 20
-859.43680157288907
 42
0.008142965428004
 10
-3139.5378056432419
 20
-858.99708006034973
 10
-3139.5289454790573
 20
-858.97890121832893
 42
0.0076574581323846
 10
-3139.3025379684968
 20
-858.49571834308995
 10
-3139.2930583277666
 20
-858.47465386477279
 42
0.007068272420116
 10
-3139.0626134199497
 20
-857.94261655996752
 10
-3139.0526231359781
 20
-857.91862737097995
 42
0.006455951444534
 10
-3138.8172899278015
 20
-857.33231510447229
 10
-3138.8068805696321
 20
-857.30538017901881
 42
0.0058311413909148
 10
-3138.5658338328576
 20
-856.65934808460315
 10
-3138.5550787554816
 20
-856.62946374347462
 42
0.0052312425819468
 10
-3138.3074974774386
 20
-855.91826132963308
 10
-3138.2964536410609
 20
-855.88543461757035
 42
0.0046680544795236
 10
-3138.0415252133316
 20
-855.10360830183208
 10
-3137.9995330632819
 20
-854.9706250645213
 42
0.0041666856442925
 10
-3137.7962470508878
 20
-854.30765628951792
 10
-3137.7585846102352
 20
-854.18107518190197
 42
0.0015170975159241
 10
-3137.6373980318112
 20
-853.76920683037054
 42
-0.0004887993106381
 10
-3137.5170582585333
 20
-853.35708841780058
 10
-3137.4405810011931
 20
-853.09613103238746
 42
0.0002583378930805
 10
-3137.167366430976
 20
-852.16207432868555
 10
-3137.085593581553
 20
-851.88197506962854
 42
0.0006636169670479
 10
-3136.8917258215406
 20
-851.21462214603832
 10
-3136.8866291672043
 20
-851.19699056319496
 42
0.0010589131326604
 10
-3136.7051804662769
 20
-850.56425922010942
 10
-3136.7001983958007
 20
-850.54674631310479
 42
0.0015655524459001
 10
-3136.5319281886141
 20
-849.94812963388847
 10
-3136.5270979882166
 20
-849.93073747501512
 42
0.0021640440477607
 10
-3136.3728080162127
 20
-849.36571045693449
 10
-3136.36817379678
 20
-849.34844572692964
 42
0.0028763871852702
 10
-3136.2286580787295
 20
-848.81647777609362
 10
-3136.2242722145661
 20
-848.79935379795415
 42
0.0037310511942255
 10
-3136.1003155227254
 20
-848.29990620391527
 10
-3136.09624030243
 20
-848.28294593264354
 42
0.0047652197768697
 10
-3135.9886164019281
 20
-847.81546816436469
 10
-3135.9849258026029
 20
-847.79870860920687
 42
0.0060276699296036
 10
-3135.8943957034512
 20
-847.36263281407048
 10
-3135.8911770131613
 20
-847.3461315997564
 42
0.0075824337764478
 10
-3135.8184877037465
 20
-846.94086443533513
 10
-3135.8158423263658
 20
-846.92470948788082
 42
0.0095130624605203
 10
-3135.7617270907349
 20
-846.54962013481281
 10
-3135.7547408668524
 20
-846.49368657669606
 42
0.0121054653233034
 10
-3135.7281495362749
 20
-846.22879074822242
 10
-3135.7272830465145
 20
-846.21738730527875
 42
0.0069050827395244
 10
-3135.7121942284775
 20
-845.97444607844909
 10
-3135.7110589288095
 20
-845.95091982141889
 42
0.0169063976681467
 10
-3135.7082316498286
 20
-845.7547270941036
 10
-3135.7094023013606
 20
-845.69439133271987
 42
0.005200773294594
 10
-3135.711655749953
 20
-845.61879794260233
 42
0.0054038123287222
 10
-3135.7316192617836
 20
-845.4987796466404
 10
-3135.7367051176625
 20
-845.47012116001122
 42
0.01120504604685
 10
-3135.772089479718
 20
-845.29379472168443
 10
-3135.7899144417615
 20
-845.21425313495138
 42
0.0240764468004683
 10
-3135.880811807905
 20
-844.88401609945709
 10
-3135.8993705707185
 20
-844.82739593446263
 42
0.0256812331828511
 10
-3136.04273349091
 20
-844.45567172819904
 10
-3136.0481429167316
 20
-844.4435403932091
 42
0.0268360501214968
 10
-3136.2175701575816
 20
-844.11254725918832
 10
-3136.22310656522
 20
-844.10302758887053
 42
0.0274670231734856
 10
-3136.4153075416298
 20
-843.81074021395875
 10
-3136.4206888415888
 20
-843.80346106642241
 42
0.0275035967090581
 10
-3136.6322617211545
 20
-843.54794517611333
 10
-3136.6373312221226
 20
-843.54246608848121
 42
0.0269557673525552
 10
-3136.8647347655606
 20
-843.32182380252061
 10
-3136.8694778233398
 20
-843.31769384806296
 42
0.0259124802208848
 10
-3137.1090326547737
 20
-843.13000332090746
 10
-3137.1135634999619
 20
-843.1268178185727
 42
0.0245162153000318
 10
-3137.3614798530507
 20
-842.9700848094667
 10
-3137.3660063993784
 20
-842.9675246122639
 42
0.0229282588836203
 10
-3137.6184259562024
 20
-842.83965641976692
 10
-3137.623206450035
 20
-842.83750412000677
 42
0.0212984135690219
 10
-3137.8762444025006
 20
-842.73630520276265
 10
-3137.8815486874714
 20
-842.73444164000227
 42
0.0197555462342092
 10
-3138.1313270251931
 20
-842.65762622203783
 42
0.0183511896792466
 10
-3138.3862557506545
 20
-842.60004331507287
 10
-3138.4726209473802
 20
-842.58384052468728
 42
0.0338057877157134
 10
-3138.7581282966398
 20
-842.55003211954704
 10
-3138.8491337016853
 20
-842.5454524642854
 42
0.0091990524487925
 10
-3138.9549808103156
 20
-842.54207660836357
 42
0.0028333980805744
 10
-3139.0608947262972
 20
-842.5412485008469
 10
-3139.061810179358
 20
-842.54124653102281
 42
-0.002361982783054
 10
-3139.1695561944634
 20
-842.54050568994433
 10
-3139.2059613646397
 20
-842.54008338348126
 42
0.0008824598490959
 10
-3139.386517354485
 20
-842.53830760524306
 10
-3139.4303787868957
 20
-842.5379536437174
 42
0.0038132665768256
 10
-3139.6986616827794
 20
-842.53783470765086
 10
-3139.7151953375678
 20
-842.53795347379435
 42
0.0060665569328842
 10
-3140.0164758291639
 20
-842.54377377321532
 10
-3140.0307261611842
 20
-842.54422208118274
 42
0.0080356953328767
 10
-3140.3601848775197
 20
-842.55988980324935
 10
-3140.3722548926107
 20
-842.56065838619008
 42
0.009899639910563
 10
-3140.7250179772618
 20
-842.59014361538823
 10
-3140.7350636866367
 20
-842.59118391158643
 42
0.0117740981362839
 10
-3141.1062205449825
 20
-842.63847615911595
 10
-3141.1144432414676
 20
-842.63972127568707
 42
0.0137435215138627
 10
-3141.4990320609531
 20
-842.70881824924879
 10
-3141.5056891000763
 20
-842.71020414548229
 42
0.0158359869384252
 10
-3141.8986861938802
 20
-842.80509623396347
 10
-3141.9040993807457
 20
-842.80658617483357
 42
0.0180554124030289
 10
-3142.3004144253609
 20
-842.93122419107317
 10
-3142.3049712134416
 20
-842.9328402273386
 42
0.0203657431285535
 10
-3142.6994487312522
 20
-843.09110056885402
 10
-3142.7035922702603
 20
-843.09296219029625
 42
0.0226819684654621
 10
-3143.0910283264648
 20
-843.2886047689675
 10
-3143.0952281174823
 20
-843.29097036088706
 42
0.0248634984610197
 10
-3143.4704100586659
 20
-843.52759700683623
 10
-3143.5186049874487
 20
-843.56145404866083
 42
0.0267044190880197
 10
-3143.7928976843641
 20
-843.77689442452811
 42
0.0139303002203473
 10
-3144.0490648503019
 20
-844.01413326543968
 10
-3144.0539182360235
 20
-844.01888592830016
 42
0.0283460963446794
 10
-3144.2979908302518
 20
-844.2866165887466
 10
-3144.3376593354074
 20
-844.33541816621835
 42
0.007069536482654
 10
-3144.4150965612671
 20
-844.43348498218381
 42
0.007069536482654
  0
LWPOLYLINE
  5
62
100
AcDbEntity
  8
0
370
              15
390
0
  6
Continuous
 62
               7
100
AcDbPolyline
 90
      226
 70
             128
 10
-3147.9439169985135
 20
-860.15507378836776
 42
-0.0026277636610305
 10
-3147.9439948823133
 20
-860.08830186258149
 10
-3147.9437775240813
 20
-860.03514664518161
 42
-0.0088680296731741
 10
-3147.9400009077885
 20
-859.86213086277826
 10
-3147.9376545486757
 20
-859.80285083732497
 42
-0.0077381705619083
 10
-3147.9216084379127
 20
-859.51159034152681
 10
-3147.9207405267398
 20
-859.49930210784169
 42
-0.0068872530536147
 10
-3147.8941084469907
 20
-859.18408035576419
 10
-3147.8929042228056
 20
-859.17183937675395
 42
-0.0062130021485544
 10
-3147.8553105059773
 20
-858.83296968551269
 10
-3147.8538066024425
 20
-858.82079581359892
 42
-0.0056726929678991
 10
-3147.8048847429504
 20
-858.4586005915537
 10
-3147.8031112972958
 20
-858.44650679124015
 42
-0.0052341884496426
 10
-3147.7425007110355
 20
-858.06131353571766
 10
-3147.7404827222595
 20
-858.04930860572983
 42
-0.0049768450170919
 10
-3147.6677440408334
 20
-857.64146403830068
 10
-3147.6434950261109
 20
-857.51291605529127
 42
-0.0089029805620619
 10
-3147.5064141743119
 20
-856.8511406078477
 10
-3147.473668798998
 20
-856.70610917734541
 42
-0.0080318257102003
 10
-3147.2441201846591
 20
-855.7603995454981
 10
-3147.2321352582094
 20
-855.7142689103016
 42
-0.0074265721316403
 10
-3146.9481237193572
 20
-854.68420433191454
 10
-3146.9282441762412
 20
-854.61607027132743
 42
-0.0069711922701777
 10
-3146.6009395977358
 20
-853.54980253100371
 10
-3146.5409876506205
 20
-853.36378117260347
 42
-0.0052070422893744
 10
-3146.311562425371
 20
-852.67650909560177
 10
-3146.2942812331444
 20
-852.62648181482666
 42
-0.0009167004445592
 10
-3146.0911893459092
 20
-852.04202596683058
 42
-0.0025162726941449
 10
-3145.8840917156308
 20
-851.45898470262421
 10
-3145.8468671038277
 20
-851.35583515672613
 42
-0.0028212681458369
 10
-3145.5986911848781
 20
-850.68010452459157
 10
-3145.5888604221113
 20
-850.65379707987222
 42
-0.0031964916822652
 10
-3145.3525681644651
 20
-850.03359231778779
 10
-3145.3429337104717
 20
-850.00878232765842
 42
-0.0036281836449727
 10
-3145.117827749365
 20
-849.44134164675143
 10
-3145.108389339212
 20
-849.41804421525921
 42
-0.0041269166835002
 10
-3144.8937716425485
 20
-848.90060331927032
 10
-3144.8611386861344
 20
-848.82372487292503
 42
-0.0047472213054138
 10
-3144.704093880574
 20
-848.46330340502584
 10
-3144.697199799351
 20
-848.44788280766045
 42
-0.0025651659994151
 10
-3144.5488417655156
 20
-848.12055475194541
 42
-0.0057144634992194
 10
-3144.3950920717457
 20
-847.79574507858513
 10
-3144.3670613663344
 20
-847.73823669617013
 42
-0.0065388068369456
 10
-3144.1835943386031
 20
-847.37400419952371
 10
-3144.1751358828178
 20
-847.35774462014126
 42
-0.0074510843031578
 10
-3143.9989536369467
 20
-847.03105633903147
 10
-3143.9907739664213
 20
-847.01641556177265
 42
-0.0084648979863028
 10
-3143.8211401133158
 20
-846.72450655080149
 10
-3143.8132839868194
 20
-846.71149955913722
 42
-0.0095638542809492
 10
-3143.6494485392332
 20
-846.45161068717209
 10
-3143.6419735955551
 20
-846.44024132570701
 42
-0.0107191626802699
 10
-3143.4831720151742
 20
-846.20963009117258
 10
-3143.4761552814421
 20
-846.19989399880637
 42
-0.0118458573912408
 10
-3143.3216071829306
 20
-845.99582180349728
 42
-0.0129184518187189
 10
-3143.157154559336
 20
-845.79966128733474
 10
-3143.1270097869651
 20
-845.76553520842606
 42
-0.0217742579641766
 10
-3142.9503974646304
 20
-845.58232843817723
 10
-3142.9396519201719
 20
-845.57211160497593
 42
-0.0097266568649107
 10
-3142.7735943013145
 20
-845.42026403053694
 42
-0.0187720905731396
 10
-3142.5992467254318
 20
-845.27819517715329
 10
-3142.5685407347491
 20
-845.25503609475038
 42
-0.0179428207514904
 10
-3142.3361200147547
 20
-845.09248391763992
 10
-3142.3324676878369
 20
-845.09011998275082
 42
-0.0170047877697296
 10
-3142.0967040503083
 20
-844.94865946860068
 10
-3142.0929210615636
 20
-844.94656116356555
 42
-0.0160190788363073
 10
-3141.8560125139265
 20
-844.82490986157632
 42
-0.0151102861492793
 10
-3141.6119807314763
 20
-844.71822708551997
 10
-3141.5595942292684
 20
-844.69718695262702
 42
-0.0271945441891294
 10
-3141.2009316702106
 20
-844.57532214192122
 10
-3141.1318668697218
 20
-844.55597260065463
 42
-0.0237596594016591
 10
-3140.7160700226996
 20
-844.46052188867316
 10
-3140.6480071689703
 20
-844.44826720054664
 42
-0.0213715440558463
 10
-3140.3621322375238
 20
-844.4093201690365
 10
-3140.301985071304
 20
-844.40373045433546
 42
-0.0101465655821448
 10
-3140.1344925393114
 20
-844.3915869110715
 10
-3140.1251521531144
 20
-844.39109999607433
 42
-0.0100375910882103
 10
-3139.9759980525505
 20
-844.38632417814904
 10
-3139.9657387828715
 20
-844.38620173913455
 42
-0.0103625633383431
 10
-3139.8370307882151
 20
-844.38733317266122
 10
-3139.8147651369513
 20
-844.38799053112598
 42
-0.0115689250219267
 10
-3139.7307143994203
 20
-844.39242003737127
 42
-0.0072438037427649
 10
-3139.6468761199781
 20
-844.40000923712091
 10
-3139.6300756105084
 20
-844.4017757798448
 42
-0.0217917313137325
 10
-3139.5135058471951
 20
-844.41919567256582
 10
-3139.4479057566268
 20
-844.43194228098059
 42
-0.033294355674671
 10
-3139.2435135916003
 20
-844.48598257228741
 10
-3139.2133410230495
 20
-844.4961506494061
 42
-0.0184824084810055
 10
-3139.0748359665849
 20
-844.54860166479239
 42
-0.0198002050718633
 10
-3138.9407616260919
 20
-844.61148572498837
 10
-3138.9388749887084
 20
-844.61246351187162
 42
-0.0212242342984816
 10
-3138.8067360463069
 20
-844.68822625066434
 10
-3138.8049207507629
 20
-844.68937205287307
 42
-0.0226090605783617
 10
-3138.6764168495397
 20
-844.77885169643866
 10
-3138.6745724078037
 20
-844.78026394942503
 42
-0.0238457052236726
 10
-3138.5513903265123
 20
-844.88425984528556
 10
-3138.5494375979515
 20
-844.88607472305353
 42
-0.0248160564154435
 10
-3138.4332360906542
 20
-845.00534932425899
 10
-3138.4311324572491
 20
-845.00773465796669
 42
-0.0254109591460559
 10
-3138.3235272393831
 20
-845.14302304393129
 10
-3138.3212792174691
 20
-845.14616459233162
 42
-0.0255528488287683
 10
-3138.2238325386738
 20
-845.2981916465626
 10
-3138.2215014387557
 20
-845.3022732581735
 42
-0.0252146793192318
 10
-3138.1357204127412
 20
-845.4717755041828
 10
-3138.1334181735892
 20
-845.47695758608336
 42
-0.0244265635945235
 10
-3138.0607634798248
 20
-845.66470415813933
 10
-3138.0515170783578
 20
-845.69256957647247
 42
-0.0231319612891557
 10
-3138.0055942993672
 20
-845.85587062326942
 42
-0.0112130424367527
 10
-3137.9709582768296
 20
-846.02207422345418
 10
-3137.9697557517165
 20
-846.0285708103454
 42
-0.0210527881242883
 10
-3137.9440692763455
 20
-846.2096264557839
 10
-3137.9405586815237
 20
-846.24503200433389
 42
-0.0190029892418008
 10
-3137.9251172079785
 20
-846.49856785061399
 10
-3137.9243072315348
 20
-846.53404346497518
 42
-0.0137974553659213
 10
-3137.9258560843709
 20
-846.85907487171971
 10
-3137.9267015393257
 20
-846.88519361628937
 42
-0.0081336634220482
 10
-3137.9415608745485
 20
-847.19054108390071
 42
-0.0073526923583089
 10
-3137.9658694079217
 20
-847.49528932816656
 10
-3137.9671308317061
 20
-847.50862600285188
 42
-0.0066886138685831
 10
-3138.0028664177526
 20
-847.83921204634885
 10
-3138.0045235072225
 20
-847.85283366534054
 42
-0.0061359187359509
 10
-3138.0523741092707
 20
-848.20959764542295
 10
-3138.0544116103461
 20
-848.22349244826978
 42
-0.0056698610069422
 10
-3138.1150619411105
 20
-848.60677101709234
 10
-3138.1174673744363
 20
-848.62093013633853
 42
-0.0052721077271126
 10
-3138.1915995752406
 20
-849.03105747603945
 10
-3138.194362724078
 20
-849.04547411140243
 42
-0.0049289272183021
 10
-3138.2826568421765
 20
-849.48278262251756
 10
-3138.2857693368605
 20
-849.49745147534065
 42
-0.0047415956713606
 10
-3138.3890073283874
 20
-849.96224823272962
 10
-3138.4237755387521
 20
-850.11205532813449
 42
-0.0084404470902615
 10
-3138.6137919823204
 20
-850.87227935265162
 10
-3138.6199186703097
 20
-850.89514347681904
 42
-0.0039635940255191
 10
-3138.8413723545887
 20
-851.69613234104861
 10
-3138.8547491497734
 20
-851.74306395765825
 42
-0.0072475040837108
 10
-3139.122196037637
 20
-852.632283674051
 10
-3139.1924083644699
 20
-852.85402402404077
 42
-0.005134545882541
 10
-3139.4791677365229
 20
-853.72834921183164
 10
-3139.5006940032804
 20
-853.79177547893289
 42
-0.0019150016604171
 10
-3139.756227410157
 20
-854.53532459918767
 10
-3139.76269501455
 20
-854.55391206409945
 42
-0.0021524362751334
 10
-3140.0111730656172
 20
-855.25823788581715
 10
-3140.0203834862896
 20
-855.28399146405116
 42
-0.0024331286822353
 10
-3140.2566387453494
 20
-855.93459077223679
 10
-3140.2656866979119
 20
-855.95913407862304
 42
-0.0027449721790978
 10
-3140.4903012687355
 20
-856.55826395751558
 10
-3140.4991912760884
 20
-856.58158654726481
 42
-0.0031083229774115
 10
-3140.7127337627376
 20
-857.13151058494748
 10
-3140.7214698944126
 20
-857.15360030080387
 42
-0.0035311343282581
 10
-3140.9245110800048
 20
-857.65658342653535
 10
-3140.9330964191458
 20
-857.67742615002987
 42
-0.0040245640942222
 10
-3141.1262082229468
 20
-858.13573547263809
 10
-3141.134644336566
 20
-858.15531484074745
 42
-0.004601513584635
 10
-3141.3184006297138
 20
-858.57121987035237
 10
-3141.3266868075443
 20
-858.58951700980992
 42
-0.0052768638273051
 10
-3141.501664326498
 20
-858.96528989407477
 10
-3141.5097965371147
 20
-858.9822832325965
 42
-0.0060672675647681
 10
-3141.6765761498909
 20
-859.3201988557322
 10
-3141.684545630369
 20
-859.33586411472254
 42
-0.0069904648877799
 10
-3141.8437140243736
 20
-859.63819992139315
 10
-3141.8515054239783
 20
-859.65251047060974
 42
-0.0080637022762404
 10
-3142.0036572843301
 20
-859.92154577377357
 10
-3142.0112463169603
 20
-859.93447363937219
 42
-0.0093006455668984
 10
-3142.1569869934929
 20
-860.17248803787743
 10
-3142.1643376602437
 20
-860.18400600706207
 42
-0.0107060778046679
 10
-3142.3042862036755
 20
-860.39327632442962
 10
-3142.31134797195
 20
-860.40336186698823
 42
-0.0122723111422605
 10
-3142.4461416901531
 20
-860.58615519648447
 10
-3142.4464679137072
 20
-860.586575584294
 42
-0.0141836319635257
 10
-3142.5900495166807
 20
-860.76114534212365
 10
-3142.5969972723315
 20
-860.76912034238717
 42
-0.0175957477189962
 10
-3142.7369034403673
 20
-860.91874123079322
 42
-0.008046635966928
 10
-3142.8843672053786
 20
-861.06106375892648
 10
-3142.9304017499153
 20
-861.1040841970356
 42
-0.0269600260399916
 10
-3143.1836819958926
 20
-861.31640745554034
 10
-3143.2502491321907
 20
-861.36635887016496
 42
-0.0178362839761331
 10
-3143.4901936218512
 20
-861.53337679642107
 10
-3143.4974385928563
 20
-861.53804530862897
 42
-0.0174650732643076
 10
-3143.733774790293
 20
-861.67890627358508
 42
-0.0169240130168315
 10
-3143.9792410361542
 20
-861.80319853336437
 10
-3144.0252271917084
 20
-861.82456048892971
 42
-0.0318883036844841
 10
-3144.3755780473271
 20
-861.96089879843942
 10
-3144.4439435824934
 20
-861.98259941891536
 42
-0.0284435909896335
 10
-3144.8199937087838
 20
-862.07881685438997
 10
-3144.855151869283
 20
-862.08571045021858
 42
-0.0243909341006566
 10
-3145.1685953302017
 20
-862.13143148124857
 10
-3145.2188760569716
 20
-862.13627702815006
 42
-0.0196639292929668
 10
-3145.4344716345004
 20
-862.14852531366375
 10
-3145.4862957056584
 20
-862.14942857440042
 42
-0.0100501510711933
 10
-3145.5987189873276
 20
-862.14912817604738
 10
-3145.6303788486675
 20
-862.14840710416217
 42
-0.0019752031113887
 10
-3145.6794711853536
 20
-862.14709494395242
 10
-3145.6822314885794
 20
-862.14701025212605
 42
0.0065378752057504
 10
-3145.7258080633301
 20
-862.14624336091117
 42
-0.0167974694601478
 10
-3145.7693388862631
 20
-862.14458346238507
 10
-3145.773418225524
 20
-862.14429045149018
 42
-0.0081283276302485
 10
-3145.8249780232568
 20
-862.13974345785289
 10
-3145.8367175971412
 20
-862.13851554027394
 42
-0.0126703440165021
 10
-3145.9114358929355
 20
-862.12878074920241
 10
-3145.9342237606115
 20
-862.1252224932872
 42
-0.0117852088455746
 10
-3146.053762746445
 20
-862.10365949812979
 10
-3146.1091431982068
 20
-862.09231595789549
 42
-0.0251774592277929
 10
-3146.3359872372189
 20
-862.03381794846121
 10
-3146.3807064270636
 20
-862.01985112912791
 42
-0.0146525199890401
 10
-3146.5670994146039
 20
-861.9555846019291
 42
-0.0166929435847293
 10
-3146.7490770707313
 20
-861.87977746887429
 10
-3146.753733702004
 20
-861.87765256826049
 42
-0.0191684358422991
 10
-3146.9389173332493
 20
-861.7844164844729
 10
-3146.9422499190105
 20
-861.78257523691718
 42
-0.0221181781797975
 10
-3147.125560222913
 20
-861.67044173854629
 10
-3147.1279100269212
 20
-861.66885744055537
 42
-0.0254984685384375
 10
-3147.3042001773065
 20
-861.53644629058567
 10
-3147.3266823250065
 20
-861.51769398165129
 42
-0.0292492648808438
 10
-3147.4514512638511
 20
-861.40060118200643
 42
-0.0159048957498582
 10
-3147.5652912613023
 20
-861.27258119040562
 10
-3147.5666100518802
 20
-861.27099957738733
 42
-0.0343813379570204
 10
-3147.6692473135085
 20
-861.1291282516147
 10
-3147.7007388448665
 20
-861.07862485952489
 42
-0.0369117275705541
 10
-3147.7866313467648
 20
-860.91514761857536
 42
-0.0191751379894709
 10
-3147.8538247323213
 20
-860.7427430125723
 10
-3147.8555880560816
 20
-860.73764966789452
 42
-0.0378178042239489
 10
-3147.9053827748648
 20
-860.54870889181586
 10
-3147.9113780705975
 20
-860.51614827360788
 42
-0.0184846046468229
 10
-3147.9320952698904
 20
-860.37439545307132
 42
-0.0179866351324561
 10
-3147.9424282749637
 20
-860.23150463998843
 10
-3147.9424847174096
 20
-860.22994695337763
 42
-0.008549718613908
 10
-3147.9439169985135
 20
-860.15507378836776
 42
-0.008549718613908
  0
ENDBLK
  5
63
100
AcDbEntity
  8
template
390
0
100
AcDbBlockEnd
  0
BLOCK
  5
64
100
AcDbEntity
  8
notes
390
0
100
AcDbBlockBegin
  2
*D3
 70
               1
 10
0.0
 20
0.0
 30
0.0
  3
*D3
  1

  0
LINE
  5
65
100
AcDbEntity
  8
0
370
              -2
390
0
  6
Continuous
 62
               0
100
AcDbLine
 10
-623.10997383387439
 20
127.44810275388215
 30
0.0
 11
-623.10997383387439
 21
162.42451939324212
 31
0.0
  0
LINE
  5
66
100
AcDbEntity
  8
0
370
              -2
390
0
  6
Continuous
 62
               0
100
AcDbLine
 10
-83.109973833874392
 20
-367.55189724611751
 30
0.0
 11
-83.109973833874392
 21
162.42451939324212
 31
0.0
  0
LINE
  5
67
100
AcDbEntity
  8
0
370
              -2
390
0
  6
Continuous
 62
               0
100
AcDbLine
 10
-623.10997383387439
 20
162.42451939324212
 30
0.0
 11
-83.109973833874392
 21
162.42451939324212
 31
0.0
  0
CIRCLE
  5
68
102
{ACAD_REACTORS
330
69
102
}
100
AcDbEntity
  8
0
370
              -2
390
0
  6
Continuous
 62
               0
100
AcDbCircle
 10
-623.10997383387439
 20
162.42451939324212
 30
0.0
 40
1.9998779296875
  0
HATCH
  5
69
100
AcDbEntity
  8
0
370
              -2
390
0
  6
Continuous
 62
               0
100
AcDbHatch
 10
0.0
 20
0.0
 30
0.0
210
0.0
220
0.0
230
1.0
  2
SOLID
 70
               1
 71
               1
 91
        1
 92
        1
 93
        1
 72
               2
 10
-623.10997383387439
 20
162.42451939324212
 40
1.9998779296875
 50
0.0
 51
360.0
 73
               0
 97
        1
330
68
 75
               0
 76
               1
 98
        1
 10
0.0
 20
0.0
  0
CIRCLE
  5
6A
102
{ACAD_REACTORS
330
6B
102
}
100
AcDbEntity
  8
0
370
              -2
390
0
  6
Continuous
 62
               0
100
AcDbCircle
 10
-83.109973833874392
 20
162.42451939324212
 30
0.0
 40
1.9998779296875
  0
HATCH
  5
6B
100
AcDbEntity
  8
0
370
              -2
390
0
  6
Continuous
 62
               0
100
AcDbHatch
 10
0.0
 20
0.0
 30
0.0
210
0.0
220
0.0
230
1.0
  2
SOLID
 70
               1
 71
               1
 91
        1
 92
        1
 93
        1
 72
               2
 10
-83.109973833874392
 20
162.42451939324212
 40
1.9998779296875
 50
0.0
 51
360.0
 73
               0
 97
        1
330
6A
 75
               0
 76
               1
 98
        1
 10
0.0
 20
0.0
  0
MTEXT
  5
6C
100
AcDbEntity
  8
0
390
0
 62
               0
100
AcDbMText
 10
-376.92247551605033
 20
196.30213658074217
 30
0.0
 40
24.432617187500004
 41
0.0
 71
               1
 72
               1
  1
540
  7
ＭＳ ゴシック
 73
               1
 44
0.7828267384257843
  0
POINT
  5
6D
100
AcDbEntity
  8
Defpoints
370
               0
390
0
 62
               0
100
AcDbPoint
 10
-83.109973833874392
 20
-392.55189724611751
 30
0.0
  0
POINT
  5
6E
100
AcDbEntity
  8
Defpoints
370
               0
390
0
 62
               0
100
AcDbPoint
 10
-623.10997383387439
 20
102.44810275388215
 30
0.0
  0
POINT
  5
6F
100
AcDbEntity
  8
Defpoints
370
               0
390
0
 62
               0
100
AcDbPoint
 10
-623.10997383387439
 20
162.42451939324212
 30
0.0
  0
ENDBLK
  5
70
100
AcDbEntity
  8
notes
390
0
100
AcDbBlockEnd
  0
BLOCK
  5
71
100
AcDbEntity
  8
notes
390
0
100
AcDbBlockBegin
  2
*D4
 70
               1
 10
0.0
 20
0.0
 30
0.0
  3
*D4
  1

  0
LINE
  5
72
100
AcDbEntity
  8
0
370
              -2
390
0
  6
Continuous
 62
               0
100
AcDbLine
 10
-648.10997383387439
 20
1113.8122198062329
 30
0.0
 11
-723.10997383387439
 21
1113.8122198062329
 31
0.0
  0
LINE
  5
73
100
AcDbEntity
  8
0
370
              -2
390
0
  6
Continuous
 62
               0
100
AcDbLine
 10
-648.10997383387439
 20
413.81221980623332
 30
0.0
 11
-723.10997383387439
 21
413.81221980623332
 31
0.0
  0
LINE
  5
74
100
AcDbEntity
  8
0
370
              -2
390
0
  6
Continuous
 62
               0
100
AcDbLine
 10
-723.10997383387439
 20
1113.8122198062329
 30
0.0
 11
-723.10997383387439
 21
413.81221980623332
 31
0.0
  0
CIRCLE
  5
75
102
{ACAD_REACTORS
330
76
102
}
100
AcDbEntity
  8
0
370
              -2
390
0
  6
Continuous
 62
               0
100
AcDbCircle
 10
-723.10997383387439
 20
1113.8122198062329
 30
0.0
 40
1.9998779296875
  0
HATCH
  5
76
100
AcDbEntity
  8
0
370
              -2
390
0
  6
Continuous
 62
               0
100
AcDbHatch
 10
0.0
 20
0.0
 30
0.0
210
0.0
220
0.0
230
1.0
  2
SOLID
 70
               1
 71
               1
 91
        1
 92
        1
 93
        1
 72
               2
 10
-723.10997383387439
 20
1113.8122198062329
 40
1.9998779296875
 50
0.0
 51
360.0
 73
               0
 97
        1
330
75
 75
               0
 76
               1
 98
        1
 10
0.0
 20
0.0
  0
CIRCLE
  5
77
102
{ACAD_REACTORS
330
78
102
}
100
AcDbEntity
  8
0
370
              -2
390
0
  6
Continuous
 62
               0
100
AcDbCircle
 10
-723.10997383387439
 20
413.81221980623332
 30
0.0
 40
1.9998779296875
  0
HATCH
  5
78
100
AcDbEntity
  8
0
370
              -2
390
0
  6
Continuous
 62
               0
100
AcDbHatch
 10
0.0
 20
0.0
 30
0.0
210
0.0
220
0.0
230
1.0
  2
SOLID
 70
               1
 71
               1
 91
        1
 92
        1
 93
        1
 72
               2
 10
-723.10997383387439
 20
413.81221980623332
 40
1.9998779296875
 50
0.0
 51
360.0
 73
               0
 97
        1
330
77
 75
               0
 76
               1
 98
        1
 10
0.0
 20
0.0
  0
MTEXT
  5
79
100
AcDbEntity
  8
0
390
0
 62
               0
100
AcDbMText
 10
-756.9875910213741
 20
739.99971812405772
 30
0.0
 40
24.432617187500004
 41
0.0
 71
               1
 72
               1
  1
700
  7
ＭＳ ゴシック
 11
0.0
 21
1.0
 31
0.0
 73
               1
 44
0.7828267384257843
  0
POINT
  5
7A
100
AcDbEntity
  8
Defpoints
370
               0
390
0
 62
               0
100
AcDbPoint
 10
-623.10997383387439
 20
413.81221980623332
 30
0.0
  0
POINT
  5
7B
100
AcDbEntity
  8
Defpoints
370
               0
390
0
 62
               0
100
AcDbPoint
 10
-623.10997383387439
 20
1113.8122198062329
 30
0.0
  0
POINT
  5
7C
100
AcDbEntity
  8
Defpoints
370
               0
390
0
 62
               0
100
AcDbPoint
 10
-723.10997383387439
 20
1113.8122198062329
 30
0.0
  0
ENDBLK
  5
7D
100
AcDbEntity
  8
notes
390
0
100
AcDbBlockEnd
  0
BLOCK
  5
7E
100
AcDbEntity
  8
notes
390
0
100
AcDbBlockBegin
  2
*D5
 70
               1
 10
0.0
 20
0.0
 30
0.0
  3
*D5
  1

  0
LINE
  5
7F
100
AcDbEntity
  8
0
370
              -2
390
0
  6
Continuous
 62
               0
100
AcDbLine
 10
-623.10997383387439
 20
1138.8122198062329
 30
0.0
 11
-623.10997383387439
 21
1190.8122198062329
 31
0.0
  0
LINE
  5
80
100
AcDbEntity
  8
0
370
              -2
390
0
  6
Continuous
 62
               0
100
AcDbLine
 10
-343.10997383387439
 20
838.80752939119395
 30
0.0
 11
-343.10997383387439
 21
1190.8122198062329
 31
0.0
  0
LINE
  5
81
100
AcDbEntity
  8
0
370
              -2
390
0
  6
Continuous
 62
               0
100
AcDbLine
 10
-623.10997383387439
 20
1190.8122198062329
 30
0.0
 11
-343.10997383387439
 21
1190.8122198062329
 31
0.0
  0
CIRCLE
  5
82
102
{ACAD_REACTORS
330
83
102
}
100
AcDbEntity
  8
0
370
              -2
390
0
  6
Continuous
 62
               0
100
AcDbCircle
 10
-623.10997383387439
 20
1190.8122198062329
 30
0.0
 40
1.9998779296875
  0
HATCH
  5
83
100
AcDbEntity
  8
0
370
              -2
390
0
  6
Continuous
 62
               0
100
AcDbHatch
 10
0.0
 20
0.0
 30
0.0
210
0.0
220
0.0
230
1.0
  2
SOLID
 70
               1
 71
               1
 91
        1
 92
        1
 93
        1
 72
               2
 10
-623.10997383387439
 20
1190.8122198062329
 40
1.9998779296875
 50
0.0
 51
360.0
 73
               0
 97
        1
330
82
 75
               0
 76
               1
 98
        1
 10
0.0
 20
0.0
  0
CIRCLE
  5
84
102
{ACAD_REACTORS
330
85
102
}
100
AcDbEntity
  8
0
370
              -2
390
0
  6
Continuous
 62
               0
100
AcDbCircle
 10
-343.10997383387439
 20
1190.8122198062329
 30
0.0
 40
1.9998779296875
  0
HATCH
  5
85
100
AcDbEntity
  8
0
370
              -2
390
0
  6
Continuous
 62
               0
100
AcDbHatch
 10
0.0
 20
0.0
 30
0.0
210
0.0
220
0.0
230
1.0
  2
SOLID
 70
               1
 71
               1
 91
        1
 92
        1
 93
        1
 72
               2
 10
-343.10997383387439
 20
1190.8122198062329
 40
1.9998779296875
 50
0.0
 51
360.0
 73
               0
 97
        1
330
84
 75
               0
 76
               1
 98
        1
 10
0.0
 20
0.0
  0
MTEXT
  5
86
100
AcDbEntity
  8
0
390
0
 62
               0
100
AcDbMText
 10
-506.92247551605033
 20
1224.689836993733
 30
0.0
 40
24.432617187500004
 41
0.0
 71
               1
 72
               1
  1
280
  7
ＭＳ ゴシック
 73
               1
 44
0.7828267384257843
  0
POINT
  5
87
100
AcDbEntity
  8
Defpoints
370
               0
390
0
 62
               0
100
AcDbPoint
 10
-343.10997383387439
 20
813.80752939119395
 30
0.0
  0
POINT
  5
88
100
AcDbEntity
  8
Defpoints
370
               0
390
0
 62
               0
100
AcDbPoint
 10
-623.10997383387439
 20
1113.8122198062329
 30
0.0
  0
POINT
  5
89
100
AcDbEntity
  8
Defpoints
370
               0
390
0
 62
               0
100
AcDbPoint
 10
-623.10997383387439
 20
1190.8122198062329
 30
0.0
  0
ENDBLK
  5
8A
100
AcDbEntity
  8
notes
390
0
100
AcDbBlockEnd
  0
BLOCK
  5
8B
100
AcDbEntity
  8
notes
390
0
100
AcDbBlockBegin
  2
*D6
 70
               1
 10
0.0
 20
0.0
 30
0.0
  3
*D6
  1

  0
LINE
  5
8C
100
AcDbEntity
  8
0
370
              -2
390
0
  6
Continuous
 62
               0
100
AcDbLine
 10
-643.06324486191261
 20
-977.52831388547827
 30
0.0
 11
-773.10997383387348
 21
-977.52831388547827
 31
0.0
  0
LINE
  5
8D
100
AcDbEntity
  8
0
370
              -2
390
0
  6
Continuous
 62
               0
100
AcDbLine
 10
-643.0632448619117
 20
102.42451939324212
 30
0.0
 11
-773.10997383387348
 21
102.42451939324212
 31
0.0
  0
LINE
  5
8E
100
AcDbEntity
  8
0
370
              -2
390
0
  6
Continuous
 62
               0
100
AcDbLine
 10
-773.10997383387348
 20
-977.52831388547827
 30
0.0
 11
-773.10997383387348
 21
102.42451939324212
 31
0.0
  0
CIRCLE
  5
8F
102
{ACAD_REACTORS
330
90
102
}
100
AcDbEntity
  8
0
370
              -2
390
0
  6
Continuous
 62
               0
100
AcDbCircle
 10
-773.10997383387348
 20
-977.52831388547827
 30
0.0
 40
1.9998779296875
  0
HATCH
  5
90
100
AcDbEntity
  8
0
370
              -2
390
0
  6
Continuous
 62
               0
100
AcDbHatch
 10
0.0
 20
0.0
 30
0.0
210
0.0
220
0.0
230
1.0
  2
SOLID
 70
               1
 71
               1
 91
        1
 92
        1
 93
        1
 72
               2
 10
-773.10997383387348
 20
-977.52831388547827
 40
1.9998779296875
 50
0.0
 51
360.0
 73
               0
 97
        1
330
8F
 75
               0
 76
               1
 98
        1
 10
0.0
 20
0.0
  0
CIRCLE
  5
91
102
{ACAD_REACTORS
330
92
102
}
100
AcDbEntity
  8
0
370
              -2
390
0
  6
Continuous
 62
               0
100
AcDbCircle
 10
-773.10997383387348
 20
102.42451939324212
 30
0.0
 40
1.9998779296875
  0
HATCH
  5
92
100
AcDbEntity
  8
0
370
              -2
390
0
  6
Continuous
 62
               0
100
AcDbHatch
 10
0.0
 20
0.0
 30
0.0
210
0.0
220
0.0
230
1.0
  2
SOLID
 70
               1
 71
               1
 91
        1
 92
        1
 93
        1
 72
               2
 10
-773.10997383387348
 20
102.42451939324212
 40
1.9998779296875
 50
0.0
 51
360.0
 73
               0
 97
        1
330
91
 75
               0
 76
               1
 98
        1
 10
0.0
 20
0.0
  0
MTEXT
  5
93
100
AcDbEntity
  8
0
390
0
 62
               0
100
AcDbMText
 10
-806.98759102137319
 20
-469.30189724611807
 30
0.0
 40
24.432617187500004
 41
0.0
 71
               1
 72
               1
  1
1080
  7
ＭＳ ゴシック
 11
0.0
 21
1.0
 31
0.0
 73
               1
 44
0.7828267384257843
  0
POINT
  5
94
100
AcDbEntity
  8
Defpoints
370
               0
390
0
 62
               0
100
AcDbPoint
 10
-618.0632448619117
 20
102.42451939324212
 30
0.0
  0
POINT
  5
95
100
AcDbEntity
  8
Defpoints
370
               0
390
0
 62
               0
100
AcDbPoint
 10
-618.06324486191261
 20
-977.52831388547827
 30
0.0
  0
POINT
  5
96
100
AcDbEntity
  8
Defpoints
370
               0
390
0
 62
               0
100
AcDbPoint
 10
-773.10997383387348
 20
-977.52831388547827
 30
0.0
  0
ENDBLK
  5
97
100
AcDbEntity
  8
notes
390
0
100
AcDbBlockEnd
  0
BLOCK
  5
98
100
AcDbEntity
  8
notes
390
0
100
AcDbBlockBegin
  2
*D7
 70
               1
 10
0.0
 20
0.0
 30
0.0
  3
*D7
  1

  0
LINE
  5
99
100
AcDbEntity
  8
0
370
              -2
390
0
  6
Continuous
 62
               0
100
AcDbLine
 10
-595.6099738338753
 20
-737.55189724611682
 30
0.0
 11
-723.10997383387348
 21
-737.55189724611682
 31
0.0
  0
LINE
  5
9A
100
AcDbEntity
  8
0
370
              -2
390
0
  6
Continuous
 62
               0
100
AcDbLine
 10
-595.60997383387439
 20
-637.55189724611682
 30
0.0
 11
-723.10997383387348
 21
-637.55189724611682
 31
0.0
  0
LINE
  5
9B
100
AcDbEntity
  8
0
370
              -2
390
0
  6
Continuous
 62
               0
100
AcDbLine
 10
-723.10997383387348
 20
-737.55189724611682
 30
0.0
 11
-723.10997383387348
 21
-637.55189724611682
 31
0.0
  0
CIRCLE
  5
9C
102
{ACAD_REACTORS
330
9D
102
}
100
AcDbEntity
  8
0
370
              -2
390
0
  6
Continuous
 62
               0
100
AcDbCircle
 10
-723.10997383387348
 20
-737.55189724611682
 30
0.0
 40
1.9998779296875
  0
HATCH
  5
9D
100
AcDbEntity
  8
0
370
              -2
390
0
  6
Continuous
 62
               0
100
AcDbHatch
 10
0.0
 20
0.0
 30
0.0
210
0.0
220
0.0
230
1.0
  2
SOLID
 70
               1
 71
               1
 91
        1
 92
        1
 93
        1
 72
               2
 10
-723.10997383387348
 20
-737.55189724611682
 40
1.9998779296875
 50
0.0
 51
360.0
 73
               0
 97
        1
330
9C
 75
               0
 76
               1
 98
        1
 10
0.0
 20
0.0
  0
CIRCLE
  5
9E
102
{ACAD_REACTORS
330
9F
102
}
100
AcDbEntity
  8
0
370
              -2
390
0
  6
Continuous
 62
               0
100
AcDbCircle
 10
-723.10997383387348
 20
-637.55189724611682
 30
0.0
 40
1.9998779296875
  0
HATCH
  5
9F
100
AcDbEntity
  8
0
370
              -2
390
0
  6
Continuous
 62
               0
100
AcDbHatch
 10
0.0
 20
0.0
 30
0.0
210
0.0
220
0.0
230
1.0
  2
SOLID
 70
               1
 71
               1
 91
        1
 92
        1
 93
        1
 72
               2
 10
-723.10997383387348
 20
-637.55189724611682
 40
1.9998779296875
 50
0.0
 51
360.0
 73
               0
 97
        1
330
9E
 75
               0
 76
               1
 98
        1
 10
0.0
 20
0.0
  0
MTEXT
  5
A0
100
AcDbEntity
  8
0
390
0
 62
               0
100
AcDbMText
 10
-756.98759102137319
 20
-711.36439892829242
 30
0.0
 40
24.432617187500004
 41
0.0
 71
               1
 72
               1
  1
100
  7
ＭＳ ゴシック
 11
0.0
 21
1.0
 31
0.0
 73
               1
 44
0.7828267384257843
  0
POINT
  5
A1
100
AcDbEntity
  8
Defpoints
370
               0
390
0
 62
               0
100
AcDbPoint
 10
-570.60997383387439
 20
-637.55189724611682
 30
0.0
  0
POINT
  5
A2
100
AcDbEntity
  8
Defpoints
370
               0
390
0
 62
               0
100
AcDbPoint
 10
-570.6099738338753
 20
-737.55189724611682
 30
0.0
  0
POINT
  5
A3
100
AcDbEntity
  8
Defpoints
370
               0
390
0
 62
               0
100
AcDbPoint
 10
-723.10997383387348
 20
-737.55189724611682
 30
0.0
  0
ENDBLK
  5
A4
100
AcDbEntity
  8
notes
390
0
100
AcDbBlockEnd
  0
BLOCK
  5
A5
100
AcDbEntity
  8
notes
390
0
100
AcDbBlockBegin
  2
*D8
 70
               1
 10
0.0
 20
0.0
 30
0.0
  3
*D8
  1

  0
LINE
  5
A6
100
AcDbEntity
  8
0
370
              -2
390
0
  6
Continuous
 62
               0
100
AcDbLine
 10
-595.60997383387439
 20
-637.55189724611682
 30
0.0
 11
-723.10997383387348
 21
-637.55189724611682
 31
0.0
  0
LINE
  5
A7
100
AcDbEntity
  8
0
370
              -2
390
0
  6
Continuous
 62
               0
100
AcDbLine
 10
-595.60997383387439
 20
-537.55189724611694
 30
0.0
 11
-723.10997383387348
 21
-537.55189724611694
 31
0.0
  0
LINE
  5
A8
100
AcDbEntity
  8
0
370
              -2
390
0
  6
Continuous
 62
               0
100
AcDbLine
 10
-723.10997383387348
 20
-637.55189724611682
 30
0.0
 11
-723.10997383387348
 21
-537.55189724611694
 31
0.0
  0
CIRCLE
  5
A9
102
{ACAD_REACTORS
330
AA
102
}
100
AcDbEntity
  8
0
370
              -2
390
0
  6
Continuous
 62
               0
100
AcDbCircle
 10
-723.10997383387348
 20
-637.55189724611682
 30
0.0
 40
1.9998779296875
  0
HATCH
  5
AA
100
AcDbEntity
  8
0
370
              -2
390
0
  6
Continuous
 62
               0
100
AcDbHatch
 10
0.0
 20
0.0
 30
0.0
210
0.0
220
0.0
230
1.0
  2
SOLID
 70
               1
 71
               1
 91
        1
 92
        1
 93
        1
 72
               2
 10
-723.10997383387348
 20
-637.55189724611682
 40
1.9998779296875
 50
0.0
 51
360.0
 73
               0
 97
        1
330
A9
 75
               0
 76
               1
 98
        1
 10
0.0
 20
0.0
  0
CIRCLE
  5
AB
102
{ACAD_REACTORS
330
AC
102
}
100
AcDbEntity
  8
0
370
              -2
390
0
  6
Continuous
 62
               0
100
AcDbCircle
 10
-723.10997383387348
 20
-537.55189724611694
 30
0.0
 40
1.9998779296875
  0
HATCH
  5
AC
100
AcDbEntity
  8
0
370
              -2
390
0
  6
Continuous
 62
               0
100
AcDbHatch
 10
0.0
 20
0.0
 30
0.0
210
0.0
220
0.0
230
1.0
  2
SOLID
 70
               1
 71
               1
 91
        1
 92
        1
 93
        1
 72
               2
 10
-723.10997383387348
 20
-537.55189724611694
 40
1.9998779296875
 50
0.0
 51
360.0
 73
               0
 97
        1
330
AB
 75
               0
 76
               1
 98
        1
 10
0.0
 20
0.0
  0
MTEXT
  5
AD
100
AcDbEntity
  8
0
390
0
 62
               0
100
AcDbMText
 10
-756.98759102137319
 20
-611.36439892829242
 30
0.0
 40
24.432617187500004
 41
0.0
 71
               1
 72
               1
  1
100
  7
ＭＳ ゴシック
 11
0.0
 21
1.0
 31
0.0
 73
               1
 44
0.7828267384257843
  0
POINT
  5
AE
100
AcDbEntity
  8
Defpoints
370
               0
390
0
 62
               0
100
AcDbPoint
 10
-570.60997383387439
 20
-537.55189724611694
 30
0.0
  0
POINT
  5
AF
100
AcDbEntity
  8
Defpoints
370
               0
390
0
 62
               0
100
AcDbPoint
 10
-570.60997383387439
 20
-637.55189724611682
 30
0.0
  0
POINT
  5
B0
100
AcDbEntity
  8
Defpoints
370
               0
390
0
 62
               0
100
AcDbPoint
 10
-723.10997383387348
 20
-637.55189724611682
 30
0.0
  0
ENDBLK
  5
B1
100
AcDbEntity
  8
notes
390
0
100
AcDbBlockEnd
  0
BLOCK
  5
B2
100
AcDbEntity
  8
notes
390
0
100
AcDbBlockBegin
  2
*D9
 70
               1
 10
0.0
 20
0.0
 30
0.0
  3
*D9
  1

  0
LINE
  5
B3
100
AcDbEntity
  8
0
370
              -2
390
0
  6
Continuous
 62
               0
100
AcDbLine
 10
-595.60997383387439
 20
-537.55189724611694
 30
0.0
 11
-723.10997383387348
 21
-537.55189724611694
 31
0.0
  0
LINE
  5
B4
100
AcDbEntity
  8
0
370
              -2
390
0
  6
Continuous
 62
               0
100
AcDbLine
 10
-595.60997383387439
 20
-437.55189724611751
 30
0.0
 11
-723.10997383387348
 21
-437.55189724611751
 31
0.0
  0
LINE
  5
B5
100
AcDbEntity
  8
0
370
              -2
390
0
  6
Continuous
 62
               0
100
AcDbLine
 10
-723.10997383387348
 20
-537.55189724611694
 30
0.0
 11
-723.10997383387348
 21
-437.55189724611751
 31
0.0
  0
CIRCLE
  5
B6
102
{ACAD_REACTORS
330
B7
102
}
100
AcDbEntity
  8
0
370
              -2
390
0
  6
Continuous
 62
               0
100
AcDbCircle
 10
-723.10997383387348
 20
-537.55189724611694
 30
0.0
 40
1.9998779296875
  0
HATCH
  5
B7
100
AcDbEntity
  8
0
370
              -2
390
0
  6
Continuous
 62
               0
100
AcDbHatch
 10
0.0
 20
0.0
 30
0.0
210
0.0
220
0.0
230
1.0
  2
SOLID
 70
               1
 71
               1
 91
        1
 92
        1
 93
        1
 72
               2
 10
-723.10997383387348
 20
-537.55189724611694
 40
1.9998779296875
 50
0.0
 51
360.0
 73
               0
 97
        1
330
B6
 75
               0
 76
               1
 98
        1
 10
0.0
 20
0.0
  0
CIRCLE
  5
B8
102
{ACAD_REACTORS
330
B9
102
}
100
AcDbEntity
  8
0
370
              -2
390
0
  6
Continuous
 62
               0
100
AcDbCircle
 10
-723.10997383387348
 20
-437.55189724611751
 30
0.0
 40
1.9998779296875
  0
HATCH
  5
B9
100
AcDbEntity
  8
0
370
              -2
390
0
  6
Continuous
 62
               0
100
AcDbHatch
 10
0.0
 20
0.0
 30
0.0
210
0.0
220
0.0
230
1.0
  2
SOLID
 70
               1
 71
               1
 91
        1
 92
        1
 93
        1
 72
               2
 10
-723.10997383387348
 20
-437.55189724611751
 40
1.9998779296875
 50
0.0
 51
360.0
 73
               0
 97
        1
330
B8
 75
               0
 76
               1
 98
        1
 10
0.0
 20
0.0
  0
MTEXT
  5
BA
100
AcDbEntity
  8
0
390
0
 62
               0
100
AcDbMText
 10
-756.98759102137319
 20
-511.3643989282927
 30
0.0
 40
24.432617187500004
 41
0.0
 71
               1
 72
               1
  1
100
  7
ＭＳ ゴシック
 11
0.0
 21
1.0
 31
0.0
 73
               1
 44
0.7828267384257843
  0
POINT
  5
BB
100
AcDbEntity
  8
Defpoints
370
               0
390
0
 62
               0
100
AcDbPoint
 10
-570.60997383387439
 20
-437.55189724611751
 30
0.0
  0
POINT
  5
BC
100
AcDbEntity
  8
Defpoints
370
               0
390
0
 62
               0
100
AcDbPoint
 10
-570.60997383387439
 20
-537.55189724611694
 30
0.0
  0
POINT
  5
BD
100
AcDbEntity
  8
Defpoints
370
               0
390
0
 62
               0
100
AcDbPoint
 10
-723.10997383387348
 20
-537.55189724611694
 30
0.0
  0
ENDBLK
  5
BE
100
AcDbEntity
  8
notes
390
0
100
AcDbBlockEnd
  0
BLOCK
  5
BF
100
AcDbEntity
  8
notes
390
0
100
AcDbBlockBegin
  2
*D10
 70
               1
 10
0.0
 20
0.0
 30
0.0
  3
*D10
  1

  0
LINE
  5
C0
100
AcDbEntity
  8
0
370
              -2
390
0
  6
Continuous
 62
               0
100
AcDbLine
 10
-595.60997383387439
 20
-437.55189724611751
 30
0.0
 11
-723.10997383387348
 21
-437.55189724611751
 31
0.0
  0
LINE
  5
C1
100
AcDbEntity
  8
0
370
              -2
390
0
  6
Continuous
 62
               0
100
AcDbLine
 10
-595.60997383387439
 20
-337.55189724611779
 30
0.0
 11
-723.10997383387348
 21
-337.55189724611779
 31
0.0
  0
LINE
  5
C2
100
AcDbEntity
  8
0
370
              -2
390
0
  6
Continuous
 62
               0
100
AcDbLine
 10
-723.10997383387348
 20
-437.55189724611751
 30
0.0
 11
-723.10997383387348
 21
-337.55189724611779
 31
0.0
  0
CIRCLE
  5
C3
102
{ACAD_REACTORS
330
C4
102
}
100
AcDbEntity
  8
0
370
              -2
390
0
  6
Continuous
 62
               0
100
AcDbCircle
 10
-723.10997383387348
 20
-437.55189724611751
 30
0.0
 40
1.9998779296875
  0
HATCH
  5
C4
100
AcDbEntity
  8
0
370
              -2
390
0
  6
Continuous
 62
               0
100
AcDbHatch
 10
0.0
 20
0.0
 30
0.0
210
0.0
220
0.0
230
1.0
  2
SOLID
 70
               1
 71
               1
 91
        1
 92
        1
 93
        1
 72
               2
 10
-723.10997383387348
 20
-437.55189724611751
 40
1.9998779296875
 50
0.0
 51
360.0
 73
               0
 97
        1
330
C3
 75
               0
 76
               1
 98
        1
 10
0.0
 20
0.0
  0
CIRCLE
  5
C5
102
{ACAD_REACTORS
330
C6
102
}
100
AcDbEntity
  8
0
370
              -2
390
0
  6
Continuous
 62
               0
100
AcDbCircle
 10
-723.10997383387348
 20
-337.55189724611779
 30
0.0
 40
1.9998779296875
  0
HATCH
  5
C6
100
AcDbEntity
  8
0
370
              -2
390
0
  6
Continuous
 62
               0
100
AcDbHatch
 10
0.0
 20
0.0
 30
0.0
210
0.0
220
0.0
230
1.0
  2
SOLID
 70
               1
 71
               1
 91
        1
 92
        1
 93
        1
 72
               2
 10
-723.10997383387348
 20
-337.55189724611779
 40
1.9998779296875
 50
0.0
 51
360.0
 73
               0
 97
        1
330
C5
 75
               0
 76
               1
 98
        1
 10
0.0
 20
0.0
  0
MTEXT
  5
C7
100
AcDbEntity
  8
0
390
0
 62
               0
100
AcDbMText
 10
-756.98759102137319
 20
-411.36439892829316
 30
0.0
 40
24.432617187500004
 41
0.0
 71
               1
 72
               1
  1
100
  7
ＭＳ ゴシック
 11
0.0
 21
1.0
 31
0.0
 73
               1
 44
0.7828267384257843
  0
POINT
  5
C8
100
AcDbEntity
  8
Defpoints
370
               0
390
0
 62
               0
100
AcDbPoint
 10
-570.60997383387439
 20
-337.55189724611779
 30
0.0
  0
POINT
  5
C9
100
AcDbEntity
  8
Defpoints
370
               0
390
0
 62
               0
100
AcDbPoint
 10
-570.60997383387439
 20
-437.55189724611751
 30
0.0
  0
POINT
  5
CA
100
AcDbEntity
  8
Defpoints
370
               0
390
0
 62
               0
100
AcDbPoint
 10
-723.10997383387348
 20
-437.55189724611751
 30
0.0
  0
ENDBLK
  5
CB
100
AcDbEntity
  8
notes
390
0
100
AcDbBlockEnd
  0
BLOCK
  5
CC
100
AcDbEntity
  8
notes
390
0
100
AcDbBlockBegin
  2
*D11
 70
               1
 10
0.0
 20
0.0
 30
0.0
  3
*D11
  1

  0
LINE
  5
CD
100
AcDbEntity
  8
0
370
              -2
390
0
  6
Continuous
 62
               0
100
AcDbLine
 10
-595.60997383387439
 20
-337.55189724611779
 30
0.0
 11
-723.10997383387348
 21
-337.55189724611779
 31
0.0
  0
LINE
  5
CE
100
AcDbEntity
  8
0
370
              -2
390
0
  6
Continuous
 62
               0
100
AcDbLine
 10
-595.60997383387439
 20
-237.55189724611785
 30
0.0
 11
-723.10997383387348
 21
-237.55189724611785
 31
0.0
  0
LINE
  5
CF
100
AcDbEntity
  8
0
370
              -2
390
0
  6
Continuous
 62
               0
100
AcDbLine
 10
-723.10997383387348
 20
-337.55189724611779
 30
0.0
 11
-723.10997383387348
 21
-237.55189724611785
 31
0.0
  0
CIRCLE
  5
D0
102
{ACAD_REACTORS
330
D1
102
}
100
AcDbEntity
  8
0
370
              -2
390
0
  6
Continuous
 62
               0
100
AcDbCircle
 10
-723.10997383387348
 20
-337.55189724611779
 30
0.0
 40
1.9998779296875
  0
HATCH
  5
D1
100
AcDbEntity
  8
0
370
              -2
390
0
  6
Continuous
 62
               0
100
AcDbHatch
 10
0.0
 20
0.0
 30
0.0
210
0.0
220
0.0
230
1.0
  2
SOLID
 70
               1
 71
               1
 91
        1
 92
        1
 93
        1
 72
               2
 10
-723.10997383387348
 20
-337.55189724611779
 40
1.9998779296875
 50
0.0
 51
360.0
 73
               0
 97
        1
330
D0
 75
               0
 76
               1
 98
        1
 10
0.0
 20
0.0
  0
CIRCLE
  5
D2
102
{ACAD_REACTORS
330
D3
102
}
100
AcDbEntity
  8
0
370
              -2
390
0
  6
Continuous
 62
               0
100
AcDbCircle
 10
-723.10997383387348
 20
-237.55189724611785
 30
0.0
 40
1.9998779296875
  0
HATCH
  5
D3
100
AcDbEntity
  8
0
370
              -2
390
0
  6
Continuous
 62
               0
100
AcDbHatch
 10
0.0
 20
0.0
 30
0.0
210
0.0
220
0.0
230
1.0
  2
SOLID
 70
               1
 71
               1
 91
        1
 92
        1
 93
        1
 72
               2
 10
-723.10997383387348
 20
-237.55189724611785
 40
1.9998779296875
 50
0.0
 51
360.0
 73
               0
 97
        1
330
D2
 75
               0
 76
               1
 98
        1
 10
0.0
 20
0.0
  0
MTEXT
  5
D4
100
AcDbEntity
  8
0
390
0
 62
               0
100
AcDbMText
 10
-756.98759102137319
 20
-311.36439892829333
 30
0.0
 40
24.432617187500004
 41
0.0
 71
               1
 72
               1
  1
100
  7
ＭＳ ゴシック
 11
0.0
 21
1.0
 31
0.0
 73
               1
 44
0.7828267384257843
  0
POINT
  5
D5
100
AcDbEntity
  8
Defpoints
370
               0
390
0
 62
               0
100
AcDbPoint
 10
-570.60997383387439
 20
-237.55189724611785
 30
0.0
  0
POINT
  5
D6
100
AcDbEntity
  8
Defpoints
370
               0
390
0
 62
               0
100
AcDbPoint
 10
-570.60997383387439
 20
-337.55189724611779
 30
0.0
  0
POINT
  5
D7
100
AcDbEntity
  8
Defpoints
370
               0
390
0
 62
               0
100
AcDbPoint
 10
-723.10997383387348
 20
-337.55189724611779
 30
0.0
  0
ENDBLK
  5
D8
100
AcDbEntity
  8
notes
390
0
100
AcDbBlockEnd
  0
BLOCK
  5
D9
100
AcDbEntity
  8
notes
390
0
100
AcDbBlockBegin
  2
*D12
 70
               1
 10
0.0
 20
0.0
 30
0.0
  3
*D12
  1

  0
LINE
  5
DA
100
AcDbEntity
  8
0
370
              -2
390
0
  6
Continuous
 62
               0
100
AcDbLine
 10
-595.60997383387439
 20
-237.55189724611785
 30
0.0
 11
-723.10997383387348
 21
-237.55189724611785
 31
0.0
  0
LINE
  5
DB
100
AcDbEntity
  8
0
370
              -2
390
0
  6
Continuous
 62
               0
100
AcDbLine
 10
-595.60997383387439
 20
-137.55189724611773
 30
0.0
 11
-723.10997383387348
 21
-137.55189724611773
 31
0.0
  0
LINE
  5
DC
100
AcDbEntity
  8
0
370
              -2
390
0
  6
Continuous
 62
               0
100
AcDbLine
 10
-723.10997383387348
 20
-237.55189724611785
 30
0.0
 11
-723.10997383387348
 21
-137.55189724611773
 31
0.0
  0
CIRCLE
  5
DD
102
{ACAD_REACTORS
330
DE
102
}
100
AcDbEntity
  8
0
370
              -2
390
0
  6
Continuous
 62
               0
100
AcDbCircle
 10
-723.10997383387348
 20
-237.55189724611785
 30
0.0
 40
1.9998779296875
  0
HATCH
  5
DE
100
AcDbEntity
  8
0
370
              -2
390
0
  6
Continuous
 62
               0
100
AcDbHatch
 10
0.0
 20
0.0
 30
0.0
210
0.0
220
0.0
230
1.0
  2
SOLID
 70
               1
 71
               1
 91
        1
 92
        1
 93
        1
 72
               2
 10
-723.10997383387348
 20
-237.55189724611785
 40
1.9998779296875
 50
0.0
 51
360.0
 73
               0
 97
        1
330
DD
 75
               0
 76
               1
 98
        1
 10
0.0
 20
0.0
  0
CIRCLE
  5
DF
102
{ACAD_REACTORS
330
E0
102
}
100
AcDbEntity
  8
0
370
              -2
390
0
  6
Continuous
 62
               0
100
AcDbCircle
 10
-723.10997383387348
 20
-137.55189724611773
 30
0.0
 40
1.9998779296875
  0
HATCH
  5
E0
100
AcDbEntity
  8
0
370
              -2
390
0
  6
Continuous
 62
               0
100
AcDbHatch
 10
0.0
 20
0.0
 30
0.0
210
0.0
220
0.0
230
1.0
  2
SOLID
 70
               1
 71
               1
 91
        1
 92
        1
 93
        1
 72
               2
 10
-723.10997383387348
 20
-137.55189724611773
 40
1.9998779296875
 50
0.0
 51
360.0
 73
               0
 97
        1
330
DF
 75
               0
 76
               1
 98
        1
 10
0.0
 20
0.0
  0
MTEXT
  5
E1
100
AcDbEntity
  8
0
390
0
 62
               0
100
AcDbMText
 10
-756.98759102137319
 20
-211.36439892829333
 30
0.0
 40
24.432617187500004
 41
0.0
 71
               1
 72
               1
  1
100
  7
ＭＳ ゴシック
 11
0.0
 21
1.0
 31
0.0
 73
               1
 44
0.7828267384257843
  0
POINT
  5
E2
100
AcDbEntity
  8
Defpoints
370
               0
390
0
 62
               0
100
AcDbPoint
 10
-570.60997383387439
 20
-137.55189724611773
 30
0.0
  0
POINT
  5
E3
100
AcDbEntity
  8
Defpoints
370
               0
390
0
 62
               0
100
AcDbPoint
 10
-570.60997383387439
 20
-237.55189724611785
 30
0.0
  0
POINT
  5
E4
100
AcDbEntity
  8
Defpoints
370
               0
390
0
 62
               0
100
AcDbPoint
 10
-723.10997383387348
 20
-237.55189724611785
 30
0.0
  0
ENDBLK
  5
E5
100
AcDbEntity
  8
notes
390
0
100
AcDbBlockEnd
  0
BLOCK
  5
E6
100
AcDbEntity
  8
notes
390
0
100
AcDbBlockBegin
  2
*D13
 70
               1
 10
0.0
 20
0.0
 30
0.0
  3
*D13
  1

  0
LINE
  5
E7
100
AcDbEntity
  8
0
370
              -2
390
0
  6
Continuous
 62
               0
100
AcDbLine
 10
-315.37647077012571
 20
-902.47809508721241
 30
0.0
 11
16.890026166125153
 21
-902.47809508721241
 31
0.0
  0
LINE
  5
E8
100
AcDbEntity
  8
0
370
              -2
390
0
  6
Continuous
 62
               0
100
AcDbLine
 10
-315.37647077012571
 20
27.521904912787022
 30
0.0
 11
16.890026166125153
 21
27.521904912787022
 31
0.0
  0
LINE
  5
E9
100
AcDbEntity
  8
0
370
              -2
390
0
  6
Continuous
 62
               0
100
AcDbLine
 10
16.890026166125153
 20
-902.47809508721241
 30
0.0
 11
16.890026166125153
 21
27.521904912787022
 31
0.0
  0
CIRCLE
  5
EA
102
{ACAD_REACTORS
330
EB
102
}
100
AcDbEntity
  8
0
370
              -2
390
0
  6
Continuous
 62
               0
100
AcDbCircle
 10
16.890026166125153
 20
-902.47809508721241
 30
0.0
 40
1.9998779296875
  0
HATCH
  5
EB
100
AcDbEntity
  8
0
370
              -2
390
0
  6
Continuous
 62
               0
100
AcDbHatch
 10
0.0
 20
0.0
 30
0.0
210
0.0
220
0.0
230
1.0
  2
SOLID
 70
               1
 71
               1
 91
        1
 92
        1
 93
        1
 72
               2
 10
16.890026166125153
 20
-902.47809508721241
 40
1.9998779296875
 50
0.0
 51
360.0
 73
               0
 97
        1
330
EA
 75
               0
 76
               1
 98
        1
 10
0.0
 20
0.0
  0
CIRCLE
  5
EC
102
{ACAD_REACTORS
330
ED
102
}
100
AcDbEntity
  8
0
370
              -2
390
0
  6
Continuous
 62
               0
100
AcDbCircle
 10
16.890026166125153
 20
27.521904912787022
 30
0.0
 40
1.9998779296875
  0
HATCH
  5
ED
100
AcDbEntity
  8
0
370
              -2
390
0
  6
Continuous
 62
               0
100
AcDbHatch
 10
0.0
 20
0.0
 30
0.0
210
0.0
220
0.0
230
1.0
  2
SOLID
 70
               1
 71
               1
 91
        1
 92
        1
 93
        1
 72
               2
 10
16.890026166125153
 20
27.521904912787022
 40
1.9998779296875
 50
0.0
 51
360.0
 73
               0
 97
        1
330
EC
 75
               0
 76
               1
 98
        1
 10
0.0
 20
0.0
  0
MTEXT
  5
EE
100
AcDbEntity
  8
0
390
0
 62
               0
100
AcDbMText
 10
-16.98759102137501
 20
-461.29059676938823
 30
0.0
 40
24.432617187500004
 41
0.0
 71
               1
 72
               1
  1
930
  7
ＭＳ ゴシック
 11
0.0
 21
1.0
 31
0.0
 73
               1
 44
0.7828267384257843
  0
POINT
  5
EF
100
AcDbEntity
  8
Defpoints
370
               0
390
0
 62
               0
100
AcDbPoint
 10
-340.37647077012571
 20
27.521904912787022
 30
0.0
  0
POINT
  5
F0
100
AcDbEntity
  8
Defpoints
370
               0
390
0
 62
               0
100
AcDbPoint
 10
-340.37647077012571
 20
-902.47809508721241
 30
0.0
  0
POINT
  5
F1
100
AcDbEntity
  8
Defpoints
370
               0
390
0
 62
               0
100
AcDbPoint
 10
16.890026166125153
 20
-902.47809508721241
 30
0.0
  0
ENDBLK
  5
F2
100
AcDbEntity
  8
notes
390
0
100
AcDbBlockEnd
  0
BLOCK
  5
F3
100
AcDbEntity
  8
notes
390
0
100
AcDbBlockBegin
  2
*D14
 70
               1
 10
0.0
 20
0.0
 30
0.0
  3
*D14
  1

  0
LINE
  5
F4
100
AcDbEntity
  8
0
370
              -2
390
0
  6
Continuous
 62
               0
100
AcDbLine
 10
481.66134480675419
 20
-687.5780995652035
 30
0.0
 11
376.66134480675419
 21
-687.5780995652035
 31
0.0
  0
LINE
  5
F5
100
AcDbEntity
  8
0
370
              -2
390
0
  6
Continuous
 62
               0
100
AcDbLine
 10
481.66134480675419
 20
-577.5780995652035
 30
0.0
 11
376.66134480675419
 21
-577.5780995652035
 31
0.0
  0
LINE
  5
F6
100
AcDbEntity
  8
0
370
              -2
390
0
  6
Continuous
 62
               0
100
AcDbLine
 10
376.66134480675419
 20
-687.5780995652035
 30
0.0
 11
376.66134480675419
 21
-577.5780995652035
 31
0.0
  0
CIRCLE
  5
F7
102
{ACAD_REACTORS
330
F8
102
}
100
AcDbEntity
  8
0
370
              -2
390
0
  6
Continuous
 62
               0
100
AcDbCircle
 10
376.66134480675419
 20
-687.5780995652035
 30
0.0
 40
1.9998779296875
  0
HATCH
  5
F8
100
AcDbEntity
  8
0
370
              -2
390
0
  6
Continuous
 62
               0
100
AcDbHatch
 10
0.0
 20
0.0
 30
0.0
210
0.0
220
0.0
230
1.0
  2
SOLID
 70
               1
 71
               1
 91
        1
 92
        1
 93
        1
 72
               2
 10
376.66134480675419
 20
-687.5780995652035
 40
1.9998779296875
 50
0.0
 51
360.0
 73
               0
 97
        1
330
F7
 75
               0
 76
               1
 98
        1
 10
0.0
 20
0.0
  0
CIRCLE
  5
F9
102
{ACAD_REACTORS
330
FA
102
}
100
AcDbEntity
  8
0
370
              -2
390
0
  6
Continuous
 62
               0
100
AcDbCircle
 10
376.66134480675419
 20
-577.5780995652035
 30
0.0
 40
1.9998779296875
  0
HATCH
  5
FA
100
AcDbEntity
  8
0
370
              -2
390
0
  6
Continuous
 62
               0
100
AcDbHatch
 10
0.0
 20
0.0
 30
0.0
210
0.0
220
0.0
230
1.0
  2
SOLID
 70
               1
 71
               1
 91
        1
 92
        1
 93
        1
 72
               2
 10
376.66134480675419
 20
-577.5780995652035
 40
1.9998779296875
 50
0.0
 51
360.0
 73
               0
 97
        1
330
F9
 75
               0
 76
               1
 98
        1
 10
0.0
 20
0.0
  0
MTEXT
  5
FB
100
AcDbEntity
  8
0
390
0
 62
               0
100
AcDbMText
 10
342.78372761925402
 20
-656.39060124737898
 30
0.0
 40
24.432617187500004
 41
0.0
 71
               1
 72
               1
  1
110
  7
ＭＳ ゴシック
 11
0.0
 21
1.0
 31
0.0
 73
               1
 44
0.7828267384257843
  0
POINT
  5
FC
100
AcDbEntity
  8
Defpoints
370
               0
390
0
 62
               0
100
AcDbPoint
 10
506.66134480675419
 20
-577.5780995652035
 30
0.0
  0
POINT
  5
FD
100
AcDbEntity
  8
Defpoints
370
               0
390
0
 62
               0
100
AcDbPoint
 10
506.66134480675419
 20
-687.5780995652035
 30
0.0
  0
POINT
  5
FE
100
AcDbEntity
  8
Defpoints
370
               0
390
0
 62
               0
100
AcDbPoint
 10
376.66134480675419
 20
-687.5780995652035
 30
0.0
  0
ENDBLK
  5
FF
100
AcDbEntity
  8
notes
390
0
100
AcDbBlockEnd
  0
BLOCK
  5
100
100
AcDbEntity
  8
notes
390
0
100
AcDbBlockBegin
  2
*D15
 70
               1
 10
0.0
 20
0.0
 30
0.0
  3
*D15
  1

  0
LINE
  5
101
100
AcDbEntity
  8
0
370
              -2
390
0
  6
Continuous
 62
               0
100
AcDbLine
 10
481.66134480675419
 20
-577.5780995652035
 30
0.0
 11
376.66134480675419
 21
-577.5780995652035
 31
0.0
  0
LINE
  5
102
100
AcDbEntity
  8
0
370
              -2
390
0
  6
Continuous
 62
               0
100
AcDbLine
 10
481.66134480675419
 20
-297.57809956520435
 30
0.0
 11
376.66134480675419
 21
-297.57809956520435
 31
0.0
  0
LINE
  5
103
100
AcDbEntity
  8
0
370
              -2
390
0
  6
Continuous
 62
               0
100
AcDbLine
 10
376.66134480675419
 20
-577.5780995652035
 30
0.0
 11
376.66134480675419
 21
-297.57809956520435
 31
0.0
  0
CIRCLE
  5
104
102
{ACAD_REACTORS
330
105
102
}
100
AcDbEntity
  8
0
370
              -2
390
0
  6
Continuous
 62
               0
100
AcDbCircle
 10
376.66134480675419
 20
-577.5780995652035
 30
0.0
 40
1.9998779296875
  0
HATCH
  5
105
100
AcDbEntity
  8
0
370
              -2
390
0
  6
Continuous
 62
               0
100
AcDbHatch
 10
0.0
 20
0.0
 30
0.0
210
0.0
220
0.0
230
1.0
  2
SOLID
 70
               1
 71
               1
 91
        1
 92
        1
 93
        1
 72
               2
 10
376.66134480675419
 20
-577.5780995652035
 40
1.9998779296875
 50
0.0
 51
360.0
 73
               0
 97
        1
330
104
 75
               0
 76
               1
 98
        1
 10
0.0
 20
0.0
  0
CIRCLE
  5
106
102
{ACAD_REACTORS
330
107
102
}
100
AcDbEntity
  8
0
370
              -2
390
0
  6
Continuous
 62
               0
100
AcDbCircle
 10
376.66134480675419
 20
-297.57809956520435
 30
0.0
 40
1.9998779296875
  0
HATCH
  5
107
100
AcDbEntity
  8
0
370
              -2
390
0
  6
Continuous
 62
               0
100
AcDbHatch
 10
0.0
 20
0.0
 30
0.0
210
0.0
220
0.0
230
1.0
  2
SOLID
 70
               1
 71
               1
 91
        1
 92
        1
 93
        1
 72
               2
 10
376.66134480675419
 20
-297.57809956520435
 40
1.9998779296875
 50
0.0
 51
360.0
 73
               0
 97
        1
330
106
 75
               0
 76
               1
 98
        1
 10
0.0
 20
0.0
  0
MTEXT
  5
108
100
AcDbEntity
  8
0
390
0
 62
               0
100
AcDbMText
 10
342.78372761925402
 20
-461.39060124737944
 30
0.0
 40
24.432617187500004
 41
0.0
 71
               1
 72
               1
  1
280
  7
ＭＳ ゴシック
 11
0.0
 21
1.0
 31
0.0
 73
               1
 44
0.7828267384257843
  0
POINT
  5
109
100
AcDbEntity
  8
Defpoints
370
               0
390
0
 62
               0
100
AcDbPoint
 10
506.66134480675419
 20
-297.57809956520435
 30
0.0
  0
POINT
  5
10A
100
AcDbEntity
  8
Defpoints
370
               0
390
0
 62
               0
100
AcDbPoint
 10
506.66134480675419
 20
-577.5780995652035
 30
0.0
  0
POINT
  5
10B
100
AcDbEntity
  8
Defpoints
370
               0
390
0
 62
               0
100
AcDbPoint
 10
376.66134480675419
 20
-577.5780995652035
 30
0.0
  0
ENDBLK
  5
10C
100
AcDbEntity
  8
notes
390
0
100
AcDbBlockEnd
  0
BLOCK
  5
10D
100
AcDbEntity
  8
notes
390
0
100
AcDbBlockBegin
  2
*D16
 70
               1
 10
0.0
 20
0.0
 30
0.0
  3
*D16
  1

  0
LINE
  5
10E
100
AcDbEntity
  8
0
370
              -2
390
0
  6
Continuous
 62
               0
100
AcDbLine
 10
481.66134480675419
 20
-297.57809956520435
 30
0.0
 11
376.66134480675419
 21
-297.57809956520435
 31
0.0
  0
LINE
  5
10F
100
AcDbEntity
  8
0
370
              -2
390
0
  6
Continuous
 62
               0
100
AcDbLine
 10
481.66134480675419
 20
-187.57809956520441
 30
0.0
 11
376.66134480675419
 21
-187.57809956520441
 31
0.0
  0
LINE
  5
110
100
AcDbEntity
  8
0
370
              -2
390
0
  6
Continuous
 62
               0
100
AcDbLine
 10
376.66134480675419
 20
-297.57809956520435
 30
0.0
 11
376.66134480675419
 21
-187.57809956520441
 31
0.0
  0
CIRCLE
  5
111
102
{ACAD_REACTORS
330
112
102
}
100
AcDbEntity
  8
0
370
              -2
390
0
  6
Continuous
 62
               0
100
AcDbCircle
 10
376.66134480675419
 20
-297.57809956520435
 30
0.0
 40
1.9998779296875
  0
HATCH
  5
112
100
AcDbEntity
  8
0
370
              -2
390
0
  6
Continuous
 62
               0
100
AcDbHatch
 10
0.0
 20
0.0
 30
0.0
210
0.0
220
0.0
230
1.0
  2
SOLID
 70
               1
 71
               1
 91
        1
 92
        1
 93
        1
 72
               2
 10
376.66134480675419
 20
-297.57809956520435
 40
1.9998779296875
 50
0.0
 51
360.0
 73
               0
 97
        1
330
111
 75
               0
 76
               1
 98
        1
 10
0.0
 20
0.0
  0
CIRCLE
  5
113
102
{ACAD_REACTORS
330
114
102
}
100
AcDbEntity
  8
0
370
              -2
390
0
  6
Continuous
 62
               0
100
AcDbCircle
 10
376.66134480675419
 20
-187.57809956520441
 30
0.0
 40
1.9998779296875
  0
HATCH
  5
114
100
AcDbEntity
  8
0
370
              -2
390
0
  6
Continuous
 62
               0
100
AcDbHatch
 10
0.0
 20
0.0
 30
0.0
210
0.0
220
0.0
230
1.0
  2
SOLID
 70
               1
 71
               1
 91
        1
 92
        1
 93
        1
 72
               2
 10
376.66134480675419
 20
-187.57809956520441
 40
1.9998779296875
 50
0.0
 51
360.0
 73
               0
 97
        1
330
113
 75
               0
 76
               1
 98
        1
 10
0.0
 20
0.0
  0
MTEXT
  5
115
100
AcDbEntity
  8
0
390
0
 62
               0
100
AcDbMText
 10
342.78372761925402
 20
-266.39060124737995
 30
0.0
 40
24.432617187500004
 41
0.0
 71
               1
 72
               1
  1
110
  7
ＭＳ ゴシック
 11
0.0
 21
1.0
 31
0.0
 73
               1
 44
0.7828267384257843
  0
POINT
  5
116
100
AcDbEntity
  8
Defpoints
370
               0
390
0
 62
               0
100
AcDbPoint
 10
506.66134480675419
 20
-187.57809956520441
 30
0.0
  0
POINT
  5
117
100
AcDbEntity
  8
Defpoints
370
               0
390
0
 62
               0
100
AcDbPoint
 10
506.66134480675419
 20
-297.57809956520435
 30
0.0
  0
POINT
  5
118
100
AcDbEntity
  8
Defpoints
370
               0
390
0
 62
               0
100
AcDbPoint
 10
376.66134480675419
 20
-297.57809956520435
 30
0.0
  0
ENDBLK
  5
119
100
AcDbEntity
  8
notes
390
0
100
AcDbBlockEnd
  0
BLOCK
  5
11A
100
AcDbEntity
  8
notes
390
0
100
AcDbBlockBegin
  2
*D17
 70
               1
 10
0.0
 20
0.0
 30
0.0
  3
*D17
  1

  0
LINE
  5
11B
100
AcDbEntity
  8
0
370
              -2
390
0
  6
Continuous
 62
               0
100
AcDbLine
 10
-623.1099738338753
 20
-997.52853224992884
 30
0.0
 11
-623.1099738338753
 21
-1057.5518915429147
 31
0.0
  0
LINE
  5
11C
100
AcDbEntity
  8
0
370
              -2
390
0
  6
Continuous
 62
               0
100
AcDbLine
 10
-488.115214206563
 20
-986.78295833068057
 30
0.0
 11
-488.115214206563
 21
-1057.5518915429147
 31
0.0
  0
LINE
  5
11D
100
AcDbEntity
  8
0
370
              -2
390
0
  6
Continuous
 62
               0
100
AcDbLine
 10
-623.1099738338753
 20
-1057.5518915429147
 30
0.0
 11
-488.115214206563
 21
-1057.5518915429147
 31
0.0
  0
CIRCLE
  5
11E
102
{ACAD_REACTORS
330
11F
102
}
100
AcDbEntity
  8
0
370
              -2
390
0
  6
Continuous
 62
               0
100
AcDbCircle
 10
-623.1099738338753
 20
-1057.5518915429147
 30
0.0
 40
1.9998779296875
  0
HATCH
  5
11F
100
AcDbEntity
  8
0
370
              -2
390
0
  6
Continuous
 62
               0
100
AcDbHatch
 10
0.0
 20
0.0
 30
0.0
210
0.0
220
0.0
230
1.0
  2
SOLID
 70
               1
 71
               1
 91
        1
 92
        1
 93
        1
 72
               2
 10
-623.1099738338753
 20
-1057.5518915429147
 40
1.9998779296875
 50
0.0
 51
360.0
 73
               0
 97
        1
330
11E
 75
               0
 76
               1
 98
        1
 10
0.0
 20
0.0
  0
CIRCLE
  5
120
102
{ACAD_REACTORS
330
121
102
}
100
AcDbEntity
  8
0
370
              -2
390
0
  6
Continuous
 62
               0
100
AcDbCircle
 10
-488.115214206563
 20
-1057.5518915429147
 30
0.0
 40
1.9998779296875
  0
HATCH
  5
121
100
AcDbEntity
  8
0
370
              -2
390
0
  6
Continuous
 62
               0
100
AcDbHatch
 10
0.0
 20
0.0
 30
0.0
210
0.0
220
0.0
230
1.0
  2
SOLID
 70
               1
 71
               1
 91
        1
 92
        1
 93
        1
 72
               2
 10
-488.115214206563
 20
-1057.5518915429147
 40
1.9998779296875
 50
0.0
 51
360.0
 73
               0
 97
        1
330
120
 75
               0
 76
               1
 98
        1
 10
0.0
 20
0.0
  0
MTEXT
  5
122
100
AcDbEntity
  8
0
390
0
 62
               0
100
AcDbMText
 10
-579.42509570239508
 20
-1023.6742743554148
 30
0.0
 40
24.432617187500004
 41
0.0
 71
               1
 72
               1
  1
135
  7
ＭＳ ゴシック
 73
               1
 44
0.7828267384257843
  0
POINT
  5
123
100
AcDbEntity
  8
Defpoints
370
               0
390
0
 62
               0
100
AcDbPoint
 10
-488.115214206563
 20
-961.78295833068057
 30
0.0
  0
POINT
  5
124
100
AcDbEntity
  8
Defpoints
370
               0
390
0
 62
               0
100
AcDbPoint
 10
-623.1099738338753
 20
-972.52853224992884
 30
0.0
  0
POINT
  5
125
100
AcDbEntity
  8
Defpoints
370
               0
390
0
 62
               0
100
AcDbPoint
 10
-623.1099738338753
 20
-1057.5518915429147
 30
0.0
  0
ENDBLK
  5
126
100
AcDbEntity
  8
notes
390
0
100
AcDbBlockEnd
  0
BLOCK
  5
127
100
AcDbEntity
  8
notes
390
0
100
AcDbBlockBegin
  2
*D18
 70
               1
 10
0.0
 20
0.0
 30
0.0
  3
*D18
  1

  0
LINE
  5
128
100
AcDbEntity
  8
0
370
              -2
390
0
  6
Continuous
 62
               0
100
AcDbLine
 10
-488.115214206563
 20
-985.40600201451741
 30
0.0
 11
-488.115214206563
 21
-1057.5518915429147
 31
0.0
  0
LINE
  5
129
100
AcDbEntity
  8
0
370
              -2
390
0
  6
Continuous
 62
               0
100
AcDbLine
 10
-128.15496540912227
 20
-683.87809508721307
 30
0.0
 11
-128.15496540912227
 21
-1057.5518915429147
 31
0.0
  0
LINE
  5
12A
100
AcDbEntity
  8
0
370
              -2
390
0
  6
Continuous
 62
               0
100
AcDbLine
 10
-488.115214206563
 20
-1057.5518915429147
 30
0.0
 11
-128.15496540912227
 21
-1057.5518915429147
 31
0.0
  0
CIRCLE
  5
12B
102
{ACAD_REACTORS
330
12C
102
}
100
AcDbEntity
  8
0
370
              -2
390
0
  6
Continuous
 62
               0
100
AcDbCircle
 10
-488.115214206563
 20
-1057.5518915429147
 30
0.0
 40
1.9998779296875
  0
HATCH
  5
12C
100
AcDbEntity
  8
0
370
              -2
390
0
  6
Continuous
 62
               0
100
AcDbHatch
 10
0.0
 20
0.0
 30
0.0
210
0.0
220
0.0
230
1.0
  2
SOLID
 70
               1
 71
               1
 91
        1
 92
        1
 93
        1
 72
               2
 10
-488.115214206563
 20
-1057.5518915429147
 40
1.9998779296875
 50
0.0
 51
360.0
 73
               0
 97
        1
330
12B
 75
               0
 76
               1
 98
        1
 10
0.0
 20
0.0
  0
CIRCLE
  5
12D
102
{ACAD_REACTORS
330
12E
102
}
100
AcDbEntity
  8
0
370
              -2
390
0
  6
Continuous
 62
               0
100
AcDbCircle
 10
-128.15496540912227
 20
-1057.5518915429147
 30
0.0
 40
1.9998779296875
  0
HATCH
  5
12E
100
AcDbEntity
  8
0
370
              -2
390
0
  6
Continuous
 62
               0
100
AcDbHatch
 10
0.0
 20
0.0
 30
0.0
210
0.0
220
0.0
230
1.0
  2
SOLID
 70
               1
 71
               1
 91
        1
 92
        1
 93
        1
 72
               2
 10
-128.15496540912227
 20
-1057.5518915429147
 40
1.9998779296875
 50
0.0
 51
360.0
 73
               0
 97
        1
330
12D
 75
               0
 76
               1
 98
        1
 10
0.0
 20
0.0
  0
MTEXT
  5
12F
100
AcDbEntity
  8
0
390
0
 62
               0
100
AcDbMText
 10
-331.94759149001857
 20
-1023.6742743554148
 30
0.0
 40
24.432617187500004
 41
0.0
 71
               1
 72
               1
  1
360
  7
ＭＳ ゴシック
 73
               1
 44
0.7828267384257843
  0
POINT
  5
130
100
AcDbEntity
  8
Defpoints
370
               0
390
0
 62
               0
100
AcDbPoint
 10
-128.15496540912227
 20
-658.87809508721307
 30
0.0
  0
POINT
  5
131
100
AcDbEntity
  8
Defpoints
370
               0
390
0
 62
               0
100
AcDbPoint
 10
-488.115214206563
 20
-960.40600201451741
 30
0.0
  0
POINT
  5
132
100
AcDbEntity
  8
Defpoints
370
               0
390
0
 62
               0
100
AcDbPoint
 10
-488.115214206563
 20
-1057.5518915429147
 30
0.0
  0
ENDBLK
  5
133
100
AcDbEntity
  8
notes
390
0
100
AcDbBlockEnd
  0
BLOCK
  5
134
100
AcDbEntity
  8
notes
390
0
100
AcDbBlockBegin
  2
*D19
 70
               1
 10
0.0
 20
0.0
 30
0.0
  3
*D19
  1

  0
LINE
  5
135
100
AcDbEntity
  8
0
370
              -2
390
0
  6
Continuous
 62
               0
100
AcDbLine
 10
476.66134480675464
 20
908.50398239099638
 30
0.0
 11
476.66134480675464
 21
886.50398239099638
 31
0.0
  0
LINE
  5
136
100
AcDbEntity
  8
0
370
              -2
390
0
  6
Continuous
 62
               0
100
AcDbLine
 10
641.66134480675373
 20
908.50398239099638
 30
0.0
 11
641.66134480675373
 21
886.50398239099638
 31
0.0
  0
LINE
  5
137
100
AcDbEntity
  8
0
370
              -2
390
0
  6
Continuous
 62
               0
100
AcDbLine
 10
476.66134480675464
 20
886.50398239099638
 30
0.0
 11
641.66134480675373
 21
886.50398239099638
 31
0.0
  0
CIRCLE
  5
138
102
{ACAD_REACTORS
330
139
102
}
100
AcDbEntity
  8
0
370
              -2
390
0
  6
Continuous
 62
               0
100
AcDbCircle
 10
476.66134480675464
 20
886.50398239099638
 30
0.0
 40
1.9998779296875
  0
HATCH
  5
139
100
AcDbEntity
  8
0
370
              -2
390
0
  6
Continuous
 62
               0
100
AcDbHatch
 10
0.0
 20
0.0
 30
0.0
210
0.0
220
0.0
230
1.0
  2
SOLID
 70
               1
 71
               1
 91
        1
 92
        1
 93
        1
 72
               2
 10
476.66134480675464
 20
886.50398239099638
 40
1.9998779296875
 50
0.0
 51
360.0
 73
               0
 97
        1
330
138
 75
               0
 76
               1
 98
        1
 10
0.0
 20
0.0
  0
CIRCLE
  5
13A
102
{ACAD_REACTORS
330
13B
102
}
100
AcDbEntity
  8
0
370
              -2
390
0
  6
Continuous
 62
               0
100
AcDbCircle
 10
641.66134480675373
 20
886.50398239099638
 30
0.0
 40
1.9998779296875
  0
HATCH
  5
13B
100
AcDbEntity
  8
0
370
              -2
390
0
  6
Continuous
 62
               0
100
AcDbHatch
 10
0.0
 20
0.0
 30
0.0
210
0.0
220
0.0
230
1.0
  2
SOLID
 70
               1
 71
               1
 91
        1
 92
        1
 93
        1
 72
               2
 10
641.66134480675373
 20
886.50398239099638
 40
1.9998779296875
 50
0.0
 51
360.0
 73
               0
 97
        1
330
13A
 75
               0
 76
               1
 98
        1
 10
0.0
 20
0.0
  0
MTEXT
  5
13C
100
AcDbEntity
  8
0
390
0
 62
               0
100
AcDbMText
 10
487.72384480675419
 20
920.38159957849632
 30
0.0
 40
24.432617187500004
 41
0.0
 71
               1
 72
               1
  1
165(深さ)
  7
ＭＳ ゴシック
 73
               1
 44
0.7828267384257843
  0
POINT
  5
13D
100
AcDbEntity
  8
Defpoints
370
               0
390
0
 62
               0
100
AcDbPoint
 10
641.66134480675373
 20
933.50398239099638
 30
0.0
  0
POINT
  5
13E
100
AcDbEntity
  8
Defpoints
370
               0
390
0
 62
               0
100
AcDbPoint
 10
476.66134480675464
 20
933.50398239099638
 30
0.0
  0
POINT
  5
13F
100
AcDbEntity
  8
Defpoints
370
               0
390
0
 62
               0
100
AcDbPoint
 10
476.66134480675464
 20
886.50398239099638
 30
0.0
  0
ENDBLK
  5
140
100
AcDbEntity
  8
notes
390
0
100
AcDbBlockEnd
  0
BLOCK
  5
141
100
AcDbEntity
  8
notes
390
0
100
AcDbBlockBegin
  2
*D20
 70
               1
 10
0.0
 20
0.0
 30
0.0
  3
*D20
  1

  0
LINE
  5
142
100
AcDbEntity
  8
0
370
              -2
390
0
  6
Continuous
 62
               0
100
AcDbLine
 10
476.66134480675464
 20
-996.57809956520498
 30
0.0
 11
476.66134480675464
 21
-1057.5518915429147
 31
0.0
  0
LINE
  5
143
100
AcDbEntity
  8
0
370
              -2
390
0
  6
Continuous
 62
               0
100
AcDbLine
 10
526.66134480675373
 20
-764.60233742006153
 30
0.0
 11
526.66134480675373
 21
-1057.5518915429147
 31
0.0
  0
LINE
  5
144
100
AcDbEntity
  8
0
370
              -2
390
0
  6
Continuous
 62
               0
100
AcDbLine
 10
476.66134480675464
 20
-1057.5518915429147
 30
0.0
 11
526.66134480675373
 21
-1057.5518915429147
 31
0.0
  0
CIRCLE
  5
145
102
{ACAD_REACTORS
330
146
102
}
100
AcDbEntity
  8
0
370
              -2
390
0
  6
Continuous
 62
               0
100
AcDbCircle
 10
476.66134480675464
 20
-1057.5518915429147
 30
0.0
 40
1.9998779296875
  0
HATCH
  5
146
100
AcDbEntity
  8
0
370
              -2
390
0
  6
Continuous
 62
               0
100
AcDbHatch
 10
0.0
 20
0.0
 30
0.0
210
0.0
220
0.0
230
1.0
  2
SOLID
 70
               1
 71
               1
 91
        1
 92
        1
 93
        1
 72
               2
 10
476.66134480675464
 20
-1057.5518915429147
 40
1.9998779296875
 50
0.0
 51
360.0
 73
               0
 97
        1
330
145
 75
               0
 76
               1
 98
        1
 10
0.0
 20
0.0
  0
CIRCLE
  5
147
102
{ACAD_REACTORS
330
148
102
}
100
AcDbEntity
  8
0
370
              -2
390
0
  6
Continuous
 62
               0
100
AcDbCircle
 10
526.66134480675373
 20
-1057.5518915429147
 30
0.0
 40
1.9998779296875
  0
HATCH
  5
148
100
AcDbEntity
  8
0
370
              -2
390
0
  6
Continuous
 62
               0
100
AcDbHatch
 10
0.0
 20
0.0
 30
0.0
210
0.0
220
0.0
230
1.0
  2
SOLID
 70
               1
 71
               1
 91
        1
 92
        1
 93
        1
 72
               2
 10
526.66134480675373
 20
-1057.5518915429147
 40
1.9998779296875
 50
0.0
 51
360.0
 73
               0
 97
        1
330
147
 75
               0
 76
               1
 98
        1
 10
0.0
 20
0.0
  0
MTEXT
  5
149
100
AcDbEntity
  8
0
390
0
 62
               0
100
AcDbMText
 10
485.78634480675419
 20
-1023.6742743554148
 30
0.0
 40
24.432617187500004
 41
0.0
 71
               1
 72
               1
  1
50
  7
ＭＳ ゴシック
 73
               1
 44
0.7828267384257843
  0
POINT
  5
14A
100
AcDbEntity
  8
Defpoints
370
               0
390
0
 62
               0
100
AcDbPoint
 10
526.66134480675373
 20
-739.60233742006153
 30
0.0
  0
POINT
  5
14B
100
AcDbEntity
  8
Defpoints
370
               0
390
0
 62
               0
100
AcDbPoint
 10
476.66134480675464
 20
-971.57809956520498
 30
0.0
  0
POINT
  5
14C
100
AcDbEntity
  8
Defpoints
370
               0
390
0
 62
               0
100
AcDbPoint
 10
476.66134480675464
 20
-1057.5518915429147
 30
0.0
  0
ENDBLK
  5
14D
100
AcDbEntity
  8
notes
390
0
100
AcDbBlockEnd
  0
BLOCK
  5
14E
100
AcDbEntity
  8
notes
390
0
100
AcDbBlockBegin
  2
*D21
 70
               1
 10
0.0
 20
0.0
 30
0.0
  3
*D21
  1

  0
LINE
  5
14F
100
AcDbEntity
  8
0
370
              -2
390
0
  6
Continuous
 62
               0
100
AcDbLine
 10
476.66134480675464
 20
121.42190043479604
 30
0.0
 11
476.66134480675464
 21
182.42451939324224
 31
0.0
  0
LINE
  5
150
100
AcDbEntity
  8
0
370
              -2
390
0
  6
Continuous
 62
               0
100
AcDbLine
 10
696.6613448067551
 20
-379.87809956520459
 30
0.0
 11
696.6613448067551
 21
182.42451939324224
 31
0.0
  0
LINE
  5
151
100
AcDbEntity
  8
0
370
              -2
390
0
  6
Continuous
 62
               0
100
AcDbLine
 10
476.66134480675464
 20
182.42451939324224
 30
0.0
 11
696.6613448067551
 21
182.42451939324224
 31
0.0
  0
CIRCLE
  5
152
102
{ACAD_REACTORS
330
153
102
}
100
AcDbEntity
  8
0
370
              -2
390
0
  6
Continuous
 62
               0
100
AcDbCircle
 10
476.66134480675464
 20
182.42451939324224
 30
0.0
 40
1.9998779296875
  0
HATCH
  5
153
100
AcDbEntity
  8
0
370
              -2
390
0
  6
Continuous
 62
               0
100
AcDbHatch
 10
0.0
 20
0.0
 30
0.0
210
0.0
220
0.0
230
1.0
  2
SOLID
 70
               1
 71
               1
 91
        1
 92
        1
 93
        1
 72
               2
 10
476.66134480675464
 20
182.42451939324224
 40
1.9998779296875
 50
0.0
 51
360.0
 73
               0
 97
        1
330
152
 75
               0
 76
               1
 98
        1
 10
0.0
 20
0.0
  0
CIRCLE
  5
154
102
{ACAD_REACTORS
330
155
102
}
100
AcDbEntity
  8
0
370
              -2
390
0
  6
Continuous
 62
               0
100
AcDbCircle
 10
696.6613448067551
 20
182.42451939324224
 30
0.0
 40
1.9998779296875
  0
HATCH
  5
155
100
AcDbEntity
  8
0
370
              -2
390
0
  6
Continuous
 62
               0
100
AcDbHatch
 10
0.0
 20
0.0
 30
0.0
210
0.0
220
0.0
230
1.0
  2
SOLID
 70
               1
 71
               1
 91
        1
 92
        1
 93
        1
 72
               2
 10
696.6613448067551
 20
182.42451939324224
 40
1.9998779296875
 50
0.0
 51
360.0
 73
               0
 97
        1
330
154
 75
               0
 76
               1
 98
        1
 10
0.0
 20
0.0
  0
MTEXT
  5
156
100
AcDbEntity
  8
0
390
0
 62
               0
100
AcDbMText
 10
562.84884312457916
 20
216.30213658074229
 30
0.0
 40
24.432617187500004
 41
0.0
 71
               1
 72
               1
  1
220
  7
ＭＳ ゴシック
 73
               1
 44
0.7828267384257843
  0
POINT
  5
157
100
AcDbEntity
  8
Defpoints
370
               0
390
0
 62
               0
100
AcDbPoint
 10
696.6613448067551
 20
-404.87809956520459
 30
0.0
  0
POINT
  5
158
100
AcDbEntity
  8
Defpoints
370
               0
390
0
 62
               0
100
AcDbPoint
 10
476.66134480675464
 20
96.421900434796044
 30
0.0
  0
POINT
  5
159
100
AcDbEntity
  8
Defpoints
370
               0
390
0
 62
               0
100
AcDbPoint
 10
476.66134480675464
 20
182.42451939324224
 30
0.0
  0
ENDBLK
  5
15A
100
AcDbEntity
  8
notes
390
0
100
AcDbBlockEnd
  0
BLOCK
  5
15B
100
AcDbEntity
  8
notes
390
0
100
AcDbBlockBegin
  2
*D22
 70
               1
 10
0.0
 20
0.0
 30
0.0
  3
*D22
  1

  0
LINE
  5
15C
100
AcDbEntity
  8
0
370
              -2
390
0
  6
Continuous
 62
               0
100
AcDbLine
 10
456.66134480675464
 20
1144.1636873632597
 30
0.0
 11
376.66134480675464
 21
1144.1636873632597
 31
0.0
  0
LINE
  5
15D
100
AcDbEntity
  8
0
370
              -2
390
0
  6
Continuous
 62
               0
100
AcDbLine
 10
451.66134480675464
 20
1074.1636873632597
 30
0.0
 11
376.66134480675464
 21
1074.1636873632597
 31
0.0
  0
LINE
  5
15E
100
AcDbEntity
  8
0
370
              -2
390
0
  6
Continuous
 62
               0
100
AcDbLine
 10
376.66134480675464
 20
1144.1636873632597
 30
0.0
 11
376.66134480675464
 21
1074.1636873632597
 31
0.0
  0
CIRCLE
  5
15F
102
{ACAD_REACTORS
330
160
102
}
100
AcDbEntity
  8
0
370
              -2
390
0
  6
Continuous
 62
               0
100
AcDbCircle
 10
376.66134480675464
 20
1144.1636873632597
 30
0.0
 40
1.9998779296875
  0
HATCH
  5
160
100
AcDbEntity
  8
0
370
              -2
390
0
  6
Continuous
 62
               0
100
AcDbHatch
 10
0.0
 20
0.0
 30
0.0
210
0.0
220
0.0
230
1.0
  2
SOLID
 70
               1
 71
               1
 91
        1
 92
        1
 93
        1
 72
               2
 10
376.66134480675464
 20
1144.1636873632597
 40
1.9998779296875
 50
0.0
 51
360.0
 73
               0
 97
        1
330
15F
 75
               0
 76
               1
 98
        1
 10
0.0
 20
0.0
  0
CIRCLE
  5
161
102
{ACAD_REACTORS
330
162
102
}
100
AcDbEntity
  8
0
370
              -2
390
0
  6
Continuous
 62
               0
100
AcDbCircle
 10
376.66134480675464
 20
1074.1636873632597
 30
0.0
 40
1.9998779296875
  0
HATCH
  5
162
100
AcDbEntity
  8
0
370
              -2
390
0
  6
Continuous
 62
               0
100
AcDbHatch
 10
0.0
 20
0.0
 30
0.0
210
0.0
220
0.0
230
1.0
  2
SOLID
 70
               1
 71
               1
 91
        1
 92
        1
 93
        1
 72
               2
 10
376.66134480675464
 20
1074.1636873632597
 40
1.9998779296875
 50
0.0
 51
360.0
 73
               0
 97
        1
330
161
 75
               0
 76
               1
 98
        1
 10
0.0
 20
0.0
  0
MTEXT
  5
163
100
AcDbEntity
  8
0
390
0
 62
               0
100
AcDbMText
 10
342.78372761925448
 20
1093.2886873632597
 30
0.0
 40
24.432617187500004
 41
0.0
 71
               1
 72
               1
  1
70
  7
ＭＳ ゴシック
 11
0.0
 21
1.0
 31
0.0
 73
               1
 44
0.7828267384257843
  0
POINT
  5
164
100
AcDbEntity
  8
Defpoints
370
               0
390
0
 62
               0
100
AcDbPoint
 10
476.66134480675464
 20
1074.1636873632597
 30
0.0
  0
POINT
  5
165
100
AcDbEntity
  8
Defpoints
370
               0
390
0
 62
               0
100
AcDbPoint
 10
481.66134480675464
 20
1144.1636873632597
 30
0.0
  0
POINT
  5
166
100
AcDbEntity
  8
Defpoints
370
               0
390
0
 62
               0
100
AcDbPoint
 10
376.66134480675464
 20
1144.1636873632597
 30
0.0
  0
ENDBLK
  5
167
100
AcDbEntity
  8
notes
390
0
100
AcDbBlockEnd
  0
BLOCK
  5
168
100
AcDbEntity
  8
notes
390
0
100
AcDbBlockBegin
  2
*D23
 70
               1
 10
0.0
 20
0.0
 30
0.0
  3
*D23
  1

  0
LINE
  5
169
100
AcDbEntity
  8
0
370
              -2
390
0
  6
Continuous
 62
               0
100
AcDbLine
 10
476.66134480675464
 20
586.70672115677542
 30
0.0
 11
476.66134480675464
 21
505.86050076806373
 31
0.0
  0
LINE
  5
16A
100
AcDbEntity
  8
0
370
              -2
390
0
  6
Continuous
 62
               0
100
AcDbLine
 10
676.66134480675419
 20
627.23455802830597
 30
0.0
 11
676.66134480675419
 21
505.86050076806373
 31
0.0
  0
LINE
  5
16B
100
AcDbEntity
  8
0
370
              -2
390
0
  6
Continuous
 62
               0
100
AcDbLine
 10
476.66134480675464
 20
505.86050076806373
 30
0.0
 11
676.66134480675419
 21
505.86050076806373
 31
0.0
  0
CIRCLE
  5
16C
102
{ACAD_REACTORS
330
16D
102
}
100
AcDbEntity
  8
0
370
              -2
390
0
  6
Continuous
 62
               0
100
AcDbCircle
 10
476.66134480675464
 20
505.86050076806373
 30
0.0
 40
1.9998779296875
  0
HATCH
  5
16D
100
AcDbEntity
  8
0
370
              -2
390
0
  6
Continuous
 62
               0
100
AcDbHatch
 10
0.0
 20
0.0
 30
0.0
210
0.0
220
0.0
230
1.0
  2
SOLID
 70
               1
 71
               1
 91
        1
 92
        1
 93
        1
 72
               2
 10
476.66134480675464
 20
505.86050076806373
 40
1.9998779296875
 50
0.0
 51
360.0
 73
               0
 97
        1
330
16C
 75
               0
 76
               1
 98
        1
 10
0.0
 20
0.0
  0
CIRCLE
  5
16E
102
{ACAD_REACTORS
330
16F
102
}
100
AcDbEntity
  8
0
370
              -2
390
0
  6
Continuous
 62
               0
100
AcDbCircle
 10
676.66134480675419
 20
505.86050076806373
 30
0.0
 40
1.9998779296875
  0
HATCH
  5
16F
100
AcDbEntity
  8
0
370
              -2
390
0
  6
Continuous
 62
               0
100
AcDbHatch
 10
0.0
 20
0.0
 30
0.0
210
0.0
220
0.0
230
1.0
  2
SOLID
 70
               1
 71
               1
 91
        1
 92
        1
 93
        1
 72
               2
 10
676.66134480675419
 20
505.86050076806373
 40
1.9998779296875
 50
0.0
 51
360.0
 73
               0
 97
        1
330
16E
 75
               0
 76
               1
 98
        1
 10
0.0
 20
0.0
  0
MTEXT
  5
170
100
AcDbEntity
  8
0
390
0
 62
               0
100
AcDbMText
 10
552.84884312457916
 20
539.73811795556355
 30
0.0
 40
24.432617187500004
 41
0.0
 71
               1
 72
               1
  1
200
  7
ＭＳ ゴシック
 73
               1
 44
0.7828267384257843
  0
POINT
  5
171
100
AcDbEntity
  8
Defpoints
370
               0
390
0
 62
               0
100
AcDbPoint
 10
676.66134480675419
 20
652.23455802830597
 30
0.0
  0
POINT
  5
172
100
AcDbEntity
  8
Defpoints
370
               0
390
0
 62
               0
100
AcDbPoint
 10
476.66134480675464
 20
611.70672115677542
 30
0.0
  0
POINT
  5
173
100
AcDbEntity
  8
Defpoints
370
               0
390
0
 62
               0
100
AcDbPoint
 10
476.66134480675464
 20
505.86050076806373
 30
0.0
  0
ENDBLK
  5
174
100
AcDbEntity
  8
notes
390
0
100
AcDbBlockEnd
  0
BLOCK
  5
175
100
AcDbEntity
  8
notes
390
0
100
AcDbBlockBegin
  2
*D24
 70
               1
 10
0.0
 20
0.0
 30
0.0
  3
*D24
  1

  0
LINE
  5
176
100
AcDbEntity
  8
0
370
              -2
390
0
  6
Continuous
 62
               0
100
AcDbLine
 10
701.66134480675328
 20
1144.1636873632597
 30
0.0
 11
796.66134480675464
 21
1144.1636873632597
 31
0.0
  0
LINE
  5
177
100
AcDbEntity
  8
0
370
              -2
390
0
  6
Continuous
 62
               0
100
AcDbLine
 10
721.6613448067551
 20
919.16368736325978
 30
0.0
 11
796.66134480675464
 21
919.16368736325978
 31
0.0
  0
LINE
  5
178
100
AcDbEntity
  8
0
370
              -2
390
0
  6
Continuous
 62
               0
100
AcDbLine
 10
796.66134480675464
 20
1144.1636873632597
 30
0.0
 11
796.66134480675464
 21
919.16368736325978
 31
0.0
  0
CIRCLE
  5
179
102
{ACAD_REACTORS
330
17A
102
}
100
AcDbEntity
  8
0
370
              -2
390
0
  6
Continuous
 62
               0
100
AcDbCircle
 10
796.66134480675464
 20
1144.1636873632597
 30
0.0
 40
1.9998779296875
  0
HATCH
  5
17A
100
AcDbEntity
  8
0
370
              -2
390
0
  6
Continuous
 62
               0
100
AcDbHatch
 10
0.0
 20
0.0
 30
0.0
210
0.0
220
0.0
230
1.0
  2
SOLID
 70
               1
 71
               1
 91
        1
 92
        1
 93
        1
 72
               2
 10
796.66134480675464
 20
1144.1636873632597
 40
1.9998779296875
 50
0.0
 51
360.0
 73
               0
 97
        1
330
179
 75
               0
 76
               1
 98
        1
 10
0.0
 20
0.0
  0
CIRCLE
  5
17B
102
{ACAD_REACTORS
330
17C
102
}
100
AcDbEntity
  8
0
370
              -2
390
0
  6
Continuous
 62
               0
100
AcDbCircle
 10
796.66134480675464
 20
919.16368736325978
 30
0.0
 40
1.9998779296875
  0
HATCH
  5
17C
100
AcDbEntity
  8
0
370
              -2
390
0
  6
Continuous
 62
               0
100
AcDbHatch
 10
0.0
 20
0.0
 30
0.0
210
0.0
220
0.0
230
1.0
  2
SOLID
 70
               1
 71
               1
 91
        1
 92
        1
 93
        1
 72
               2
 10
796.66134480675464
 20
919.16368736325978
 40
1.9998779296875
 50
0.0
 51
360.0
 73
               0
 97
        1
330
17B
 75
               0
 76
               1
 98
        1
 10
0.0
 20
0.0
  0
MTEXT
  5
17D
100
AcDbEntity
  8
0
390
0
 62
               0
100
AcDbMText
 10
762.78372761925448
 20
1007.8511856810843
 30
0.0
 40
24.432617187500004
 41
0.0
 71
               1
 72
               1
  1
225
  7
ＭＳ ゴシック
 11
0.0
 21
1.0
 31
0.0
 73
               1
 44
0.7828267384257843
  0
POINT
  5
17E
100
AcDbEntity
  8
Defpoints
370
               0
390
0
 62
               0
100
AcDbPoint
 10
696.6613448067551
 20
919.16368736325978
 30
0.0
  0
POINT
  5
17F
100
AcDbEntity
  8
Defpoints
370
               0
390
0
 62
               0
100
AcDbPoint
 10
676.66134480675328
 20
1144.1636873632597
 30
0.0
  0
POINT
  5
180
100
AcDbEntity
  8
Defpoints
370
               0
390
0
 62
               0
100
AcDbPoint
 10
796.66134480675464
 20
1144.1636873632597
 30
0.0
  0
ENDBLK
  5
181
100
AcDbEntity
  8
notes
390
0
100
AcDbBlockEnd
  0
BLOCK
  5
182
100
AcDbEntity
  8
notes
390
0
100
AcDbBlockBegin
  2
*D25
 70
               1
 10
0.0
 20
0.0
 30
0.0
  3
*D25
  1

  0
LINE
  5
183
100
AcDbEntity
  8
0
370
              -2
390
0
  6
Continuous
 62
               0
100
AcDbLine
 10
701.69389009688393
 20
1144.1636873632592
 30
0.0
 11
846.66134480675464
 21
1144.1636873632592
 31
0.0
  0
LINE
  5
184
100
AcDbEntity
  8
0
370
              -2
390
0
  6
Continuous
 62
               0
100
AcDbLine
 10
701.69389009688393
 20
634.16368736325933
 30
0.0
 11
846.66134480675464
 21
634.16368736325933
 31
0.0
  0
LINE
  5
185
100
AcDbEntity
  8
0
370
              -2
390
0
  6
Continuous
 62
               0
100
AcDbLine
 10
846.66134480675464
 20
1144.1636873632592
 30
0.0
 11
846.66134480675464
 21
634.16368736325933
 31
0.0
  0
CIRCLE
  5
186
102
{ACAD_REACTORS
330
187
102
}
100
AcDbEntity
  8
0
370
              -2
390
0
  6
Continuous
 62
               0
100
AcDbCircle
 10
846.66134480675464
 20
1144.1636873632592
 30
0.0
 40
1.9998779296875
  0
HATCH
  5
187
100
AcDbEntity
  8
0
370
              -2
390
0
  6
Continuous
 62
               0
100
AcDbHatch
 10
0.0
 20
0.0
 30
0.0
210
0.0
220
0.0
230
1.0
  2
SOLID
 70
               1
 71
               1
 91
        1
 92
        1
 93
        1
 72
               2
 10
846.66134480675464
 20
1144.1636873632592
 40
1.9998779296875
 50
0.0
 51
360.0
 73
               0
 97
        1
330
186
 75
               0
 76
               1
 98
        1
 10
0.0
 20
0.0
  0
CIRCLE
  5
188
102
{ACAD_REACTORS
330
189
102
}
100
AcDbEntity
  8
0
370
              -2
390
0
  6
Continuous
 62
               0
100
AcDbCircle
 10
846.66134480675464
 20
634.16368736325933
 30
0.0
 40
1.9998779296875
  0
HATCH
  5
189
100
AcDbEntity
  8
0
370
              -2
390
0
  6
Continuous
 62
               0
100
AcDbHatch
 10
0.0
 20
0.0
 30
0.0
210
0.0
220
0.0
230
1.0
  2
SOLID
 70
               1
 71
               1
 91
        1
 92
        1
 93
        1
 72
               2
 10
846.66134480675464
 20
634.16368736325933
 40
1.9998779296875
 50
0.0
 51
360.0
 73
               0
 97
        1
330
188
 75
               0
 76
               1
 98
        1
 10
0.0
 20
0.0
  0
MTEXT
  5
18A
100
AcDbEntity
  8
0
390
0
 62
               0
100
AcDbMText
 10
812.78372761925448
 20
865.35118568108385
 30
0.0
 40
24.432617187500004
 41
0.0
 71
               1
 72
               1
  1
510
  7
ＭＳ ゴシック
 11
0.0
 21
1.0
 31
0.0
 73
               1
 44
0.7828267384257843
  0
POINT
  5
18B
100
AcDbEntity
  8
Defpoints
370
               0
390
0
 62
               0
100
AcDbPoint
 10
676.69389009688393
 20
634.16368736325933
 30
0.0
  0
POINT
  5
18C
100
AcDbEntity
  8
Defpoints
370
               0
390
0
 62
               0
100
AcDbPoint
 10
676.69389009688393
 20
1144.1636873632592
 30
0.0
  0
POINT
  5
18D
100
AcDbEntity
  8
Defpoints
370
               0
390
0
 62
               0
100
AcDbPoint
 10
846.66134480675464
 20
1144.1636873632592
 30
0.0
  0
ENDBLK
  5
18E
100
AcDbEntity
  8
notes
390
0
100
AcDbBlockEnd
  0
BLOCK
  5
18F
100
AcDbEntity
  8
notes
390
0
100
AcDbBlockBegin
  2
*D26
 70
               1
 10
0.0
 20
0.0
 30
0.0
  3
*D26
  1

  0
LINE
  5
190
100
AcDbEntity
  8
0
370
              -2
390
0
  6
Continuous
 62
               0
100
AcDbLine
 10
721.6613448067551
 20
67.412219806233225
 30
0.0
 11
796.6613448067551
 21
67.412219806233225
 31
0.0
  0
LINE
  5
191
100
AcDbEntity
  8
0
370
              -2
390
0
  6
Continuous
 62
               0
100
AcDbLine
 10
721.6613448067551
 20
-942.58778019376689
 30
0.0
 11
796.6613448067551
 21
-942.58778019376689
 31
0.0
  0
LINE
  5
192
100
AcDbEntity
  8
0
370
              -2
390
0
  6
Continuous
 62
               0
100
AcDbLine
 10
796.6613448067551
 20
67.412219806233225
 30
0.0
 11
796.6613448067551
 21
-942.58778019376689
 31
0.0
  0
CIRCLE
  5
193
102
{ACAD_REACTORS
330
194
102
}
100
AcDbEntity
  8
0
370
              -2
390
0
  6
Continuous
 62
               0
100
AcDbCircle
 10
796.6613448067551
 20
67.412219806233225
 30
0.0
 40
1.9998779296875
  0
HATCH
  5
194
100
AcDbEntity
  8
0
370
              -2
390
0
  6
Continuous
 62
               0
100
AcDbHatch
 10
0.0
 20
0.0
 30
0.0
210
0.0
220
0.0
230
1.0
  2
SOLID
 70
               1
 71
               1
 91
        1
 92
        1
 93
        1
 72
               2
 10
796.6613448067551
 20
67.412219806233225
 40
1.9998779296875
 50
0.0
 51
360.0
 73
               0
 97
        1
330
193
 75
               0
 76
               1
 98
        1
 10
0.0
 20
0.0
  0
CIRCLE
  5
195
102
{ACAD_REACTORS
330
196
102
}
100
AcDbEntity
  8
0
370
              -2
390
0
  6
Continuous
 62
               0
100
AcDbCircle
 10
796.6613448067551
 20
-942.58778019376689
 30
0.0
 40
1.9998779296875
  0
HATCH
  5
196
100
AcDbEntity
  8
0
370
              -2
390
0
  6
Continuous
 62
               0
100
AcDbHatch
 10
0.0
 20
0.0
 30
0.0
210
0.0
220
0.0
230
1.0
  2
SOLID
 70
               1
 71
               1
 91
        1
 92
        1
 93
        1
 72
               2
 10
796.6613448067551
 20
-942.58778019376689
 40
1.9998779296875
 50
0.0
 51
360.0
 73
               0
 97
        1
330
195
 75
               0
 76
               1
 98
        1
 10
0.0
 20
0.0
  0
MTEXT
  5
197
100
AcDbEntity
  8
0
390
0
 62
               0
100
AcDbMText
 10
762.78372761925493
 20
-469.33778019376683
 30
0.0
 40
24.432617187500004
 41
0.0
 71
               1
 72
               1
  1
1010
  7
ＭＳ ゴシック
 11
0.0
 21
1.0
 31
0.0
 73
               1
 44
0.7828267384257843
  0
POINT
  5
198
100
AcDbEntity
  8
Defpoints
370
               0
390
0
 62
               0
100
AcDbPoint
 10
696.6613448067551
 20
-942.58778019376689
 30
0.0
  0
POINT
  5
199
100
AcDbEntity
  8
Defpoints
370
               0
390
0
 62
               0
100
AcDbPoint
 10
696.6613448067551
 20
67.412219806233225
 30
0.0
  0
POINT
  5
19A
100
AcDbEntity
  8
Defpoints
370
               0
390
0
 62
               0
100
AcDbPoint
 10
796.6613448067551
 20
67.412219806233225
 30
0.0
  0
ENDBLK
  5
19B
100
AcDbEntity
  8
notes
390
0
100
AcDbBlockEnd
  0
BLOCK
  5
19C
100
AcDbEntity
  8
ADF70-0501
390
0
100
AcDbBlockBegin
  2
グループ-1
 70
               0
 10
0.0
 20
0.0
 30
0.0
  3
グループ-1
  1

  0
LINE
  5
19D
100
AcDbEntity
  8
0
370
               5
390
0
  6
Continuous
 62
               7
100
AcDbLine
 10
-4672.1175323393682
 20
1755.2465060467116
 30
0.0
 11
-4709.1175323393682
 21
1792.2465060467116
 31
0.0
  0
LINE
  5
19E
100
AcDbEntity
  8
0
370
               5
390
0
  6
Continuous
 62
               7
100
AcDbLine
 10
-4672.1175323393682
 20
1775.2465060467116
 30
0.0
 11
-4709.1175323393682
 21
1812.2465060467116
 31
0.0
  0
LINE
  5
19F
100
AcDbEntity
  8
0
370
               5
390
0
  6
Continuous
 62
               7
100
AcDbLine
 10
-4672.1175323393682
 20
1795.2465060467116
 30
0.0
 11
-4709.1175323393682
 21
1832.2465060467116
 31
0.0
  0
ENDBLK
  5
1A0
100
AcDbEntity
  8
ADF70-0501
390
0
100
AcDbBlockEnd
  0
ENDSEC
  0
SECTION
  2
ENTITIES
  0
MTEXT
  5
1A1
100
AcDbEntity
  8
template
390
0
 62
               7
100
AcDbMText
 10
-967.99999999975898
 20
-1147.4176292337006
 30
0.0
 40
16.288411458333332
 41
0.0
 71
               1
 72
               1
  1
品名
  7
ＭＳ ゴシック
 73
               1
 44
0.7828267384257843
  0
MTEXT
  5
1A2
100
AcDbEntity
  8
template
390
0
 62
               7
100
AcDbMText
 10
-967.99999999975898
 20
-1232.4176292337006
 30
0.0
 40
16.288411458333332
 41
0.0
 71
               1
 72
               1
  1
仕様
  7
ＭＳ ゴシック
 73
               1
 44
0.7828267384257843
  0
MTEXT
  5
1A3
100
AcDbEntity
  8
template
390
0
 62
               7
100
AcDbMText
 10
-914.99999999975898
 20
-1176.0000901712006
 30
0.0
 40
24.432617187500004
 41
0.0
 71
               1
 72
               1
  1
洗面器 -CATALANO,Zero-
  7
ＭＳ ゴシック
 73
               1
 44
0.7828267384257843
  0
LINE
  5
1A4
100
AcDbEntity
  8
template
370
               5
390
0
  6
Continuous
 62
               7
100
AcDbLine
 10
974.99999999975898
 20
-1224.0027073587005
 30
0.0
 11
-975.00000000024102
 21
-1224.0027073587005
 31
0.0
  0
LWPOLYLINE
  5
1A5
100
AcDbEntity
  8
template
370
               5
390
0
  6
Continuous
 62
               7
100
AcDbPolyline
 90
        5
 70
             128
 10
975.00000000024102
 20
1405.9972926412993
 10
-974.99999999975898
 20
1405.9972926412993
 10
-974.99999999975898
 20
-1394.0027073587005
 10
975.00000000024102
 20
-1394.0027073587005
 10
975.00000000024102
 20
1405.9972926412993
  0
LINE
  5
1A6
100
AcDbEntity
  8
template
370
               5
390
0
  6
Continuous
 62
               7
100
AcDbLine
 10
974.99999999975898
 20
-1139.0027073587005
 30
0.0
 11
-975.00000000024102
 21
-1139.0027073587005
 31
0.0
  0
LINE
  5
1A7
100
AcDbEntity
  8
template
370
               5
390
0
  6
Continuous
 62
               7
100
AcDbLine
 10
975.00000000024102
 20
-1309.0027073587005
 30
0.0
 11
222.00000000024102
 21
-1309.0027073587005
 31
0.0
  0
MTEXT
  5
1A8
100
AcDbEntity
  8
template
390
0
 62
               7
100
AcDbMText
 10
-974.99999999955617
 20
-1405.8565294155574
 30
0.0
 40
21.717881944444446
 41
0.0
 71
               1
 72
               1
  1
111005SH
  7
ＭＳ ゴシック
 73
               1
 44
0.7828267384257843
  0
MTEXT
  5
1A9
100
AcDbEntity
  8
template
390
0
 62
               7
100
AcDbMText
 10
251.87140625250095
 20
-1338.9131018320081
 30
0.0
 40
24.432617187500004
 41
0.0
 71
               1
 72
               1
  1
大洋金物株式会社 ティーフォルム事業部
  7
ＭＳ ゴシック
 73
               1
 44
0.7828267384257843
  0
INSERT
  5
1AA
100
AcDbEntity
  8
template
390
0
 62
               7
100
AcDbBlockReference
  2
グループ
 10
4049.0114224362515
 20
-500.93428624047863
 30
0.0
  0
MTEXT
  5
1AB
100
AcDbEntity
  8
template
390
0
 62
               7
100
AcDbMText
 10
784.00000000050022
 20
-1261.0000901712006
 30
0.0
 40
24.432617187500004
 41
0.0
 71
               1
 72
               1
  1
1:10
  7
ＭＳ ゴシック
 73
               1
 44
0.7828267384257843
  0
MTEXT
  5
1AC
100
AcDbEntity
  8
template
390
0
 62
               7
100
AcDbMText
 10
731.00000000050022
 20
-1232.4176292337006
 30
0.0
 40
16.288411458333332
 41
0.0
 71
               1
 72
               1
  1
縮尺
  7
ＭＳ ゴシック
 73
               1
 44
0.7828267384257843
  0
LINE
  5
1AD
100
AcDbEntity
  8
template
370
               5
390
0
  6
Continuous
 62
               7
100
AcDbLine
 10
724.00000000050022
 20
-1309.0027073587005
 30
0.0
 11
724.00000000050022
 21
-1224.0027073587005
 31
0.0
  0
MTEXT
  5
1AE
100
AcDbEntity
  8
template
390
0
 62
               7
100
AcDbMText
 10
480.00000000050022
 20
-1232.4176292337006
 30
0.0
 40
16.288411458333332
 41
0.0
 71
               1
 72
               1
  1
容量
  7
ＭＳ ゴシック
 73
               1
 44
0.7828267384257843
  0
MTEXT
  5
1AF
100
AcDbEntity
  8
template
390
0
 62
               7
100
AcDbMText
 10
533.00000000050022
 20
-1261.0000901712006
 30
0.0
 40
24.432617187500004
 41
0.0
 71
               1
 72
               1
  1
23L
  7
ＭＳ ゴシック
 73
               1
 44
0.7828267384257843
  0
LINE
  5
1B0
100
AcDbEntity
  8
template
370
               5
390
0
  6
Continuous
 62
               7
100
AcDbLine
 10
473.00000000050022
 20
-1309.0027073587005
 30
0.0
 11
473.00000000050022
 21
-1224.0027073587005
 31
0.0
  0
MTEXT
  5
1B1
100
AcDbEntity
  8
template
390
0
 62
               7
100
AcDbMText
 10
229.00000000050022
 20
-1147.4176292337006
 30
0.0
 40
16.288411458333332
 41
0.0
 71
               1
 72
               1
  1
品番
  7
ＭＳ ゴシック
 73
               1
 44
0.7828267384257843
  0
MTEXT
  5
1B2
100
AcDbEntity
  8
template
390
0
 62
               7
100
AcDbMText
 10
229.00000000050022
 20
-1232.4176292337006
 30
0.0
 40
16.288411458333332
 41
0.0
 71
               1
 72
               1
  1
重量
  7
ＭＳ ゴシック
 73
               1
 44
0.7828267384257843
  0
MTEXT
  5
1B3
100
AcDbEntity
  8
template
390
0
 62
               7
100
AcDbMText
 10
282.00000000050022
 20
-1176.0000901712006
 30
0.0
 40
24.432617187500004
 41
0.0
 71
               1
 72
               1
  1
ADF70-0501
  7
ＭＳ ゴシック
 73
               1
 44
0.7828267384257843
  0
MTEXT
  5
1B4
100
AcDbEntity
  8
template
390
0
 62
               7
100
AcDbMText
 10
282.00000000050022
 20
-1261.0000901712006
 30
0.0
 40
24.432617187500004
 41
0.0
 71
               1
 72
               1
  1
33kg
  7
ＭＳ ゴシック
 73
               1
 44
0.7828267384257843
  0
LINE
  5
1B5
100
AcDbEntity
  8
template
370
               5
390
0
  6
Continuous
 62
               7
100
AcDbLine
 10
222.00000000050022
 20
-1394.0027073587005
 30
0.0
 11
222.00000000050022
 21
-1139.0027073587005
 31
0.0
  0
MTEXT
  5
1B6
100
AcDbEntity
  8
template
390
0
 62
               7
100
AcDbMText
 10
-914.99999999975989
 20
-1261.0000901712001
 30
0.0
 40
24.432617187500004
 41
0.0
 71
               1
 72
               1
  1
壁掛け,カウンタ ートップ/オーバーフロー付き/壁取付ボルト付属/陶器/\Pホワイト
  7
ＭＳ ゴシック
 73
               1
 44
1.3047112307096407
  0
POLYLINE
  5
1B7
100
AcDbEntity
  8
template
370
               5
390
0
  6
Continuous
 62
               7
100
AcDb2dPolyline
 66
               1
 10
0.0
 20
0.0
 30
0.0
 70
               1
 75
               5
  0
VERTEX
  5
1B8
100
AcDbEntity
  8
template
370
               5
390
0
  6
Continuous
 62
               7
100
AcDbVertex
100
AcDb2dVertex
 10
-623.10997383387439
 20
1113.8122198062329
 30
0.0
  0
VERTEX
  5
1B9
100
AcDbEntity
  8
template
370
               5
390
0
  6
Continuous
 62
               7
100
AcDbVertex
100
AcDb2dVertex
 10
-343.10997383387439
 20
1113.8122198062329
 30
0.0
  0
VERTEX
  5
1BA
100
AcDbEntity
  8
template
370
               5
390
0
  6
Continuous
 62
               7
100
AcDbVertex
100
AcDb2dVertex
 10
-343.10997383387439
 20
413.81221980623332
 30
0.0
  0
VERTEX
  5
1BB
100
AcDbEntity
  8
template
370
               5
390
0
  6
Continuous
 62
               7
100
AcDbVertex
100
AcDb2dVertex
 10
-623.10997383387439
 20
413.81221980623332
 30
0.0
  0
SEQEND
  5
1BC
100
AcDbEntity
  8
template
370
               5
390
0
  6
Continuous
 62
               7
  0
MTEXT
  5
1BD
100
AcDbEntity
  8
notes
390
0
 62
               7
100
AcDbMText
 10
62.798744237616575
 20
-792.44112657542541
 30
0.0
 40
24.432617187500004
 41
853.2533463816585
 71
               1
 72
               1
  1
＝φ30もしくはφ35の水栓取付用穴あけ加工を承ります。\P  必要な場合、ご注文の際にご指示ください。
  7
ＭＳ ゴシック
 11
0.0
 21
1.0
 31
0.0
 73
               1
 44
1.0437689845677123
  0
MTEXT
  5
1BE
100
AcDbEntity
  8
notes
390
0
 62
               7
100
AcDbMText
 10
395.83013132257656
 20
-113.39797001151055
 30
0.0
 40
24.432617187500004
 41
0.0
 71
               1
 72
               1
  1
壁取付ボルト穴(4ヶ所)
  7
ＭＳ ゴシック
 11
0.0
 21
1.0
 31
0.0
 73
               1
 44
0.7828267384257843
  0
MTEXT
  5
1BF
100
AcDbEntity
  8
notes
390
0
 62
               7
100
AcDbMText
 10
-835.42869350072397
 20
627.64945054773318
 30
0.0
 40
24.432617187500004
 41
0.0
 71
               1
 72
               1
  1
カウンター切込寸法
  7
ＭＳ ゴシック
 11
0.0
 21
1.0
 31
0.0
 73
               1
 44
0.7828267384257843
  0
LINE
  5
1C0
100
AcDbEntity
  8
notes
370
               5
390
0
  6
Continuous
 62
               7
100
AcDbLine
 10
526.66134480675419
 20
-187.57809956520441
 30
0.0
 11
430.14236642839023
 21
-91.059121186840457
 31
0.0
  0
MTEXT
  5
1C1
100
AcDbEntity
  8
notes
390
0
 62
               7
100
AcDbMText
 10
207.8248529305497
 20
393.42636207572775
 30
0.0
 40
24.432617187500004
 41
0.0
 71
               1
 72
               1
  1
※カウンタートップ置きの場合も壁固定が必要です。\P
  7
ＭＳ ゴシック
 11
0.0
 21
1.0
 31
0.0
 73
               1
 44
0.7828267384257843
  0
MTEXT
  5
1C2
100
AcDbEntity
  8
notes
390
0
 62
               7
100
AcDbMText
 10
62.798744237616575
 20
393.42636207572775
 30
0.0
 40
24.432617187500004
 41
764.7717154610109
 71
               1
 72
               1
  1
※陶器製品には寸法公差があります。\P  洗面器の収め方をご確認の上、必ず現物を合わせて\P  カウンターに切込を行ってください。
  7
ＭＳ ゴシック
 11
0.0
 21
1.0
 31
0.0
 73
               1
 44
1.0437689845677123
  0
DIMENSION
  5
1C3
100
AcDbEntity
  8
notes
370
               5
390
0
  6
Continuous
 62
               7
100
AcDbDimension
  2
*D3
 10
-623.10997383387439
 20
162.42451939324212
 30
0.0
 11
-353.10997383387439
 21
162.42451939324212
 31
0.0
 71
               5
 72
               1
 41
1.0
 42
0.0
  3
tform線あり
100
AcDbAlignedDimension
 13
-83.109973833874392
 23
-392.55189724611751
 33
0.0
 14
-623.10997383387439
 24
102.44810275388215
 34
0.0
100
AcDbRotatedDimension
1001
ACAD
1000
DSTYLE
1002
{
1070
             279
1070
               2
1070
             340
1005
3D
1070
             147
1040
5.0
1002
}
  0
DIMENSION
  5
1C4
100
AcDbEntity
  8
notes
370
               5
390
0
  6
Continuous
 62
               7
100
AcDbDimension
  2
*D4
 10
-723.10997383387439
 20
1113.8122198062329
 30
0.0
 11
-723.10997383387439
 21
763.8122198062332
 31
0.0
 71
               5
 72
               1
 41
1.0
 42
0.0
  3
tform線あり
100
AcDbAlignedDimension
 13
-623.10997383387439
 23
413.81221980623332
 33
0.0
 14
-623.10997383387439
 24
1113.8122198062329
 34
0.0
 50
90.0
100
AcDbRotatedDimension
1001
ACAD
1000
DSTYLE
1002
{
1070
             279
1070
               2
1070
             340
1005
3D
1070
             147
1040
5.0
1002
}
  0
DIMENSION
  5
1C5
100
AcDbEntity
  8
notes
370
               5
390
0
  6
Continuous
 62
               7
100
AcDbDimension
  2
*D5
 10
-623.10997383387439
 20
1190.8122198062329
 30
0.0
 11
-483.10997383387439
 21
1190.8122198062329
 31
0.0
 71
               5
 72
               1
 41
1.0
 42
0.0
  3
tform線あり
100
AcDbAlignedDimension
 13
-343.10997383387439
 23
813.80752939119395
 33
0.0
 14
-623.10997383387439
 24
1113.8122198062329
 34
0.0
100
AcDbRotatedDimension
1001
ACAD
1000
DSTYLE
1002
{
1070
             279
1070
               2
1070
             340
1005
3D
1070
             147
1040
5.0
1002
}
  0
DIMENSION
  5
1C6
100
AcDbEntity
  8
notes
370
               5
390
0
  6
Continuous
 62
               7
100
AcDbDimension
  2
*D6
 10
-773.10997383387348
 20
-977.52831388547827
 30
0.0
 11
-773.10997383387348
 21
-437.55189724611807
 31
0.0
 71
               5
 72
               1
 41
1.0
 42
0.0
  3
tform線あり
100
AcDbAlignedDimension
 13
-618.0632448619117
 23
102.42451939324212
 33
0.0
 14
-618.06324486191261
 24
-977.52831388547827
 34
0.0
 50
90.0
100
AcDbRotatedDimension
1001
ACAD
1000
DSTYLE
1002
{
1070
             279
1070
               2
1070
             340
1005
3D
1070
             147
1040
5.0
1002
}
  0
DIMENSION
  5
1C7
100
AcDbEntity
  8
notes
370
               5
390
0
  6
Continuous
 62
               7
100
AcDbDimension
  2
*D7
 10
-723.10997383387348
 20
-737.55189724611682
 30
0.0
 11
-723.10997383387348
 21
-687.55189724611682
 31
0.0
 71
               5
 72
               1
 41
1.0
 42
0.0
  3
tform線あり
100
AcDbAlignedDimension
 13
-570.60997383387439
 23
-637.55189724611682
 33
0.0
 14
-570.6099738338753
 24
-737.55189724611682
 34
0.0
 50
90.0
100
AcDbRotatedDimension
1001
ACAD
1000
DSTYLE
1002
{
1070
             279
1070
               2
1070
             340
1005
3D
1070
             147
1040
5.0
1002
}
  0
DIMENSION
  5
1C8
100
AcDbEntity
  8
notes
370
               5
390
0
  6
Continuous
 62
               7
100
AcDbDimension
  2
*D8
 10
-723.10997383387348
 20
-637.55189724611682
 30
0.0
 11
-723.10997383387348
 21
-587.55189724611694
 31
0.0
 71
               5
 72
               1
 41
1.0
 42
0.0
  3
tform線あり
100
AcDbAlignedDimension
 13
-570.60997383387439
 23
-537.55189724611694
 33
0.0
 14
-570.60997383387439
 24
-637.55189724611682
 34
0.0
 50
90.0
100
AcDbRotatedDimension
1001
ACAD
1000
DSTYLE
1002
{
1070
             279
1070
               2
1070
             340
1005
3D
1070
             147
1040
5.0
1002
}
  0
DIMENSION
  5
1C9
100
AcDbEntity
  8
notes
370
               5
390
0
  6
Continuous
 62
               7
100
AcDbDimension
  2
*D9
 10
-723.10997383387348
 20
-537.55189724611694
 30
0.0
 11
-723.10997383387348
 21
-487.55189724611716
 31
0.0
 71
               5
 72
               1
 41
1.0
 42
0.0
  3
tform線あり
100
AcDbAlignedDimension
 13
-570.60997383387439
 23
-437.55189724611751
 33
0.0
 14
-570.60997383387439
 24
-537.55189724611694
 34
0.0
 50
90.0
100
AcDbRotatedDimension
1001
ACAD
1000
DSTYLE
1002
{
1070
             279
1070
               2
1070
             340
1005
3D
1070
             147
1040
5.0
1002
}
  0
DIMENSION
  5
1CA
100
AcDbEntity
  8
notes
370
               5
390
0
  6
Continuous
 62
               7
100
AcDbDimension
  2
*D10
 10
-723.10997383387348
 20
-437.55189724611751
 30
0.0
 11
-723.10997383387348
 21
-387.55189724611762
 31
0.0
 71
               5
 72
               1
 41
1.0
 42
0.0
  3
tform線あり
100
AcDbAlignedDimension
 13
-570.60997383387439
 23
-337.55189724611779
 33
0.0
 14
-570.60997383387439
 24
-437.55189724611751
 34
0.0
 50
90.0
100
AcDbRotatedDimension
1001
ACAD
1000
DSTYLE
1002
{
1070
             279
1070
               2
1070
             340
1005
3D
1070
             147
1040
5.0
1002
}
  0
DIMENSION
  5
1CB
100
AcDbEntity
  8
notes
370
               5
390
0
  6
Continuous
 62
               7
100
AcDbDimension
  2
*D11
 10
-723.10997383387348
 20
-337.55189724611779
 30
0.0
 11
-723.10997383387348
 21
-287.55189724611785
 31
0.0
 71
               5
 72
               1
 41
1.0
 42
0.0
  3
tform線あり
100
AcDbAlignedDimension
 13
-570.60997383387439
 23
-237.55189724611785
 33
0.0
 14
-570.60997383387439
 24
-337.55189724611779
 34
0.0
 50
90.0
100
AcDbRotatedDimension
1001
ACAD
1000
DSTYLE
1002
{
1070
             279
1070
               2
1070
             340
1005
3D
1070
             147
1040
5.0
1002
}
  0
DIMENSION
  5
1CC
100
AcDbEntity
  8
notes
370
               5
390
0
  6
Continuous
 62
               7
100
AcDbDimension
  2
*D12
 10
-723.10997383387348
 20
-237.55189724611785
 30
0.0
 11
-723.10997383387348
 21
-187.55189724611779
 31
0.0
 71
               5
 72
               1
 41
1.0
 42
0.0
  3
tform線あり
100
AcDbAlignedDimension
 13
-570.60997383387439
 23
-137.55189724611773
 33
0.0
 14
-570.60997383387439
 24
-237.55189724611785
 34
0.0
 50
90.0
100
AcDbRotatedDimension
1001
ACAD
1000
DSTYLE
1002
{
1070
             279
1070
               2
1070
             340
1005
3D
1070
             147
1040
5.0
1002
}
  0
DIMENSION
  5
1CD
100
AcDbEntity
  8
notes
370
               5
390
0
  6
Continuous
 62
               7
100
AcDbDimension
  2
*D13
 10
16.890026166125153
 20
-902.47809508721241
 30
0.0
 11
16.890026166125153
 21
-437.47809508721269
 31
0.0
 71
               5
 72
               1
 41
1.0
 42
0.0
  3
tform線あり
100
AcDbAlignedDimension
 13
-340.37647077012571
 23
27.521904912787022
 33
0.0
 14
-340.37647077012571
 24
-902.47809508721241
 34
0.0
 50
90.0
100
AcDbRotatedDimension
1001
ACAD
1000
DSTYLE
1002
{
1070
             279
1070
               2
1070
             340
1005
3D
1070
             147
1040
5.0
1002
}
  0
DIMENSION
  5
1CE
100
AcDbEntity
  8
notes
370
               5
390
0
  6
Continuous
 62
               7
100
AcDbDimension
  2
*D14
 10
376.66134480675419
 20
-687.5780995652035
 30
0.0
 11
376.66134480675419
 21
-632.5780995652035
 31
0.0
 71
               5
 72
               1
 41
1.0
 42
0.0
  3
tform線あり
100
AcDbAlignedDimension
 13
506.66134480675419
 23
-577.5780995652035
 33
0.0
 14
506.66134480675419
 24
-687.5780995652035
 34
0.0
 50
90.0
100
AcDbRotatedDimension
1001
ACAD
1000
DSTYLE
1002
{
1070
             279
1070
               2
1070
             340
1005
3D
1070
             147
1040
5.0
1002
}
  0
DIMENSION
  5
1CF
100
AcDbEntity
  8
notes
370
               5
390
0
  6
Continuous
 62
               7
100
AcDbDimension
  2
*D15
 10
376.66134480675419
 20
-577.5780995652035
 30
0.0
 11
376.66134480675419
 21
-437.57809956520396
 31
0.0
 71
               5
 72
               1
 41
1.0
 42
0.0
  3
tform線あり
100
AcDbAlignedDimension
 13
506.66134480675419
 23
-297.57809956520435
 33
0.0
 14
506.66134480675419
 24
-577.5780995652035
 34
0.0
 50
90.0
100
AcDbRotatedDimension
1001
ACAD
1000
DSTYLE
1002
{
1070
             279
1070
               2
1070
             340
1005
3D
1070
             147
1040
5.0
1002
}
  0
DIMENSION
  5
1D0
100
AcDbEntity
  8
notes
370
               5
390
0
  6
Continuous
 62
               7
100
AcDbDimension
  2
*D16
 10
376.66134480675419
 20
-297.57809956520435
 30
0.0
 11
376.66134480675419
 21
-242.57809956520441
 31
0.0
 71
               5
 72
               1
 41
1.0
 42
0.0
  3
tform線あり
100
AcDbAlignedDimension
 13
506.66134480675419
 23
-187.57809956520441
 33
0.0
 14
506.66134480675419
 24
-297.57809956520435
 34
0.0
 50
90.0
100
AcDbRotatedDimension
1001
ACAD
1000
DSTYLE
1002
{
1070
             279
1070
               2
1070
             340
1005
3D
1070
             147
1040
5.0
1002
}
  0
CIRCLE
  5
1D1
100
AcDbEntity
  8
notes
370
               5
390
0
  6
STYLE_12
 62
               7
100
AcDbCircle
 10
77.4652104375823
 20
-818.68778019376691
 30
0.0
 40
17.5
  0
DIMENSION
  5
1D2
100
AcDbEntity
  8
notes
370
               5
390
0
  6
Continuous
 62
               7
100
AcDbDimension
  2
*D17
 10
-623.1099738338753
 20
-1057.5518915429147
 30
0.0
 11
-555.61259402021915
 21
-1057.5518915429147
 31
0.0
 71
               5
 72
               1
 41
1.0
 42
0.0
  3
tform線あり
100
AcDbAlignedDimension
 13
-488.115214206563
 23
-961.78295833068057
 33
0.0
 14
-623.1099738338753
 24
-972.52853224992884
 34
0.0
100
AcDbRotatedDimension
1001
ACAD
1000
DSTYLE
1002
{
1070
             279
1070
               2
1070
             340
1005
3D
1070
             147
1040
5.0
1002
}
  0
DIMENSION
  5
1D3
100
AcDbEntity
  8
notes
370
               5
390
0
  6
Continuous
 62
               7
100
AcDbDimension
  2
*D18
 10
-488.115214206563
 20
-1057.5518915429147
 30
0.0
 11
-308.13508980784263
 21
-1057.5518915429147
 31
0.0
 71
               5
 72
               1
 41
1.0
 42
0.0
  3
tform線あり
100
AcDbAlignedDimension
 13
-128.15496540912227
 23
-658.87809508721307
 33
0.0
 14
-488.115214206563
 24
-960.40600201451741
 34
0.0
100
AcDbRotatedDimension
1001
ACAD
1000
DSTYLE
1002
{
1070
             279
1070
               2
1070
             340
1005
3D
1070
             147
1040
5.0
1002
}
  0
DIMENSION
  5
1D4
100
AcDbEntity
  8
notes
370
               5
390
0
  6
Continuous
 62
               7
100
AcDbDimension
  2
*D19
 10
476.66134480675464
 20
886.50398239099638
 30
0.0
 11
559.16134480675419
 21
886.50398239099638
 31
0.0
 71
               5
 72
               1
 41
1.0
 42
0.0
  3
tform線あり
100
AcDbAlignedDimension
 13
641.66134480675373
 23
933.50398239099638
 33
0.0
 14
476.66134480675464
 24
933.50398239099638
 34
0.0
100
AcDbRotatedDimension
1001
ACAD
1000
DSTYLE
1002
{
1070
             279
1070
               2
1070
             340
1005
3D
1070
               3
1000
<>(深さ)
1070
             147
1040
5.0
1002
}
  0
DIMENSION
  5
1D5
100
AcDbEntity
  8
notes
370
               5
390
0
  6
Continuous
 62
               7
100
AcDbDimension
  2
*D20
 10
476.66134480675464
 20
-1057.5518915429147
 30
0.0
 11
501.66134480675419
 21
-1057.5518915429147
 31
0.0
 71
               5
 72
               1
 41
1.0
 42
0.0
  3
tform線あり
100
AcDbAlignedDimension
 13
526.66134480675373
 23
-739.60233742006153
 33
0.0
 14
476.66134480675464
 24
-971.57809956520498
 34
0.0
100
AcDbRotatedDimension
1001
ACAD
1000
DSTYLE
1002
{
1070
             279
1070
               2
1070
             340
1005
3D
1070
             147
1040
5.0
1002
}
  0
DIMENSION
  5
1D6
100
AcDbEntity
  8
notes
370
               5
390
0
  6
Continuous
 62
               7
100
AcDbDimension
  2
*D21
 10
476.66134480675464
 20
182.42451939324224
 30
0.0
 11
586.66134480675464
 21
182.42451939324224
 31
0.0
 71
               5
 72
               1
 41
1.0
 42
0.0
  3
tform線あり
100
AcDbAlignedDimension
 13
696.6613448067551
 23
-404.87809956520459
 33
0.0
 14
476.66134480675464
 24
96.421900434796044
 34
0.0
100
AcDbRotatedDimension
1001
ACAD
1000
DSTYLE
1002
{
1070
             279
1070
               2
1070
             340
1005
3D
1070
             147
1040
5.0
1002
}
  0
DIMENSION
  5
1D7
100
AcDbEntity
  8
notes
370
               5
390
0
  6
Continuous
 62
               7
100
AcDbDimension
  2
*D22
 10
376.66134480675464
 20
1144.1636873632597
 30
0.0
 11
376.66134480675464
 21
1109.1636873632597
 31
0.0
 71
               5
 72
               1
 41
1.0
 42
0.0
  3
tform線あり
100
AcDbAlignedDimension
 13
476.66134480675464
 23
1074.1636873632597
 33
0.0
 14
481.66134480675464
 24
1144.1636873632597
 34
0.0
 50
90.0
100
AcDbRotatedDimension
1001
ACAD
1000
DSTYLE
1002
{
1070
             279
1070
               2
1070
             340
1005
3D
1070
             147
1040
5.0
1002
}
  0
DIMENSION
  5
1D8
100
AcDbEntity
  8
notes
370
               5
390
0
  6
Continuous
 62
               7
100
AcDbDimension
  2
*D23
 10
476.66134480675464
 20
505.86050076806373
 30
0.0
 11
576.66134480675464
 21
505.86050076806373
 31
0.0
 71
               5
 72
               1
 41
1.0
 42
0.0
  3
tform線あり
100
AcDbAlignedDimension
 13
676.66134480675419
 23
652.23455802830597
 33
0.0
 14
476.66134480675464
 24
611.70672115677542
 34
0.0
100
AcDbRotatedDimension
1001
ACAD
1000
DSTYLE
1002
{
1070
             279
1070
               2
1070
             340
1005
3D
1070
             147
1040
5.0
1002
}
  0
DIMENSION
  5
1D9
100
AcDbEntity
  8
notes
370
               5
390
0
  6
Continuous
 62
               7
100
AcDbDimension
  2
*D24
 10
796.66134480675464
 20
1144.1636873632597
 30
0.0
 11
796.66134480675464
 21
1031.6636873632597
 31
0.0
 71
               5
 72
               1
 41
1.0
 42
0.0
  3
tform線あり
100
AcDbAlignedDimension
 13
696.6613448067551
 23
919.16368736325978
 33
0.0
 14
676.66134480675328
 24
1144.1636873632597
 34
0.0
 50
90.0
100
AcDbRotatedDimension
1001
ACAD
1000
DSTYLE
1002
{
1070
             279
1070
               2
1070
             340
1005
3D
1070
             147
1040
5.0
1002
}
  0
DIMENSION
  5
1DA
100
AcDbEntity
  8
notes
370
               5
390
0
  6
Continuous
 62
               7
100
AcDbDimension
  2
*D25
 10
846.66134480675464
 20
1144.1636873632592
 30
0.0
 11
846.66134480675464
 21
889.16368736325933
 31
0.0
 71
               5
 72
               1
 41
1.0
 42
0.0
  3
tform線あり
100
AcDbAlignedDimension
 13
676.69389009688393
 23
634.16368736325933
 33
0.0
 14
676.69389009688393
 24
1144.1636873632592
 34
0.0
 50
90.0
100
AcDbRotatedDimension
1001
ACAD
1000
DSTYLE
1002
{
1070
             279
1070
               2
1070
             340
1005
3D
1070
             147
1040
5.0
1002
}
  0
DIMENSION
  5
1DB
100
AcDbEntity
  8
notes
370
               5
390
0
  6
Continuous
 62
               7
100
AcDbDimension
  2
*D26
 10
796.6613448067551
 20
67.412219806233225
 30
0.0
 11
796.6613448067551
 21
-437.58778019376683
 31
0.0
 71
               5
 72
               1
 41
1.0
 42
0.0
  3
tform線あり
100
AcDbAlignedDimension
 13
696.6613448067551
 23
-942.58778019376689
 33
0.0
 14
696.6613448067551
 24
67.412219806233225
 34
0.0
 50
90.0
100
AcDbRotatedDimension
1001
ACAD
1000
DSTYLE
1002
{
1070
             279
1070
               2
1070
             340
1005
3D
1070
             147
1040
5.0
1002
}
  0
LINE
  5
1DC
100
AcDbEntity
  8
ADF70-0501
370
              15
390
0
  6
Continuous
 62
               7
100
AcDbLine
 10
484.66134480675464
 20
1094.1636873632597
 30
0.0
 11
484.66134480675464
 21
1064.1636873632601
 31
0.0
  0
LINE
  5
1DD
100
AcDbEntity
  8
ADF70-0501
370
              15
390
0
  6
Continuous
 62
               7
100
AcDbLine
 10
476.66134480675464
 20
1094.1636873632597
 30
0.0
 11
476.66134480675464
 21
1064.1636873632597
 31
0.0
  0
LINE
  5
1DE
100
AcDbEntity
  8
ADF70-0501
370
              15
390
0
  6
Continuous
 62
               7
100
AcDbLine
 10
476.66134480675464
 20
1022.7582307691101
 30
0.0
 11
476.66134480675464
 21
645.57475671395639
 31
0.0
  0
LINE
  5
1DF
100
AcDbEntity
  8
ADF70-0501
370
              15
390
0
  6
Continuous
 62
               7
100
AcDbLine
 10
641.66134480675373
 20
882.11326277192723
 30
0.0
 11
641.66134480675373
 21
956.21411195459598
 31
0.0
  0
LINE
  5
1E0
100
AcDbEntity
  8
ADF70-0501
370
              15
390
0
  6
Continuous
 62
               7
100
AcDbLine
 10
650.55022859372093
 20
896.61326277192813
 30
0.0
 11
650.55022859372093
 21
941.71411195459643
 31
0.0
  0
CIRCLE
  5
1E1
100
AcDbEntity
  8
ADF70-0501
370
              15
390
0
  6
STYLE_12
 62
               7
100
AcDbCircle
 10
-553.10997383387439
 20
-437.55189724611751
 30
0.0
 40
17.499999999999829
  0
CIRCLE
  5
1E2
100
AcDbEntity
  8
ADF70-0501
370
              15
390
0
  6
Continuous
 62
               7
100
AcDbCircle
 10
-398.10997383387348
 20
-437.55189724611751
 30
0.0
 40
22.499999999999773
  0
CIRCLE
  5
1E3
100
AcDbEntity
  8
ADF70-0501
370
              15
390
0
  6
Continuous
 62
               7
100
AcDbCircle
 10
-398.10997383387348
 20
-437.55189724611751
 30
0.0
 40
38.999999999999659
  0
CIRCLE
  5
1E4
100
AcDbEntity
  8
ADF70-0501
370
              15
390
0
  6
STYLE_12
 62
               7
100
AcDbCircle
 10
-553.10997383387439
 20
-337.55189724611779
 30
0.0
 40
17.5
  0
CIRCLE
  5
1E5
100
AcDbEntity
  8
ADF70-0501
370
              15
390
0
  6
STYLE_12
 62
               7
100
AcDbCircle
 10
-553.10997383387439
 20
-237.55189724611779
 30
0.0
 40
17.5
  0
CIRCLE
  5
1E6
100
AcDbEntity
  8
ADF70-0501
370
              15
390
0
  6
STYLE_12
 62
               7
100
AcDbCircle
 10
-553.10997383387439
 20
-137.55189724611768
 30
0.0
 40
17.5
  0
CIRCLE
  5
1E7
100
AcDbEntity
  8
ADF70-0501
370
              15
390
0
  6
STYLE_12
 62
               7
100
AcDbCircle
 10
-553.10997383387439
 20
-537.55189724611694
 30
0.0
 40
17.500000000000007
  0
CIRCLE
  5
1E8
100
AcDbEntity
  8
ADF70-0501
370
              15
390
0
  6
STYLE_12
 62
               7
100
AcDbCircle
 10
-553.10997383387439
 20
-637.55189724611682
 30
0.0
 40
17.499999999999972
  0
CIRCLE
  5
1E9
100
AcDbEntity
  8
ADF70-0501
370
              15
390
0
  6
STYLE_12
 62
               7
100
AcDbCircle
 10
-553.10997383387439
 20
-737.55189724611682
 30
0.0
 40
17.5
  0
LWPOLYLINE
  5
1EA
100
AcDbEntity
  8
ADF70-0501
370
              15
390
0
  6
Continuous
 62
               7
100
AcDbPolyline
 90
        5
 70
             129
 10
-623.1099738338753
 20
-972.52853224992873
 42
0.416953578806167
 10
-618.06324486191261
 20
-977.52831388547827
 42
0.4114788444127615
 10
-83.109973833874392
 20
-437.55189724611751
 42
0.4114788444127621
 10
-618.06324486191261
 20
102.42451939324212
 42
0.4169535788062205
 10
-623.10997383387439
 20
97.424737757692242
  0
LINE
  5
1EB
100
AcDbEntity
  8
ADF70-0501
370
              15
390
0
  6
Continuous
 62
               7
100
AcDbLine
 10
676.66134480675328
 20
1144.1636873632597
 30
0.0
 11
676.66134480675328
 21
952.50331378114663
 31
0.0
  0
ARC
  5
1EC
100
AcDbEntity
  8
ADF70-0501
370
              15
390
0
  6
Continuous
 62
               7
100
AcDbCircle
 10
-463.115214206563
 20
-877.47809508721241
 30
0.0
 40
25.0
100
AcDbArc
 50
180.0
 51
289.25586197719116
  0
LINE
  5
1ED
100
AcDbEntity
  8
ADF70-0501
370
              15
390
0
  6
Continuous
 62
               7
100
AcDbLine
 10
-488.10965107936045
 20
4.4199025098437232
 30
0.0
 11
-488.115214206563
 21
-879.4680934302811
 31
0.0
  0
ARC
  5
1EE
100
AcDbEntity
  8
ADF70-0501
370
              15
390
0
  6
Continuous
 62
               7
100
AcDbCircle
 10
-463.10965107936136
 20
2.5219049127864537
 30
0.0
 40
25.000000000000213
100
AcDbArc
 50
70.744138022806894
 51
180.00000000000026
  0
ARC
  5
1EF
100
AcDbEntity
  8
ADF70-0501
370
              15
390
0
  6
Continuous
 62
               7
100
AcDbCircle
 10
-623.10997383387257
 20
-437.47809508721298
 30
0.0
 40
493.00000000000011
100
AcDbArc
 50
289.87000677187848
 51
70.12486179633504
  0
LINE
  5
1F0
100
AcDbEntity
  8
ADF70-0501
370
              15
390
0
  6
Continuous
 62
               7
100
AcDbLine
 10
576.66134480675419
 20
1121.7695766678607
 30
0.0
 11
576.66134480675419
 21
1141.1636873632601
 31
0.0
  0
LINE
  5
1F1
100
AcDbEntity
  8
ADF70-0501
370
              15
390
0
  6
Continuous
 62
               7
100
AcDbLine
 10
574.08108807193412
 20
1118.7990858681214
 30
0.0
 11
487.2416015415738
 21
1106.5282888583974
 31
0.0
  0
LINE
  5
1F2
100
AcDbEntity
  8
ADF70-0501
370
              15
390
0
  6
Continuous
 62
               7
100
AcDbLine
 10
484.66134480675464
 20
1103.5577980586581
 30
0.0
 11
484.66134480675464
 21
1094.1636873632597
 31
0.0
  0
LINE
  5
1F3
100
AcDbEntity
  8
ADF70-0501
370
              15
390
0
  6
Continuous
 62
               7
100
AcDbLine
 10
484.66134480675464
 20
1089.1345580283046
 30
0.0
 11
476.66134480675464
 21
1089.1345580283046
 31
0.0
  0
LINE
  5
1F4
100
AcDbEntity
  8
ADF70-0501
370
              15
390
0
  6
Continuous
 62
               7
100
AcDbLine
 10
476.66134480675464
 20
1094.1636873632597
 30
0.0
 11
476.66134480675464
 21
1139.1636873632597
 31
0.0
  0
ARC
  5
1F5
100
AcDbEntity
  8
ADF70-0501
370
              15
390
0
  6
Continuous
 62
               7
100
AcDbCircle
 10
481.66134480675464
 20
1139.1636873632597
 30
0.0
 40
5.0
100
AcDbArc
 50
90.0
 51
180.0
  0
LINE
  5
1F6
100
AcDbEntity
  8
ADF70-0501
370
              15
390
0
  6
Continuous
 62
               7
100
AcDbLine
 10
481.66134480675464
 20
1144.1636873632597
 30
0.0
 11
676.66134480675328
 21
1144.1636873632597
 31
0.0
  0
LINE
  5
1F7
100
AcDbEntity
  8
ADF70-0501
370
              15
390
0
  6
Continuous
 62
               7
100
AcDbLine
 10
484.66134480675464
 20
1116.5456372191784
 30
0.0
 11
484.66134480675464
 21
1134.1636873632592
 31
0.0
  0
LINE
  5
1F8
100
AcDbEntity
  8
ADF70-0501
370
              15
390
0
  6
Continuous
 62
               7
100
AcDbLine
 10
486.66134480675464
 20
1136.1636873632592
 30
0.0
 11
566.66134480675419
 21
1136.1636873632588
 31
0.0
  0
LINE
  5
1F9
100
AcDbEntity
  8
ADF70-0501
370
              15
390
0
  6
Continuous
 62
               7
100
AcDbLine
 10
566.94117365020747
 20
1125.8696578454396
 30
0.0
 11
486.94117365020793
 21
1114.5653100193522
 31
0.0
  0
LINE
  5
1FA
100
AcDbEntity
  8
ADF70-0501
370
              15
390
0
  6
Continuous
 62
               7
100
AcDbLine
 10
568.66134480675419
 20
1127.8499850452658
 30
0.0
 11
568.66134480675419
 21
1134.1636873632588
 31
0.0
  0
ARC
  5
1FB
100
AcDbEntity
  8
ADF70-0501
370
              15
390
0
  6
Continuous
 62
               7
100
AcDbCircle
 10
573.66134480675419
 20
1141.1636873632601
 30
0.0
 40
3.0
100
AcDbArc
 50
0.0
 51
90.0
  0
ARC
  5
1FC
100
AcDbEntity
  8
ADF70-0501
370
              15
390
0
  6
Continuous
 62
               7
100
AcDbCircle
 10
573.66134480675419
 20
1121.7695766678607
 30
0.0
 40
3.0000000000000928
100
AcDbArc
 50
278.04289423351071
 51
0.0
  0
ARC
  5
1FD
100
AcDbEntity
  8
ADF70-0501
370
              15
390
0
  6
Continuous
 62
               7
100
AcDbCircle
 10
566.66134480675419
 20
1134.1636873632588
 30
0.0
 40
2.0
100
AcDbArc
 50
0.0
 51
90.0
  0
ARC
  5
1FE
100
AcDbEntity
  8
ADF70-0501
370
              15
390
0
  6
Continuous
 62
               7
100
AcDbCircle
 10
566.66134480675419
 20
1127.8499850452658
 30
0.0
 40
1.9999999999999767
100
AcDbArc
 50
278.04289423349354
 51
0.0
  0
ARC
  5
1FF
100
AcDbEntity
  8
ADF70-0501
370
              15
390
0
  6
Continuous
 62
               7
100
AcDbCircle
 10
486.66134480675464
 20
1134.1636873632592
 30
0.0
 40
2.0
100
AcDbArc
 50
90.0
 51
180.0
  0
ARC
  5
200
100
AcDbEntity
  8
ADF70-0501
370
              15
390
0
  6
Continuous
 62
               7
100
AcDbCircle
 10
486.66134480675464
 20
1116.5456372191784
 30
0.0
 40
2.0
100
AcDbArc
 50
180.0
 51
278.04289423349354
  0
ARC
  5
201
100
AcDbEntity
  8
ADF70-0501
370
              15
390
0
  6
Continuous
 62
               7
100
AcDbCircle
 10
487.66134480675464
 20
1103.5577980586581
 30
0.0
 40
3.0000000000000928
100
AcDbArc
 50
98.042894233510751
 51
180.0
  0
LINE
  5
202
100
AcDbEntity
  8
ADF70-0501
370
              15
390
0
  6
Continuous
 62
               7
100
AcDbLine
 10
650.55022859372093
 20
941.71411195459643
 30
0.0
 11
696.6613448067551
 21
941.71411195459643
 31
0.0
  0
LINE
  5
203
100
AcDbEntity
  8
ADF70-0501
370
              15
390
0
  6
Continuous
 62
               7
100
AcDbLine
 10
484.66134480675555
 20
1039.9958243814558
 30
0.0
 11
484.66134480675464
 21
1064.1636873632601
 31
0.0
  0
LINE
  5
204
100
AcDbEntity
  8
ADF70-0501
370
              15
390
0
  6
Continuous
 62
               7
100
AcDbLine
 10
484.66134480675464
 20
1059.1345580283046
 30
0.0
 11
476.66134480675464
 21
1059.1345580283041
 31
0.0
  0
LINE
  5
205
100
AcDbEntity
  8
ADF70-0501
370
              15
390
0
  6
Continuous
 62
               7
100
AcDbLine
 10
476.66134480675464
 20
1064.1636873632597
 30
0.0
 11
476.66134480675464
 21
1022.7582307691101
 31
0.0
  0
ARC
  5
206
100
AcDbEntity
  8
ADF70-0501
370
              15
390
0
  6
Continuous
 62
               7
100
AcDbCircle
 10
481.66134480675464
 20
1015.6541933774344
 30
0.0
 40
5.0000000000004547
100
AcDbArc
 50
180.0
 51
256.99999999999784
  0
LINE
  5
207
100
AcDbEntity
  8
ADF70-0501
370
              15
390
0
  6
Continuous
 62
               7
100
AcDbLine
 10
480.53658953503509
 20
1010.7823430535083
 30
0.0
 11
621.88078404387079
 21
985.99328014443165
 31
0.0
  0
LINE
  5
208
100
AcDbEntity
  8
ADF70-0501
370
              15
390
0
  6
Continuous
 62
               7
100
AcDbLine
 10
623.68039247862134
 20
993.78824066271375
 30
0.0
 11
488.536589535036
 21
1017.1458303868504
 31
0.0
  0
LINE
  5
209
100
AcDbEntity
  8
ADF70-0501
370
              15
390
0
  6
Continuous
 62
               7
100
AcDbLine
 10
650.55022859372093
 20
941.71411195460098
 30
0.0
 11
641.66134480675373
 21
956.21411195459598
 31
0.0
  0
LINE
  5
20A
100
AcDbEntity
  8
ADF70-0501
370
              15
390
0
  6
Continuous
 62
               7
100
AcDbLine
 10
641.62923975122021
 20
956.21411195459598
 30
0.0
 11
641.21167987156014
 21
963.13879962864769
 31
0.0
  0
ARC
  5
20B
100
AcDbEntity
  8
ADF70-0501
370
              15
390
0
  6
Continuous
 62
               7
100
AcDbCircle
 10
616.25700768527395
 20
961.63402852480124
 30
0.0
 40
24.999999999999535
100
AcDbArc
 50
3.4507671306051764
 51
76.999999999999417
  0
ARC
  5
20C
100
AcDbEntity
  8
ADF70-0501
370
              15
390
0
  6
Continuous
 62
               7
100
AcDbCircle
 10
616.25700768527395
 20
961.63402852480169
 30
0.0
 40
32.999999999999204
100
AcDbArc
 50
3.4507671306051009
 51
76.999999999999986
  0
LINE
  5
20D
100
AcDbEntity
  8
ADF70-0501
370
              15
390
0
  6
Continuous
 62
               7
100
AcDbLine
 10
649.19717497117153
 20
963.62032638187895
 30
0.0
 11
649.40727063401528
 21
960.23455802830597
 31
0.0
  0
LINE
  5
20E
100
AcDbEntity
  8
ADF70-0501
370
              15
390
0
  6
Continuous
 62
               7
100
AcDbLine
 10
676.39439277115753
 20
952.50331378114663
 30
0.0
 11
693.90453722218172
 21
952.11540947029619
 31
0.0
  0
ARC
  5
20F
100
AcDbEntity
  8
ADF70-0501
370
              15
390
0
  6
Continuous
 62
               7
100
AcDbCircle
 10
693.66134480675464
 20
949.12528280925346
 30
0.0
 40
3.0
100
AcDbArc
 50
0.0
 51
85.350264940939724
  0
ARC
  5
210
100
AcDbEntity
  8
ADF70-0501
370
              15
390
0
  6
Continuous
 62
               7
100
AcDbCircle
 10
489.66134480675555
 20
1022.0176807107765
 30
0.0
 40
5.0000000000004547
100
AcDbArc
 50
180.00000000000523
 51
256.99999999999778
  0
LINE
  5
211
100
AcDbEntity
  8
ADF70-0501
370
              15
390
0
  6
Continuous
 62
               7
100
AcDbLine
 10
696.6613448067551
 20
896.61326277192813
 30
0.0
 11
650.55022859372093
 21
896.61326277192813
 31
0.0
  0
LINE
  5
212
100
AcDbEntity
  8
ADF70-0501
370
              15
390
0
  6
Continuous
 62
               7
100
AcDbLine
 10
650.55022859372093
 20
896.61326277192813
 30
0.0
 11
641.66134480675373
 21
882.11326277192813
 31
0.0
  0
LINE
  5
213
100
AcDbEntity
  8
ADF70-0501
370
              15
390
0
  6
Continuous
 62
               7
100
AcDbLine
 10
641.65220991748811
 20
882.11326277192813
 30
0.0
 11
622.65220991748856
 21
701.7809865901462
 31
0.0
  0
LINE
  5
214
100
AcDbEntity
  8
ADF70-0501
370
              15
390
0
  6
Continuous
 62
               7
100
AcDbLine
 10
476.66134480675464
 20
645.57475671395639
 30
0.0
 11
476.66134480675464
 21
611.70672115677542
 31
0.0
  0
LINE
  5
215
100
AcDbEntity
  8
ADF70-0501
370
              15
390
0
  6
Continuous
 62
               7
100
AcDbLine
 10
484.01105113281847
 20
605.86050076806384
 30
0.0
 11
675.86363895415479
 21
636.01540933529316
 31
0.0
  0
LINE
  5
216
100
AcDbEntity
  8
ADF70-0501
370
              15
390
0
  6
Continuous
 62
               7
100
AcDbLine
 10
675.70836773008568
 20
665.34818168562549
 30
0.0
 11
672.34233952632849
 21
665.34818168562413
 31
0.0
  0
LINE
  5
217
100
AcDbEntity
  8
ADF70-0501
370
              15
390
0
  6
Continuous
 62
               7
100
AcDbLine
 10
672.34233952632849
 20
694.89882185436943
 30
0.0
 11
675.70836773008568
 21
694.89882185436716
 31
0.0
  0
LINE
  5
218
100
AcDbEntity
  8
ADF70-0501
370
              15
390
0
  6
Continuous
 62
               7
100
AcDbLine
 10
676.70836773008659
 20
695.89882185436716
 30
0.0
 11
676.70836773008659
 21
704.14275637091521
 31
0.0
  0
LINE
  5
219
100
AcDbEntity
  8
ADF70-0501
370
              15
390
0
  6
Continuous
 62
               7
100
AcDbLine
 10
675.98092782232879
 20
705.1048951322781
 30
0.0
 11
636.04064407995793
 21
716.41940386861768
 31
0.0
  0
LINE
  5
21A
100
AcDbEntity
  8
ADF70-0501
370
              15
390
0
  6
Continuous
 62
               7
100
AcDbLine
 10
653.99705329482686
 20
885.54800866184007
 30
0.0
 11
693.98986467242412
 21
886.45060390765468
 31
0.0
  0
ARC
  5
21B
100
AcDbEntity
  8
ADF70-0501
370
              15
390
0
  6
Continuous
 62
               7
100
AcDbCircle
 10
693.66134480675464
 20
889.43256210619859
 30
0.0
 40
3.0000000000000004
100
AcDbArc
 50
276.28687527376582
 51
359.9999999999913
  0
LINE
  5
21C
100
AcDbEntity
  8
ADF70-0501
370
              15
390
0
  6
Continuous
 62
               7
100
AcDbLine
 10
696.6613448067551
 20
889.43256210619813
 30
0.0
 11
696.6613448067551
 21
949.12528280925324
 31
0.0
  0
LINE
  5
21D
100
AcDbEntity
  8
ADF70-0501
370
              15
390
0
  6
Continuous
 62
               7
100
AcDbLine
 10
484.66134480675464
 20
641.59757713061833
 30
0.0
 11
484.66134480675464
 21
617.99258265137075
 31
0.0
  0
LINE
  5
21E
100
AcDbEntity
  8
ADF70-0501
370
              15
390
0
  6
Continuous
 62
               7
100
AcDbLine
 10
488.33619796978655
 20
615.06947245701429
 30
0.0
 11
488.33619792201171
 21
615.06947245377103
 31
0.0
  0
LINE
  5
21F
100
AcDbEntity
  8
ADF70-0501
370
              15
390
0
  6
Continuous
 62
               7
100
AcDbLine
 10
488.33619796978655
 20
615.06947245701519
 30
0.0
 11
659.11847782455015
 21
641.90488551108263
 31
0.0
  0
LINE
  5
220
100
AcDbEntity
  8
ADF70-0501
370
              15
390
0
  6
Continuous
 62
               7
100
AcDbLine
 10
659.70513998754041
 20
701.40078309610578
 30
0.0
 11
637.09787585331469
 21
707.80509632536121
 31
0.0
  0
LINE
  5
221
100
AcDbEntity
  8
ADF70-0501
370
              15
390
0
  6
Continuous
 62
               7
100
AcDbLine
 10
481.31163848069173
 20
651.42097710266796
 30
0.0
 11
603.37111882379168
 21
679.6006285392067
 31
0.0
  0
LINE
  5
222
100
AcDbEntity
  8
ADF70-0501
370
              15
390
0
  6
Continuous
 62
               7
100
AcDbLine
 10
486.98649164372364
 20
644.52068732497389
 30
0.0
 11
605.17244762715882
 21
671.80606519931541
 31
0.0
  0
ARC
  5
223
100
AcDbEntity
  8
ADF70-0501
370
              15
390
0
  6
Continuous
 62
               7
100
AcDbCircle
 10
597.74734246519483
 20
703.95988015883756
 30
0.0
 40
25.000000000000256
100
AcDbArc
 50
283.0000000000004
 51
354.9999999999996
  0
LINE
  5
224
100
AcDbEntity
  8
ADF70-0501
370
              15
390
0
  6
Continuous
 62
               7
100
AcDbLine
 10
649.52247105071183
 20
881.01385704467259
 30
0.0
 11
632.42247105071147
 21
721.66587638916997
 31
0.0
  0
ARC
  5
225
100
AcDbEntity
  8
ADF70-0501
370
              15
390
0
  6
Continuous
 62
               7
100
AcDbCircle
 10
654.54458640427538
 20
880.57807833093432
 30
0.0
 40
4.9999999999995826
100
AcDbArc
 50
96.286875273769851
 51
174.99999999999989
  0
LINE
  5
226
100
AcDbEntity
  8
ADF70-0501
370
              15
390
0
  6
Continuous
 62
               7
100
AcDbLine
 10
676.70836773008659
 20
637.0032812131077
 30
0.0
 11
676.70836773008659
 21
664.34818168562549
 31
0.0
  0
ARC
  5
227
100
AcDbEntity
  8
ADF70-0501
370
              15
390
0
  6
Continuous
 62
               7
100
AcDbCircle
 10
675.70836773008659
 20
664.34818168562549
 30
0.0
 40
1.0
100
AcDbArc
 50
0.0
 51
90.0
  0
ARC
  5
228
100
AcDbEntity
  8
ADF70-0501
370
              15
390
0
  6
Continuous
 62
               7
100
AcDbCircle
 10
675.70836773008659
 20
704.14275637091521
 30
0.0
 40
1.0
100
AcDbArc
 50
0.0
 51
74.183335783433677
  0
ARC
  5
229
100
AcDbEntity
  8
ADF70-0501
370
              15
390
0
  6
Continuous
 62
               7
100
AcDbCircle
 10
675.70836773008659
 20
695.89882185436716
 30
0.0
 40
1.0
100
AcDbArc
 50
269.99999999994787
 51
0.0
  0
ARC
  5
22A
100
AcDbEntity
  8
ADF70-0501
370
              15
390
0
  6
Continuous
 62
               7
100
AcDbCircle
 10
637.40344454117076
 20
721.23009767543192
 30
0.0
 40
4.9999999999996536
100
AcDbArc
 50
174.99999999999989
 51
254.18333578342293
  0
ARC
  5
22B
100
AcDbEntity
  8
ADF70-0501
370
              15
390
0
  6
Continuous
 62
               7
100
AcDbCircle
 10
597.74734246519483
 20
703.95988015883756
 30
0.0
 40
32.999999999999943
100
AcDbArc
 50
282.99999999999977
 51
358.5441119133456
  0
ARC
  5
22C
100
AcDbEntity
  8
ADF70-0501
370
              15
390
0
  6
Continuous
 62
               7
100
AcDbCircle
 10
635.73507539210277
 20
702.99440251854719
 30
0.0
 40
5.0000000000001563
100
AcDbArc
 50
74.183335783417917
 51
178.54411191334435
  0
LINE
  5
22D
100
AcDbEntity
  8
ADF70-0501
370
              15
390
0
  6
Continuous
 62
               7
100
AcDbLine
 10
676.70836773008659
 20
695.89882185436716
 30
0.0
 11
676.70836773008659
 21
664.34818168562549
 31
0.0
  0
ARC
  5
22E
100
AcDbEntity
  8
ADF70-0501
370
              15
390
0
  6
Continuous
 62
               7
100
AcDbCircle
 10
482.66134480675464
 20
645.57475671395639
 30
0.0
 40
5.999999999999873
100
AcDbArc
 50
102.99999999999758
 51
180.0
  0
ARC
  5
22F
100
AcDbEntity
  8
ADF70-0501
370
              15
390
0
  6
Continuous
 62
               7
100
AcDbCircle
 10
482.66134480675464
 20
611.70672115677542
 30
0.0
 40
6.0
100
AcDbArc
 50
180.0
 51
282.99999999999756
  0
ARC
  5
230
100
AcDbEntity
  8
ADF70-0501
370
              15
390
0
  6
Continuous
 62
               7
100
AcDbCircle
 10
487.66134480675464
 20
641.59757713061833
 30
0.0
 40
3.0000000000001497
100
AcDbArc
 50
103.00000000000558
 51
180.0
  0
ARC
  5
231
100
AcDbEntity
  8
ADF70-0501
370
              15
390
0
  6
Continuous
 62
               7
100
AcDbCircle
 10
487.66134480675464
 20
617.99258265137075
 30
0.0
 40
3.0000000000004547
100
AcDbArc
 50
180.0
 51
283.00000000000557
  0
LINE
  5
232
100
AcDbEntity
  8
ADF70-0501
370
              15
390
0
  6
Continuous
 62
               7
100
AcDbLine
 10
671.34233952632758
 20
693.89882185436943
 30
0.0
 11
671.34233952632758
 21
666.34818168562413
 31
0.0
  0
LINE
  5
233
100
AcDbEntity
  8
ADF70-0501
370
              15
390
0
  6
Continuous
 62
               7
100
AcDbLine
 10
663.34233952632758
 20
696.59008928929177
 30
0.0
 11
663.34233952632758
 21
646.8442791319668
 31
0.0
  0
ARC
  5
234
100
AcDbEntity
  8
ADF70-0501
370
              15
390
0
  6
Continuous
 62
               7
100
AcDbCircle
 10
658.34233952632849
 20
696.59008928929177
 30
0.0
 40
5.0
100
AcDbArc
 50
0.0
 51
74.18333578341219
  0
ARC
  5
235
100
AcDbEntity
  8
ADF70-0501
370
              15
390
0
  6
Continuous
 62
               7
100
AcDbCircle
 10
672.34233952632849
 20
693.89882185436943
 30
0.0
 40
1.0
100
AcDbArc
 50
89.999999999947889
 51
180.0
  0
ARC
  5
236
100
AcDbEntity
  8
ADF70-0501
370
              15
390
0
  6
Continuous
 62
               7
100
AcDbCircle
 10
672.34233952632849
 20
666.34818168562413
 30
0.0
 40
1.0
100
AcDbArc
 50
180.0
 51
270.00000000005213
  0
LINE
  5
237
100
AcDbEntity
  8
ADF70-0501
370
              15
390
0
  6
Continuous
 62
               7
100
AcDbLine
 10
488.33619796978655
 20
93.059149134557401
 30
0.0
 11
488.33619792201171
 21
93.059149137800659
 31
0.0
  0
ARC
  5
238
100
AcDbEntity
  8
ADF70-0501
370
              15
390
0
  6
Continuous
 62
               7
100
AcDbCircle
 10
482.66134480675464
 20
96.42190043479593
 30
0.0
 40
5.999999999999873
100
AcDbArc
 50
77.00000000000243
 51
180.0
  0
LINE
  5
239
100
AcDbEntity
  8
ADF70-0501
370
              15
390
0
  6
Continuous
 62
               7
100
AcDbLine
 10
484.01105113281847
 20
102.26812082350784
 30
0.0
 11
675.84328720326221
 21
66.773266213008128
 31
0.0
  0
LINE
  5
23A
100
AcDbEntity
  8
ADF70-0501
370
              15
390
0
  6
Continuous
 62
               7
100
AcDbLine
 10
488.33619796978655
 20
-968.21534826496634
 30
0.0
 11
488.33619792201171
 21
-968.2153482682096
 31
0.0
  0
ARC
  5
23B
100
AcDbEntity
  8
ADF70-0501
370
              15
390
0
  6
Continuous
 62
               7
100
AcDbCircle
 10
482.66134480675464
 20
-971.57809956520498
 30
0.0
 40
6.0
100
AcDbArc
 50
180.0
 51
282.99999999999335
  0
LINE
  5
23C
100
AcDbEntity
  8
ADF70-0501
370
              15
390
0
  6
Continuous
 62
               7
100
AcDbLine
 10
484.01105113281847
 20
-977.42431995391701
 30
0.0
 11
675.84328720326221
 21
-941.92946534341604
 31
0.0
  0
LINE
  5
23D
100
AcDbEntity
  8
ADF70-0501
370
              15
390
0
  6
Continuous
 62
               7
100
AcDbLine
 10
476.66134480675464
 20
-971.57809956520498
 30
0.0
 11
476.66134480675464
 21
96.421900434796044
 31
0.0
  0
LINE
  5
23E
100
AcDbEntity
  8
ADF70-0501
370
              15
390
0
  6
Continuous
 62
               7
100
AcDbLine
 10
676.66134480675419
 20
-940.94615615279849
 30
0.0
 11
676.66134480675419
 21
65.789957022390581
 31
0.0
  0
LINE
  5
23F
100
AcDbEntity
  8
ADF70-0501
370
              15
390
0
  6
Continuous
 62
               7
100
AcDbLine
 10
696.6613448067551
 20
-472.57809956520344
 30
0.0
 11
696.6613448067551
 21
-402.57809956520441
 31
0.0
  0
LINE
  5
240
100
AcDbEntity
  8
ADF70-0501
370
              15
390
0
  6
Continuous
 62
               7
100
AcDbLine
 10
696.6613448067551
 20
-402.57809956520441
 30
0.0
 11
676.66134480675419
 21
-395.87809956520459
 31
0.0
  0
LINE
  5
241
100
AcDbEntity
  8
ADF70-0501
370
              15
390
0
  6
Continuous
 62
               7
100
AcDbLine
 10
696.6613448067551
 20
-472.57809956520344
 30
0.0
 11
676.66134480675419
 21
-479.27809956520326
 31
0.0
  0
LINE
  5
242
100
AcDbEntity
  8
ADF70-0501
370
              15
390
0
  6
STYLE_12
 62
               7
100
AcDbLine
 10
546.66134480675419
 20
-687.5780995652035
 30
0.0
 11
506.66134480675419
 21
-687.5780995652035
 31
0.0
  0
LINE
  5
243
100
AcDbEntity
  8
ADF70-0501
370
              15
390
0
  6
STYLE_12
 62
               7
100
AcDbLine
 10
641.66134480675373
 20
-398.24075842947786
 30
0.0
 11
622.65220991748811
 21
6.3476350014256013
 31
0.0
  0
LINE
  5
244
100
AcDbEntity
  8
ADF70-0501
370
              15
390
0
  6
STYLE_12
 62
               7
100
AcDbLine
 10
481.31163848069173
 20
56.707644488903952
 30
0.0
 11
603.37111882379122
 21
28.527993052365218
 31
0.0
  0
ARC
  5
245
100
AcDbEntity
  8
ADF70-0501
370
              15
390
0
  6
STYLE_12
 62
               7
100
AcDbCircle
 10
597.74734246519438
 20
4.1687414327342367
 30
0.0
 40
25.000000000000103
100
AcDbArc
 50
5.0000000000002967
 51
76.999999999999645
  0
ARC
  5
246
100
AcDbEntity
  8
ADF70-0501
370
              15
390
0
  6
STYLE_12
 62
               7
100
AcDbCircle
 10
482.66134480675464
 20
62.553864877615524
 30
0.0
 40
6.0
100
AcDbArc
 50
180.0
 51
257.00000000000261
  0
LINE
  5
247
100
AcDbEntity
  8
ADF70-0501
370
              15
390
0
  6
STYLE_12
 62
               7
100
AcDbLine
 10
696.6613448067551
 20
-462.41544070093005
 30
0.0
 11
650.55022859372093
 21
-462.41544070093005
 31
0.0
  0
LINE
  5
248
100
AcDbEntity
  8
ADF70-0501
370
              15
390
0
  6
STYLE_12
 62
               7
100
AcDbLine
 10
650.55022859372093
 20
-462.41544070093005
 30
0.0
 11
641.66134480675373
 21
-476.91544070092999
 31
0.0
  0
LINE
  5
249
100
AcDbEntity
  8
ADF70-0501
370
              15
390
0
  6
STYLE_12
 62
               7
100
AcDbLine
 10
641.66134480675373
 20
-476.91544070092999
 30
0.0
 11
622.65220991748811
 21
-881.50440450161341
 31
0.0
  0
LINE
  5
24A
100
AcDbEntity
  8
ADF70-0501
370
              15
390
0
  6
STYLE_12
 62
               7
100
AcDbLine
 10
481.31163848069173
 20
-931.86441398909187
 30
0.0
 11
603.37111882379122
 21
-903.68476255255291
 31
0.0
  0
ARC
  5
24B
100
AcDbEntity
  8
ADF70-0501
370
              15
390
0
  6
STYLE_12
 62
               7
100
AcDbCircle
 10
597.74734246519438
 20
-879.32551093292204
 30
0.0
 40
25.000000000000036
100
AcDbArc
 50
283.00000000000051
 51
354.9999999999992
  0
ARC
  5
24C
100
AcDbEntity
  8
ADF70-0501
370
              15
390
0
  6
STYLE_12
 62
               7
100
AcDbCircle
 10
482.66134480675464
 20
-937.71063437780356
 30
0.0
 40
5.9999999999997629
100
AcDbArc
 50
102.99999999999783
 51
180.0
  0
LINE
  5
24D
100
AcDbEntity
  8
ADF70-0501
370
              15
390
0
  6
STYLE_12
 62
               7
100
AcDbLine
 10
696.6613448067551
 20
-412.74075842947775
 30
0.0
 11
650.55022859372093
 21
-412.74075842947775
 31
0.0
  0
LINE
  5
24E
100
AcDbEntity
  8
ADF70-0501
370
              15
390
0
  6
STYLE_12
 62
               7
100
AcDbLine
 10
650.55022859372093
 20
-412.74075842947775
 30
0.0
 11
641.66134480675373
 21
-398.24075842947786
 31
0.0
  0
ARC
  5
24F
100
AcDbEntity
  8
ADF70-0501
370
              15
390
0
  6
Continuous
 62
               7
100
AcDbCircle
 10
616.25700768527395
 20
961.63402852480169
 30
0.0
 40
54.890181853140625
100
AcDbArc
 50
3.4507671306048548
 51
76.999999999999829
  0
ARC
  5
250
100
AcDbEntity
  8
ADF70-0501
370
              15
390
0
  6
Continuous
 62
               7
100
AcDbCircle
 10
616.25700768527395
 20
961.63402852480169
 30
0.0
 40
46.899999999998968
100
AcDbArc
 50
3.450767130604901
 51
77.000000000000099
  0
LINE
  5
251
100
AcDbEntity
  8
ADF70-0501
370
              15
390
0
  6
Continuous
 62
               7
100
AcDbLine
 10
628.90856424562617
 20
1015.0648449572053
 30
0.0
 11
484.66134480675555
 21
1039.9958243814558
 31
0.0
  0
LINE
  5
252
100
AcDbEntity
  8
ADF70-0501
370
              15
390
0
  6
Continuous
 62
               7
100
AcDbLine
 10
626.84105844866508
 20
1007.3356298132827
 30
0.0
 11
484.66134480675555
 21
1031.9092717118319
 31
0.0
  0
LINE
  5
253
100
AcDbEntity
  8
ADF70-0501
370
              15
390
0
  6
Continuous
 62
               7
100
AcDbLine
 10
484.66134480675555
 20
1031.9092717118319
 30
0.0
 11
484.66134480675555
 21
1022.0176807107761
 31
0.0
  0
LINE
  5
254
100
AcDbEntity
  8
ADF70-0501
370
              15
390
0
  6
Continuous
 62
               7
100
AcDbLine
 10
663.07197270674806
 20
964.4569791156174
 30
0.0
 11
663.52306195238816
 21
960.42790495170595
 31
0.0
  0
LINE
  5
255
100
AcDbEntity
  8
ADF70-0501
370
              15
390
0
  6
Continuous
 62
               7
100
AcDbLine
 10
671.04766746090672
 20
964.93791490630099
 30
0.0
 11
671.5141967583786
 21
957.20113311009334
 31
0.0
  0
ARC
  5
256
100
AcDbEntity
  8
ADF70-0501
370
              15
390
0
  6
Continuous
 62
               7
100
AcDbCircle
 10
676.5051311956363
 20
957.50208733086299
 30
0.0
 40
5.0000000000003828
100
AcDbArc
 50
183.45076713060905
 51
268.73092736415782
  0
LINE
  5
257
100
AcDbEntity
  8
ADF70-0501
370
              15
390
0
  6
Continuous
 62
               7
100
AcDbLine
 10
657.45498719310808
 20
942.13304534094789
 30
0.0
 11
657.45498719310808
 21
933.47625204281269
 31
0.0
  0
LINE
  5
258
100
AcDbEntity
  8
ADF70-0501
370
              15
390
0
  6
Continuous
 62
               7
100
AcDbLine
 10
671.66134480675464
 20
933.43455802830601
 30
0.0
 11
671.66134480675464
 21
941.62343965132425
 31
0.0
  0
LINE
  5
259
100
AcDbEntity
  8
ADF70-0501
370
              15
390
0
  6
Continuous
 62
               7
100
AcDbLine
 10
674.34798719310811
 20
942.13304534094789
 30
0.0
 11
674.34798719310811
 21
942.23127966206368
 31
0.0
  0
ARC
  5
25A
100
AcDbEntity
  8
ADF70-0501
370
              15
390
0
  6
Continuous
 62
               7
100
AcDbCircle
 10
633.66847913196989
 20
938.01004728924556
 30
0.0
 40
24.141190498335241
100
AcDbArc
 50
9.8335717305862715
 51
39.097693883217616
  0
ARC
  5
25B
100
AcDbEntity
  8
ADF70-0501
370
              15
390
0
  6
Continuous
 62
               7
100
AcDbCircle
 10
661.7436632459503
 20
961.37406447507044
 30
0.0
 40
12.388908653227663
100
AcDbArc
 50
183.89535904068558
 51
221.07143497274046
  0
ARC
  5
25C
100
AcDbEntity
  8
ADF70-0501
370
              15
390
0
  6
Continuous
 62
               7
100
AcDbCircle
 10
647.80816544658637
 20
937.90552180816815
 30
0.0
 40
24.141190498335689
100
AcDbArc
 50
9.8335717305860868
 51
39.097693883216934
  0
ARC
  5
25D
100
AcDbEntity
  8
ADF70-0501
370
              15
390
0
  6
Continuous
 62
               7
100
AcDbCircle
 10
675.88334956056633
 20
961.26953899399302
 30
0.0
 40
12.38890865322721
100
AcDbArc
 50
183.89535904068572
 51
221.07143497274322
  0
ARC
  5
25E
100
AcDbEntity
  8
ADF70-0501
370
              15
390
0
  6
Continuous
 62
               7
100
AcDbCircle
 10
664.55816599993113
 20
933.45540503555969
 30
0.0
 40
7.1032093985334859
100
AcDbArc
 50
179.83184400545412
 51
5.7254216618592588
  0
CIRCLE
  5
25F
100
AcDbEntity
  8
ADF70-0501
370
               5
390
0
  6
STYLE_12
 62
               7
100
AcDbCircle
 10
-553.10997383387439
 20
763.80752939119395
 30
0.0
 40
17.500000000000227
  0
CIRCLE
  5
260
100
AcDbEntity
  8
ADF70-0501
370
               5
390
0
  6
STYLE_12
 62
               7
100
AcDbCircle
 10
-398.10997383387348
 20
763.80752939119395
 30
0.0
 40
22.5
  0
CIRCLE
  5
261
100
AcDbEntity
  8
ADF70-0501
370
               5
390
0
  6
STYLE_12
 62
               7
100
AcDbCircle
 10
-553.10997383387439
 20
863.80752939119486
 30
0.0
 40
17.500000000000455
  0
CIRCLE
  5
262
100
AcDbEntity
  8
ADF70-0501
370
               5
390
0
  6
STYLE_12
 62
               7
100
AcDbCircle
 10
-553.10997383387439
 20
963.80752939119691
 30
0.0
 40
17.500000000000227
  0
CIRCLE
  5
263
100
AcDbEntity
  8
ADF70-0501
370
               5
390
0
  6
STYLE_12
 62
               7
100
AcDbCircle
 10
-553.10997383387439
 20
1063.8075293911979
 30
0.0
 40
17.499999999999545
  0
CIRCLE
  5
264
100
AcDbEntity
  8
ADF70-0501
370
               5
390
0
  6
STYLE_12
 62
               7
100
AcDbCircle
 10
-553.10997383387439
 20
663.80752939119418
 30
0.0
 40
17.5
  0
CIRCLE
  5
265
100
AcDbEntity
  8
ADF70-0501
370
               5
390
0
  6
STYLE_12
 62
               7
100
AcDbCircle
 10
-553.10997383387439
 20
563.80752939119395
 30
0.0
 40
17.500000000000227
  0
CIRCLE
  5
266
100
AcDbEntity
  8
ADF70-0501
370
               5
390
0
  6
STYLE_12
 62
               7
100
AcDbCircle
 10
-553.10997383387439
 20
463.80752939119486
 30
0.0
 40
17.499999999999773
  0
LWPOLYLINE
  5
267
100
AcDbEntity
  8
ADF70-0501
370
               5
390
0
  6
STYLE_12
 62
               7
100
AcDbPolyline
 90
        5
 70
             129
 10
-623.1099738338753
 20
228.83089438738602
 42
0.416953578806167
 10
-618.06324486191261
 20
223.83111275183637
 42
0.4114788444127602
 10
-83.109973833874392
 20
763.80752939119395
 42
0.4114788444127607
 10
-618.06324486191261
 20
1303.7839460305563
 42
0.4169535788061936
 10
-623.10997383387439
 20
1298.7841643950064
  0
LINE
  5
268
100
AcDbEntity
  8
ADF70-0501
370
               5
390
0
  6
Continuous
 62
               7
100
AcDbLine
 10
-623.10997383387439
 20
193.81221980623332
 30
0.0
 11
-623.10997383387439
 21
1333.8122198062329
 31
0.0
  0
INSERT
  5
269
100
AcDbEntity
  8
ADF70-0501
390
0
 62
               7
100
AcDbBlockReference
  2
グループ-1
 10
4049.0114224362515
 20
-500.93428624047863
 30
0.0
  0
LINE
  5
26A
100
AcDbEntity
  8
ADF70-0501
370
              15
390
0
  6
Continuous
 62
               7
100
AcDbLine
 10
676.70836773008659
 20
886.06057888957218
 30
0.0
 11
676.70836773008659
 21
704.14275637091521
 31
0.0
  0
LINE
  5
26B
100
AcDbEntity
  8
ADF70-0501
370
              15
390
0
  6
STYLE_12
 62
               7
100
AcDbLine
 10
526.66134480675419
 20
-667.5780995652035
 30
0.0
 11
526.66134480675419
 21
-707.57809956520327
 31
0.0
  0
CIRCLE
  5
26C
100
AcDbEntity
  8
ADF70-0501
370
              15
390
0
  6
STYLE_12
 62
               7
100
AcDbCircle
 10
526.66134480675419
 20
-687.5780995652035
 30
0.0
 40
10.0
  0
LINE
  5
26D
100
AcDbEntity
  8
ADF70-0501
370
              15
390
0
  6
STYLE_12
 62
               7
100
AcDbLine
 10
546.66134480675419
 20
-577.5780995652035
 30
0.0
 11
506.66134480675419
 21
-577.5780995652035
 31
0.0
  0
LINE
  5
26E
100
AcDbEntity
  8
ADF70-0501
370
              15
390
0
  6
STYLE_12
 62
               7
100
AcDbLine
 10
526.66134480675419
 20
-557.57809956520362
 30
0.0
 11
526.66134480675419
 21
-597.57809956520327
 31
0.0
  0
CIRCLE
  5
26F
100
AcDbEntity
  8
ADF70-0501
370
              15
390
0
  6
STYLE_12
 62
               7
100
AcDbCircle
 10
526.66134480675419
 20
-577.5780995652035
 30
0.0
 40
10.0
  0
LINE
  5
270
100
AcDbEntity
  8
ADF70-0501
370
              15
390
0
  6
STYLE_12
 62
               7
100
AcDbLine
 10
546.66134480675419
 20
-297.57809956520344
 30
0.0
 11
506.66134480675419
 21
-297.57809956520344
 31
0.0
  0
LINE
  5
271
100
AcDbEntity
  8
ADF70-0501
370
              15
390
0
  6
STYLE_12
 62
               7
100
AcDbLine
 10
526.66134480675419
 20
-277.57809956520356
 30
0.0
 11
526.66134480675419
 21
-317.57809956520322
 31
0.0
  0
CIRCLE
  5
272
100
AcDbEntity
  8
ADF70-0501
370
              15
390
0
  6
STYLE_12
 62
               7
100
AcDbCircle
 10
526.66134480675419
 20
-297.57809956520344
 30
0.0
 40
10.0
  0
LINE
  5
273
100
AcDbEntity
  8
ADF70-0501
370
              15
390
0
  6
STYLE_12
 62
               7
100
AcDbLine
 10
546.66134480675419
 20
-187.5780995652035
 30
0.0
 11
506.66134480675419
 21
-187.5780995652035
 31
0.0
  0
LINE
  5
274
100
AcDbEntity
  8
ADF70-0501
370
              15
390
0
  6
STYLE_12
 62
               7
100
AcDbLine
 10
526.66134480675419
 20
-167.57809956520362
 30
0.0
 11
526.66134480675419
 21
-207.57809956520327
 31
0.0
  0
CIRCLE
  5
275
100
AcDbEntity
  8
ADF70-0501
370
              15
390
0
  6
STYLE_12
 62
               7
100
AcDbCircle
 10
526.66134480675419
 20
-187.5780995652035
 30
0.0
 40
10.0
  0
ARC
  5
276
100
AcDbEntity
  8
ADF70-0501
370
              15
390
0
  6
Continuous
 62
               7
100
AcDbCircle
 10
675.66134480675464
 20
65.789957022390581
 30
0.0
 40
0.9999999999995453
100
AcDbArc
 50
0.0
 51
79.517080606281638
  0
ARC
  5
277
100
AcDbEntity
  8
ADF70-0501
370
              15
390
0
  6
Continuous
 62
               7
100
AcDbCircle
 10
675.66134480675419
 20
-940.94615615279849
 30
0.0
 40
1.0000000000000084
100
AcDbArc
 50
280.48291939374394
 51
0.0
  0
ARC
  5
278
100
AcDbEntity
  8
ADF70-0501
370
              15
390
0
  6
Continuous
 62
               7
100
AcDbCircle
 10
658.34233952632758
 20
646.8442791319668
 30
0.0
 40
4.9999999999999121
100
AcDbArc
 50
278.92999999999978
 51
0.0
  0
ARC
  5
279
100
AcDbEntity
  8
ADF70-0501
370
              15
390
0
  6
Continuous
 62
               7
100
AcDbCircle
 10
675.70836773008659
 20
637.0032812131077
 30
0.0
 40
1.0000000000002327
100
AcDbArc
 50
278.9325266930033
 51
0.0
  0
ENDSEC
  0
SECTION
  2
OBJECTS
  0
DICTIONARY
  5
19
100
AcDbDictionary
280
               0
281
               1
  3
ACAD_GROUP
350
1A
  3
ACAD_MLINESTYLE
350
1B
  3
ACAD_LAYOUT
350
1E
  3
ACAD_PLOTSETTINGS
350
22
  3
ACAD_PLOTSTYLENAME
350
1F
  0
DICTIONARY
  5
1A
102
{ACAD_REACTORS
330
19
102
}
100
AcDbDictionary
280
               0
281
               1
  0
DICTIONARY
  5
1B
102
{ACAD_REACTORS
330
19
102
}
100
AcDbDictionary
280
               0
281
               1
  3
Standard
350
1C
  0
MLINESTYLE
  5
1C
102
{ACAD_REACTORS
330
1B
102
}
100
AcDbMlineStyle
  2
Standard
 70
               0
  3

 62
               0
 51
90.0
 52
90.0
 71
               2
 49
0.5
 62
             256
  6
ByLayer
 49
-0.5
 62
             256
  6
ByLayer
  0
ACDBDICTIONARYWDFLT
  5
1F
102
{ACAD_REACTORS
330
19
102
}
100
AcDbDictionary
281
               1
  3
Normal
350
1D
100
AcDbDictionaryWithDefault
340
1D
  0
ACDBPLACEHOLDER
  5
1D
102
{ACAD_REACTORS
330
1F
102
}
  0
LAYOUT
  5
20
102
{ACAD_REACTORS
330
1E
102
}
100
AcDbPlotSettings
  1

  2

  4

  6

 40
0.0
 41
0.0
 42
0.0
 43
0.0
 44
0.0
 45
0.0
 46
0.0
 47
0.0
 48
0.0
 49
0.0
140
0.0
141
0.0
142
1.0
143
1.0
 70
            1024
 72
               0
 73
               0
 74
               0
  7

 75
               0
147
1.0
148
0.0
149
0.0
100
AcDbLayout
  1
Model
 70
               0
 71
               0
 10
0.0
 20
0.0
 11
0.0
 21
0.0
 12
0.0
 22
0.0
 32
0.0
 14
0.0
 24
0.0
 34
0.0
 15
0.0
 25
0.0
 35
0.0
146
0.0
 13
0.0
 23
0.0
 33
0.0
 16
0.0
 26
0.0
 36
0.0
 17
0.0
 27
0.0
 37
0.0
 76
               0
330
A
331
0
345
0
346
0
  0
LAYOUT
  5
21
102
{ACAD_REACTORS
330
1E
102
}
100
AcDbPlotSettings
  1

  2

  4

  6

 40
0.0
 41
0.0
 42
0.0
 43
0.0
 44
0.0
 45
0.0
 46
0.0
 47
0.0
 48
0.0
 49
0.0
140
0.0
141
0.0
142
1.0
143
1.0
 70
               0
 72
               0
 73
               0
 74
               0
  7

 75
               0
147
1.0
148
0.0
149
0.0
100
AcDbLayout
  1
Layout1
 70
               0
 71
               0
 10
0.0
 20
0.0
 11
0.0
 21
0.0
 12
0.0
 22
0.0
 32
0.0
 14
0.0
 24
0.0
 34
0.0
 15
0.0
 25
0.0
 35
0.0
146
0.0
 13
0.0
 23
0.0
 33
0.0
 16
0.0
 26
0.0
 36
0.0
 17
0.0
 27
0.0
 37
0.0
 76
               0
330
B
331
0
345
0
346
0
  0
DICTIONARY
  5
1E
102
{ACAD_REACTORS
330
19
102
}
100
AcDbDictionary
280
               0
281
               1
  3
Layout1
350
21
  3
Model
350
20
  0
DICTIONARY
  5
22
102
{ACAD_REACTORS
330
19
102
}
100
AcDbDictionary
280
               0
281
               1
  0
ENDSEC
  0
EOF
