  0
SECTION
  2
HEADER
  9
$ACADVER
  1
AC1015
  9
$ACADMAINTVER
 70
               6
  9
$DWGCODEPAGE
  3
ANSI_932
  9
$INSBASE
 10
0.0
 20
0.0
 30
0.0
  9
$EXTMIN
 10
-975.00000000024136
 20
-1431.5255224711129
 30
-14.834305555555554
  9
$EXTMAX
 10
975.00000000024124
 20
1405.9972926412995
 30
14.834305555555554
  9
$LIMMIN
 10
0.0
 20
0.0
  9
$LIMMAX
 10
0.0
 20
0.0
  9
$ORTHOMODE
 70
               0
  9
$REGENMODE
 70
               1
  9
$FILLMODE
 70
               1
  9
$QTEXTMODE
 70
               0
  9
$MIRRTEXT
 70
               1
  9
$LTSCALE
 40
50.799999999999997
  9
$ATTMODE
 70
               1
  9
$TEXTSIZE
 40
0.2
  9
$TRACEWID
 40
1.0
  9
$TEXTSTYLE
  7
Standard
  9
$CLAYER
  8
notes
  9
$CELTYPE
  6
Continuous
  9
$CECOLOR
 62
             256
  9
$CELTSCALE
 40
1.0
  9
$DISPSILH
 70
               0
  9
$DIMSCALE
 40
1.0
  9
$DIMASZ
 40
31.75
  9
$DIMEXO
 40
0.0
  9
$DIMDLI
 40
6.9999999999999396
  9
$DIMRND
 40
0.0
  9
$DIMDLE
 40
0.0
  9
$DIMEXE
 40
19.999999999996199
  9
$DIMTP
 40
0.0
  9
$DIMTM
 40
0.0
  9
$DIMTXT
 40
24.432617187500004
  9
$DIMCEN
 40
0.0
  9
$DIMTSZ
 40
0.0
  9
$DIMTOL
 70
               0
  9
$DIMLIM
 70
               0
  9
$DIMTIH
 70
               0
  9
$DIMTOH
 70
               0
  9
$DIMSE1
 70
               0
  9
$DIMSE2
 70
               0
  9
$DIMTAD
 70
               1
  9
$DIMZIN
 70
              11
  9
$DIMBLK
  1
VW_FILLEDARROW
  9
$DIMASO
 70
               1
  9
$DIMSHO
 70
               1
  9
$DIMPOST
  1
<>
  9
$DIMAPOST
  1
[]
  9
$DIMALT
 70
               0
  9
$DIMALTD
 70
               1
  9
$DIMALTF
 40
1.0
  9
$DIMLFAC
 40
1.0
  9
$DIMTOFL
 70
               0
  9
$DIMTVP
 40
0.0
  9
$DIMTIX
 70
               1
  9
$DIMSOXD
 70
               0
  9
$DIMSAH
 70
               0
  9
$DIMBLK1
  1

  9
$DIMBLK2
  1

  9
$DIMSTYLE
  2
JIS
  9
$DIMCLRD
 70
               0
  9
$DIMCLRE
 70
               0
  9
$DIMCLRT
 70
               0
  9
$DIMTFAC
 40
1.0
  9
$DIMGAP
 40
1.00000000000108
  9
$DIMJUST
 70
               0
  9
$DIMSD1
 70
               0
  9
$DIMSD2
 70
               0
  9
$DIMTOLJ
 70
               1
  9
$DIMTZIN
 70
              11
  9
$DIMALTZ
 70
              11
  9
$DIMALTTZ
 70
              11
  9
$DIMUPT
 70
               0
  9
$DIMDEC
 70
               1
  9
$DIMTDEC
 70
               1
  9
$DIMALTU
 70
               2
  9
$DIMALTTD
 70
               2
  9
$DIMTXSTY
  7
ＭＳ ゴシック
  9
$DIMAUNIT
 70
               0
  9
$DIMADEC
 70
               2
  9
$DIMALTRND
 40
0.0
  9
$DIMAZIN
 70
               0
  9
$DIMDSEP
 70
              46
  9
$DIMATFIT
 70
               0
  9
$DIMFRAC
 70
               2
  9
$DIMLDRBLK
  1

  9
$DIMLUNIT
 70
               2
  9
$DIMLWD
 70
              -2
  9
$DIMLWE
 70
              -2
  9
$DIMTMOVE
 70
               0
  9
$LUNITS
 70
               2
  9
$LUPREC
 70
               4
  9
$SKETCHINC
 40
0.1
  9
$FILLETRAD
 40
0.0
  9
$AUNITS
 70
               0
  9
$AUPREC
 70
               0
  9
$MENU
  1
acad
  9
$ELEVATION
 40
0.0
  9
$PELEVATION
 40
0.0
  9
$THICKNESS
 40
0.0
  9
$LIMCHECK
 70
               0
  9
$CHAMFERA
 40
0.0
  9
$CHAMFERB
 40
0.0
  9
$CHAMFERC
 40
0.0
  9
$CHAMFERD
 40
0.0
  9
$SKPOLY
 70
               0
  9
$TDCREATE
 40
2455995.612013889
  9
$TDUCREATE
 40
0.000000000
  9
$TDUPDATE
 40
2455995.612013889
  9
$TDUUPDATE
 40
0.000000000
  9
$TDINDWG
 40
0.0000000000
  9
$TDUSRTIMER
 40
0.0000000000
  9
$USRTIMER
 70
               1
  9
$ANGBASE
 50
0.0
  9
$ANGDIR
 70
               0
  9
$PDMODE
 70
               1
  9
$PDSIZE
 40
-2.0
  9
$PLINEWID
 40
0.0
  9
$SPLFRAME
 70
               0
  9
$SPLINETYPE
 70
               6
  9
$SPLINESEGS
 70
               8
  9
$HANDSEED
  5
D4
  9
$SURFTAB1
 70
               6
  9
$SURFTAB2
 70
               6
  9
$SURFTYPE
 70
               6
  9
$SURFU
 70
               6
  9
$SURFV
 70
               6
  9
$UCSBASE
  2

  9
$UCSNAME
  2

  9
$UCSORG
 10
0.0
 20
0.0
 30
0.0
  9
$UCSXDIR
 10
1.0
 20
0.0
 30
0.0
  9
$UCSYDIR
 10
0.0
 20
1.0
 30
0.0
  9
$UCSORTHOREF
  2

  9
$UCSORTHOVIEW
 70
               0
  9
$UCSORGTOP
 10
0.0
 20
0.0
 30
0.0
  9
$UCSORGBOTTOM
 10
0.0
 20
0.0
 30
0.0
  9
$UCSORGLEFT
 10
0.0
 20
0.0
 30
0.0
  9
$UCSORGRIGHT
 10
0.0
 20
0.0
 30
0.0
  9
$UCSORGFRONT
 10
0.0
 20
0.0
 30
0.0
  9
$UCSORGBACK
 10
0.0
 20
0.0
 30
0.0
  9
$PUCSBASE
  2

  9
$PUCSNAME
  2

  9
$PUCSORG
 10
0.0
 20
0.0
 30
0.0
  9
$PUCSXDIR
 10
1.0
 20
0.0
 30
0.0
  9
$PUCSYDIR
 10
0.0
 20
1.0
 30
0.0
  9
$PUCSORTHOREF
  2

  9
$PUCSORTHOVIEW
 70
               0
  9
$PUCSORGTOP
 10
0.0
 20
0.0
 30
0.0
  9
$PUCSORGBOTTOM
 10
0.0
 20
0.0
 30
0.0
  9
$PUCSORGLEFT
 10
0.0
 20
0.0
 30
0.0
  9
$PUCSORGRIGHT
 10
0.0
 20
0.0
 30
0.0
  9
$PUCSORGFRONT
 10
0.0
 20
0.0
 30
0.0
  9
$PUCSORGBACK
 10
0.0
 20
0.0
 30
0.0
  9
$USERI1
 70
               0
  9
$USERI2
 70
               0
  9
$USERI3
 70
               0
  9
$USERI4
 70
               0
  9
$USERI5
 70
               0
  9
$USERR1
 40
0.0
  9
$USERR2
 40
0.0
  9
$USERR3
 40
0.0
  9
$USERR4
 40
0.0
  9
$USERR5
 40
0.0
  9
$WORLDVIEW
 70
               1
  9
$SHADEDGE
 70
               3
  9
$SHADEDIF
 70
              70
  9
$TILEMODE
 70
               1
  9
$MAXACTVP
 70
              64
  9
$PINSBASE
 10
0.0
 20
0.0
 30
0.0
  9
$PLIMCHECK
 70
               0
  9
$PEXTMIN
 10
1.0000000000000000E+20
 20
1.0000000000000000E+20
 30
1.0000000000000000E+20
  9
$PEXTMAX
 10
-1.0000000000000000E+20
 20
-1.0000000000000000E+20
 30
-1.0000000000000000E+20
  9
$PLIMMIN
 10
0.0
 20
0.0
  9
$PLIMMAX
 10
12.0
 20
9.0
  9
$UNITMODE
 70
               0
  9
$VISRETAIN
 70
               0
  9
$PLINEGEN
 70
               1
  9
$PSLTSCALE
 70
               0
  9
$TREEDEPTH
 70
            3020
  9
$CMLSTYLE
  2
Standard
  9
$CMLJUST
 70
               0
  9
$CMLSCALE
 40
1.0
  9
$PROXYGRAPHICS
 70
               0
  9
$MEASUREMENT
 70
               1
  9
$CELWEIGHT
370
               0
  9
$ENDCAPS
280
               0
  9
$JOINSTYLE
280
               0
  9
$LWDISPLAY
290
               1
  9
$INSUNITS
 70
               4
  9
$HYPERLINKBASE
  1

  9
$STYLESHEET
  1

  9
$XEDIT
290
               1
  9
$CEPSNTYPE
380
               0
  9
$PSTYLEMODE
290
               1
  9
$FINGERPRINTGUID
  2

  9
$VERSIONGUID
  2

  9
$EXTNAMES
290
               1
  9
$PSVPSCALE
 40
0.0
  0
ENDSEC
  0
SECTION
  2
CLASSES
  0
CLASS
  1
LWPOLYLINE
  2
AcDbPolyline
  3
AutoCAD 2000
 90
        0
280
               0
281
               1
  0
CLASS
  1
IMAGE
  2
AcDbRasterImage
  3
ISM
 90
      127
280
               0
281
               1
  0
CLASS
  1
OLE2FRAME
  2
AcDbOle2Frame
  3
AutoCAD 2000
 90
        0
280
               0
281
               1
  0
CLASS
  1
HATCH
  2
AcDbHatch
  3
AutoCAD 2000
 90
        0
280
               0
281
               1
  0
CLASS
  1
DICTIONARYVAR
  2
AcDbDictionaryVar
  3
AutoCAD 2000
 90
        0
280
               0
281
               0
  0
CLASS
  1
RASTERVARIABLES
  2
AcDbRasterVariables
  3
ISM
 90
        0
280
               0
281
               0
  0
CLASS
  1
IMAGEDEF
  2
AcDbRasterImageDef
  3
ISM
 90
        0
280
               0
281
               0
  0
CLASS
  1
IMAGEDEF_REACTOR
  2
AcDbRasterImageDefReactor
  3
ISM
 90
        1
280
               0
281
               0
  0
CLASS
  1
IDBUFFER
  2
AcDbIdBuffer
  3
AutoCAD 2000
 90
        0
280
               0
281
               0
  0
CLASS
  1
SPATIAL_FILTER
  2
AcDbSpatialFilter
  3
AutoCAD 2000
 90
        0
280
               0
281
               0
  0
CLASS
  1
XRECORD
  2
AcDbXrecord
  3
AutoCAD 2000
 90
        0
280
               0
281
               0
  0
CLASS
  1
SORTENTSTABLE
  2
AcDbSortentsTable
  3
AutoCAD 2000
 90
        0
280
               0
281
               0
  0
CLASS
  1
LAYER_INDEX
  2
AcDbLayerIndex
  3
AutoCAD 2000
 90
        0
280
               0
281
               0
  0
CLASS
  1
SPATIAL_INDEX
  2
AcDbSpatialIndex
  3
AutoCAD 2000
 90
        0
280
               0
281
               0
  0
CLASS
  1
OBJECT_PTR
  2
CAseDLPNTableRecord
  3
"ASE-LPNTableRecord"
 90
        1
280
               0
281
               0
  0
CLASS
  1
LAYOUT
  2
AcDbLayout
  3
AutoCAD 2000
 90
        0
280
               0
281
               0
  0
CLASS
  1
PLOTSETTINGS
  2
AcDbPlotSettings
  3
AutoCAD 2000
 90
        0
280
               0
281
               0
  0
CLASS
  1
ACDBDICTIONARYWDFLT
  2
AcDbDictionaryWithDefault
  3
AutoCAD 2000
 90
        0
280
               0
281
               0
  0
CLASS
  1
ACDBPLACEHOLDER
  2
AcDbPlaceHolder
  3
AutoCAD 2000
 90
        0
280
               0
281
               0
  0
ENDSEC
  0
SECTION
  2
TABLES
  0
TABLE
  2
VPORT
  5
7
100
AcDbSymbolTable
 70
               1
  0
VPORT
  5
15
100
AcDbSymbolTableRecord
100
AcDbViewportTableRecord
  2
*ACTIVE
 70
               0
 10
0.0
 20
0.0
 11
1.0
 21
1.0
 12
-0.0000000000001137
 22
-12.764114914906713
 13
0.0
 23
0.0
 14
1.0
 24
1.0
 15
0.0
 25
0.0
 16
0.0
 26
0.0
 36
1.0
 17
0.0
 27
0.0
 37
0.0
 40
2837.5228151124124
 41
0.688564
 42
50.0
 43
0.0
 44
0.0
 50
0.0
 51
0.0
 71
               0
 72
            2000
 73
               1
 74
               1
 75
               0
 76
               0
 77
               0
 78
               0
281
               0
 65
               0
110
0.0
120
0.0
130
0.0
111
1.0
121
0.0
131
0.0
112
0.0
122
1.0
132
0.0
345
0
346
0
 79
               0
146
0.0
  0
ENDTAB
  0
TABLE
  2
LTYPE
  5
4
100
AcDbSymbolTable
 70
              14
  0
LTYPE
  5
11
100
AcDbSymbolTableRecord
100
AcDbLinetypeTableRecord
  2
ByBlock
 70
              64
  3

 72
              65
 73
               0
 40
0.0
  0
LTYPE
  5
12
100
AcDbSymbolTableRecord
100
AcDbLinetypeTableRecord
  2
ByLayer
 70
              64
  3

 72
              65
 73
               0
 40
0.0
  0
LTYPE
  5
13
100
AcDbSymbolTableRecord
100
AcDbLinetypeTableRecord
  2
Continuous
 70
              64
  3
Solid line
 72
              65
 73
               0
 40
0.0
  0
LTYPE
  5
2B
100
AcDbSymbolTableRecord
100
AcDbLinetypeTableRecord
  2
STYLE_01
 70
               0
  3

 72
              65
 73
               2
 40
0.375
 49
0.25
 74
               0
 49
-0.125
 74
               0
  0
LTYPE
  5
2C
100
AcDbSymbolTableRecord
100
AcDbLinetypeTableRecord
  2
STYLE_02
 70
               0
  3

 72
              65
 73
               2
 40
0.6944250000000001
 49
0.48607
 74
               0
 49
-0.2083550000000001
 74
               0
  0
LTYPE
  5
2D
100
AcDbSymbolTableRecord
100
AcDbLinetypeTableRecord
  2
STYLE_03
 70
               0
  3

 72
              65
 73
               2
 40
1.25
 49
1.0416400000000001
 74
               0
 49
-0.2083599999999999
 74
               0
  0
LTYPE
  5
2E
100
AcDbSymbolTableRecord
100
AcDbLinetypeTableRecord
  2
STYLE_04
 70
               0
  3

 72
              65
 73
               2
 40
1.5277099999999999
 49
1.3194249999999998
 74
               0
 49
-0.208285
 74
               0
  0
LTYPE
  5
2F
100
AcDbSymbolTableRecord
100
AcDbLinetypeTableRecord
  2
STYLE_05
 70
               0
  3

 72
              65
 73
               2
 40
0.20828
 49
0.069425
 74
               0
 49
-0.138855
 74
               0
  0
LTYPE
  5
30
100
AcDbSymbolTableRecord
100
AcDbLinetypeTableRecord
  2
STYLE_06
 70
               0
  3

 72
              65
 73
               4
 40
1.0416400000000001
 49
0.625
 74
               0
 49
-0.20828
 74
               0
 49
0.06943
 74
               0
 49
-0.13893
 74
               0
  0
LTYPE
  5
31
100
AcDbSymbolTableRecord
100
AcDbLinetypeTableRecord
  2
STYLE_07
 70
               0
  3

 72
              65
 73
               6
 40
1.875
 49
0.625
 74
               0
 49
-0.20828
 74
               0
 49
0.6250000000000001
 74
               0
 49
-0.2083599999999999
 74
               0
 49
0.06943
 74
               0
 49
-0.1389299999999999
 74
               0
  0
LTYPE
  5
32
100
AcDbSymbolTableRecord
100
AcDbLinetypeTableRecord
  2
STYLE_08
 70
               0
  3

 72
              65
 73
               6
 40
1.25
 49
0.625
 74
               0
 49
-0.20828
 74
               0
 49
0.06943
 74
               0
 49
-0.13893
 74
               0
 49
0.0694299999999999
 74
               0
 49
-0.13893
 74
               0
  0
LTYPE
  5
33
100
AcDbSymbolTableRecord
100
AcDbLinetypeTableRecord
  2
STYLE_09
 70
               0
  3

 72
              65
 73
               4
 40
5.0
 49
3.75
 74
               0
 49
-0.2777849999999998
 74
               0
 49
0.6944300000000003
 74
               0
 49
-0.2777849999999998
 74
               0
  0
LTYPE
  5
34
100
AcDbSymbolTableRecord
100
AcDbLinetypeTableRecord
  2
STYLE_10
 70
               0
  3

 72
              65
 73
               6
 40
5.9375
 49
3.75
 74
               0
 49
-0.2777849999999998
 74
               0
 49
0.6944300000000003
 74
               0
 49
-0.2777849999999998
 74
               0
 49
0.625
 74
               0
 49
-0.3125
 74
               0
  0
LTYPE
  5
35
100
AcDbSymbolTableRecord
100
AcDbLinetypeTableRecord
  2
STYLE_11
 70
               0
  3

 72
              65
 73
               2
 40
0.3937007874015748
 49
0.1968503937007874
 74
               0
 49
-0.1968503937007874
 74
               0
  0
ENDTAB
  0
TABLE
  2
LAYER
  5
2
100
AcDbSymbolTable
 70
               5
  0
LAYER
  5
14
100
AcDbSymbolTableRecord
100
AcDbLayerTableRecord
  2
0
 70
               0
 62
               7
  6
Continuous
290
               1
370
              -3
390
1D
  0
LAYER
  5
36
100
AcDbSymbolTableRecord
100
AcDbLayerTableRecord
  2
Defpoints
 70
               0
 62
               7
  6
Continuous
290
               0
370
              -3
390
1D
  0
LAYER
  5
37
100
AcDbSymbolTableRecord
100
AcDbLayerTableRecord
  2
template
 70
               0
 62
               7
  6
Continuous
290
               1
370
              -3
390
1D
  0
LAYER
  5
38
100
AcDbSymbolTableRecord
100
AcDbLayerTableRecord
  2
notes
 70
               0
 62
               7
  6
Continuous
290
               1
370
              -3
390
1D
  0
LAYER
  5
39
100
AcDbSymbolTableRecord
100
AcDbLayerTableRecord
  2
ADF70-0505
 70
               0
 62
               7
  6
Continuous
290
               1
370
              -3
390
1D
  0
ENDTAB
  0
TABLE
  2
STYLE
  5
3
100
AcDbSymbolTable
 70
               2
  0
STYLE
  5
17
100
AcDbSymbolTableRecord
100
AcDbTextStyleTableRecord
  2
Standard
 70
               0
 40
0.0
 41
1.0
 50
0.0
 71
               0
 42
0.0
  3
txt
  4
BIGFONT.SHX
  0
STYLE
  5
2A
100
AcDbSymbolTableRecord
100
AcDbTextStyleTableRecord
  2
ＭＳ ゴシック
 70
               0
 40
0.0
 41
1.0
 50
0.0
 71
               0
 42
0.0
  3

  4
ＭＳ ゴシック
1001
ACAD
1000
ＭＳ ゴシック
1071
        0
  0
ENDTAB
  0
TABLE
  2
VIEW
  5
5
100
AcDbSymbolTable
 70
               0
  0
ENDTAB
  0
TABLE
  2
UCS
  5
6
100
AcDbSymbolTable
 70
               0
  0
ENDTAB
  0
TABLE
  2
APPID
  5
8
100
AcDbSymbolTable
 70
               1
  0
APPID
  5
16
100
AcDbSymbolTableRecord
100
AcDbRegAppTableRecord
  2
ACAD
 70
               0
  0
ENDTAB
  0
TABLE
  2
DIMSTYLE
  5
9
100
AcDbSymbolTable
 70
               3
100
AcDbDimStyleTable
 71
               0
  0
DIMSTYLE
105
18
100
AcDbSymbolTableRecord
100
AcDbDimStyleTableRecord
  2
Standard
 70
               0
  3

  4

 40
1.0
 41
0.18
 42
0.0625
 43
0.38
 44
0.18
 45
0.0
 46
0.0
 47
0.0
 48
0.0
 71
               0
 72
               0
 73
               1
 74
               1
 75
               0
 76
               0
 77
               0
 78
               0
 79
               0
140
0.18
141
0.09
142
0.0
143
25.399999999999999
144
1.0
145
0.0
146
1.0
147
0.09
148
0.0
170
               0
171
               2
172
               0
173
               0
174
               0
175
               0
176
               0
177
               0
178
               0
179
               0
271
               4
272
               4
273
               2
274
               2
275
               0
276
               0
277
               2
278
              46
279
               0
280
               0
281
               0
282
               0
283
               1
284
               0
285
               0
286
               0
288
               0
289
               3
340
17
341
0
342
0
343
0
344
0
371
              -2
372
              -2
  0
DIMSTYLE
105
42
100
AcDbSymbolTableRecord
100
AcDbDimStyleTableRecord
  2
tform線あり
 70
               0
  3
<>
  4
[]
 40
1.0
 41
3.999755859375
 42
24.999999999999996
 43
0.9999999999999999
 44
0.0
 45
0.0
 46
0.0
 47
0.0
 48
0.0
 71
               0
 72
               0
 73
               0
 74
               0
 75
               0
 76
               0
 77
               1
 78
              11
 79
               0
140
24.432617187500004
141
0.0
142
0.0
143
1.0
144
1.0
145
0.0
146
1.0
147
0.4999999999999999
148
0.0
170
               0
171
               1
172
               0
173
               0
174
               1
175
               0
176
               0
177
               0
178
               0
179
               2
271
               1
272
               1
273
               2
274
               2
275
               0
276
               2
277
               2
278
              46
279
               0
280
               0
281
               0
282
               0
283
               1
284
              11
285
              11
286
              11
288
               0
289
               0
340
2A
341
3A
342
3A
343
0
344
0
371
              -2
372
              -2
  0
DIMSTYLE
105
47
100
AcDbSymbolTableRecord
100
AcDbDimStyleTableRecord
  2
JIS
 70
               0
  3
<>
  4
[]
 40
1.0
 41
31.75
 42
0.0
 43
6.9999999999999396
 44
19.999999999996199
 45
0.0
 46
0.0
 47
0.0
 48
0.0
 71
               0
 72
               0
 73
               0
 74
               0
 75
               0
 76
               0
 77
               1
 78
              11
 79
               0
140
24.432617187500004
141
0.0
142
0.0
143
1.0
144
1.0
145
0.0
146
1.0
147
1.00000000000108
148
0.0
170
               0
171
               1
172
               0
173
               0
174
               1
175
               0
176
               0
177
               0
178
               0
179
               2
271
               1
272
               1
273
               2
274
               2
275
               0
276
               2
277
               2
278
              46
279
               0
280
               0
281
               0
282
               0
283
               1
284
              11
285
              11
286
              11
288
               0
289
               0
340
2A
341
43
342
43
343
0
344
0
371
              -2
372
              -2
  0
ENDTAB
  0
TABLE
  2
BLOCK_RECORD
  5
1
100
AcDbSymbolTable
 70
               9
  0
BLOCK_RECORD
  5
A
100
AcDbSymbolTableRecord
100
AcDbBlockTableRecord
  2
*MODEL_SPACE
340
20
  0
BLOCK_RECORD
  5
B
100
AcDbSymbolTableRecord
100
AcDbBlockTableRecord
  2
*PAPER_SPACE
340
21
  0
BLOCK_RECORD
  5
3A
100
AcDbSymbolTableRecord
100
AcDbBlockTableRecord
  2
_DOT
340
0
  0
BLOCK_RECORD
  5
43
100
AcDbSymbolTableRecord
100
AcDbBlockTableRecord
  2
VW_FILLEDARROW
340
0
  0
BLOCK_RECORD
  5
23
100
AcDbSymbolTableRecord
100
AcDbBlockTableRecord
  2
グループ
340
0
102
{BLKREFS
331
A4
102
}
  0
BLOCK_RECORD
  5
24
100
AcDbSymbolTableRecord
100
AcDbBlockTableRecord
  2
*D3
340
0
  0
BLOCK_RECORD
  5
25
100
AcDbSymbolTableRecord
100
AcDbBlockTableRecord
  2
*D4
340
0
  0
BLOCK_RECORD
  5
26
100
AcDbSymbolTableRecord
100
AcDbBlockTableRecord
  2
*D5
340
0
  0
BLOCK_RECORD
  5
27
100
AcDbSymbolTableRecord
100
AcDbBlockTableRecord
  2
*D6
340
0
  0
BLOCK_RECORD
  5
28
100
AcDbSymbolTableRecord
100
AcDbBlockTableRecord
  2
*D7
340
0
  0
BLOCK_RECORD
  5
29
100
AcDbSymbolTableRecord
100
AcDbBlockTableRecord
  2
*D8
340
0
  0
ENDTAB
  0
ENDSEC
  0
SECTION
  2
BLOCKS
  0
BLOCK
  5
D
100
AcDbEntity
  8
0
390
0
100
AcDbBlockBegin
  2
*MODEL_SPACE
 70
               0
 10
0.0
 20
0.0
 30
0.0
  3
*MODEL_SPACE
  1

  0
ENDBLK
  5
E
100
AcDbEntity
  8
0
390
0
100
AcDbBlockEnd
  0
BLOCK
  5
F
100
AcDbEntity
 67
               1
  8
0
390
0
100
AcDbBlockBegin
  2
*PAPER_SPACE
 70
               0
 10
0.0
 20
0.0
 30
0.0
  3
*PAPER_SPACE
  1

  0
ENDBLK
  5
10
100
AcDbEntity
 67
               1
  8
0
390
0
100
AcDbBlockEnd
  0
BLOCK
  5
3B
100
AcDbEntity
  8
0
390
0
100
AcDbBlockBegin
  2
_DOT
 70
               0
 10
0.0
 20
0.0
 30
0.0
  3
_DOT
  1

  0
POLYLINE
  5
3C
100
AcDbEntity
  8
0
370
              -2
390
0
  6
ByBlock
 62
               0
100
AcDb2dPolyline
 66
               1
 10
0.0
 20
0.0
 30
0.0
 70
               1
 40
0.5
 41
0.5
  0
VERTEX
  5
3D
100
AcDbEntity
  8
0
370
              -2
390
0
  6
ByBlock
 62
               0
100
AcDbVertex
100
AcDb2dVertex
 10
-0.25
 20
0.0
 30
0.0
 42
1.0
  0
VERTEX
  5
3E
100
AcDbEntity
  8
0
370
              -2
390
0
  6
ByBlock
 62
               0
100
AcDbVertex
100
AcDb2dVertex
 10
0.25
 20
0.0
 30
0.0
 42
1.0
  0
SEQEND
  5
3F
100
AcDbEntity
  8
0
390
0
  0
LINE
  5
40
100
AcDbEntity
  8
0
370
              -2
390
0
  6
ByBlock
 62
               0
100
AcDbLine
 10
-0.5
 20
0.0
 30
0.0
 11
-1.0
 21
0.0
 31
0.0
  0
ENDBLK
  5
41
100
AcDbEntity
  8
0
390
0
100
AcDbBlockEnd
  0
BLOCK
  5
44
100
AcDbEntity
  8
0
370
              -2
390
0
  6
ByBlock
 62
               0
100
AcDbBlockBegin
  2
VW_FILLEDARROW
 70
               0
 10
0.0
 20
0.0
 30
0.0
  3
VW_FILLEDARROW
  1

  0
SOLID
  5
45
100
AcDbEntity
  8
0
370
              -2
390
0
 62
               0
100
AcDbTrace
 10
0.0
 20
0.0
 30
0.0
 11
-0.9921874999999999
 21
-0.2658558393652545
 31
0.0
 12
-0.9921874999999999
 22
0.2658558393652548
 32
0.0
 13
-0.9921874999999999
 23
0.2658558393652548
 33
0.0
  0
ENDBLK
  5
46
100
AcDbEntity
  8
0
390
0
100
AcDbBlockEnd
  0
BLOCK
  5
48
100
AcDbEntity
  8
template
390
0
100
AcDbBlockBegin
  2
グループ
 70
               0
 10
0.0
 20
0.0
 30
0.0
  3
グループ
  1

  0
LWPOLYLINE
  5
49
100
AcDbEntity
  8
0
370
              15
390
0
  6
Continuous
 62
               7
100
AcDbPolyline
 90
        8
 70
             129
 10
412.64202056520196
 20
-1854.7345516444632
 10
412.64202056520196
 20
-1860.7319403380391
 10
403.14082364719866
 20
-1860.7319403380391
 10
403.14082364719866
 20
-1885.1829036015479
 10
394.78544638541587
 20
-1885.1829036015479
 10
394.78544638541587
 20
-1860.7319403380391
 10
385.45248943910644
 20
-1860.7319403380391
 10
385.45248943910644
 20
-1854.7345516444632
  0
LWPOLYLINE
  5
4A
100
AcDbEntity
  8
0
370
              15
390
0
  6
Continuous
 62
               7
100
AcDbPolyline
 90
      101
 70
             128
 10
425.3703123957589
 20
-1855.4628001373997
 10
425.38566242454624
 20
-1855.458439380714
 42
-0.0222221607813832
 10
425.675667001215
 20
-1855.38981491547
 10
425.69146076520298
 20
-1855.3868114923741
 42
-0.0146883565591317
 10
425.95416347043277
 20
-1855.3448083054236
 42
-0.0127458844182955
 10
426.21880243758926
 20
-1855.3172713373508
 10
426.28125751589857
 20
-1855.3123779147629
 42
-0.0198099018571325
 10
426.67210662536706
 20
-1855.2972927573664
 10
426.72391809481923
 20
-1855.2973465330315
 42
-0.0147617382765651
 10
427.21854155578984
 20
-1855.3124665582761
 10
427.29123301066801
 20
-1855.3168391651639
 42
-0.0162624549002533
 10
427.68138664013293
 20
-1855.3530720404362
 10
427.80291903139795
 20
-1855.3683585994336
 42
-0.0080020874663856
 10
427.94849806248368
 20
-1855.3890414467012
 10
427.98681753307051
 20
-1855.3951127245109
 42
-0.005382192967668
 10
428.05530163839353
 20
-1855.4067202483338
 10
427.32889593919492
 20
-1857.5876487040478
 42
0.0108667757395097
 10
427.26157886906242
 20
-1857.5744615888275
 10
427.22411084587458
 20
-1857.5679638462334
 42
0.0170663203304324
 10
427.0808940589643
 20
-1857.5481342489422
 10
427.01301872627607
 20
-1857.5410870783542
 42
0.0220162375276651
 10
426.73263931841956
 20
-1857.524404717584
 10
426.65478375136706
 20
-1857.5232053503175
 42
0.0282606915785632
 10
426.31914742779077
 20
-1857.5370086272865
 10
426.27523415401561
 20
-1857.5413086172905
 42
0.0169677213690239
 10
426.02930965905949
 20
-1857.5738456668423
 42
0.0190576269868386
 10
425.78640169647605
 20
-1857.6239925389493
 10
425.78014250836861
 20
-1857.6255355130579
 42
0.0213685642844652
 10
425.52975802388931
 20
-1857.6987357981632
 10
425.52426812897465
 20
-1857.7005987942216
 42
0.0237595297590405
 10
425.27077324407753
 20
-1857.8002833161165
 10
425.26567117004629
 20
-1857.8025750915954
 42
0.0261857468814438
 10
425.01350039381521
 20
-1857.9321114289705
 10
425.00307420472689
 20
-1857.9381769034396
 42
0.0272553062022178
 10
424.7666444294909
 20
-1858.0935491093828
 10
424.73188141598285
 20
-1858.1192102574739
 42
0.0325996893170031
 10
424.5817260723299
 20
-1858.2459581304463
 10
424.55801664320472
 20
-1858.2687761589611
 42
0.0138050960644401
 10
424.46613348699668
 20
-1858.362225820511
 42
0.0125280103796912
 10
424.37929095417064
 20
-1858.460389147102
 10
424.3556105092548
 20
-1858.4885476452982
 42
0.0205218024732448
 10
424.23051043374068
 20
-1858.650340959528
 10
424.20804409325399
 20
-1858.6820006893543
 42
0.0163110129586278
 10
424.05233371400004
 20
-1858.9173311244283
 10
424.0496098179517
 20
-1858.9217548864096
 42
0.0131897341896351
 10
423.90280929704869
 20
-1859.1748869787687
 10
423.90110920167933
 20
-1859.1780052179097
 42
0.0107895576061866
 10
423.76333249946839
 20
-1859.4442204275451
 10
423.76259960994349
 20
-1859.4457146601915
 42
0.0091371507212007
 10
423.63411966129837
 20
-1859.7202398579414
 10
423.60437402988481
 20
-1859.78694636511
 42
0.0135418326349586
 10
423.43266009081503
 20
-1860.2018841503739
 10
423.39905528237728
 20
-1860.2897502926642
 42
0.0092834542410737
 10
423.22782622245796
 20
-1860.7636487909654
 10
423.20220909474136
 20
-1860.8388898607557
 42
0.0054261043583768
 10
423.09457094644739
 20
-1861.1666538338236
 10
423.07704496024093
 20
-1861.2220419961454
 42
0.0008225090816087
 10
423.00837490843992
 20
-1861.440310754203
 10
422.02368577650645
 20
-1864.4652020474596
 10
425.25630961658032
 20
-1864.4652020474596
 10
424.75211718672688
 20
-1866.369680345812
 10
421.49606090474356
 20
-1866.369680345812
 10
415.66691187238973
 20
-1885.1829034118168
 10
413.84181426207942
 20
-1885.1829034118168
 10
419.67649229758035
 20
-1866.369680345812
 10
417.27137592854001
 20
-1866.369680345812
 10
417.77556835839346
 20
-1864.4652020474596
 10
420.20411716934348
 20
-1864.4652020474596
 10
421.06427208753212
 20
-1861.8287890467607
 42
-0.0005863560645529
 10
421.10100676568817
 20
-1861.7119626266197
 10
421.17709459939601
 20
-1861.4709703270835
 42
-0.0087522378927851
 10
421.37656274285501
 20
-1860.8756942399309
 10
421.46882701826382
 20
-1860.615554071431
 42
-0.0077400953830957
 10
421.72676067739746
 20
-1859.9225493938757
 10
421.74252564897944
 20
-1859.8821185104819
 42
-0.008236994632965
 10
421.98961011958829
 20
-1859.2780394442939
 42
-0.0085725238363072
 10
422.25685621559307
 20
-1858.6826134050027
 10
422.35848581659877
 20
-1858.4661923030214
 42
-0.0168109410596106
 10
422.64543024532855
 20
-1857.9049847769174
 10
422.77127363581877
 20
-1857.678020743864
 42
-0.0007817726860956
 10
422.82555798584423
 20
-1857.5804764988889
 10
422.82568629185283
 20
-1857.5802467901678
 42
-0.0036626142153922
 10
422.88057415588275
 20
-1857.483648910184
 42
-0.0080221150676166
 10
422.93769841128818
 20
-1857.3883696754333
 10
422.96839836265065
 20
-1857.3389787263091
 42
-0.0202139325575318
 10
423.096054102457
 20
-1857.150997125628
 10
423.15012156764499
 20
-1857.0779182613867
 42
-0.0249323791798369
 10
423.40928436136363
 20
-1856.7618730192328
 10
423.43342417549115
 20
-1856.7352587463197
 42
-0.0242132121536572
 10
423.77310491703105
 20
-1856.3953752601176
 10
423.82101648978329
 20
-1856.3518661239302
 42
-0.0251017527861716
 10
424.10499819042451
 20
-1856.1188733781651
 10
424.106443667235
 20
-1856.1178041205885
 42
-0.0130868069041054
 10
424.40470431719558
 20
-1855.9090236520435
 10
424.40626613633935
 20
-1855.9079902117678
 42
-0.0290329526389485
 10
424.7173772777316
 20
-1855.7271647101393
 10
424.74722283971954
 20
-1855.7120623272988
 42
-0.016025019004882
 10
425.01312725348231
 20
-1855.5880462170862
 42
-0.026760037477956
 10
425.28840333095178
 20
-1855.4872978965375
 10
425.31513925047193
 20
-1855.4791053377121
 42
-0.0049981587669984
 10
425.3703123957589
 20
-1855.4628001373997
 42
-0.0049981587669984
  0
LWPOLYLINE
  5
4B
100
AcDbEntity
  8
0
370
              15
390
0
  6
Continuous
 62
               7
100
AcDbPolyline
 90
      118
 70
             128
 10
445.18467996020581
 20
-1864.5391853752869
 10
447.05980188470528
 20
-1864.5391853752869
 10
446.22176297910539
 20
-1867.220751901687
 42
-0.0010587229251664
 10
446.25321879465127
 20
-1867.1838473683622
 10
446.31141288530927
 20
-1867.1158651121559
 42
-0.0071874740396717
 10
446.46178810341843
 20
-1866.9452244201145
 10
446.60351087666959
 20
-1866.7889882788136
 42
-0.0148118053509428
 10
447.05364016938569
 20
-1866.3213744327973
 10
447.14086250429108
 20
-1866.2359771119402
 42
-0.008627335868995
 10
447.47641130529252
 20
-1865.9186014779307
 10
447.52024502150675
 20
-1865.8785518336083
 42
-0.0103138323114958
 10
447.77826872375192
 20
-1865.6523886962593
 10
447.8240431300926
 20
-1865.6139066489877
 42
-0.0060206748560504
 10
447.99689119419122
 20
-1865.4721119982446
 10
447.99892232508398
 20
-1865.4704862926078
 42
-0.0067069027283007
 10
448.17121513973967
 20
-1865.3363356588184
 10
448.17376390567085
 20
-1865.3344054889392
 42
-0.0076184352042619
 10
448.34466917153702
 20
-1865.2090306136993
 42
-0.0089652861677517
 10
448.51963013425905
 20
-1865.089397353375
 10
448.55598185441761
 20
-1865.0654861398832
 42
-0.0156916245937155
 10
448.75194135157659
 20
-1864.9452236534094
 42
-0.002329901105364
 10
448.95220339559489
 20
-1864.832045713847
 10
448.9675875279363
 20
-1864.8234457188039
 42
-0.0107669341493138
 10
449.20182435302803
 20
-1864.6990455854593
 10
449.22408915411251
 20
-1864.6878288355044
 42
-0.0078058045893569
 10
449.50767927207141
 20
-1864.550467379863
 10
449.51758635977438
 20
-1864.5458582519975
 42
-0.0181829330471624
 10
449.82789576438978
 20
-1864.414994510902
 10
449.88195120695508
 20
-1864.3944793909591
 42
-0.0208411536029591
 10
450.231036174407
 20
-1864.2783889284651
 10
450.245392274533
 20
-1864.2742704835121
 42
-0.0222799817136456
 10
450.57411206845171
 20
-1864.1956289173713
 10
450.58300103168915
 20
-1864.1939169067862
 42
-0.0215509523883455
 10
450.89947199996851
 20
-1864.1470012182522
 10
450.94195396101446
 20
-1864.1425636914616
 42
-0.0182545924877027
 10
451.17606274032272
 20
-1864.1267198660703
 10
451.21546375667475
 20
-1864.1254953209909
 42
-0.0072962856530234
 10
451.37138663635966
 20
-1864.1229259924689
 10
451.40048630691751
 20
-1864.1228711570652
 42
-0.0059227516316508
 10
451.49823580607665
 20
-1864.1238448688555
 10
451.52747802359562
 20
-1864.1244826354598
 42
-0.001183311187875
 10
451.56672930728098
 20
-1864.125431639769
 10
450.77134271167381
 20
-1866.664165584868
 42
0.0143932051528756
 10
450.74494132932443
 20
-1866.653966614823
 10
450.73766935690594
 20
-1866.6513953959652
 42
0.0234388603513331
 10
450.69583849097171
 20
-1866.6387761602496
 10
450.68715682806112
 20
-1866.636595198245
 42
0.0199162742968507
 10
450.62686799398176
 20
-1866.6239784629099
 10
450.60605405617491
 20
-1866.6204812634815
 42
0.0293643550674999
 10
450.50297919741382
 20
-1866.6093312178282
 10
450.47829401669543
 20
-1866.6081196008097
 42
0.0214606686869272
 10
450.32515310074677
 20
-1866.6071810403923
 10
450.31578118992502
 20
-1866.6075259519366
 42
0.0167564054181957
 10
450.1442609988178
 20
-1866.6196029943044
 10
450.13580120605758
 20
-1866.6204843347318
 42
0.013767755324531
 10
449.94844789279119
 20
-1866.6452336432753
 10
449.94109615328506
 20
-1866.6464115632432
 42
0.0118497261479277
 10
449.74059838918811
 20
-1866.6834289134313
 10
449.73444838193649
 20
-1866.6847157761524
 42
0.01064211438957
 10
449.52356749464343
 20
-1866.7335481517293
 10
449.51865868626237
 20
-1866.7347954944123
 42
0.0099746379703259
 10
449.30020021709902
 20
-1866.7949700227273
 10
449.23865217692963
 20
-1866.8132519013577
 42
0.0191613675861756
 10
448.90266771441298
 20
-1866.9272292816452
 10
448.81460794167214
 20
-1866.9609161919675
 42
0.0205274080144223
 10
448.42930116976794
 20
-1867.1267445997953
 10
448.37165188778442
 20
-1867.1544125643684
 42
0.0181256912195209
 10
448.11337494711893
 20
-1867.2900963833454
 10
448.06041956380807
 20
-1867.3204139965583
 42
0.0140709242402893
 10
447.9154646291766
 20
-1867.4089086699946
 10
447.88921576055611
 20
-1867.4259654887114
 42
0.0086667884399263
 10
447.80028959901557
 20
-1867.4859681565929
 42
0.0036408192009848
 10
447.71285636101902
 20
-1867.5481490143586
 10
447.67762948651358
 20
-1867.573589960298
 42
0.005226078128333
 10
447.52140078909508
 20
-1867.6889223469529
 10
447.50519393286294
 20
-1867.7011504575503
 42
0.0050024435888175
 10
447.31919058980867
 20
-1867.8444330258089
 10
447.30387243328892
 20
-1867.8564790482583
 42
0.0136138710270665
 10
447.09343116496945
 20
-1868.0314455531666
 10
447.05976328917001
 20
-1868.0610245258858
 42
0.0172815186910806
 10
446.79535974751121
 20
-1868.3100211985056
 10
446.79279740166493
 20
-1868.3126070156563
 42
0.0189403857987918
 10
446.54221560308753
 20
-1868.5854122804587
 10
446.50958410954917
 20
-1868.6237562119586
 42
0.0185044199505839
 10
446.31762767056978
 20
-1868.8670047930809
 42
0.0088565243903998
 10
446.13916756393712
 20
-1869.1205212132372
 10
446.12998958429284
 20
-1869.1340625929909
 42
0.0157195347227759
 10
445.94676897795944
 20
-1869.4235848023056
 10
445.90068603603351
 20
-1869.5017369993179
 42
0.0095451879783073
 10
445.73560048589025
 20
-1869.794331641684
 10
445.7244525669617
 20
-1869.8150023138139
 42
0.010035170625716
 10
445.5924088178013
 20
-1870.0720578743067
 42
0.0086935915423496
 10
445.47007766600433
 20
-1870.3338910197178
 10
445.4667569245928
 20
-1870.3413333426829
 42
0.0072580174865636
 10
445.34641047265103
 20
-1870.6219253342583
 10
445.3431488393415
 20
-1870.629845360284
 42
0.0060005122616218
 10
445.22394817099433
 20
-1870.9294550309007
 10
445.22073719265723
 20
-1870.9378165587937
 42
0.0049017786975911
 10
445.10183703379931
 20
-1871.2567455393994
 10
445.09867122740934
 20
-1871.2654984766286
 42
0.0039415167600998
 10
444.97923494935344
 20
-1871.6040405390395
 10
444.97610384670048
 20
-1871.6131437399179
 42
0.0031035838761029
 10
444.85529906101021
 20
-1871.9715836016828
 10
444.85218901647704
 20
-1871.9810042230661
 42
0.002507074715257
 10
444.72928766515372
 20
-1872.3596514400349
 10
444.69199376873627
 20
-1872.4765431052631
 42
0.0029081910284811
 10
444.4999754709263
 20
-1873.0907067635517
 10
444.45917230240843
 20
-1873.2239300058307
 42
0.0009266453734736
 10
444.19075492809475
 20
-1874.1061544657507
 10
444.16986745544654
 20
-1874.1752663450116
 42
-0.0005809993666427
 10
443.89253077486194
 20
-1875.0890744516291
 10
443.82624897659366
 20
-1875.3065593837734
 42
-0.0012018708169476
 10
443.67926466715977
 20
-1875.7847220483095
 10
443.62694481554132
 20
-1875.9534811893459
 42
-0.0002691059612581
 10
443.58337533442568
 20
-1876.0937488095171
 10
440.75041943613644
 20
-1885.1829034118168
 10
438.93243054415791
 20
-1885.1829034118168
 10
445.18467996020581
 20
-1864.5391853752869
  0
SPLINE
  5
4C
100
AcDbEntity
  8
0
370
              15
390
0
  6
Continuous
 62
               7
100
AcDbSpline
210
0.0
220
0.0
230
1.0
 70
              13
 71
               2
 72
             782
 73
             779
 74
               0
 42
0.000001
 43
0.000001
 40
0.0
 40
0.0
 40
0.0
 40
1.0
 40
1.0
 40
2.0
 40
2.0
 40
3.0
 40
3.0
 40
4.0
 40
4.0
 40
5.0
 40
5.0
 40
6.0
 40
6.0
 40
7.0
 40
7.0
 40
8.0
 40
8.0
 40
9.0
 40
9.0
 40
10.0
 40
10.0
 40
11.0
 40
11.0
 40
12.0
 40
12.0
 40
13.0
 40
13.0
 40
14.0
 40
14.0
 40
15.0
 40
15.0
 40
16.0
 40
16.0
 40
17.0
 40
17.0
 40
18.0
 40
18.0
 40
19.0
 40
19.0
 40
20.0
 40
20.0
 40
21.0
 40
21.0
 40
22.0
 40
22.0
 40
23.0
 40
23.0
 40
24.0
 40
24.0
 40
25.0
 40
25.0
 40
26.0
 40
26.0
 40
27.0
 40
27.0
 40
28.0
 40
28.0
 40
29.0
 40
29.0
 40
30.0
 40
30.0
 40
31.0
 40
31.0
 40
32.0
 40
32.0
 40
33.0
 40
33.0
 40
34.0
 40
34.0
 40
35.0
 40
35.0
 40
36.0
 40
36.0
 40
37.0
 40
37.0
 40
38.0
 40
38.0
 40
39.0
 40
39.0
 40
40.0
 40
40.0
 40
41.0
 40
41.0
 40
42.0
 40
42.0
 40
43.0
 40
43.0
 40
44.0
 40
44.0
 40
45.0
 40
45.0
 40
46.0
 40
46.0
 40
47.0
 40
47.0
 40
48.0
 40
48.0
 40
49.0
 40
49.0
 40
50.0
 40
50.0
 40
51.0
 40
51.0
 40
52.0
 40
52.0
 40
53.0
 40
53.0
 40
54.0
 40
54.0
 40
55.0
 40
55.0
 40
56.0
 40
56.0
 40
57.0
 40
57.0
 40
58.0
 40
58.0
 40
59.0
 40
59.0
 40
60.0
 40
60.0
 40
61.0
 40
61.0
 40
62.0
 40
62.0
 40
63.0
 40
63.0
 40
64.0
 40
64.0
 40
65.0
 40
65.0
 40
66.0
 40
66.0
 40
67.0
 40
67.0
 40
68.0
 40
68.0
 40
69.0
 40
69.0
 40
70.0
 40
70.0
 40
71.0
 40
71.0
 40
72.0
 40
72.0
 40
73.0
 40
73.0
 40
74.0
 40
74.0
 40
75.0
 40
75.0
 40
76.0
 40
76.0
 40
77.0
 40
77.0
 40
78.0
 40
78.0
 40
79.0
 40
79.0
 40
80.0
 40
80.0
 40
81.0
 40
81.0
 40
82.0
 40
82.0
 40
83.0
 40
83.0
 40
84.0
 40
84.0
 40
85.0
 40
85.0
 40
86.0
 40
86.0
 40
87.0
 40
87.0
 40
88.0
 40
88.0
 40
89.0
 40
89.0
 40
90.0
 40
90.0
 40
91.0
 40
91.0
 40
92.0
 40
92.0
 40
93.0
 40
93.0
 40
94.0
 40
94.0
 40
95.0
 40
95.0
 40
96.0
 40
96.0
 40
97.0
 40
97.0
 40
98.0
 40
98.0
 40
99.0
 40
99.0
 40
100.0
 40
100.0
 40
101.0
 40
101.0
 40
102.0
 40
102.0
 40
103.0
 40
103.0
 40
104.0
 40
104.0
 40
105.0
 40
105.0
 40
106.0
 40
106.0
 40
107.0
 40
107.0
 40
108.0
 40
108.0
 40
109.0
 40
109.0
 40
110.0
 40
110.0
 40
111.0
 40
111.0
 40
112.0
 40
112.0
 40
113.0
 40
113.0
 40
114.0
 40
114.0
 40
115.0
 40
115.0
 40
116.0
 40
116.0
 40
117.0
 40
117.0
 40
118.0
 40
118.0
 40
119.0
 40
119.0
 40
120.0
 40
120.0
 40
121.0
 40
121.0
 40
122.0
 40
122.0
 40
123.0
 40
123.0
 40
124.0
 40
124.0
 40
125.0
 40
125.0
 40
126.0
 40
126.0
 40
127.0
 40
127.0
 40
128.0
 40
128.0
 40
129.0
 40
129.0
 40
130.0
 40
130.0
 40
131.0
 40
131.0
 40
132.0
 40
132.0
 40
133.0
 40
133.0
 40
134.0
 40
134.0
 40
135.0
 40
135.0
 40
136.0
 40
136.0
 40
137.0
 40
137.0
 40
138.0
 40
138.0
 40
139.0
 40
139.0
 40
140.0
 40
140.0
 40
141.0
 40
141.0
 40
142.0
 40
142.0
 40
143.0
 40
143.0
 40
144.0
 40
144.0
 40
145.0
 40
145.0
 40
146.0
 40
146.0
 40
147.0
 40
147.0
 40
148.0
 40
148.0
 40
149.0
 40
149.0
 40
150.0
 40
150.0
 40
151.0
 40
151.0
 40
152.0
 40
152.0
 40
153.0
 40
153.0
 40
154.0
 40
154.0
 40
155.0
 40
155.0
 40
156.0
 40
156.0
 40
157.0
 40
157.0
 40
158.0
 40
158.0
 40
159.0
 40
159.0
 40
160.0
 40
160.0
 40
161.0
 40
161.0
 40
162.0
 40
162.0
 40
163.0
 40
163.0
 40
164.0
 40
164.0
 40
165.0
 40
165.0
 40
166.0
 40
166.0
 40
167.0
 40
167.0
 40
168.0
 40
168.0
 40
169.0
 40
169.0
 40
170.0
 40
170.0
 40
171.0
 40
171.0
 40
172.0
 40
172.0
 40
173.0
 40
173.0
 40
174.0
 40
174.0
 40
175.0
 40
175.0
 40
176.0
 40
176.0
 40
177.0
 40
177.0
 40
178.0
 40
178.0
 40
179.0
 40
179.0
 40
180.0
 40
180.0
 40
181.0
 40
181.0
 40
182.0
 40
182.0
 40
183.0
 40
183.0
 40
184.0
 40
184.0
 40
185.0
 40
185.0
 40
186.0
 40
186.0
 40
187.0
 40
187.0
 40
188.0
 40
188.0
 40
189.0
 40
189.0
 40
190.0
 40
190.0
 40
191.0
 40
191.0
 40
192.0
 40
192.0
 40
193.0
 40
193.0
 40
194.0
 40
194.0
 40
195.0
 40
195.0
 40
196.0
 40
196.0
 40
197.0
 40
197.0
 40
198.0
 40
198.0
 40
199.0
 40
199.0
 40
200.0
 40
200.0
 40
201.0
 40
201.0
 40
202.0
 40
202.0
 40
203.0
 40
203.0
 40
204.0
 40
204.0
 40
205.0
 40
205.0
 40
206.0
 40
206.0
 40
207.0
 40
207.0
 40
208.0
 40
208.0
 40
209.0
 40
209.0
 40
210.0
 40
210.0
 40
211.0
 40
211.0
 40
212.0
 40
212.0
 40
213.0
 40
213.0
 40
214.0
 40
214.0
 40
215.0
 40
215.0
 40
216.0
 40
216.0
 40
217.0
 40
217.0
 40
218.0
 40
218.0
 40
219.0
 40
219.0
 40
220.0
 40
220.0
 40
221.0
 40
221.0
 40
222.0
 40
222.0
 40
223.0
 40
223.0
 40
224.0
 40
224.0
 40
225.0
 40
225.0
 40
226.0
 40
226.0
 40
227.0
 40
227.0
 40
228.0
 40
228.0
 40
229.0
 40
229.0
 40
230.0
 40
230.0
 40
231.0
 40
231.0
 40
232.0
 40
232.0
 40
233.0
 40
233.0
 40
234.0
 40
234.0
 40
235.0
 40
235.0
 40
236.0
 40
236.0
 40
237.0
 40
237.0
 40
238.0
 40
238.0
 40
239.0
 40
239.0
 40
240.0
 40
240.0
 40
241.0
 40
241.0
 40
242.0
 40
242.0
 40
243.0
 40
243.0
 40
244.0
 40
244.0
 40
245.0
 40
245.0
 40
246.0
 40
246.0
 40
247.0
 40
247.0
 40
248.0
 40
248.0
 40
249.0
 40
249.0
 40
250.0
 40
250.0
 40
251.0
 40
251.0
 40
252.0
 40
252.0
 40
253.0
 40
253.0
 40
254.0
 40
254.0
 40
255.0
 40
255.0
 40
256.0
 40
256.0
 40
257.0
 40
257.0
 40
258.0
 40
258.0
 40
259.0
 40
259.0
 40
260.0
 40
260.0
 40
261.0
 40
261.0
 40
262.0
 40
262.0
 40
263.0
 40
263.0
 40
264.0
 40
264.0
 40
265.0
 40
265.0
 40
266.0
 40
266.0
 40
267.0
 40
267.0
 40
268.0
 40
268.0
 40
269.0
 40
269.0
 40
270.0
 40
270.0
 40
271.0
 40
271.0
 40
272.0
 40
272.0
 40
273.0
 40
273.0
 40
274.0
 40
274.0
 40
275.0
 40
275.0
 40
276.0
 40
276.0
 40
277.0
 40
277.0
 40
278.0
 40
278.0
 40
279.0
 40
279.0
 40
280.0
 40
280.0
 40
281.0
 40
281.0
 40
282.0
 40
282.0
 40
283.0
 40
283.0
 40
284.0
 40
284.0
 40
285.0
 40
285.0
 40
286.0
 40
286.0
 40
287.0
 40
287.0
 40
288.0
 40
288.0
 40
289.0
 40
289.0
 40
290.0
 40
290.0
 40
291.0
 40
291.0
 40
292.0
 40
292.0
 40
293.0
 40
293.0
 40
294.0
 40
294.0
 40
295.0
 40
295.0
 40
296.0
 40
296.0
 40
297.0
 40
297.0
 40
298.0
 40
298.0
 40
299.0
 40
299.0
 40
300.0
 40
300.0
 40
301.0
 40
301.0
 40
302.0
 40
302.0
 40
303.0
 40
303.0
 40
304.0
 40
304.0
 40
305.0
 40
305.0
 40
306.0
 40
306.0
 40
307.0
 40
307.0
 40
308.0
 40
308.0
 40
309.0
 40
309.0
 40
310.0
 40
310.0
 40
311.0
 40
311.0
 40
312.0
 40
312.0
 40
313.0
 40
313.0
 40
314.0
 40
314.0
 40
315.0
 40
315.0
 40
316.0
 40
316.0
 40
317.0
 40
317.0
 40
318.0
 40
318.0
 40
319.0
 40
319.0
 40
320.0
 40
320.0
 40
321.0
 40
321.0
 40
322.0
 40
322.0
 40
323.0
 40
323.0
 40
324.0
 40
324.0
 40
325.0
 40
325.0
 40
326.0
 40
326.0
 40
327.0
 40
327.0
 40
328.0
 40
328.0
 40
329.0
 40
329.0
 40
330.0
 40
330.0
 40
331.0
 40
331.0
 40
332.0
 40
332.0
 40
333.0
 40
333.0
 40
334.0
 40
334.0
 40
335.0
 40
335.0
 40
336.0
 40
336.0
 40
337.0
 40
337.0
 40
338.0
 40
338.0
 40
339.0
 40
339.0
 40
340.0
 40
340.0
 40
341.0
 40
341.0
 40
342.0
 40
342.0
 40
343.0
 40
343.0
 40
344.0
 40
344.0
 40
345.0
 40
345.0
 40
346.0
 40
346.0
 40
347.0
 40
347.0
 40
348.0
 40
348.0
 40
349.0
 40
349.0
 40
350.0
 40
350.0
 40
351.0
 40
351.0
 40
352.0
 40
352.0
 40
353.0
 40
353.0
 40
354.0
 40
354.0
 40
355.0
 40
355.0
 40
356.0
 40
356.0
 40
357.0
 40
357.0
 40
358.0
 40
358.0
 40
359.0
 40
359.0
 40
360.0
 40
360.0
 40
361.0
 40
361.0
 40
362.0
 40
362.0
 40
363.0
 40
363.0
 40
364.0
 40
364.0
 40
365.0
 40
365.0
 40
366.0
 40
366.0
 40
367.0
 40
367.0
 40
368.0
 40
368.0
 40
369.0
 40
369.0
 40
370.0
 40
370.0
 40
371.0
 40
371.0
 40
372.0
 40
372.0
 40
373.0
 40
373.0
 40
374.0
 40
374.0
 40
375.0
 40
375.0
 40
376.0
 40
376.0
 40
377.0
 40
377.0
 40
378.0
 40
378.0
 40
379.0
 40
379.0
 40
380.0
 40
380.0
 40
381.0
 40
381.0
 40
382.0
 40
382.0
 40
383.0
 40
383.0
 40
384.0
 40
384.0
 40
385.0
 40
385.0
 40
386.0
 40
386.0
 40
387.0
 40
387.0
 40
388.0
 40
388.0
 40
389.0
 40
389.0
 40
389.0
 10
455.51338441093844
 20
-1864.5282590119245
 30
0.0
 41
1.0
 10
456.33180851965892
 20
-1864.5282590119245
 30
0.0
 41
1.0
 10
457.1502326283794
 20
-1864.5282590119245
 30
0.0
 41
1.0
 10
456.73647889286264
 20
-1865.8708852761742
 30
0.0
 41
1.0
 10
456.32272515734587
 20
-1867.213511540424
 30
0.0
 41
1.0
 10
456.34106465249278
 20
-1867.1848107675451
 30
0.0
 41
0.9999957264393555
 10
456.35957164932097
 20
-1867.1562177173982
 30
0.0
 41
1.0
 10
456.39000097347002
 20
-1867.1092048390042
 30
0.0
 41
1.0
 10
456.42043029761913
 20
-1867.0621919606101
 30
0.0
 41
1.0
 10
456.49979594272554
 20
-1866.9395731537065
 30
0.0
 41
0.9995394069081852
 10
456.58645433427921
 20
-1866.8219950919622
 30
0.0
 41
1.0
 10
456.62221119653805
 20
-1866.7734801993702
 30
0.0
 41
1.0
 10
456.65796805879683
 20
-1866.7249653067779
 30
0.0
 41
1.0
 10
456.79169472661437
 20
-1866.5435250316518
 30
0.0
 41
0.9994460617143204
 10
456.93719520790285
 20
-1866.3713826340017
 30
0.0
 41
1.0
 10
456.9415833888761
 20
-1866.3661909536213
 30
0.0
 41
1.0
 10
456.94597156984941
 20
-1866.3609992732406
 30
0.0
 41
1.0
 10
457.08269568918985
 20
-1866.199240236353
 30
0.0
 41
0.9994359394933927
 10
457.22996991954216
 20
-1866.0470240351874
 30
0.0
 41
1.0
 10
457.23235327349738
 20
-1866.0445607048123
 30
0.0
 41
1.0
 10
457.23473662745261
 20
-1866.0420973744372
 30
0.0
 41
1.0
 10
457.37724414989464
 20
-1865.8948078340218
 30
0.0
 41
0.9995293688568016
 10
457.52851583087579
 20
-1865.7565346218585
 30
0.0
 41
1.0
 10
457.54780959014033
 20
-1865.7388987362062
 30
0.0
 41
1.0
 10
457.56710334940482
 20
-1865.721262850554
 30
0.0
 41
1.0
 10
457.67978751186007
 20
-1865.6182614096929
 30
0.0
 41
0.999708761480356
 10
457.79731040081293
 20
-1865.5208171288966
 30
0.0
 41
1.0
 10
457.81647647398631
 20
-1865.5049255503905
 30
0.0
 41
1.0
 10
457.83564254715964
 20
-1865.4890339718843
 30
0.0
 41
1.0
 10
457.91483328976756
 20
-1865.423372848099
 30
0.0
 41
0.9999595338700196
 10
457.99519256062314
 20
-1865.3591471174436
 30
0.0
 41
1.0
 10
458.07555183147031
 20
-1865.2949213867951
 30
0.0
 41
0.999974941750972
 10
458.15681236580326
 20
-1865.2318398328568
 30
0.0
 41
1.0
 10
458.17779851197054
 20
-1865.2155485455514
 30
0.0
 41
1.0
 10
458.19878465813781
 20
-1865.199257258246
 30
0.0
 41
1.0
 10
458.28335254344256
 20
-1865.1336082484027
 30
0.0
 41
0.999979203712682
 10
458.36876014322416
 20
-1865.0690554667499
 30
0.0
 41
1.0
 10
458.38958496917178
 20
-1865.0533156444649
 30
0.0
 41
1.0
 10
458.41040979511939
 20
-1865.0375758221799
 30
0.0
 41
1.0
 10
458.45416774301418
 20
-1865.0045026850908
 30
0.0
 41
0.9999993373918784
 10
458.49784942913686
 20
-1864.9713288896821
 30
0.0
 41
1.0
 10
458.54153111529035
 20
-1864.9381550942505
 30
0.0
 41
0.9999160953816496
 10
458.58605752621844
 20
-1864.9061240290462
 30
0.0
 41
1.0
 10
458.61887941362852
 20
-1864.8825128734682
 30
0.0
 41
1.0
 10
458.65170130103866
 20
-1864.8589017178901
 30
0.0
 41
1.0
 10
458.76187148679804
 20
-1864.7796483415216
 30
0.0
 41
0.9980964527231706
 10
458.88096048030008
 20
-1864.7145608686649
 30
0.0
 41
1.0
 10
458.91799308722636
 20
-1864.6943208890727
 30
0.0
 41
1.0
 10
458.95502569415271
 20
-1864.6740809094806
 30
0.0
 41
1.0
 10
459.1343527074261
 20
-1864.5760706587789
 30
0.0
 41
0.9984572810572358
 10
459.32344127378593
 20
-1864.4985483974324
 30
0.0
 41
1.0
 10
459.32708754318259
 20
-1864.4970535050941
 30
0.0
 41
1.0
 10
459.33073381257924
 20
-1864.4955586127558
 30
0.0
 41
1.0
 10
459.5125298401457
 20
-1864.4210261360856
 30
0.0
 41
0.9987838528034232
 10
459.70078249870409
 20
-1864.3647604959201
 30
0.0
 41
1.0
 10
459.70502044790175
 20
-1864.3634938422301
 30
0.0
 41
1.0
 10
459.7092583970994
 20
-1864.3622271885404
 30
0.0
 41
1.0
 10
459.88903515726224
 20
-1864.3084948557546
 30
0.0
 41
0.9990652816207165
 10
460.07278108897918
 20
-1864.2704911762123
 30
0.0
 41
1.0
 10
460.07796949001249
 20
-1864.2694180731055
 30
0.0
 41
1.0
 10
460.08315789104586
 20
-1864.2683449699985
 30
0.0
 41
1.0
 10
460.25652702069692
 20
-1864.23248749667
 30
0.0
 41
0.9992909934270551
 10
460.43210278715338
 20
-1864.2097770642038
 30
0.0
 41
1.0
 10
460.60767855361183
 20
-1864.1870666317373
 30
0.0
 41
0.9994553539448681
 10
460.78436998670509
 20
-1864.1759873275309
 30
0.0
 41
1.0
 10
460.81980439449939
 20
-1864.1737654394833
 30
0.0
 41
1.0
 10
460.85523880229368
 20
-1864.1715435514354
 30
0.0
 41
1.0
 10
461.02146456886425
 20
-1864.1611204890237
 30
0.0
 41
0.9990928098293161
 10
461.18797436076812
 20
-1864.1648801302581
 30
0.0
 41
1.0
 10
461.22653619604012
 20
-1864.1657508217911
 30
0.0
 41
1.0
 10
461.26509803131216
 20
-1864.1666215133241
 30
0.0
 41
1.0
 10
461.35448415267109
 20
-1864.1686397714927
 30
0.0
 41
0.9998382089205066
 10
461.443739835457
 20
-1864.1738718980209
 30
0.0
 41
1.0
 10
461.44416974167706
 20
-1864.1738970989231
 30
0.0
 41
1.0
 10
461.44459964789712
 20
-1864.1739222998256
 30
0.0
 41
1.0
 10
461.53299551824318
 20
-1864.1791040245489
 30
0.0
 41
0.9997558016757615
 10
461.62107609544398
 20
-1864.1881865399155
 30
0.0
 41
1.0
 10
461.6215522338739
 20
-1864.1882356373981
 30
0.0
 41
1.0
 10
461.62202837230382
 20
-1864.1882847348807
 30
0.0
 41
1.0
 10
461.70915667264489
 20
-1864.1972690552818
 30
0.0
 41
0.9996565144181364
 10
461.7956945259869
 20
-1864.2108063619708
 30
0.0
 41
1.0
 10
461.79616045136504
 20
-1864.2108792477022
 30
0.0
 41
1.0
 10
461.79662637674312
 20
-1864.2109521334337
 30
0.0
 41
1.0
 10
461.88223237932908
 20
-1864.2243436686599
 30
0.0
 41
0.9995321806867745
 10
461.96685945965692
 20
-1864.2429441570891
 30
0.0
 41
1.0
 10
461.96724865422948
 20
-1864.2430296995551
 30
0.0
 41
1.0
 10
461.96763784880199
 20
-1864.2431152420211
 30
0.0
 41
1.0
 10
462.05148653998538
 20
-1864.2615446455186
 30
0.0
 41
0.9993819199219487
 10
462.1338330741811
 20
-1864.2858200287792
 30
0.0
 41
1.0
 10
462.13407150767921
 20
-1864.2858903178885
 30
0.0
 41
1.0
 10
462.13430994117738
 20
-1864.2859606069981
 30
0.0
 41
1.0
 10
462.21617960837756
 20
-1864.3100954120398
 30
0.0
 41
0.9992088568504496
 10
462.29587212736556
 20
-1864.3406606478343
 30
0.0
 41
1.0
 10
462.37555311824457
 20
-1864.3712202485674
 30
0.0
 41
0.9990226101773151
 10
462.45222378815174
 20
-1864.4086976801818
 30
0.0
 41
1.0
 10
462.52888292994862
 20
-1864.4461694767344
 30
0.0
 41
0.9988424273971653
 10
462.60158655715918
 20
-1864.4908342519866
 30
0.0
 41
1.0
 10
462.60185426554
 20
-1864.4909987160597
 30
0.0
 41
1.0
 10
462.60212197392082
 20
-1864.4911631801328
 30
0.0
 41
1.0
 10
462.67536101789182
 20
-1864.5361568835301
 30
0.0
 41
0.9986928844490997
 10
462.74362388460196
 20
-1864.5883926178101
 30
0.0
 41
1.0
 10
462.74420517682449
 20
-1864.588837431038
 30
0.0
 41
1.0
 10
462.74478646904703
 20
-1864.5892822442656
 30
0.0
 41
1.0
 10
462.81421192020309
 20
-1864.6424076050016
 30
0.0
 41
0.9986007262277978
 10
462.87763808996925
 20
-1864.7025683746947
 30
0.0
 41
1.0
 10
462.87853250542639
 20
-1864.7034167425297
 30
0.0
 41
1.0
 10
462.87942692088347
 20
-1864.7042651103648
 30
0.0
 41
1.0
 10
462.94464192156477
 20
-1864.7661226157286
 30
0.0
 41
0.9985581491381388
 10
463.00284953326684
 20
-1864.8346151060007
 30
0.0
 41
1.0
 10
463.01210798686236
 20
-1864.845509463702
 30
0.0
 41
1.0
 10
463.02136644045794
 20
-1864.8564038214035
 30
0.0
 41
1.0
 10
463.09809095935054
 20
-1864.9466850270774
 30
0.0
 41
0.9970460233519812
 10
463.16008286051016
 20
-1865.0476521112594
 30
0.0
 41
1.0
 10
463.17455222559045
 20
-1865.0712185703419
 30
0.0
 41
1.0
 10
463.18902159067068
 20
-1865.0947850294242
 30
0.0
 41
1.0
 10
463.22875829068232
 20
-1865.1595047534552
 30
0.0
 41
0.9988468816636861
 10
463.26210466143345
 20
-1865.227737205882
 30
0.0
 41
1.0
 10
463.26914068392432
 20
-1865.2421341270183
 30
0.0
 41
1.0
 10
463.27617670641524
 20
-1865.2565310481546
 30
0.0
 41
1.0
 10
463.2954510321855
 20
-1865.2959696583109
 30
0.0
 41
0.9998431189998553
 10
463.31331635967996
 20
-1865.3360662127504
 30
0.0
 41
1.0
 10
463.33118168716658
 20
-1865.3761627671722
 30
0.0
 41
0.9999989989753052
 10
463.34916041059807
 20
-1865.4162086047777
 30
0.0
 41
1.0
 10
463.35533272219175
 20
-1865.429956821589
 30
0.0
 41
1.0
 10
463.36150503378542
 20
-1865.4437050384004
 30
0.0
 41
1.0
 10
463.39182838039665
 20
-1865.5112473096115
 30
0.0
 41
0.9998790356323964
 10
463.42003626053446
 20
-1865.579700061548
 30
0.0
 41
1.0
 10
463.42687144181855
 20
-1865.5962871629749
 30
0.0
 41
1.0
 10
463.43370662310264
 20
-1865.6128742644019
 30
0.0
 41
1.0
 10
463.45726428548335
 20
-1865.6700422192882
 30
0.0
 41
0.9998227574561084
 10
463.47865303387209
 20
-1865.7280565275641
 30
0.0
 41
1.0
 10
463.50004178226141
 20
-1865.7860708358419
 30
0.0
 41
0.9996797971042388
 10
463.51846806722085
 20
-1865.8450929549606
 30
0.0
 41
1.0
 10
463.52237186994626
 20
-1865.857597413129
 30
0.0
 41
1.0
 10
463.52627567267172
 20
-1865.8701018712977
 30
0.0
 41
1.0
 10
463.5525095630822
 20
-1865.954132906754
 30
0.0
 41
0.99792749387338
 10
463.56773408656113
 20
-1866.0408372654138
 30
0.0
 41
1.0
 10
463.56995777382241
 20
-1866.0535012662353
 30
0.0
 41
1.0
 10
463.57218146108369
 20
-1866.0661652670572
 30
0.0
 41
1.0
 10
463.58311140078206
 20
-1866.128411774348
 30
0.0
 41
0.9994985982137378
 10
463.59007956595877
 20
-1866.1912252754887
 30
0.0
 41
1.0
 10
463.5970477311356
 20
-1866.2540387766298
 30
0.0
 41
0.9996372611200954
 10
463.6006235969034
 20
-1866.317136355312
 30
0.0
 41
1.0
 10
463.60079217439272
 20
-1866.3201109723946
 30
0.0
 41
1.0
 10
463.6009607518821
 20
-1866.3230855894772
 30
0.0
 41
1.0
 10
463.60487377262842
 20
-1866.3921324023213
 30
0.0
 41
0.9997730630735903
 10
463.60584208611658
 20
-1866.4612832263585
 30
0.0
 41
1.0
 10
463.60589919253471
 20
-1866.4653614054998
 30
0.0
 41
1.0
 10
463.60595629895278
 20
-1866.4694395846411
 30
0.0
 41
1.0
 10
463.60703882527696
 20
-1866.5467467669623
 30
0.0
 41
0.9998772614071688
 10
463.6056987385453
 20
-1866.6240499135226
 30
0.0
 41
1.0
 10
463.60560947534657
 20
-1866.629199077358
 30
0.0
 41
1.0
 10
463.60552021214784
 20
-1866.6343482411933
 30
0.0
 41
1.0
 10
463.60400159901889
 20
-1866.7219497154224
 30
0.0
 41
0.9999415567329685
 10
463.60058928877271
 20
-1866.8094978771021
 30
0.0
 41
1.0
 10
463.60034796809737
 20
-1866.8156893368396
 30
0.0
 41
1.0
 10
463.60010664742202
 20
-1866.8218807965773
 30
0.0
 41
1.0
 10
463.59621169582567
 20
-1866.9218118777226
 30
0.0
 41
0.999971681042806
 10
463.590813112707
 20
-1867.0216730159525
 30
0.0
 41
1.0
 10
463.58760031391813
 20
-1867.0811022656117
 30
0.0
 41
1.0
 10
463.58438751512927
 20
-1867.1405315152708
 30
0.0
 41
1.0
 10
463.57631360597708
 20
-1867.2898799165464
 30
0.0
 41
0.9999819129905532
 10
463.56644381436007
 20
-1867.4391203942628
 30
0.0
 41
1.0
 10
463.55657402274346
 20
-1867.5883608719741
 30
0.0
 41
1.0
 10
463.55413470217957
 20
-1867.6255539178235
 30
0.0
 41
1.0
 10
463.57683293600718
 20
-1867.5868129204996
 30
0.0
 41
0.9999982128142312
 10
463.59967749474163
 20
-1867.5481580265773
 30
0.0
 41
1.0
 10
463.62658705463866
 20
-1867.5026248125014
 30
0.0
 41
1.0
 10
463.6534966145357
 20
-1867.4570915984254
 30
0.0
 41
1.0
 10
463.73016029306211
 20
-1867.3273702763547
 30
0.0
 41
0.9998609190058739
 10
463.8111076059289
 20
-1867.2002778944177
 30
0.0
 41
1.0
 10
463.84075592741317
 20
-1867.1537281614565
 30
0.0
 41
1.0
 10
463.87040424889744
 20
-1867.1071784284952
 30
0.0
 41
1.0
 10
463.95267646913095
 20
-1866.9780058585063
 30
0.0
 41
0.999906760973169
 10
464.0384454785879
 20
-1866.8511281690758
 30
0.0
 41
1.0
 10
464.04085018178966
 20
-1866.8475709030197
 30
0.0
 41
1.0
 10
464.04325488499137
 20
-1866.8440136369636
 30
0.0
 41
1.0
 10
464.12421448805037
 20
-1866.7242504796366
 30
0.0
 41
0.999878495215067
 10
464.20886809773333
 20
-1866.6070692629255
 30
0.0
 41
1.0
 10
464.29352170741697
 20
-1866.489888046214
 30
0.0
 41
0.9998532968283045
 10
464.3821393282384
 20
-1866.3756751377452
 30
0.0
 41
1.0
 10
464.40210111722809
 20
-1866.3499478167269
 30
0.0
 41
1.0
 10
464.42206290621777
 20
-1866.3242204957085
 30
0.0
 41
1.0
 10
464.54054695597785
 20
-1866.1715148847381
 30
0.0
 41
0.9991551975795204
 10
464.67117140560191
 20
-1866.0290553226541
 30
0.0
 41
1.0
 10
464.6746810215817
 20
-1866.0252277210298
 30
0.0
 41
1.0
 10
464.6781906375615
 20
-1866.0214001194054
 30
0.0
 41
1.0
 10
464.80179585522512
 20
-1865.8865957605708
 30
0.0
 41
0.9997418144180877
 10
464.93139799492604
 20
-1865.7575463499581
 30
0.0
 41
1.0
 10
465.06100013462765
 20
-1865.628496939345
 30
0.0
 41
0.9989238204633584
 10
465.20200268287948
 20
-1865.5120119773053
 30
0.0
 41
1.0
 10
465.24725036101688
 20
-1865.4746319856984
 30
0.0
 41
1.0
 10
465.29249803915422
 20
-1865.4372519940914
 30
0.0
 41
1.0
 10
465.43273809637742
 20
-1865.3213969407989
 30
0.0
 41
0.9990825084096461
 10
465.58237802898213
 20
-1865.2179679429655
 30
0.0
 41
1.0
 10
465.59242339304012
 20
-1865.2110247298851
 30
0.0
 41
1.0
 10
465.60246875709817
 20
-1865.204081516805
 30
0.0
 41
1.0
 10
465.73201796158651
 20
-1865.1145389451322
 30
0.0
 41
0.9998164899826701
 10
465.86490216496236
 20
-1865.0300247036162
 30
0.0
 41
1.0
 10
465.87674772549065
 20
-1865.0224909370891
 30
0.0
 41
1.0
 10
465.88859328601893
 20
-1865.014957170562
 30
0.0
 41
1.0
 10
465.99778636834191
 20
-1864.9455104620979
 30
0.0
 41
0.9997473449130969
 10
466.10999032558806
 20
-1864.881041504284
 30
0.0
 41
1.0
 10
466.22219428284058
 20
-1864.8165725464667
 30
0.0
 41
0.9999327861145375
 10
466.33586289361028
 20
-1864.7547225547817
 30
0.0
 41
1.0
 10
466.33641489616633
 20
-1864.7544221961052
 30
0.0
 41
1.0
 10
466.33696689872238
 20
-1864.7541218374286
 30
0.0
 41
1.0
 10
466.45173951460288
 20
-1864.6916711283909
 30
0.0
 41
0.9996956420482629
 10
466.56945284043962
 20
-1864.634957661418
 30
0.0
 41
1.0
 10
466.59989324533609
 20
-1864.620291684686
 30
0.0
 41
1.0
 10
466.63033365023256
 20
-1864.6056257079542
 30
0.0
 41
1.0
 10
466.73331075697592
 20
-1864.5560120495111
 30
0.0
 41
0.9998070570176746
 10
466.83815714591765
 20
-1864.5104814626097
 30
0.0
 41
1.0
 10
466.94300353485795
 20
-1864.4649508757088
 30
0.0
 41
0.9997827436148205
 10
467.04965647146696
 20
-1864.4238297043973
 30
0.0
 41
1.0
 10
467.06887932109908
 20
-1864.4164181307647
 30
0.0
 41
1.0
 10
467.08810217073125
 20
-1864.409006557132
 30
0.0
 41
1.0
 10
467.23320080660307
 20
-1864.3530622385556
 30
0.0
 41
0.9988031841976924
 10
467.38307116920674
 20
-1864.311562174388
 30
0.0
 41
1.0
 10
467.40798841756987
 20
-1864.3046624285812
 30
0.0
 41
1.0
 10
467.43290566593305
 20
-1864.2977626827742
 30
0.0
 41
1.0
 10
467.60017569158128
 20
-1864.2514445403672
 30
0.0
 41
0.9984748040550076
 10
467.77153260023124
 20
-1864.2238503081021
 30
0.0
 41
1.0
 10
467.77627173648148
 20
-1864.2230871475886
 30
0.0
 41
1.0
 10
467.78101087273177
 20
-1864.2223239870748
 30
0.0
 41
1.0
 10
467.94288950888148
 20
-1864.1962560758373
 30
0.0
 41
0.9984436495480233
 10
468.10666425260496
 20
-1864.1883781220185
 30
0.0
 41
1.0
 10
468.12836146073602
 20
-1864.1873344348189
 30
0.0
 41
1.0
 10
468.15005866886708
 20
-1864.1862907476193
 30
0.0
 41
1.0
 10
468.2704389963294
 20
-1864.1805001681998
 30
0.0
 41
0.9987954789335242
 10
468.39080724123949
 20
-1864.1865366959421
 30
0.0
 41
1.0
 10
468.41077203373277
 20
-1864.1875379402807
 30
0.0
 41
1.0
 10
468.430736826226
 20
-1864.1885391846192
 30
0.0
 41
1.0
 10
468.51117548614809
 20
-1864.1925732236843
 30
0.0
 41
0.9997941595878281
 10
468.59138426424374
 20
-1864.1998672896054
 30
0.0
 41
1.0
 10
468.6715930423365
 20
-1864.2071613555263
 30
0.0
 41
0.9998589466236135
 10
468.75151158919027
 20
-1864.2171452099763
 30
0.0
 41
1.0
 10
468.78391779099996
 20
-1864.2211935668956
 30
0.0
 41
1.0
 10
468.81632399280966
 20
-1864.225241923815
 30
0.0
 41
1.0
 10
468.96105494328077
 20
-1864.2433224921035
 30
0.0
 41
0.999349506324914
 10
469.104106187046
 20
-1864.2717882018451
 30
0.0
 41
1.0
 10
469.13703988419843
 20
-1864.27834166506
 30
0.0
 41
1.0
 10
469.16997358135086
 20
-1864.2848951282749
 30
0.0
 41
1.0
 10
469.27926740455541
 20
-1864.3066434624102
 30
0.0
 41
0.9996788715560896
 10
469.38731897651178
 20
-1864.3339012617732
 30
0.0
 41
1.0
 10
469.38938197905009
 20
-1864.3344216883461
 30
0.0
 41
1.0
 10
469.39144498158845
 20
-1864.3349421149187
 30
0.0
 41
1.0
 10
469.49537054846792
 20
-1864.3611590611363
 30
0.0
 41
0.9995480654492832
 10
469.5975327836976
 20
-1864.3935740177608
 30
0.0
 41
1.0
 10
469.59922242582729
 20
-1864.3941101226749
 30
0.0
 41
1.0
 10
469.60091206795693
 20
-1864.394646227589
 30
0.0
 41
1.0
 10
469.69969501892734
 20
-1864.4259889743853
 30
0.0
 41
0.9993867959456049
 10
469.7960421773696
 20
-1864.4641683436748
 30
0.0
 41
1.0
 10
469.79728512645568
 20
-1864.4646608855714
 30
0.0
 41
1.0
 10
469.79852807554181
 20
-1864.4651534274683
 30
0.0
 41
1.0
 10
469.89238933581322
 20
-1864.5023477129653
 30
0.0
 41
0.9992050256522193
 10
469.98298901084547
 20
-1864.5469016122033
 30
0.0
 41
1.0
 10
469.9837236935565
 20
-1864.5472629046635
 30
0.0
 41
1.0
 10
469.98445837626753
 20
-1864.5476241971235
 30
0.0
 41
1.0
 10
470.0735886858771
 20
-1864.5914555114409
 30
0.0
 41
0.9990222350741294
 10
470.15849874727252
 20
-1864.6429887791405
 30
0.0
 41
1.0
 10
470.15868263255652
 20
-1864.6431003820462
 30
0.0
 41
1.0
 10
470.15886651784058
 20
-1864.6432119849517
 30
0.0
 41
1.0
 10
470.24340880866714
 20
-1864.6945220468394
 30
0.0
 41
0.9988642743805275
 10
470.32268334328518
 20
-1864.7536462343639
 30
0.0
 41
1.0
 10
470.40195787790333
 20
-1864.8127704218884
 30
0.0
 41
0.9987681233310813
 10
470.47498166217838
 20
-1864.879461113288
 30
0.0
 41
1.0
 10
470.47531059014511
 20
-1864.8797615145031
 30
0.0
 41
1.0
 10
470.4756395181119
 20
-1864.8800619157182
 30
0.0
 41
1.0
 10
470.54932115831929
 20
-1864.9473534095471
 30
0.0
 41
0.9987496570898672
 10
470.61591496364542
 20
-1865.0216662236326
 30
0.0
 41
1.0
 10
470.61668713340657
 20
-1865.0225278969913
 30
0.0
 41
1.0
 10
470.61745930316778
 20
-1865.02338957035
 30
0.0
 41
1.0
 10
470.68559744801655
 20
-1865.0994257311534
 30
0.0
 41
0.9988147669827528
 10
470.74601970224188
 20
-1865.1817267379963
 30
0.0
 41
1.0
 10
470.74713902831911
 20
-1865.183251369348
 30
0.0
 41
1.0
 10
470.74825835439628
 20
-1865.1847760006999
 30
0.0
 41
1.0
 10
470.81091926077659
 20
-1865.2701262702471
 30
0.0
 41
0.9989452636216278
 10
470.86548617373796
 20
-1865.3608649594048
 30
0.0
 41
1.0
 10
470.86683489982369
 20
-1865.3631077404311
 30
0.0
 41
1.0
 10
470.86818362590941
 20
-1865.3653505214575
 30
0.0
 41
1.0
 10
470.92544799104297
 20
-1865.4605747726696
 30
0.0
 41
0.9991046436071408
 10
470.97445720436463
 20
-1865.5602992056947
 30
0.0
 41
1.0
 10
470.9759210659542
 20
-1865.5632778857664
 30
0.0
 41
1.0
 10
470.97738492754377
 20
-1865.5662565658381
 30
0.0
 41
1.0
 10
471.0293218640457
 20
-1865.6719383590096
 30
0.0
 41
0.999276383110135
 10
471.07307499260077
 20
-1865.781262420965
 30
0.0
 41
1.0
 10
471.07455426226397
 20
-1865.7849586084985
 30
0.0
 41
1.0
 10
471.07603353192718
 20
-1865.7886547960318
 30
0.0
 41
1.0
 10
471.12274519980934
 20
-1865.905371233056
 30
0.0
 41
0.9994163472883509
 10
471.16137823099882
 20
-1866.0250048215194
 30
0.0
 41
1.0
 10
471.16261638324534
 20
-1866.0288389653012
 30
0.0
 41
1.0
 10
471.16385453549179
 20
-1866.0326731090831
 30
0.0
 41
1.0
 10
471.2037380965096
 20
-1866.1561791705633
 30
0.0
 41
0.9997268055891565
 10
471.23780615242151
 20
-1866.2814142025136
 30
0.0
 41
1.0
 10
471.23873633269142
 20
-1866.2848335686235
 30
0.0
 41
1.0
 10
471.23966651296132
 20
-1866.2882529347337
 30
0.0
 41
1.0
 10
471.27187420833354
 20
-1866.4066492344641
 30
0.0
 41
0.9996701319000576
 10
471.29795982510399
 20
-1866.5265431877278
 30
0.0
 41
1.0
 10
471.32404544187426
 20
-1866.6464371409909
 30
0.0
 41
0.9995785451109837
 10
471.34312901921442
 20
-1866.7676429020239
 30
0.0
 41
1.0
 10
471.34734880138802
 20
-1866.7944440567881
 30
0.0
 41
1.0
 10
471.35156858356163
 20
-1866.8212452115524
 30
0.0
 41
1.0
 10
471.37814355950036
 20
-1866.9900311852559
 30
0.0
 41
0.997992510121632
 10
471.38316914542656
 20
-1867.1608225133475
 30
0.0
 41
1.0
 10
471.3839939578512
 20
-1867.1888532368293
 30
0.0
 41
1.0
 10
471.3848187702759
 20
-1867.216883960311
 30
0.0
 41
1.0
 10
471.388194731353
 20
-1867.3316138414384
 30
0.0
 41
0.9995314902262908
 10
471.3845445392144
 20
-1867.4463353251913
 30
0.0
 41
1.0
 10
471.38089434707621
 20
-1867.5610568089403
 30
0.0
 41
0.9996245486943842
 10
471.37096525194528
 20
-1867.6754060800645
 30
0.0
 41
1.0
 10
471.37080220395092
 20
-1867.677283836201
 30
0.0
 41
1.0
 10
471.37063915595655
 20
-1867.6791615923376
 30
0.0
 41
1.0
 10
471.36038396483713
 20
-1867.797266375733
 30
0.0
 41
0.9997286095001106
 10
471.3446386412657
 20
-1867.914765284627
 30
0.0
 41
1.0
 10
471.34424514861541
 20
-1867.9177017093289
 30
0.0
 41
1.0
 10
471.34385165596507
 20
-1867.9206381340305
 30
0.0
 41
1.0
 10
471.32731934709295
 20
-1868.0440098923284
 30
0.0
 41
0.9998265533969007
 10
471.30620388836104
 20
-1868.166680367113
 30
0.0
 41
1.0
 10
471.30552734622353
 20
-1868.1706107456225
 30
0.0
 41
1.0
 10
471.30485080408602
 20
-1868.1745411241322
 30
0.0
 41
1.0
 10
471.28238226107965
 20
-1868.3050723559325
 30
0.0
 41
0.9999022530854118
 10
471.25627279647165
 20
-1868.4349243245617
 30
0.0
 41
1.0
 10
471.25529415530502
 20
-1868.4397914669553
 30
0.0
 41
1.0
 10
471.2543155141384
 20
-1868.4446586093488
 30
0.0
 41
1.0
 10
471.22624876720027
 20
-1868.5842448627504
 30
0.0
 41
0.9999524761936707
 10
471.19546579836594
 20
-1868.7232573559131
 30
0.0
 41
1.0
 10
471.19418969118897
 20
-1868.7290201152223
 30
0.0
 41
1.0
 10
471.19291358401199
 20
-1868.7347828745314
 30
0.0
 41
1.0
 10
471.15957840082513
 20
-1868.8853208863056
 30
0.0
 41
0.9999813588717551
 10
471.12440740002751
 20
-1869.0354405989692
 30
0.0
 41
1.0
 10
471.12285347457248
 20
-1869.0420731893851
 30
0.0
 41
1.0
 10
471.12129954911745
 20
-1869.0487057798011
 30
0.0
 41
1.0
 10
471.08302069741416
 20
-1869.2120906732789
 30
0.0
 41
0.9999955237642735
 10
471.04376481942995
 20
-1869.3752435769004
 30
0.0
 41
1.0
 10
471.03148318379459
 20
-1869.4262877674273
 30
0.0
 41
1.0
 10
471.01920154815923
 20
-1869.4773319579544
 30
0.0
 41
1.0
 10
470.9553823989171
 20
-1869.7425732425779
 30
0.0
 41
0.9999993604673527
 10
470.89096345173471
 20
-1870.0076694933211
 30
0.0
 41
1.0
 10
470.88624461619133
 20
-1870.0270884013466
 30
0.0
 41
1.0
 10
470.88152578064796
 20
-1870.0465073093719
 30
0.0
 41
1.0
 10
470.80766916238434
 20
-1870.3504413761427
 30
0.0
 41
0.9999659914735211
 10
470.72880956649789
 20
-1870.6531159227065
 30
0.0
 41
1.0
 10
470.7238568775694
 20
-1870.6721250598807
 30
0.0
 41
1.0
 10
470.71890418864092
 20
-1870.6911341970549
 30
0.0
 41
1.0
 10
470.63013921489727
 20
-1871.0318270179682
 30
0.0
 41
0.9999441976025218
 10
470.53419618193311
 20
-1871.3705684432691
 30
0.0
 41
1.0
 10
470.51749566350702
 20
-1871.4295321557988
 30
0.0
 41
1.0
 10
470.50079514508099
 20
-1871.4884958683283
 30
0.0
 41
1.0
 10
470.37145107526499
 20
-1871.9451647186875
 30
0.0
 41
0.9999625120731565
 10
470.23421830794354
 20
-1872.3995252526768
 30
0.0
 41
1.0
 10
470.19842836486077
 20
-1872.518021279303
 30
0.0
 41
1.0
 10
470.16263842177807
 20
-1872.6365173059294
 30
0.0
 41
1.0
 10
470.08811821773577
 20
-1872.8832443840356
 30
0.0
 41
0.9999793386321716
 10
470.01043219459842
 20
-1873.1289930232711
 30
0.0
 41
1.0
 10
469.93274617146085
 20
-1873.3747416625072
 30
0.0
 41
1.0
 10
469.92196661259015
 20
-1873.4087595668818
 30
0.0
 41
1.0
 10
468.071593559321
 20
-1879.2958314893494
 30
0.0
 41
1.0
 10
466.22122050605185
 20
-1885.1829034118168
 30
0.0
 41
1.0
 10
465.25996381602829
 20
-1885.1829034118168
 30
0.0
 41
1.0
 10
464.29870712600473
 20
-1885.1829034118168
 30
0.0
 41
1.0
 10
465.91765190468317
 20
-1880.0348749100274
 30
0.0
 41
1.0
 10
467.53659668336161
 20
-1874.8868464082379
 30
0.0
 41
1.0
 10
467.58176250653571
 20
-1874.7428151859688
 30
0.0
 41
1.0
 10
467.62692832970976
 20
-1874.5987839636996
 30
0.0
 41
1.0
 10
467.79723274707055
 20
-1874.0556929345435
 30
0.0
 41
0.9999911657869889
 10
467.96296555875318
 20
-1873.511189403172
 30
0.0
 41
1.0
 10
467.99266150225344
 20
-1873.4136254631221
 30
0.0
 41
1.0
 10
468.02235744575364
 20
-1873.3160615230724
 30
0.0
 41
1.0
 10
468.12869837043496
 20
-1872.9666858718028
 30
0.0
 41
0.9999952428186267
 10
468.23288195975834
 20
-1872.6166608474587
 30
0.0
 41
1.0
 10
468.23794143009138
 20
-1872.5996625731814
 30
0.0
 41
1.0
 10
468.24300090042448
 20
-1872.5826642989043
 30
0.0
 41
1.0
 10
468.33706554908952
 20
-1872.2666358230883
 30
0.0
 41
0.9999931687491266
 10
468.42879138695696
 20
-1871.9499206098387
 30
0.0
 41
1.0
 10
468.43372665141374
 20
-1871.9328799005773
 30
0.0
 41
1.0
 10
468.43866191587045
 20
-1871.9158391913159
 30
0.0
 41
1.0
 10
468.52051722482668
 20
-1871.6332053965818
 30
0.0
 41
0.9999893840812577
 10
468.59976445128746
 20
-1871.3498292673216
 30
0.0
 41
1.0
 10
468.67901167774846
 20
-1871.0664531380608
 30
0.0
 41
0.999983398006394
 10
468.75498791848702
 20
-1870.7821825550429
 30
0.0
 41
1.0
 10
468.76399185520944
 20
-1870.7484936765641
 30
0.0
 41
1.0
 10
468.77299579193186
 20
-1870.714804798085
 30
0.0
 41
1.0
 10
468.84196034079781
 20
-1870.4567689657897
 30
0.0
 41
0.9999233658067032
 10
468.90451531201779
 20
-1870.1971048070686
 30
0.0
 41
1.0
 10
468.96707028323806
 20
-1869.9374406483462
 30
0.0
 41
1.0
 10
469.00655370209563
 20
-1869.77363398392
 30
0.0
 41
1.0
 10
469.01153230607258
 20
-1869.7529790220508
 30
0.0
 41
1.0
 10
469.01651091004959
 20
-1869.7323240601816
 30
0.0
 41
1.0
 10
469.04603712095491
 20
-1869.6098273194871
 30
0.0
 41
0.9999868670846428
 10
469.07430620494938
 20
-1869.4870343738485
 30
0.0
 41
1.0
 10
469.07820369210833
 20
-1869.4701047864262
 30
0.0
 41
1.0
 10
469.08210117926723
 20
-1869.4531751990039
 30
0.0
 41
1.0
 10
469.10257528894624
 20
-1869.3642414282003
 30
0.0
 41
0.9999778173348182
 10
469.12186288706101
 20
-1869.2750428109725
 30
0.0
 41
1.0
 10
469.141150485178
 20
-1869.1858441937347
 30
0.0
 41
0.999960269285602
 10
469.15884484380882
 20
-1869.0963159053076
 30
0.0
 41
1.0
 10
469.16204867588567
 20
-1869.0801054504259
 30
0.0
 41
1.0
 10
469.16525250796246
 20
-1869.0638949955444
 30
0.0
 41
1.0
 10
469.18935453074886
 20
-1868.9419457973452
 30
0.0
 41
0.9995617985320403
 10
469.20619787796704
 20
-1868.8187840496421
 30
0.0
 41
1.0
 10
469.20866236787333
 20
-1868.800763232276
 30
0.0
 41
1.0
 10
469.21112685777956
 20
-1868.78274241491
 30
0.0
 41
1.0
 10
469.23141011882785
 20
-1868.6344273652096
 30
0.0
 41
0.9991121410639567
 10
469.23913547241625
 20
-1868.4849312664019
 30
0.0
 41
1.0
 10
469.24005426244071
 20
-1868.467151429827
 30
0.0
 41
1.0
 10
469.24097305246522
 20
-1868.4493715932522
 30
0.0
 41
1.0
 10
469.24686082600448
 20
-1868.335435167598
 30
0.0
 41
0.998979249490545
 10
469.24244173388718
 20
-1868.2214323316975
 30
0.0
 41
1.0
 10
469.24179376201846
 20
-1868.2047160857692
 30
0.0
 41
1.0
 10
469.2411457901498
 20
-1868.187999839841
 30
0.0
 41
1.0
 10
469.23802264176987
 20
-1868.1074294957994
 30
0.0
 41
0.999782029539338
 10
469.23153864439416
 20
-1868.027059774055
 30
0.0
 41
1.0
 10
469.22505464701828
 20
-1867.946690052308
 30
0.0
 41
0.9998335105973505
 10
469.21564245150643
 20
-1867.8666104358583
 30
0.0
 41
1.0
 10
469.21404752683026
 20
-1867.8530407053768
 30
0.0
 41
1.0
 10
469.21245260215409
 20
-1867.839470974895
 30
0.0
 41
1.0
 10
469.19985055728961
 20
-1867.7322518974788
 30
0.0
 41
0.9996876457879589
 10
469.18190664449133
 20
-1867.6257964697627
 30
0.0
 41
1.0
 10
469.17967498134601
 20
-1867.6125567345207
 30
0.0
 41
1.0
 10
469.17744331820063
 20
-1867.5993169992785
 30
0.0
 41
1.0
 10
469.1636474967799
 20
-1867.517470855322
 30
0.0
 41
0.9995547496494808
 10
469.14499417488707
 20
-1867.4365933581296
 30
0.0
 41
1.0
 10
469.1446202180158
 20
-1867.4349719474244
 30
0.0
 41
1.0
 10
469.14424626114453
 20
-1867.433350536719
 30
0.0
 41
1.0
 10
469.12634085299442
 20
-1867.3557158609378
 30
0.0
 41
0.9994899427174602
 10
469.10351594431512
 20
-1867.2793825781041
 30
0.0
 41
1.0
 10
469.10305741757423
 20
-1867.277849128315
 30
0.0
 41
1.0
 10
469.10259889083335
 20
-1867.2763156785259
 30
0.0
 41
1.0
 10
469.08069103563599
 20
-1867.2030492952701
 30
0.0
 41
0.9993784877590713
 10
469.05367540052919
 20
-1867.1315085901106
 30
0.0
 41
1.0
 10
469.05314370955244
 20
-1867.1301006073904
 30
0.0
 41
1.0
 10
469.0526120185757
 20
-1867.1286926246703
 30
0.0
 41
1.0
 10
469.02665976542215
 20
-1867.0599678849508
 30
0.0
 41
0.9992430832254914
 10
468.99544323026322
 20
-1866.9934687328832
 30
0.0
 41
1.0
 10
468.99486111420663
 20
-1866.992228677766
 30
0.0
 41
1.0
 10
468.99427899814998
 20
-1866.9909886226485
 30
0.0
 41
1.0
 10
468.96422669510378
 20
-1866.926969580815
 30
0.0
 41
0.9990789632798809
 10
468.92879606832719
 20
-1866.8657629690654
 30
0.0
 41
1.0
 10
468.92820036214505
 20
-1866.8647338832059
 30
0.0
 41
1.0
 10
468.92760465596285
 20
-1866.8637047973464
 30
0.0
 41
1.0
 10
468.89336544155015
 20
-1866.8045563573151
 30
0.0
 41
0.9988874801120253
 10
468.85370616551842
 20
-1866.7488966448977
 30
0.0
 41
1.0
 10
468.85315063945461
 20
-1866.7481169932237
 30
0.0
 41
1.0
 10
468.85259511339086
 20
-1866.7473373415496
 30
0.0
 41
1.0
 10
468.81404688948697
 20
-1866.6932369324807
 30
0.0
 41
0.9986762060692883
 10
468.77014441821024
 20
-1866.643383218041
 30
0.0
 41
1.0
 10
468.76970045787874
 20
-1866.6428790762252
 30
0.0
 41
1.0
 10
468.76925649754725
 20
-1866.6423749344094
 30
0.0
 41
1.0
 10
468.72624194693475
 20
-1866.5935295036024
 30
0.0
 41
0.9984621642488282
 10
468.67808439015624
 20
-1866.5497462031306
 30
0.0
 41
1.0
 10
468.67783775563947
 20
-1866.5495219709669
 30
0.0
 41
1.0
 10
468.6775911211227
 20
-1866.5492977388033
 30
0.0
 41
1.0
 10
468.62992683337814
 20
-1866.5059629026591
 30
0.0
 41
0.9982724693850982
 10
468.577508201537
 20
-1866.4685185521416
 30
0.0
 41
1.0
 10
468.52508956969501
 20
-1866.4310742016237
 30
0.0
 41
0.9981399180159444
 10
468.46850350630086
 20
-1866.4002876821799
 30
0.0
 41
1.0
 10
468.46845784422305
 20
-1866.4002628390231
 30
0.0
 41
1.0
 10
468.4684121821453
 20
-1866.4002379958663
 30
0.0
 41
1.0
 10
468.41173479459502
 20
-1866.3694017901084
 30
0.0
 41
0.9980927086836907
 10
468.35168944352876
 20
-1866.345784981256
 30
0.0
 41
1.0
 10
468.35124927381702
 20
-1866.3456118553809
 30
0.0
 41
1.0
 10
468.35080910410528
 20
-1866.345438729506
 30
0.0
 41
1.0
 10
468.28988341361679
 20
-1866.321475668904
 30
0.0
 41
0.9981411356562904
 10
468.22649489221806
 20
-1866.3051030273984
 30
0.0
 41
1.0
 10
468.22561277551563
 20
-1866.3048751851927
 30
0.0
 41
1.0
 10
468.22473065881326
 20
-1866.304647342987
 30
0.0
 41
1.0
 10
468.15957790401075
 20
-1866.2878190170704
 30
0.0
 41
0.9983031812935174
 10
468.0929104750162
 20
-1866.2786796558942
 30
0.0
 41
1.0
 10
468.08403944961083
 20
-1866.2774635372227
 30
0.0
 41
1.0
 10
468.07516842420546
 20
-1866.2762474185513
 30
0.0
 41
1.0
 10
468.02081878170287
 20
-1866.2687966885603
 30
0.0
 41
0.9983887708261395
 10
467.96597493241143
 20
-1866.2675520149273
 30
0.0
 41
1.0
 10
467.95791152719221
 20
-1866.2673690170525
 30
0.0
 41
1.0
 10
467.94984812197299
 20
-1866.2671860191776
 30
0.0
 41
1.0
 10
467.91113108311686
 20
-1866.2663073412939
 30
0.0
 41
0.9998869563077009
 10
467.87240512991593
 20
-1866.2665932106536
 30
0.0
 41
1.0
 10
467.83367917669614
 20
-1866.2668790800135
 30
0.0
 41
0.9999972320118858
 10
467.7949549974673
 20
-1866.2673471795429
 30
0.0
 41
1.0
 10
467.77560198090487
 20
-1866.267581119632
 30
0.0
 41
1.0
 10
467.75624896434249
 20
-1866.2678150597212
 30
0.0
 41
1.0
 10
467.67881875197008
 20
-1866.2687510394289
 30
0.0
 41
0.9997304945087185
 10
467.6015154457308
 20
-1866.2732801332152
 30
0.0
 41
1.0
 10
467.59246580402822
 20
-1866.2738103392048
 30
0.0
 41
1.0
 10
467.58341616232565
 20
-1866.2743405451947
 30
0.0
 41
1.0
 10
467.4880135726786
 20
-1866.2799300509607
 30
0.0
 41
0.9997888306415682
 10
467.39292123683566
 20
-1866.2894350154502
 30
0.0
 41
1.0
 10
467.38420017526357
 20
-1866.2903067300822
 30
0.0
 41
1.0
 10
467.37547911369143
 20
-1866.2911784447142
 30
0.0
 41
1.0
 10
467.26294465470198
 20
-1866.3024268384675
 30
0.0
 41
0.9984170238190019
 10
467.15238550734966
 20
-1866.3262429204037
 30
0.0
 41
1.0
 10
467.1160043763652
 20
-1866.3340799562093
 30
0.0
 41
1.0
 10
467.07962324538073
 20
-1866.3419169920151
 30
0.0
 41
1.0
 10
466.96443217695855
 20
-1866.3667308585248
 30
0.0
 41
0.9976592854199197
 10
466.85370401055263
 20
-1866.4070295356723
 30
0.0
 41
1.0
 10
466.74297584414813
 20
-1866.4473282128192
 30
0.0
 41
0.9993255074351879
 10
466.63550404535744
 20
-1866.4956451113117
 30
0.0
 41
1.0
 10
466.63087886643382
 20
-1866.4977244875115
 30
0.0
 41
1.0
 10
466.62625368751026
 20
-1866.4998038637113
 30
0.0
 41
1.0
 10
466.50953153087414
 20
-1866.5522795146026
 30
0.0
 41
0.9976475078275694
 10
466.40108418656422
 20
-1866.6202275042604
 30
0.0
 41
1.0
 10
466.382741792427
 20
-1866.6317199830764
 30
0.0
 41
1.0
 10
466.36439939828978
 20
-1866.6432124618925
 30
0.0
 41
1.0
 10
466.2801972067403
 20
-1866.6959695826592
 30
0.0
 41
0.9995131336406832
 10
466.1994494917833
 20
-1866.7538757946122
 30
0.0
 41
1.0
 10
466.11870177682778
 20
-1866.811782006564
 30
0.0
 41
0.999581010760612
 10
466.04144012910132
 20
-1866.8742636890279
 30
0.0
 41
1.0
 10
466.0384700978891
 20
-1866.8766655604941
 30
0.0
 41
1.0
 10
466.03550006667695
 20
-1866.8790674319603
 30
0.0
 41
1.0
 10
465.95229835652975
 20
-1866.946352857354
 30
0.0
 41
0.999661783795509
 10
465.87270766939571
 20
-1867.0178733129126
 30
0.0
 41
1.0
 10
465.86057691852051
 20
-1867.0287740459016
 30
0.0
 41
1.0
 10
465.84844616764531
 20
-1867.0396747788907
 30
0.0
 41
1.0
 10
465.78017064024488
 20
-1867.1010273943666
 30
0.0
 41
0.9997267750052752
 10
465.71483713195749
 20
-1867.1655039308953
 30
0.0
 41
1.0
 10
465.64950362368052
 20
-1867.2299804674137
 30
0.0
 41
0.9999667288957792
 10
465.58523068053671
 20
-1867.2955142743051
 30
0.0
 41
1.0
 10
465.51640323275683
 20
-1867.3656919330683
 30
0.0
 41
1.0
 10
465.44757578497689
 20
-1867.4358695918313
 30
0.0
 41
1.0
 10
465.24564794627929
 20
-1867.6417587162432
 30
0.0
 41
0.9988205335175219
 10
465.06464232929841
 20
-1867.8662629483056
 30
0.0
 41
1.0
 10
465.03400236439484
 20
-1867.9042661987341
 30
0.0
 41
1.0
 10
465.00336239949121
 20
-1867.9422694491627
 30
0.0
 41
1.0
 10
464.76107685270233
 20
-1868.2427801820832
 30
0.0
 41
0.9997077826755051
 10
464.53359890159737
 20
-1868.5546499762991
 30
0.0
 41
1.0
 10
464.53187548646679
 20
-1868.5570127596789
 30
0.0
 41
1.0
 10
464.53015207133615
 20
-1868.5593755430586
 30
0.0
 41
1.0
 10
464.29922728997019
 20
-1868.8759709040339
 30
0.0
 41
0.9989147567078858
 10
464.09876378708719
 20
-1869.2126803652177
 30
0.0
 41
1.0
 10
464.07402264178103
 20
-1869.2542369457688
 30
0.0
 41
1.0
 10
464.04928149647486
 20
-1869.29579352632
 30
0.0
 41
1.0
 10
463.89407019783664
 20
-1869.5564949107741
 30
0.0
 41
0.9997476598181562
 10
463.75072521032564
 20
-1869.823904659359
 30
0.0
 41
1.0
 10
463.60738022281441
 20
-1870.0913144079443
 30
0.0
 41
0.999625896710913
 10
463.47887197088312
 20
-1870.366162344568
 30
0.0
 41
1.0
 10
463.46567206143402
 20
-1870.3943937446625
 30
0.0
 41
1.0
 10
463.45247215198492
 20
-1870.4226251447567
 30
0.0
 41
1.0
 10
463.31226343098672
 20
-1870.7224975427062
 30
0.0
 41
0.9998735413945168
 10
463.18166208426453
 20
-1871.026677142178
 30
0.0
 41
1.0
 10
463.17821925620359
 20
-1871.0346957276438
 30
0.0
 41
1.0
 10
463.17477642814265
 20
-1871.0427143131094
 30
0.0
 41
1.0
 10
463.0510607375432
 20
-1871.3308567416475
 30
0.0
 41
0.9999377418864712
 10
462.93380593536943
 20
-1871.6216882093204
 30
0.0
 41
1.0
 10
462.81655113319499
 20
-1871.9125196769946
 30
0.0
 41
0.9999508299505511
 10
462.70508718981995
 20
-1872.2056193538099
 30
0.0
 41
1.0
 10
462.70200642115594
 20
-1872.2137203797779
 30
0.0
 41
1.0
 10
462.69892565249194
 20
-1872.2218214057457
 30
0.0
 41
1.0
 10
462.58130017179241
 20
-1872.5311231344872
 30
0.0
 41
0.9999609228437637
 10
462.46916156891837
 20
-1872.8424561505028
 30
0.0
 41
1.0
 10
462.46620555856737
 20
-1872.8506629909161
 30
0.0
 41
1.0
 10
462.46324954821637
 20
-1872.8588698313292
 30
0.0
 41
1.0
 10
462.3451989246405
 20
-1873.1866165281713
 30
0.0
 41
0.9999674607398313
 10
462.23245139857073
 20
-1873.5162251481709
 30
0.0
 41
1.0
 10
462.18105300801312
 20
-1873.6664843438484
 30
0.0
 41
1.0
 10
462.12965461745551
 20
-1873.8167435395262
 30
0.0
 41
1.0
 10
462.01364401069338
 20
-1874.1558915220421
 30
0.0
 41
0.9999287532305501
 10
461.90576260672134
 20
-1874.4977122610212
 30
0.0
 41
1.0
 10
461.8592853505877
 20
-1874.6449748053749
 30
0.0
 41
1.0
 10
461.812808094454
 20
-1874.7922373497286
 30
0.0
 41
1.0
 10
461.79788120275339
 20
-1874.8395329999876
 30
0.0
 41
0.9999998223702499
 10
461.78301069402016
 20
-1874.8868464082379
 30
0.0
 41
1.0
 10
460.16235455722472
 20
-1880.0348749100274
 30
0.0
 41
1.0
 10
458.54169842042927
 20
-1885.1829034118168
 30
0.0
 41
1.0
 10
457.63638997653834
 20
-1885.1829034118168
 30
0.0
 41
1.0
 10
456.73108153264741
 20
-1885.1829034118168
 30
0.0
 41
1.0
 10
458.58316594403345
 20
-1879.2958314893494
 30
0.0
 41
1.0
 10
460.4352503554195
 20
-1873.4087595668818
 30
0.0
 41
1.0
 10
460.44537211372221
 20
-1873.3767163534321
 30
0.0
 41
1.0
 10
460.51797978257196
 20
-1873.1464168116063
 30
0.0
 41
1.0
 10
460.59058745142283
 20
-1872.9161172697768
 30
0.0
 41
0.9999825681975986
 10
460.66047049063292
 20
-1872.6849763747161
 30
0.0
 41
1.0
 10
460.70876155279461
 20
-1872.5252517912172
 30
0.0
 41
1.0
 10
460.75705261495625
 20
-1872.3655272077185
 30
0.0
 41
1.0
 10
460.85420496827157
 20
-1872.0441919859484
 30
0.0
 41
0.9999672528966573
 10
460.94614377389405
 20
-1871.7213264403654
 30
0.0
 41
1.0
 10
460.94893265756082
 20
-1871.711532594986
 30
0.0
 41
1.0
 10
460.95172154122753
 20
-1871.7017387496066
 30
0.0
 41
1.0
 10
461.03808257951641
 20
-1871.3984608947826
 30
0.0
 41
0.9999899749119935
 10
461.12172418905209
 20
-1871.0944218063269
 30
0.0
 41
1.0
 10
461.13183010806904
 20
-1871.0576865686505
 30
0.0
 41
1.0
 10
461.14193602708599
 20
-1871.0209513309742
 30
0.0
 41
1.0
 10
461.20536579858515
 20
-1870.7903827178807
 30
0.0
 41
0.9999214200504348
 10
461.26299522696451
 20
-1870.5582963756651
 30
0.0
 41
1.0
 10
461.27576107914501
 20
-1870.5068854902693
 30
0.0
 41
1.0
 10
461.28852693132546
 20
-1870.4554746048734
 30
0.0
 41
1.0
 10
461.32062465534386
 20
-1870.3262100334489
 30
0.0
 41
0.9999828681657925
 10
461.35120690733766
 20
-1870.1965785589882
 30
0.0
 41
1.0
 10
461.38178915933418
 20
-1870.0669470845157
 30
0.0
 41
0.9999389844477044
 10
461.40950014812353
 20
-1869.9366716286149
 30
0.0
 41
1.0
 10
461.41663789184315
 20
-1869.9031155247803
 30
0.0
 41
1.0
 10
461.42377563556272
 20
-1869.8695594209457
 30
0.0
 41
1.0
 10
461.46576211179251
 20
-1869.6721717573701
 30
0.0
 41
0.9998933699441523
 10
461.5019663761949
 20
-1869.4736421496104
 30
0.0
 41
1.0
 10
461.50333920141111
 20
-1869.4661141289148
 30
0.0
 41
1.0
 10
461.50471202662732
 20
-1869.4585861082192
 30
0.0
 41
1.0
 10
461.54366194146212
 20
-1869.2450004590685
 30
0.0
 41
0.9996850305193482
 10
461.57184561772107
 20
-1869.0297294536306
 30
0.0
 41
1.0
 10
461.57384065109045
 20
-1869.0144910995077
 30
0.0
 41
1.0
 10
461.57583568445983
 20
-1868.9992527453849
 30
0.0
 41
1.0
 10
461.60324354691886
 20
-1868.7899075182311
 30
0.0
 41
0.9994697936706773
 10
461.61696810613824
 20
-1868.5792223229014
 30
0.0
 41
1.0
 10
461.61744517538796
 20
-1868.5718988506892
 30
0.0
 41
1.0
 10
461.61792224463773
 20
-1868.564575378477
 30
0.0
 41
1.0
 10
461.63069266535808
 20
-1868.368537127569
 30
0.0
 41
0.9991804893136611
 10
461.62756434908505
 20
-1868.1721082775973
 30
0.0
 41
1.0
 10
461.62748047026292
 20
-1868.1668414761843
 30
0.0
 41
1.0
 10
461.6273965914408
 20
-1868.1615746747711
 30
0.0
 41
1.0
 10
461.6244360328123
 20
-1867.9756794276238
 30
0.0
 41
0.9988448329321638
 10
461.60364448718849
 20
-1867.7909268377905
 30
0.0
 41
1.0
 10
461.60205041348547
 20
-1867.7767619820193
 30
0.0
 41
1.0
 10
461.6004563397824
 20
-1867.762597126248
 30
0.0
 41
1.0
 10
461.58285294156468
 20
-1867.6061742479571
 30
0.0
 41
0.9985503209458642
 10
461.54853666926516
 20
-1867.4525500638679
 30
0.0
 41
1.0
 10
461.54095067719385
 20
-1867.4185897364673
 30
0.0
 41
1.0
 10
461.53336468512254
 20
-1867.3846294090665
 30
0.0
 41
1.0
 10
461.51422039696581
 20
-1867.2989258797793
 30
0.0
 41
0.9991036781370262
 10
461.48789553531441
 20
-1867.2151487924536
 30
0.0
 41
1.0
 10
461.48391330985845
 20
-1867.2024756299434
 30
0.0
 41
1.0
 10
461.47993108440249
 20
-1867.1898024674329
 30
0.0
 41
1.0
 10
461.46157067366437
 20
-1867.1313717051321
 30
0.0
 41
0.9998874504367483
 10
461.44146546598478
 20
-1867.0735181029054
 30
0.0
 41
1.0
 10
461.42136025830712
 20
-1867.0156645006841
 30
0.0
 41
0.9994041637544149
 10
461.39731164537255
 20
-1866.9593357967933
 30
0.0
 41
1.0
 10
461.39311486114821
 20
-1866.9495057323106
 30
0.0
 41
1.0
 10
461.38891807692386
 20
-1866.9396756678279
 30
0.0
 41
1.0
 10
461.36103924592965
 20
-1866.8743755018613
 30
0.0
 41
0.9991846840701867
 10
461.32798288923641
 20
-1866.811537470581
 30
0.0
 41
1.0
 10
461.32684628284164
 20
-1866.8093768541266
 30
0.0
 41
1.0
 10
461.32570967644688
 20
-1866.8072162376725
 30
0.0
 41
1.0
 10
461.29492653254374
 20
-1866.7486994393016
 30
0.0
 41
0.9989253167923825
 10
461.25885710848837
 20
-1866.6932845109104
 30
0.0
 41
1.0
 10
461.25780298381369
 20
-1866.6916650161475
 30
0.0
 41
1.0
 10
461.25674885913907
 20
-1866.6900455213845
 30
0.0
 41
1.0
 10
461.22278768443317
 20
-1866.6378695825199
 30
0.0
 41
0.9986467172836707
 10
461.18359053179603
 20
-1866.5895035488907
 30
0.0
 41
1.0
 10
461.18271640309536
 20
-1866.5884249466126
 30
0.0
 41
1.0
 10
461.18184227439474
 20
-1866.5873463443343
 30
0.0
 41
1.0
 10
461.144393379159
 20
-1866.5411375152617
 30
0.0
 41
0.9984001104268333
 10
461.10196664864145
 20
-1866.4994524078925
 30
0.0
 41
1.0
 10
461.10137951053184
 20
-1866.498875533011
 30
0.0
 41
1.0
 10
461.10079237242229
 20
-1866.4982986581294
 30
0.0
 41
1.0
 10
461.05953991812368
 20
-1866.4577673005231
 30
0.0
 41
0.9982442159082221
 10
461.0137838167887
 20
-1866.4223987392634
 30
0.0
 41
1.0
 10
461.01356902132761
 20
-1866.4222327066207
 30
0.0
 41
1.0
 10
461.01335422586652
 20
-1866.422066673978
 30
0.0
 41
1.0
 10
460.96802771545401
 20
-1866.3870301780039
 30
0.0
 41
0.9982450060837336
 10
460.91887673638132
 20
-1866.3575983949695
 30
0.0
 41
1.0
 10
460.86972575730812
 20
-1866.3281666119351
 30
0.0
 41
0.9983922639634266
 10
460.8175594511419
 20
-1866.3044869772807
 30
0.0
 41
1.0
 10
460.81733257381882
 20
-1866.3043839918
 30
0.0
 41
1.0
 10
460.81710569649579
 20
-1866.3042810063191
 30
0.0
 41
1.0
 10
460.76448563568238
 20
-1866.2803954007024
 30
0.0
 41
0.9986517147150041
 10
460.70967266281508
 20
-1866.2620942815809
 30
0.0
 41
1.0
 10
460.70899474138673
 20
-1866.2618679351492
 30
0.0
 41
1.0
 10
460.70831681995838
 20
-1866.2616415887176
 30
0.0
 41
1.0
 10
460.65214800423541
 20
-1866.2428877767331
 30
0.0
 41
0.998943559895664
 10
460.59449461708414
 20
-1866.2293700744985
 30
0.0
 41
1.0
 10
460.59341449750207
 20
-1866.2291168242455
 30
0.0
 41
1.0
 10
460.59233437791994
 20
-1866.2288635739924
 30
0.0
 41
1.0
 10
460.53252075160384
 20
-1866.2148393712516
 30
0.0
 41
0.999224924124015
 10
460.47178924270543
 20
-1866.2055640285362
 30
0.0
 41
1.0
 10
460.47037555441557
 20
-1866.2053481201285
 30
0.0
 41
1.0
 10
460.46896186612571
 20
-1866.2051322117209
 30
0.0
 41
1.0
 10
460.40540298064764
 20
-1866.1954250521903
 30
0.0
 41
0.9994396597834148
 10
460.34133704411238
 20
-1866.1899921298448
 30
0.0
 41
1.0
 10
460.32219637663303
 20
-1866.1883689621259
 30
0.0
 41
1.0
 10
460.30305570915368
 20
-1866.1867457944072
 30
0.0
 41
1.0
 10
460.20070843766194
 20
-1866.1780665366241
 30
0.0
 41
0.9987693403121607
 10
460.09800481407569
 20
-1866.1795696000765
 30
0.0
 41
1.0
 10
460.08775047984795
 20
-1866.1797196718508
 30
0.0
 41
1.0
 10
460.07749614562027
 20
-1866.179869743625
 30
0.0
 41
1.0
 10
459.96794037944119
 20
-1866.1814730879125
 30
0.0
 41
0.9989753644966232
 10
459.85897837942423
 20
-1866.1929760948378
 30
0.0
 41
1.0
 10
459.75001637940926
 20
-1866.2044791017627
 30
0.0
 41
0.9983190067306096
 10
459.64311756844609
 20
-1866.2285140935489
 30
0.0
 41
1.0
 10
459.6342166168377
 20
-1866.230515372112
 30
0.0
 41
1.0
 10
459.62531566522932
 20
-1866.2325166506751
 30
0.0
 41
1.0
 10
459.50061495104944
 20
-1866.2605541995874
 30
0.0
 41
0.9985539388302571
 10
459.37964519737085
 20
-1866.3018178756336
 30
0.0
 41
1.0
 10
459.37729976641157
 20
-1866.3026179194489
 30
0.0
 41
1.0
 10
459.37495433545229
 20
-1866.3034179632646
 30
0.0
 41
1.0
 10
459.24929371985303
 20
-1866.3462817269419
 30
0.0
 41
0.9988468746493614
 10
459.12832337755231
 20
-1866.4009998120046
 30
0.0
 41
1.0
 10
459.1251405555642
 20
-1866.4024394865642
 30
0.0
 41
1.0
 10
459.1219577335761
 20
-1866.403879161124
 30
0.0
 41
1.0
 10
458.99462174729626
 20
-1866.4614765953072
 30
0.0
 41
0.999132288591894
 10
458.87252116323651
 20
-1866.5294719274909
 30
0.0
 41
1.0
 10
458.85491915219541
 20
-1866.5392741294793
 30
0.0
 41
1.0
 10
458.83731714115424
 20
-1866.5490763314676
 30
0.0
 41
1.0
 10
458.735140460097
 20
-1866.6059764472482
 30
0.0
 41
0.9993860037849467
 10
458.63719945602315
 20
-1866.669892462837
 30
0.0
 41
1.0
 10
458.63158114316877
 20
-1866.6735589575333
 30
0.0
 41
1.0
 10
458.62596283031434
 20
-1866.6772254522295
 30
0.0
 41
1.0
 10
458.5392584519476
 20
-1866.7338084784269
 30
0.0
 41
0.9998821494953895
 10
458.45433207613695
 20
-1866.7930267085021
 30
0.0
 41
1.0
 10
458.36940570032652
 20
-1866.8522449385773
 30
0.0
 41
0.9997976482743856
 10
458.28693006992353
 20
-1866.9148313466185
 30
0.0
 41
1.0
 10
458.2722938051171
 20
-1866.9259380363994
 30
0.0
 41
1.0
 10
458.25765754031067
 20
-1866.9370447261804
 30
0.0
 41
1.0
 10
458.14590938029949
 20
-1867.02184451378
 30
0.0
 41
0.9998091630799246
 10
458.03755910227591
 20
-1867.1109448644779
 30
0.0
 41
1.0
 10
458.02455334979538
 20
-1867.1216399649265
 30
0.0
 41
1.0
 10
458.01154759731492
 20
-1867.1323350653752
 30
0.0
 41
1.0
 10
457.87718581433501
 20
-1867.2428256169669
 30
0.0
 41
0.9995035112317698
 10
457.75004993657279
 20
-1867.3615594339803
 30
0.0
 41
1.0
 10
457.74040262618098
 20
-1867.3705691801424
 30
0.0
 41
1.0
 10
457.73075531578911
 20
-1867.3795789263045
 30
0.0
 41
1.0
 10
457.60733225302744
 20
-1867.494845298057
 30
0.0
 41
0.9994630424299303
 10
457.4917238472454
 20
-1867.6179480412904
 30
0.0
 41
1.0
 10
457.48804100847565
 20
-1867.6218696208016
 30
0.0
 41
1.0
 10
457.48435816970584
 20
-1867.625791200313
 30
0.0
 41
1.0
 10
457.37611544146245
 20
-1867.7410507845245
 30
0.0
 41
0.9995160693750094
 10
457.27524941192951
 20
-1867.8628182023981
 30
0.0
 41
1.0
 10
457.27331569184918
 20
-1867.8651526266058
 30
0.0
 41
1.0
 10
457.27138197176885
 20
-1867.8674870508135
 30
0.0
 41
1.0
 10
457.17438338239629
 20
-1867.9845856202724
 30
0.0
 41
0.9996561470514287
 10
457.08365716373169
 20
-1868.10660838272
 30
0.0
 41
1.0
 10
457.07749949782942
 20
-1868.1148901717627
 30
0.0
 41
1.0
 10
457.07134183192716
 20
-1868.1231719608054
 30
0.0
 41
1.0
 10
456.99293094506442
 20
-1868.2286311451712
 30
0.0
 41
0.9998349055174114
 10
456.91840366313357
 20
-1868.3368697288324
 30
0.0
 41
1.0
 10
456.8438763812095
 20
-1868.4451083124841
 30
0.0
 41
0.999972810956885
 10
456.77095348530497
 20
-1868.5544342380304
 30
0.0
 41
1.0
 10
456.76963826988634
 20
-1868.5564060075433
 30
0.0
 41
1.0
 10
456.76832305446771
 20
-1868.5583777770562
 30
0.0
 41
1.0
 10
456.69276972771684
 20
-1868.6716472416424
 30
0.0
 41
0.9999972147366441
 10
456.61775191733756
 20
-1868.7852720844862
 30
0.0
 41
1.0
 10
456.61278037472641
 20
-1868.7928021729415
 30
0.0
 41
1.0
 10
456.60780883211532
 20
-1868.8003322613968
 30
0.0
 41
1.0
 10
456.52284793649699
 20
-1868.9290172811766
 30
0.0
 41
0.9999371979002504
 10
456.44079258709661
 20
-1869.0595741949478
 30
0.0
 41
1.0
 10
456.43728370273243
 20
-1869.0651571230167
 30
0.0
 41
1.0
 10
456.43377481836825
 20
-1869.0707400510855
 30
0.0
 41
1.0
 10
456.34470170024053
 20
-1869.2124628209926
 30
0.0
 41
0.999827202561
 10
456.26095830935645
 20
-1869.3573986977385
 30
0.0
 41
1.0
 10
456.24574313733302
 20
-1869.3837318121941
 30
0.0
 41
1.0
 10
456.23052796530959
 20
-1869.4100649266497
 30
0.0
 41
1.0
 10
456.11635423037978
 20
-1869.6076670323048
 30
0.0
 41
0.9995217214838205
 10
456.01461454082306
 20
-1869.8119493601691
 30
0.0
 41
1.0
 10
456.00697097818795
 20
-1869.8272968098722
 30
0.0
 41
1.0
 10
455.99932741555278
 20
-1869.8426442595755
 30
0.0
 41
1.0
 10
455.91242212296385
 20
-1870.0171407176556
 30
0.0
 41
0.9998269762607178
 10
455.83206765669195
 20
-1870.1947490043785
 30
0.0
 41
1.0
 10
455.7517131904213
 20
-1870.3723572910985
 30
0.0
 41
0.9998944747387665
 10
455.67655239585673
 20
-1870.5522250167278
 30
0.0
 41
1.0
 10
455.67159872626235
 20
-1870.5640796716527
 30
0.0
 41
1.0
 10
455.66664505666802
 20
-1870.5759343265777
 30
0.0
 41
1.0
 10
455.58599799611761
 20
-1870.7689312665905
 30
0.0
 41
0.999950673440769
 10
455.50920046721615
 20
-1870.9634920714416
 30
0.0
 41
1.0
 10
455.4946005019487
 20
-1871.000479993239
 30
0.0
 41
1.0
 10
455.48000053668125
 20
-1871.0374679150361
 30
0.0
 41
1.0
 10
455.43240293831082
 20
-1871.158052876302
 30
0.0
 41
0.9999912393940568
 10
455.38581649429005
 20
-1871.2790320789934
 30
0.0
 41
1.0
 10
455.33923005026179
 20
-1871.4000112817039
 30
0.0
 41
0.999992711396558
 10
455.29356875586802
 20
-1871.5213426892053
 30
0.0
 41
1.0
 10
455.27960032447299
 20
-1871.5584596711972
 30
0.0
 41
1.0
 10
455.26563189307791
 20
-1871.595576653189
 30
0.0
 41
1.0
 10
455.19203373588584
 20
-1871.7911420246951
 30
0.0
 41
0.9999487550946885
 10
455.12241011091618
 20
-1871.9881573898724
 30
0.0
 41
1.0
 10
455.09881650097901
 20
-1872.0549207001659
 30
0.0
 41
1.0
 10
455.07522289104185
 20
-1872.1216840104596
 30
0.0
 41
1.0
 10
454.9805372566708
 20
-1872.389617845286
 30
0.0
 41
0.9999808436945368
 10
454.88917566803082
 20
-1872.6587032765462
 30
0.0
 41
1.0
 10
454.79781407939271
 20
-1872.927788707801
 30
0.0
 41
0.9999873932921707
 10
454.70915937067116
 20
-1873.1977780628247
 30
0.0
 41
1.0
 10
454.68906701380183
 20
-1873.2589673955772
 30
0.0
 41
1.0
 10
454.66897465693256
 20
-1873.3201567283299
 30
0.0
 41
1.0
 10
454.54013523447537
 20
-1873.7125247488502
 30
0.0
 41
0.9999794883034144
 10
454.41633244951487
 20
-1874.1065109551359
 30
0.0
 41
1.0
 10
454.40518019008368
 20
-1874.142001565353
 30
0.0
 41
1.0
 10
454.39402793065256
 20
-1874.1774921755698
 30
0.0
 41
1.0
 10
454.25146976674455
 20
-1874.6311649276895
 30
0.0
 41
0.9999982761754707
 10
454.11059732673004
 20
-1875.0853639498102
 30
0.0
 41
1.0
 10
452.52245699415744
 20
-1880.1341336808136
 30
0.0
 41
1.0
 10
450.93431666158483
 20
-1885.1829034118168
 30
0.0
 41
1.0
 10
449.98556605010845
 20
-1885.1829034118168
 30
0.0
 41
1.0
 10
449.03681543863206
 20
-1885.1829034118168
 30
0.0
 41
1.0
 10
452.27509992478525
 20
-1874.8555812118707
 30
0.0
 41
1.0
 10
455.51338441093844
 20
-1864.5282590119245
 30
0.0
 41
1.0
  0
LWPOLYLINE
  5
4D
100
AcDbEntity
  8
0
370
              15
390
0
  6
Continuous
 62
               7
100
AcDbPolyline
 90
      232
 70
             128
 10
429.8098386371114
 20
-1865.6126018434397
 42
0.0004370800691165
 10
429.75696146301431
 20
-1865.6812684827285
 10
429.71767723191192
 20
-1865.7323755955927
 42
0.0030481992175694
 10
429.58733851477871
 20
-1865.9040972879554
 10
429.54882684304232
 20
-1865.9554840717249
 42
0.0042058245758506
 10
429.3448417923766
 20
-1866.2324898167928
 10
429.29243666987179
 20
-1866.3049226635794
 42
0.0120948898742578
 10
428.99639275311267
 20
-1866.7356722681247
 10
428.90020025398746
 20
-1866.8831530033547
 42
0.014160126394898
 10
428.59655620706644
 20
-1867.3788223400886
 10
428.55701893963777
 20
-1867.4476663075252
 42
0.0071131081304881
 10
428.35174661640207
 20
-1867.8171691063585
 42
0.0068458791001724
 10
428.1568670895619
 20
-1868.1922606698288
 10
428.15005522710123
 20
-1868.2058223835584
 42
0.0064120880290111
 10
427.95191297705696
 20
-1868.6132468584772
 10
427.94437829153992
 20
-1868.6292587151984
 42
0.0058857236447906
 10
427.7416228996716
 20
-1869.0736348262258
 10
427.73344797337427
 20
-1869.0921249798673
 42
0.0053189741896
 10
427.52474366070589
 20
-1869.5780884537871
 10
427.51599585502538
 20
-1869.5990703319812
 42
0.0047503650418405
 10
427.30002212887359
 20
-1870.1312697651936
 10
427.29075388052655
 20
-1870.1547461412988
 42
0.004207176217332
 10
427.06620649679303
 20
-1870.7378397353839
 10
427.05645709445014
 20
-1870.7638059102383
 42
0.0036680086486339
 10
426.82200245113592
 20
-1871.4024412947758
 10
426.81179467129027
 20
-1871.4308898291142
 42
0.0032573142627466
 10
426.56616238532735
 20
-1872.1297424888567
 10
426.49751186448492
 20
-1872.3292055729146
 42
0.0026133366647704
 10
426.14906666572489
 20
-1873.3590688565923
 10
426.08580987823427
 20
-1873.5492996919552
 42
0.0020592950738621
 10
425.87194680925711
 20
-1874.2014033445985
 10
425.86889501808753
 20
-1874.2108398330283
 42
0.0025609928533304
 10
425.66707451660818
 20
-1874.8459850553741
 10
425.66448314947627
 20
-1874.8542873963313
 42
0.0031362356243858
 10
425.47499236380457
 20
-1875.4750502524942
 10
425.47286132087839
 20
-1875.4821915587011
 42
0.0037229918028781
 10
425.2960609339508
 20
-1876.0911768606793
 10
425.29438234474355
 20
-1876.0971237508566
 42
0.0043077623709506
 10
425.13064154267931
 20
-1876.6969424826229
 42
0.0047654161823646
 10
424.97781282016354
 20
-1877.2996285715244
 10
424.94334821132423
 20
-1877.4411903486748
 42
0.0112969368446788
 10
424.7474838531806
 20
-1878.3328825092995
 10
424.71947746408398
 20
-1878.475710555397
 42
0.0130056762570148
 10
424.51864022043736
 20
-1879.6626516270419
 10
424.49810047029007
 20
-1879.8067297405205
 42
0.0138721532145156
 10
424.39439746575238
 20
-1880.7135592263446
 10
424.37510197784411
 20
-1880.9370569482744
 42
0.0071254697009683
 10
424.34175533192189
 20
-1881.4002439571168
 10
424.33679435775844
 20
-1881.4862479516801
 42
0.0028881799199618
 10
424.32165606446875
 20
-1881.7779896615198
 42
0.006029729713746
 10
424.31172386469325
 20
-1882.0699385976352
 10
424.3106615830261
 20
-1882.1183309695678
 42
0.0229523164156373
 10
424.31839261081188
 20
-1882.4410858158512
 10
424.32261838433226
 20
-1882.5014893498676
 42
0.0123673300665698
 10
424.34169703085058
 20
-1882.7026100750422
 42
0.0128577674464938
 10
424.37089242125683
 20
-1882.9025079249689
 10
424.37801829464388
 20
-1882.943836739566
 42
0.0285717853761799
 10
424.44251229633943
 20
-1883.2219528908786
 10
424.45618082000618
 20
-1883.2686076603568
 42
0.0316283099158819
 10
424.57199139992025
 20
-1883.5876221621822
 10
424.57504009167565
 20
-1883.5946085345074
 42
0.0338984824237084
 10
424.72447180264294
 20
-1883.8821744986969
 10
424.72678053201247
 20
-1883.8859655279723
 42
0.0350228718354655
 10
424.90914082268637
 20
-1884.1430175126497
 10
424.91002607446103
 20
-1884.1440965904135
 42
0.0347476747529621
 10
425.1244507617015
 20
-1884.3712816376337
 42
0.0331337701908574
 10
425.36769408744703
 20
-1884.5674102997107
 10
425.36879418596402
 20
-1884.5681830028839
 42
0.030523331907876
 10
425.63733888153666
 20
-1884.7333111729747
 10
425.64056892603861
 20
-1884.7350351848377
 42
0.0273744481153938
 10
425.93312263761175
 20
-1884.8711733287278
 10
425.93822717275043
 20
-1884.8732169131979
 42
0.0240964406197437
 10
426.25370424839747
 20
-1884.9822006394795
 10
426.26028757760611
 20
-1884.9841253791542
 42
0.020963617981014
 10
426.59768773025547
 20
-1885.0675935270858
 10
426.6053201907074
 20
-1885.0691454400878
 42
0.0181388704694034
 10
426.96364258270762
 20
-1885.128561533302
 10
426.97192343108401
 20
-1885.1296277171189
 42
0.0156086547587082
 10
427.35011079527601
 20
-1885.1663639036958
 10
427.39330604760022
 20
-1885.1692024061745
 42
0.0137148329025116
 10
427.72097919289877
 20
-1885.1817226614257
 10
427.76691538285309
 20
-1885.1822170945411
 42
0.0051057823887943
 10
428.00306096941699
 20
-1885.1823473489503
 42
0.0052256693314487
 10
428.23915825321768
 20
-1885.1775985244853
 10
428.30938503694506
 20
-1885.1754515584719
 42
0.0161507179047683
 10
428.68512211504679
 20
-1885.1518011881453
 10
428.70513507541938
 20
-1885.1498909928578
 42
0.0101216737833179
 10
429.11916229691241
 20
-1885.101898062492
 10
429.15321558633684
 20
-1885.0972503656826
 42
0.0245291776397956
 10
429.63000524188482
 20
-1885.0081752876069
 10
429.71482855741482
 20
-1884.9879793672599
 42
0.0143509212560832
 10
430.07145966135158
 20
-1884.8921747334816
 42
0.0156557857040038
 10
430.42167572607576
 20
-1884.7751635176639
 10
430.42917694057348
 20
-1884.7723933559087
 42
0.01701373336285
 10
430.78577293625182
 20
-1884.6267357410391
 10
430.79287685866234
 20
-1884.623547905474
 42
0.0183105364407066
 10
431.15222652682809
 20
-1884.4462128636501
 10
431.15917329146737
 20
-1884.4424624287776
 42
0.0194899958148712
 10
431.51765403244923
 20
-1884.2304834468882
 10
431.52466791178807
 20
-1884.2259581045919
 42
0.0204869852946662
 10
431.87868221388237
 20
-1883.9764380895058
 10
431.88594782246901
 20
-1883.9708580241577
 42
0.0212516938555786
 10
432.23193775357868
 20
-1883.6809540272616
 10
432.2784544476516
 20
-1883.6384867171703
 42
0.0215248918249753
 10
432.53848061654031
 20
-1883.3797224381747
 10
432.58351035092335
 20
-1883.3308783168222
 42
0.0114578554959411
 10
432.73830250459827
 20
-1883.1550553833667
 10
432.74949704058247
 20
-1883.1417366198243
 42
0.0061531305129712
 10
432.87597168657931
 20
-1882.9874470865157
 42
0.000632558711668
 10
433.0003501706372
 20
-1882.8314437109577
 10
433.02339030578258
 20
-1882.8024701901804
 42
0.0041897761558595
 10
433.19184570976353
 20
-1882.5869508141079
 10
433.25030782964745
 20
-1882.5108494671335
 42
0.0092993880038999
 10
433.52691975686855
 20
-1882.136570703253
 10
433.60931425006964
 20
-1882.0206336996816
 42
0.0159321727085154
 10
433.95592073271246
 20
-1881.4984594789248
 10
434.00027686810228
 20
-1881.4267799146735
 42
0.0085547317024612
 10
434.23478863342729
 20
-1881.0329049654501
 42
0.0084601156891544
 10
434.45576481087386
 20
-1880.6312781164097
 10
434.46388028469971
 20
-1880.615918434145
 42
0.0081429654284992
 10
434.68712955513632
 20
-1880.1761969216061
 10
434.69598971932123
 20
-1880.158018079585
 42
0.0076574581327952
 10
434.92239722989279
 20
-1879.6748352043212
 10
434.93187687061163
 20
-1879.6537707260286
 42
0.0070682724198352
 10
435.16232177841647
 20
-1879.1217334212524
 10
435.17231206240012
 20
-1879.097744232236
 42
0.0064559514447339
 10
435.40764527058161
 20
-1878.5114319657173
 10
435.4180546287468
 20
-1878.4844970402746
 42
0.0058311413905803
 10
435.65910136551173
 20
-1877.8384649458851
 10
435.66985644289707
 20
-1877.8085806047307
 42
0.0052312425819415
 10
435.91743772093821
 20
-1877.0973781908951
 10
435.92848155731775
 20
-1877.0645514788262
 42
0.004668054479705
 10
436.18340998504976
 20
-1876.282725163079
 10
436.22540213509717
 20
-1876.1497419257748
 42
0.0041666856444924
 10
436.42868814749073
 20
-1875.4867731507738
 10
436.46635058814468
 20
-1875.3601920431533
 42
0.0015170975153341
 10
436.58753716656759
 20
-1874.9483236916265
 42
-0.0004887993113621
 10
436.70787693967196
 20
-1874.5362052796488
 10
436.78435419718579
 20
-1874.2752478936434
 42
0.0002583378928388
 10
437.05756876725286
 20
-1873.3411911904548
 10
437.13934161681868
 20
-1873.0610919309088
 42
0.000663616967257
 10
437.333209376838
 20
-1872.3937390072942
 10
437.33830603117957
 20
-1872.3761074244333
 42
0.0010589131322672
 10
437.51975473210166
 20
-1871.7433760813653
 10
437.52473680259459
 20
-1871.7258631743014
 42
0.0015655524461971
 10
437.69300700976493
 20
-1871.1272464951444
 10
437.69783721017183
 20
-1871.1098543362375
 42
0.0021640440475747
 10
437.85212718216593
 20
-1870.5448273181905
 10
437.85676140160217
 20
-1870.5275625881732
 42
0.0028763871851857
 10
437.99627711964882
 20
-1869.9955946373495
 10
438.0006629838166
 20
-1869.9784706591931
 42
0.003731051194763
 10
438.12461967565292
 20
-1869.4790230651711
 10
438.12869489594129
 20
-1869.4620627939282
 42
0.0047652197771988
 10
438.2363187964504
 20
-1868.9945850256206
 10
438.24000939577496
 20
-1868.9778254704652
 42
0.0060276699299547
 10
438.33053949492745
 20
-1868.5417496753264
 10
438.33375818521597
 20
-1868.5252484610203
 42
0.0075824337754317
 10
438.40644749463206
 20
-1868.119981296591
 10
438.40909287201208
 20
-1868.1038263491419
 42
0.0095130624610916
 10
438.46320810764354
 20
-1867.7287369960686
 10
438.47019433152593
 20
-1867.6728034379537
 42
0.0121054653224717
 10
438.496785662104
 20
-1867.4079076094783
 10
438.49765215186306
 20
-1867.3965041665556
 42
0.0069050827389213
 10
438.51274096990124
 20
-1867.1535629397049
 10
438.51387626956972
 20
-1867.1300366826611
 42
0.0169063976698314
 10
438.51670354855008
 20
-1866.9338439553594
 10
438.51553289701877
 20
-1866.8735081940092
 42
0.0052007732905296
 10
438.51327944842581
 20
-1866.7979148038582
 42
0.005403812330339
 10
438.49331593658621
 20
-1866.677896507844
 10
438.48823008071651
 20
-1866.6492380212671
 42
0.0112050460463804
 10
438.45284571865818
 20
-1866.4729115829286
 10
438.43502075661735
 20
-1866.3933699962072
 42
0.0240764468009279
 10
438.344123390471
 20
-1866.0631329607056
 10
438.32556462765757
 20
-1866.0065127957118
 42
0.0256812331832563
 10
438.18220170746821
 20
-1865.634788589455
 10
438.17679228164644
 20
-1865.6226572544645
 42
0.026836050121737
 10
438.00736504079691
 20
-1865.2916641204442
 10
438.00182863316189
 20
-1865.2821444501319
 42
0.0274670231727198
 10
437.80962765674855
 20
-1864.9898570752148
 10
437.80424635678565
 20
-1864.982577927673
 42
0.0275035967100926
 10
437.59267347722408
 20
-1864.7270620373693
 10
437.58760397625753
 20
-1864.7215829497388
 42
0.0269557673526913
 10
437.36020043281798
 20
-1864.5009406637764
 10
437.35545737503679
 20
-1864.4968107093168
 42
0.025912480220964
 10
437.11590254360459
 20
-1864.3091201821635
 10
437.11137169842362
 20
-1864.3059346798339
 42
0.0245162153000585
 10
436.86345534532791
 20
-1864.1492016707225
 10
436.85892879900405
 20
-1864.1466414735219
 42
0.0229282588838138
 10
436.60650924217634
 20
-1864.0187732810227
 10
436.60172874833705
 20
-1864.0166209812596
 42
0.0212984135693764
 10
436.34869079587787
 20
-1863.9154220640185
 10
436.34338651091088
 20
-1863.9135585012593
 42
0.0197555462337498
 10
436.09360817318537
 20
-1863.8367430832936
 42
0.0183511896785034
 10
435.83867944772032
 20
-1863.7791601763279
 10
435.75231425100043
 20
-1863.7629573859435
 42
0.0338057877149263
 10
435.46680690173889
 20
-1863.7291489808031
 10
435.37580149668713
 20
-1863.7245693255411
 42
0.0091990524507046
 10
435.26995438806296
 20
-1863.7211934696195
 42
0.0028333980768176
 10
435.16404047209573
 20
-1863.7203653621027
 10
435.1631250190207
 20
-1863.7203633922786
 42
-0.0023619827815439
 10
435.05537900392312
 20
-1863.7196225512002
 10
435.01897383373893
 20
-1863.7192002447373
 42
0.0008824598484354
 10
434.83841784391802
 20
-1863.7174244664993
 10
434.79455641148309
 20
-1863.7170705049734
 42
0.0038132665768165
 10
434.52627351561648
 20
-1863.7169515689066
 10
434.50973986081078
 20
-1863.7170703350503
 42
0.0060665569337444
 10
434.20845936920716
 20
-1863.7228906344715
 10
434.19420903719413
 20
-1863.7233389424387
 42
0.0080356953337732
 10
433.86475032085224
 20
-1863.7390066645057
 10
433.85268030576765
 20
-1863.739775247446
 42
0.0098996399105181
 10
433.49991722112463
 20
-1863.7692604766435
 10
433.48987151174208
 20
-1863.7703007728423
 42
0.0117740981369349
 10
433.11871465339084
 20
-1863.8175930203727
 10
433.11049195691078
 20
-1863.818838136943
 42
0.0137435215133145
 10
432.72590313742825
 20
-1863.887935110504
 10
432.71924609830234
 20
-1863.8893210067381
 42
0.0158359869383966
 10
432.32624900450134
 20
-1863.9842130952186
 10
432.32083581763271
 20
-1863.9857030360895
 42
0.0180554124026984
 10
431.92452077301709
 20
-1864.1103410523292
 10
431.91996398493689
 20
-1864.1119570885944
 42
0.0203657431283771
 10
431.52548646712523
 20
-1864.2702174301105
 10
431.5213429281182
 20
-1864.2720790515523
 42
0.022681968465631
 10
431.1339068719148
 20
-1864.467721630223
 10
431.12970708089642
 20
-1864.4700872221429
 42
0.0248634984605625
 10
430.75452513971732
 20
-1864.7067138680889
 10
430.70633021093329
 20
-1864.7405709099144
 42
0.0267044190881235
 10
430.43203751401472
 20
-1864.9560112857839
 42
0.013930300219586
 10
430.17587034807997
 20
-1865.1932501266922
 10
430.171016962355
 20
-1865.1980027895561
 42
0.0283460963441595
 10
429.92694436812604
 20
-1865.4657334500032
 10
429.88727586297125
 20
-1865.5145350274743
 42
0.0070695364826285
 10
429.8098386371114
 20
-1865.6126018434397
 42
0.0070695364826285
  0
LWPOLYLINE
  5
4E
100
AcDbEntity
  8
0
370
              15
390
0
  6
Continuous
 62
               7
100
AcDbPolyline
 90
      226
 70
             128
 10
426.281018199865
 20
-1881.3341906496237
 42
-0.0026277636632275
 10
426.28094031606491
 20
-1881.2674187238927
 10
426.28115767429699
 20
-1881.2142635064374
 42
-0.008868029673261
 10
426.28493429058989
 20
-1881.0412477240386
 10
426.2872806497025
 20
-1880.9819676985808
 42
-0.0077381705621047
 10
426.30332676046515
 20
-1880.6907072027891
 10
426.3041946716387
 20
-1880.6784189690975
 42
-0.0068872530537205
 10
426.33082675138621
 20
-1880.3631972170353
 10
426.33203097557293
 20
-1880.35095623801
 42
-0.006213002148532
 10
426.36962469240069
 20
-1880.012086546772
 10
426.37112859593589
 20
-1879.9999126748548
 42
-0.0056726929668996
 10
426.42005045543829
 20
-1879.6377174527404
 10
426.42182390108258
 20
-1879.625623652496
 42
-0.0052341884494596
 10
426.48243448734428
 20
-1879.2404303969679
 10
426.4844524761192
 20
-1879.2284254669858
 42
-0.0049768450169149
 10
426.55719115754363
 20
-1878.8205808995635
 10
426.58144017226732
 20
-1878.6920329165473
 42
-0.0089029805626997
 10
426.71852102406126
 20
-1878.0302574691286
 10
426.7512663993806
 20
-1877.8852260386013
 42
-0.0080318257098866
 10
426.98081501372184
 20
-1876.9395164067455
 10
426.99279994016956
 20
-1876.8933857715574
 42
-0.0074265721317095
 10
427.27681147902035
 20
-1875.863321193174
 10
427.29669102213614
 20
-1875.7951871325877
 42
-0.0069711922701956
 10
427.62399560064284
 20
-1874.7289193922597
 10
427.68394754774749
 20
-1874.5428980338918
 42
-0.0052070422894824
 10
427.91337277300767
 20
-1873.8556259568577
 10
427.93065396516971
 20
-1873.8055986762699
 42
-0.0009167004448999
 10
428.1337458524693
 20
-1873.2211428280866
 42
-0.0025162726943545
 10
428.34084348273245
 20
-1872.6381015639222
 10
428.37806809453707
 20
-1872.5349520180191
 42
-0.0028212681456672
 10
428.62624401350041
 20
-1871.8592213858474
 10
428.63607477625061
 20
-1871.8329139411717
 42
-0.003196491681907
 10
428.87236703391341
 20
-1871.2127091790437
 10
428.88200148790844
 20
-1871.1878991889105
 42
-0.003628183645229
 10
429.1071074490136
 20
-1870.6204585080072
 10
429.1165458591679
 20
-1870.5971610765121
 42
-0.0041269166834313
 10
429.33116355583024
 20
-1870.0797201805262
 10
429.36379651224939
 20
-1870.0028417341689
 42
-0.0047472213057471
 10
429.52084131780464
 20
-1869.6424202662818
 10
429.52773539900716
 20
-1869.6269996689625
 42
-0.0025651659997398
 10
429.67609343286301
 20
-1869.2996716132013
 42
-0.0057144634994963
 10
429.82984312663444
 20
-1868.9748619398385
 10
429.8578738320395
 20
-1868.9173535574366
 42
-0.006538806837368
 10
430.04134085977535
 20
-1868.5531210607796
 10
430.04979931554794
 20
-1868.5368614814215
 42
-0.0074510843024042
 10
430.22598156143169
 20
-1868.2101732002875
 10
430.23416123196347
 20
-1868.1955324230173
 42
-0.0084648979857026
 10
430.40379508506277
 20
-1867.9036234120574
 10
430.4116512115537
 20
-1867.8906164204018
 42
-0.0095638542807576
 10
430.5754866591451
 20
-1867.630727548428
 10
430.58296160281191
 20
-1867.61935818698
 42
-0.0107191626806934
 10
430.7417631832044
 20
-1867.3887469524284
 10
430.74877991693404
 20
-1867.3790108600656
 42
-0.0118458573901437
 10
430.90332801544798
 20
-1867.1749386647532
 42
-0.0129184518190221
 10
431.06778063905176
 20
-1866.9787781485804
 10
431.09792541141258
 20
-1866.9446520696833
 42
-0.0217742579638072
 10
431.27453773374799
 20
-1866.761445299433
 10
431.28528327820806
 20
-1866.7512284662305
 42
-0.0097266568650798
 10
431.45134089706409
 20
-1866.5993808917929
 42
-0.0187720905719248
 10
431.6256884729512
 20
-1866.4573120384055
 10
431.65639446362633
 20
-1866.4341529560086
 42
-0.0179428207519082
 10
431.88881518362393
 20
-1866.2716007788958
 10
431.89246751053884
 20
-1866.2692368440087
 42
-0.0170047877699657
 10
432.12823114807009
 20
-1866.1277763298567
 10
432.13201413681543
 20
-1866.1256780248211
 42
-0.0160190788370739
 10
432.36892268445195
 20
-1866.0040267228324
 42
-0.015110286149072
 10
432.61295446690286
 20
-1865.8973439467759
 10
432.66534096911039
 20
-1865.8763038138829
 42
-0.0271945441883609
 10
433.02400352817284
 20
-1865.7544390031758
 10
433.09306832865462
 20
-1865.7350894619112
 42
-0.0237596594022574
 10
433.5088651756792
 20
-1865.639638749929
 10
433.57692802940579
 20
-1865.627384061803
 42
-0.0213715440556814
 10
433.86280296085494
 20
-1865.5884370302924
 10
433.92295012707774
 20
-1865.5828473155912
 42
-0.0101465655815037
 10
434.09044265906709
 20
-1865.5707037723273
 10
434.09978304525674
 20
-1865.5702168573305
 42
-0.0100375910881148
 10
434.24893714582788
 20
-1865.565441039405
 10
434.2591964155136
 20
-1865.5653186003904
 42
-0.0103625633372317
 10
434.38790441016312
 20
-1865.5664500339171
 10
434.41017006143153
 20
-1865.567107392382
 42
-0.0115689250221776
 10
434.49422079895794
 20
-1865.5715368986271
 42
-0.0072438037420827
 10
434.57805907841112
 20
-1865.5791260983781
 10
434.59485958786991
 20
-1865.5808926411007
 42
-0.0217917313151701
 10
434.71142935118024
 20
-1865.5983125338214
 10
434.77702944175201
 20
-1865.6110591422366
 42
-0.0332943556753392
 10
434.98142160677861
 20
-1865.6650994335432
 10
435.01159417532801
 20
-1865.6752675106616
 42
-0.0184824084801028
 10
435.15009923179406
 20
-1865.7277185260482
 42
-0.0198002050690367
 10
435.28417357229131
 20
-1865.7906025862465
 10
435.28606020967032
 20
-1865.7915803731275
 42
-0.0212242342982213
 10
435.4181991520723
 20
-1865.8673431119207
 10
435.42001444761576
 20
-1865.8684889141291
 42
-0.0226090605792308
 10
435.54851834883902
 20
-1865.9579685576948
 10
435.55036279057487
 20
-1865.9593808106811
 42
-0.0238457052231275
 10
435.67354487186878
 20
-1866.0633767065442
 10
435.67549760042687
 20
-1866.0651915843096
 42
-0.0248160564164358
 10
435.79169910772663
 20
-1866.1844661855173
 10
435.79380274112958
 20
-1866.1868515192227
 42
-0.0254109591452028
 10
435.90140795899407
 20
-1866.3221399051849
 10
435.9036559809096
 20
-1866.3252814535876
 42
-0.0255528488285369
 10
436.00110265970739
 20
-1866.477308507823
 10
436.00343375962285
 20
-1866.4813901194293
 42
-0.0252146793218282
 10
436.08921478563224
 20
-1866.6508923654269
 10
436.0915170247896
 20
-1866.6560744473393
 42
-0.0244265635947313
 10
436.16417171855124
 20
-1866.8438210193863
 10
436.17341812001968
 20
-1866.8716864377243
 42
-0.0231319612906095
 10
436.21934089901151
 20
-1867.0349874845253
 42
-0.0112130424367477
 10
436.25397692154934
 20
-1867.2011910847116
 10
436.25517944666223
 20
-1867.2076876716014
 42
-0.0210527881235837
 10
436.28086592203317
 20
-1867.388743317043
 10
436.28437651685493
 20
-1867.4241488655898
 42
-0.019002989242497
 10
436.2998179903995
 20
-1867.6776847118615
 10
436.30062796684354
 20
-1867.713160326231
 42
-0.0137974553661594
 10
436.29907911400807
 20
-1868.0381917329619
 10
436.29823365905241
 20
-1868.064310477557
 42
-0.0081336634214953
 10
436.28337432382989
 20
-1868.3696579451566
 42
-0.0073526923565155
 10
436.259065790455
 20
-1868.6744061894449
 10
436.25780436667253
 20
-1868.6877428641078
 42
-0.0066886138691746
 10
436.22206878062605
 20
-1869.0183289076053
 10
436.22041169115613
 20
-1869.0319505265966
 42
-0.0061359187357292
 10
436.17256108910453
 20
-1869.3887145067013
 10
436.17052358803238
 20
-1869.4026093095258
 42
-0.0056698610064648
 10
436.10987325726512
 20
-1869.7858878783652
 10
436.10746782394227
 20
-1869.8000469975946
 42
-0.0052721077275654
 10
436.03333562314316
 20
-1870.2101743372696
 10
436.03057247430093
 20
-1870.2245909726585
 42
-0.0049289272174715
 10
435.94227835620211
 20
-1870.661899483775
 10
435.93916586151835
 20
-1870.6765683365966
 42
-0.0047415956710122
 10
435.83592786998753
 20
-1871.1413650940003
 10
435.80115965962625
 20
-1871.2911721893904
 42
-0.008440447090273
 10
435.61114321605362
 20
-1872.0513962139244
 10
435.60501652806875
 20
-1872.074260338075
 42
-0.0039635940257047
 10
435.38356284378261
 20
-1872.8752492023298
 10
435.37018604860521
 20
-1872.9221808189141
 42
-0.0072475040837012
 10
435.10273916074215
 20
-1873.8114005353045
 10
435.03252683391327
 20
-1874.0331408852815
 42
-0.0051345458827721
 10
434.74576746185585
 20
-1874.9074660730876
 10
434.72424119510231
 20
-1874.9708923401763
 42
-0.0019150016603084
 10
434.46870778822165
 20
-1875.7144414604436
 10
434.46224018381542
 20
-1875.7330289253937
 42
-0.0021524362750882
 10
434.21376213276159
 20
-1876.4373547470732
 10
434.20455171206976
 20
-1876.4631083253619
 42
-0.0024331286821127
 10
433.96829645302915
 20
-1877.1137076334926
 10
433.95924850048334
 20
-1877.1382509398341
 42
-0.0027449721791989
 10
433.73463392964322
 20
-1877.7373808187715
 10
433.72574392225482
 20
-1877.7607034086136
 42
-0.0031083229769717
 10
433.51220143564103
 20
-1878.3106274462034
 10
433.50346530396018
 20
-1878.3327171620745
 42
-0.0035311343282502
 10
433.30042411837366
 20
-1878.8357002877913
 10
433.29183877922947
 20
-1878.8565430112931
 42
-0.0040245640951705
 10
433.09872697543153
 20
-1879.3148523338941
 10
433.0902908618263
 20
-1879.3344317019712
 42
-0.0046015135850316
 10
432.90653456866471
 20
-1879.7503367316083
 10
432.89824839083508
 20
-1879.7686338710635
 42
-0.0052768638268474
 10
432.72327087188086
 20
-1880.1444067553307
 10
432.7151386612577
 20
-1880.161400093866
 42
-0.0060672675646
 10
432.54835904848795
 20
-1880.4993157169881
 10
432.5403895680065
 20
-1880.5149809759853
 42
-0.0069904648871117
 10
432.38122117400491
 20
-1880.817316782649
 10
432.37342977438982
 20
-1880.8316273318842
 42
-0.0080637022764177
 10
432.22127791404824
 20
-1881.1006626350295
 10
432.21368888142013
 20
-1881.1135905006249
 42
-0.0093006455667528
 10
432.06794820488551
 20
-1881.3516048991332
 10
432.06059753814105
 20
-1881.3631228683075
 42
-0.0107060778052003
 10
431.92064899470341
 20
-1881.5723931856855
 10
431.91358722642627
 20
-1881.5824787282479
 42
-0.0122723111414469
 10
431.77879350822565
 20
-1881.7652720577403
 10
431.77846728466631
 20
-1881.7656924455566
 42
-0.0141836319621665
 10
431.63488568169754
 20
-1881.9402622033795
 10
431.62793792604657
 20
-1881.948237203643
 42
-0.0175957477213341
 10
431.48803175801089
 20
-1882.0978580920491
 42
-0.0080466359665105
 10
431.34056799297116
 20
-1882.2401806202092
 10
431.2945334484632
 20
-1882.2832010582915
 42
-0.0269600260390156
 10
431.04125320248102
 20
-1882.4955243168004
 10
430.97468606618696
 20
-1882.5454757314219
 42
-0.017836283975492
 10
430.73474157652743
 20
-1882.712493657677
 10
430.7274966055225
 20
-1882.7171621698849
 42
-0.0174650732646875
 10
430.4911604080857
 20
-1882.858023134841
 42
-0.0169240130170995
 10
430.24569416223534
 20
-1882.9823153946149
 10
430.19970800667016
 20
-1883.0036773501856
 42
-0.0318883036842611
 10
429.84935715105047
 20
-1883.1400156596956
 10
429.78099161588403
 20
-1883.1617162801717
 42
-0.0284435909901257
 10
429.40494148959442
 20
-1883.2579337156458
 10
429.36978332909302
 20
-1883.2648273114748
 42
-0.0243909341012093
 10
429.05633986817691
 20
-1883.3105483425045
 10
429.00605914140641
 20
-1883.3153938894061
 42
-0.0196639292931008
 10
428.79046356387852
 20
-1883.3276421749197
 10
428.73863949271839
 20
-1883.3285454356565
 42
-0.0100501510682482
 10
428.6262162110508
 20
-1883.3282450373033
 10
428.59455634970408
 20
-1883.3275239654179
 42
-0.0019752031117083
 10
428.54546401302537
 20
-1883.3262118052085
 10
428.54270370979742
 20
-1883.326127113382
 42
0.0065378752015192
 10
428.49912713504847
 20
-1883.3253602221671
 42
-0.0167974694651382
 10
428.45559631211563
 20
-1883.3237003236409
 10
428.45151697285456
 20
-1883.323407312746
 42
-0.0081283276305986
 10
428.39995717512215
 20
-1883.3188603191088
 10
428.3882176012375
 20
-1883.3176324015299
 42
-0.0126703440167252
 10
428.31349930544326
 20
-1883.3078976104584
 10
428.29071143776724
 20
-1883.3043393545431
 42
-0.0117852088432947
 10
428.17117245193538
 20
-1883.2827763593862
 10
428.11579200017184
 20
-1883.2714328191514
 42
-0.0251774592293421
 10
427.88894796116341
 20
-1883.2129348097183
 10
427.8442287713097
 20
-1883.1989679903822
 42
-0.0146525199881016
 10
427.65783578377443
 20
-1883.1347014631851
 42
-0.0166929435856906
 10
427.47585812764788
 20
-1883.0588943301304
 10
427.47120149637459
 20
-1883.0567694295164
 42
-0.0191684358437228
 10
427.28601786512701
 20
-1882.9635333457272
 10
427.28268527936842
 20
-1882.961692098173
 42
-0.022118178180937
 10
427.09937497546292
 20
-1882.8495585998
 10
427.09702517145774
 20
-1882.8479743018113
 42
-0.0254984685391447
 10
426.92073502107479
 20
-1882.7155631518435
 10
426.89825287337078
 20
-1882.6968108429055
 42
-0.0292492648809295
 10
426.77348393452746
 20
-1882.5797180432623
 42
-0.0159048957493621
 10
426.65964393707662
 20
-1882.4516980516626
 10
426.65832514649804
 20
-1882.4501164386434
 42
-0.034381337956637
 10
426.5556878848721
 20
-1882.3082451128744
 10
426.52419635351094
 20
-1882.2577417207797
 42
-0.0369117275700201
 10
426.43830385161368
 20
-1882.0942644798313
 42
-0.0191751379905863
 10
426.37111046605656
 20
-1881.921859873825
 10
426.36934714229716
 20
-1881.9167665291504
 42
-0.0378178042232342
 10
426.31955242351302
 20
-1881.7278257530695
 10
426.3135571277827
 20
-1881.6952651348722
 42
-0.0184846046481069
 10
426.29283992848826
 20
-1881.5535123143272
 42
-0.0179866351323912
 10
426.28250692341459
 20
-1881.4106215012469
 10
426.28245048096881
 20
-1881.4090638146336
 42
-0.0085497186109196
 10
426.281018199865
 20
-1881.3341906496237
 42
-0.0085497186109196
  0
ENDBLK
  5
4F
100
AcDbEntity
  8
template
390
0
100
AcDbBlockEnd
  0
BLOCK
  5
50
100
AcDbEntity
  8
notes
390
0
100
AcDbBlockBegin
  2
*D3
 70
               1
 10
0.0
 20
0.0
 30
0.0
  3
*D3
  1

  0
LINE
  5
51
100
AcDbEntity
  8
0
370
              -2
390
0
  6
Continuous
 62
               0
100
AcDbLine
 10
-667.22584135305567
 20
391.87269100717708
 30
0.0
 11
-667.22584135305567
 21
204.1224126103956
 31
0.0
  0
LINE
  5
52
100
AcDbEntity
  8
0
370
              -2
390
0
  6
Continuous
 62
               0
100
AcDbLine
 10
-277.22584135305544
 20
391.8726910071772
 30
0.0
 11
-277.22584135305544
 21
204.1224126103956
 31
0.0
  0
LINE
  5
53
100
AcDbEntity
  8
0
370
              -2
390
0
  6
Continuous
 62
               0
100
AcDbLine
 10
-667.22584135305567
 20
204.1224126103956
 30
0.0
 11
-277.22584135305544
 21
204.1224126103956
 31
0.0
  0
CIRCLE
  5
54
102
{ACAD_REACTORS
330
55
102
}
100
AcDbEntity
  8
0
370
              -2
390
0
  6
Continuous
 62
               0
100
AcDbCircle
 10
-667.22584135305567
 20
204.1224126103956
 30
0.0
 40
1.9998779296875
  0
HATCH
  5
55
100
AcDbEntity
  8
0
370
              -2
390
0
  6
Continuous
 62
               0
100
AcDbHatch
 10
0.0
 20
0.0
 30
0.0
210
0.0
220
0.0
230
1.0
  2
SOLID
 70
               1
 71
               1
 91
        1
 92
        1
 93
        1
 72
               2
 10
-667.22584135305567
 20
204.1224126103956
 40
1.9998779296875
 50
0.0
 51
360.0
 73
               0
 97
        1
330
54
 75
               0
 76
               1
 98
        1
 10
0.0
 20
0.0
  0
CIRCLE
  5
56
102
{ACAD_REACTORS
330
57
102
}
100
AcDbEntity
  8
0
370
              -2
390
0
  6
Continuous
 62
               0
100
AcDbCircle
 10
-277.22584135305544
 20
204.1224126103956
 30
0.0
 40
1.9998779296875
  0
HATCH
  5
57
100
AcDbEntity
  8
0
370
              -2
390
0
  6
Continuous
 62
               0
100
AcDbHatch
 10
0.0
 20
0.0
 30
0.0
210
0.0
220
0.0
230
1.0
  2
SOLID
 70
               1
 71
               1
 91
        1
 92
        1
 93
        1
 72
               2
 10
-277.22584135305544
 20
204.1224126103956
 40
1.9998779296875
 50
0.0
 51
360.0
 73
               0
 97
        1
330
56
 75
               0
 76
               1
 98
        1
 10
0.0
 20
0.0
  0
MTEXT
  5
58
100
AcDbEntity
  8
0
390
0
 62
               0
100
AcDbMText
 10
-511.91334135305556
 20
238.00002979789559
 30
0.0
 40
24.432617187500004
 41
0.0
 71
               1
 72
               1
  1
φ390
  7
ＭＳ ゴシック
 73
               1
 44
0.7828267384257843
  0
POINT
  5
59
100
AcDbEntity
  8
Defpoints
370
               0
390
0
 62
               0
100
AcDbPoint
 10
-277.22584135305544
 20
416.8726910071772
 30
0.0
  0
POINT
  5
5A
100
AcDbEntity
  8
Defpoints
370
               0
390
0
 62
               0
100
AcDbPoint
 10
-667.22584135305567
 20
416.87269100717708
 30
0.0
  0
POINT
  5
5B
100
AcDbEntity
  8
Defpoints
370
               0
390
0
 62
               0
100
AcDbPoint
 10
-667.22584135305567
 20
204.1224126103956
 30
0.0
  0
ENDBLK
  5
5C
100
AcDbEntity
  8
notes
390
0
100
AcDbBlockEnd
  0
BLOCK
  5
5D
100
AcDbEntity
  8
notes
390
0
100
AcDbBlockBegin
  2
*D4
 70
               1
 10
0.0
 20
0.0
 30
0.0
  3
*D4
  1

  0
LINE
  5
5E
100
AcDbEntity
  8
0
370
              -2
390
0
  6
Continuous
 62
               0
100
AcDbLine
 10
-697.2258413530559
 20
599.12812093756361
 30
0.0
 11
-697.2258413530559
 21
854.1224126103956
 31
0.0
  0
LINE
  5
5F
100
AcDbEntity
  8
0
370
              -2
390
0
  6
Continuous
 62
               0
100
AcDbLine
 10
-247.22584135305544
 20
599.12812093756361
 30
0.0
 11
-247.22584135305544
 21
854.1224126103956
 31
0.0
  0
LINE
  5
60
100
AcDbEntity
  8
0
370
              -2
390
0
  6
Continuous
 62
               0
100
AcDbLine
 10
-697.2258413530559
 20
854.1224126103956
 30
0.0
 11
-247.22584135305544
 21
854.1224126103956
 31
0.0
  0
CIRCLE
  5
61
102
{ACAD_REACTORS
330
62
102
}
100
AcDbEntity
  8
0
370
              -2
390
0
  6
Continuous
 62
               0
100
AcDbCircle
 10
-697.2258413530559
 20
854.1224126103956
 30
0.0
 40
1.9998779296875
  0
HATCH
  5
62
100
AcDbEntity
  8
0
370
              -2
390
0
  6
Continuous
 62
               0
100
AcDbHatch
 10
0.0
 20
0.0
 30
0.0
210
0.0
220
0.0
230
1.0
  2
SOLID
 70
               1
 71
               1
 91
        1
 92
        1
 93
        1
 72
               2
 10
-697.2258413530559
 20
854.1224126103956
 40
1.9998779296875
 50
0.0
 51
360.0
 73
               0
 97
        1
330
61
 75
               0
 76
               1
 98
        1
 10
0.0
 20
0.0
  0
CIRCLE
  5
63
102
{ACAD_REACTORS
330
64
102
}
100
AcDbEntity
  8
0
370
              -2
390
0
  6
Continuous
 62
               0
100
AcDbCircle
 10
-247.22584135305544
 20
854.1224126103956
 30
0.0
 40
1.9998779296875
  0
HATCH
  5
64
100
AcDbEntity
  8
0
370
              -2
390
0
  6
Continuous
 62
               0
100
AcDbHatch
 10
0.0
 20
0.0
 30
0.0
210
0.0
220
0.0
230
1.0
  2
SOLID
 70
               1
 71
               1
 91
        1
 92
        1
 93
        1
 72
               2
 10
-247.22584135305544
 20
854.1224126103956
 40
1.9998779296875
 50
0.0
 51
360.0
 73
               0
 97
        1
330
63
 75
               0
 76
               1
 98
        1
 10
0.0
 20
0.0
  0
MTEXT
  5
65
100
AcDbEntity
  8
0
390
0
 62
               0
100
AcDbMText
 10
-511.91334135305567
 20
888.00002979789565
 30
0.0
 40
24.432617187500004
 41
0.0
 71
               1
 72
               1
  1
φ450
  7
ＭＳ ゴシック
 73
               1
 44
0.7828267384257843
  0
POINT
  5
66
100
AcDbEntity
  8
Defpoints
370
               0
390
0
 62
               0
100
AcDbPoint
 10
-247.22584135305544
 20
574.12812093756361
 30
0.0
  0
POINT
  5
67
100
AcDbEntity
  8
Defpoints
370
               0
390
0
 62
               0
100
AcDbPoint
 10
-697.2258413530559
 20
574.12812093756361
 30
0.0
  0
POINT
  5
68
100
AcDbEntity
  8
Defpoints
370
               0
390
0
 62
               0
100
AcDbPoint
 10
-697.2258413530559
 20
854.1224126103956
 30
0.0
  0
ENDBLK
  5
69
100
AcDbEntity
  8
notes
390
0
100
AcDbBlockEnd
  0
BLOCK
  5
6A
100
AcDbEntity
  8
notes
390
0
100
AcDbBlockBegin
  2
*D5
 70
               1
 10
0.0
 20
0.0
 30
0.0
  3
*D5
  1

  0
LINE
  5
6B
100
AcDbEntity
  8
0
370
              -2
390
0
  6
Continuous
 62
               0
100
AcDbLine
 10
-228.39730457316375
 20
-461.8412457772431
 30
0.0
 11
-147.22584135305544
 21
-461.8412457772431
 31
0.0
  0
LINE
  5
6C
100
AcDbEntity
  8
0
370
              -2
390
0
  6
Continuous
 62
               0
100
AcDbLine
 10
-259.66791629233046
 20
-611.84124577724265
 30
0.0
 11
-147.22584135305544
 21
-611.84124577724265
 31
0.0
  0
LINE
  5
6D
100
AcDbEntity
  8
0
370
              -2
390
0
  6
Continuous
 62
               0
100
AcDbLine
 10
-147.22584135305544
 20
-461.8412457772431
 30
0.0
 11
-147.22584135305544
 21
-611.84124577724265
 31
0.0
  0
CIRCLE
  5
6E
102
{ACAD_REACTORS
330
6F
102
}
100
AcDbEntity
  8
0
370
              -2
390
0
  6
Continuous
 62
               0
100
AcDbCircle
 10
-147.22584135305544
 20
-461.8412457772431
 30
0.0
 40
1.9998779296875
  0
HATCH
  5
6F
100
AcDbEntity
  8
0
370
              -2
390
0
  6
Continuous
 62
               0
100
AcDbHatch
 10
0.0
 20
0.0
 30
0.0
210
0.0
220
0.0
230
1.0
  2
SOLID
 70
               1
 71
               1
 91
        1
 92
        1
 93
        1
 72
               2
 10
-147.22584135305544
 20
-461.8412457772431
 40
1.9998779296875
 50
0.0
 51
360.0
 73
               0
 97
        1
330
6E
 75
               0
 76
               1
 98
        1
 10
0.0
 20
0.0
  0
CIRCLE
  5
70
102
{ACAD_REACTORS
330
71
102
}
100
AcDbEntity
  8
0
370
              -2
390
0
  6
Continuous
 62
               0
100
AcDbCircle
 10
-147.22584135305544
 20
-611.84124577724265
 30
0.0
 40
1.9998779296875
  0
HATCH
  5
71
100
AcDbEntity
  8
0
370
              -2
390
0
  6
Continuous
 62
               0
100
AcDbHatch
 10
0.0
 20
0.0
 30
0.0
210
0.0
220
0.0
230
1.0
  2
SOLID
 70
               1
 71
               1
 91
        1
 92
        1
 93
        1
 72
               2
 10
-147.22584135305544
 20
-611.84124577724265
 40
1.9998779296875
 50
0.0
 51
360.0
 73
               0
 97
        1
330
70
 75
               0
 76
               1
 98
        1
 10
0.0
 20
0.0
  0
MTEXT
  5
72
100
AcDbEntity
  8
0
390
0
 62
               0
100
AcDbMText
 10
-181.10345854055549
 20
-560.65374745941835
 30
0.0
 40
24.432617187500004
 41
0.0
 71
               1
 72
               1
  1
150
  7
ＭＳ ゴシック
 11
0.0
 21
1.0
 31
0.0
 73
               1
 44
0.7828267384257843
  0
POINT
  5
73
100
AcDbEntity
  8
Defpoints
370
               0
390
0
 62
               0
100
AcDbPoint
 10
-284.66791629233046
 20
-611.84124577724265
 30
0.0
  0
POINT
  5
74
100
AcDbEntity
  8
Defpoints
370
               0
390
0
 62
               0
100
AcDbPoint
 10
-253.39730457316375
 20
-461.8412457772431
 30
0.0
  0
POINT
  5
75
100
AcDbEntity
  8
Defpoints
370
               0
390
0
 62
               0
100
AcDbPoint
 10
-147.22584135305544
 20
-461.8412457772431
 30
0.0
  0
ENDBLK
  5
76
100
AcDbEntity
  8
notes
390
0
100
AcDbBlockEnd
  0
BLOCK
  5
77
100
AcDbEntity
  8
notes
390
0
100
AcDbBlockBegin
  2
*D6
 70
               1
 10
0.0
 20
0.0
 30
0.0
  3
*D6
  1

  0
LINE
  5
78
100
AcDbEntity
  8
0
370
              -2
390
0
  6
Continuous
 62
               0
100
AcDbLine
 10
-467.66830267419948
 20
-461.8412457772431
 30
0.0
 11
-464.98199656320287
 21
-461.8412457772431
 31
0.0
  0
LINE
  5
79
100
AcDbEntity
  8
0
370
              -2
390
0
  6
Continuous
 62
               0
100
AcDbLine
 10
-467.66830267419948
 20
-581.84124577724265
 30
0.0
 11
-464.98199656320287
 21
-581.84124577724265
 31
0.0
  0
LINE
  5
7A
100
AcDbEntity
  8
0
370
              -2
390
0
  6
Continuous
 62
               0
100
AcDbLine
 10
-464.98199656320287
 20
-461.8412457772431
 30
0.0
 11
-464.98199656320287
 21
-306.2985563704832
 31
0.0
  0
LINE
  5
7B
100
AcDbEntity
  8
0
370
              -2
390
0
  6
Continuous
 62
               0
100
AcDbLine
 10
-464.98199656320287
 20
-461.8412457772431
 30
0.0
 11
-464.98199656320287
 21
-581.84124577724265
 31
0.0
  0
CIRCLE
  5
7C
102
{ACAD_REACTORS
330
7D
102
}
100
AcDbEntity
  8
0
370
              -2
390
0
  6
Continuous
 62
               0
100
AcDbCircle
 10
-464.98199656320287
 20
-461.8412457772431
 30
0.0
 40
1.9998779296875
  0
HATCH
  5
7D
100
AcDbEntity
  8
0
370
              -2
390
0
  6
Continuous
 62
               0
100
AcDbHatch
 10
0.0
 20
0.0
 30
0.0
210
0.0
220
0.0
230
1.0
  2
SOLID
 70
               1
 71
               1
 91
        1
 92
        1
 93
        1
 72
               2
 10
-464.98199656320287
 20
-461.8412457772431
 40
1.9998779296875
 50
0.0
 51
360.0
 73
               0
 97
        1
330
7C
 75
               0
 76
               1
 98
        1
 10
0.0
 20
0.0
  0
CIRCLE
  5
7E
102
{ACAD_REACTORS
330
7F
102
}
100
AcDbEntity
  8
0
370
              -2
390
0
  6
Continuous
 62
               0
100
AcDbCircle
 10
-464.98199656320287
 20
-581.84124577724265
 30
0.0
 40
1.9998779296875
  0
HATCH
  5
7F
100
AcDbEntity
  8
0
370
              -2
390
0
  6
Continuous
 62
               0
100
AcDbHatch
 10
0.0
 20
0.0
 30
0.0
210
0.0
220
0.0
230
1.0
  2
SOLID
 70
               1
 71
               1
 91
        1
 92
        1
 93
        1
 72
               2
 10
-464.98199656320287
 20
-581.84124577724265
 40
1.9998779296875
 50
0.0
 51
360.0
 73
               0
 97
        1
330
7E
 75
               0
 76
               1
 98
        1
 10
0.0
 20
0.0
  0
MTEXT
  5
80
100
AcDbEntity
  8
0
390
0
 62
               0
100
AcDbMText
 10
-498.85961375070292
 20
-449.1735563704832
 30
0.0
 40
24.432617187500004
 41
0.0
 71
               1
 72
               1
  1
120(深さ)
  7
ＭＳ ゴシック
 11
0.0
 21
1.0
 31
0.0
 73
               1
 44
0.7828267384257843
  0
POINT
  5
81
100
AcDbEntity
  8
Defpoints
370
               0
390
0
 62
               0
100
AcDbPoint
 10
-492.66830267419948
 20
-581.84124577724265
 30
0.0
  0
POINT
  5
82
100
AcDbEntity
  8
Defpoints
370
               0
390
0
 62
               0
100
AcDbPoint
 10
-492.66830267419948
 20
-461.8412457772431
 30
0.0
  0
POINT
  5
83
100
AcDbEntity
  8
Defpoints
370
               0
390
0
 62
               0
100
AcDbPoint
 10
-464.98199656320287
 20
-461.8412457772431
 30
0.0
  0
ENDBLK
  5
84
100
AcDbEntity
  8
notes
390
0
100
AcDbBlockEnd
  0
BLOCK
  5
85
100
AcDbEntity
  8
notes
390
0
100
AcDbBlockBegin
  2
*D7
 70
               1
 10
0.0
 20
0.0
 30
0.0
  3
*D7
  1

  0
LINE
  5
86
100
AcDbEntity
  8
0
370
              -2
390
0
  6
Continuous
 62
               0
100
AcDbLine
 10
-664.90500801972382
 20
-636.8882687005746
 30
0.0
 11
-664.90500801972382
 21
-711.8882687005746
 31
0.0
  0
LINE
  5
87
100
AcDbEntity
  8
0
370
              -2
390
0
  6
Continuous
 62
               0
100
AcDbLine
 10
-279.90500801972325
 20
-636.8882687005746
 30
0.0
 11
-279.90500801972325
 21
-711.8882687005746
 31
0.0
  0
LINE
  5
88
100
AcDbEntity
  8
0
370
              -2
390
0
  6
Continuous
 62
               0
100
AcDbLine
 10
-664.90500801972382
 20
-711.8882687005746
 30
0.0
 11
-279.90500801972325
 21
-711.8882687005746
 31
0.0
  0
CIRCLE
  5
89
102
{ACAD_REACTORS
330
8A
102
}
100
AcDbEntity
  8
0
370
              -2
390
0
  6
Continuous
 62
               0
100
AcDbCircle
 10
-664.90500801972382
 20
-711.8882687005746
 30
0.0
 40
1.9998779296875
  0
HATCH
  5
8A
100
AcDbEntity
  8
0
370
              -2
390
0
  6
Continuous
 62
               0
100
AcDbHatch
 10
0.0
 20
0.0
 30
0.0
210
0.0
220
0.0
230
1.0
  2
SOLID
 70
               1
 71
               1
 91
        1
 92
        1
 93
        1
 72
               2
 10
-664.90500801972382
 20
-711.8882687005746
 40
1.9998779296875
 50
0.0
 51
360.0
 73
               0
 97
        1
330
89
 75
               0
 76
               1
 98
        1
 10
0.0
 20
0.0
  0
CIRCLE
  5
8B
102
{ACAD_REACTORS
330
8C
102
}
100
AcDbEntity
  8
0
370
              -2
390
0
  6
Continuous
 62
               0
100
AcDbCircle
 10
-279.90500801972325
 20
-711.8882687005746
 30
0.0
 40
1.9998779296875
  0
HATCH
  5
8C
100
AcDbEntity
  8
0
370
              -2
390
0
  6
Continuous
 62
               0
100
AcDbHatch
 10
0.0
 20
0.0
 30
0.0
210
0.0
220
0.0
230
1.0
  2
SOLID
 70
               1
 71
               1
 91
        1
 92
        1
 93
        1
 72
               2
 10
-279.90500801972325
 20
-711.8882687005746
 40
1.9998779296875
 50
0.0
 51
360.0
 73
               0
 97
        1
330
8B
 75
               0
 76
               1
 98
        1
 10
0.0
 20
0.0
  0
MTEXT
  5
8D
100
AcDbEntity
  8
0
390
0
 62
               0
100
AcDbMText
 10
-512.0925080197236
 20
-678.01065151307466
 30
0.0
 40
24.432617187500004
 41
0.0
 71
               1
 72
               1
  1
φ385
  7
ＭＳ ゴシック
 73
               1
 44
0.7828267384257843
  0
POINT
  5
8E
100
AcDbEntity
  8
Defpoints
370
               0
390
0
 62
               0
100
AcDbPoint
 10
-279.90500801972325
 20
-611.8882687005746
 30
0.0
  0
POINT
  5
8F
100
AcDbEntity
  8
Defpoints
370
               0
390
0
 62
               0
100
AcDbPoint
 10
-664.90500801972382
 20
-611.8882687005746
 30
0.0
  0
POINT
  5
90
100
AcDbEntity
  8
Defpoints
370
               0
390
0
 62
               0
100
AcDbPoint
 10
-664.90500801972382
 20
-711.8882687005746
 30
0.0
  0
ENDBLK
  5
91
100
AcDbEntity
  8
notes
390
0
100
AcDbBlockEnd
  0
BLOCK
  5
92
100
AcDbEntity
  8
notes
390
0
100
AcDbBlockBegin
  2
*D8
 70
               1
 10
0.0
 20
0.0
 30
0.0
  3
*D8
  1

  0
LINE
  5
93
100
AcDbEntity
  8
0
370
              -2
390
0
  6
Continuous
 62
               0
100
AcDbLine
 10
477.57116437293541
 20
564.47775166972247
 30
0.0
 11
635.45564251467624
 21
722.36222981146329
 31
0.0
  0
CIRCLE
  5
94
102
{ACAD_REACTORS
330
95
102
}
100
AcDbEntity
  8
0
370
              -2
390
0
  6
Continuous
 62
               0
100
AcDbCircle
 10
477.57116437293541
 20
564.47775166972247
 30
0.0
 40
1.9998779296875
  0
HATCH
  5
95
100
AcDbEntity
  8
0
370
              -2
390
0
  6
Continuous
 62
               0
100
AcDbHatch
 10
0.0
 20
0.0
 30
0.0
210
0.0
220
0.0
230
1.0
  2
SOLID
 70
               1
 71
               1
 91
        1
 92
        1
 93
        1
 72
               2
 10
477.57116437293541
 20
564.47775166972247
 40
1.9998779296875
 50
0.0
 51
360.0
 73
               0
 97
        1
330
94
 75
               0
 76
               1
 98
        1
 10
0.0
 20
0.0
  0
LINE
  5
96
100
AcDbEntity
  8
0
370
              -2
390
0
  6
Continuous
 62
               0
100
AcDbLine
 10
635.45564251467624
 20
722.36222981146329
 30
0.0
 11
774.83064251467624
 21
722.36222981146329
 31
0.0
  0
MTEXT
  5
97
100
AcDbEntity
  8
0
390
0
 62
               0
100
AcDbMText
 10
695.45564251467624
 20
756.23984699896323
 30
0.0
 40
24.432617187500004
 41
0.0
 71
               1
 72
               1
  1
φ100
  7
ＭＳ ゴシック
 73
               1
 44
0.7828267384257843
  0
POINT
  5
98
100
AcDbEntity
  8
Defpoints
370
               0
390
0
 62
               0
100
AcDbPoint
 10
406.8604862542818
 20
493.76707355106879
 30
0.0
  0
POINT
  5
99
100
AcDbEntity
  8
Defpoints
370
               0
390
0
 62
               0
100
AcDbPoint
 10
477.57116437293541
 20
564.47775166972247
 30
0.0
  0
ENDBLK
  5
9A
100
AcDbEntity
  8
notes
390
0
100
AcDbBlockEnd
  0
ENDSEC
  0
SECTION
  2
ENTITIES
  0
MTEXT
  5
9B
100
AcDbEntity
  8
template
390
0
 62
               7
100
AcDbMText
 10
-967.99999999975932
 20
-1147.4176292337004
 30
0.0
 40
16.288411458333332
 41
0.0
 71
               1
 72
               1
  1
品名
  7
ＭＳ ゴシック
 73
               1
 44
0.7828267384257843
  0
MTEXT
  5
9C
100
AcDbEntity
  8
template
390
0
 62
               7
100
AcDbMText
 10
-967.99999999975932
 20
-1232.4176292337004
 30
0.0
 40
16.288411458333332
 41
0.0
 71
               1
 72
               1
  1
仕様
  7
ＭＳ ゴシック
 73
               1
 44
0.7828267384257843
  0
MTEXT
  5
9D
100
AcDbEntity
  8
template
390
0
 62
               7
100
AcDbMText
 10
-914.99999999975932
 20
-1176.0000901712006
 30
0.0
 40
24.432617187500004
 41
0.0
 71
               1
 72
               1
  1
洗面器･手洗器 -CATALANO,Zero-
  7
ＭＳ ゴシック
 73
               1
 44
0.7828267384257843
  0
LINE
  5
9E
100
AcDbEntity
  8
template
370
               5
390
0
  6
Continuous
 62
               7
100
AcDbLine
 10
974.99999999975876
 20
-1224.0027073587005
 30
0.0
 11
-975.00000000024136
 21
-1224.0027073587005
 31
0.0
  0
LWPOLYLINE
  5
9F
100
AcDbEntity
  8
template
370
               5
390
0
  6
Continuous
 62
               7
100
AcDbPolyline
 90
        5
 70
             128
 10
975.00000000024124
 20
1405.9972926412995
 10
-974.99999999975932
 20
1405.9972926412995
 10
-974.99999999975932
 20
-1394.0027073587005
 10
975.00000000024124
 20
-1394.0027073587005
 10
975.00000000024124
 20
1405.9972926412995
  0
LINE
  5
A0
100
AcDbEntity
  8
template
370
               5
390
0
  6
Continuous
 62
               7
100
AcDbLine
 10
974.99999999975876
 20
-1139.0027073587005
 30
0.0
 11
-975.00000000024136
 21
-1139.0027073587005
 31
0.0
  0
LINE
  5
A1
100
AcDbEntity
  8
template
370
               5
390
0
  6
Continuous
 62
               7
100
AcDbLine
 10
975.00000000024124
 20
-1309.0027073587005
 30
0.0
 11
222.00000000024124
 21
-1309.0027073587005
 31
0.0
  0
MTEXT
  5
A2
100
AcDbEntity
  8
template
390
0
 62
               7
100
AcDbMText
 10
-974.99999999955605
 20
-1405.8565294155574
 30
0.0
 40
21.717881944444446
 41
0.0
 71
               1
 72
               1
  1
100707SH
  7
ＭＳ ゴシック
 73
               1
 44
0.7828267384257843
  0
MTEXT
  5
A3
100
AcDbEntity
  8
template
390
0
 62
               7
100
AcDbMText
 10
251.87140625250089
 20
-1338.9131018320081
 30
0.0
 40
24.432617187500004
 41
0.0
 71
               1
 72
               1
  1
大洋金物株式会社 ティーフォルム事業部
  7
ＭＳ ゴシック
 73
               1
 44
0.7828267384257843
  0
INSERT
  5
A4
100
AcDbEntity
  8
template
390
0
 62
               7
100
AcDbBlockReference
  2
グループ
 10
474.78648723787285
 20
520.24483062077729
 30
0.0
  0
MTEXT
  5
A5
100
AcDbEntity
  8
template
390
0
 62
               7
100
AcDbMText
 10
784.00000000049999
 20
-1261.0000901712006
 30
0.0
 40
24.432617187500004
 41
0.0
 71
               1
 72
               1
  1
1:10
  7
ＭＳ ゴシック
 73
               1
 44
0.7828267384257843
  0
MTEXT
  5
A6
100
AcDbEntity
  8
template
390
0
 62
               7
100
AcDbMText
 10
731.00000000049999
 20
-1232.4176292337004
 30
0.0
 40
16.288411458333332
 41
0.0
 71
               1
 72
               1
  1
縮尺
  7
ＭＳ ゴシック
 73
               1
 44
0.7828267384257843
  0
LINE
  5
A7
100
AcDbEntity
  8
template
370
               5
390
0
  6
Continuous
 62
               7
100
AcDbLine
 10
724.00000000049999
 20
-1309.0027073587005
 30
0.0
 11
724.00000000049999
 21
-1224.0027073587005
 31
0.0
  0
MTEXT
  5
A8
100
AcDbEntity
  8
template
390
0
 62
               7
100
AcDbMText
 10
480.00000000049999
 20
-1232.4176292337004
 30
0.0
 40
16.288411458333332
 41
0.0
 71
               1
 72
               1
  1
容量
  7
ＭＳ ゴシック
 73
               1
 44
0.7828267384257843
  0
MTEXT
  5
A9
100
AcDbEntity
  8
template
390
0
 62
               7
100
AcDbMText
 10
533.00000000049999
 20
-1261.0000901712006
 30
0.0
 40
24.432617187500004
 41
0.0
 71
               1
 72
               1
  1
11.5L
  7
ＭＳ ゴシック
 73
               1
 44
0.7828267384257843
  0
LINE
  5
AA
100
AcDbEntity
  8
template
370
               5
390
0
  6
Continuous
 62
               7
100
AcDbLine
 10
473.00000000049999
 20
-1309.0027073587005
 30
0.0
 11
473.00000000049999
 21
-1224.0027073587005
 31
0.0
  0
MTEXT
  5
AB
100
AcDbEntity
  8
template
390
0
 62
               7
100
AcDbMText
 10
229.00000000049999
 20
-1147.4176292337004
 30
0.0
 40
16.288411458333332
 41
0.0
 71
               1
 72
               1
  1
品番
  7
ＭＳ ゴシック
 73
               1
 44
0.7828267384257843
  0
MTEXT
  5
AC
100
AcDbEntity
  8
template
390
0
 62
               7
100
AcDbMText
 10
229.00000000049999
 20
-1232.4176292337004
 30
0.0
 40
16.288411458333332
 41
0.0
 71
               1
 72
               1
  1
重量
  7
ＭＳ ゴシック
 73
               1
 44
0.7828267384257843
  0
MTEXT
  5
AD
100
AcDbEntity
  8
template
390
0
 62
               7
100
AcDbMText
 10
282.00000000049999
 20
-1176.0000901712006
 30
0.0
 40
24.432617187500004
 41
0.0
 71
               1
 72
               1
  1
ADF70-0505
  7
ＭＳ ゴシック
 73
               1
 44
0.7828267384257843
  0
MTEXT
  5
AE
100
AcDbEntity
  8
template
390
0
 62
               7
100
AcDbMText
 10
282.00000000049999
 20
-1261.0000901712006
 30
0.0
 40
24.432617187500004
 41
0.0
 71
               1
 72
               1
  1
9kg
  7
ＭＳ ゴシック
 73
               1
 44
0.7828267384257843
  0
LINE
  5
AF
100
AcDbEntity
  8
template
370
               5
390
0
  6
Continuous
 62
               7
100
AcDbLine
 10
222.00000000049999
 20
-1394.0027073587005
 30
0.0
 11
222.00000000049999
 21
-1139.0027073587005
 31
0.0
  0
MTEXT
  5
B0
100
AcDbEntity
  8
template
390
0
 62
               7
100
AcDbMText
 10
-914.99999999975932
 20
-1261.0000901712006
 30
0.0
 40
24.432617187500004
 41
0.0
 71
               1
 72
               1
  1
カウンター置き/オーバーフローなし/\P陶器/ホワイト
  7
ＭＳ ゴシック
 73
               1
 44
1.3047112307096407
  0
MTEXT
  5
B1
100
AcDbEntity
  8
notes
390
0
 62
               7
100
AcDbMText
 10
303.99915864694316
 20
1002.886359240922
 30
0.0
 40
24.432617187500004
 41
0.0
 71
               1
 72
               1
  1
カウンター切込寸法
  7
ＭＳ ゴシック
 73
               1
 44
0.7828267384257843
  0
DIMENSION
  5
B2
100
AcDbEntity
  8
notes
370
               5
390
0
  6
Continuous
 62
               7
100
AcDbDimension
  2
*D3
 10
-667.22584135305567
 20
204.1224126103956
 30
0.0
 11
-472.22584135305556
 21
204.1224126103956
 31
0.0
 71
               5
 72
               1
 41
1.0
 42
0.0
  3
tform線あり
100
AcDbAlignedDimension
 13
-277.22584135305544
 23
416.8726910071772
 33
0.0
 14
-667.22584135305567
 24
416.87269100717708
 34
0.0
100
AcDbRotatedDimension
1001
ACAD
1000
DSTYLE
1002
{
1070
             279
1070
               2
1070
             340
1005
2A
1070
               3
1000
φ<>
1070
             147
1040
5.0
1002
}
  0
DIMENSION
  5
B3
100
AcDbEntity
  8
notes
370
               5
390
0
  6
Continuous
 62
               7
100
AcDbDimension
  2
*D4
 10
-697.2258413530559
 20
854.1224126103956
 30
0.0
 11
-472.22584135305567
 21
854.1224126103956
 31
0.0
 71
               5
 72
               1
 41
1.0
 42
0.0
  3
tform線あり
100
AcDbAlignedDimension
 13
-247.22584135305544
 23
574.12812093756361
 33
0.0
 14
-697.2258413530559
 24
574.12812093756361
 34
0.0
100
AcDbRotatedDimension
1001
ACAD
1000
DSTYLE
1002
{
1070
             279
1070
               2
1070
             340
1005
2A
1070
               3
1000
φ<>
1070
             147
1040
5.0
1002
}
  0
DIMENSION
  5
B4
100
AcDbEntity
  8
notes
370
               5
390
0
  6
Continuous
 62
               7
100
AcDbDimension
  2
*D5
 10
-147.22584135305544
 20
-461.8412457772431
 30
0.0
 11
-147.22584135305544
 21
-536.84124577724288
 31
0.0
 71
               5
 72
               1
 41
1.0
 42
0.0
  3
tform線あり
100
AcDbAlignedDimension
 13
-284.66791629233046
 23
-611.84124577724265
 33
0.0
 14
-253.39730457316375
 24
-461.8412457772431
 34
0.0
 50
90.0
100
AcDbRotatedDimension
1001
ACAD
1000
DSTYLE
1002
{
1070
             279
1070
               2
1070
             340
1005
2A
1070
             147
1040
5.0
1002
}
  0
DIMENSION
  5
B5
100
AcDbEntity
  8
notes
370
               5
390
0
  6
Continuous
 62
               7
100
AcDbDimension
  2
*D6
 10
-464.98199656320287
 20
-461.8412457772431
 30
0.0
 11
-459.98199656320287
 21
-449.1735563704832
 31
0.0
 70
             128
 71
               5
 72
               1
 41
1.0
 42
0.0
  3
tform線あり
100
AcDbAlignedDimension
 13
-492.66830267419948
 23
-581.84124577724265
 33
0.0
 14
-492.66830267419948
 24
-461.8412457772431
 34
0.0
 50
90.0
100
AcDbRotatedDimension
1001
ACAD
1000
DSTYLE
1002
{
1070
             279
1070
               2
1070
             340
1005
2A
1070
               3
1000
<>(深さ)
1070
             174
1070
               0
1070
             147
1040
5.0
1002
}
  0
DIMENSION
  5
B6
100
AcDbEntity
  8
notes
370
               5
390
0
  6
Continuous
 62
               7
100
AcDbDimension
  2
*D7
 10
-664.90500801972382
 20
-711.8882687005746
 30
0.0
 11
-472.4050080197236
 21
-711.8882687005746
 31
0.0
 71
               5
 72
               1
 41
1.0
 42
0.0
  3
tform線あり
100
AcDbAlignedDimension
 13
-279.90500801972325
 23
-611.8882687005746
 33
0.0
 14
-664.90500801972382
 24
-611.8882687005746
 34
0.0
100
AcDbRotatedDimension
1001
ACAD
1000
DSTYLE
1002
{
1070
             279
1070
               2
1070
             340
1005
2A
1070
               3
1000
φ<>
1070
             147
1040
5.0
1002
}
  0
DIMENSION
  5
B7
100
AcDbEntity
  8
notes
370
               5
390
0
  6
Continuous
 62
               7
100
AcDbDimension
  2
*D8
 10
406.8604862542818
 20
493.76707355106879
 30
0.0
 11
695.45564251467624
 21
722.36222981146329
 31
0.0
 70
               3
 71
               5
 72
               1
 41
1.0
 42
0.0
  3
tform線あり
100
AcDbDiametricDimension
 15
477.57116437293541
 25
564.47775166972247
 35
0.0
 40
223.28237027624834
1001
ACAD
1000
DSTYLE
1002
{
1070
             289
1070
               0
1070
             342
1005
3A
1070
             340
1005
2A
1070
              73
1070
               1
1070
              74
1070
               1
1070
              75
1070
               1
1070
              76
1070
               1
1070
               3
1000

1070
             174
1070
               0
1070
             147
1040
5.0
1002
}
  0
LINE
  5
B8
100
AcDbEntity
  8
ADF70-0505
370
              15
390
0
  6
Continuous
 62
               7
100
AcDbLine
 10
-660.72417248461818
 20
-611.8882687005746
 30
0.0
 11
-284.13883559465796
 21
-611.8882687005746
 31
0.0
  0
LINE
  5
B9
100
AcDbEntity
  8
ADF70-0505
370
              15
390
0
  6
STYLE_11
 62
               7
100
AcDbLine
 10
-495.43150403963784
 20
-589.45745593654442
 30
0.0
 11
-495.43150403963807
 21
-606.84124577724265
 31
0.0
  0
LINE
  5
BA
100
AcDbEntity
  8
ADF70-0505
370
              15
390
0
  6
STYLE_11
 62
               7
100
AcDbLine
 10
-509.93150403963875
 20
-581.45745593654442
 30
0.0
 11
-495.43150403963784
 21
-589.45745593654442
 31
0.0
  0
LWPOLYLINE
  5
BB
100
AcDbEntity
  8
ADF70-0505
370
              15
390
0
  6
STYLE_11
 62
               7
100
AcDbPolyline
 90
        7
 70
             128
 10
-509.93150403963875
 20
-581.45745593654442
 10
-623.4049131080543
 20
-573.71703561956633
 42
-0.3249196962329006
 10
-645.58527115899358
 20
-554.43594452586944
 42
0.3249196962328967
 10
-623.40491310805407
 20
-573.71703561956633
 42
-0.3249196962328967
 10
-645.58527115899358
 20
-554.43594452586944
 10
-666.06777102631861
 20
-465.71649050552378
 42
0.3492156334215066
 10
-670.93962135024469
 20
-461.8412457772431
 42
0.3492156334215066
  0
ARC
  5
BC
100
AcDbEntity
  8
ADF70-0505
370
              15
390
0
  6
Continuous
 62
               7
100
AcDbCircle
 10
-691.46570350611239
 20
-466.8412457772431
 30
0.0
 40
5.0
100
AcDbArc
 50
90.0
 51
193.00000000000026
  0
LINE
  5
BD
100
AcDbEntity
  8
ADF70-0505
370
              15
390
0
  6
Continuous
 62
               7
100
AcDbLine
 10
-663.64728267897374
 20
-609.56312186360651
 30
0.0
 11
-696.33755383003847
 21
-467.96600104896243
 31
0.0
  0
ARC
  5
BE
100
AcDbEntity
  8
ADF70-0505
370
              15
390
0
  6
Continuous
 62
               7
100
AcDbCircle
 10
-660.72417248461863
 20
-608.88826870057505
 30
0.0
 40
2.9999999999994849
100
AcDbArc
 50
193.00000000000847
 51
270.00000000000864
  0
LINE
  5
BF
100
AcDbEntity
  8
ADF70-0505
370
              15
390
0
  6
Continuous
 62
               7
100
AcDbLine
 10
-644.35167972782176
 20
-571.89959522274989
 30
0.0
 11
-644.35167972477905
 21
-571.89959522109007
 31
0.0
  0
LINE
  5
C0
100
AcDbEntity
  8
ADF70-0505
370
              15
390
0
  6
Continuous
 62
               7
100
AcDbLine
 10
-664.1378023650783
 20
-474.56184290360466
 30
0.0
 11
-664.1378023622334
 21
-474.56184290097144
 31
0.0
  0
LINE
  5
C1
100
AcDbEntity
  8
ADF70-0505
370
              15
390
0
  6
STYLE_11
 62
               7
100
AcDbLine
 10
-449.43150403963784
 20
-589.45745593654442
 30
0.0
 11
-449.43150403963762
 21
-606.84124577724265
 31
0.0
  0
LINE
  5
C2
100
AcDbEntity
  8
ADF70-0505
370
              15
390
0
  6
STYLE_11
 62
               7
100
AcDbLine
 10
-434.93150403963693
 20
-581.45745593654442
 30
0.0
 11
-449.43150403963784
 21
-589.45745593654442
 31
0.0
  0
LWPOLYLINE
  5
C3
100
AcDbEntity
  8
ADF70-0505
370
              15
390
0
  6
STYLE_11
 62
               7
100
AcDbPolyline
 90
        7
 70
             128
 10
-273.92338672903145
 20
-461.8412457772431
 42
0.3492156334215265
 10
-278.79523705295753
 20
-465.71649050552355
 10
-299.27773692028256
 20
-554.43594452586944
 42
-0.3249196962328942
 10
-321.45809497122184
 20
-573.71703561956633
 42
0.3249196962328942
 10
-299.27773692028256
 20
-554.43594452586944
 42
-0.3249196962328942
 10
-321.45809497122184
 20
-573.71703561956633
 10
-434.93150403963693
 20
-581.45745593654442
  0
ARC
  5
C4
100
AcDbEntity
  8
ADF70-0505
370
              15
390
0
  6
Continuous
 62
               7
100
AcDbCircle
 10
-253.39730457316364
 20
-466.84124577724299
 30
0.0
 40
4.9999999999998233
100
AcDbArc
 50
346.99999999999829
 51
90.000000000001364
  0
LINE
  5
C5
100
AcDbEntity
  8
ADF70-0505
370
              15
390
0
  6
Continuous
 62
               7
100
AcDbLine
 10
-281.2157254003024
 20
-609.56312186360651
 30
0.0
 11
-248.52545424923767
 21
-467.96600104896243
 31
0.0
  0
ARC
  5
C6
100
AcDbEntity
  8
ADF70-0505
370
              15
390
0
  6
Continuous
 62
               7
100
AcDbCircle
 10
-284.13883559465796
 20
-608.8882687005746
 30
0.0
 40
3.0
100
AcDbArc
 50
270.0
 51
346.99999999999352
  0
LINE
  5
C7
100
AcDbEntity
  8
ADF70-0505
370
              15
390
0
  6
STYLE_11
 62
               7
100
AcDbLine
 10
-495.43150403963807
 20
-606.8412457772431
 30
0.0
 11
-449.43150403963739
 21
-606.8412457772431
 31
0.0
  0
LINE
  5
C8
100
AcDbEntity
  8
ADF70-0505
370
              15
390
0
  6
STYLE_11
 62
               7
100
AcDbLine
 10
-495.43150403963784
 20
-589.45745593654442
 30
0.0
 11
-449.43150403963784
 21
-589.45745593654442
 31
0.0
  0
LINE
  5
C9
100
AcDbEntity
  8
ADF70-0505
370
              15
390
0
  6
STYLE_11
 62
               7
100
AcDbLine
 10
-509.93150403963784
 20
-581.45745593654442
 30
0.0
 11
-434.93150403963784
 21
-581.45745593654442
 31
0.0
  0
LINE
  5
CA
100
AcDbEntity
  8
ADF70-0505
370
              15
390
0
  6
STYLE_11
 62
               7
100
AcDbLine
 10
-300.51132835145438
 20
-571.89959522274989
 30
0.0
 11
-300.51132834497332
 21
-571.89959522109007
 31
0.0
  0
LINE
  5
CB
100
AcDbEntity
  8
ADF70-0505
370
              15
390
0
  6
STYLE_11
 62
               7
100
AcDbLine
 10
-280.72520571419784
 20
-474.56184290360466
 30
0.0
 11
-280.72520570751897
 21
-474.56184290097144
 31
0.0
  0
LWPOLYLINE
  5
CC
100
AcDbEntity
  8
ADF70-0505
370
              15
390
0
  6
Continuous
 62
               7
100
AcDbPolyline
 90
        5
 70
             129
 10
-472.22584135305544
 20
304.1224126103956
 42
0.414213562373095
 10
-247.22584135305544
 20
529.1224126103956
 42
0.414213562373095
 10
-472.22584135305544
 20
754.1224126103956
 42
0.4142135623730947
 10
-697.2258413530559
 20
529.1224126103956
 42
0.4142135623730955
 10
-472.22584135305544
 20
304.1224126103956
  0
CIRCLE
  5
CD
100
AcDbEntity
  8
ADF70-0505
370
              15
390
0
  6
Continuous
 62
               7
100
AcDbCircle
 10
-472.22584135305544
 20
529.1224126103956
 30
0.0
 40
195.0
  0
CIRCLE
  5
CE
100
AcDbEntity
  8
ADF70-0505
370
              15
390
0
  6
Continuous
 62
               7
100
AcDbCircle
 10
-472.22584135305544
 20
529.1224126103956
 30
0.0
 40
37.5
  0
LWPOLYLINE
  5
CF
100
AcDbEntity
  8
ADF70-0505
370
              15
390
0
  6
Continuous
 62
               7
100
AcDbPolyline
 90
        5
 70
             129
 10
-472.22584135305544
 20
506.6224126103956
 42
0.4142135623730948
 10
-449.72584135305544
 20
529.1224126103956
 42
0.414213562373095
 10
-472.22584135305544
 20
551.6224126103956
 42
0.4142135623730952
 10
-494.72584135305544
 20
529.1224126103956
 42
0.414213562373095
 10
-472.22584135305544
 20
506.6224126103956
  0
LWPOLYLINE
  5
D0
100
AcDbEntity
  8
ADF70-0505
370
              15
390
0
  6
STYLE_11
 62
               7
100
AcDbPolyline
 90
        5
 70
             129
 10
442.21582531360866
 20
304.1224126103956
 42
0.4142135623730952
 10
667.21582531360855
 20
529.1224126103956
 42
0.414213562373095
 10
442.21582531360866
 20
754.1224126103956
 42
0.414213562373095
 10
217.2158253136086
 20
529.1224126103956
 42
0.4142135623730951
 10
442.21582531360866
 20
304.1224126103956
  0
LWPOLYLINE
  5
D1
100
AcDbEntity
  8
ADF70-0505
370
              15
390
0
  6
STYLE_11
 62
               7
100
AcDbPolyline
 90
        5
 70
             129
 10
442.21582531360866
 20
506.6224126103956
 42
0.414213562373095
 10
464.71582531360866
 20
529.1224126103956
 42
0.414213562373095
 10
442.21582531360866
 20
551.6224126103956
 42
0.4142135623730948
 10
419.7158253136086
 20
529.1224126103956
 42
0.4142135623730952
 10
442.21582531360866
 20
506.6224126103956
  0
LINE
  5
D2
100
AcDbEntity
  8
ADF70-0505
370
              15
390
0
  6
Continuous
 62
               7
100
AcDbLine
 10
-691.46570350611239
 20
-461.8412457772431
 30
0.0
 11
-253.39730457316364
 21
-461.8412457772431
 31
0.0
  0
CIRCLE
  5
D3
100
AcDbEntity
  8
ADF70-0505
370
              15
390
0
  6
Continuous
 62
               7
100
AcDbCircle
 10
442.21582531360866
 20
529.1224126103956
 30
0.0
 40
50.0
  0
ENDSEC
  0
SECTION
  2
OBJECTS
  0
DICTIONARY
  5
19
100
AcDbDictionary
280
               0
281
               1
  3
ACAD_GROUP
350
1A
  3
ACAD_MLINESTYLE
350
1B
  3
ACAD_LAYOUT
350
1E
  3
ACAD_PLOTSETTINGS
350
22
  3
ACAD_PLOTSTYLENAME
350
1F
  0
DICTIONARY
  5
1A
102
{ACAD_REACTORS
330
19
102
}
100
AcDbDictionary
280
               0
281
               1
  0
DICTIONARY
  5
1B
102
{ACAD_REACTORS
330
19
102
}
100
AcDbDictionary
280
               0
281
               1
  3
Standard
350
1C
  0
MLINESTYLE
  5
1C
102
{ACAD_REACTORS
330
1B
102
}
100
AcDbMlineStyle
  2
Standard
 70
               0
  3

 62
               0
 51
90.0
 52
90.0
 71
               2
 49
0.5
 62
             256
  6
ByLayer
 49
-0.5
 62
             256
  6
ByLayer
  0
ACDBDICTIONARYWDFLT
  5
1F
102
{ACAD_REACTORS
330
19
102
}
100
AcDbDictionary
281
               1
  3
Normal
350
1D
100
AcDbDictionaryWithDefault
340
1D
  0
ACDBPLACEHOLDER
  5
1D
102
{ACAD_REACTORS
330
1F
102
}
  0
LAYOUT
  5
20
102
{ACAD_REACTORS
330
1E
102
}
100
AcDbPlotSettings
  1

  2

  4

  6

 40
0.0
 41
0.0
 42
0.0
 43
0.0
 44
0.0
 45
0.0
 46
0.0
 47
0.0
 48
0.0
 49
0.0
140
0.0
141
0.0
142
1.0
143
1.0
 70
            1024
 72
               0
 73
               0
 74
               0
  7

 75
               0
147
1.0
148
0.0
149
0.0
100
AcDbLayout
  1
Model
 70
               0
 71
               0
 10
0.0
 20
0.0
 11
0.0
 21
0.0
 12
0.0
 22
0.0
 32
0.0
 14
0.0
 24
0.0
 34
0.0
 15
0.0
 25
0.0
 35
0.0
146
0.0
 13
0.0
 23
0.0
 33
0.0
 16
0.0
 26
0.0
 36
0.0
 17
0.0
 27
0.0
 37
0.0
 76
               0
330
A
331
0
345
0
346
0
  0
LAYOUT
  5
21
102
{ACAD_REACTORS
330
1E
102
}
100
AcDbPlotSettings
  1

  2

  4

  6

 40
0.0
 41
0.0
 42
0.0
 43
0.0
 44
0.0
 45
0.0
 46
0.0
 47
0.0
 48
0.0
 49
0.0
140
0.0
141
0.0
142
1.0
143
1.0
 70
               0
 72
               0
 73
               0
 74
               0
  7

 75
               0
147
1.0
148
0.0
149
0.0
100
AcDbLayout
  1
Layout1
 70
               0
 71
               0
 10
0.0
 20
0.0
 11
0.0
 21
0.0
 12
0.0
 22
0.0
 32
0.0
 14
0.0
 24
0.0
 34
0.0
 15
0.0
 25
0.0
 35
0.0
146
0.0
 13
0.0
 23
0.0
 33
0.0
 16
0.0
 26
0.0
 36
0.0
 17
0.0
 27
0.0
 37
0.0
 76
               0
330
B
331
0
345
0
346
0
  0
DICTIONARY
  5
1E
102
{ACAD_REACTORS
330
19
102
}
100
AcDbDictionary
280
               0
281
               1
  3
Layout1
350
21
  3
Model
350
20
  0
DICTIONARY
  5
22
102
{ACAD_REACTORS
330
19
102
}
100
AcDbDictionary
280
               0
281
               1
  0
ENDSEC
  0
EOF
