  0
SECTION
  2
HEADER
  9
$ACADVER
  1
AC1015
  9
$ACADMAINTVER
 70
               6
  9
$DWGCODEPAGE
  3
ANSI_932
  9
$INSBASE
 10
0.0
 20
0.0
 30
0.0
  9
$EXTMIN
 10
-975.00000000024102
 20
-1431.5255224711132
 30
-14.834305555555556
  9
$EXTMAX
 10
975.00000000024124
 20
1405.9972926412995
 30
14.834305555555556
  9
$LIMMIN
 10
0.0
 20
0.0
  9
$LIMMAX
 10
0.0
 20
0.0
  9
$ORTHOMODE
 70
               0
  9
$REGENMODE
 70
               1
  9
$FILLMODE
 70
               1
  9
$QTEXTMODE
 70
               0
  9
$MIRRTEXT
 70
               1
  9
$LTSCALE
 40
50.799999999999997
  9
$ATTMODE
 70
               1
  9
$TEXTSIZE
 40
0.2
  9
$TRACEWID
 40
1.0
  9
$TEXTSTYLE
  7
Standard
  9
$CLAYER
  8
notes
  9
$CELTYPE
  6
Continuous
  9
$CECOLOR
 62
             256
  9
$CELTSCALE
 40
1.0
  9
$DISPSILH
 70
               0
  9
$DIMSCALE
 40
1.0
  9
$DIMASZ
 40
31.75
  9
$DIMEXO
 40
0.0
  9
$DIMDLI
 40
6.9999999999999396
  9
$DIMRND
 40
0.0
  9
$DIMDLE
 40
0.0
  9
$DIMEXE
 40
19.999999999996199
  9
$DIMTP
 40
0.0
  9
$DIMTM
 40
0.0
  9
$DIMTXT
 40
24.432617187500004
  9
$DIMCEN
 40
0.0
  9
$DIMTSZ
 40
0.0
  9
$DIMTOL
 70
               0
  9
$DIMLIM
 70
               0
  9
$DIMTIH
 70
               0
  9
$DIMTOH
 70
               0
  9
$DIMSE1
 70
               0
  9
$DIMSE2
 70
               0
  9
$DIMTAD
 70
               1
  9
$DIMZIN
 70
              11
  9
$DIMBLK
  1
VW_FILLEDARROW
  9
$DIMASO
 70
               1
  9
$DIMSHO
 70
               1
  9
$DIMPOST
  1
<>
  9
$DIMAPOST
  1
[]
  9
$DIMALT
 70
               0
  9
$DIMALTD
 70
               1
  9
$DIMALTF
 40
1.0
  9
$DIMLFAC
 40
1.0
  9
$DIMTOFL
 70
               0
  9
$DIMTVP
 40
0.0
  9
$DIMTIX
 70
               1
  9
$DIMSOXD
 70
               0
  9
$DIMSAH
 70
               0
  9
$DIMBLK1
  1

  9
$DIMBLK2
  1

  9
$DIMSTYLE
  2
JIS
  9
$DIMCLRD
 70
               0
  9
$DIMCLRE
 70
               0
  9
$DIMCLRT
 70
               0
  9
$DIMTFAC
 40
1.0
  9
$DIMGAP
 40
1.00000000000108
  9
$DIMJUST
 70
               0
  9
$DIMSD1
 70
               0
  9
$DIMSD2
 70
               0
  9
$DIMTOLJ
 70
               1
  9
$DIMTZIN
 70
              11
  9
$DIMALTZ
 70
              11
  9
$DIMALTTZ
 70
              11
  9
$DIMUPT
 70
               0
  9
$DIMDEC
 70
               1
  9
$DIMTDEC
 70
               1
  9
$DIMALTU
 70
               2
  9
$DIMALTTD
 70
               2
  9
$DIMTXSTY
  7
ＭＳ ゴシック
  9
$DIMAUNIT
 70
               0
  9
$DIMADEC
 70
               2
  9
$DIMALTRND
 40
0.0
  9
$DIMAZIN
 70
               0
  9
$DIMDSEP
 70
              46
  9
$DIMATFIT
 70
               0
  9
$DIMFRAC
 70
               2
  9
$DIMLDRBLK
  1

  9
$DIMLUNIT
 70
               2
  9
$DIMLWD
 70
              -2
  9
$DIMLWE
 70
              -2
  9
$DIMTMOVE
 70
               0
  9
$LUNITS
 70
               2
  9
$LUPREC
 70
               4
  9
$SKETCHINC
 40
0.1
  9
$FILLETRAD
 40
0.0
  9
$AUNITS
 70
               0
  9
$AUPREC
 70
               0
  9
$MENU
  1
acad
  9
$ELEVATION
 40
0.0
  9
$PELEVATION
 40
0.0
  9
$THICKNESS
 40
0.0
  9
$LIMCHECK
 70
               0
  9
$CHAMFERA
 40
0.0
  9
$CHAMFERB
 40
0.0
  9
$CHAMFERC
 40
0.0
  9
$CHAMFERD
 40
0.0
  9
$SKPOLY
 70
               0
  9
$TDCREATE
 40
2455995.733784722
  9
$TDUCREATE
 40
0.000000000
  9
$TDUPDATE
 40
2455995.733784722
  9
$TDUUPDATE
 40
0.000000000
  9
$TDINDWG
 40
0.0000000000
  9
$TDUSRTIMER
 40
0.0000000000
  9
$USRTIMER
 70
               1
  9
$ANGBASE
 50
0.0
  9
$ANGDIR
 70
               0
  9
$PDMODE
 70
               1
  9
$PDSIZE
 40
-2.0
  9
$PLINEWID
 40
0.0
  9
$SPLFRAME
 70
               0
  9
$SPLINETYPE
 70
               6
  9
$SPLINESEGS
 70
               8
  9
$HANDSEED
  5
1EB
  9
$SURFTAB1
 70
               6
  9
$SURFTAB2
 70
               6
  9
$SURFTYPE
 70
               6
  9
$SURFU
 70
               6
  9
$SURFV
 70
               6
  9
$UCSBASE
  2

  9
$UCSNAME
  2

  9
$UCSORG
 10
0.0
 20
0.0
 30
0.0
  9
$UCSXDIR
 10
1.0
 20
0.0
 30
0.0
  9
$UCSYDIR
 10
0.0
 20
1.0
 30
0.0
  9
$UCSORTHOREF
  2

  9
$UCSORTHOVIEW
 70
               0
  9
$UCSORGTOP
 10
0.0
 20
0.0
 30
0.0
  9
$UCSORGBOTTOM
 10
0.0
 20
0.0
 30
0.0
  9
$UCSORGLEFT
 10
0.0
 20
0.0
 30
0.0
  9
$UCSORGRIGHT
 10
0.0
 20
0.0
 30
0.0
  9
$UCSORGFRONT
 10
0.0
 20
0.0
 30
0.0
  9
$UCSORGBACK
 10
0.0
 20
0.0
 30
0.0
  9
$PUCSBASE
  2

  9
$PUCSNAME
  2

  9
$PUCSORG
 10
0.0
 20
0.0
 30
0.0
  9
$PUCSXDIR
 10
1.0
 20
0.0
 30
0.0
  9
$PUCSYDIR
 10
0.0
 20
1.0
 30
0.0
  9
$PUCSORTHOREF
  2

  9
$PUCSORTHOVIEW
 70
               0
  9
$PUCSORGTOP
 10
0.0
 20
0.0
 30
0.0
  9
$PUCSORGBOTTOM
 10
0.0
 20
0.0
 30
0.0
  9
$PUCSORGLEFT
 10
0.0
 20
0.0
 30
0.0
  9
$PUCSORGRIGHT
 10
0.0
 20
0.0
 30
0.0
  9
$PUCSORGFRONT
 10
0.0
 20
0.0
 30
0.0
  9
$PUCSORGBACK
 10
0.0
 20
0.0
 30
0.0
  9
$USERI1
 70
               0
  9
$USERI2
 70
               0
  9
$USERI3
 70
               0
  9
$USERI4
 70
               0
  9
$USERI5
 70
               0
  9
$USERR1
 40
0.0
  9
$USERR2
 40
0.0
  9
$USERR3
 40
0.0
  9
$USERR4
 40
0.0
  9
$USERR5
 40
0.0
  9
$WORLDVIEW
 70
               1
  9
$SHADEDGE
 70
               3
  9
$SHADEDIF
 70
              70
  9
$TILEMODE
 70
               1
  9
$MAXACTVP
 70
              64
  9
$PINSBASE
 10
0.0
 20
0.0
 30
0.0
  9
$PLIMCHECK
 70
               0
  9
$PEXTMIN
 10
1.0000000000000000E+20
 20
1.0000000000000000E+20
 30
1.0000000000000000E+20
  9
$PEXTMAX
 10
-1.0000000000000000E+20
 20
-1.0000000000000000E+20
 30
-1.0000000000000000E+20
  9
$PLIMMIN
 10
0.0
 20
0.0
  9
$PLIMMAX
 10
12.0
 20
9.0
  9
$UNITMODE
 70
               0
  9
$VISRETAIN
 70
               0
  9
$PLINEGEN
 70
               1
  9
$PSLTSCALE
 70
               0
  9
$TREEDEPTH
 70
            3020
  9
$CMLSTYLE
  2
Standard
  9
$CMLJUST
 70
               0
  9
$CMLSCALE
 40
1.0
  9
$PROXYGRAPHICS
 70
               0
  9
$MEASUREMENT
 70
               1
  9
$CELWEIGHT
370
               0
  9
$ENDCAPS
280
               0
  9
$JOINSTYLE
280
               0
  9
$LWDISPLAY
290
               1
  9
$INSUNITS
 70
               4
  9
$HYPERLINKBASE
  1

  9
$STYLESHEET
  1

  9
$XEDIT
290
               1
  9
$CEPSNTYPE
380
               0
  9
$PSTYLEMODE
290
               1
  9
$FINGERPRINTGUID
  2

  9
$VERSIONGUID
  2

  9
$EXTNAMES
290
               1
  9
$PSVPSCALE
 40
0.0
  0
ENDSEC
  0
SECTION
  2
CLASSES
  0
CLASS
  1
LWPOLYLINE
  2
AcDbPolyline
  3
AutoCAD 2000
 90
        0
280
               0
281
               1
  0
CLASS
  1
IMAGE
  2
AcDbRasterImage
  3
ISM
 90
      127
280
               0
281
               1
  0
CLASS
  1
OLE2FRAME
  2
AcDbOle2Frame
  3
AutoCAD 2000
 90
        0
280
               0
281
               1
  0
CLASS
  1
HATCH
  2
AcDbHatch
  3
AutoCAD 2000
 90
        0
280
               0
281
               1
  0
CLASS
  1
DICTIONARYVAR
  2
AcDbDictionaryVar
  3
AutoCAD 2000
 90
        0
280
               0
281
               0
  0
CLASS
  1
RASTERVARIABLES
  2
AcDbRasterVariables
  3
ISM
 90
        0
280
               0
281
               0
  0
CLASS
  1
IMAGEDEF
  2
AcDbRasterImageDef
  3
ISM
 90
        0
280
               0
281
               0
  0
CLASS
  1
IMAGEDEF_REACTOR
  2
AcDbRasterImageDefReactor
  3
ISM
 90
        1
280
               0
281
               0
  0
CLASS
  1
IDBUFFER
  2
AcDbIdBuffer
  3
AutoCAD 2000
 90
        0
280
               0
281
               0
  0
CLASS
  1
SPATIAL_FILTER
  2
AcDbSpatialFilter
  3
AutoCAD 2000
 90
        0
280
               0
281
               0
  0
CLASS
  1
XRECORD
  2
AcDbXrecord
  3
AutoCAD 2000
 90
        0
280
               0
281
               0
  0
CLASS
  1
SORTENTSTABLE
  2
AcDbSortentsTable
  3
AutoCAD 2000
 90
        0
280
               0
281
               0
  0
CLASS
  1
LAYER_INDEX
  2
AcDbLayerIndex
  3
AutoCAD 2000
 90
        0
280
               0
281
               0
  0
CLASS
  1
SPATIAL_INDEX
  2
AcDbSpatialIndex
  3
AutoCAD 2000
 90
        0
280
               0
281
               0
  0
CLASS
  1
OBJECT_PTR
  2
CAseDLPNTableRecord
  3
"ASE-LPNTableRecord"
 90
        1
280
               0
281
               0
  0
CLASS
  1
LAYOUT
  2
AcDbLayout
  3
AutoCAD 2000
 90
        0
280
               0
281
               0
  0
CLASS
  1
PLOTSETTINGS
  2
AcDbPlotSettings
  3
AutoCAD 2000
 90
        0
280
               0
281
               0
  0
CLASS
  1
ACDBDICTIONARYWDFLT
  2
AcDbDictionaryWithDefault
  3
AutoCAD 2000
 90
        0
280
               0
281
               0
  0
CLASS
  1
ACDBPLACEHOLDER
  2
AcDbPlaceHolder
  3
AutoCAD 2000
 90
        0
280
               0
281
               0
  0
ENDSEC
  0
SECTION
  2
TABLES
  0
TABLE
  2
VPORT
  5
7
100
AcDbSymbolTable
 70
               1
  0
VPORT
  5
15
100
AcDbSymbolTableRecord
100
AcDbViewportTableRecord
  2
*ACTIVE
 70
               0
 10
0.0
 20
0.0
 11
1.0
 21
1.0
 12
0.0000000000001137
 22
-12.764114914906713
 13
0.0
 23
0.0
 14
1.0
 24
1.0
 15
0.0
 25
0.0
 16
0.0
 26
0.0
 36
1.0
 17
0.0
 27
0.0
 37
0.0
 40
2837.5228151124129
 41
0.688564
 42
50.0
 43
0.0
 44
0.0
 50
0.0
 51
0.0
 71
               0
 72
            2000
 73
               1
 74
               1
 75
               0
 76
               0
 77
               0
 78
               0
281
               0
 65
               0
110
0.0
120
0.0
130
0.0
111
1.0
121
0.0
131
0.0
112
0.0
122
1.0
132
0.0
345
0
346
0
 79
               0
146
0.0
  0
ENDTAB
  0
TABLE
  2
LTYPE
  5
4
100
AcDbSymbolTable
 70
              15
  0
LTYPE
  5
11
100
AcDbSymbolTableRecord
100
AcDbLinetypeTableRecord
  2
ByBlock
 70
              64
  3

 72
              65
 73
               0
 40
0.0
  0
LTYPE
  5
12
100
AcDbSymbolTableRecord
100
AcDbLinetypeTableRecord
  2
ByLayer
 70
              64
  3

 72
              65
 73
               0
 40
0.0
  0
LTYPE
  5
13
100
AcDbSymbolTableRecord
100
AcDbLinetypeTableRecord
  2
Continuous
 70
              64
  3
Solid line
 72
              65
 73
               0
 40
0.0
  0
LTYPE
  5
39
100
AcDbSymbolTableRecord
100
AcDbLinetypeTableRecord
  2
STYLE_01
 70
               0
  3

 72
              65
 73
               2
 40
0.1875
 49
0.125
 74
               0
 49
-0.0625
 74
               0
  0
LTYPE
  5
3A
100
AcDbSymbolTableRecord
100
AcDbLinetypeTableRecord
  2
STYLE_02
 70
               0
  3

 72
              65
 73
               4
 40
0.4999999999999999
 49
0.25
 74
               0
 49
-0.125
 74
               0
 49
0.0005
 74
               0
 49
-0.1245
 74
               0
  0
LTYPE
  5
3B
100
AcDbSymbolTableRecord
100
AcDbLinetypeTableRecord
  2
STYLE_03
 70
               0
  3

 72
              65
 73
               2
 40
1.25
 49
1.0416400000000001
 74
               0
 49
-0.2083599999999999
 74
               0
  0
LTYPE
  5
3C
100
AcDbSymbolTableRecord
100
AcDbLinetypeTableRecord
  2
STYLE_04
 70
               0
  3

 72
              65
 73
               2
 40
1.5277099999999999
 49
1.3194249999999998
 74
               0
 49
-0.208285
 74
               0
  0
LTYPE
  5
3D
100
AcDbSymbolTableRecord
100
AcDbLinetypeTableRecord
  2
STYLE_05
 70
               0
  3

 72
              65
 73
               2
 40
0.20828
 49
0.069425
 74
               0
 49
-0.138855
 74
               0
  0
LTYPE
  5
3E
100
AcDbSymbolTableRecord
100
AcDbLinetypeTableRecord
  2
STYLE_06
 70
               0
  3

 72
              65
 73
               4
 40
1.0416400000000001
 49
0.625
 74
               0
 49
-0.20828
 74
               0
 49
0.06943
 74
               0
 49
-0.13893
 74
               0
  0
LTYPE
  5
3F
100
AcDbSymbolTableRecord
100
AcDbLinetypeTableRecord
  2
STYLE_07
 70
               0
  3

 72
              65
 73
               6
 40
1.875
 49
0.625
 74
               0
 49
-0.20828
 74
               0
 49
0.6250000000000001
 74
               0
 49
-0.2083599999999999
 74
               0
 49
0.06943
 74
               0
 49
-0.1389299999999999
 74
               0
  0
LTYPE
  5
40
100
AcDbSymbolTableRecord
100
AcDbLinetypeTableRecord
  2
STYLE_08
 70
               0
  3

 72
              65
 73
               6
 40
1.25
 49
0.625
 74
               0
 49
-0.20828
 74
               0
 49
0.06943
 74
               0
 49
-0.13893
 74
               0
 49
0.0694299999999999
 74
               0
 49
-0.13893
 74
               0
  0
LTYPE
  5
41
100
AcDbSymbolTableRecord
100
AcDbLinetypeTableRecord
  2
STYLE_09
 70
               0
  3

 72
              65
 73
               4
 40
5.0
 49
3.75
 74
               0
 49
-0.2777849999999998
 74
               0
 49
0.6944300000000003
 74
               0
 49
-0.2777849999999998
 74
               0
  0
LTYPE
  5
42
100
AcDbSymbolTableRecord
100
AcDbLinetypeTableRecord
  2
STYLE_10
 70
               0
  3

 72
              65
 73
               6
 40
5.9375
 49
3.75
 74
               0
 49
-0.2777849999999998
 74
               0
 49
0.6944300000000003
 74
               0
 49
-0.2777849999999998
 74
               0
 49
0.625
 74
               0
 49
-0.3125
 74
               0
  0
LTYPE
  5
43
100
AcDbSymbolTableRecord
100
AcDbLinetypeTableRecord
  2
STYLE_11
 70
               0
  3

 72
              65
 73
               2
 40
0.0694444881889764
 49
0.0347222440944882
 74
               0
 49
-0.0347222440944882
 74
               0
  0
LTYPE
  5
44
100
AcDbSymbolTableRecord
100
AcDbLinetypeTableRecord
  2
STYLE_12
 70
               0
  3

 72
              65
 73
               2
 40
0.3937007874015748
 49
0.1968503937007874
 74
               0
 49
-0.1968503937007874
 74
               0
  0
ENDTAB
  0
TABLE
  2
LAYER
  5
2
100
AcDbSymbolTable
 70
               5
  0
LAYER
  5
14
100
AcDbSymbolTableRecord
100
AcDbLayerTableRecord
  2
0
 70
               0
 62
               7
  6
Continuous
290
               1
370
              -3
390
1D
  0
LAYER
  5
45
100
AcDbSymbolTableRecord
100
AcDbLayerTableRecord
  2
Defpoints
 70
               0
 62
               7
  6
Continuous
290
               0
370
              -3
390
1D
  0
LAYER
  5
46
100
AcDbSymbolTableRecord
100
AcDbLayerTableRecord
  2
template
 70
               0
 62
               7
  6
Continuous
290
               1
370
              -3
390
1D
  0
LAYER
  5
47
100
AcDbSymbolTableRecord
100
AcDbLayerTableRecord
  2
notes
 70
               0
 62
               7
  6
Continuous
290
               1
370
              -3
390
1D
  0
LAYER
  5
48
100
AcDbSymbolTableRecord
100
AcDbLayerTableRecord
  2
ADF70-0602
 70
               0
 62
               7
  6
Continuous
290
               1
370
              -3
390
1D
  0
ENDTAB
  0
TABLE
  2
STYLE
  5
3
100
AcDbSymbolTable
 70
               2
  0
STYLE
  5
17
100
AcDbSymbolTableRecord
100
AcDbTextStyleTableRecord
  2
Standard
 70
               0
 40
0.0
 41
1.0
 50
0.0
 71
               0
 42
0.0
  3
txt
  4
BIGFONT.SHX
  0
STYLE
  5
38
100
AcDbSymbolTableRecord
100
AcDbTextStyleTableRecord
  2
ＭＳ ゴシック
 70
               0
 40
0.0
 41
1.0
 50
0.0
 71
               0
 42
0.0
  3

  4
ＭＳ ゴシック
1001
ACAD
1000
ＭＳ ゴシック
1071
        0
  0
ENDTAB
  0
TABLE
  2
VIEW
  5
5
100
AcDbSymbolTable
 70
               0
  0
ENDTAB
  0
TABLE
  2
UCS
  5
6
100
AcDbSymbolTable
 70
               0
  0
ENDTAB
  0
TABLE
  2
APPID
  5
8
100
AcDbSymbolTable
 70
               1
  0
APPID
  5
16
100
AcDbSymbolTableRecord
100
AcDbRegAppTableRecord
  2
ACAD
 70
               0
  0
ENDTAB
  0
TABLE
  2
DIMSTYLE
  5
9
100
AcDbSymbolTable
 70
               3
100
AcDbDimStyleTable
 71
               0
  0
DIMSTYLE
105
18
100
AcDbSymbolTableRecord
100
AcDbDimStyleTableRecord
  2
Standard
 70
               0
  3

  4

 40
1.0
 41
0.18
 42
0.0625
 43
0.38
 44
0.18
 45
0.0
 46
0.0
 47
0.0
 48
0.0
 71
               0
 72
               0
 73
               1
 74
               1
 75
               0
 76
               0
 77
               0
 78
               0
 79
               0
140
0.18
141
0.09
142
0.0
143
25.399999999999999
144
1.0
145
0.0
146
1.0
147
0.09
148
0.0
170
               0
171
               2
172
               0
173
               0
174
               0
175
               0
176
               0
177
               0
178
               0
179
               0
271
               4
272
               4
273
               2
274
               2
275
               0
276
               0
277
               2
278
              46
279
               0
280
               0
281
               0
282
               0
283
               1
284
               0
285
               0
286
               0
288
               0
289
               3
340
17
341
0
342
0
343
0
344
0
371
              -2
372
              -2
  0
DIMSTYLE
105
51
100
AcDbSymbolTableRecord
100
AcDbDimStyleTableRecord
  2
tform線あり
 70
               0
  3
<>
  4
[]
 40
1.0
 41
3.999755859375
 42
24.999999999999996
 43
0.9999999999999999
 44
0.0
 45
0.0
 46
0.0
 47
0.0
 48
0.0
 71
               0
 72
               0
 73
               0
 74
               0
 75
               0
 76
               0
 77
               1
 78
              11
 79
               0
140
24.432617187500004
141
0.0
142
0.0
143
1.0
144
1.0
145
0.0
146
1.0
147
0.4999999999999999
148
0.0
170
               0
171
               1
172
               0
173
               0
174
               1
175
               0
176
               0
177
               0
178
               0
179
               2
271
               1
272
               1
273
               2
274
               2
275
               0
276
               2
277
               2
278
              46
279
               0
280
               0
281
               0
282
               0
283
               1
284
              11
285
              11
286
              11
288
               0
289
               0
340
38
341
49
342
49
343
0
344
0
371
              -2
372
              -2
  0
DIMSTYLE
105
56
100
AcDbSymbolTableRecord
100
AcDbDimStyleTableRecord
  2
JIS
 70
               0
  3
<>
  4
[]
 40
1.0
 41
31.75
 42
0.0
 43
6.9999999999999396
 44
19.999999999996199
 45
0.0
 46
0.0
 47
0.0
 48
0.0
 71
               0
 72
               0
 73
               0
 74
               0
 75
               0
 76
               0
 77
               1
 78
              11
 79
               0
140
24.432617187500004
141
0.0
142
0.0
143
1.0
144
1.0
145
0.0
146
1.0
147
1.00000000000108
148
0.0
170
               0
171
               1
172
               0
173
               0
174
               1
175
               0
176
               0
177
               0
178
               0
179
               2
271
               1
272
               1
273
               2
274
               2
275
               0
276
               2
277
               2
278
              46
279
               0
280
               0
281
               0
282
               0
283
               1
284
              11
285
              11
286
              11
288
               0
289
               0
340
38
341
52
342
52
343
0
344
0
371
              -2
372
              -2
  0
ENDTAB
  0
TABLE
  2
BLOCK_RECORD
  5
1
100
AcDbSymbolTable
 70
              23
  0
BLOCK_RECORD
  5
A
100
AcDbSymbolTableRecord
100
AcDbBlockTableRecord
  2
*MODEL_SPACE
340
20
  0
BLOCK_RECORD
  5
B
100
AcDbSymbolTableRecord
100
AcDbBlockTableRecord
  2
*PAPER_SPACE
340
21
  0
BLOCK_RECORD
  5
49
100
AcDbSymbolTableRecord
100
AcDbBlockTableRecord
  2
_DOT
340
0
  0
BLOCK_RECORD
  5
52
100
AcDbSymbolTableRecord
100
AcDbBlockTableRecord
  2
VW_FILLEDARROW
340
0
  0
BLOCK_RECORD
  5
23
100
AcDbSymbolTableRecord
100
AcDbBlockTableRecord
  2
グループ
340
0
102
{BLKREFS
331
16E
102
}
  0
BLOCK_RECORD
  5
24
100
AcDbSymbolTableRecord
100
AcDbBlockTableRecord
  2
*D3
340
0
  0
BLOCK_RECORD
  5
25
100
AcDbSymbolTableRecord
100
AcDbBlockTableRecord
  2
*D4
340
0
  0
BLOCK_RECORD
  5
26
100
AcDbSymbolTableRecord
100
AcDbBlockTableRecord
  2
*D5
340
0
  0
BLOCK_RECORD
  5
27
100
AcDbSymbolTableRecord
100
AcDbBlockTableRecord
  2
*D6
340
0
  0
BLOCK_RECORD
  5
28
100
AcDbSymbolTableRecord
100
AcDbBlockTableRecord
  2
*D7
340
0
  0
BLOCK_RECORD
  5
29
100
AcDbSymbolTableRecord
100
AcDbBlockTableRecord
  2
*D8
340
0
  0
BLOCK_RECORD
  5
2A
100
AcDbSymbolTableRecord
100
AcDbBlockTableRecord
  2
*D9
340
0
  0
BLOCK_RECORD
  5
2B
100
AcDbSymbolTableRecord
100
AcDbBlockTableRecord
  2
*D10
340
0
  0
BLOCK_RECORD
  5
2C
100
AcDbSymbolTableRecord
100
AcDbBlockTableRecord
  2
*D11
340
0
  0
BLOCK_RECORD
  5
2D
100
AcDbSymbolTableRecord
100
AcDbBlockTableRecord
  2
*D12
340
0
  0
BLOCK_RECORD
  5
2E
100
AcDbSymbolTableRecord
100
AcDbBlockTableRecord
  2
*D13
340
0
  0
BLOCK_RECORD
  5
2F
100
AcDbSymbolTableRecord
100
AcDbBlockTableRecord
  2
*D14
340
0
  0
BLOCK_RECORD
  5
30
100
AcDbSymbolTableRecord
100
AcDbBlockTableRecord
  2
*D15
340
0
  0
BLOCK_RECORD
  5
31
100
AcDbSymbolTableRecord
100
AcDbBlockTableRecord
  2
*D16
340
0
  0
BLOCK_RECORD
  5
32
100
AcDbSymbolTableRecord
100
AcDbBlockTableRecord
  2
*D17
340
0
  0
BLOCK_RECORD
  5
33
100
AcDbSymbolTableRecord
100
AcDbBlockTableRecord
  2
*D18
340
0
  0
BLOCK_RECORD
  5
34
100
AcDbSymbolTableRecord
100
AcDbBlockTableRecord
  2
*D19
340
0
  0
BLOCK_RECORD
  5
35
100
AcDbSymbolTableRecord
100
AcDbBlockTableRecord
  2
*D20
340
0
  0
BLOCK_RECORD
  5
36
100
AcDbSymbolTableRecord
100
AcDbBlockTableRecord
  2
*D21
340
0
  0
BLOCK_RECORD
  5
37
100
AcDbSymbolTableRecord
100
AcDbBlockTableRecord
  2
*D22
340
0
  0
ENDTAB
  0
ENDSEC
  0
SECTION
  2
BLOCKS
  0
BLOCK
  5
D
100
AcDbEntity
  8
0
390
0
100
AcDbBlockBegin
  2
*MODEL_SPACE
 70
               0
 10
0.0
 20
0.0
 30
0.0
  3
*MODEL_SPACE
  1

  0
ENDBLK
  5
E
100
AcDbEntity
  8
0
390
0
100
AcDbBlockEnd
  0
BLOCK
  5
F
100
AcDbEntity
 67
               1
  8
0
390
0
100
AcDbBlockBegin
  2
*PAPER_SPACE
 70
               0
 10
0.0
 20
0.0
 30
0.0
  3
*PAPER_SPACE
  1

  0
ENDBLK
  5
10
100
AcDbEntity
 67
               1
  8
0
390
0
100
AcDbBlockEnd
  0
BLOCK
  5
4A
100
AcDbEntity
  8
0
390
0
100
AcDbBlockBegin
  2
_DOT
 70
               0
 10
0.0
 20
0.0
 30
0.0
  3
_DOT
  1

  0
POLYLINE
  5
4B
100
AcDbEntity
  8
0
370
              -2
390
0
  6
ByBlock
 62
               0
100
AcDb2dPolyline
 66
               1
 10
0.0
 20
0.0
 30
0.0
 70
               1
 40
0.5
 41
0.5
  0
VERTEX
  5
4C
100
AcDbEntity
  8
0
370
              -2
390
0
  6
ByBlock
 62
               0
100
AcDbVertex
100
AcDb2dVertex
 10
-0.25
 20
0.0
 30
0.0
 42
1.0
  0
VERTEX
  5
4D
100
AcDbEntity
  8
0
370
              -2
390
0
  6
ByBlock
 62
               0
100
AcDbVertex
100
AcDb2dVertex
 10
0.25
 20
0.0
 30
0.0
 42
1.0
  0
SEQEND
  5
4E
100
AcDbEntity
  8
0
390
0
  0
LINE
  5
4F
100
AcDbEntity
  8
0
370
              -2
390
0
  6
ByBlock
 62
               0
100
AcDbLine
 10
-0.5
 20
0.0
 30
0.0
 11
-1.0
 21
0.0
 31
0.0
  0
ENDBLK
  5
50
100
AcDbEntity
  8
0
390
0
100
AcDbBlockEnd
  0
BLOCK
  5
53
100
AcDbEntity
  8
0
370
              -2
390
0
  6
ByBlock
 62
               0
100
AcDbBlockBegin
  2
VW_FILLEDARROW
 70
               0
 10
0.0
 20
0.0
 30
0.0
  3
VW_FILLEDARROW
  1

  0
SOLID
  5
54
100
AcDbEntity
  8
0
370
              -2
390
0
 62
               0
100
AcDbTrace
 10
0.0
 20
0.0
 30
0.0
 11
-0.9921874999999999
 21
-0.2658558393652545
 31
0.0
 12
-0.9921874999999999
 22
0.2658558393652548
 32
0.0
 13
-0.9921874999999999
 23
0.2658558393652548
 33
0.0
  0
ENDBLK
  5
55
100
AcDbEntity
  8
0
390
0
100
AcDbBlockEnd
  0
BLOCK
  5
57
100
AcDbEntity
  8
template
390
0
100
AcDbBlockBegin
  2
グループ
 70
               0
 10
0.0
 20
0.0
 30
0.0
  3
グループ
  1

  0
LWPOLYLINE
  5
58
100
AcDbEntity
  8
0
370
              15
390
0
  6
Continuous
 62
               7
100
AcDbPolyline
 90
        8
 70
             129
 10
-1968.6218832322452
 20
-2161.1992869961969
 10
-1968.6218832322452
 20
-2167.1966756897727
 10
-1978.1230801502484
 20
-2167.1966756897727
 10
-1978.1230801502484
 20
-2191.6476389532818
 10
-1986.4784574120313
 20
-2191.6476389532818
 10
-1986.4784574120313
 20
-2167.1966756897727
 10
-1995.8114143583407
 20
-2167.1966756897727
 10
-1995.8114143583407
 20
-2161.1992869961969
  0
LWPOLYLINE
  5
59
100
AcDbEntity
  8
0
370
              15
390
0
  6
Continuous
 62
               7
100
AcDbPolyline
 90
      101
 70
             128
 10
-1955.8935914016884
 20
-2161.9275354891333
 10
-1955.8782413729059
 20
-2161.9231747324488
 42
-0.0222221607813691
 10
-1955.5882367962322
 20
-2161.8545502672036
 10
-1955.5724430322393
 20
-2161.8515468441069
 42
-0.0146883565593402
 10
-1955.3097403270144
 20
-2161.8095436571575
 42
-0.0127458844185369
 10
-1955.0451013598602
 20
-2161.7820066890845
 10
-1954.9826462815486
 20
-2161.7771132664966
 42
-0.0198099018565224
 10
-1954.5917971720735
 20
-2161.7620281090999
 10
-1954.539985702628
 20
-2161.7620818847649
 42
-0.0147617382764964
 10
-1954.0453622416492
 20
-2161.7772019100103
 10
-1953.972670786781
 20
-2161.7815745168978
 42
-0.0162624549002563
 10
-1953.5825171573142
 20
-2161.8178073921699
 10
-1953.460984766059
 20
-2161.8330939511657
 42
-0.0080020874670855
 10
-1953.3154057349634
 20
-2161.8537767984349
 10
-1953.277086264347
 20
-2161.8598480762498
 42
-0.0053821929669679
 10
-1953.2086021590535
 20
-2161.8714556000677
 10
-1953.9350078582522
 20
-2164.0523840557817
 42
0.0108667757391692
 10
-1954.0023249283774
 20
-2164.0391969405628
 10
-1954.0397929515725
 20
-2164.0326991979673
 42
0.0170663203300372
 10
-1954.1830097384798
 20
-2164.0128696006764
 10
-1954.2508850711711
 20
-2164.0058224300878
 42
0.0220162375280579
 10
-1954.5312644790249
 20
-2163.9891400693177
 10
-1954.6091200460799
 20
-2163.9879407020508
 42
0.0282606915780829
 10
-1954.9447563696563
 20
-2164.0017439790199
 10
-1954.9886696434307
 20
-2164.0060439690237
 42
0.0169677213688335
 10
-1955.2345941383876
 20
-2164.0385810185762
 42
0.0190576269871857
 10
-1955.4775021009655
 20
-2164.0887278906821
 10
-1955.4837612890785
 20
-2164.0902708647918
 42
0.0213685642847814
 10
-1955.7341457735588
 20
-2164.1634711498973
 10
-1955.7396356684726
 20
-2164.1653341459555
 42
0.0237595297597574
 10
-1955.9931305533726
 20
-2164.2650186678516
 10
-1955.998232627401
 20
-2164.2673104433293
 42
0.0261857468820563
 10
-1956.2504034036301
 20
-2164.3968467807035
 10
-1956.2608295927191
 20
-2164.4029122551729
 42
0.0272553062017781
 10
-1956.4972593679563
 20
-2164.5582844611163
 10
-1956.5320223814665
 20
-2164.583945609209
 42
0.0325996893179613
 10
-1956.6821777251171
 20
-2164.71069348218
 10
-1956.7058871542404
 20
-2164.733511510693
 42
0.0138050960608294
 10
-1956.7977703104505
 20
-2164.8269611722444
 42
0.0125280103792501
 10
-1956.8846128432792
 20
-2164.9251244988391
 10
-1956.9082932881925
 20
-2164.9532829970321
 42
0.0205218024735534
 10
-1957.033393363703
 20
-2165.1150763112569
 10
-1957.0558597041932
 20
-2165.1467360410879
 42
0.0163110129588489
 10
-1957.2115700834465
 20
-2165.3820664761615
 10
-1957.2142939794953
 20
-2165.3864902381433
 42
0.0131897341897009
 10
-1957.3610945004048
 20
-2165.6396223305142
 10
-1957.3627945957678
 20
-2165.6427405696436
 42
0.0107895576055271
 10
-1957.5005712979787
 20
-2165.908955779279
 10
-1957.5013041875036
 20
-2165.9104500119251
 42
0.0091371507213846
 10
-1957.6297841361472
 20
-2166.1849752096709
 10
-1957.6595297675624
 20
-2166.2516817168434
 42
0.0135418326356775
 10
-1957.8312437066368
 20
-2166.6666195021194
 10
-1957.8648485150675
 20
-2166.7544856443915
 42
0.009283454241283
 10
-1958.0360775749891
 20
-2167.2283841426988
 10
-1958.0616947027083
 20
-2167.3036252124966
 42
0.005426104358263
 10
-1958.1693328509996
 20
-2167.6313891855575
 10
-1958.1868588372204
 20
-2167.6867773479248
 42
0.0008225090838021
 10
-1958.2555288890071
 20
-2167.9050461059369
 10
-1959.2402180209406
 20
-2170.9299373991935
 10
-1956.0075941808668
 20
-2170.9299373991935
 10
-1956.5117866107203
 20
-2172.8344156975454
 10
-1959.7678428927036
 20
-2172.8344156975454
 10
-1965.5969919250574
 20
-2191.6476387635503
 10
-1967.4220895353678
 20
-2191.6476387635503
 10
-1961.5874114998669
 20
-2172.8344156975454
 10
-1963.992527868907
 20
-2172.8344156975454
 10
-1963.4883354390536
 20
-2170.9299373991935
 10
-1961.0597866281037
 20
-2170.9299373991935
 10
-1960.1996317099151
 20
-2168.2935243984944
 42
-0.0005863560635588
 10
-1960.1628970317449
 20
-2168.1766979783088
 10
-1960.086809198051
 20
-2167.9357056788172
 42
-0.0087522378925931
 10
-1959.8873410545907
 20
-2167.3404295916603
 10
-1959.7950767791847
 20
-2167.0802894231679
 42
-0.0077400953826124
 10
-1959.5371431200497
 20
-2166.3872847456096
 10
-1959.5213781484701
 20
-2166.3468538622219
 42
-0.0082369946329625
 10
-1959.2742936778589
 20
-2165.7427747960278
 42
-0.0085725238365112
 10
-1959.0070475818559
 20
-2165.1473487567405
 10
-1958.9054179808481
 20
-2164.9309276547551
 42
-0.0168109410594098
 10
-1958.6184735521188
 20
-2164.3697201286514
 10
-1958.4926301617261
 20
-2164.1427560957736
 42
-0.000781772688137
 10
-1958.4383458116031
 20
-2164.0452118506228
 10
-1958.4382175055935
 20
-2164.0449821418997
 42
-0.0036626142135051
 10
-1958.3833296415644
 20
-2163.9483842619179
 42
-0.0080221150669677
 10
-1958.3262053861572
 20
-2163.8531050271645
 10
-1958.2955054347965
 20
-2163.8037140780425
 42
-0.0202139325571928
 10
-1958.1678496949901
 20
-2163.6157324773617
 10
-1958.1137822298022
 20
-2163.5426536131204
 42
-0.0249323791790007
 10
-1957.8546194360842
 20
-2163.2266083709669
 10
-1957.8304796219559
 20
-2163.1999940980531
 42
-0.0242132121540343
 10
-1957.4907988804114
 20
-2162.8601106118467
 10
-1957.4428873076629
 20
-2162.8166014756625
 42
-0.0251017527849098
 10
-1957.1589056070227
 20
-2162.5836087298985
 10
-1957.1574601302098
 20
-2162.5825394723201
 42
-0.0130868069028866
 10
-1956.8591994802516
 20
-2162.3737590037772
 10
-1956.8576376611093
 20
-2162.3727255635022
 42
-0.029032952638718
 10
-1956.5465265197156
 20
-2162.1919000618727
 10
-1956.5166809577288
 20
-2162.1767976790329
 42
-0.0160250190053128
 10
-1956.250776543965
 20
-2162.0527815688201
 42
-0.026760037477179
 10
-1955.9755004664935
 20
-2161.9520332482707
 10
-1955.9487645469753
 20
-2161.943840689446
 42
-0.0049981587650976
 10
-1955.8935914016884
 20
-2161.9275354891333
 42
-0.0049981587650976
  0
LWPOLYLINE
  5
5A
100
AcDbEntity
  8
0
370
              15
390
0
  6
Continuous
 62
               7
100
AcDbPolyline
 90
      118
 70
             128
 10
-1936.0792238372414
 20
-2171.0039207270206
 10
-1934.2041019127419
 20
-2171.0039207270206
 10
-1935.0421408183417
 20
-2173.6854872534204
 42
-0.0010587229256383
 10
-1935.0106850027944
 20
-2173.6485827200941
 10
-1934.9524909121378
 20
-2173.5806004638898
 42
-0.0071874740417468
 10
-1934.8021156940508
 20
-2173.4099597718728
 10
-1934.6603929207777
 20
-2173.253723630547
 42
-0.0148118053510417
 10
-1934.2102636280633
 20
-2172.786109784533
 10
-1934.123041293162
 20
-2172.7007124636802
 42
-0.0086273358694657
 10
-1933.7874924921546
 20
-2172.3833368296646
 10
-1933.7436587759273
 20
-2172.3432871853302
 42
-0.010313832311652
 10
-1933.4856350736952
 20
-2172.117124047993
 10
-1933.4398606673703
 20
-2172.0786420007348
 42
-0.0060206748570948
 10
-1933.267012603256
 20
-2171.9368473499785
 10
-1933.2649814723743
 20
-2171.9352216443503
 42
-0.0067069027288761
 10
-1933.0926886577076
 20
-2171.8010710105523
 10
-1933.0901398917752
 20
-2171.799140840672
 42
-0.0076184352054572
 10
-1932.9192346259101
 20
-2171.6737659654332
 42
-0.0089652861670046
 10
-1932.7442736631745
 20
-2171.5541327051001
 10
-1932.7079219430316
 20
-2171.5302214916182
 42
-0.0156916245942144
 10
-1932.5119624458705
 20
-2171.4099590051428
 42
-0.0023299011066357
 10
-1932.3117004019064
 20
-2171.296781065611
 10
-1932.2963162695107
 20
-2171.2881810705376
 42
-0.0107669341487851
 10
-1932.062079444411
 20
-2171.1637809371891
 10
-1932.0398146433345
 20
-2171.1525641872381
 42
-0.0078058045907405
 10
-1931.7562245253828
 20
-2171.0152027316003
 10
-1931.7463174376726
 20
-2171.0105936037312
 42
-0.0181829330466959
 10
-1931.4360080330566
 20
-2170.8797298626355
 10
-1931.3819525904933
 20
-2170.8592147426934
 42
-0.0208411536030692
 10
-1931.0328676230401
 20
-2170.743124280199
 10
-1931.0185115229099
 20
-2170.7390058352448
 42
-0.0222799817142634
 10
-1930.6897917289955
 20
-2170.6603642691052
 10
-1930.6809027657628
 20
-2170.6586522585208
 42
-0.0215509523875975
 10
-1930.3644317974786
 20
-2170.6117365699856
 10
-1930.3219498364351
 20
-2170.6072990431953
 42
-0.0182545924867892
 10
-1930.0878410571245
 20
-2170.5914552178037
 10
-1930.0484400407897
 20
-2170.5902306727248
 42
-0.007296285652096
 10
-1929.8925171610877
 20
-2170.5876613442024
 10
-1929.8634174905051
 20
-2170.5876065087987
 42
-0.0059227516303431
 10
-1929.7656679913705
 20
-2170.5885802205894
 10
-1929.7364257737722
 20
-2170.5892179871953
 42
-0.0011833111952812
 10
-1929.6971744901662
 20
-2170.5901669915029
 10
-1930.4925610857733
 20
-2173.1289009366019
 42
0.0143932051653722
 10
-1930.5189624681198
 20
-2173.1187019665581
 10
-1930.5262344405412
 20
-2173.1161307476991
 42
0.0234388603450215
 10
-1930.568065306473
 20
-2173.1035115119839
 10
-1930.576746969386
 20
-2173.1013305499787
 42
0.019916274300902
 10
-1930.6370358034649
 20
-2173.0887138146436
 10
-1930.6578497412722
 20
-2173.0852166152149
 42
0.0293643550691133
 10
-1930.760924600032
 20
-2173.0740665695621
 10
-1930.7856097807517
 20
-2173.0728549525434
 42
0.0214606686864086
 10
-1930.9387506967096
 20
-2173.0719163921262
 10
-1930.9481226075222
 20
-2173.0722613036705
 42
0.0167564054187226
 10
-1931.1196427986333
 20
-2173.0843383460383
 10
-1931.1281025913895
 20
-2173.0852196864653
 42
0.0137677553235409
 10
-1931.3154559046588
 20
-2173.1099689950097
 10
-1931.3228076441619
 20
-2173.1111469149769
 42
0.0118497261489554
 10
-1931.5233054082628
 20
-2173.1481642651656
 10
-1931.5294554155107
 20
-2173.1494511278861
 42
0.0106421143879476
 10
-1931.7403363028
 20
-2173.1982835034619
 10
-1931.7452451111847
 20
-2173.199530846146
 42
0.0099746379709752
 10
-1931.9637035803523
 20
-2173.2597053744621
 10
-1932.0252516205173
 20
-2173.2779872530914
 42
0.0191613675855515
 10
-1932.3612360830393
 20
-2173.3919646333807
 10
-1932.4492958557832
 20
-2173.4256515437041
 42
0.0205274080144304
 10
-1932.8346026276793
 20
-2173.591479951529
 10
-1932.8922519096609
 20
-2173.6191479161012
 42
0.0181256912197248
 10
-1933.1505288503281
 20
-2173.7548317350793
 10
-1933.2034842336411
 20
-2173.7851493482935
 42
0.0140709242428408
 10
-1933.3484391682705
 20
-2173.8736440217281
 10
-1933.3746880368831
 20
-2173.8907008404399
 42
0.0086667884418596
 10
-1933.4636141984315
 20
-2173.9507035083266
 42
0.0036408192019797
 10
-1933.5510474364633
 20
-2174.0128843661178
 10
-1933.5862743109337
 20
-2174.0383253120317
 42
0.0052260781291509
 10
-1933.7425030083286
 20
-2174.1536576986691
 10
-1933.7587098645843
 20
-2174.1658858092842
 42
0.005002443590313
 10
-1933.944713207645
 20
-2174.3091683775478
 10
-1933.9600313641581
 20
-2174.3212143999917
 42
0.0136138710277265
 10
-1934.1704726324842
 20
-2174.4961809049059
 10
-1934.2041405082773
 20
-2174.5257598776197
 42
0.0172815186913138
 10
-1934.4685440499402
 20
-2174.7747565502432
 10
-1934.4711063957823
 20
-2174.7773423673898
 42
0.0189403857987823
 10
-1934.7216881943627
 20
-2175.0501476321956
 10
-1934.7543196878987
 20
-2175.088491563693
 42
0.0185044199513221
 10
-1934.9462761268774
 20
-2175.3317401448144
 42
0.0088565243903371
 10
-1935.1247362335055
 20
-2175.5852565649643
 10
-1935.1339142131542
 20
-2175.5987979447245
 42
0.0157195347226999
 10
-1935.3171348194876
 20
-2175.8883201540389
 10
-1935.3632177614152
 20
-2175.9664723510541
 42
0.0095451879778099
 10
-1935.528303311557
 20
-2176.2590669934175
 10
-1935.5394512304872
 20
-2176.2797376655503
 42
0.010035170626158
 10
-1935.6714949796458
 20
-2176.5367932260406
 42
0.0086935915430618
 10
-1935.7938261314414
 20
-2176.7986263714483
 10
-1935.7971468728542
 20
-2176.8060686944164
 42
0.0072580174867472
 10
-1935.9174933248046
 20
-2177.0866606860127
 10
-1935.9207549581056
 20
-2177.0945807120174
 42
0.0060005122617421
 10
-1936.039955626452
 20
-2177.3941903826321
 10
-1936.0431666047898
 20
-2177.4025519105271
 42
0.004901778698953
 10
-1936.1620667636473
 20
-2177.7214808911317
 10
-1936.1652325700379
 20
-2177.7302338283625
 42
0.0039415167604396
 10
-1936.2846688480995
 20
-2178.0687758907902
 10
-1936.2877999507466
 20
-2178.0778790916515
 42
0.0031035838766976
 10
-1936.4086047364251
 20
-2178.436318953381
 10
-1936.41171478097
 20
-2178.4457395747995
 42
0.0025070747149414
 10
-1936.5346161322943
 20
-2178.8243867917722
 10
-1936.5719100287108
 20
-2178.9412784569968
 42
0.0029081910283284
 10
-1936.7639283265305
 20
-2179.5554421153174
 10
-1936.8047314950386
 20
-2179.6886653575643
 42
0.0009266453737432
 10
-1937.0731488694132
 20
-2180.5708898176849
 10
-1937.0940363419891
 20
-2180.6400016967068
 42
-0.0005809993660575
 10
-1937.3713730225852
 20
-2181.5538098033626
 10
-1937.43765482084
 20
-2181.771294735463
 42
-0.0012018708167166
 10
-1937.5846391302873
 20
-2182.249457400043
 10
-1937.636958981916
 20
-2182.4182165411121
 42
-0.0002691059597626
 10
-1937.6805284630213
 20
-2182.5584841612508
 10
-1940.5134843613107
 20
-2191.6476387635503
 10
-1942.3314732532892
 20
-2191.6476387635503
 10
-1936.0792238372414
 20
-2171.0039207270206
  0
SPLINE
  5
5B
100
AcDbEntity
  8
0
370
              15
390
0
  6
Continuous
 62
               7
100
AcDbSpline
210
0.0
220
0.0
230
1.0
 70
              13
 71
               2
 72
             782
 73
             779
 74
               0
 42
0.000001
 43
0.000001
 40
0.0
 40
0.0
 40
0.0
 40
1.0
 40
1.0
 40
2.0
 40
2.0
 40
3.0
 40
3.0
 40
4.0
 40
4.0
 40
5.0
 40
5.0
 40
6.0
 40
6.0
 40
7.0
 40
7.0
 40
8.0
 40
8.0
 40
9.0
 40
9.0
 40
10.0
 40
10.0
 40
11.0
 40
11.0
 40
12.0
 40
12.0
 40
13.0
 40
13.0
 40
14.0
 40
14.0
 40
15.0
 40
15.0
 40
16.0
 40
16.0
 40
17.0
 40
17.0
 40
18.0
 40
18.0
 40
19.0
 40
19.0
 40
20.0
 40
20.0
 40
21.0
 40
21.0
 40
22.0
 40
22.0
 40
23.0
 40
23.0
 40
24.0
 40
24.0
 40
25.0
 40
25.0
 40
26.0
 40
26.0
 40
27.0
 40
27.0
 40
28.0
 40
28.0
 40
29.0
 40
29.0
 40
30.0
 40
30.0
 40
31.0
 40
31.0
 40
32.0
 40
32.0
 40
33.0
 40
33.0
 40
34.0
 40
34.0
 40
35.0
 40
35.0
 40
36.0
 40
36.0
 40
37.0
 40
37.0
 40
38.0
 40
38.0
 40
39.0
 40
39.0
 40
40.0
 40
40.0
 40
41.0
 40
41.0
 40
42.0
 40
42.0
 40
43.0
 40
43.0
 40
44.0
 40
44.0
 40
45.0
 40
45.0
 40
46.0
 40
46.0
 40
47.0
 40
47.0
 40
48.0
 40
48.0
 40
49.0
 40
49.0
 40
50.0
 40
50.0
 40
51.0
 40
51.0
 40
52.0
 40
52.0
 40
53.0
 40
53.0
 40
54.0
 40
54.0
 40
55.0
 40
55.0
 40
56.0
 40
56.0
 40
57.0
 40
57.0
 40
58.0
 40
58.0
 40
59.0
 40
59.0
 40
60.0
 40
60.0
 40
61.0
 40
61.0
 40
62.0
 40
62.0
 40
63.0
 40
63.0
 40
64.0
 40
64.0
 40
65.0
 40
65.0
 40
66.0
 40
66.0
 40
67.0
 40
67.0
 40
68.0
 40
68.0
 40
69.0
 40
69.0
 40
70.0
 40
70.0
 40
71.0
 40
71.0
 40
72.0
 40
72.0
 40
73.0
 40
73.0
 40
74.0
 40
74.0
 40
75.0
 40
75.0
 40
76.0
 40
76.0
 40
77.0
 40
77.0
 40
78.0
 40
78.0
 40
79.0
 40
79.0
 40
80.0
 40
80.0
 40
81.0
 40
81.0
 40
82.0
 40
82.0
 40
83.0
 40
83.0
 40
84.0
 40
84.0
 40
85.0
 40
85.0
 40
86.0
 40
86.0
 40
87.0
 40
87.0
 40
88.0
 40
88.0
 40
89.0
 40
89.0
 40
90.0
 40
90.0
 40
91.0
 40
91.0
 40
92.0
 40
92.0
 40
93.0
 40
93.0
 40
94.0
 40
94.0
 40
95.0
 40
95.0
 40
96.0
 40
96.0
 40
97.0
 40
97.0
 40
98.0
 40
98.0
 40
99.0
 40
99.0
 40
100.0
 40
100.0
 40
101.0
 40
101.0
 40
102.0
 40
102.0
 40
103.0
 40
103.0
 40
104.0
 40
104.0
 40
105.0
 40
105.0
 40
106.0
 40
106.0
 40
107.0
 40
107.0
 40
108.0
 40
108.0
 40
109.0
 40
109.0
 40
110.0
 40
110.0
 40
111.0
 40
111.0
 40
112.0
 40
112.0
 40
113.0
 40
113.0
 40
114.0
 40
114.0
 40
115.0
 40
115.0
 40
116.0
 40
116.0
 40
117.0
 40
117.0
 40
118.0
 40
118.0
 40
119.0
 40
119.0
 40
120.0
 40
120.0
 40
121.0
 40
121.0
 40
122.0
 40
122.0
 40
123.0
 40
123.0
 40
124.0
 40
124.0
 40
125.0
 40
125.0
 40
126.0
 40
126.0
 40
127.0
 40
127.0
 40
128.0
 40
128.0
 40
129.0
 40
129.0
 40
130.0
 40
130.0
 40
131.0
 40
131.0
 40
132.0
 40
132.0
 40
133.0
 40
133.0
 40
134.0
 40
134.0
 40
135.0
 40
135.0
 40
136.0
 40
136.0
 40
137.0
 40
137.0
 40
138.0
 40
138.0
 40
139.0
 40
139.0
 40
140.0
 40
140.0
 40
141.0
 40
141.0
 40
142.0
 40
142.0
 40
143.0
 40
143.0
 40
144.0
 40
144.0
 40
145.0
 40
145.0
 40
146.0
 40
146.0
 40
147.0
 40
147.0
 40
148.0
 40
148.0
 40
149.0
 40
149.0
 40
150.0
 40
150.0
 40
151.0
 40
151.0
 40
152.0
 40
152.0
 40
153.0
 40
153.0
 40
154.0
 40
154.0
 40
155.0
 40
155.0
 40
156.0
 40
156.0
 40
157.0
 40
157.0
 40
158.0
 40
158.0
 40
159.0
 40
159.0
 40
160.0
 40
160.0
 40
161.0
 40
161.0
 40
162.0
 40
162.0
 40
163.0
 40
163.0
 40
164.0
 40
164.0
 40
165.0
 40
165.0
 40
166.0
 40
166.0
 40
167.0
 40
167.0
 40
168.0
 40
168.0
 40
169.0
 40
169.0
 40
170.0
 40
170.0
 40
171.0
 40
171.0
 40
172.0
 40
172.0
 40
173.0
 40
173.0
 40
174.0
 40
174.0
 40
175.0
 40
175.0
 40
176.0
 40
176.0
 40
177.0
 40
177.0
 40
178.0
 40
178.0
 40
179.0
 40
179.0
 40
180.0
 40
180.0
 40
181.0
 40
181.0
 40
182.0
 40
182.0
 40
183.0
 40
183.0
 40
184.0
 40
184.0
 40
185.0
 40
185.0
 40
186.0
 40
186.0
 40
187.0
 40
187.0
 40
188.0
 40
188.0
 40
189.0
 40
189.0
 40
190.0
 40
190.0
 40
191.0
 40
191.0
 40
192.0
 40
192.0
 40
193.0
 40
193.0
 40
194.0
 40
194.0
 40
195.0
 40
195.0
 40
196.0
 40
196.0
 40
197.0
 40
197.0
 40
198.0
 40
198.0
 40
199.0
 40
199.0
 40
200.0
 40
200.0
 40
201.0
 40
201.0
 40
202.0
 40
202.0
 40
203.0
 40
203.0
 40
204.0
 40
204.0
 40
205.0
 40
205.0
 40
206.0
 40
206.0
 40
207.0
 40
207.0
 40
208.0
 40
208.0
 40
209.0
 40
209.0
 40
210.0
 40
210.0
 40
211.0
 40
211.0
 40
212.0
 40
212.0
 40
213.0
 40
213.0
 40
214.0
 40
214.0
 40
215.0
 40
215.0
 40
216.0
 40
216.0
 40
217.0
 40
217.0
 40
218.0
 40
218.0
 40
219.0
 40
219.0
 40
220.0
 40
220.0
 40
221.0
 40
221.0
 40
222.0
 40
222.0
 40
223.0
 40
223.0
 40
224.0
 40
224.0
 40
225.0
 40
225.0
 40
226.0
 40
226.0
 40
227.0
 40
227.0
 40
228.0
 40
228.0
 40
229.0
 40
229.0
 40
230.0
 40
230.0
 40
231.0
 40
231.0
 40
232.0
 40
232.0
 40
233.0
 40
233.0
 40
234.0
 40
234.0
 40
235.0
 40
235.0
 40
236.0
 40
236.0
 40
237.0
 40
237.0
 40
238.0
 40
238.0
 40
239.0
 40
239.0
 40
240.0
 40
240.0
 40
241.0
 40
241.0
 40
242.0
 40
242.0
 40
243.0
 40
243.0
 40
244.0
 40
244.0
 40
245.0
 40
245.0
 40
246.0
 40
246.0
 40
247.0
 40
247.0
 40
248.0
 40
248.0
 40
249.0
 40
249.0
 40
250.0
 40
250.0
 40
251.0
 40
251.0
 40
252.0
 40
252.0
 40
253.0
 40
253.0
 40
254.0
 40
254.0
 40
255.0
 40
255.0
 40
256.0
 40
256.0
 40
257.0
 40
257.0
 40
258.0
 40
258.0
 40
259.0
 40
259.0
 40
260.0
 40
260.0
 40
261.0
 40
261.0
 40
262.0
 40
262.0
 40
263.0
 40
263.0
 40
264.0
 40
264.0
 40
265.0
 40
265.0
 40
266.0
 40
266.0
 40
267.0
 40
267.0
 40
268.0
 40
268.0
 40
269.0
 40
269.0
 40
270.0
 40
270.0
 40
271.0
 40
271.0
 40
272.0
 40
272.0
 40
273.0
 40
273.0
 40
274.0
 40
274.0
 40
275.0
 40
275.0
 40
276.0
 40
276.0
 40
277.0
 40
277.0
 40
278.0
 40
278.0
 40
279.0
 40
279.0
 40
280.0
 40
280.0
 40
281.0
 40
281.0
 40
282.0
 40
282.0
 40
283.0
 40
283.0
 40
284.0
 40
284.0
 40
285.0
 40
285.0
 40
286.0
 40
286.0
 40
287.0
 40
287.0
 40
288.0
 40
288.0
 40
289.0
 40
289.0
 40
290.0
 40
290.0
 40
291.0
 40
291.0
 40
292.0
 40
292.0
 40
293.0
 40
293.0
 40
294.0
 40
294.0
 40
295.0
 40
295.0
 40
296.0
 40
296.0
 40
297.0
 40
297.0
 40
298.0
 40
298.0
 40
299.0
 40
299.0
 40
300.0
 40
300.0
 40
301.0
 40
301.0
 40
302.0
 40
302.0
 40
303.0
 40
303.0
 40
304.0
 40
304.0
 40
305.0
 40
305.0
 40
306.0
 40
306.0
 40
307.0
 40
307.0
 40
308.0
 40
308.0
 40
309.0
 40
309.0
 40
310.0
 40
310.0
 40
311.0
 40
311.0
 40
312.0
 40
312.0
 40
313.0
 40
313.0
 40
314.0
 40
314.0
 40
315.0
 40
315.0
 40
316.0
 40
316.0
 40
317.0
 40
317.0
 40
318.0
 40
318.0
 40
319.0
 40
319.0
 40
320.0
 40
320.0
 40
321.0
 40
321.0
 40
322.0
 40
322.0
 40
323.0
 40
323.0
 40
324.0
 40
324.0
 40
325.0
 40
325.0
 40
326.0
 40
326.0
 40
327.0
 40
327.0
 40
328.0
 40
328.0
 40
329.0
 40
329.0
 40
330.0
 40
330.0
 40
331.0
 40
331.0
 40
332.0
 40
332.0
 40
333.0
 40
333.0
 40
334.0
 40
334.0
 40
335.0
 40
335.0
 40
336.0
 40
336.0
 40
337.0
 40
337.0
 40
338.0
 40
338.0
 40
339.0
 40
339.0
 40
340.0
 40
340.0
 40
341.0
 40
341.0
 40
342.0
 40
342.0
 40
343.0
 40
343.0
 40
344.0
 40
344.0
 40
345.0
 40
345.0
 40
346.0
 40
346.0
 40
347.0
 40
347.0
 40
348.0
 40
348.0
 40
349.0
 40
349.0
 40
350.0
 40
350.0
 40
351.0
 40
351.0
 40
352.0
 40
352.0
 40
353.0
 40
353.0
 40
354.0
 40
354.0
 40
355.0
 40
355.0
 40
356.0
 40
356.0
 40
357.0
 40
357.0
 40
358.0
 40
358.0
 40
359.0
 40
359.0
 40
360.0
 40
360.0
 40
361.0
 40
361.0
 40
362.0
 40
362.0
 40
363.0
 40
363.0
 40
364.0
 40
364.0
 40
365.0
 40
365.0
 40
366.0
 40
366.0
 40
367.0
 40
367.0
 40
368.0
 40
368.0
 40
369.0
 40
369.0
 40
370.0
 40
370.0
 40
371.0
 40
371.0
 40
372.0
 40
372.0
 40
373.0
 40
373.0
 40
374.0
 40
374.0
 40
375.0
 40
375.0
 40
376.0
 40
376.0
 40
377.0
 40
377.0
 40
378.0
 40
378.0
 40
379.0
 40
379.0
 40
380.0
 40
380.0
 40
381.0
 40
381.0
 40
382.0
 40
382.0
 40
383.0
 40
383.0
 40
384.0
 40
384.0
 40
385.0
 40
385.0
 40
386.0
 40
386.0
 40
387.0
 40
387.0
 40
388.0
 40
388.0
 40
389.0
 40
389.0
 40
389.0
 10
-1925.7505193865086
 20
-2170.992994363658
 30
0.0
 41
1.0
 10
-1924.9320952777882
 20
-2170.992994363658
 30
0.0
 41
1.0
 10
-1924.1136711690679
 20
-2170.992994363658
 30
0.0
 41
1.0
 10
-1924.5274249045847
 20
-2172.3356206279077
 30
0.0
 41
1.0
 10
-1924.9411786401013
 20
-2173.6782468921574
 30
0.0
 41
1.0
 10
-1924.9228391449642
 20
-2173.649546119294
 30
0.0
 41
0.9999957264349633
 10
-1924.9043321481281
 20
-2173.6209530691353
 30
0.0
 41
1.0
 10
-1924.8739028239779
 20
-2173.5739401907394
 30
0.0
 41
1.0
 10
-1924.843473499828
 20
-2173.526927312344
 30
0.0
 41
1.0
 10
-1924.7641078547242
 20
-2173.4043085054432
 30
0.0
 41
0.9995394069081145
 10
-1924.6774494631738
 20
-2173.2867304437041
 30
0.0
 41
1.0
 10
-1924.6416926009124
 20
-2173.2382155511086
 30
0.0
 41
1.0
 10
-1924.6059357386512
 20
-2173.1897006585127
 30
0.0
 41
1.0
 10
-1924.4722090708312
 20
-2173.0082603833839
 30
0.0
 41
0.9994460617143137
 10
-1924.3267085895443
 20
-2172.8361179857357
 30
0.0
 41
1.0
 10
-1924.3223204085677
 20
-2172.8309263053516
 30
0.0
 41
1.0
 10
-1924.3179322275912
 20
-2172.825734624967
 30
0.0
 41
1.0
 10
-1924.1812081082567
 20
-2172.663975588086
 30
0.0
 41
0.9994359394933811
 10
-1924.0339338779049
 20
-2172.5117593869213
 30
0.0
 41
1.0
 10
-1924.0315505239514
 20
-2172.509296056548
 30
0.0
 41
1.0
 10
-1924.0291671699981
 20
-2172.5068327261752
 30
0.0
 41
1.0
 10
-1923.8866596475543
 20
-2172.359543185757
 30
0.0
 41
0.9995293688567565
 10
-1923.7353879665714
 20
-2172.2212699735924
 30
0.0
 41
1.0
 10
-1923.7160942073087
 20
-2172.2036340879422
 30
0.0
 41
1.0
 10
-1923.6968004480464
 20
-2172.1859982022916
 30
0.0
 41
1.0
 10
-1923.5841162855866
 20
-2172.0829967614263
 30
0.0
 41
0.9997087614803482
 10
-1923.4665933966342
 20
-2171.9855524806303
 30
0.0
 41
1.0
 10
-1923.4474273234555
 20
-2171.9696609021198
 30
0.0
 41
1.0
 10
-1923.428261250277
 20
-2171.9537693236093
 30
0.0
 41
1.0
 10
-1923.3490705076761
 20
-2171.8881081998297
 30
0.0
 41
0.9999595338695549
 10
-1923.2687112368239
 20
-2171.8238824691775
 30
0.0
 41
1.0
 10
-1923.1883519659764
 20
-2171.7596567385285
 30
0.0
 41
0.9999749417501667
 10
-1923.1070914316383
 20
-2171.6965751845864
 30
0.0
 41
1.0
 10
-1923.0861052854541
 20
-2171.6802838972681
 30
0.0
 41
1.0
 10
-1923.0651191392699
 20
-2171.6639926099492
 30
0.0
 41
1.0
 10
-1922.9805512539824
 20
-2171.5983436001197
 30
0.0
 41
0.9999792037131602
 10
-1922.8951436542229
 20
-2171.5337908184838
 30
0.0
 41
1.0
 10
-1922.8743188282824
 20
-2171.5180509962038
 30
0.0
 41
1.0
 10
-1922.8534940023417
 20
-2171.5023111739242
 30
0.0
 41
1.0
 10
-1922.8097360544275
 20
-2171.4692380368201
 30
0.0
 41
0.9999993374010054
 10
-1922.7660543683103
 20
-2171.4360642414158
 30
0.0
 41
1.0
 10
-1922.7223726821662
 20
-2171.402890445991
 30
0.0
 41
0.9999160953816303
 10
-1922.6778462712452
 20
-2171.3708593807924
 30
0.0
 41
1.0
 10
-1922.6450243838267
 20
-2171.3472482252082
 30
0.0
 41
1.0
 10
-1922.6122024964084
 20
-2171.3236370696241
 30
0.0
 41
1.0
 10
-1922.5020323106494
 20
-2171.2443836932557
 30
0.0
 41
0.9980964527232296
 10
-1922.3829433171477
 20
-2171.179296220399
 30
0.0
 41
1.0
 10
-1922.3459107102208
 20
-2171.1590562408064
 30
0.0
 41
1.0
 10
-1922.3088781032941
 20
-2171.1388162612143
 30
0.0
 41
1.0
 10
-1922.1295510900218
 20
-2171.0408060105133
 30
0.0
 41
0.9984572810572083
 10
-1921.9404625236612
 20
-2170.9632837491663
 30
0.0
 41
1.0
 10
-1921.9368162542662
 20
-2170.9617888568287
 30
0.0
 41
1.0
 10
-1921.9331699848713
 20
-2170.960293964491
 30
0.0
 41
1.0
 10
-1921.7513739573035
 20
-2170.8857614878202
 30
0.0
 41
0.9987838528033881
 10
-1921.5631212987432
 20
-2170.829495847654
 30
0.0
 41
1.0
 10
-1921.5588833495449
 20
-2170.828229193964
 30
0.0
 41
1.0
 10
-1921.5546454003463
 20
-2170.8269625402736
 30
0.0
 41
1.0
 10
-1921.3748686401836
 20
-2170.7732302074883
 30
0.0
 41
0.9990652816207879
 10
-1921.1911227084679
 20
-2170.735226527946
 30
0.0
 41
1.0
 10
-1921.1859343074366
 20
-2170.7341534248394
 30
0.0
 41
1.0
 10
-1921.1807459064053
 20
-2170.7330803217328
 30
0.0
 41
1.0
 10
-1921.0073767767522
 20
-2170.6972228484037
 30
0.0
 41
0.9992909934269844
 10
-1920.8318010102939
 20
-2170.6745124159374
 30
0.0
 41
1.0
 10
-1920.6562252438321
 20
-2170.6518019834712
 30
0.0
 41
0.9994553539449436
 10
-1920.4795338107344
 20
-2170.6407226792639
 30
0.0
 41
1.0
 10
-1920.4440994029419
 20
-2170.6385007912168
 30
0.0
 41
1.0
 10
-1920.4086649951494
 20
-2170.6362789031691
 30
0.0
 41
1.0
 10
-1920.2424392285805
 20
-2170.6258558407571
 30
0.0
 41
0.9990928098292359
 10
-1920.075929436679
 20
-2170.629615481992
 30
0.0
 41
1.0
 10
-1920.0373676014165
 20
-2170.6304861735248
 30
0.0
 41
1.0
 10
-1919.998805766154
 20
-2170.6313568650576
 30
0.0
 41
1.0
 10
-1919.9094196447854
 20
-2170.633375123226
 30
0.0
 41
0.9998382089203769
 10
-1919.8201639619901
 20
-2170.6386072497544
 30
0.0
 41
1.0
 10
-1919.8197340557645
 20
-2170.638632450657
 30
0.0
 41
1.0
 10
-1919.819304149539
 20
-2170.6386576515597
 30
0.0
 41
1.0
 10
-1919.7309082791983
 20
-2170.6438393762833
 30
0.0
 41
0.9997558016759388
 10
-1919.6428277020032
 20
-2170.6529218916494
 30
0.0
 41
1.0
 10
-1919.6423515635763
 20
-2170.652970989132
 30
0.0
 41
1.0
 10
-1919.6418754251495
 20
-2170.6530200866141
 30
0.0
 41
1.0
 10
-1919.5547471248049
 20
-2170.662004407015
 30
0.0
 41
0.999656514418007
 10
-1919.4682092714602
 20
-2170.6755417137047
 30
0.0
 41
1.0
 10
-1919.4677433460811
 20
-2170.6756145994364
 30
0.0
 41
1.0
 10
-1919.4672774207017
 20
-2170.6756874851681
 30
0.0
 41
1.0
 10
-1919.381671418116
 20
-2170.6890790203938
 30
0.0
 41
0.9995321806865644
 10
-1919.2970443377903
 20
-2170.7076795088228
 30
0.0
 41
1.0
 10
-1919.2966551432175
 20
-2170.7077650512888
 30
0.0
 41
1.0
 10
-1919.2962659486448
 20
-2170.7078505937548
 30
0.0
 41
1.0
 10
-1919.2124172574624
 20
-2170.7262799972523
 30
0.0
 41
0.9993819199219903
 10
-1919.130070723266
 20
-2170.7505553805131
 30
0.0
 41
1.0
 10
-1919.1298322897662
 20
-2170.7506256696229
 30
0.0
 41
1.0
 10
-1919.1295938562664
 20
-2170.7506959587326
 30
0.0
 41
1.0
 10
-1919.0477241890671
 20
-2170.7748307637744
 30
0.0
 41
0.9992088568505836
 10
-1918.9680316700815
 20
-2170.8053959995677
 30
0.0
 41
1.0
 10
-1918.8883506792026
 20
-2170.8359556003011
 30
0.0
 41
0.9990226101774163
 10
-1918.8116800092953
 20
-2170.8734330319157
 30
0.0
 41
1.0
 10
-1918.735020867497
 20
-2170.910904828469
 30
0.0
 41
0.9988424273972297
 10
-1918.6623172402847
 20
-2170.9555696037219
 30
0.0
 41
1.0
 10
-1918.6620495319055
 20
-2170.9557340677939
 30
0.0
 41
1.0
 10
-1918.6617818235263
 20
-2170.9558985318663
 30
0.0
 41
1.0
 10
-1918.5885427795561
 20
-2171.0008922352627
 30
0.0
 41
0.9986928844489522
 10
-1918.5202799128474
 20
-2171.0531279695419
 30
0.0
 41
1.0
 10
-1918.5196986206238
 20
-2171.0535727827705
 30
0.0
 41
1.0
 10
-1918.5191173284002
 20
-2171.0540175959991
 30
0.0
 41
1.0
 10
-1918.4496918772436
 20
-2171.107142956736
 30
0.0
 41
0.9986007262279605
 10
-1918.3862657074776
 20
-2171.1673037264286
 30
0.0
 41
1.0
 10
-1918.3853712920206
 20
-2171.1681520942634
 30
0.0
 41
1.0
 10
-1918.3844768765637
 20
-2171.1690004620982
 30
0.0
 41
1.0
 10
-1918.3192618758808
 20
-2171.2308579674636
 30
0.0
 41
0.9985581491380876
 10
-1918.2610542641776
 20
-2171.2993504577375
 30
0.0
 41
1.0
 10
-1918.2517958105834
 20
-2171.3102448154373
 30
0.0
 41
1.0
 10
-1918.2425373569893
 20
-2171.321139173137
 30
0.0
 41
1.0
 10
-1918.1658128380975
 20
-2171.4114203788099
 30
0.0
 41
0.9970460233519288
 10
-1918.1038209369381
 20
-2171.5123874629912
 30
0.0
 41
1.0
 10
-1918.0893515718594
 20
-2171.5359539220708
 30
0.0
 41
1.0
 10
-1918.0748822067808
 20
-2171.5595203811508
 30
0.0
 41
1.0
 10
-1918.0351455067671
 20
-2171.624240105185
 30
0.0
 41
0.9988468816636992
 10
-1918.0017991360137
 20
-2171.6924725576159
 30
0.0
 41
1.0
 10
-1917.9947631135187
 20
-2171.7068694787608
 30
0.0
 41
1.0
 10
-1917.9877270910235
 20
-2171.7212663999057
 30
0.0
 41
1.0
 10
-1917.9684527652612
 20
-2171.7607050100451
 30
0.0
 41
0.9998431189996462
 10
-1917.9505874377674
 20
-2171.8008015644841
 30
0.0
 41
1.0
 10
-1917.9327221102728
 20
-2171.8408981189232
 30
0.0
 41
0.9999989989865078
 10
-1917.9147433867872
 20
-2171.8809439566489
 30
0.0
 41
1.0
 10
-1917.9085710752245
 20
-2171.8946921733914
 30
0.0
 41
1.0
 10
-1917.9023987636617
 20
-2171.9084403901338
 30
0.0
 41
1.0
 10
-1917.8720754170508
 20
-2171.975982661344
 30
0.0
 41
0.9998790356320808
 10
-1917.8438675369071
 20
-2172.0444354132947
 30
0.0
 41
1.0
 10
-1917.8370323556278
 20
-2172.0610225147102
 30
0.0
 41
1.0
 10
-1917.8301971743488
 20
-2172.0776096161253
 30
0.0
 41
1.0
 10
-1917.8066395119665
 20
-2172.1347775710155
 30
0.0
 41
0.9998227574562215
 10
-1917.785250763575
 20
-2172.1927918792981
 30
0.0
 41
1.0
 10
-1917.7638620151845
 20
-2172.2508061875778
 30
0.0
 41
0.9996797971040745
 10
-1917.7454357302247
 20
-2172.3098283066984
 30
0.0
 41
1.0
 10
-1917.7415319275001
 20
-2172.3223327648648
 30
0.0
 41
1.0
 10
-1917.7376281247753
 20
-2172.3348372230312
 30
0.0
 41
1.0
 10
-1917.7113942343642
 20
-2172.4188682584909
 30
0.0
 41
0.9979274938735655
 10
-1917.6961697108845
 20
-2172.5055726171549
 30
0.0
 41
1.0
 10
-1917.693946023624
 20
-2172.5182366179733
 30
0.0
 41
1.0
 10
-1917.6917223363632
 20
-2172.5309006187917
 30
0.0
 41
1.0
 10
-1917.6807923966651
 20
-2172.593147126081
 30
0.0
 41
0.9994985982136642
 10
-1917.6738242314884
 20
-2172.6559606272222
 30
0.0
 41
1.0
 10
-1917.6668560663109
 20
-2172.7187741283747
 30
0.0
 41
0.9996372611202905
 10
-1917.6632802005429
 20
-2172.78187170706
 30
0.0
 41
1.0
 10
-1917.663111623054
 20
-2172.7848463241353
 30
0.0
 41
1.0
 10
-1917.662943045565
 20
-2172.7878209412106
 30
0.0
 41
1.0
 10
-1917.6590300248185
 20
-2172.8568677540406
 30
0.0
 41
0.9997730630735484
 10
-1917.6580617113307
 20
-2172.9260185780695
 30
0.0
 41
1.0
 10
-1917.6580046049125
 20
-2172.9300967572221
 30
0.0
 41
1.0
 10
-1917.6579474984942
 20
-2172.9341749363748
 30
0.0
 41
1.0
 10
-1917.6568649721698
 20
-2173.0114821186871
 30
0.0
 41
0.9998772614071462
 10
-1917.6582050589018
 20
-2173.0887852652459
 30
0.0
 41
1.0
 10
-1917.6582943221006
 20
-2173.0939344290864
 30
0.0
 41
1.0
 10
-1917.6583835852994
 20
-2173.0990835929269
 30
0.0
 41
1.0
 10
-1917.6599021984291
 20
-2173.1866850671795
 30
0.0
 41
0.9999415567325882
 10
-1917.6633145086757
 20
-2173.2742332288726
 30
0.0
 41
1.0
 10
-1917.6635558293503
 20
-2173.2804246885917
 30
0.0
 41
1.0
 10
-1917.6637971500249
 20
-2173.2866161483107
 30
0.0
 41
1.0
 10
-1917.6676921016231
 20
-2173.3865472294865
 30
0.0
 41
0.9999716810428196
 10
-1917.6730906847413
 20
-2173.4864083677089
 30
0.0
 41
1.0
 10
-1917.6763034835287
 20
-2173.545837617341
 30
0.0
 41
1.0
 10
-1917.6795162823162
 20
-2173.6052668669736
 30
0.0
 41
1.0
 10
-1917.6875901914693
 20
-2173.7546152682708
 30
0.0
 41
0.9999819129906493
 10
-1917.6974599830871
 20
-2173.9038557459967
 30
0.0
 41
1.0
 10
-1917.7073297747038
 20
-2174.0530962237081
 30
0.0
 41
1.0
 10
-1917.7097690952676
 20
-2174.0902892695572
 30
0.0
 41
1.0
 10
-1917.6870708614276
 20
-2174.051548272213
 30
0.0
 41
0.9999982128178426
 10
-1917.6642263026554
 20
-2174.0128933782262
 30
0.0
 41
1.0
 10
-1917.6373167427832
 20
-2173.9673601641925
 30
0.0
 41
1.0
 10
-1917.6104071829113
 20
-2173.9218269501594
 30
0.0
 41
1.0
 10
-1917.533743504388
 20
-2173.7921056280934
 30
0.0
 41
0.9998609190057162
 10
-1917.4527961915212
 20
-2173.6650132461559
 30
0.0
 41
1.0
 10
-1917.423147870044
 20
-2173.6184635132058
 30
0.0
 41
1.0
 10
-1917.3934995485665
 20
-2173.5719137802553
 30
0.0
 41
1.0
 10
-1917.3112273283259
 20
-2173.4427412102546
 30
0.0
 41
0.9999067609732677
 10
-1917.2254583188592
 20
-2173.3158635208092
 30
0.0
 41
1.0
 10
-1917.2230536156585
 20
-2173.3123062547547
 30
0.0
 41
1.0
 10
-1917.220648912458
 20
-2173.3087489887007
 30
0.0
 41
1.0
 10
-1917.1396893093927
 20
-2173.1889858313643
 30
0.0
 41
0.9998784952149548
 10
-1917.0550356997137
 20
-2173.0718046146594
 30
0.0
 41
1.0
 10
-1916.9703820900361
 20
-2172.9546233979554
 30
0.0
 41
0.9998532968283893
 10
-1916.8817644692172
 20
-2172.8404104894898
 30
0.0
 41
1.0
 10
-1916.8618026802224
 20
-2172.8146831684649
 30
0.0
 41
1.0
 10
-1916.8418408912273
 20
-2172.7889558474399
 30
0.0
 41
1.0
 10
-1916.7233568414676
 20
-2172.63625023647
 30
0.0
 41
0.999155197579495
 10
-1916.5927323918454
 20
-2172.493790674388
 30
0.0
 41
1.0
 10
-1916.5892227758677
 20
-2172.4899630727659
 30
0.0
 41
1.0
 10
-1916.5857131598902
 20
-2172.4861354711443
 30
0.0
 41
1.0
 10
-1916.4621079422218
 20
-2172.3513311123043
 30
0.0
 41
0.9997418144181806
 10
-1916.3325058025212
 20
-2172.2222817016918
 30
0.0
 41
1.0
 10
-1916.2029036628205
 20
-2172.0932322910794
 30
0.0
 41
0.9989238204633373
 10
-1916.0619011145695
 20
-2171.9767473290403
 30
0.0
 41
1.0
 10
-1916.0166534364296
 20
-2171.9393673374316
 30
0.0
 41
1.0
 10
-1915.9714057582896
 20
-2171.9019873458224
 30
0.0
 41
1.0
 10
-1915.8311657010699
 20
-2171.7861322925328
 30
0.0
 41
0.9990825084096322
 10
-1915.681525768465
 20
-2171.682703294699
 30
0.0
 41
1.0
 10
-1915.67148040441
 20
-2171.6757600816209
 30
0.0
 41
1.0
 10
-1915.6614350403549
 20
-2171.6688168685428
 30
0.0
 41
1.0
 10
-1915.5318858358658
 20
-2171.5792742968692
 30
0.0
 41
0.9998164899827915
 10
-1915.3990016324847
 20
-2171.4947600553496
 30
0.0
 41
1.0
 10
-1915.3871560719583
 20
-2171.4872262888239
 30
0.0
 41
1.0
 10
-1915.375310511432
 20
-2171.4796925222977
 30
0.0
 41
1.0
 10
-1915.2661174291084
 20
-2171.4102458138332
 30
0.0
 41
0.999747344913084
 10
-1915.1539134718591
 20
-2171.3457768560174
 30
0.0
 41
1.0
 10
-1915.0417095146101
 20
-2171.2813078982022
 30
0.0
 41
0.9999327861143716
 10
-1914.9280409038461
 20
-2171.2194579065203
 30
0.0
 41
1.0
 10
-1914.9274889012854
 20
-2171.219157547841
 30
0.0
 41
1.0
 10
-1914.9269368987248
 20
-2171.218857189162
 30
0.0
 41
1.0
 10
-1914.8121642828398
 20
-2171.1564064801223
 30
0.0
 41
0.9996956420483457
 10
-1914.6944509570037
 20
-2171.0996930131496
 30
0.0
 41
1.0
 10
-1914.6640105521074
 20
-2171.0850270364181
 30
0.0
 41
1.0
 10
-1914.633570147211
 20
-2171.0703610596861
 30
0.0
 41
1.0
 10
-1914.5305930404686
 20
-2171.0207474012436
 30
0.0
 41
0.9998070570177416
 10
-1914.4257466515294
 20
-2170.9752168143432
 30
0.0
 41
1.0
 10
-1914.3209002625929
 20
-2170.9296862274437
 30
0.0
 41
0.9997827436147665
 10
-1914.2142473259837
 20
-2170.8885650561324
 30
0.0
 41
1.0
 10
-1914.1950244763498
 20
-2170.881153482499
 30
0.0
 41
1.0
 10
-1914.1758016267158
 20
-2170.8737419088657
 30
0.0
 41
1.0
 10
-1914.0307029908422
 20
-2170.817797590289
 30
0.0
 41
0.9988031841977625
 10
-1913.8808326282365
 20
-2170.7762975261207
 30
0.0
 41
1.0
 10
-1913.8559153798744
 20
-2170.7693977803142
 30
0.0
 41
1.0
 10
-1913.8309981315124
 20
-2170.7624980345076
 30
0.0
 41
1.0
 10
-1913.6637281058654
 20
-2170.7161798921006
 30
0.0
 41
0.9984748040550108
 10
-1913.492371197216
 20
-2170.6885856598356
 30
0.0
 41
1.0
 10
-1913.4876320609656
 20
-2170.6878224993216
 30
0.0
 41
1.0
 10
-1913.4828929247153
 20
-2170.687059338808
 30
0.0
 41
1.0
 10
-1913.3210142885655
 20
-2170.6609914275709
 30
0.0
 41
0.9984436495480542
 10
-1913.157239544842
 20
-2170.6531134737525
 30
0.0
 41
1.0
 10
-1913.1355423367095
 20
-2170.6520697865526
 30
0.0
 41
1.0
 10
-1913.1138451285769
 20
-2170.6510260993527
 30
0.0
 41
1.0
 10
-1912.9934648011163
 20
-2170.6452355199335
 30
0.0
 41
0.9987954789335585
 10
-1912.8730965562077
 20
-2170.6512720476758
 30
0.0
 41
1.0
 10
-1912.8531317637126
 20
-2170.6522732920143
 30
0.0
 41
1.0
 10
-1912.8331669712175
 20
-2170.6532745363529
 30
0.0
 41
1.0
 10
-1912.7527283112972
 20
-2170.657308575418
 30
0.0
 41
0.9997941595877503
 10
-1912.6725195332035
 20
-2170.6646026413391
 30
0.0
 41
1.0
 10
-1912.5923107551096
 20
-2170.6718967072602
 30
0.0
 41
0.9998589466235922
 10
-1912.5123922082539
 20
-2170.6818805617104
 30
0.0
 41
1.0
 10
-1912.4799860064459
 20
-2170.6859289186295
 30
0.0
 41
1.0
 10
-1912.4475798046376
 20
-2170.6899772755487
 30
0.0
 41
1.0
 10
-1912.3028488541663
 20
-2170.7080578438372
 30
0.0
 41
0.9993495063249545
 10
-1912.1597976103994
 20
-2170.736523553579
 30
0.0
 41
1.0
 10
-1912.1268639132477
 20
-2170.7430770167939
 30
0.0
 41
1.0
 10
-1912.0939302160962
 20
-2170.7496304800084
 30
0.0
 41
1.0
 10
-1911.9846363928909
 20
-2170.7713788141441
 30
0.0
 41
0.9996788715561169
 10
-1911.8765848209355
 20
-2170.7986366135069
 30
0.0
 41
1.0
 10
-1911.8745218183985
 20
-2170.7991570400791
 30
0.0
 41
1.0
 10
-1911.8724588158616
 20
-2170.7996774666517
 30
0.0
 41
1.0
 10
-1911.7685332489809
 20
-2170.8258944128697
 30
0.0
 41
0.9995480654493093
 10
-1911.6663710137495
 20
-2170.8583093694942
 30
0.0
 41
1.0
 10
-1911.6646813716218
 20
-2170.8588454744076
 30
0.0
 41
1.0
 10
-1911.662991729494
 20
-2170.8593815793215
 30
0.0
 41
1.0
 10
-1911.5642087785225
 20
-2170.8907243261178
 30
0.0
 41
0.9993867959455461
 10
-1911.4678616200774
 20
-2170.9289036954087
 30
0.0
 41
1.0
 10
-1911.466618670994
 20
-2170.9293962373044
 30
0.0
 41
1.0
 10
-1911.4653757219105
 20
-2170.9298887792002
 30
0.0
 41
1.0
 10
-1911.3715144616365
 20
-2170.9670830646974
 30
0.0
 41
0.9992050256521279
 10
-1911.2809147866017
 20
-2171.0116369639372
 30
0.0
 41
1.0
 10
-1911.2801801038897
 20
-2171.0119982563979
 30
0.0
 41
1.0
 10
-1911.2794454211778
 20
-2171.0123595488585
 30
0.0
 41
1.0
 10
-1911.190315111568
 20
-2171.0561908631762
 30
0.0
 41
0.9990222350741438
 10
-1911.1054050501748
 20
-2171.107724130874
 30
0.0
 41
1.0
 10
-1911.1052211648907
 20
-2171.1078357337797
 30
0.0
 41
1.0
 10
-1911.1050372796069
 20
-2171.1079473366854
 30
0.0
 41
1.0
 10
-1911.0204949887789
 20
-2171.1592573985745
 30
0.0
 41
0.9988642743807086
 10
-1910.9412204541618
 20
-2171.2183815860976
 30
0.0
 41
1.0
 10
-1910.8619459195415
 20
-2171.2775057736239
 30
0.0
 41
0.9987681233310054
 10
-1910.7889221352643
 20
-2171.344196465026
 30
0.0
 41
1.0
 10
-1910.7885932072998
 20
-2171.3444968662388
 30
0.0
 41
1.0
 10
-1910.7882642793352
 20
-2171.3447972674521
 30
0.0
 41
1.0
 10
-1910.7145826391231
 20
-2171.4120887612862
 30
0.0
 41
0.9987496570901098
 10
-1910.6479888337938
 20
-2171.4864015753751
 30
0.0
 41
1.0
 10
-1910.6472166640365
 20
-2171.4872632487295
 30
0.0
 41
1.0
 10
-1910.6464444942794
 20
-2171.4881249220834
 30
0.0
 41
1.0
 10
-1910.5783063494273
 20
-2171.5641610828916
 30
0.0
 41
0.9988147669829083
 10
-1910.517884095198
 20
-2171.64646208974
 30
0.0
 41
1.0
 10
-1910.5167647691246
 20
-2171.6479867210865
 30
0.0
 41
1.0
 10
-1910.515645443051
 20
-2171.6495113524334
 30
0.0
 41
1.0
 10
-1910.4529845366683
 20
-2171.7348616219847
 30
0.0
 41
0.9989452636216927
 10
-1910.3984176237043
 20
-2171.8256003111464
 30
0.0
 41
1.0
 10
-1910.397068897621
 20
-2171.8278430921687
 30
0.0
 41
1.0
 10
-1910.3957201715377
 20
-2171.8300858731909
 30
0.0
 41
1.0
 10
-1910.3384558064045
 20
-2171.9253101244021
 30
0.0
 41
0.9991046436069651
 10
-1910.2894465930824
 20
-2172.0250345574286
 30
0.0
 41
1.0
 10
-1910.2879827314928
 20
-2172.0280132375001
 30
0.0
 41
1.0
 10
-1910.2865188699034
 20
-2172.0309919175716
 30
0.0
 41
1.0
 10
-1910.2345819333996
 20
-2172.1366737107473
 30
0.0
 41
0.9992763831101901
 10
-1910.1908288048446
 20
-2172.245997772703
 30
0.0
 41
1.0
 10
-1910.1893495351824
 20
-2172.2496939602343
 30
0.0
 41
1.0
 10
-1910.1878702655199
 20
-2172.2533901477655
 30
0.0
 41
1.0
 10
-1910.1411585976382
 20
-2172.3701065847886
 30
0.0
 41
0.9994163472883374
 10
-1910.1025255664465
 20
-2172.4897401732587
 30
0.0
 41
1.0
 10
-1910.1012874142016
 20
-2172.4935743170354
 30
0.0
 41
1.0
 10
-1910.1000492619569
 20
-2172.4974084608125
 30
0.0
 41
1.0
 10
-1910.0601657009397
 20
-2172.6209145222892
 30
0.0
 41
0.9997268055890254
 10
-1910.0260976450256
 20
-2172.7461495542475
 30
0.0
 41
1.0
 10
-1910.0251674647552
 20
-2172.7495689203588
 30
0.0
 41
1.0
 10
-1910.024237284485
 20
-2172.7529882864701
 30
0.0
 41
1.0
 10
-1909.9920295891134
 20
-2172.8713845862003
 30
0.0
 41
0.9996701319000936
 10
-1909.9659439723432
 20
-2172.9912785394617
 30
0.0
 41
1.0
 10
-1909.9398583555719
 20
-2173.1111724927287
 30
0.0
 41
0.9995785451108784
 10
-1909.9207747782305
 20
-2173.2323782537715
 30
0.0
 41
1.0
 10
-1909.9165549960576
 20
-2173.2591794085311
 30
0.0
 41
1.0
 10
-1909.9123352138849
 20
-2173.2859805632907
 30
0.0
 41
1.0
 10
-1909.8857602379471
 20
-2173.4547665369919
 30
0.0
 41
0.9979925101217622
 10
-1909.8807346520207
 20
-2173.6255578650812
 30
0.0
 41
1.0
 10
-1909.8799098395962
 20
-2173.6535885885633
 30
0.0
 41
1.0
 10
-1909.8790850271714
 20
-2173.6816193120449
 30
0.0
 41
1.0
 10
-1909.875709066094
 20
-2173.7963491931696
 30
0.0
 41
0.9995314902262499
 10
-1909.8793592582329
 20
-2173.9110706769252
 30
0.0
 41
1.0
 10
-1909.8830094503708
 20
-2174.0257921606722
 30
0.0
 41
0.999624548694384
 10
-1909.8929385455006
 20
-2174.1401414317838
 30
0.0
 41
1.0
 10
-1909.8931015934954
 20
-2174.1420191879279
 30
0.0
 41
1.0
 10
-1909.8932646414905
 20
-2174.1438969440715
 30
0.0
 41
1.0
 10
-1909.9035198326098
 20
-2174.2620017274639
 30
0.0
 41
0.9997286095001564
 10
-1909.9192651561807
 20
-2174.3795006363557
 30
0.0
 41
1.0
 10
-1909.9196586488315
 20
-2174.38243706106
 30
0.0
 41
1.0
 10
-1909.9200521414821
 20
-2174.3853734857639
 30
0.0
 41
1.0
 10
-1909.9365844503554
 20
-2174.5087452440698
 30
0.0
 41
0.9998265533969006
 10
-1909.9576999090873
 20
-2174.6314157188535
 30
0.0
 41
1.0
 10
-1909.9583764512242
 20
-2174.6353460973596
 30
0.0
 41
1.0
 10
-1909.9590529933612
 20
-2174.6392764758657
 30
0.0
 41
1.0
 10
-1909.9815215363678
 20
-2174.7698077076693
 30
0.0
 41
0.9999022530852056
 10
-1910.0076310009777
 20
-2174.8996596763059
 30
0.0
 41
1.0
 10
-1910.0086096421433
 20
-2174.9045268186942
 30
0.0
 41
1.0
 10
-1910.0095882833089
 20
-2174.9093939610825
 30
0.0
 41
1.0
 10
-1910.0376550302474
 20
-2175.0489802144866
 30
0.0
 41
0.999952476193455
 10
-1910.0684379990798
 20
-2175.1879927076411
 30
0.0
 41
1.0
 10
-1910.0697141062574
 20
-2175.193755466953
 30
0.0
 41
1.0
 10
-1910.0709902134352
 20
-2175.1995182262654
 30
0.0
 41
1.0
 10
-1910.1043253966209
 20
-2175.350056238035
 30
0.0
 41
0.9999813588731253
 10
-1910.1394963974253
 20
-2175.5001759507277
 30
0.0
 41
1.0
 10
-1910.1410503228776
 20
-2175.5068085411312
 30
0.0
 41
1.0
 10
-1910.1426042483297
 20
-2175.5134411315348
 30
0.0
 41
1.0
 10
-1910.1808831000385
 20
-2175.6768260250356
 30
0.0
 41
0.9999955237704238
 10
-1910.2201389780034
 20
-2175.8399789285763
 30
0.0
 41
1.0
 10
-1910.2324206136457
 20
-2175.8910231191321
 30
0.0
 41
1.0
 10
-1910.2447022492879
 20
-2175.9420673096884
 30
0.0
 41
1.0
 10
-1910.3085213985371
 20
-2176.2073085943402
 30
0.0
 41
0.9999993604284732
 10
-1910.3729403457055
 20
-2176.4724048450271
 30
0.0
 41
1.0
 10
-1910.3776591812523
 20
-2176.4918237530665
 30
0.0
 41
1.0
 10
-1910.3823780167991
 20
-2176.5112426611054
 30
0.0
 41
1.0
 10
-1910.4562346350644
 20
-2176.8151767278841
 30
0.0
 41
0.9999659914736556
 10
-1910.5350942309551
 20
-2177.1178512744623
 30
0.0
 41
1.0
 10
-1910.5400469198808
 20
-2177.1368604116251
 30
0.0
 41
1.0
 10
-1910.5449996088064
 20
-2177.1558695487884
 30
0.0
 41
1.0
 10
-1910.6337645825522
 20
-2177.4965623697094
 30
0.0
 41
0.9999441976021856
 10
-1910.7297076155169
 20
-2177.8353037950124
 30
0.0
 41
1.0
 10
-1910.7464081339415
 20
-2177.8942675075368
 30
0.0
 41
1.0
 10
-1910.7631086523661
 20
-2177.9532312200618
 30
0.0
 41
1.0
 10
-1910.892452722182
 20
-2178.40990007042
 30
0.0
 41
0.9999625120735465
 10
-1911.0296854895064
 20
-2178.8642606044195
 30
0.0
 41
1.0
 10
-1911.0654754325883
 20
-2178.9827566310441
 30
0.0
 41
1.0
 10
-1911.1012653756704
 20
-2179.1012526576683
 30
0.0
 41
1.0
 10
-1911.1757855797059
 20
-2179.3479797357513
 30
0.0
 41
0.9999793386324445
 10
-1911.2534716028485
 20
-2179.5937283750045
 30
0.0
 41
1.0
 10
-1911.3311576259862
 20
-2179.8394770142409
 30
0.0
 41
1.0
 10
-1911.341937184857
 20
-2179.8734949186155
 30
0.0
 41
1.0
 10
-1913.1923102381261
 20
-2185.7605668410829
 30
0.0
 41
1.0
 10
-1915.0426832913954
 20
-2191.6476387635503
 30
0.0
 41
1.0
 10
-1916.0039399814189
 20
-2191.6476387635503
 30
0.0
 41
1.0
 10
-1916.9651966714423
 20
-2191.6476387635503
 30
0.0
 41
1.0
 10
-1915.346251892764
 20
-2186.4996102617611
 30
0.0
 41
1.0
 10
-1913.7273071140855
 20
-2181.3515817599719
 30
0.0
 41
1.0
 10
-1913.682141290906
 20
-2181.2075505376852
 30
0.0
 41
1.0
 10
-1913.6369754677264
 20
-2181.0635193153985
 30
0.0
 41
1.0
 10
-1913.4666710503757
 20
-2180.5204282862733
 30
0.0
 41
0.9999911657912868
 10
-1913.300938238694
 20
-2179.9759247549055
 30
0.0
 41
1.0
 10
-1913.2712422951877
 20
-2179.8783608148351
 30
0.0
 41
1.0
 10
-1913.2415463516811
 20
-2179.7807968747652
 30
0.0
 41
1.0
 10
-1913.1352054270078
 20
-2179.4314212235231
 30
0.0
 41
0.9999952428157296
 10
-1913.0310218376887
 20
-2179.0813961991926
 30
0.0
 41
1.0
 10
-1913.0259623673578
 20
-2179.0643979249226
 30
0.0
 41
1.0
 10
-1913.0209028970269
 20
-2179.0473996506526
 30
0.0
 41
1.0
 10
-1912.926838248356
 20
-2178.7313711748179
 30
0.0
 41
0.9999931687512829
 10
-1912.8351124104902
 20
-2178.4146559615724
 30
0.0
 41
1.0
 10
-1912.8301771460301
 20
-2178.3976152523001
 30
0.0
 41
1.0
 10
-1912.8252418815703
 20
-2178.3805745430273
 30
0.0
 41
1.0
 10
-1912.7433865726155
 20
-2178.0979407482982
 30
0.0
 41
0.9999893840799158
 10
-1912.6641393461598
 20
-2177.8145646190551
 30
0.0
 41
1.0
 10
-1912.5848921197071
 20
-2177.5311884898229
 30
0.0
 41
0.9999833980076294
 10
-1912.5089158789708
 20
-2177.2469179068166
 30
0.0
 41
1.0
 10
-1912.4999119422428
 20
-2177.2132290283171
 30
0.0
 41
1.0
 10
-1912.4909080055149
 20
-2177.1795401498175
 30
0.0
 41
1.0
 10
-1912.4219434566487
 20
-2176.9215043175222
 30
0.0
 41
0.9999233658066448
 10
-1912.3593884854295
 20
-2176.6618401588021
 30
0.0
 41
1.0
 10
-1912.2968335142091
 20
-2176.4021760000796
 30
0.0
 41
1.0
 10
-1912.2573500953515
 20
-2176.2383693356537
 30
0.0
 41
1.0
 10
-1912.2523714913746
 20
-2176.2177143737854
 30
0.0
 41
1.0
 10
-1912.2473928873978
 20
-2176.1970594119171
 30
0.0
 41
1.0
 10
-1912.2178666764937
 20
-2176.0745626712269
 30
0.0
 41
0.9999868670843189
 10
-1912.1895975924976
 20
-2175.9517697255824
 30
0.0
 41
1.0
 10
-1912.1857001053356
 20
-2175.9348401381462
 30
0.0
 41
1.0
 10
-1912.1818026181736
 20
-2175.9179105507101
 30
0.0
 41
1.0
 10
-1912.1613285084977
 20
-2175.828976779921
 30
0.0
 41
0.9999778173345749
 10
-1912.1420409103862
 20
-2175.7397781627064
 30
0.0
 41
1.0
 10
-1912.1227533122728
 20
-2175.6505795454859
 30
0.0
 41
0.9999602692867181
 10
-1912.1050589536383
 20
-2175.5610512570406
 30
0.0
 41
1.0
 10
-1912.1018551215616
 20
-2175.5448408021593
 30
0.0
 41
1.0
 10
-1912.0986512894847
 20
-2175.5286303472781
 30
0.0
 41
1.0
 10
-1912.0745492666995
 20
-2175.4066811490829
 30
0.0
 41
0.9995617985321205
 10
-1912.0577059194818
 20
-2175.2835194013874
 30
0.0
 41
1.0
 10
-1912.0552414295748
 20
-2175.2654985840154
 30
0.0
 41
1.0
 10
-1912.0527769396676
 20
-2175.247477766643
 30
0.0
 41
1.0
 10
-1912.0324936786192
 20
-2175.0991627169424
 30
0.0
 41
0.9991121410639388
 10
-1912.0247683250309
 20
-2174.9496666181358
 30
0.0
 41
1.0
 10
-1912.0238495350063
 20
-2174.9318867815609
 30
0.0
 41
1.0
 10
-1912.022930744982
 20
-2174.9141069449865
 30
0.0
 41
1.0
 10
-1912.0170429714424
 20
-2174.800170519331
 30
0.0
 41
0.998979249490466
 10
-1912.02146206356
 20
-2174.686167683431
 30
0.0
 41
1.0
 10
-1912.0221100354288
 20
-2174.6694514375013
 30
0.0
 41
1.0
 10
-1912.0227580072974
 20
-2174.6527351915715
 30
0.0
 41
1.0
 10
-1912.0258811556776
 20
-2174.5721648475296
 30
0.0
 41
0.9997820295394717
 10
-1912.032365153053
 20
-2174.4917951257885
 30
0.0
 41
1.0
 10
-1912.0388491504275
 20
-2174.4114254040583
 30
0.0
 41
0.9998335105973719
 10
-1912.0482613459387
 20
-2174.3313457876097
 30
0.0
 41
1.0
 10
-1912.0498562706159
 20
-2174.3177760571189
 30
0.0
 41
1.0
 10
-1912.0514511952931
 20
-2174.3042063266284
 30
0.0
 41
1.0
 10
-1912.0640532401576
 20
-2174.19698724921
 30
0.0
 41
0.9996876457878354
 10
-1912.0819971529565
 20
-2174.0905318214918
 30
0.0
 41
1.0
 10
-1912.0842288161018
 20
-2174.0772920862505
 30
0.0
 41
1.0
 10
-1912.0864604792471
 20
-2174.0640523510092
 30
0.0
 41
1.0
 10
-1912.1002563006673
 20
-2173.9822062070525
 30
0.0
 41
0.9995547496492935
 10
-1912.1189096225601
 20
-2173.9013287098633
 30
0.0
 41
1.0
 10
-1912.1192835794316
 20
-2173.8997072991569
 30
0.0
 41
1.0
 10
-1912.1196575363031
 20
-2173.8980858884506
 30
0.0
 41
1.0
 10
-1912.1375629444533
 20
-2173.8204512126708
 30
0.0
 41
0.9994899427177194
 10
-1912.1603878531321
 20
-2173.7441179298376
 30
0.0
 41
1.0
 10
-1912.160846379873
 20
-2173.7425844800482
 30
0.0
 41
1.0
 10
-1912.1613049066139
 20
-2173.7410510302593
 30
0.0
 41
1.0
 10
-1912.1832127618125
 20
-2173.6677846470002
 30
0.0
 41
0.9993784877590872
 10
-1912.210228396918
 20
-2173.5962439418445
 30
0.0
 41
1.0
 10
-1912.2107600878962
 20
-2173.5948359591202
 30
0.0
 41
1.0
 10
-1912.2112917788745
 20
-2173.5934279763965
 30
0.0
 41
1.0
 10
-1912.237244032026
 20
-2173.5247032366815
 30
0.0
 41
0.9992430832253151
 10
-1912.2684605671839
 20
-2173.4582040846171
 30
0.0
 41
1.0
 10
-1912.2690426832405
 20
-2173.4569640294994
 30
0.0
 41
1.0
 10
-1912.2696247992972
 20
-2173.4557239743822
 30
0.0
 41
1.0
 10
-1912.2996771023431
 20
-2173.3917049325487
 30
0.0
 41
0.999078963279773
 10
-1912.33510772912
 20
-2173.3304983207991
 30
0.0
 41
1.0
 10
-1912.3357034353025
 20
-2173.3294692349391
 30
0.0
 41
1.0
 10
-1912.3362991414851
 20
-2173.3284401490787
 30
0.0
 41
1.0
 10
-1912.3705383558977
 20
-2173.2692917090476
 30
0.0
 41
0.9988874801120892
 10
-1912.4101976319289
 20
-2173.2136319966312
 30
0.0
 41
1.0
 10
-1912.4107531579903
 20
-2173.2128523449605
 30
0.0
 41
1.0
 10
-1912.4113086840516
 20
-2173.2120726932899
 30
0.0
 41
1.0
 10
-1912.4498569079578
 20
-2173.1579722842171
 30
0.0
 41
0.9986762060692717
 10
-1912.493759379237
 20
-2173.1081185697744
 30
0.0
 41
1.0
 10
-1912.4942033395673
 20
-2173.1076144279596
 30
0.0
 41
1.0
 10
-1912.4946472998977
 20
-2173.1071102861451
 30
0.0
 41
1.0
 10
-1912.5376618505113
 20
-2173.0582648553373
 30
0.0
 41
0.9984621642489931
 10
-1912.5858194072907
 20
-2173.0144815548642
 30
0.0
 41
1.0
 10
-1912.5860660418089
 20
-2173.0142573226995
 30
0.0
 41
1.0
 10
-1912.5863126763268
 20
-2173.0140330905347
 30
0.0
 41
1.0
 10
-1912.6339769640692
 20
-2172.9706982543926
 30
0.0
 41
0.998272469385083
 10
-1912.6863955959102
 20
-2172.9332539038755
 30
0.0
 41
1.0
 10
-1912.7388142277507
 20
-2172.8958095533585
 30
0.0
 41
0.99813991801605
 10
-1912.7954002911445
 20
-2172.8650230339144
 30
0.0
 41
1.0
 10
-1912.795445953223
 20
-2172.8649981907574
 30
0.0
 41
1.0
 10
-1912.7954916153017
 20
-2172.8649733476
 30
0.0
 41
1.0
 10
-1912.8521690028542
 20
-2172.8341371418405
 30
0.0
 41
0.998092708683444
 10
-1912.9122143539234
 20
-2172.8105203329874
 30
0.0
 41
1.0
 10
-1912.9126545236327
 20
-2172.8103472071134
 30
0.0
 41
1.0
 10
-1912.9130946933419
 20
-2172.8101740812394
 30
0.0
 41
1.0
 10
-1912.974020383833
 20
-2172.7862110206365
 30
0.0
 41
0.9981411356560208
 10
-1913.0374089052336
 20
-2172.7698383791308
 30
0.0
 41
1.0
 10
-1913.0382910219337
 20
-2172.7696105369259
 30
0.0
 41
1.0
 10
-1913.0391731386339
 20
-2172.7693826947207
 30
0.0
 41
1.0
 10
-1913.1043258934369
 20
-2172.7525543688043
 30
0.0
 41
0.9983031812936145
 10
-1913.1709933224331
 20
-2172.7434150076278
 30
0.0
 41
1.0
 10
-1913.1798643478362
 20
-2172.7421988889564
 30
0.0
 41
1.0
 10
-1913.1887353732393
 20
-2172.7409827702854
 30
0.0
 41
1.0
 10
-1913.2430850157434
 20
-2172.7335320402944
 30
0.0
 41
0.9983887708264458
 10
-1913.2979288650358
 20
-2172.7322873666608
 30
0.0
 41
1.0
 10
-1913.3059922702505
 20
-2172.7321043687862
 30
0.0
 41
1.0
 10
-1913.3140556754654
 20
-2172.7319213709111
 30
0.0
 41
1.0
 10
-1913.352772714326
 20
-2172.7310426930276
 30
0.0
 41
0.9998869563079799
 10
-1913.3914986675313
 20
-2172.7313285623873
 30
0.0
 41
1.0
 10
-1913.4302246206616
 20
-2172.7316144317465
 30
0.0
 41
0.9999972320126419
 10
-1913.4689487997991
 20
-2172.7320825312745
 30
0.0
 41
1.0
 10
-1913.4883018164519
 20
-2172.7323164713648
 30
0.0
 41
1.0
 10
-1913.5076548331047
 20
-2172.7325504114551
 30
0.0
 41
1.0
 10
-1913.5850850454749
 20
-2172.7334863911628
 30
0.0
 41
0.9997304945086325
 10
-1913.6623883517125
 20
-2172.7380154849488
 30
0.0
 41
1.0
 10
-1913.6714379934169
 20
-2172.7385456909387
 30
0.0
 41
1.0
 10
-1913.6804876351216
 20
-2172.7390758969286
 30
0.0
 41
1.0
 10
-1913.7758902247754
 20
-2172.7446654026949
 30
0.0
 41
0.9997888306414913
 10
-1913.870982560624
 20
-2172.754170367185
 30
0.0
 41
1.0
 10
-1913.8797036221899
 20
-2172.7550420818161
 30
0.0
 41
1.0
 10
-1913.8884246837556
 20
-2172.7559137964477
 30
0.0
 41
1.0
 10
-1914.0009591427445
 20
-2172.7671621902009
 30
0.0
 41
0.9984170238190574
 10
-1914.1115182900962
 20
-2172.7909782721367
 30
0.0
 41
1.0
 10
-1914.1478994210809
 20
-2172.7988153079423
 30
0.0
 41
1.0
 10
-1914.1842805520655
 20
-2172.8066523437483
 30
0.0
 41
1.0
 10
-1914.2994716204878
 20
-2172.831466210258
 30
0.0
 41
0.9976592854199348
 10
-1914.4101997868945
 20
-2172.8717648874058
 30
0.0
 41
1.0
 10
-1914.520927953299
 20
-2172.9120635645531
 30
0.0
 41
0.9993255074353061
 10
-1914.6283997520889
 20
-2172.9603804630447
 30
0.0
 41
1.0
 10
-1914.6330249310129
 20
-2172.9624598392447
 30
0.0
 41
1.0
 10
-1914.6376501099369
 20
-2172.9645392154448
 30
0.0
 41
1.0
 10
-1914.7543722665753
 20
-2173.0170148663369
 30
0.0
 41
0.9976475078273391
 10
-1914.8628196108853
 20
-2173.0849628559959
 30
0.0
 41
1.0
 10
-1914.8811620050208
 20
-2173.0964553348108
 30
0.0
 41
1.0
 10
-1914.8995043991563
 20
-2173.1079478136257
 30
0.0
 41
1.0
 10
-1914.9837065907066
 20
-2173.1607049343925
 30
0.0
 41
0.999513133640608
 10
-1915.0644543056637
 20
-2173.2186111463461
 30
0.0
 41
1.0
 10
-1915.14520202062
 20
-2173.276517358298
 30
0.0
 41
0.9995810107606252
 10
-1915.2224636683472
 20
-2173.3389990407627
 30
0.0
 41
1.0
 10
-1915.2254336995588
 20
-2173.3414009122284
 30
0.0
 41
1.0
 10
-1915.2284037307702
 20
-2173.3438027836942
 30
0.0
 41
1.0
 10
-1915.3116054409179
 20
-2173.4110882090881
 30
0.0
 41
0.9996617837954842
 10
-1915.3911961280569
 20
-2173.4826086646513
 30
0.0
 41
1.0
 10
-1915.4033268789326
 20
-2173.493509397641
 30
0.0
 41
1.0
 10
-1915.4154576298083
 20
-2173.5044101306303
 30
0.0
 41
1.0
 10
-1915.4837331572062
 20
-2173.5657627461037
 30
0.0
 41
0.9997267750052185
 10
-1915.5490666654896
 20
-2173.6302392826287
 30
0.0
 41
1.0
 10
-1915.6144001737691
 20
-2173.6947158191497
 30
0.0
 41
0.9999667288960357
 10
-1915.6786731169118
 20
-2173.7602496260401
 30
0.0
 41
1.0
 10
-1915.7475005646911
 20
-2173.8304272848027
 30
0.0
 41
1.0
 10
-1915.8163280124702
 20
-2173.9006049435652
 30
0.0
 41
1.0
 10
-1916.0182558511667
 20
-2174.1064940679762
 30
0.0
 41
0.9988205335175525
 10
-1916.1992614681465
 20
-2174.3309983000368
 30
0.0
 41
1.0
 10
-1916.2299014330511
 20
-2174.3690015504667
 30
0.0
 41
1.0
 10
-1916.2605413979559
 20
-2174.4070048008966
 30
0.0
 41
1.0
 10
-1916.5028269447464
 20
-2174.7075155338189
 30
0.0
 41
0.9997077826754814
 10
-1916.7303048958524
 20
-2175.0193853280366
 30
0.0
 41
1.0
 10
-1916.7320283109816
 20
-2175.0217481114146
 30
0.0
 41
1.0
 10
-1916.733751726111
 20
-2175.0241108947926
 30
0.0
 41
1.0
 10
-1916.9646765074754
 20
-2175.3407062557658
 30
0.0
 41
0.9989147567079344
 10
-1917.1651400103601
 20
-2175.6774157169516
 30
0.0
 41
1.0
 10
-1917.1898811556662
 20
-2175.7189722975027
 30
0.0
 41
1.0
 10
-1917.2146223009725
 20
-2175.7605288780537
 30
0.0
 41
1.0
 10
-1917.3698335996112
 20
-2176.0212302625087
 30
0.0
 41
0.9997476598181725
 10
-1917.5131785871215
 20
-2176.2886400110924
 30
0.0
 41
1.0
 10
-1917.65652357463
 20
-2176.5560497596725
 30
0.0
 41
0.9996258967110253
 10
-1917.7850318265641
 20
-2176.8308976963017
 30
0.0
 41
1.0
 10
-1917.7982317360133
 20
-2176.8591290963964
 30
0.0
 41
1.0
 10
-1917.8114316454626
 20
-2176.8873604964911
 30
0.0
 41
1.0
 10
-1917.951640366462
 20
-2177.1872328944437
 30
0.0
 41
0.9998735413946228
 10
-1918.0822417131826
 20
-2177.4914124939114
 30
0.0
 41
1.0
 10
-1918.0856845412454
 20
-2177.4994310793818
 30
0.0
 41
1.0
 10
-1918.0891273693082
 20
-2177.5074496648517
 30
0.0
 41
1.0
 10
-1918.212843059905
 20
-2177.7955920933837
 30
0.0
 41
0.9999377418860684
 10
-1918.3300978620778
 20
-2178.0864235610543
 30
0.0
 41
1.0
 10
-1918.4473526642466
 20
-2178.3772550287144
 30
0.0
 41
0.9999508299507247
 10
-1918.5588166076243
 20
-2178.6703547055358
 30
0.0
 41
1.0
 10
-1918.5618973762898
 20
-2178.6784557315077
 30
0.0
 41
1.0
 10
-1918.5649781449551
 20
-2178.6865567574791
 30
0.0
 41
1.0
 10
-1918.68260362566
 20
-2178.9958584862343
 30
0.0
 41
0.9999609228433052
 10
-1918.7947422285365
 20
-2179.3071915022574
 30
0.0
 41
1.0
 10
-1918.7976982388836
 20
-2179.31539834266
 30
0.0
 41
1.0
 10
-1918.8006542492308
 20
-2179.3236051830627
 30
0.0
 41
1.0
 10
-1918.9187048727986
 20
-2179.651351879882
 30
0.0
 41
0.999967460740502
 10
-1919.0314523988623
 20
-2179.9809604998632
 30
0.0
 41
1.0
 10
-1919.082850789428
 20
-2180.1312196955641
 30
0.0
 41
1.0
 10
-1919.1342491799937
 20
-2180.2814788912651
 30
0.0
 41
1.0
 10
-1919.2502597867533
 20
-2180.6206268737742
 30
0.0
 41
0.9999287532308767
 10
-1919.3581411907257
 20
-2180.9624476127547
 30
0.0
 41
1.0
 10
-1919.40461844685
 20
-2181.1097101570786
 30
0.0
 41
1.0
 10
-1919.4510957029743
 20
-2181.256972701402
 30
0.0
 41
1.0
 10
-1919.4660225947428
 20
-2181.3042683518779
 30
0.0
 41
0.999999822466711
 10
-1919.480893103427
 20
-2181.3515817599719
 30
0.0
 41
1.0
 10
-1921.1015492402225
 20
-2186.4996102617611
 30
0.0
 41
1.0
 10
-1922.7222053770179
 20
-2191.6476387635503
 30
0.0
 41
1.0
 10
-1923.6275138209089
 20
-2191.6476387635503
 30
0.0
 41
1.0
 10
-1924.5328222647997
 20
-2191.6476387635503
 30
0.0
 41
1.0
 10
-1922.6807378534136
 20
-2185.7605668410829
 30
0.0
 41
1.0
 10
-1920.8286534420276
 20
-2179.8734949186155
 30
0.0
 41
1.0
 10
-1920.8185316837248
 20
-2179.841451705166
 30
0.0
 41
1.0
 10
-1920.7459240148751
 20
-2179.6111521633402
 30
0.0
 41
1.0
 10
-1920.6733163460317
 20
-2179.3808526215348
 30
0.0
 41
0.9999825681976992
 10
-1920.603433306826
 20
-2179.1497117264894
 30
0.0
 41
1.0
 10
-1920.5551422446549
 20
-2178.9899871429598
 30
0.0
 41
1.0
 10
-1920.5068511824838
 20
-2178.8302625594297
 30
0.0
 41
1.0
 10
-1920.4096988291719
 20
-2178.5089273376711
 30
0.0
 41
0.9999672528963693
 10
-1920.3177600235531
 20
-2178.1860617920993
 30
0.0
 41
1.0
 10
-1920.3149711398851
 20
-2178.1762679467156
 30
0.0
 41
1.0
 10
-1920.3121822562171
 20
-2178.1664741013319
 30
0.0
 41
1.0
 10
-1920.2258212179306
 20
-2177.8631962465156
 30
0.0
 41
0.9999899749146751
 10
-1920.1421796083951
 20
-2177.5591571580608
 30
0.0
 41
1.0
 10
-1920.1320736893758
 20
-2177.5224219203756
 30
0.0
 41
1.0
 10
-1920.1219677703564
 20
-2177.4856866826904
 30
0.0
 41
1.0
 10
-1920.0585379988593
 20
-2177.2551180696037
 30
0.0
 41
0.9999214200502614
 10
-1920.0009085704826
 20
-2177.023031727399
 30
0.0
 41
1.0
 10
-1919.9881427183022
 20
-2176.9716208420032
 30
0.0
 41
1.0
 10
-1919.9753768661217
 20
-2176.9202099566073
 30
0.0
 41
1.0
 10
-1919.9432791421054
 20
-2176.7909453851917
 30
0.0
 41
0.9999828681657916
 10
-1919.9126968901096
 20
-2176.6613139107221
 30
0.0
 41
1.0
 10
-1919.882114638116
 20
-2176.5316824362635
 30
0.0
 41
0.9999389844481049
 10
-1919.8544036493286
 20
-2176.401406980372
 30
0.0
 41
1.0
 10
-1919.8472659056065
 20
-2176.3678508765261
 30
0.0
 41
1.0
 10
-1919.8401281618844
 20
-2176.3342947726796
 30
0.0
 41
1.0
 10
-1919.7981416856519
 20
-2176.1369071090917
 30
0.0
 41
0.9998933699440233
 10
-1919.7619374212507
 20
-2175.9383775013353
 30
0.0
 41
1.0
 10
-1919.7605645960352
 20
-2175.9308494806437
 30
0.0
 41
1.0
 10
-1919.7591917708198
 20
-2175.9233214599526
 30
0.0
 41
1.0
 10
-1919.7202418559848
 20
-2175.7097358108012
 30
0.0
 41
0.9996850305192971
 10
-1919.6920581797276
 20
-2175.4944648053738
 30
0.0
 41
1.0
 10
-1919.6900631463575
 20
-2175.4792264512462
 30
0.0
 41
1.0
 10
-1919.6880681129874
 20
-2175.4639880971181
 30
0.0
 41
1.0
 10
-1919.6606602505283
 20
-2175.2546428699648
 30
0.0
 41
0.9994697936706687
 10
-1919.646935691309
 20
-2175.0439576746353
 30
0.0
 41
1.0
 10
-1919.6464586220595
 20
-2175.0366342024267
 30
0.0
 41
1.0
 10
-1919.6459815528099
 20
-2175.0293107302182
 30
0.0
 41
1.0
 10
-1919.6332111320899
 20
-2174.8332724793072
 30
0.0
 41
0.9991804893137605
 10
-1919.6363394483622
 20
-2174.636843629331
 30
0.0
 41
1.0
 10
-1919.6364233271843
 20
-2174.6315768279183
 30
0.0
 41
1.0
 10
-1919.6365072060064
 20
-2174.6263100265055
 30
0.0
 41
1.0
 10
-1919.6394677646347
 20
-2174.440414779358
 30
0.0
 41
0.9988448329320964
 10
-1919.6602593102587
 20
-2174.2556621895242
 30
0.0
 41
1.0
 10
-1919.661853383961
 20
-2174.2414973337577
 30
0.0
 41
1.0
 10
-1919.6634474576636
 20
-2174.2273324779912
 30
0.0
 41
1.0
 10
-1919.6810508558817
 20
-2174.0709095996972
 30
0.0
 41
0.9985503209460107
 10
-1919.7153671281819
 20
-2173.9172854156013
 30
0.0
 41
1.0
 10
-1919.7229531202534
 20
-2173.8833250882008
 30
0.0
 41
1.0
 10
-1919.7305391123245
 20
-2173.8493647608002
 30
0.0
 41
1.0
 10
-1919.7496834004817
 20
-2173.7636612315118
 30
0.0
 41
0.9991036781370211
 10
-1919.7760082621326
 20
-2173.6798841441873
 30
0.0
 41
1.0
 10
-1919.779990487589
 20
-2173.6672109816755
 30
0.0
 41
1.0
 10
-1919.7839727130454
 20
-2173.654537819164
 30
0.0
 41
1.0
 10
-1919.8023331237846
 20
-2173.596107056861
 30
0.0
 41
0.9998874504369314
 10
-1919.8224383314623
 20
-2173.5382534546388
 30
0.0
 41
1.0
 10
-1919.8425435391416
 20
-2173.4803998524139
 30
0.0
 41
0.9994041637544181
 10
-1919.8665921520744
 20
-2173.4240711485277
 30
0.0
 41
1.0
 10
-1919.8707889362986
 20
-2173.414241084045
 30
0.0
 41
1.0
 10
-1919.874985720523
 20
-2173.4044110195628
 30
0.0
 41
1.0
 10
-1919.9028645515177
 20
-2173.3391108535952
 30
0.0
 41
0.9991846840702596
 10
-1919.9359209082108
 20
-2173.2762728223147
 30
0.0
 41
1.0
 10
-1919.9370575146049
 20
-2173.2741122058615
 30
0.0
 41
1.0
 10
-1919.9381941209992
 20
-2173.2719515894082
 30
0.0
 41
1.0
 10
-1919.9689772649019
 20
-2173.2134347910373
 30
0.0
 41
0.9989253167922698
 10
-1920.0050466889588
 20
-2173.1580198626443
 30
0.0
 41
1.0
 10
-1920.006100813634
 20
-2173.1564003678805
 30
0.0
 41
1.0
 10
-1920.007154938309
 20
-2173.154780873117
 30
0.0
 41
1.0
 10
-1920.0411161130135
 20
-2173.102604934254
 30
0.0
 41
0.9986467172835567
 10
-1920.0803132656511
 20
-2173.0542389006241
 30
0.0
 41
1.0
 10
-1920.0811873943517
 20
-2173.053160298346
 30
0.0
 41
1.0
 10
-1920.0820615230523
 20
-2173.0520816960679
 30
0.0
 41
1.0
 10
-1920.1195104182875
 20
-2173.0058728669956
 30
0.0
 41
0.9984001104267869
 10
-1920.1619371488057
 20
-2172.9641877596259
 30
0.0
 41
1.0
 10
-1920.1625242869161
 20
-2172.9636108847435
 30
0.0
 41
1.0
 10
-1920.1631114250265
 20
-2172.9630340098615
 30
0.0
 41
1.0
 10
-1920.204363879323
 20
-2172.9225026522577
 30
0.0
 41
0.9982442159084135
 10
-1920.2501199806584
 20
-2172.8871340909973
 30
0.0
 41
1.0
 10
-1920.2503347761221
 20
-2172.8869680583525
 30
0.0
 41
1.0
 10
-1920.2505495715859
 20
-2172.8868020257078
 30
0.0
 41
1.0
 10
-1920.2958760819952
 20
-2172.851765529736
 30
0.0
 41
0.9982450060832819
 10
-1920.3450270610658
 20
-2172.8223337467034
 30
0.0
 41
1.0
 10
-1920.3941780401374
 20
-2172.7929019636695
 30
0.0
 41
0.9983922639632734
 10
-1920.4463443463026
 20
-2172.7692223290155
 30
0.0
 41
1.0
 10
-1920.446571223627
 20
-2172.7691193435339
 30
0.0
 41
1.0
 10
-1920.4467981009514
 20
-2172.7690163580528
 30
0.0
 41
1.0
 10
-1920.4994181617656
 20
-2172.7451307524361
 30
0.0
 41
0.9986517147151555
 10
-1920.5542311346348
 20
-2172.7268296333136
 30
0.0
 41
1.0
 10
-1920.5549090560619
 20
-2172.7266032868824
 30
0.0
 41
1.0
 10
-1920.5555869774889
 20
-2172.7263769404512
 30
0.0
 41
1.0
 10
-1920.6117557932123
 20
-2172.7076231284664
 30
0.0
 41
0.9989435598955239
 10
-1920.6694091803638
 20
-2172.694105426232
 30
0.0
 41
1.0
 10
-1920.6704892999455
 20
-2172.6938521759789
 30
0.0
 41
1.0
 10
-1920.6715694195273
 20
-2172.6935989257258
 30
0.0
 41
1.0
 10
-1920.7313830458368
 20
-2172.6795747229867
 30
0.0
 41
0.9992249241241707
 10
-1920.79211455473
 20
-2172.6702993802714
 30
0.0
 41
1.0
 10
-1920.7935282430258
 20
-2172.6700834718631
 30
0.0
 41
1.0
 10
-1920.7949419313213
 20
-2172.6698675634543
 30
0.0
 41
1.0
 10
-1920.8585008168025
 20
-2172.6601604039233
 30
0.0
 41
0.9994396597833761
 10
-1920.9225667533403
 20
-2172.654727481578
 30
0.0
 41
1.0
 10
-1920.9417074208168
 20
-2172.6531043138593
 30
0.0
 41
1.0
 10
-1920.9608480882935
 20
-2172.6514811461411
 30
0.0
 41
1.0
 10
-1921.0631953597854
 20
-2172.642801888358
 30
0.0
 41
0.9987693403121049
 10
-1921.1658989833718
 20
-2172.6443049518107
 30
0.0
 41
1.0
 10
-1921.1761533175977
 20
-2172.6444550235847
 30
0.0
 41
1.0
 10
-1921.1864076518234
 20
-2172.6446050953587
 30
0.0
 41
1.0
 10
-1921.295963418004
 20
-2172.6462084396462
 30
0.0
 41
0.9989753644967084
 10
-1921.4049254180229
 20
-2172.6577114465713
 30
0.0
 41
1.0
 10
-1921.5138874180404
 20
-2172.6692144534964
 30
0.0
 41
0.9983190067305442
 10
-1921.6207862290064
 20
-2172.6932494452835
 30
0.0
 41
1.0
 10
-1921.6296871806121
 20
-2172.6952507238461
 30
0.0
 41
1.0
 10
-1921.6385881322178
 20
-2172.6972520024087
 30
0.0
 41
1.0
 10
-1921.7632888463954
 20
-2172.7252895513207
 30
0.0
 41
0.9985539388304467
 10
-1921.8842586000731
 20
-2172.7665532273659
 30
0.0
 41
1.0
 10
-1921.886604031034
 20
-2172.7673532711819
 30
0.0
 41
1.0
 10
-1921.8889494619948
 20
-2172.768153314998
 30
0.0
 41
1.0
 10
-1922.0146100775939
 20
-2172.8110170786758
 30
0.0
 41
0.9988468746494014
 10
-1922.1355804198952
 20
-2172.8657351637385
 30
0.0
 41
1.0
 10
-1922.1387632418832
 20
-2172.8671748382981
 30
0.0
 41
1.0
 10
-1922.141946063871
 20
-2172.8686145128577
 30
0.0
 41
1.0
 10
-1922.2692820501479
 20
-2172.9262119470395
 30
0.0
 41
0.9991322885918023
 10
-1922.3913826342039
 20
-2172.9942072792214
 30
0.0
 41
1.0
 10
-1922.4089846452464
 20
-2173.0040094812102
 30
0.0
 41
1.0
 10
-1922.4265866562889
 20
-2173.013811683199
 30
0.0
 41
1.0
 10
-1922.5287633373493
 20
-2173.0707117989818
 30
0.0
 41
0.9993860037850348
 10
-1922.6267043414241
 20
-2173.1346278145706
 30
0.0
 41
1.0
 10
-1922.6323226542779
 20
-2173.1382943092667
 30
0.0
 41
1.0
 10
-1922.6379409671317
 20
-2173.1419608039623
 30
0.0
 41
1.0
 10
-1922.7246453454991
 20
-2173.1985438301604
 30
0.0
 41
0.9998821494953653
 10
-1922.80957172131
 20
-2173.257762060236
 30
0.0
 41
1.0
 10
-1922.8944980971232
 20
-2173.316980290313
 30
0.0
 41
0.9997976482743611
 10
-1922.9769737275274
 20
-2173.3795666983551
 30
0.0
 41
1.0
 10
-1922.9916099923319
 20
-2173.3906733881345
 30
0.0
 41
1.0
 10
-1923.0062462571364
 20
-2173.4017800779138
 30
0.0
 41
1.0
 10
-1923.1179944171504
 20
-2173.486579865516
 30
0.0
 41
0.9998091630800833
 10
-1923.2263446951779
 20
-2173.5756802162173
 30
0.0
 41
1.0
 10
-1923.2393504476549
 20
-2173.5863753166632
 30
0.0
 41
1.0
 10
-1923.2523562001322
 20
-2173.5970704171091
 30
0.0
 41
1.0
 10
-1923.3867179831161
 20
-2173.707560968704
 30
0.0
 41
0.9995035112317457
 10
-1923.513853860878
 20
-2173.8262947857174
 30
0.0
 41
1.0
 10
-1923.5235011712653
 20
-2173.8353045318754
 30
0.0
 41
1.0
 10
-1923.5331484816522
 20
-2173.8443142780329
 30
0.0
 41
1.0
 10
-1923.656571544416
 20
-2173.9595806497873
 30
0.0
 41
0.9994630424299339
 10
-1923.7721799502019
 20
-2174.0826833930241
 30
0.0
 41
1.0
 10
-1923.7758627889716
 20
-2174.0866049725355
 30
0.0
 41
1.0
 10
-1923.7795456277415
 20
-2174.0905265520469
 30
0.0
 41
1.0
 10
-1923.8877883559821
 20
-2174.2057861362555
 30
0.0
 41
0.999516069375025
 10
-1923.9886543855177
 20
-2174.327553554132
 30
0.0
 41
1.0
 10
-1923.9905881055977
 20
-2174.3298879783392
 30
0.0
 41
1.0
 10
-1923.9925218256776
 20
-2174.3322224025464
 30
0.0
 41
1.0
 10
-1924.0895204150493
 20
-2174.4493209720044
 30
0.0
 41
0.9996561470513811
 10
-1924.1802466337153
 20
-2174.5713437344539
 30
0.0
 41
1.0
 10
-1924.1864042996153
 20
-2174.5796255234936
 30
0.0
 41
1.0
 10
-1924.1925619655156
 20
-2174.5879073125334
 30
0.0
 41
1.0
 10
-1924.2709728523826
 20
-2174.6933664969047
 30
0.0
 41
0.9998349055171916
 10
-1924.3455001343136
 20
-2174.8016050805663
 30
0.0
 41
1.0
 10
-1924.4200274162463
 20
-2174.9098436642307
 30
0.0
 41
0.9999728109573135
 10
-1924.4929503121562
 20
-2175.0191695897852
 30
0.0
 41
1.0
 10
-1924.4942655275677
 20
-2175.0211413592879
 30
0.0
 41
1.0
 10
-1924.4955807429794
 20
-2175.0231131287901
 30
0.0
 41
1.0
 10
-1924.5711340697112
 20
-2175.1363825933468
 30
0.0
 41
0.9999972147402159
 10
-1924.6461518800818
 20
-2175.2500074361778
 30
0.0
 41
1.0
 10
-1924.6511234227069
 20
-2175.2575375246543
 30
0.0
 41
1.0
 10
-1924.6560949653319
 20
-2175.2650676131307
 30
0.0
 41
1.0
 10
-1924.7410558609529
 20
-2175.3937526329146
 30
0.0
 41
0.9999371979006088
 10
-1924.8231112103583
 20
-2175.5243095466935
 30
0.0
 41
1.0
 10
-1924.8266200947187
 20
-2175.5298924747563
 30
0.0
 41
1.0
 10
-1924.8301289790788
 20
-2175.535475402819
 30
0.0
 41
1.0
 10
-1924.9192020972102
 20
-2175.6771981727316
 30
0.0
 41
0.999827202561133
 10
-1925.0029454880898
 20
-2175.8221340494702
 30
0.0
 41
1.0
 10
-1925.0181606601136
 20
-2175.8484671639267
 30
0.0
 41
1.0
 10
-1925.0333758321376
 20
-2175.8748002783832
 30
0.0
 41
1.0
 10
-1925.1475495670686
 20
-2176.0724023840412
 30
0.0
 41
0.9995217214838392
 10
-1925.2492892566227
 20
-2176.2766847118996
 30
0.0
 41
1.0
 10
-1925.2569328192596
 20
-2176.2920321616066
 30
0.0
 41
1.0
 10
-1925.2645763818966
 20
-2176.3073796113135
 30
0.0
 41
1.0
 10
-1925.3514816744851
 20
-2176.481876069392
 30
0.0
 41
0.9998269762606862
 10
-1925.4318361407552
 20
-2176.6594843561124
 30
0.0
 41
1.0
 10
-1925.5121906070283
 20
-2176.8370926428379
 30
0.0
 41
0.9998944747386974
 10
-1925.5873514015937
 20
-2177.016960368469
 30
0.0
 41
1.0
 10
-1925.5923050711831
 20
-2177.0288150233819
 30
0.0
 41
1.0
 10
-1925.5972587407723
 20
-2177.0406696782948
 30
0.0
 41
1.0
 10
-1925.6779058013224
 20
-2177.2336666183064
 30
0.0
 41
0.9999506734411504
 10
-1925.754703330231
 20
-2177.4282274231755
 30
0.0
 41
1.0
 10
-1925.7693032954971
 20
-2177.4652153449692
 30
0.0
 41
1.0
 10
-1925.7839032607633
 20
-2177.502203266763
 30
0.0
 41
1.0
 10
-1925.831500859123
 20
-2177.6227882280018
 30
0.0
 41
0.9999912393956656
 10
-1925.8780873031569
 20
-2177.7437674307271
 30
0.0
 41
1.0
 10
-1925.9246737471635
 20
-2177.8647466333814
 30
0.0
 41
0.9999927113956789
 10
-1925.9703350415605
 20
-2177.9860780408899
 30
0.0
 41
1.0
 10
-1925.9843034729647
 20
-2178.0231950229063
 30
0.0
 41
1.0
 10
-1925.9982719043692
 20
-2178.0603120049227
 30
0.0
 41
1.0
 10
-1926.0718700615598
 20
-2178.2558773764249
 30
0.0
 41
0.9999487550952324
 10
-1926.1414936865317
 20
-2178.4528927416086
 30
0.0
 41
1.0
 10
-1926.1650872964726
 20
-2178.5196560519125
 30
0.0
 41
1.0
 10
-1926.1886809064135
 20
-2178.5864193622169
 30
0.0
 41
1.0
 10
-1926.2833665407788
 20
-2178.8543531970263
 30
0.0
 41
0.9999808436924305
 10
-1926.3747281294163
 20
-2179.1234386282799
 30
0.0
 41
1.0
 10
-1926.466089718057
 20
-2179.3925240595418
 30
0.0
 41
0.9999873932910097
 10
-1926.5547444267866
 20
-2179.6625134145906
 30
0.0
 41
1.0
 10
-1926.5748367836504
 20
-2179.7237027473275
 30
0.0
 41
1.0
 10
-1926.5949291405145
 20
-2179.7848920800639
 30
0.0
 41
1.0
 10
-1926.7237685629668
 20
-2180.1772601005687
 30
0.0
 41
0.9999794883037411
 10
-1926.8475713479322
 20
-2180.5712463068694
 30
0.0
 41
1.0
 10
-1926.8587236073677
 20
-2180.6067369171005
 30
0.0
 41
1.0
 10
-1926.8698758668033
 20
-2180.6422275273312
 30
0.0
 41
1.0
 10
-1927.0124340306779
 20
-2181.0959002793447
 30
0.0
 41
0.9999982761746965
 10
-1927.1533064707171
 20
-2181.5500993015439
 30
0.0
 41
1.0
 10
-1928.7414468032898
 20
-2186.5988690325471
 30
0.0
 41
1.0
 10
-1930.3295871358623
 20
-2191.6476387635503
 30
0.0
 41
1.0
 10
-1931.2783377473388
 20
-2191.6476387635503
 30
0.0
 41
1.0
 10
-1932.2270883588151
 20
-2191.6476387635503
 30
0.0
 41
1.0
 10
-1928.9888038726617
 20
-2181.3203165636041
 30
0.0
 41
1.0
 10
-1925.7505193865086
 20
-2170.992994363658
 30
0.0
 41
1.0
  0
LWPOLYLINE
  5
5C
100
AcDbEntity
  8
0
370
              15
390
0
  6
Continuous
 62
               7
100
AcDbPolyline
 90
      232
 70
             128
 10
-1951.4540651603356
 20
-2172.0773371951736
 42
0.0004370800693705
 10
-1951.5069423343409
 20
-2172.1460038343425
 10
-1951.5462265655351
 20
-2172.1971109473261
 42
0.0030481992172051
 10
-1951.6765652826568
 20
-2172.3688326396741
 10
-1951.7150769544048
 20
-2172.4202194234585
 42
0.0042058245754199
 10
-1951.9190620050904
 20
-2172.6972251685538
 10
-1951.9714671275754
 20
-2172.7696580153129
 42
0.0120948898743927
 10
-1952.2675110443349
 20
-2173.2004076198591
 10
-1952.3637035434624
 20
-2173.347888355092
 42
0.014160126394281
 10
-1952.6673475903808
 20
-2173.8435576918223
 10
-1952.7068848578031
 20
-2173.9124016592477
 42
0.0071131081303506
 10
-1952.9121571810451
 20
-2174.281904458092
 42
0.0068458791001065
 10
-1953.1070367078869
 20
-2174.6569960215656
 10
-1953.1138485703459
 20
-2174.6705577352918
 42
0.0064120880292091
 10
-1953.3119908203948
 20
-2175.0779822102204
 10
-1953.3195255059072
 20
-2175.0939940669318
 42
0.0058857236451443
 10
-1953.5222808977785
 20
-2175.538370177966
 10
-1953.5304558240728
 20
-2175.556860331601
 42
0.0053189741893469
 10
-1953.7391601367462
 20
-2176.0428238055333
 10
-1953.7479079424218
 20
-2176.0638056837151
 42
0.0047503650419719
 10
-1953.9638816685656
 20
-2176.5960051169072
 10
-1953.9731499169206
 20
-2176.6194814930327
 42
0.0042071762168817
 10
-1954.1976973006454
 20
-2177.2025750870944
 10
-1954.207446702997
 20
-2177.2285412619722
 42
0.003668008648231
 10
-1954.4419013463109
 20
-2177.8671766465077
 10
-1954.452109126157
 20
-2177.8956251808477
 42
0.003257314263309
 10
-1954.6977414121252
 20
-2178.5944778406056
 10
-1954.7663919329609
 20
-2178.7939409246446
 42
0.0026133366649775
 10
-1955.1148371317222
 20
-2179.8238042083258
 10
-1955.1780939192174
 20
-2180.0140350437018
 42
0.0020592950745697
 10
-1955.39195698819
 20
-2180.6661386963324
 10
-1955.3950087793587
 20
-2180.6755751847595
 42
0.0025609928535093
 10
-1955.5968292808388
 20
-2181.3107204071075
 10
-1955.5994206479666
 20
-2181.3190227480513
 42
0.0031362356238703
 10
-1955.7889114336426
 20
-2181.9397856042278
 10
-1955.7910424765689
 20
-2181.9469269104352
 42
0.0037229918028538
 10
-1955.9678428634963
 20
-2182.5559122124132
 10
-1955.9695214527028
 20
-2182.5618591025877
 42
0.0043077623711374
 10
-1956.1332622547679
 20
-2183.1616778343564
 42
0.004765416182037
 10
-1956.2860909772783
 20
-2183.764363923236
 10
-1956.320555586123
 20
-2183.9059257004087
 42
0.011296936844546
 10
-1956.5164199442675
 20
-2184.7976178610375
 10
-1956.5444263333632
 20
-2184.9404459071307
 42
0.0130056762568573
 10
-1956.7452635770096
 20
-2186.1273869787756
 10
-1956.765803327155
 20
-2186.2714650922394
 42
0.0138721532141141
 10
-1956.8695063316948
 20
-2187.1782945780783
 10
-1956.8888018196042
 20
-2187.401792300021
 42
0.0071254697012206
 10
-1956.9221484655254
 20
-2187.8649793088507
 10
-1956.92710943969
 20
-2187.9509833034363
 42
0.0028881799204447
 10
-1956.9422477329786
 20
-2188.2427250132532
 42
0.0060297297135468
 10
-1956.9521799327538
 20
-2188.5346739493662
 10
-1956.9532422144209
 20
-2188.5830663213001
 42
0.0229523164148317
 10
-1956.9455111866353
 20
-2188.9058211675847
 10
-1956.9412854131137
 20
-2188.9662247016163
 42
0.0123673300684421
 10
-1956.9222067665964
 20
-2189.1673454267757
 42
0.0128577674461357
 10
-1956.8930113761917
 20
-2189.3672432766944
 10
-1956.8858855028034
 20
-2189.4085720912999
 42
0.0285717853769852
 10
-1956.8213915011054
 20
-2189.6866882426202
 10
-1956.8077229774417
 20
-2189.733343012088
 42
0.0316283099153576
 10
-1956.6919123975269
 20
-2190.0523575139159
 10
-1956.6888637057709
 20
-2190.0593438862425
 42
0.033898482423662
 10
-1956.5394319948043
 20
-2190.3469098504306
 10
-1956.5371232654343
 20
-2190.3507008797064
 42
0.0350228718356049
 10
-1956.3547629747609
 20
-2190.6077528643837
 10
-1956.3538777229833
 20
-2190.608831942151
 42
0.0347476747530352
 10
-1956.1394530357456
 20
-2190.8360169893676
 42
0.0331337701901071
 10
-1955.89620971
 20
-2191.0321456514444
 10
-1955.8951096114831
 20
-2191.0329183546173
 42
0.0305233319089651
 10
-1955.6265649159072
 20
-2191.1980465247102
 10
-1955.6233348714086
 20
-2191.1997705365716
 42
0.0273744481154286
 10
-1955.3307811598393
 20
-2191.3359086804599
 10
-1955.3256766246968
 20
-2191.3379522649316
 42
0.0240964406199079
 10
-1955.0101995490488
 20
-2191.4469359912132
 10
-1955.0036162198412
 20
-2191.4488607308876
 42
0.0209636179821062
 10
-1954.6662160671858
 20
-2191.5323288788204
 10
-1954.6585836067397
 20
-2191.5338807918215
 42
0.0181388704691016
 10
-1954.3002612147432
 20
-2191.5932968850352
 10
-1954.2919803663631
 20
-2191.5943630688525
 42
0.0156086547583661
 10
-1953.9137930021784
 20
-2191.631099255429
 10
-1953.8705977498475
 20
-2191.6339377579084
 42
0.0137148329017623
 10
-1953.5429246045483
 20
-2191.6464580131596
 10
-1953.4969884145798
 20
-2191.646952446275
 42
0.0051057823894385
 10
-1953.26084282803
 20
-2191.6470827006842
 42
0.0052256693307502
 10
-1953.0247455442582
 20
-2191.6423338762197
 10
-1952.9545187605022
 20
-2191.6401869102056
 42
0.0161507179045661
 10
-1952.5787816824013
 20
-2191.6165365398792
 10
-1952.5587687220277
 20
-2191.6146263445917
 42
0.0101216737831848
 10
-1952.1447415005316
 20
-2191.5666334142252
 10
-1952.1106882111103
 20
-2191.5619857174161
 42
0.0245291776400494
 10
-1951.6338985555551
 20
-2191.4729106393393
 10
-1951.5490752400342
 20
-2191.4527147189938
 42
0.0143509212554463
 10
-1951.1924441360957
 20
-2191.3569100852155
 42
0.0156557857043632
 10
-1950.8422280713655
 20
-2191.2398988693953
 10
-1950.8347268568737
 20
-2191.2371287076421
 42
0.0170137333633135
 10
-1950.4781308611903
 20
-2191.09147109277
 10
-1950.4710269387847
 20
-2191.0882832572074
 42
0.0183105364405316
 10
-1950.1116772706198
 20
-2190.910948215384
 10
-1950.1047305059797
 20
-2190.9071977805111
 42
0.0194899958154281
 10
-1949.7462497649949
 20
-2190.6952187986199
 10
-1949.7392358856591
 20
-2190.6906934563253
 42
0.0204869852947293
 10
-1949.3852215835677
 20
-2190.4411734412415
 10
-1949.377955974978
 20
-2190.4355933758911
 42
0.0212516938552829
 10
-1949.031966043869
 20
-2190.1456893789959
 10
-1948.9854493497953
 20
-2190.103222068904
 42
0.0215248918258092
 10
-1948.7254231809068
 20
-2189.8444577899081
 10
-1948.6803934465206
 20
-2189.7956136685521
 42
0.0114578554964138
 10
-1948.5256012928489
 20
-2189.6197907351002
 10
-1948.5144067568647
 20
-2189.6064719715578
 42
0.0061531305119459
 10
-1948.387932110868
 20
-2189.4521824382491
 42
0.0006325587120629
 10
-1948.2635536266985
 20
-2189.2961790625509
 10
-1948.2405134916646
 20
-2189.2672055419139
 42
0.004189776155356
 10
-1948.0720580876823
 20
-2189.0516861658398
 10
-1948.0135959677996
 20
-2188.975584818867
 42
0.0092993880040835
 10
-1947.7369840405811
 20
-2188.6013060549903
 10
-1947.6545895473814
 20
-2188.4853690514205
 42
0.0159321727083087
 10
-1947.3079830647346
 20
-2187.9631948306587
 10
-1947.2636269293464
 20
-2187.8915152664099
 42
0.0085547317015436
 10
-1947.0291151640199
 20
-2187.4976403171841
 42
0.00846011568869
 10
-1946.8081389865758
 20
-2187.0960134681482
 10
-1946.8000235127474
 20
-2187.0806537858789
 42
0.0081429654282486
 10
-1946.5767742423066
 20
-2186.6409322733311
 10
-1946.5679140781258
 20
-2186.6227534313184
 42
0.0076574581332792
 10
-1946.3415065675545
 20
-2186.1395705560549
 10
-1946.3320269268356
 20
-2186.1185060777625
 42
0.0070682724200158
 10
-1946.1015820190237
 20
-2185.5864687729691
 10
-1946.0915917350471
 20
-2185.5624795839694
 42
0.0064559514448081
 10
-1945.8562585268596
 20
-2184.9761673174357
 10
-1945.8458491687004
 20
-2184.9492323920085
 42
0.0058311413906208
 10
-1945.6048024319412
 20
-2184.3032002976342
 10
-1945.5940473545502
 20
-2184.2733159564641
 42
0.0052312425818036
 10
-1945.3464660765092
 20
-2183.5621135426295
 10
-1945.3354222401294
 20
-2183.5292868305601
 42
0.0046680544796187
 10
-1945.0804938123938
 20
-2182.7474605148018
 10
-1945.038501662352
 20
-2182.6144772775156
 42
0.0041666856442192
 10
-1944.8352156499564
 20
-2181.9515085025077
 10
-1944.7975532092787
 20
-2181.8249273948077
 42
0.0015170975162443
 10
-1944.6763666308796
 20
-2181.4130590433601
 42
-0.0004887993112627
 10
-1944.5560268577572
 20
-2181.0009406313206
 10
-1944.4795496002614
 20
-2180.7399832453771
 42
0.0002583378926508
 10
-1944.2063350301187
 20
-2179.8059265419292
 10
-1944.1245621806504
 20
-2179.5258272827173
 42
0.0006636169672989
 10
-1943.9306944206091
 20
-2178.8584743590282
 10
-1943.9255977662724
 20
-2178.8408427761842
 42
0.0010589131324179
 10
-1943.7441490653455
 20
-2178.208111433099
 10
-1943.7391669948645
 20
-2178.1905985260773
 42
0.0015655524462281
 10
-1943.5708967876822
 20
-2177.5919818468783
 10
-1943.5660665872849
 20
-2177.5745896880062
 42
0.0021640440475394
 10
-1943.4117766152813
 20
-2177.009562669924
 10
-1943.4071423958501
 20
-2176.9922979399257
 42
0.0028763871857334
 10
-1943.2676266777983
 20
-2176.4603299890832
 10
-1943.2632408136353
 20
-2176.4432060109452
 42
0.0037310511950513
 10
-1943.1392841217942
 20
-2175.9437584169045
 10
-1943.1352089015061
 20
-2175.9267981456633
 42
0.0047652197761677
 10
-1943.0275850009966
 20
-2175.4593203773543
 10
-1943.0238944016758
 20
-2175.4425608222155
 42
0.0060276699302069
 10
-1942.9333643025197
 20
-2175.0064850270601
 10
-1942.930145612233
 20
-2174.9899838127635
 42
0.0075824337757814
 10
-1942.8574563028151
 20
-2174.5847166483245
 10
-1942.8548109254327
 20
-2174.5685617008603
 42
0.0095130624605305
 10
-1942.8006956898037
 20
-2174.1934723478025
 10
-1942.7937094659221
 20
-2174.1375387896942
 42
0.0121054653227809
 10
-1942.767118135343
 20
-2173.872642961212
 10
-1942.7662516455837
 20
-2173.861239518284
 42
0.0069050827383776
 10
-1942.7511628275461
 20
-2173.6182982914388
 10
-1942.7500275278776
 20
-2173.5947720343947
 42
0.0169063976697977
 10
-1942.7472002488971
 20
-2173.3985793070933
 10
-1942.7483709004284
 20
-2173.3382435457397
 42
0.0052007732874593
 10
-1942.7506243490213
 20
-2173.2626501555919
 42
0.0054038123284255
 10
-1942.7705878608565
 20
-2173.1426318596023
 10
-1942.7756737167306
 20
-2173.1139733730006
 42
0.011205046045622
 10
-1942.8110580787918
 20
-2172.9376469346498
 10
-1942.8288830408299
 20
-2172.8581053479411
 42
0.0240764468016784
 10
-1942.9197804069756
 20
-2172.5278683124407
 10
-1942.9383391697886
 20
-2172.471248147448
 42
0.0256812331827796
 10
-1943.081702089979
 20
-2172.0995239411886
 10
-1943.0871115157986
 20
-2172.0873926062031
 42
0.0268360501214426
 10
-1943.2565387566501
 20
-2171.7563994721777
 10
-1943.2620751642874
 20
-2171.7468798018617
 42
0.0274670231740433
 10
-1943.4542761406985
 20
-2171.4545924269482
 10
-1943.4596574406642
 20
-2171.4473132794028
 42
0.0275035967105582
 10
-1943.671230320223
 20
-2171.1917973891032
 10
-1943.6762998211836
 20
-2171.1863183014789
 42
0.0269557673529709
 10
-1943.9037033646291
 20
-2170.9656760155103
 10
-1943.9084464224118
 20
-2170.9615460610494
 42
0.025912480220732
 10
-1944.1480012538425
 20
-2170.7738555338969
 10
-1944.1525320990297
 20
-2170.770670031563
 42
0.0245162153014197
 10
-1944.4004484521192
 20
-2170.6139370224564
 10
-1944.4049749984406
 20
-2170.6113768252571
 42
0.0229282588830942
 10
-1944.6573945552709
 20
-2170.4835086327566
 10
-1944.6621750490995
 20
-2170.4813563329981
 42
0.0212984135686427
 10
-1944.9152130015693
 20
-2170.3801574157524
 10
-1944.9205172865402
 20
-2170.3782938529921
 42
0.0197555462347481
 10
-1945.1702956242618
 20
-2170.3014784350275
 42
0.0183511896789275
 10
-1945.4252243497265
 20
-2170.2438955280618
 10
-1945.5115895464446
 20
-2170.2276927376774
 42
0.0338057877139479
 10
-1945.7970968957084
 20
-2170.1938843325365
 10
-1945.8881023007666
 20
-2170.1893046772743
 42
0.0091990524528015
 10
-1945.9939494093842
 20
-2170.1859288213532
 42
0.0028333980770111
 10
-1946.0998633253855
 20
-2170.1851007138366
 10
-1946.1007787784265
 20
-2170.1850987440125
 42
-0.0023619827795139
 10
-1946.2085247935509
 20
-2170.1843579029337
 10
-1946.2449299637083
 20
-2170.1839355964707
 42
0.0008824598472245
 10
-1946.4254859533928
 20
-2170.1821598182337
 10
-1946.4693473859641
 20
-2170.1818058567069
 42
0.0038132665776936
 10
-1946.7376302818634
 20
-2170.1816869206409
 10
-1946.7541639366364
 20
-2170.1818056867842
 42
0.006066556933209
 10
-1947.0554444282218
 20
-2170.1876259862042
 10
-1947.069694760253
 20
-2170.1880742941721
 42
0.0080356953331643
 10
-1947.3991534765844
 20
-2170.2037420162387
 10
-1947.4112234916795
 20
-2170.2045105991797
 42
0.0098996399106625
 10
-1947.7639865763242
 20
-2170.2339958283774
 10
-1947.7740322857051
 20
-2170.2350361245763
 42
0.0117740981371784
 10
-1948.1451891440529
 20
-2170.2823283721059
 10
-1948.1534118405364
 20
-2170.2835734886767
 42
0.0137435215137111
 10
-1948.5380006600221
 20
-2170.3526704622386
 10
-1948.5446576991449
 20
-2170.354056358472
 42
0.0158359869388467
 10
-1948.9376547929489
 20
-2170.4489484469527
 10
-1948.9430679798145
 20
-2170.4504383878229
 42
0.0180554124025452
 10
-1949.3393830244238
 20
-2170.5750764040604
 10
-1949.3439398125101
 20
-2170.5766924403279
 42
0.0203657431285368
 10
-1949.738417330323
 20
-2170.7349527818451
 10
-1949.7425608693288
 20
-2170.7368144032862
 42
0.0226819684652736
 10
-1950.1299969255326
 20
-2170.9324569819569
 10
-1950.1341967165508
 20
-2170.9348225738768
 42
0.0248634984611475
 10
-1950.5093786577311
 20
-2171.1714492198234
 10
-1950.5575735865136
 20
-2171.2053062616478
 42
0.0267044190881268
 10
-1950.8318662834324
 20
-2171.4207466375174
 42
0.0139303002196872
 10
-1951.0880334493741
 20
-2171.6579854784327
 10
-1951.092886835092
 20
-2171.66273814129
 42
0.0283460963439869
 10
-1951.3369594293188
 20
-2171.9304688017342
 10
-1951.3766279344759
 20
-2171.9792703792082
 42
0.0070695364826305
 10
-1951.4540651603356
 20
-2172.0773371951736
 42
0.0070695364826305
  0
LWPOLYLINE
  5
5D
100
AcDbEntity
  8
0
370
              15
390
0
  6
Continuous
 62
               7
100
AcDbPolyline
 90
      226
 70
             128
 10
-1954.982885597582
 20
-2187.7989260013574
 42
-0.0026277636727102
 10
-1954.9829634813821
 20
-2187.7321540756889
 10
-1954.98274612315
 20
-2187.6789988581713
 42
-0.0088680296720275
 10
-1954.9789695068571
 20
-2187.5059830757687
 10
-1954.9766231477447
 20
-2187.4467030503147
 42
-0.0077381705621514
 10
-1954.9605770369815
 20
-2187.1554425545173
 10
-1954.9597091258083
 20
-2187.1431543208309
 42
-0.0068872530532338
 10
-1954.9330770460588
 20
-2186.8279325687481
 10
-1954.9318728218741
 20
-2186.8156915897434
 42
-0.0062130021481344
 10
-1954.894279105042
 20
-2186.4768218984709
 10
-1954.8927752015111
 20
-2186.4646480265887
 42
-0.0056726929674122
 10
-1954.8438533420069
 20
-2186.1024528044609
 10
-1954.8420798963646
 20
-2186.0903590042299
 42
-0.005234188450511
 10
-1954.7814693101113
 20
-2185.7051657487518
 10
-1954.779451321328
 20
-2185.6931608187197
 42
-0.0049768450167629
 10
-1954.7067126399011
 20
-2185.2853162512838
 10
-1954.6824636251799
 20
-2185.1567682682808
 42
-0.0089029805624135
 10
-1954.5453827733847
 20
-2184.4949928208566
 10
-1954.5126373980665
 20
-2184.349961390335
 42
-0.0080318257099057
 10
-1954.2830887837272
 20
-2183.4042517584871
 10
-1954.2711038572775
 20
-2183.3581211232913
 42
-0.0074265721320384
 10
-1953.9870923184312
 20
-2182.3280565449231
 10
-1953.9672127753054
 20
-2182.2599224843025
 42
-0.0069711922702793
 10
-1953.6399081968043
 20
-2181.1936547439936
 10
-1953.5799562497002
 20
-2181.0076333856268
 42
-0.0052070422895823
 10
-1953.3505310244395
 20
-2180.3203613085916
 10
-1953.3332498322777
 20
-2180.270334028005
 42
-0.0009167004447333
 10
-1953.1301579449778
 20
-2179.6858781798201
 42
-0.0025162726942828
 10
-1952.9230603147014
 20
-2179.1028369156193
 10
-1952.8858357029069
 20
-2178.9996873697446
 42
-0.0028212681457951
 10
-1952.6376597839467
 20
-2178.3239567375813
 10
-1952.6278290211924
 20
-2178.2976492928951
 42
-0.0031964916825322
 10
-1952.3915367635336
 20
-2177.6774445307774
 10
-1952.3819023095268
 20
-2177.6526345406141
 42
-0.0036281836452558
 10
-1952.1567963484335
 20
-2177.0851938597407
 10
-1952.1473579382721
 20
-2177.061896428228
 42
-0.0041269166836297
 10
-1951.932740241617
 20
-2176.5444555322597
 10
-1951.9001072852091
 20
-2176.4675770859285
 42
-0.0047472213061578
 10
-1951.7430624796425
 20
-2176.1071556180154
 10
-1951.7361683984368
 20
-2176.0917350206892
 42
-0.0025651659994557
 10
-1951.5878103645841
 20
-2175.764406964935
 42
-0.0057144634994817
 10
-1951.4340606708106
 20
-2175.4395972915677
 10
-1951.4060299654154
 20
-2175.3820889091862
 42
-0.0065388068370528
 10
-1951.2225629376719
 20
-2175.0178564125135
 10
-1951.2141044818945
 20
-2175.0015968331463
 42
-0.0074510843036002
 10
-1951.0379222360154
 20
-2174.6749085520214
 10
-1951.0297425654837
 20
-2174.6602677747514
 42
-0.0084648979863561
 10
-1950.8601087123843
 20
-2174.3683587637911
 10
-1950.8522525858928
 20
-2174.3553517721343
 42
-0.0095638542797661
 10
-1950.6884171383022
 20
-2174.0954629001617
 10
-1950.6809421946261
 20
-2174.0840935386996
 42
-0.0107191626785368
 10
-1950.5221406142427
 20
-2173.8534823041618
 10
-1950.5151238805129
 20
-2173.843746211799
 42
-0.0118458573914888
 10
-1950.3605757819992
 20
-2173.6396740164869
 42
-0.0129184518195547
 10
-1950.1961231583969
 20
-2173.4435135003159
 10
-1950.1659783860339
 20
-2173.4093874214163
 42
-0.0217742579636632
 10
-1949.9893660636992
 20
-2173.2261806511669
 10
-1949.978620519242
 20
-2173.2159638179669
 42
-0.0097266568658406
 10
-1949.812562900383
 20
-2173.0641162435263
 42
-0.0187720905726162
 10
-1949.6382153244938
 20
-2172.9220473901373
 10
-1949.6075093338202
 20
-2172.8988883077418
 42
-0.0179428207520104
 10
-1949.3750886138232
 20
-2172.7363361306293
 10
-1949.3714362869075
 20
-2172.7339721957414
 42
-0.017004787769317
 10
-1949.1356726493771
 20
-2172.5925116815902
 10
-1949.1318896606324
 20
-2172.5904133765548
 42
-0.0160190788358581
 10
-1948.8949811129951
 20
-2172.4687620745658
 42
-0.0151102861501301
 10
-1948.6509493305484
 20
-2172.3620792985112
 10
-1948.5985628283368
 20
-2172.3410391656166
 42
-0.0271945441881495
 10
-1948.2399002692759
 20
-2172.2191743549101
 10
-1948.1708354687912
 20
-2172.1998248136447
 42
-0.0237596594029447
 10
-1947.7550386217679
 20
-2172.1043741016629
 10
-1947.686975768034
 20
-2172.0921194135353
 42
-0.0213715440547534
 10
-1947.4011008365921
 20
-2172.0531723820259
 10
-1947.3409536703832
 20
-2172.047582667326
 42
-0.0101465655824882
 10
-1947.1734611383799
 20
-2172.0354391240612
 10
-1947.1641207521982
 20
-2172.0349522090646
 42
-0.0100375910880401
 10
-1947.0149666516193
 20
-2172.0301763911389
 10
-1947.0047073819401
 20
-2172.0300539521245
 42
-0.0103625633382098
 10
-1946.8759993872841
 20
-2172.031185385651
 10
-1946.8537337360181
 20
-2172.0318427441157
 42
-0.011568925021365
 10
-1946.7696829984891
 20
-2172.036272250361
 42
-0.0072438037458433
 10
-1946.6858447190587
 20
-2172.0438614501095
 10
-1946.6690442095771
 20
-2172.0456279928344
 42
-0.0217917313124108
 10
-1946.5524744462605
 20
-2172.063047885556
 10
-1946.4868743556917
 20
-2172.075794493971
 42
-0.0332943556765464
 10
-1946.2824821906686
 20
-2172.1298347852771
 10
-1946.2523096221214
 20
-2172.1400028623943
 42
-0.0184824084803228
 10
-1946.113804565653
 20
-2172.1924538777821
 42
-0.0198002050701301
 10
-1945.9797302251477
 20
-2172.2553379379842
 10
-1945.977843587777
 20
-2172.256315724861
 42
-0.0212242342956649
 10
-1945.8457046453693
 20
-2172.3320784636576
 10
-1945.8438893498314
 20
-2172.3332242658626
 42
-0.0226090605811609
 10
-1945.7153854486144
 20
-2172.4227039094235
 10
-1945.7135410068722
 20
-2172.4241161624145
 42
-0.0238457052245017
 10
-1945.5903589255793
 20
-2172.5281120582767
 10
-1945.5884061970203
 20
-2172.529926936043
 42
-0.0248160564140639
 10
-1945.4722046897198
 20
-2172.6492015372519
 10
-1945.4701010563176
 20
-2172.6515868709562
 42
-0.0254109591439344
 10
-1945.3624958384523
 20
-2172.7868752569193
 10
-1945.3602478165376
 20
-2172.7900168053211
 42
-0.0255528488282636
 10
-1945.2628011377385
 20
-2172.9420438595589
 10
-1945.2604700378242
 20
-2172.9461254711632
 42
-0.0252146793218274
 10
-1945.174689011812
 20
-2173.1156277171672
 10
-1945.1723867726575
 20
-2173.120809799073
 42
-0.0244265635953225
 10
-1945.0997320788967
 20
-2173.308556371117
 10
-1945.0904856774268
 20
-2173.3364217894596
 42
-0.0231319612912209
 10
-1945.0445628984357
 20
-2173.499722836259
 42
-0.0112130424373223
 10
-1945.0099268758997
 20
-2173.6659264364339
 10
-1945.0087243507849
 20
-2173.6724230233349
 42
-0.0210527881248605
 10
-1944.9830378754139
 20
-2173.8534786687783
 10
-1944.9795272805923
 20
-2173.8888842173237
 42
-0.0190029892429318
 10
-1944.9640858070475
 20
-2174.142420063597
 10
-1944.9632758306036
 20
-2174.1778956779649
 42
-0.0137974553644522
 10
-1944.9648246834395
 20
-2174.5029270847103
 10
-1944.9656701383954
 20
-2174.5290458293089
 42
-0.0081336634211821
 10
-1944.9805294736173
 20
-2174.8343932968905
 42
-0.007352692357029
 10
-1945.0048380069916
 20
-2175.1391415411717
 10
-1945.0060994307746
 20
-2175.1524782158417
 42
-0.0066886138695315
 10
-1945.0418350168238
 20
-2175.4830642593611
 10
-1945.0434921062911
 20
-2175.49668587833
 42
-0.0061359187357089
 10
-1945.0913427083415
 20
-2175.8534498584281
 10
-1945.0933802094146
 20
-2175.8673446612593
 42
-0.0056698610065236
 10
-1945.1540305401811
 20
-2176.2506232300943
 10
-1945.1564359735048
 20
-2176.264782349328
 42
-0.0052721077271679
 10
-1945.2305681743051
 20
-2176.6749096890085
 10
-1945.2333313231463
 20
-2176.6893263243919
 42
-0.0049289272182895
 10
-1945.3216254412457
 20
-2177.126634835512
 10
-1945.3247379359289
 20
-2177.1413036883305
 42
-0.0047415956712713
 10
-1945.4279759274573
 20
-2177.6061004457238
 10
-1945.4627441378209
 20
-2177.7559075411241
 42
-0.0084404470905937
 10
-1945.6527605813892
 20
-2178.5161315656424
 10
-1945.6588872693783
 20
-2178.5389956898084
 42
-0.0039635940259533
 10
-1945.8803409536561
 20
-2179.3399845540339
 10
-1945.8937177488419
 20
-2179.386916170648
 42
-0.0072475040835489
 10
-1946.1611646367019
 20
-2180.276135887028
 10
-1946.2313769635264
 20
-2180.497876236991
 42
-0.0051345458828978
 10
-1946.5181363355914
 20
-2181.3722014248215
 10
-1946.539662602358
 20
-2181.4356276919489
 42
-0.0019150016599823
 10
-1946.7951960092255
 20
-2182.1791768121775
 10
-1946.8016636136256
 20
-2182.1977642771094
 42
-0.0021524362749754
 10
-1947.0501416646857
 20
-2182.9020900988071
 10
-1947.0593520853938
 20
-2182.9278436771415
 42
-0.0024331286818503
 10
-1947.2956073444179
 20
-2183.5784429852265
 10
-1947.3046552969765
 20
-2183.602986291603
 42
-0.0027449721790447
 10
-1947.529269867804
 20
-2184.2021161705052
 10
-1947.5381598751908
 20
-2184.225438760343
 42
-0.0031083229769382
 10
-1947.7517023618061
 20
-2184.7753627979373
 10
-1947.7604384934821
 20
-2184.7974525137961
 42
-0.0035311343288712
 10
-1947.9634796790735
 20
-2185.3004356395249
 10
-1947.9720650182228
 20
-2185.3212783630388
 42
-0.0040245640950032
 10
-1948.1651768220156
 20
-2185.7795876856276
 10
-1948.1736129356157
 20
-2185.7991670536926
 42
-0.0046015135856876
 10
-1948.3573692287823
 20
-2186.215072083342
 10
-1948.3656554066117
 20
-2186.2333692227967
 42
-0.0052768638272051
 10
-1948.5406329255661
 20
-2186.6091421070641
 10
-1948.5487651361966
 20
-2186.6261354456151
 42
-0.0060672675633692
 10
-1948.715544748959
 20
-2186.9640510687218
 10
-1948.7235142294398
 20
-2186.9797163277181
 42
-0.0069904648866878
 10
-1948.8826826234422
 20
-2187.2820521343829
 10
-1948.8904740230535
 20
-2187.2963626836108
 42
-0.0080637022770348
 10
-1949.0426258833988
 20
-2187.5653979867629
 10
-1949.0502149160307
 20
-2187.5783258523647
 42
-0.0093006455655438
 10
-1949.1959555925616
 20
-2187.8163402508671
 10
-1949.2033062593073
 20
-2187.8278582200433
 42
-0.0107060778034515
 10
-1949.3432548027438
 20
-2188.0371285374194
 10
-1949.3503165710199
 20
-2188.0472140799802
 42
-0.0122723111401236
 10
-1949.4851102892214
 20
-2188.2300074094742
 10
-1949.4854365127733
 20
-2188.2304277972812
 42
-0.0141836319635952
 10
-1949.6290181157497
 20
-2188.4049975551134
 10
-1949.635965871402
 20
-2188.4129725553785
 42
-0.0175957477191092
 10
-1949.7758720394363
 20
-2188.562593443783
 42
-0.0080466359667753
 10
-1949.9233358044671
 20
-2188.704915971935
 10
-1949.9693703489838
 20
-2188.7479364100254
 42
-0.0269600260396008
 10
-1950.2226505949636
 20
-2188.9602596685322
 10
-1950.2892177312615
 20
-2189.0102110831567
 42
-0.017836283975171
 10
-1950.5291622209197
 20
-2189.1772290094104
 10
-1950.5364071919178
 20
-2189.1818975216138
 42
-0.0174650732660953
 10
-1950.7727433893615
 20
-2189.3227584865745
 42
-0.0169240130168372
 10
-1951.0182096352228
 20
-2189.4470507463539
 10
-1951.0641957907769
 20
-2189.4684127019191
 42
-0.0318883036846563
 10
-1951.414546646396
 20
-2189.604751011429
 10
-1951.482912181564
 20
-2189.6264516319052
 42
-0.0284435909902667
 10
-1951.8589623078528
 20
-2189.7226690673797
 10
-1951.8941204683542
 20
-2189.7295626632085
 42
-0.0243909341018974
 10
-1952.2075639292702
 20
-2189.7752836942382
 10
-1952.2578446560437
 20
-2189.78012924114
 42
-0.0196639292924395
 10
-1952.4734402335685
 20
-2189.7923775266531
 10
-1952.5252643047259
 20
-2189.7932807873899
 42
-0.0100501510673219
 10
-1952.6376875863962
 20
-2189.792980389037
 10
-1952.6693474476986
 20
-2189.7922593171529
 42
-0.0019752031169077
 10
-1952.7184397844217
 20
-2189.7909471569419
 10
-1952.7212000876448
 20
-2189.7908624651154
 42
0.0065378751937213
 10
-1952.7647766623986
 20
-2189.7900955739005
 42
-0.01679746946534
 10
-1952.8083074853355
 20
-2189.7884356753743
 10
-1952.8123868245925
 20
-2189.7881426644799
 42
-0.0081283276285757
 10
-1952.863946622334
 20
-2189.7835956708418
 10
-1952.8756861962097
 20
-2189.7823677532638
 42
-0.0126703440172995
 10
-1952.9504044920088
 20
-2189.7726329621914
 10
-1952.9731923596801
 20
-2189.769074706277
 42
-0.0117852088446078
 10
-1953.0927313454974
 20
-2189.747511711123
 10
-1953.1481117972753
 20
-2189.7361681708853
 42
-0.0251774592303036
 10
-1953.3749558362829
 20
-2189.6776701614522
 10
-1953.4196750261347
 20
-2189.6637033421166
 42
-0.0146525199892491
 10
-1953.6060680136727
 20
-2189.5994368149186
 42
-0.0166929435872412
 10
-1953.7880456697978
 20
-2189.5236296818648
 10
-1953.7927023010725
 20
-2189.5215047812503
 42
-0.0191684358433164
 10
-1953.9778859323267
 20
-2189.4282686974575
 10
-1953.9812185180788
 20
-2189.4264274499069
 42
-0.0221181781814308
 10
-1954.1645288219761
 20
-2189.3142939515392
 10
-1954.1668786259893
 20
-2189.312709653545
 42
-0.0254984685382973
 10
-1954.3431687763753
 20
-2189.1802985035752
 10
-1954.3656509240702
 20
-2189.1615461946444
 42
-0.0292492648840531
 10
-1954.4904198629197
 20
-2189.0444533949963
 42
-0.0159048957508744
 10
-1954.604259860371
 20
-2188.9164334033953
 10
-1954.6055786509492
 20
-2188.9148517903768
 42
-0.0343813379558445
 10
-1954.7082159125771
 20
-2188.7729804646042
 10
-1954.7397074439359
 20
-2188.7224770725138
 42
-0.0369117275705079
 10
-1954.8255999458333
 20
-2188.558999831565
 42
-0.019175137990615
 10
-1954.892793331391
 20
-2188.3865952255574
 10
-1954.8945566551499
 20
-2188.3815018808841
 42
-0.037817804222105
 10
-1954.9443513739348
 20
-2188.1925611047996
 10
-1954.9503466696651
 20
-2188.1600004866023
 42
-0.0184846046475209
 10
-1954.9710638689589
 20
-2188.0182476660607
 42
-0.0179866351323958
 10
-1954.981396874033
 20
-2187.8753568529719
 10
-1954.9814533164783
 20
-2187.8737991663675
 42
-0.0085497186108352
 10
-1954.982885597582
 20
-2187.7989260013574
 42
-0.0085497186108352
  0
ENDBLK
  5
5E
100
AcDbEntity
  8
template
390
0
100
AcDbBlockEnd
  0
BLOCK
  5
5F
100
AcDbEntity
  8
notes
390
0
100
AcDbBlockBegin
  2
*D3
 70
               1
 10
0.0
 20
0.0
 30
0.0
  3
*D3
  1

  0
LINE
  5
60
100
AcDbEntity
  8
0
370
              -2
390
0
  6
Continuous
 62
               0
100
AcDbLine
 10
-689.72934746431292
 20
772.45712009004671
 30
0.0
 11
-689.72934746431292
 21
901.45712009004694
 31
0.0
  0
LINE
  5
61
100
AcDbEntity
  8
0
370
              -2
390
0
  6
Continuous
 62
               0
100
AcDbLine
 10
-189.72934746431338
 20
772.45712009004694
 30
0.0
 11
-189.72934746431338
 21
901.45712009004694
 31
0.0
  0
LINE
  5
62
100
AcDbEntity
  8
0
370
              -2
390
0
  6
Continuous
 62
               0
100
AcDbLine
 10
-689.72934746431292
 20
901.45712009004694
 30
0.0
 11
-189.72934746431338
 21
901.45712009004694
 31
0.0
  0
CIRCLE
  5
63
102
{ACAD_REACTORS
330
64
102
}
100
AcDbEntity
  8
0
370
              -2
390
0
  6
Continuous
 62
               0
100
AcDbCircle
 10
-689.72934746431292
 20
901.45712009004694
 30
0.0
 40
1.9998779296875
  0
HATCH
  5
64
100
AcDbEntity
  8
0
370
              -2
390
0
  6
Continuous
 62
               0
100
AcDbHatch
 10
0.0
 20
0.0
 30
0.0
210
0.0
220
0.0
230
1.0
  2
SOLID
 70
               1
 71
               1
 91
        1
 92
        1
 93
        1
 72
               2
 10
-689.72934746431292
 20
901.45712009004694
 40
1.9998779296875
 50
0.0
 51
360.0
 73
               0
 97
        1
330
63
 75
               0
 76
               1
 98
        1
 10
0.0
 20
0.0
  0
CIRCLE
  5
65
102
{ACAD_REACTORS
330
66
102
}
100
AcDbEntity
  8
0
370
              -2
390
0
  6
Continuous
 62
               0
100
AcDbCircle
 10
-189.72934746431338
 20
901.45712009004694
 30
0.0
 40
1.9998779296875
  0
HATCH
  5
66
100
AcDbEntity
  8
0
370
              -2
390
0
  6
Continuous
 62
               0
100
AcDbHatch
 10
0.0
 20
0.0
 30
0.0
210
0.0
220
0.0
230
1.0
  2
SOLID
 70
               1
 71
               1
 91
        1
 92
        1
 93
        1
 72
               2
 10
-189.72934746431338
 20
901.45712009004694
 40
1.9998779296875
 50
0.0
 51
360.0
 73
               0
 97
        1
330
65
 75
               0
 76
               1
 98
        1
 10
0.0
 20
0.0
  0
MTEXT
  5
67
100
AcDbEntity
  8
0
390
0
 62
               0
100
AcDbMText
 10
-463.5418491464884
 20
935.33473727754699
 30
0.0
 40
24.432617187500004
 41
0.0
 71
               1
 72
               1
  1
500
  7
ＭＳ ゴシック
 73
               1
 44
0.7828267384257843
  0
POINT
  5
68
100
AcDbEntity
  8
Defpoints
370
               0
390
0
 62
               0
100
AcDbPoint
 10
-189.72934746431338
 20
747.45712009004694
 30
0.0
  0
POINT
  5
69
100
AcDbEntity
  8
Defpoints
370
               0
390
0
 62
               0
100
AcDbPoint
 10
-689.72934746431292
 20
747.45712009004671
 30
0.0
  0
POINT
  5
6A
100
AcDbEntity
  8
Defpoints
370
               0
390
0
 62
               0
100
AcDbPoint
 10
-689.72934746431292
 20
901.45712009004694
 30
0.0
  0
ENDBLK
  5
6B
100
AcDbEntity
  8
notes
390
0
100
AcDbBlockEnd
  0
BLOCK
  5
6C
100
AcDbEntity
  8
notes
390
0
100
AcDbBlockBegin
  2
*D4
 70
               1
 10
0.0
 20
0.0
 30
0.0
  3
*D4
  1

  0
LINE
  5
6D
100
AcDbEntity
  8
0
370
              -2
390
0
  6
Continuous
 62
               0
100
AcDbLine
 10
-249.72934746431338
 20
668.95712009004694
 30
0.0
 11
-249.72934746431338
 21
851.45712009004694
 31
0.0
  0
LINE
  5
6E
100
AcDbEntity
  8
0
370
              -2
390
0
  6
Continuous
 62
               0
100
AcDbLine
 10
-189.72934746431338
 20
772.45712009004694
 30
0.0
 11
-189.72934746431338
 21
851.45712009004694
 31
0.0
  0
LINE
  5
6F
100
AcDbEntity
  8
0
370
              -2
390
0
  6
Continuous
 62
               0
100
AcDbLine
 10
-249.72934746431338
 20
851.45712009004694
 30
0.0
 11
-189.72934746431338
 21
851.45712009004694
 31
0.0
  0
CIRCLE
  5
70
102
{ACAD_REACTORS
330
71
102
}
100
AcDbEntity
  8
0
370
              -2
390
0
  6
Continuous
 62
               0
100
AcDbCircle
 10
-249.72934746431338
 20
851.45712009004694
 30
0.0
 40
1.9998779296875
  0
HATCH
  5
71
100
AcDbEntity
  8
0
370
              -2
390
0
  6
Continuous
 62
               0
100
AcDbHatch
 10
0.0
 20
0.0
 30
0.0
210
0.0
220
0.0
230
1.0
  2
SOLID
 70
               1
 71
               1
 91
        1
 92
        1
 93
        1
 72
               2
 10
-249.72934746431338
 20
851.45712009004694
 40
1.9998779296875
 50
0.0
 51
360.0
 73
               0
 97
        1
330
70
 75
               0
 76
               1
 98
        1
 10
0.0
 20
0.0
  0
CIRCLE
  5
72
102
{ACAD_REACTORS
330
73
102
}
100
AcDbEntity
  8
0
370
              -2
390
0
  6
Continuous
 62
               0
100
AcDbCircle
 10
-189.72934746431338
 20
851.45712009004694
 30
0.0
 40
1.9998779296875
  0
HATCH
  5
73
100
AcDbEntity
  8
0
370
              -2
390
0
  6
Continuous
 62
               0
100
AcDbHatch
 10
0.0
 20
0.0
 30
0.0
210
0.0
220
0.0
230
1.0
  2
SOLID
 70
               1
 71
               1
 91
        1
 92
        1
 93
        1
 72
               2
 10
-189.72934746431338
 20
851.45712009004694
 40
1.9998779296875
 50
0.0
 51
360.0
 73
               0
 97
        1
330
72
 75
               0
 76
               1
 98
        1
 10
0.0
 20
0.0
  0
MTEXT
  5
74
100
AcDbEntity
  8
0
390
0
 62
               0
100
AcDbMText
 10
-235.60434746431338
 20
885.33473727754699
 30
0.0
 40
24.432617187500004
 41
0.0
 71
               1
 72
               1
  1
60
  7
ＭＳ ゴシック
 73
               1
 44
0.7828267384257843
  0
POINT
  5
75
100
AcDbEntity
  8
Defpoints
370
               0
390
0
 62
               0
100
AcDbPoint
 10
-189.72934746431338
 20
747.45712009004694
 30
0.0
  0
POINT
  5
76
100
AcDbEntity
  8
Defpoints
370
               0
390
0
 62
               0
100
AcDbPoint
 10
-249.72934746431338
 20
643.95712009004694
 30
0.0
  0
POINT
  5
77
100
AcDbEntity
  8
Defpoints
370
               0
390
0
 62
               0
100
AcDbPoint
 10
-249.72934746431338
 20
851.45712009004694
 30
0.0
  0
ENDBLK
  5
78
100
AcDbEntity
  8
notes
390
0
100
AcDbBlockEnd
  0
BLOCK
  5
79
100
AcDbEntity
  8
notes
390
0
100
AcDbBlockBegin
  2
*D5
 70
               1
 10
0.0
 20
0.0
 30
0.0
  3
*D5
  1

  0
LINE
  5
7A
100
AcDbEntity
  8
0
370
              -2
390
0
  6
Continuous
 62
               0
100
AcDbLine
 10
-168.72934746431338
 20
751.45712009004694
 30
0.0
 11
-89.729347464313378
 21
751.45712009004694
 31
0.0
  0
LINE
  5
7B
100
AcDbEntity
  8
0
370
              -2
390
0
  6
Continuous
 62
               0
100
AcDbLine
 10
-168.72934746431338
 20
501.45712009004694
 30
0.0
 11
-89.729347464313378
 21
501.45712009004694
 31
0.0
  0
LINE
  5
7C
100
AcDbEntity
  8
0
370
              -2
390
0
  6
Continuous
 62
               0
100
AcDbLine
 10
-89.729347464313378
 20
751.45712009004694
 30
0.0
 11
-89.729347464313378
 21
501.45712009004694
 31
0.0
  0
CIRCLE
  5
7D
102
{ACAD_REACTORS
330
7E
102
}
100
AcDbEntity
  8
0
370
              -2
390
0
  6
Continuous
 62
               0
100
AcDbCircle
 10
-89.729347464313378
 20
751.45712009004694
 30
0.0
 40
1.9998779296875
  0
HATCH
  5
7E
100
AcDbEntity
  8
0
370
              -2
390
0
  6
Continuous
 62
               0
100
AcDbHatch
 10
0.0
 20
0.0
 30
0.0
210
0.0
220
0.0
230
1.0
  2
SOLID
 70
               1
 71
               1
 91
        1
 92
        1
 93
        1
 72
               2
 10
-89.729347464313378
 20
751.45712009004694
 40
1.9998779296875
 50
0.0
 51
360.0
 73
               0
 97
        1
330
7D
 75
               0
 76
               1
 98
        1
 10
0.0
 20
0.0
  0
CIRCLE
  5
7F
102
{ACAD_REACTORS
330
80
102
}
100
AcDbEntity
  8
0
370
              -2
390
0
  6
Continuous
 62
               0
100
AcDbCircle
 10
-89.729347464313378
 20
501.45712009004694
 30
0.0
 40
1.9998779296875
  0
HATCH
  5
80
100
AcDbEntity
  8
0
370
              -2
390
0
  6
Continuous
 62
               0
100
AcDbHatch
 10
0.0
 20
0.0
 30
0.0
210
0.0
220
0.0
230
1.0
  2
SOLID
 70
               1
 71
               1
 91
        1
 92
        1
 93
        1
 72
               2
 10
-89.729347464313378
 20
501.45712009004694
 40
1.9998779296875
 50
0.0
 51
360.0
 73
               0
 97
        1
330
7F
 75
               0
 76
               1
 98
        1
 10
0.0
 20
0.0
  0
MTEXT
  5
81
100
AcDbEntity
  8
0
390
0
 62
               0
100
AcDbMText
 10
-123.60696465181354
 20
602.64461840787135
 30
0.0
 40
24.432617187500004
 41
0.0
 71
               1
 72
               1
  1
250
  7
ＭＳ ゴシック
 11
0.0
 21
1.0
 31
0.0
 73
               1
 44
0.7828267384257843
  0
POINT
  5
82
100
AcDbEntity
  8
Defpoints
370
               0
390
0
 62
               0
100
AcDbPoint
 10
-193.72934746431338
 20
501.45712009004694
 30
0.0
  0
POINT
  5
83
100
AcDbEntity
  8
Defpoints
370
               0
390
0
 62
               0
100
AcDbPoint
 10
-193.72934746431338
 20
751.45712009004694
 30
0.0
  0
POINT
  5
84
100
AcDbEntity
  8
Defpoints
370
               0
390
0
 62
               0
100
AcDbPoint
 10
-89.729347464313378
 20
751.45712009004694
 30
0.0
  0
ENDBLK
  5
85
100
AcDbEntity
  8
notes
390
0
100
AcDbBlockEnd
  0
BLOCK
  5
86
100
AcDbEntity
  8
notes
390
0
100
AcDbBlockBegin
  2
*D6
 70
               1
 10
0.0
 20
0.0
 30
0.0
  3
*D6
  1

  0
LINE
  5
87
100
AcDbEntity
  8
0
370
              -2
390
0
  6
Continuous
 62
               0
100
AcDbLine
 10
-289.72934746431338
 20
476.45712009004694
 30
0.0
 11
-289.72934746431338
 21
401.45712009004694
 31
0.0
  0
LINE
  5
88
100
AcDbEntity
  8
0
370
              -2
390
0
  6
Continuous
 62
               0
100
AcDbLine
 10
-189.72934746431338
 20
480.45712009004671
 30
0.0
 11
-189.72934746431338
 21
401.45712009004694
 31
0.0
  0
LINE
  5
89
100
AcDbEntity
  8
0
370
              -2
390
0
  6
Continuous
 62
               0
100
AcDbLine
 10
-289.72934746431338
 20
401.45712009004694
 30
0.0
 11
-189.72934746431338
 21
401.45712009004694
 31
0.0
  0
CIRCLE
  5
8A
102
{ACAD_REACTORS
330
8B
102
}
100
AcDbEntity
  8
0
370
              -2
390
0
  6
Continuous
 62
               0
100
AcDbCircle
 10
-289.72934746431338
 20
401.45712009004694
 30
0.0
 40
1.9998779296875
  0
HATCH
  5
8B
100
AcDbEntity
  8
0
370
              -2
390
0
  6
Continuous
 62
               0
100
AcDbHatch
 10
0.0
 20
0.0
 30
0.0
210
0.0
220
0.0
230
1.0
  2
SOLID
 70
               1
 71
               1
 91
        1
 92
        1
 93
        1
 72
               2
 10
-289.72934746431338
 20
401.45712009004694
 40
1.9998779296875
 50
0.0
 51
360.0
 73
               0
 97
        1
330
8A
 75
               0
 76
               1
 98
        1
 10
0.0
 20
0.0
  0
CIRCLE
  5
8C
102
{ACAD_REACTORS
330
8D
102
}
100
AcDbEntity
  8
0
370
              -2
390
0
  6
Continuous
 62
               0
100
AcDbCircle
 10
-189.72934746431338
 20
401.45712009004694
 30
0.0
 40
1.9998779296875
  0
HATCH
  5
8D
100
AcDbEntity
  8
0
370
              -2
390
0
  6
Continuous
 62
               0
100
AcDbHatch
 10
0.0
 20
0.0
 30
0.0
210
0.0
220
0.0
230
1.0
  2
SOLID
 70
               1
 71
               1
 91
        1
 92
        1
 93
        1
 72
               2
 10
-189.72934746431338
 20
401.45712009004694
 40
1.9998779296875
 50
0.0
 51
360.0
 73
               0
 97
        1
330
8C
 75
               0
 76
               1
 98
        1
 10
0.0
 20
0.0
  0
MTEXT
  5
8E
100
AcDbEntity
  8
0
390
0
 62
               0
100
AcDbMText
 10
-263.54184914648886
 20
435.33473727754694
 30
0.0
 40
24.432617187500004
 41
0.0
 71
               1
 72
               1
  1
100
  7
ＭＳ ゴシック
 73
               1
 44
0.7828267384257843
  0
POINT
  5
8F
100
AcDbEntity
  8
Defpoints
370
               0
390
0
 62
               0
100
AcDbPoint
 10
-189.72934746431338
 20
505.45712009004671
 30
0.0
  0
POINT
  5
90
100
AcDbEntity
  8
Defpoints
370
               0
390
0
 62
               0
100
AcDbPoint
 10
-289.72934746431338
 20
501.45712009004694
 30
0.0
  0
POINT
  5
91
100
AcDbEntity
  8
Defpoints
370
               0
390
0
 62
               0
100
AcDbPoint
 10
-289.72934746431338
 20
401.45712009004694
 30
0.0
  0
ENDBLK
  5
92
100
AcDbEntity
  8
notes
390
0
100
AcDbBlockEnd
  0
BLOCK
  5
93
100
AcDbEntity
  8
notes
390
0
100
AcDbBlockBegin
  2
*D7
 70
               1
 10
0.0
 20
0.0
 30
0.0
  3
*D7
  1

  0
LINE
  5
94
100
AcDbEntity
  8
0
370
              -2
390
0
  6
Continuous
 62
               0
100
AcDbLine
 10
-289.72934746431338
 20
476.45712009004694
 30
0.0
 11
-289.72934746431338
 21
401.45712009004694
 31
0.0
  0
LINE
  5
95
100
AcDbEntity
  8
0
370
              -2
390
0
  6
Continuous
 62
               0
100
AcDbLine
 10
-664.72934746431338
 20
476.45712009004694
 30
0.0
 11
-664.72934746431338
 21
401.45712009004694
 31
0.0
  0
LINE
  5
96
100
AcDbEntity
  8
0
370
              -2
390
0
  6
Continuous
 62
               0
100
AcDbLine
 10
-289.72934746431338
 20
401.45712009004694
 30
0.0
 11
-664.72934746431338
 21
401.45712009004694
 31
0.0
  0
CIRCLE
  5
97
102
{ACAD_REACTORS
330
98
102
}
100
AcDbEntity
  8
0
370
              -2
390
0
  6
Continuous
 62
               0
100
AcDbCircle
 10
-289.72934746431338
 20
401.45712009004694
 30
0.0
 40
1.9998779296875
  0
HATCH
  5
98
100
AcDbEntity
  8
0
370
              -2
390
0
  6
Continuous
 62
               0
100
AcDbHatch
 10
0.0
 20
0.0
 30
0.0
210
0.0
220
0.0
230
1.0
  2
SOLID
 70
               1
 71
               1
 91
        1
 92
        1
 93
        1
 72
               2
 10
-289.72934746431338
 20
401.45712009004694
 40
1.9998779296875
 50
0.0
 51
360.0
 73
               0
 97
        1
330
97
 75
               0
 76
               1
 98
        1
 10
0.0
 20
0.0
  0
CIRCLE
  5
99
102
{ACAD_REACTORS
330
9A
102
}
100
AcDbEntity
  8
0
370
              -2
390
0
  6
Continuous
 62
               0
100
AcDbCircle
 10
-664.72934746431338
 20
401.45712009004694
 30
0.0
 40
1.9998779296875
  0
HATCH
  5
9A
100
AcDbEntity
  8
0
370
              -2
390
0
  6
Continuous
 62
               0
100
AcDbHatch
 10
0.0
 20
0.0
 30
0.0
210
0.0
220
0.0
230
1.0
  2
SOLID
 70
               1
 71
               1
 91
        1
 92
        1
 93
        1
 72
               2
 10
-664.72934746431338
 20
401.45712009004694
 40
1.9998779296875
 50
0.0
 51
360.0
 73
               0
 97
        1
330
99
 75
               0
 76
               1
 98
        1
 10
0.0
 20
0.0
  0
MTEXT
  5
9B
100
AcDbEntity
  8
0
390
0
 62
               0
100
AcDbMText
 10
-501.04184914648886
 20
435.33473727754694
 30
0.0
 40
24.432617187500004
 41
0.0
 71
               1
 72
               1
  1
375
  7
ＭＳ ゴシック
 73
               1
 44
0.7828267384257843
  0
POINT
  5
9C
100
AcDbEntity
  8
Defpoints
370
               0
390
0
 62
               0
100
AcDbPoint
 10
-664.72934746431338
 20
501.45712009004694
 30
0.0
  0
POINT
  5
9D
100
AcDbEntity
  8
Defpoints
370
               0
390
0
 62
               0
100
AcDbPoint
 10
-289.72934746431338
 20
501.45712009004694
 30
0.0
  0
POINT
  5
9E
100
AcDbEntity
  8
Defpoints
370
               0
390
0
 62
               0
100
AcDbPoint
 10
-289.72934746431338
 20
401.45712009004694
 30
0.0
  0
ENDBLK
  5
9F
100
AcDbEntity
  8
notes
390
0
100
AcDbBlockEnd
  0
BLOCK
  5
A0
100
AcDbEntity
  8
notes
390
0
100
AcDbBlockBegin
  2
*D8
 70
               1
 10
0.0
 20
0.0
 30
0.0
  3
*D8
  1

  0
LINE
  5
A1
100
AcDbEntity
  8
0
370
              -2
390
0
  6
Continuous
 62
               0
100
AcDbLine
 10
-714.72934746431292
 20
726.45712009004649
 30
0.0
 11
-789.72934746431292
 21
726.45712009004649
 31
0.0
  0
LINE
  5
A2
100
AcDbEntity
  8
0
370
              -2
390
0
  6
Continuous
 62
               0
100
AcDbLine
 10
-714.72934746431292
 20
526.45712009004694
 30
0.0
 11
-789.72934746431292
 21
526.45712009004694
 31
0.0
  0
LINE
  5
A3
100
AcDbEntity
  8
0
370
              -2
390
0
  6
Continuous
 62
               0
100
AcDbLine
 10
-789.72934746431292
 20
726.45712009004649
 30
0.0
 11
-789.72934746431292
 21
526.45712009004694
 31
0.0
  0
CIRCLE
  5
A4
102
{ACAD_REACTORS
330
A5
102
}
100
AcDbEntity
  8
0
370
              -2
390
0
  6
Continuous
 62
               0
100
AcDbCircle
 10
-789.72934746431292
 20
726.45712009004649
 30
0.0
 40
1.9998779296875
  0
HATCH
  5
A5
100
AcDbEntity
  8
0
370
              -2
390
0
  6
Continuous
 62
               0
100
AcDbHatch
 10
0.0
 20
0.0
 30
0.0
210
0.0
220
0.0
230
1.0
  2
SOLID
 70
               1
 71
               1
 91
        1
 92
        1
 93
        1
 72
               2
 10
-789.72934746431292
 20
726.45712009004649
 40
1.9998779296875
 50
0.0
 51
360.0
 73
               0
 97
        1
330
A4
 75
               0
 76
               1
 98
        1
 10
0.0
 20
0.0
  0
CIRCLE
  5
A6
102
{ACAD_REACTORS
330
A7
102
}
100
AcDbEntity
  8
0
370
              -2
390
0
  6
Continuous
 62
               0
100
AcDbCircle
 10
-789.72934746431292
 20
526.45712009004694
 30
0.0
 40
1.9998779296875
  0
HATCH
  5
A7
100
AcDbEntity
  8
0
370
              -2
390
0
  6
Continuous
 62
               0
100
AcDbHatch
 10
0.0
 20
0.0
 30
0.0
210
0.0
220
0.0
230
1.0
  2
SOLID
 70
               1
 71
               1
 91
        1
 92
        1
 93
        1
 72
               2
 10
-789.72934746431292
 20
526.45712009004694
 40
1.9998779296875
 50
0.0
 51
360.0
 73
               0
 97
        1
330
A6
 75
               0
 76
               1
 98
        1
 10
0.0
 20
0.0
  0
MTEXT
  5
A8
100
AcDbEntity
  8
0
390
0
 62
               0
100
AcDbMText
 10
-823.60696465181309
 20
602.64461840787112
 30
0.0
 40
24.432617187500004
 41
0.0
 71
               1
 72
               1
  1
200
  7
ＭＳ ゴシック
 11
0.0
 21
1.0
 31
0.0
 73
               1
 44
0.7828267384257843
  0
POINT
  5
A9
100
AcDbEntity
  8
Defpoints
370
               0
390
0
 62
               0
100
AcDbPoint
 10
-689.72934746431292
 20
526.45712009004694
 30
0.0
  0
POINT
  5
AA
100
AcDbEntity
  8
Defpoints
370
               0
390
0
 62
               0
100
AcDbPoint
 10
-689.72934746431292
 20
726.45712009004649
 30
0.0
  0
POINT
  5
AB
100
AcDbEntity
  8
Defpoints
370
               0
390
0
 62
               0
100
AcDbPoint
 10
-789.72934746431292
 20
726.45712009004649
 30
0.0
  0
ENDBLK
  5
AC
100
AcDbEntity
  8
notes
390
0
100
AcDbBlockEnd
  0
BLOCK
  5
AD
100
AcDbEntity
  8
notes
390
0
100
AcDbBlockBegin
  2
*D9
 70
               1
 10
0.0
 20
0.0
 30
0.0
  3
*D9
  1

  0
LINE
  5
AE
100
AcDbEntity
  8
0
370
              -2
390
0
  6
Continuous
 62
               0
100
AcDbLine
 10
-189.72934746431338
 20
-616.31712714024388
 30
0.0
 11
-189.72934746431338
 21
-693.31712714024388
 31
0.0
  0
LINE
  5
AF
100
AcDbEntity
  8
0
370
              -2
390
0
  6
Continuous
 62
               0
100
AcDbLine
 10
-474.72934746431338
 20
-618.31712714024388
 30
0.0
 11
-474.72934746431338
 21
-693.31712714024388
 31
0.0
  0
LINE
  5
B0
100
AcDbEntity
  8
0
370
              -2
390
0
  6
Continuous
 62
               0
100
AcDbLine
 10
-189.72934746431338
 20
-693.31712714024388
 30
0.0
 11
-474.72934746431338
 21
-693.31712714024388
 31
0.0
  0
CIRCLE
  5
B1
102
{ACAD_REACTORS
330
B2
102
}
100
AcDbEntity
  8
0
370
              -2
390
0
  6
Continuous
 62
               0
100
AcDbCircle
 10
-189.72934746431338
 20
-693.31712714024388
 30
0.0
 40
1.9998779296875
  0
HATCH
  5
B2
100
AcDbEntity
  8
0
370
              -2
390
0
  6
Continuous
 62
               0
100
AcDbHatch
 10
0.0
 20
0.0
 30
0.0
210
0.0
220
0.0
230
1.0
  2
SOLID
 70
               1
 71
               1
 91
        1
 92
        1
 93
        1
 72
               2
 10
-189.72934746431338
 20
-693.31712714024388
 40
1.9998779296875
 50
0.0
 51
360.0
 73
               0
 97
        1
330
B1
 75
               0
 76
               1
 98
        1
 10
0.0
 20
0.0
  0
CIRCLE
  5
B3
102
{ACAD_REACTORS
330
B4
102
}
100
AcDbEntity
  8
0
370
              -2
390
0
  6
Continuous
 62
               0
100
AcDbCircle
 10
-474.72934746431338
 20
-693.31712714024388
 30
0.0
 40
1.9998779296875
  0
HATCH
  5
B4
100
AcDbEntity
  8
0
370
              -2
390
0
  6
Continuous
 62
               0
100
AcDbHatch
 10
0.0
 20
0.0
 30
0.0
210
0.0
220
0.0
230
1.0
  2
SOLID
 70
               1
 71
               1
 91
        1
 92
        1
 93
        1
 72
               2
 10
-474.72934746431338
 20
-693.31712714024388
 40
1.9998779296875
 50
0.0
 51
360.0
 73
               0
 97
        1
330
B3
 75
               0
 76
               1
 98
        1
 10
0.0
 20
0.0
  0
MTEXT
  5
B5
100
AcDbEntity
  8
0
390
0
 62
               0
100
AcDbMText
 10
-363.53036771245479
 20
-659.43950995274395
 30
0.0
 40
24.432617187500004
 41
0.0
 71
               1
 72
               1
  1
285
  7
ＭＳ ゴシック
 73
               1
 44
0.7828267384257843
  0
POINT
  5
B6
100
AcDbEntity
  8
Defpoints
370
               0
390
0
 62
               0
100
AcDbPoint
 10
-474.72934746431338
 20
-593.31712714024388
 30
0.0
  0
POINT
  5
B7
100
AcDbEntity
  8
Defpoints
370
               0
390
0
 62
               0
100
AcDbPoint
 10
-189.72934746431338
 20
-591.31712714024388
 30
0.0
  0
POINT
  5
B8
100
AcDbEntity
  8
Defpoints
370
               0
390
0
 62
               0
100
AcDbPoint
 10
-189.72934746431338
 20
-693.31712714024388
 30
0.0
  0
ENDBLK
  5
B9
100
AcDbEntity
  8
notes
390
0
100
AcDbBlockEnd
  0
BLOCK
  5
BA
100
AcDbEntity
  8
notes
390
0
100
AcDbBlockBegin
  2
*D10
 70
               1
 10
0.0
 20
0.0
 30
0.0
  3
*D10
  1

  0
LINE
  5
BB
100
AcDbEntity
  8
0
370
              -2
390
0
  6
Continuous
 62
               0
100
AcDbLine
 10
338.98720479809072
 20
-563.35995693350333
 30
0.0
 11
338.98720479809072
 21
-693.31712714024411
 31
0.0
  0
LINE
  5
BC
100
AcDbEntity
  8
0
370
              -2
390
0
  6
Continuous
 62
               0
100
AcDbLine
 10
453.98720479809072
 20
-563.35995693350333
 30
0.0
 11
453.98720479809072
 21
-693.31712714024411
 31
0.0
  0
LINE
  5
BD
100
AcDbEntity
  8
0
370
              -2
390
0
  6
Continuous
 62
               0
100
AcDbLine
 10
338.98720479809072
 20
-693.31712714024411
 30
0.0
 11
453.98720479809072
 21
-693.31712714024411
 31
0.0
  0
CIRCLE
  5
BE
102
{ACAD_REACTORS
330
BF
102
}
100
AcDbEntity
  8
0
370
              -2
390
0
  6
Continuous
 62
               0
100
AcDbCircle
 10
338.98720479809072
 20
-693.31712714024411
 30
0.0
 40
1.9998779296875
  0
HATCH
  5
BF
100
AcDbEntity
  8
0
370
              -2
390
0
  6
Continuous
 62
               0
100
AcDbHatch
 10
0.0
 20
0.0
 30
0.0
210
0.0
220
0.0
230
1.0
  2
SOLID
 70
               1
 71
               1
 91
        1
 92
        1
 93
        1
 72
               2
 10
338.98720479809072
 20
-693.31712714024411
 40
1.9998779296875
 50
0.0
 51
360.0
 73
               0
 97
        1
330
BE
 75
               0
 76
               1
 98
        1
 10
0.0
 20
0.0
  0
CIRCLE
  5
C0
102
{ACAD_REACTORS
330
C1
102
}
100
AcDbEntity
  8
0
370
              -2
390
0
  6
Continuous
 62
               0
100
AcDbCircle
 10
453.98720479809072
 20
-693.31712714024411
 30
0.0
 40
1.9998779296875
  0
HATCH
  5
C1
100
AcDbEntity
  8
0
370
              -2
390
0
  6
Continuous
 62
               0
100
AcDbHatch
 10
0.0
 20
0.0
 30
0.0
210
0.0
220
0.0
230
1.0
  2
SOLID
 70
               1
 71
               1
 91
        1
 92
        1
 93
        1
 72
               2
 10
453.98720479809072
 20
-693.31712714024411
 40
1.9998779296875
 50
0.0
 51
360.0
 73
               0
 97
        1
330
C0
 75
               0
 76
               1
 98
        1
 10
0.0
 20
0.0
  0
MTEXT
  5
C2
100
AcDbEntity
  8
0
390
0
 62
               0
100
AcDbMText
 10
372.67470311591524
 20
-659.43950995274417
 30
0.0
 40
24.432617187500004
 41
0.0
 71
               1
 72
               1
  1
115
  7
ＭＳ ゴシック
 73
               1
 44
0.7828267384257843
  0
POINT
  5
C3
100
AcDbEntity
  8
Defpoints
370
               0
390
0
 62
               0
100
AcDbPoint
 10
453.98720479809072
 20
-538.35995693350333
 30
0.0
  0
POINT
  5
C4
100
AcDbEntity
  8
Defpoints
370
               0
390
0
 62
               0
100
AcDbPoint
 10
338.98720479809072
 20
-538.35995693350333
 30
0.0
  0
POINT
  5
C5
100
AcDbEntity
  8
Defpoints
370
               0
390
0
 62
               0
100
AcDbPoint
 10
338.98720479809072
 20
-693.31712714024411
 30
0.0
  0
ENDBLK
  5
C6
100
AcDbEntity
  8
notes
390
0
100
AcDbBlockEnd
  0
BLOCK
  5
C7
100
AcDbEntity
  8
notes
390
0
100
AcDbBlockBegin
  2
*D11
 70
               1
 10
0.0
 20
0.0
 30
0.0
  3
*D11
  1

  0
LINE
  5
C8
100
AcDbEntity
  8
0
370
              -2
390
0
  6
Continuous
 62
               0
100
AcDbLine
 10
542.48720479809117
 20
-463.31712714024434
 30
0.0
 11
621.48720479809117
 21
-463.31712714024434
 31
0.0
  0
LINE
  5
C9
100
AcDbEntity
  8
0
370
              -2
390
0
  6
Continuous
 62
               0
100
AcDbLine
 10
499.27951280333536
 20
-518.31712714024388
 30
0.0
 11
621.48720479809117
 21
-518.31712714024388
 31
0.0
  0
LINE
  5
CA
100
AcDbEntity
  8
0
370
              -2
390
0
  6
Continuous
 62
               0
100
AcDbLine
 10
621.48720479809117
 20
-463.31712714024434
 30
0.0
 11
621.48720479809117
 21
-518.31712714024388
 31
0.0
  0
CIRCLE
  5
CB
102
{ACAD_REACTORS
330
CC
102
}
100
AcDbEntity
  8
0
370
              -2
390
0
  6
Continuous
 62
               0
100
AcDbCircle
 10
621.48720479809117
 20
-463.31712714024434
 30
0.0
 40
1.9998779296875
  0
HATCH
  5
CC
100
AcDbEntity
  8
0
370
              -2
390
0
  6
Continuous
 62
               0
100
AcDbHatch
 10
0.0
 20
0.0
 30
0.0
210
0.0
220
0.0
230
1.0
  2
SOLID
 70
               1
 71
               1
 91
        1
 92
        1
 93
        1
 72
               2
 10
621.48720479809117
 20
-463.31712714024434
 40
1.9998779296875
 50
0.0
 51
360.0
 73
               0
 97
        1
330
CB
 75
               0
 76
               1
 98
        1
 10
0.0
 20
0.0
  0
CIRCLE
  5
CD
102
{ACAD_REACTORS
330
CE
102
}
100
AcDbEntity
  8
0
370
              -2
390
0
  6
Continuous
 62
               0
100
AcDbCircle
 10
621.48720479809117
 20
-518.31712714024388
 30
0.0
 40
1.9998779296875
  0
HATCH
  5
CE
100
AcDbEntity
  8
0
370
              -2
390
0
  6
Continuous
 62
               0
100
AcDbHatch
 10
0.0
 20
0.0
 30
0.0
210
0.0
220
0.0
230
1.0
  2
SOLID
 70
               1
 71
               1
 91
        1
 92
        1
 93
        1
 72
               2
 10
621.48720479809117
 20
-518.31712714024388
 40
1.9998779296875
 50
0.0
 51
360.0
 73
               0
 97
        1
330
CD
 75
               0
 76
               1
 98
        1
 10
0.0
 20
0.0
  0
MTEXT
  5
CF
100
AcDbEntity
  8
0
390
0
 62
               0
100
AcDbMText
 10
587.60958761059101
 20
-506.69212714024411
 30
0.0
 40
24.432617187500004
 41
0.0
 71
               1
 72
               1
  1
55
  7
ＭＳ ゴシック
 11
0.0
 21
1.0
 31
0.0
 73
               1
 44
0.7828267384257843
  0
POINT
  5
D0
100
AcDbEntity
  8
Defpoints
370
               0
390
0
 62
               0
100
AcDbPoint
 10
474.27951280333536
 20
-518.31712714024388
 30
0.0
  0
POINT
  5
D1
100
AcDbEntity
  8
Defpoints
370
               0
390
0
 62
               0
100
AcDbPoint
 10
517.48720479809117
 20
-463.31712714024434
 30
0.0
  0
POINT
  5
D2
100
AcDbEntity
  8
Defpoints
370
               0
390
0
 62
               0
100
AcDbPoint
 10
621.48720479809117
 20
-463.31712714024434
 30
0.0
  0
ENDBLK
  5
D3
100
AcDbEntity
  8
notes
390
0
100
AcDbBlockEnd
  0
BLOCK
  5
D4
100
AcDbEntity
  8
notes
390
0
100
AcDbBlockBegin
  2
*D12
 70
               1
 10
0.0
 20
0.0
 30
0.0
  3
*D12
  1

  0
LINE
  5
D5
100
AcDbEntity
  8
0
370
              -2
390
0
  6
Continuous
 62
               0
100
AcDbLine
 10
-168.72934746431338
 20
-463.31712714024388
 30
0.0
 11
-75.717866030279311
 21
-463.31712714024388
 31
0.0
  0
LINE
  5
D6
100
AcDbEntity
  8
0
370
              -2
390
0
  6
Continuous
 62
               0
100
AcDbLine
 10
-194.72934746431338
 20
-513.31712714024388
 30
0.0
 11
-75.717866030279311
 21
-513.31712714024388
 31
0.0
  0
LINE
  5
D7
100
AcDbEntity
  8
0
370
              -2
390
0
  6
Continuous
 62
               0
100
AcDbLine
 10
-75.717866030279311
 20
-463.31712714024388
 30
0.0
 11
-75.717866030279311
 21
-513.31712714024388
 31
0.0
  0
CIRCLE
  5
D8
102
{ACAD_REACTORS
330
D9
102
}
100
AcDbEntity
  8
0
370
              -2
390
0
  6
Continuous
 62
               0
100
AcDbCircle
 10
-75.717866030279311
 20
-463.31712714024388
 30
0.0
 40
1.9998779296875
  0
HATCH
  5
D9
100
AcDbEntity
  8
0
370
              -2
390
0
  6
Continuous
 62
               0
100
AcDbHatch
 10
0.0
 20
0.0
 30
0.0
210
0.0
220
0.0
230
1.0
  2
SOLID
 70
               1
 71
               1
 91
        1
 92
        1
 93
        1
 72
               2
 10
-75.717866030279311
 20
-463.31712714024388
 40
1.9998779296875
 50
0.0
 51
360.0
 73
               0
 97
        1
330
D8
 75
               0
 76
               1
 98
        1
 10
0.0
 20
0.0
  0
CIRCLE
  5
DA
102
{ACAD_REACTORS
330
DB
102
}
100
AcDbEntity
  8
0
370
              -2
390
0
  6
Continuous
 62
               0
100
AcDbCircle
 10
-75.717866030279311
 20
-513.31712714024388
 30
0.0
 40
1.9998779296875
  0
HATCH
  5
DB
100
AcDbEntity
  8
0
370
              -2
390
0
  6
Continuous
 62
               0
100
AcDbHatch
 10
0.0
 20
0.0
 30
0.0
210
0.0
220
0.0
230
1.0
  2
SOLID
 70
               1
 71
               1
 91
        1
 92
        1
 93
        1
 72
               2
 10
-75.717866030279311
 20
-513.31712714024388
 40
1.9998779296875
 50
0.0
 51
360.0
 73
               0
 97
        1
330
DA
 75
               0
 76
               1
 98
        1
 10
0.0
 20
0.0
  0
MTEXT
  5
DC
100
AcDbEntity
  8
0
390
0
 62
               0
100
AcDbMText
 10
-109.59548321777947
 20
-504.19212714024388
 30
0.0
 40
24.432617187500004
 41
0.0
 71
               1
 72
               1
  1
50
  7
ＭＳ ゴシック
 11
0.0
 21
1.0
 31
0.0
 73
               1
 44
0.7828267384257843
  0
POINT
  5
DD
100
AcDbEntity
  8
Defpoints
370
               0
390
0
 62
               0
100
AcDbPoint
 10
-219.72934746431338
 20
-513.31712714024388
 30
0.0
  0
POINT
  5
DE
100
AcDbEntity
  8
Defpoints
370
               0
390
0
 62
               0
100
AcDbPoint
 10
-193.72934746431338
 20
-463.31712714024388
 30
0.0
  0
POINT
  5
DF
100
AcDbEntity
  8
Defpoints
370
               0
390
0
 62
               0
100
AcDbPoint
 10
-75.717866030279311
 20
-463.31712714024388
 30
0.0
  0
ENDBLK
  5
E0
100
AcDbEntity
  8
notes
390
0
100
AcDbBlockEnd
  0
BLOCK
  5
E1
100
AcDbEntity
  8
notes
390
0
100
AcDbBlockBegin
  2
*D13
 70
               1
 10
0.0
 20
0.0
 30
0.0
  3
*D13
  1

  0
LINE
  5
E2
100
AcDbEntity
  8
0
370
              -2
390
0
  6
Continuous
 62
               0
100
AcDbLine
 10
-189.72934746431338
 20
-442.31712714024388
 30
0.0
 11
-189.72934746431338
 21
-363.31712714024388
 31
0.0
  0
LINE
  5
E3
100
AcDbEntity
  8
0
370
              -2
390
0
  6
Continuous
 62
               0
100
AcDbLine
 10
-239.72934746431338
 20
-468.31712714024388
 30
0.0
 11
-239.72934746431338
 21
-363.31712714024388
 31
0.0
  0
LINE
  5
E4
100
AcDbEntity
  8
0
370
              -2
390
0
  6
Continuous
 62
               0
100
AcDbLine
 10
-189.72934746431338
 20
-363.31712714024388
 30
0.0
 11
-239.72934746431338
 21
-363.31712714024388
 31
0.0
  0
CIRCLE
  5
E5
102
{ACAD_REACTORS
330
E6
102
}
100
AcDbEntity
  8
0
370
              -2
390
0
  6
Continuous
 62
               0
100
AcDbCircle
 10
-189.72934746431338
 20
-363.31712714024388
 30
0.0
 40
1.9998779296875
  0
HATCH
  5
E6
100
AcDbEntity
  8
0
370
              -2
390
0
  6
Continuous
 62
               0
100
AcDbHatch
 10
0.0
 20
0.0
 30
0.0
210
0.0
220
0.0
230
1.0
  2
SOLID
 70
               1
 71
               1
 91
        1
 92
        1
 93
        1
 72
               2
 10
-189.72934746431338
 20
-363.31712714024388
 40
1.9998779296875
 50
0.0
 51
360.0
 73
               0
 97
        1
330
E5
 75
               0
 76
               1
 98
        1
 10
0.0
 20
0.0
  0
CIRCLE
  5
E7
102
{ACAD_REACTORS
330
E8
102
}
100
AcDbEntity
  8
0
370
              -2
390
0
  6
Continuous
 62
               0
100
AcDbCircle
 10
-239.72934746431338
 20
-363.31712714024388
 30
0.0
 40
1.9998779296875
  0
HATCH
  5
E8
100
AcDbEntity
  8
0
370
              -2
390
0
  6
Continuous
 62
               0
100
AcDbHatch
 10
0.0
 20
0.0
 30
0.0
210
0.0
220
0.0
230
1.0
  2
SOLID
 70
               1
 71
               1
 91
        1
 92
        1
 93
        1
 72
               2
 10
-239.72934746431338
 20
-363.31712714024388
 40
1.9998779296875
 50
0.0
 51
360.0
 73
               0
 97
        1
330
E7
 75
               0
 76
               1
 98
        1
 10
0.0
 20
0.0
  0
MTEXT
  5
E9
100
AcDbEntity
  8
0
390
0
 62
               0
100
AcDbMText
 10
-230.60434746431338
 20
-329.43950995274395
 30
0.0
 40
24.432617187500004
 41
0.0
 71
               1
 72
               1
  1
50
  7
ＭＳ ゴシック
 73
               1
 44
0.7828267384257843
  0
POINT
  5
EA
100
AcDbEntity
  8
Defpoints
370
               0
390
0
 62
               0
100
AcDbPoint
 10
-239.72934746431338
 20
-493.31712714024388
 30
0.0
  0
POINT
  5
EB
100
AcDbEntity
  8
Defpoints
370
               0
390
0
 62
               0
100
AcDbPoint
 10
-189.72934746431338
 20
-467.31712714024388
 30
0.0
  0
POINT
  5
EC
100
AcDbEntity
  8
Defpoints
370
               0
390
0
 62
               0
100
AcDbPoint
 10
-189.72934746431338
 20
-363.31712714024388
 30
0.0
  0
ENDBLK
  5
ED
100
AcDbEntity
  8
notes
390
0
100
AcDbBlockEnd
  0
BLOCK
  5
EE
100
AcDbEntity
  8
notes
390
0
100
AcDbBlockBegin
  2
*D14
 70
               1
 10
0.0
 20
0.0
 30
0.0
  3
*D14
  1

  0
LINE
  5
EF
100
AcDbEntity
  8
0
370
              -2
390
0
  6
Continuous
 62
               0
100
AcDbLine
 10
-710.72934746431338
 20
-463.31712714024388
 30
0.0
 11
-789.72934746431338
 21
-463.31712714024388
 31
0.0
  0
LINE
  5
F0
100
AcDbEntity
  8
0
370
              -2
390
0
  6
Continuous
 62
               0
100
AcDbLine
 10
-694.72934746431338
 20
-533.31712714024388
 30
0.0
 11
-789.72934746431338
 21
-533.31712714024388
 31
0.0
  0
LINE
  5
F1
100
AcDbEntity
  8
0
370
              -2
390
0
  6
Continuous
 62
               0
100
AcDbLine
 10
-789.72934746431338
 20
-463.31712714024388
 30
0.0
 11
-789.72934746431338
 21
-533.31712714024388
 31
0.0
  0
CIRCLE
  5
F2
102
{ACAD_REACTORS
330
F3
102
}
100
AcDbEntity
  8
0
370
              -2
390
0
  6
Continuous
 62
               0
100
AcDbCircle
 10
-789.72934746431338
 20
-463.31712714024388
 30
0.0
 40
1.9998779296875
  0
HATCH
  5
F3
100
AcDbEntity
  8
0
370
              -2
390
0
  6
Continuous
 62
               0
100
AcDbHatch
 10
0.0
 20
0.0
 30
0.0
210
0.0
220
0.0
230
1.0
  2
SOLID
 70
               1
 71
               1
 91
        1
 92
        1
 93
        1
 72
               2
 10
-789.72934746431338
 20
-463.31712714024388
 40
1.9998779296875
 50
0.0
 51
360.0
 73
               0
 97
        1
330
F2
 75
               0
 76
               1
 98
        1
 10
0.0
 20
0.0
  0
CIRCLE
  5
F4
102
{ACAD_REACTORS
330
F5
102
}
100
AcDbEntity
  8
0
370
              -2
390
0
  6
Continuous
 62
               0
100
AcDbCircle
 10
-789.72934746431338
 20
-533.31712714024388
 30
0.0
 40
1.9998779296875
  0
HATCH
  5
F5
100
AcDbEntity
  8
0
370
              -2
390
0
  6
Continuous
 62
               0
100
AcDbHatch
 10
0.0
 20
0.0
 30
0.0
210
0.0
220
0.0
230
1.0
  2
SOLID
 70
               1
 71
               1
 91
        1
 92
        1
 93
        1
 72
               2
 10
-789.72934746431338
 20
-533.31712714024388
 40
1.9998779296875
 50
0.0
 51
360.0
 73
               0
 97
        1
330
F4
 75
               0
 76
               1
 98
        1
 10
0.0
 20
0.0
  0
MTEXT
  5
F6
100
AcDbEntity
  8
0
390
0
 62
               0
100
AcDbMText
 10
-823.60696465181354
 20
-514.19212714024388
 30
0.0
 40
24.432617187500004
 41
0.0
 71
               1
 72
               1
  1
70
  7
ＭＳ ゴシック
 11
0.0
 21
1.0
 31
0.0
 73
               1
 44
0.7828267384257843
  0
POINT
  5
F7
100
AcDbEntity
  8
Defpoints
370
               0
390
0
 62
               0
100
AcDbPoint
 10
-669.72934746431338
 20
-533.31712714024388
 30
0.0
  0
POINT
  5
F8
100
AcDbEntity
  8
Defpoints
370
               0
390
0
 62
               0
100
AcDbPoint
 10
-685.72934746431338
 20
-463.31712714024388
 30
0.0
  0
POINT
  5
F9
100
AcDbEntity
  8
Defpoints
370
               0
390
0
 62
               0
100
AcDbPoint
 10
-789.72934746431338
 20
-463.31712714024388
 30
0.0
  0
ENDBLK
  5
FA
100
AcDbEntity
  8
notes
390
0
100
AcDbBlockEnd
  0
BLOCK
  5
FB
100
AcDbEntity
  8
notes
390
0
100
AcDbBlockBegin
  2
*D15
 70
               1
 10
0.0
 20
0.0
 30
0.0
  3
*D15
  1

  0
LINE
  5
FC
100
AcDbEntity
  8
0
370
              -2
390
0
  6
Continuous
 62
               0
100
AcDbLine
 10
-239.72934746431338
 20
-468.31712714024388
 30
0.0
 11
-239.72934746431338
 21
-363.31712714024388
 31
0.0
  0
LINE
  5
FD
100
AcDbEntity
  8
0
370
              -2
390
0
  6
Continuous
 62
               0
100
AcDbLine
 10
-649.72934746431338
 20
-488.31712714024388
 30
0.0
 11
-649.72934746431338
 21
-363.31712714024388
 31
0.0
  0
LINE
  5
FE
100
AcDbEntity
  8
0
370
              -2
390
0
  6
Continuous
 62
               0
100
AcDbLine
 10
-239.72934746431338
 20
-363.31712714024388
 30
0.0
 11
-649.72934746431338
 21
-363.31712714024388
 31
0.0
  0
CIRCLE
  5
FF
102
{ACAD_REACTORS
330
100
102
}
100
AcDbEntity
  8
0
370
              -2
390
0
  6
Continuous
 62
               0
100
AcDbCircle
 10
-239.72934746431338
 20
-363.31712714024388
 30
0.0
 40
1.9998779296875
  0
HATCH
  5
100
100
AcDbEntity
  8
0
370
              -2
390
0
  6
Continuous
 62
               0
100
AcDbHatch
 10
0.0
 20
0.0
 30
0.0
210
0.0
220
0.0
230
1.0
  2
SOLID
 70
               1
 71
               1
 91
        1
 92
        1
 93
        1
 72
               2
 10
-239.72934746431338
 20
-363.31712714024388
 40
1.9998779296875
 50
0.0
 51
360.0
 73
               0
 97
        1
330
FF
 75
               0
 76
               1
 98
        1
 10
0.0
 20
0.0
  0
CIRCLE
  5
101
102
{ACAD_REACTORS
330
102
102
}
100
AcDbEntity
  8
0
370
              -2
390
0
  6
Continuous
 62
               0
100
AcDbCircle
 10
-649.72934746431338
 20
-363.31712714024388
 30
0.0
 40
1.9998779296875
  0
HATCH
  5
102
100
AcDbEntity
  8
0
370
              -2
390
0
  6
Continuous
 62
               0
100
AcDbHatch
 10
0.0
 20
0.0
 30
0.0
210
0.0
220
0.0
230
1.0
  2
SOLID
 70
               1
 71
               1
 91
        1
 92
        1
 93
        1
 72
               2
 10
-649.72934746431338
 20
-363.31712714024388
 40
1.9998779296875
 50
0.0
 51
360.0
 73
               0
 97
        1
330
101
 75
               0
 76
               1
 98
        1
 10
0.0
 20
0.0
  0
MTEXT
  5
103
100
AcDbEntity
  8
0
390
0
 62
               0
100
AcDbMText
 10
-468.54184914648886
 20
-329.43950995274395
 30
0.0
 40
24.432617187500004
 41
0.0
 71
               1
 72
               1
  1
410
  7
ＭＳ ゴシック
 73
               1
 44
0.7828267384257843
  0
POINT
  5
104
100
AcDbEntity
  8
Defpoints
370
               0
390
0
 62
               0
100
AcDbPoint
 10
-649.72934746431338
 20
-513.31712714024388
 30
0.0
  0
POINT
  5
105
100
AcDbEntity
  8
Defpoints
370
               0
390
0
 62
               0
100
AcDbPoint
 10
-239.72934746431338
 20
-493.31712714024388
 30
0.0
  0
POINT
  5
106
100
AcDbEntity
  8
Defpoints
370
               0
390
0
 62
               0
100
AcDbPoint
 10
-239.72934746431338
 20
-363.31712714024388
 30
0.0
  0
ENDBLK
  5
107
100
AcDbEntity
  8
notes
390
0
100
AcDbBlockEnd
  0
BLOCK
  5
108
100
AcDbEntity
  8
notes
390
0
100
AcDbBlockBegin
  2
*D16
 70
               1
 10
0.0
 20
0.0
 30
0.0
  3
*D16
  1

  0
LINE
  5
109
100
AcDbEntity
  8
0
370
              -2
390
0
  6
Continuous
 62
               0
100
AcDbLine
 10
404.7123192023505
 20
551.48287285975596
 30
0.0
 11
404.7123192023505
 21
401.45712009004694
 31
0.0
  0
LINE
  5
10A
100
AcDbEntity
  8
0
370
              -2
390
0
  6
Continuous
 62
               0
100
AcDbLine
 10
704.7123192023505
 20
551.48287285975596
 30
0.0
 11
704.7123192023505
 21
401.45712009004694
 31
0.0
  0
LINE
  5
10B
100
AcDbEntity
  8
0
370
              -2
390
0
  6
Continuous
 62
               0
100
AcDbLine
 10
404.7123192023505
 20
401.45712009004694
 30
0.0
 11
704.7123192023505
 21
401.45712009004694
 31
0.0
  0
CIRCLE
  5
10C
102
{ACAD_REACTORS
330
10D
102
}
100
AcDbEntity
  8
0
370
              -2
390
0
  6
Continuous
 62
               0
100
AcDbCircle
 10
404.7123192023505
 20
401.45712009004694
 30
0.0
 40
1.9998779296875
  0
HATCH
  5
10D
100
AcDbEntity
  8
0
370
              -2
390
0
  6
Continuous
 62
               0
100
AcDbHatch
 10
0.0
 20
0.0
 30
0.0
210
0.0
220
0.0
230
1.0
  2
SOLID
 70
               1
 71
               1
 91
        1
 92
        1
 93
        1
 72
               2
 10
404.7123192023505
 20
401.45712009004694
 40
1.9998779296875
 50
0.0
 51
360.0
 73
               0
 97
        1
330
10C
 75
               0
 76
               1
 98
        1
 10
0.0
 20
0.0
  0
CIRCLE
  5
10E
102
{ACAD_REACTORS
330
10F
102
}
100
AcDbEntity
  8
0
370
              -2
390
0
  6
Continuous
 62
               0
100
AcDbCircle
 10
704.7123192023505
 20
401.45712009004694
 30
0.0
 40
1.9998779296875
  0
HATCH
  5
10F
100
AcDbEntity
  8
0
370
              -2
390
0
  6
Continuous
 62
               0
100
AcDbHatch
 10
0.0
 20
0.0
 30
0.0
210
0.0
220
0.0
230
1.0
  2
SOLID
 70
               1
 71
               1
 91
        1
 92
        1
 93
        1
 72
               2
 10
704.7123192023505
 20
401.45712009004694
 40
1.9998779296875
 50
0.0
 51
360.0
 73
               0
 97
        1
330
10E
 75
               0
 76
               1
 98
        1
 10
0.0
 20
0.0
  0
MTEXT
  5
110
100
AcDbEntity
  8
0
390
0
 62
               0
100
AcDbMText
 10
530.89981752017502
 20
435.33473727754694
 30
0.0
 40
24.432617187500004
 41
0.0
 71
               1
 72
               1
  1
300
  7
ＭＳ ゴシック
 73
               1
 44
0.7828267384257843
  0
POINT
  5
111
100
AcDbEntity
  8
Defpoints
370
               0
390
0
 62
               0
100
AcDbPoint
 10
704.7123192023505
 20
576.48287285975596
 30
0.0
  0
POINT
  5
112
100
AcDbEntity
  8
Defpoints
370
               0
390
0
 62
               0
100
AcDbPoint
 10
404.7123192023505
 20
576.48287285975596
 30
0.0
  0
POINT
  5
113
100
AcDbEntity
  8
Defpoints
370
               0
390
0
 62
               0
100
AcDbPoint
 10
404.7123192023505
 20
401.45712009004694
 30
0.0
  0
ENDBLK
  5
114
100
AcDbEntity
  8
notes
390
0
100
AcDbBlockEnd
  0
BLOCK
  5
115
100
AcDbEntity
  8
notes
390
0
100
AcDbBlockBegin
  2
*D17
 70
               1
 10
0.0
 20
0.0
 30
0.0
  3
*D17
  1

  0
LINE
  5
116
100
AcDbEntity
  8
0
370
              -2
390
0
  6
Continuous
 62
               0
100
AcDbLine
 10
379.7123192023505
 20
576.48287285975596
 30
0.0
 11
304.7123192023505
 21
576.48287285975596
 31
0.0
  0
LINE
  5
117
100
AcDbEntity
  8
0
370
              -2
390
0
  6
Continuous
 62
               0
100
AcDbLine
 10
379.7123192023505
 20
676.48287285975596
 30
0.0
 11
304.7123192023505
 21
676.48287285975596
 31
0.0
  0
LINE
  5
118
100
AcDbEntity
  8
0
370
              -2
390
0
  6
Continuous
 62
               0
100
AcDbLine
 10
304.7123192023505
 20
576.48287285975596
 30
0.0
 11
304.7123192023505
 21
676.48287285975596
 31
0.0
  0
CIRCLE
  5
119
102
{ACAD_REACTORS
330
11A
102
}
100
AcDbEntity
  8
0
370
              -2
390
0
  6
Continuous
 62
               0
100
AcDbCircle
 10
304.7123192023505
 20
576.48287285975596
 30
0.0
 40
1.9998779296875
  0
HATCH
  5
11A
100
AcDbEntity
  8
0
370
              -2
390
0
  6
Continuous
 62
               0
100
AcDbHatch
 10
0.0
 20
0.0
 30
0.0
210
0.0
220
0.0
230
1.0
  2
SOLID
 70
               1
 71
               1
 91
        1
 92
        1
 93
        1
 72
               2
 10
304.7123192023505
 20
576.48287285975596
 40
1.9998779296875
 50
0.0
 51
360.0
 73
               0
 97
        1
330
119
 75
               0
 76
               1
 98
        1
 10
0.0
 20
0.0
  0
CIRCLE
  5
11B
102
{ACAD_REACTORS
330
11C
102
}
100
AcDbEntity
  8
0
370
              -2
390
0
  6
Continuous
 62
               0
100
AcDbCircle
 10
304.7123192023505
 20
676.48287285975596
 30
0.0
 40
1.9998779296875
  0
HATCH
  5
11C
100
AcDbEntity
  8
0
370
              -2
390
0
  6
Continuous
 62
               0
100
AcDbHatch
 10
0.0
 20
0.0
 30
0.0
210
0.0
220
0.0
230
1.0
  2
SOLID
 70
               1
 71
               1
 91
        1
 92
        1
 93
        1
 72
               2
 10
304.7123192023505
 20
676.48287285975596
 40
1.9998779296875
 50
0.0
 51
360.0
 73
               0
 97
        1
330
11B
 75
               0
 76
               1
 98
        1
 10
0.0
 20
0.0
  0
MTEXT
  5
11D
100
AcDbEntity
  8
0
390
0
 62
               0
100
AcDbMText
 10
270.83470201485034
 20
602.67037117758036
 30
0.0
 40
24.432617187500004
 41
0.0
 71
               1
 72
               1
  1
100
  7
ＭＳ ゴシック
 11
0.0
 21
1.0
 31
0.0
 73
               1
 44
0.7828267384257843
  0
POINT
  5
11E
100
AcDbEntity
  8
Defpoints
370
               0
390
0
 62
               0
100
AcDbPoint
 10
404.7123192023505
 20
676.48287285975596
 30
0.0
  0
POINT
  5
11F
100
AcDbEntity
  8
Defpoints
370
               0
390
0
 62
               0
100
AcDbPoint
 10
404.7123192023505
 20
576.48287285975596
 30
0.0
  0
POINT
  5
120
100
AcDbEntity
  8
Defpoints
370
               0
390
0
 62
               0
100
AcDbPoint
 10
304.7123192023505
 20
576.48287285975596
 30
0.0
  0
ENDBLK
  5
121
100
AcDbEntity
  8
notes
390
0
100
AcDbBlockEnd
  0
BLOCK
  5
122
100
AcDbEntity
  8
notes
390
0
100
AcDbBlockBegin
  2
*D18
 70
               1
 10
0.0
 20
0.0
 30
0.0
  3
*D18
  1

  0
LINE
  5
123
100
AcDbEntity
  8
0
370
              -2
390
0
  6
Continuous
 62
               0
100
AcDbLine
 10
380.87951280333527
 20
676.48287285975596
 30
0.0
 11
304.71231920235095
 21
676.48287285975596
 31
0.0
  0
LINE
  5
124
100
AcDbEntity
  8
0
370
              -2
390
0
  6
Continuous
 62
               0
100
AcDbLine
 10
380.87951280333527
 20
751.45712009004694
 30
0.0
 11
304.71231920235095
 21
751.45712009004694
 31
0.0
  0
LINE
  5
125
100
AcDbEntity
  8
0
370
              -2
390
0
  6
Continuous
 62
               0
100
AcDbLine
 10
304.71231920235095
 20
676.48287285975596
 30
0.0
 11
304.71231920235095
 21
751.45712009004694
 31
0.0
  0
CIRCLE
  5
126
102
{ACAD_REACTORS
330
127
102
}
100
AcDbEntity
  8
0
370
              -2
390
0
  6
Continuous
 62
               0
100
AcDbCircle
 10
304.71231920235095
 20
676.48287285975596
 30
0.0
 40
1.9998779296875
  0
HATCH
  5
127
100
AcDbEntity
  8
0
370
              -2
390
0
  6
Continuous
 62
               0
100
AcDbHatch
 10
0.0
 20
0.0
 30
0.0
210
0.0
220
0.0
230
1.0
  2
SOLID
 70
               1
 71
               1
 91
        1
 92
        1
 93
        1
 72
               2
 10
304.71231920235095
 20
676.48287285975596
 40
1.9998779296875
 50
0.0
 51
360.0
 73
               0
 97
        1
330
126
 75
               0
 76
               1
 98
        1
 10
0.0
 20
0.0
  0
CIRCLE
  5
128
102
{ACAD_REACTORS
330
129
102
}
100
AcDbEntity
  8
0
370
              -2
390
0
  6
Continuous
 62
               0
100
AcDbCircle
 10
304.71231920235095
 20
751.45712009004694
 30
0.0
 40
1.9998779296875
  0
HATCH
  5
129
100
AcDbEntity
  8
0
370
              -2
390
0
  6
Continuous
 62
               0
100
AcDbHatch
 10
0.0
 20
0.0
 30
0.0
210
0.0
220
0.0
230
1.0
  2
SOLID
 70
               1
 71
               1
 91
        1
 92
        1
 93
        1
 72
               2
 10
304.71231920235095
 20
751.45712009004694
 40
1.9998779296875
 50
0.0
 51
360.0
 73
               0
 97
        1
330
128
 75
               0
 76
               1
 98
        1
 10
0.0
 20
0.0
  0
MTEXT
  5
12A
100
AcDbEntity
  8
0
390
0
 62
               0
100
AcDbMText
 10
270.83470201485079
 20
698.09499647490145
 30
0.0
 40
24.432617187500004
 41
0.0
 71
               1
 72
               1
  1
75
  7
ＭＳ ゴシック
 11
0.0
 21
1.0
 31
0.0
 73
               1
 44
0.7828267384257843
  0
POINT
  5
12B
100
AcDbEntity
  8
Defpoints
370
               0
390
0
 62
               0
100
AcDbPoint
 10
405.87951280333527
 20
751.45712009004694
 30
0.0
  0
POINT
  5
12C
100
AcDbEntity
  8
Defpoints
370
               0
390
0
 62
               0
100
AcDbPoint
 10
405.87951280333527
 20
676.48287285975596
 30
0.0
  0
POINT
  5
12D
100
AcDbEntity
  8
Defpoints
370
               0
390
0
 62
               0
100
AcDbPoint
 10
304.71231920235095
 20
676.48287285975596
 30
0.0
  0
ENDBLK
  5
12E
100
AcDbEntity
  8
notes
390
0
100
AcDbBlockEnd
  0
BLOCK
  5
12F
100
AcDbEntity
  8
notes
390
0
100
AcDbBlockBegin
  2
*D19
 70
               1
 10
0.0
 20
0.0
 30
0.0
  3
*D19
  1

  0
LINE
  5
130
100
AcDbEntity
  8
0
370
              -2
390
0
  6
Continuous
 62
               0
100
AcDbLine
 10
380.27951280333536
 20
-463.31712714024388
 30
0.0
 11
399.91233362710454
 21
-463.31712714024388
 31
0.0
  0
LINE
  5
131
100
AcDbEntity
  8
0
370
              -2
390
0
  6
Continuous
 62
               0
100
AcDbLine
 10
380.27951280333536
 20
-563.31712714024388
 30
0.0
 11
399.91233362710454
 21
-563.31712714024388
 31
0.0
  0
LINE
  5
132
100
AcDbEntity
  8
0
370
              -2
390
0
  6
Continuous
 62
               0
100
AcDbLine
 10
399.91233362710454
 20
-463.31712714024388
 30
0.0
 11
399.91233362710454
 21
-315.44212714024388
 31
0.0
  0
LINE
  5
133
100
AcDbEntity
  8
0
370
              -2
390
0
  6
Continuous
 62
               0
100
AcDbLine
 10
399.91233362710454
 20
-463.31712714024388
 30
0.0
 11
399.91233362710454
 21
-563.31712714024388
 31
0.0
  0
CIRCLE
  5
134
102
{ACAD_REACTORS
330
135
102
}
100
AcDbEntity
  8
0
370
              -2
390
0
  6
Continuous
 62
               0
100
AcDbCircle
 10
399.91233362710454
 20
-463.31712714024388
 30
0.0
 40
1.9998779296875
  0
HATCH
  5
135
100
AcDbEntity
  8
0
370
              -2
390
0
  6
Continuous
 62
               0
100
AcDbHatch
 10
0.0
 20
0.0
 30
0.0
210
0.0
220
0.0
230
1.0
  2
SOLID
 70
               1
 71
               1
 91
        1
 92
        1
 93
        1
 72
               2
 10
399.91233362710454
 20
-463.31712714024388
 40
1.9998779296875
 50
0.0
 51
360.0
 73
               0
 97
        1
330
134
 75
               0
 76
               1
 98
        1
 10
0.0
 20
0.0
  0
CIRCLE
  5
136
102
{ACAD_REACTORS
330
137
102
}
100
AcDbEntity
  8
0
370
              -2
390
0
  6
Continuous
 62
               0
100
AcDbCircle
 10
399.91233362710454
 20
-563.31712714024388
 30
0.0
 40
1.9998779296875
  0
HATCH
  5
137
100
AcDbEntity
  8
0
370
              -2
390
0
  6
Continuous
 62
               0
100
AcDbHatch
 10
0.0
 20
0.0
 30
0.0
210
0.0
220
0.0
230
1.0
  2
SOLID
 70
               1
 71
               1
 91
        1
 92
        1
 93
        1
 72
               2
 10
399.91233362710454
 20
-563.31712714024388
 40
1.9998779296875
 50
0.0
 51
360.0
 73
               0
 97
        1
330
136
 75
               0
 76
               1
 98
        1
 10
0.0
 20
0.0
  0
MTEXT
  5
138
100
AcDbEntity
  8
0
390
0
 62
               0
100
AcDbMText
 10
366.03471643960438
 20
-458.31712714024388
 30
0.0
 40
24.432617187500004
 41
0.0
 71
               1
 72
               1
  1
100(深さ)
  7
ＭＳ ゴシック
 11
0.0
 21
1.0
 31
0.0
 73
               1
 44
0.7828267384257843
  0
POINT
  5
139
100
AcDbEntity
  8
Defpoints
370
               0
390
0
 62
               0
100
AcDbPoint
 10
405.27951280333536
 20
-563.31712714024388
 30
0.0
  0
POINT
  5
13A
100
AcDbEntity
  8
Defpoints
370
               0
390
0
 62
               0
100
AcDbPoint
 10
405.27951280333536
 20
-463.31712714024388
 30
0.0
  0
POINT
  5
13B
100
AcDbEntity
  8
Defpoints
370
               0
390
0
 62
               0
100
AcDbPoint
 10
399.91233362710454
 20
-463.31712714024388
 30
0.0
  0
ENDBLK
  5
13C
100
AcDbEntity
  8
notes
390
0
100
AcDbBlockEnd
  0
BLOCK
  5
13D
100
AcDbEntity
  8
notes
390
0
100
AcDbBlockBegin
  2
*D20
 70
               1
 10
0.0
 20
0.0
 30
0.0
  3
*D20
  1

  0
LINE
  5
13E
100
AcDbEntity
  8
0
370
              -2
390
0
  6
Continuous
 62
               0
100
AcDbLine
 10
-649.72934746431338
 20
-488.31712714024388
 30
0.0
 11
-649.72934746431338
 21
-363.31712714024388
 31
0.0
  0
LINE
  5
13F
100
AcDbEntity
  8
0
370
              -2
390
0
  6
Continuous
 62
               0
100
AcDbLine
 10
-689.72934746431338
 20
-442.31712714024388
 30
0.0
 11
-689.72934746431338
 21
-363.31712714024388
 31
0.0
  0
LINE
  5
140
100
AcDbEntity
  8
0
370
              -2
390
0
  6
Continuous
 62
               0
100
AcDbLine
 10
-649.72934746431338
 20
-363.31712714024388
 30
0.0
 11
-689.72934746431338
 21
-363.31712714024388
 31
0.0
  0
CIRCLE
  5
141
102
{ACAD_REACTORS
330
142
102
}
100
AcDbEntity
  8
0
370
              -2
390
0
  6
Continuous
 62
               0
100
AcDbCircle
 10
-649.72934746431338
 20
-363.31712714024388
 30
0.0
 40
1.9998779296875
  0
HATCH
  5
142
100
AcDbEntity
  8
0
370
              -2
390
0
  6
Continuous
 62
               0
100
AcDbHatch
 10
0.0
 20
0.0
 30
0.0
210
0.0
220
0.0
230
1.0
  2
SOLID
 70
               1
 71
               1
 91
        1
 92
        1
 93
        1
 72
               2
 10
-649.72934746431338
 20
-363.31712714024388
 40
1.9998779296875
 50
0.0
 51
360.0
 73
               0
 97
        1
330
141
 75
               0
 76
               1
 98
        1
 10
0.0
 20
0.0
  0
CIRCLE
  5
143
102
{ACAD_REACTORS
330
144
102
}
100
AcDbEntity
  8
0
370
              -2
390
0
  6
Continuous
 62
               0
100
AcDbCircle
 10
-689.72934746431338
 20
-363.31712714024388
 30
0.0
 40
1.9998779296875
  0
HATCH
  5
144
100
AcDbEntity
  8
0
370
              -2
390
0
  6
Continuous
 62
               0
100
AcDbHatch
 10
0.0
 20
0.0
 30
0.0
210
0.0
220
0.0
230
1.0
  2
SOLID
 70
               1
 71
               1
 91
        1
 92
        1
 93
        1
 72
               2
 10
-689.72934746431338
 20
-363.31712714024388
 40
1.9998779296875
 50
0.0
 51
360.0
 73
               0
 97
        1
330
143
 75
               0
 76
               1
 98
        1
 10
0.0
 20
0.0
  0
MTEXT
  5
145
100
AcDbEntity
  8
0
390
0
 62
               0
100
AcDbMText
 10
-685.60434746431338
 20
-329.43950995274395
 30
0.0
 40
24.432617187500004
 41
0.0
 71
               1
 72
               1
  1
40
  7
ＭＳ ゴシック
 73
               1
 44
0.7828267384257843
  0
POINT
  5
146
100
AcDbEntity
  8
Defpoints
370
               0
390
0
 62
               0
100
AcDbPoint
 10
-689.72934746431338
 20
-467.31712714024388
 30
0.0
  0
POINT
  5
147
100
AcDbEntity
  8
Defpoints
370
               0
390
0
 62
               0
100
AcDbPoint
 10
-649.72934746431338
 20
-513.31712714024388
 30
0.0
  0
POINT
  5
148
100
AcDbEntity
  8
Defpoints
370
               0
390
0
 62
               0
100
AcDbPoint
 10
-649.72934746431338
 20
-363.31712714024388
 30
0.0
  0
ENDBLK
  5
149
100
AcDbEntity
  8
notes
390
0
100
AcDbBlockEnd
  0
BLOCK
  5
14A
100
AcDbEntity
  8
notes
390
0
100
AcDbBlockBegin
  2
*D21
 70
               1
 10
0.0
 20
0.0
 30
0.0
  3
*D21
  1

  0
LINE
  5
14B
100
AcDbEntity
  8
0
370
              -2
390
0
  6
Continuous
 62
               0
100
AcDbLine
 10
724.7123192023505
 20
480.45712009004694
 30
0.0
 11
724.7123192023505
 21
401.45712009004694
 31
0.0
  0
LINE
  5
14C
100
AcDbEntity
  8
0
370
              -2
390
0
  6
Continuous
 62
               0
100
AcDbLine
 10
704.7123192023505
 20
551.48287285975596
 30
0.0
 11
704.7123192023505
 21
401.45712009004694
 31
0.0
  0
LINE
  5
14D
100
AcDbEntity
  8
0
370
              -2
390
0
  6
Continuous
 62
               0
100
AcDbLine
 10
724.7123192023505
 20
401.45712009004694
 30
0.0
 11
763.02951280333491
 21
401.45712009004694
 31
0.0
  0
LINE
  5
14E
100
AcDbEntity
  8
0
370
              -2
390
0
  6
Continuous
 62
               0
100
AcDbLine
 10
724.7123192023505
 20
401.45712009004694
 30
0.0
 11
704.7123192023505
 21
401.45712009004694
 31
0.0
  0
CIRCLE
  5
14F
102
{ACAD_REACTORS
330
150
102
}
100
AcDbEntity
  8
0
370
              -2
390
0
  6
Continuous
 62
               0
100
AcDbCircle
 10
724.7123192023505
 20
401.45712009004694
 30
0.0
 40
1.9998779296875
  0
HATCH
  5
150
100
AcDbEntity
  8
0
370
              -2
390
0
  6
Continuous
 62
               0
100
AcDbHatch
 10
0.0
 20
0.0
 30
0.0
210
0.0
220
0.0
230
1.0
  2
SOLID
 70
               1
 71
               1
 91
        1
 92
        1
 93
        1
 72
               2
 10
724.7123192023505
 20
401.45712009004694
 40
1.9998779296875
 50
0.0
 51
360.0
 73
               0
 97
        1
330
14F
 75
               0
 76
               1
 98
        1
 10
0.0
 20
0.0
  0
CIRCLE
  5
151
102
{ACAD_REACTORS
330
152
102
}
100
AcDbEntity
  8
0
370
              -2
390
0
  6
Continuous
 62
               0
100
AcDbCircle
 10
704.7123192023505
 20
401.45712009004694
 30
0.0
 40
1.9998779296875
  0
HATCH
  5
152
100
AcDbEntity
  8
0
370
              -2
390
0
  6
Continuous
 62
               0
100
AcDbHatch
 10
0.0
 20
0.0
 30
0.0
210
0.0
220
0.0
230
1.0
  2
SOLID
 70
               1
 71
               1
 91
        1
 92
        1
 93
        1
 72
               2
 10
704.7123192023505
 20
401.45712009004694
 40
1.9998779296875
 50
0.0
 51
360.0
 73
               0
 97
        1
330
151
 75
               0
 76
               1
 98
        1
 10
0.0
 20
0.0
  0
MTEXT
  5
153
100
AcDbEntity
  8
0
390
0
 62
               0
100
AcDbMText
 10
731.27951280333491
 20
435.33473727754694
 30
0.0
 40
24.432617187500004
 41
0.0
 71
               1
 72
               1
  1
20
  7
ＭＳ ゴシック
 73
               1
 44
0.7828267384257843
  0
POINT
  5
154
100
AcDbEntity
  8
Defpoints
370
               0
390
0
 62
               0
100
AcDbPoint
 10
704.7123192023505
 20
576.48287285975596
 30
0.0
  0
POINT
  5
155
100
AcDbEntity
  8
Defpoints
370
               0
390
0
 62
               0
100
AcDbPoint
 10
724.7123192023505
 20
505.45712009004694
 30
0.0
  0
POINT
  5
156
100
AcDbEntity
  8
Defpoints
370
               0
390
0
 62
               0
100
AcDbPoint
 10
724.7123192023505
 20
401.45712009004694
 30
0.0
  0
ENDBLK
  5
157
100
AcDbEntity
  8
notes
390
0
100
AcDbBlockEnd
  0
BLOCK
  5
158
100
AcDbEntity
  8
notes
390
0
100
AcDbBlockBegin
  2
*D22
 70
               1
 10
0.0
 20
0.0
 30
0.0
  3
*D22
  1

  0
LINE
  5
159
100
AcDbEntity
  8
0
370
              -2
390
0
  6
Continuous
 62
               0
100
AcDbLine
 10
250.48720479809117
 20
-463.31712714024388
 30
0.0
 11
171.48720479809026
 21
-463.31712714024388
 31
0.0
  0
LINE
  5
15A
100
AcDbEntity
  8
0
370
              -2
390
0
  6
Continuous
 62
               0
100
AcDbLine
 10
250.48720479809026
 20
-593.31712714024388
 30
0.0
 11
171.48720479809026
 21
-593.31712714024388
 31
0.0
  0
LINE
  5
15B
100
AcDbEntity
  8
0
370
              -2
390
0
  6
Continuous
 62
               0
100
AcDbLine
 10
171.48720479809026
 20
-463.31712714024388
 30
0.0
 11
171.48720479809026
 21
-593.31712714024388
 31
0.0
  0
CIRCLE
  5
15C
102
{ACAD_REACTORS
330
15D
102
}
100
AcDbEntity
  8
0
370
              -2
390
0
  6
Continuous
 62
               0
100
AcDbCircle
 10
171.48720479809026
 20
-463.31712714024388
 30
0.0
 40
1.9998779296875
  0
HATCH
  5
15D
100
AcDbEntity
  8
0
370
              -2
390
0
  6
Continuous
 62
               0
100
AcDbHatch
 10
0.0
 20
0.0
 30
0.0
210
0.0
220
0.0
230
1.0
  2
SOLID
 70
               1
 71
               1
 91
        1
 92
        1
 93
        1
 72
               2
 10
171.48720479809026
 20
-463.31712714024388
 40
1.9998779296875
 50
0.0
 51
360.0
 73
               0
 97
        1
330
15C
 75
               0
 76
               1
 98
        1
 10
0.0
 20
0.0
  0
CIRCLE
  5
15E
102
{ACAD_REACTORS
330
15F
102
}
100
AcDbEntity
  8
0
370
              -2
390
0
  6
Continuous
 62
               0
100
AcDbCircle
 10
171.48720479809026
 20
-593.31712714024388
 30
0.0
 40
1.9998779296875
  0
HATCH
  5
15F
100
AcDbEntity
  8
0
370
              -2
390
0
  6
Continuous
 62
               0
100
AcDbHatch
 10
0.0
 20
0.0
 30
0.0
210
0.0
220
0.0
230
1.0
  2
SOLID
 70
               1
 71
               1
 91
        1
 92
        1
 93
        1
 72
               2
 10
171.48720479809026
 20
-593.31712714024388
 40
1.9998779296875
 50
0.0
 51
360.0
 73
               0
 97
        1
330
15E
 75
               0
 76
               1
 98
        1
 10
0.0
 20
0.0
  0
MTEXT
  5
160
100
AcDbEntity
  8
0
390
0
 62
               0
100
AcDbMText
 10
137.6095876105901
 20
-552.12962882241936
 30
0.0
 40
24.432617187500004
 41
0.0
 71
               1
 72
               1
  1
130
  7
ＭＳ ゴシック
 11
0.0
 21
1.0
 31
0.0
 73
               1
 44
0.7828267384257843
  0
POINT
  5
161
100
AcDbEntity
  8
Defpoints
370
               0
390
0
 62
               0
100
AcDbPoint
 10
275.48720479809026
 20
-593.31712714024388
 30
0.0
  0
POINT
  5
162
100
AcDbEntity
  8
Defpoints
370
               0
390
0
 62
               0
100
AcDbPoint
 10
275.48720479809117
 20
-463.31712714024388
 30
0.0
  0
POINT
  5
163
100
AcDbEntity
  8
Defpoints
370
               0
390
0
 62
               0
100
AcDbPoint
 10
171.48720479809026
 20
-463.31712714024388
 30
0.0
  0
ENDBLK
  5
164
100
AcDbEntity
  8
notes
390
0
100
AcDbBlockEnd
  0
ENDSEC
  0
SECTION
  2
ENTITIES
  0
MTEXT
  5
165
100
AcDbEntity
  8
template
390
0
 62
               7
100
AcDbMText
 10
-967.99999999975898
 20
-1147.4176292337004
 30
0.0
 40
16.288411458333332
 41
0.0
 71
               1
 72
               1
  1
品名
  7
ＭＳ ゴシック
 73
               1
 44
0.7828267384257843
  0
MTEXT
  5
166
100
AcDbEntity
  8
template
390
0
 62
               7
100
AcDbMText
 10
-967.99999999975898
 20
-1232.4176292337006
 30
0.0
 40
16.288411458333332
 41
0.0
 71
               1
 72
               1
  1
仕様
  7
ＭＳ ゴシック
 73
               1
 44
0.7828267384257843
  0
MTEXT
  5
167
100
AcDbEntity
  8
template
390
0
 62
               7
100
AcDbMText
 10
-914.99999999975898
 20
-1176.0000901712006
 30
0.0
 40
24.432617187500004
 41
0.0
 71
               1
 72
               1
  1
手洗器 -CATALANO,Verso-
  7
ＭＳ ゴシック
 73
               1
 44
0.7828267384257843
  0
LINE
  5
168
100
AcDbEntity
  8
template
370
               5
390
0
  6
Continuous
 62
               7
100
AcDbLine
 10
974.99999999975876
 20
-1224.0027073587007
 30
0.0
 11
-975.00000000024102
 21
-1224.0027073587007
 31
0.0
  0
LWPOLYLINE
  5
169
100
AcDbEntity
  8
template
370
               5
390
0
  6
Continuous
 62
               7
100
AcDbPolyline
 90
        5
 70
             128
 10
975.00000000024124
 20
1405.9972926412995
 10
-974.99999999975898
 20
1405.9972926412995
 10
-974.99999999975898
 20
-1394.0027073587007
 10
975.00000000024124
 20
-1394.0027073587007
 10
975.00000000024124
 20
1405.9972926412995
  0
LINE
  5
16A
100
AcDbEntity
  8
template
370
               5
390
0
  6
Continuous
 62
               7
100
AcDbLine
 10
974.99999999975876
 20
-1139.0027073587005
 30
0.0
 11
-975.00000000024102
 21
-1139.0027073587005
 31
0.0
  0
LINE
  5
16B
100
AcDbEntity
  8
template
370
               5
390
0
  6
Continuous
 62
               7
100
AcDbLine
 10
975.00000000024124
 20
-1309.0027073587007
 30
0.0
 11
222.00000000024102
 21
-1309.0027073587007
 31
0.0
  0
MTEXT
  5
16C
100
AcDbEntity
  8
template
390
0
 62
               7
100
AcDbMText
 10
-974.99999999955617
 20
-1405.8565294155578
 30
0.0
 40
21.717881944444446
 41
0.0
 71
               1
 72
               1
  1
100707SH
  7
ＭＳ ゴシック
 73
               1
 44
0.7828267384257843
  0
MTEXT
  5
16D
100
AcDbEntity
  8
template
390
0
 62
               7
100
AcDbMText
 10
251.87140625250095
 20
-1338.9131018320081
 30
0.0
 40
24.432617187500004
 41
0.0
 71
               1
 72
               1
  1
大洋金物株式会社 ティーフォルム事業部
  7
ＭＳ ゴシック
 73
               1
 44
0.7828267384257843
  0
INSERT
  5
16E
100
AcDbEntity
  8
template
390
0
 62
               7
100
AcDbBlockReference
  2
グループ
 10
2856.05039103532
 20
826.70956597251097
 30
0.0
  0
MTEXT
  5
16F
100
AcDbEntity
  8
template
390
0
 62
               7
100
AcDbMText
 10
784.00000000050022
 20
-1261.0000901712006
 30
0.0
 40
24.432617187500004
 41
0.0
 71
               1
 72
               1
  1
1:10
  7
ＭＳ ゴシック
 73
               1
 44
0.7828267384257843
  0
MTEXT
  5
170
100
AcDbEntity
  8
template
390
0
 62
               7
100
AcDbMText
 10
731.00000000050022
 20
-1232.4176292337006
 30
0.0
 40
16.288411458333332
 41
0.0
 71
               1
 72
               1
  1
縮尺
  7
ＭＳ ゴシック
 73
               1
 44
0.7828267384257843
  0
LINE
  5
171
100
AcDbEntity
  8
template
370
               5
390
0
  6
Continuous
 62
               7
100
AcDbLine
 10
724.00000000050022
 20
-1309.0027073587007
 30
0.0
 11
724.00000000050022
 21
-1224.0027073587007
 31
0.0
  0
MTEXT
  5
172
100
AcDbEntity
  8
template
390
0
 62
               7
100
AcDbMText
 10
480.00000000050022
 20
-1232.4176292337006
 30
0.0
 40
16.288411458333332
 41
0.0
 71
               1
 72
               1
  1
容量
  7
ＭＳ ゴシック
 73
               1
 44
0.7828267384257843
  0
MTEXT
  5
173
100
AcDbEntity
  8
template
390
0
 62
               7
100
AcDbMText
 10
533.00000000050022
 20
-1261.0000901712006
 30
0.0
 40
24.432617187500004
 41
0.0
 71
               1
 72
               1
  1
5.5L
  7
ＭＳ ゴシック
 73
               1
 44
0.7828267384257843
  0
LINE
  5
174
100
AcDbEntity
  8
template
370
               5
390
0
  6
Continuous
 62
               7
100
AcDbLine
 10
473.00000000050022
 20
-1309.0027073587007
 30
0.0
 11
473.00000000050022
 21
-1224.0027073587007
 31
0.0
  0
MTEXT
  5
175
100
AcDbEntity
  8
template
390
0
 62
               7
100
AcDbMText
 10
229.00000000050022
 20
-1147.4176292337004
 30
0.0
 40
16.288411458333332
 41
0.0
 71
               1
 72
               1
  1
品番
  7
ＭＳ ゴシック
 73
               1
 44
0.7828267384257843
  0
MTEXT
  5
176
100
AcDbEntity
  8
template
390
0
 62
               7
100
AcDbMText
 10
229.00000000050022
 20
-1232.4176292337006
 30
0.0
 40
16.288411458333332
 41
0.0
 71
               1
 72
               1
  1
重量
  7
ＭＳ ゴシック
 73
               1
 44
0.7828267384257843
  0
MTEXT
  5
177
100
AcDbEntity
  8
template
390
0
 62
               7
100
AcDbMText
 10
282.00000000050022
 20
-1176.0000901712006
 30
0.0
 40
24.432617187500004
 41
0.0
 71
               1
 72
               1
  1
ADF70-0602
  7
ＭＳ ゴシック
 73
               1
 44
0.7828267384257843
  0
MTEXT
  5
178
100
AcDbEntity
  8
template
390
0
 62
               7
100
AcDbMText
 10
282.00000000050022
 20
-1261.0000901712006
 30
0.0
 40
24.432617187500004
 41
0.0
 71
               1
 72
               1
  1
10kg
  7
ＭＳ ゴシック
 73
               1
 44
0.7828267384257843
  0
LINE
  5
179
100
AcDbEntity
  8
template
370
               5
390
0
  6
Continuous
 62
               7
100
AcDbLine
 10
222.00000000050022
 20
-1394.0027073587007
 30
0.0
 11
222.00000000050022
 21
-1139.0027073587005
 31
0.0
  0
MTEXT
  5
17A
100
AcDbEntity
  8
template
390
0
 62
               7
100
AcDbMText
 10
-914.99999999975898
 20
-1261.0000901712001
 30
0.0
 40
24.432617187500004
 41
0.0
 71
               1
 72
               1
  1
壁掛け,カウンタ ー置き/オーバーフローなし/壁取付ボルト付属/\P陶器,背面釉薬あり/ホワイト
  7
ＭＳ ゴシック
 73
               1
 44
1.3047112307096407
  0
MTEXT
  5
17B
100
AcDbEntity
  8
notes
390
0
 62
               7
100
AcDbMText
 10
-847.72048719666464
 20
135.33595052083342
 30
0.0
 40
24.432617187500004
 41
835.0
 71
               1
 72
               1
  1
＝φ30もしくはφ35の水栓取付用穴あけ加工を承ります。\P  必要な場合、ご注文の際にご指示ください。
  7
ＭＳ ゴシック
 73
               1
 44
1.0437689845677123
  0
MTEXT
  5
17C
100
AcDbEntity
  8
notes
390
0
 62
               7
100
AcDbMText
 10
-170.54270941888672
 20
-374.55883502830784
 30
0.0
 40
24.432617187500004
 41
0.0
 71
               1
 72
               1
  1
壁取付ボルト位置(2ヶ所)
  7
ＭＳ ゴシック
 73
               1
 44
0.7828267384257843
  0
MTEXT
  5
17D
100
AcDbEntity
  8
notes
390
0
 62
               7
100
AcDbMText
 10
334.40451280333536
 20
996.68549004725605
 30
0.0
 40
24.432617187500004
 41
0.0
 71
               1
 72
               1
  1
カウンター切込寸法
  7
ＭＳ ゴシック
 73
               1
 44
0.7828267384257843
  0
LINE
  5
17E
100
AcDbEntity
  8
notes
370
               5
390
0
  6
Continuous
 62
               7
100
AcDbLine
 10
-239.72934746431338
 20
-513.31712714024388
 30
0.0
 11
-152.72048719666464
 21
-404.31712714024388
 31
0.0
  0
CIRCLE
  5
17F
100
AcDbEntity
  8
notes
370
              15
390
0
  6
STYLE_12
 62
               7
100
AcDbCircle
 10
-872.72048719666464
 20
121.682872859756
 30
0.0
 40
17.5
  0
MTEXT
  5
180
100
AcDbEntity
  8
notes
390
0
 62
               7
100
AcDbMText
 10
68.59854368285005
 20
135.33595052083342
 30
0.0
 40
24.432617187500004
 41
770.0
 71
               1
 72
               1
  1
※陶器製品には寸法公差があります。\P  洗面器の収め方をご確認の上、必ず現物を合わせて\P  カウンターに切込を行ってください。
  7
ＭＳ ゴシック
 73
               1
 44
1.0437689845677123
  0
DIMENSION
  5
181
100
AcDbEntity
  8
notes
370
               5
390
0
  6
Continuous
 62
               7
100
AcDbDimension
  2
*D3
 10
-689.72934746431292
 20
901.45712009004694
 30
0.0
 11
-439.72934746431292
 21
901.45712009004694
 31
0.0
 71
               5
 72
               1
 41
1.0
 42
0.0
  3
tform線あり
100
AcDbAlignedDimension
 13
-189.72934746431338
 23
747.45712009004694
 33
0.0
 14
-689.72934746431292
 24
747.45712009004671
 34
0.0
100
AcDbRotatedDimension
1001
ACAD
1000
DSTYLE
1002
{
1070
             279
1070
               2
1070
             340
1005
38
1070
             147
1040
5.0
1002
}
  0
DIMENSION
  5
182
100
AcDbEntity
  8
notes
370
               5
390
0
  6
Continuous
 62
               7
100
AcDbDimension
  2
*D4
 10
-249.72934746431338
 20
851.45712009004694
 30
0.0
 11
-219.72934746431338
 21
851.45712009004694
 31
0.0
 71
               5
 72
               1
 41
1.0
 42
0.0
  3
tform線あり
100
AcDbAlignedDimension
 13
-189.72934746431338
 23
747.45712009004694
 33
0.0
 14
-249.72934746431338
 24
643.95712009004694
 34
0.0
100
AcDbRotatedDimension
1001
ACAD
1000
DSTYLE
1002
{
1070
             279
1070
               2
1070
             340
1005
38
1070
             147
1040
5.0
1002
}
  0
DIMENSION
  5
183
100
AcDbEntity
  8
notes
370
               5
390
0
  6
Continuous
 62
               7
100
AcDbDimension
  2
*D5
 10
-89.729347464313378
 20
751.45712009004694
 30
0.0
 11
-89.729347464313378
 21
626.45712009004694
 31
0.0
 71
               5
 72
               1
 41
1.0
 42
0.0
  3
tform線あり
100
AcDbAlignedDimension
 13
-193.72934746431338
 23
501.45712009004694
 33
0.0
 14
-193.72934746431338
 24
751.45712009004694
 34
0.0
 50
90.0
100
AcDbRotatedDimension
1001
ACAD
1000
DSTYLE
1002
{
1070
             279
1070
               2
1070
             340
1005
38
1070
             147
1040
5.0
1002
}
  0
DIMENSION
  5
184
100
AcDbEntity
  8
notes
370
               5
390
0
  6
Continuous
 62
               7
100
AcDbDimension
  2
*D6
 10
-289.72934746431338
 20
401.45712009004694
 30
0.0
 11
-239.72934746431338
 21
401.45712009004694
 31
0.0
 71
               5
 72
               1
 41
1.0
 42
0.0
  3
tform線あり
100
AcDbAlignedDimension
 13
-189.72934746431338
 23
505.45712009004671
 33
0.0
 14
-289.72934746431338
 24
501.45712009004694
 34
0.0
100
AcDbRotatedDimension
1001
ACAD
1000
DSTYLE
1002
{
1070
             279
1070
               2
1070
             340
1005
38
1070
             147
1040
5.0
1002
}
  0
DIMENSION
  5
185
100
AcDbEntity
  8
notes
370
               5
390
0
  6
Continuous
 62
               7
100
AcDbDimension
  2
*D7
 10
-289.72934746431338
 20
401.45712009004694
 30
0.0
 11
-477.22934746431338
 21
401.45712009004694
 31
0.0
 71
               5
 72
               1
 41
1.0
 42
0.0
  3
tform線あり
100
AcDbAlignedDimension
 13
-664.72934746431338
 23
501.45712009004694
 33
0.0
 14
-289.72934746431338
 24
501.45712009004694
 34
0.0
100
AcDbRotatedDimension
1001
ACAD
1000
DSTYLE
1002
{
1070
             279
1070
               2
1070
             340
1005
38
1070
             147
1040
5.0
1002
}
  0
DIMENSION
  5
186
100
AcDbEntity
  8
notes
370
               5
390
0
  6
Continuous
 62
               7
100
AcDbDimension
  2
*D8
 10
-789.72934746431292
 20
726.45712009004649
 30
0.0
 11
-789.72934746431292
 21
626.45712009004671
 31
0.0
 71
               5
 72
               1
 41
1.0
 42
0.0
  3
tform線あり
100
AcDbAlignedDimension
 13
-689.72934746431292
 23
526.45712009004694
 33
0.0
 14
-689.72934746431292
 24
726.45712009004649
 34
0.0
 50
90.0
100
AcDbRotatedDimension
1001
ACAD
1000
DSTYLE
1002
{
1070
             279
1070
               2
1070
             340
1005
38
1070
             147
1040
5.0
1002
}
  0
DIMENSION
  5
187
100
AcDbEntity
  8
notes
370
               5
390
0
  6
Continuous
 62
               7
100
AcDbDimension
  2
*D9
 10
-189.72934746431338
 20
-693.31712714024388
 30
0.0
 11
-339.71786603027931
 21
-688.31712714024388
 31
0.0
 70
             128
 71
               5
 72
               1
 41
1.0
 42
0.0
  3
tform線あり
100
AcDbAlignedDimension
 13
-474.72934746431338
 23
-593.31712714024388
 33
0.0
 14
-189.72934746431338
 24
-591.31712714024388
 34
0.0
100
AcDbRotatedDimension
1001
ACAD
1000
DSTYLE
1002
{
1070
             279
1070
               2
1070
             340
1005
38
1070
             147
1040
5.0
1002
}
  0
DIMENSION
  5
188
100
AcDbEntity
  8
notes
370
               5
390
0
  6
Continuous
 62
               7
100
AcDbDimension
  2
*D10
 10
338.98720479809072
 20
-693.31712714024411
 30
0.0
 11
396.48720479809072
 21
-693.31712714024411
 31
0.0
 71
               5
 72
               1
 41
1.0
 42
0.0
  3
tform線あり
100
AcDbAlignedDimension
 13
453.98720479809072
 23
-538.35995693350333
 33
0.0
 14
338.98720479809072
 24
-538.35995693350333
 34
0.0
100
AcDbRotatedDimension
1001
ACAD
1000
DSTYLE
1002
{
1070
             279
1070
               2
1070
             340
1005
38
1070
             147
1040
5.0
1002
}
  0
DIMENSION
  5
189
100
AcDbEntity
  8
notes
370
               5
390
0
  6
Continuous
 62
               7
100
AcDbDimension
  2
*D11
 10
621.48720479809117
 20
-463.31712714024434
 30
0.0
 11
621.48720479809117
 21
-490.81712714024411
 31
0.0
 71
               5
 72
               1
 41
1.0
 42
0.0
  3
tform線あり
100
AcDbAlignedDimension
 13
474.27951280333536
 23
-518.31712714024388
 33
0.0
 14
517.48720479809117
 24
-463.31712714024434
 34
0.0
 50
90.0
100
AcDbRotatedDimension
1001
ACAD
1000
DSTYLE
1002
{
1070
             279
1070
               2
1070
             340
1005
38
1070
             147
1040
5.0
1002
}
  0
DIMENSION
  5
18A
100
AcDbEntity
  8
notes
370
               5
390
0
  6
Continuous
 62
               7
100
AcDbDimension
  2
*D12
 10
-75.717866030279311
 20
-463.31712714024388
 30
0.0
 11
-75.717866030279311
 21
-488.31712714024388
 31
0.0
 71
               5
 72
               1
 41
1.0
 42
0.0
  3
tform線あり
100
AcDbAlignedDimension
 13
-219.72934746431338
 23
-513.31712714024388
 33
0.0
 14
-193.72934746431338
 24
-463.31712714024388
 34
0.0
 50
90.0
100
AcDbRotatedDimension
1001
ACAD
1000
DSTYLE
1002
{
1070
             279
1070
               2
1070
             340
1005
38
1070
             147
1040
5.0
1002
}
  0
DIMENSION
  5
18B
100
AcDbEntity
  8
notes
370
               5
390
0
  6
Continuous
 62
               7
100
AcDbDimension
  2
*D13
 10
-189.72934746431338
 20
-363.31712714024388
 30
0.0
 11
-214.72934746431338
 21
-358.31712714024388
 31
0.0
 70
             128
 71
               5
 72
               1
 41
1.0
 42
0.0
  3
tform線あり
100
AcDbAlignedDimension
 13
-239.72934746431338
 23
-493.31712714024388
 33
0.0
 14
-189.72934746431338
 24
-467.31712714024388
 34
0.0
100
AcDbRotatedDimension
1001
ACAD
1000
DSTYLE
1002
{
1070
             279
1070
               2
1070
             340
1005
38
1070
             147
1040
5.0
1002
}
  0
DIMENSION
  5
18C
100
AcDbEntity
  8
notes
370
               5
390
0
  6
Continuous
 62
               7
100
AcDbDimension
  2
*D14
 10
-789.72934746431338
 20
-463.31712714024388
 30
0.0
 11
-789.72934746431338
 21
-498.31712714024388
 31
0.0
 71
               5
 72
               1
 41
1.0
 42
0.0
  3
tform線あり
100
AcDbAlignedDimension
 13
-669.72934746431338
 23
-533.31712714024388
 33
0.0
 14
-685.72934746431338
 24
-463.31712714024388
 34
0.0
 50
90.0
100
AcDbRotatedDimension
1001
ACAD
1000
DSTYLE
1002
{
1070
             279
1070
               2
1070
             340
1005
38
1070
             147
1040
5.0
1002
}
  0
DIMENSION
  5
18D
100
AcDbEntity
  8
notes
370
               5
390
0
  6
Continuous
 62
               7
100
AcDbDimension
  2
*D15
 10
-239.72934746431338
 20
-363.31712714024388
 30
0.0
 11
-444.72934746431338
 21
-363.31712714024388
 31
0.0
 71
               5
 72
               1
 41
1.0
 42
0.0
  3
tform線あり
100
AcDbAlignedDimension
 13
-649.72934746431338
 23
-513.31712714024388
 33
0.0
 14
-239.72934746431338
 24
-493.31712714024388
 34
0.0
100
AcDbRotatedDimension
1001
ACAD
1000
DSTYLE
1002
{
1070
             279
1070
               2
1070
             340
1005
38
1070
             147
1040
5.0
1002
}
  0
DIMENSION
  5
18E
100
AcDbEntity
  8
notes
370
               5
390
0
  6
Continuous
 62
               7
100
AcDbDimension
  2
*D16
 10
404.7123192023505
 20
401.45712009004694
 30
0.0
 11
554.7123192023505
 21
401.45712009004694
 31
0.0
 71
               5
 72
               1
 41
1.0
 42
0.0
  3
tform線あり
100
AcDbAlignedDimension
 13
704.7123192023505
 23
576.48287285975596
 33
0.0
 14
404.7123192023505
 24
576.48287285975596
 34
0.0
100
AcDbRotatedDimension
1001
ACAD
1000
DSTYLE
1002
{
1070
             279
1070
               2
1070
             340
1005
38
1070
             147
1040
5.0
1002
}
  0
DIMENSION
  5
18F
100
AcDbEntity
  8
notes
370
               5
390
0
  6
Continuous
 62
               7
100
AcDbDimension
  2
*D17
 10
304.7123192023505
 20
576.48287285975596
 30
0.0
 11
304.7123192023505
 21
626.48287285975596
 31
0.0
 71
               5
 72
               1
 41
1.0
 42
0.0
  3
tform線あり
100
AcDbAlignedDimension
 13
404.7123192023505
 23
676.48287285975596
 33
0.0
 14
404.7123192023505
 24
576.48287285975596
 34
0.0
 50
90.0
100
AcDbRotatedDimension
1001
ACAD
1000
DSTYLE
1002
{
1070
             279
1070
               2
1070
             340
1005
38
1070
             147
1040
5.0
1002
}
  0
DIMENSION
  5
190
100
AcDbEntity
  8
notes
370
               5
390
0
  6
Continuous
 62
               7
100
AcDbDimension
  2
*D18
 10
304.71231920235095
 20
676.48287285975596
 30
0.0
 11
304.71231920235095
 21
713.96999647490145
 31
0.0
 71
               5
 72
               1
 41
1.0
 42
0.0
  3
tform線あり
100
AcDbAlignedDimension
 13
405.87951280333527
 23
751.45712009004694
 33
0.0
 14
405.87951280333527
 24
676.48287285975596
 34
0.0
 50
90.0
100
AcDbRotatedDimension
1001
ACAD
1000
DSTYLE
1002
{
1070
             279
1070
               2
1070
             340
1005
38
1070
             147
1040
5.0
1002
}
  0
DIMENSION
  5
191
100
AcDbEntity
  8
notes
370
               5
390
0
  6
Continuous
 62
               7
100
AcDbDimension
  2
*D19
 10
399.91233362710454
 20
-463.31712714024388
 30
0.0
 11
394.91233362710454
 21
-458.31712714024388
 31
0.0
 70
             128
 71
               5
 72
               1
 41
1.0
 42
0.0
  3
tform線あり
100
AcDbAlignedDimension
 13
405.27951280333536
 23
-563.31712714024388
 33
0.0
 14
405.27951280333536
 24
-463.31712714024388
 34
0.0
 50
90.0
100
AcDbRotatedDimension
1001
ACAD
1000
DSTYLE
1002
{
1070
             279
1070
               2
1070
             340
1005
38
1070
               3
1000
<>(深さ)
1070
             174
1070
               0
1070
             147
1040
5.0
1002
}
  0
MTEXT
  5
192
100
AcDbEntity
  8
notes
390
0
 62
               7
100
AcDbMText
 10
495.45729058111328
 20
-374.55883502830784
 30
0.0
 40
24.432617187500004
 41
0.0
 71
               1
 72
               1
  1
壁取付ボルト位置(2ヶ所)
  7
ＭＳ ゴシック
 73
               1
 44
0.7828267384257843
  0
DIMENSION
  5
193
100
AcDbEntity
  8
notes
370
               5
390
0
  6
Continuous
 62
               7
100
AcDbDimension
  2
*D20
 10
-649.72934746431338
 20
-363.31712714024388
 30
0.0
 11
-669.72934746431338
 21
-363.31712714024388
 31
0.0
 71
               5
 72
               1
 41
1.0
 42
0.0
  3
tform線あり
100
AcDbAlignedDimension
 13
-689.72934746431338
 23
-467.31712714024388
 33
0.0
 14
-649.72934746431338
 24
-513.31712714024388
 34
0.0
100
AcDbRotatedDimension
1001
ACAD
1000
DSTYLE
1002
{
1070
             279
1070
               2
1070
             340
1005
38
1070
             147
1040
5.0
1002
}
  0
DIMENSION
  5
194
100
AcDbEntity
  8
notes
370
               5
390
0
  6
Continuous
 62
               7
100
AcDbDimension
  2
*D21
 10
724.7123192023505
 20
401.45712009004694
 30
0.0
 11
731.27951280333491
 21
406.45712009004694
 31
0.0
 70
             128
 71
               5
 72
               1
 41
1.0
 42
0.0
  3
tform線あり
100
AcDbAlignedDimension
 13
704.7123192023505
 23
576.48287285975596
 33
0.0
 14
724.7123192023505
 24
505.45712009004694
 34
0.0
100
AcDbRotatedDimension
1001
ACAD
1000
DSTYLE
1002
{
1070
             279
1070
               2
1070
             340
1005
38
1070
             174
1070
               0
1070
             147
1040
5.0
1002
}
  0
DIMENSION
  5
195
100
AcDbEntity
  8
notes
370
               5
390
0
  6
Continuous
 62
               7
100
AcDbDimension
  2
*D22
 10
171.48720479809026
 20
-463.31712714024388
 30
0.0
 11
171.48720479809026
 21
-528.31712714024388
 31
0.0
 71
               5
 72
               1
 41
1.0
 42
0.0
  3
tform線あり
100
AcDbAlignedDimension
 13
275.48720479809026
 23
-593.31712714024388
 33
0.0
 14
275.48720479809117
 24
-463.31712714024388
 34
0.0
 50
90.0
100
AcDbRotatedDimension
1001
ACAD
1000
DSTYLE
1002
{
1070
             279
1070
               2
1070
             340
1005
38
1070
             147
1040
5.0
1002
}
  0
LINE
  5
196
100
AcDbEntity
  8
notes
370
               5
390
0
  6
Continuous
 62
               7
100
AcDbLine
 10
453.98720479809072
 20
-518.35995693350333
 30
0.0
 11
518.27951280333536
 21
-407.00241293255249
 31
0.0
  0
MTEXT
  5
197
100
AcDbEntity
  8
notes
390
0
 62
               7
100
AcDbMText
 10
68.59854368285005
 20
-5.4662668650321393
 30
0.0
 40
24.432617187500004
 41
0.0
 71
               1
 72
               1
  1
※取付は左シンク/右シンク/正面の3方向となります。
  7
ＭＳ ゴシック
 73
               1
 44
0.7828267384257843
  0
CIRCLE
  5
198
100
AcDbEntity
  8
ADF70-0602
370
              15
390
0
  6
Continuous
 62
               7
100
AcDbCircle
 10
-477.22934746431338
 20
626.54875917354923
 30
0.0
 40
22.5
  0
CIRCLE
  5
199
100
AcDbEntity
  8
ADF70-0602
370
              15
390
0
  6
Continuous
 62
               7
100
AcDbCircle
 10
-477.22934746431338
 20
626.54875917354923
 30
0.0
 40
37.5
  0
LINE
  5
19A
100
AcDbEntity
  8
ADF70-0602
370
              15
390
0
  6
STYLE_12
 62
               7
100
AcDbLine
 10
357.36671672384728
 20
-567.17884314021785
 30
0.0
 11
436.45795053036227
 21
-567.17884314021785
 31
0.0
  0
LINE
  5
19B
100
AcDbEntity
  8
ADF70-0602
370
              15
390
0
  6
STYLE_12
 62
               7
100
AcDbLine
 10
373.53546069790855
 20
-580.52340654400041
 30
0.0
 11
419.43894889827379
 21
-580.52340654400041
 31
0.0
  0
LINE
  5
19C
100
AcDbEntity
  8
ADF70-0602
370
              15
390
0
  6
Continuous
 62
               7
100
AcDbLine
 10
296.29564459107496
 20
-463.31712714024388
 30
0.0
 11
496.67876500510692
 21
-463.31712714024434
 31
0.0
  0
ARC
  5
19D
100
AcDbEntity
  8
ADF70-0602
370
              15
390
0
  6
STYLE_12
 62
               7
100
AcDbCircle
 10
356.94158789483436
 20
-572.16073690451367
 30
0.0
 40
4.9999999999986837
100
AcDbArc
 50
49.085616779969627
 51
85.122493494902429
  0
LWPOLYLINE
  5
19E
100
AcDbEntity
  8
ADF70-0602
370
              15
390
0
  6
STYLE_12
 62
               7
100
AcDbPolyline
 90
        5
 70
             128
 10
357.36671672384728
 20
-567.17884314021785
 10
320.19916824643951
 20
-564.00715841367264
 42
-0.3547201887641306
 10
311.12396438805263
 20
-555.26206431912988
 10
300.26582919764087
 20
-466.82964976662333
 42
0.3788661086953791
 10
296.29564459107542
 20
-463.31712714024388
 42
0.3788661086953791
  0
LINE
  5
19F
100
AcDbEntity
  8
ADF70-0602
370
              15
390
0
  6
Continuous
 62
               7
100
AcDbLine
 10
275.48720479809117
 20
-463.31712714024388
 30
0.0
 11
296.29564459107542
 21
-463.31712714024388
 31
0.0
  0
ARC
  5
1A0
100
AcDbEntity
  8
ADF70-0602
370
              15
390
0
  6
Continuous
 62
               7
100
AcDbCircle
 10
275.48720479809117
 20
-467.31712714024388
 30
0.0
 40
4.0
100
AcDbArc
 50
90.0
 51
180.0
  0
LINE
  5
1A1
100
AcDbEntity
  8
ADF70-0602
370
              15
390
0
  6
Continuous
 62
               7
100
AcDbLine
 10
271.48720479809026
 20
-589.31712714024388
 30
0.0
 11
271.48720479809117
 21
-467.31712714024388
 31
0.0
  0
ARC
  5
1A2
100
AcDbEntity
  8
ADF70-0602
370
              15
390
0
  6
Continuous
 62
               7
100
AcDbCircle
 10
275.48720479809026
 20
-589.31712714024388
 30
0.0
 40
4.0
100
AcDbArc
 50
180.0
 51
270.0
  0
LINE
  5
1A3
100
AcDbEntity
  8
ADF70-0602
370
              15
390
0
  6
Continuous
 62
               7
100
AcDbLine
 10
517.48720479809117
 20
-593.31712714024388
 30
0.0
 11
275.48720479809026
 21
-593.31712714024388
 31
0.0
  0
LINE
  5
1A4
100
AcDbEntity
  8
ADF70-0602
370
              15
390
0
  6
STYLE_12
 62
               7
100
AcDbLine
 10
373.98720479809117
 20
-582.60027155400394
 30
0.0
 11
373.98720479809117
 21
-593.31712714024388
 31
0.0
  0
ARC
  5
1A5
100
AcDbEntity
  8
ADF70-0602
370
              15
390
0
  6
STYLE_12
 62
               7
100
AcDbCircle
 10
368.98720479809072
 20
-582.60027155400394
 30
0.0
 40
5.0000000000004547
100
AcDbArc
 50
0.0
 51
49.085616779966365
  0
LINE
  5
1A6
100
AcDbEntity
  8
ADF70-0602
370
              15
390
0
  6
STYLE_12
 62
               7
100
AcDbLine
 10
360.21624058692305
 20
-568.38229149056588
 30
0.0
 11
372.26185749018032
 21
-578.82182614005478
 31
0.0
  0
ARC
  5
1A7
100
AcDbEntity
  8
ADF70-0602
370
              15
390
0
  6
Continuous
 62
               7
100
AcDbCircle
 10
471.92498369171608
 20
-554.04337088507873
 30
0.0
 40
9.9999999999997957
100
AcDbArc
 50
274.87750650509906
 51
353.00000000000188
  0
LWPOLYLINE
  5
1A8
100
AcDbEntity
  8
ADF70-0602
370
              15
390
0
  6
STYLE_12
 62
               7
100
AcDbPolyline
 90
        5
 70
             128
 10
496.67876500510647
 20
-463.31712714024434
 42
0.3788661086952176
 10
492.70858039854147
 20
-466.82964976662288
 10
481.85044520812926
 20
-555.26206431912988
 42
-0.3547201887641651
 10
472.77524134974237
 20
-564.00715841367264
 10
435.60769287233461
 20
-567.17884314021785
  0
LINE
  5
1A9
100
AcDbEntity
  8
ADF70-0602
370
              15
390
0
  6
Continuous
 62
               7
100
AcDbLine
 10
517.48720479809117
 20
-463.31712714024434
 30
0.0
 11
496.67876500510692
 21
-463.31712714024434
 31
0.0
  0
ARC
  5
1AA
100
AcDbEntity
  8
ADF70-0602
370
              15
390
0
  6
Continuous
 62
               7
100
AcDbCircle
 10
517.48720479809117
 20
-467.31712714024434
 30
0.0
 40
4.0
100
AcDbArc
 50
0.0
 51
90.0
  0
LINE
  5
1AB
100
AcDbEntity
  8
ADF70-0602
370
              15
390
0
  6
Continuous
 62
               7
100
AcDbLine
 10
521.48720479809117
 20
-589.31712714024388
 30
0.0
 11
521.48720479809117
 21
-467.31712714024434
 31
0.0
  0
ARC
  5
1AC
100
AcDbEntity
  8
ADF70-0602
370
              15
390
0
  6
Continuous
 62
               7
100
AcDbCircle
 10
517.48720479809117
 20
-589.31712714024388
 30
0.0
 40
4.0
100
AcDbArc
 50
270.0
 51
0.0
  0
LINE
  5
1AD
100
AcDbEntity
  8
ADF70-0602
370
              15
390
0
  6
STYLE_12
 62
               7
100
AcDbLine
 10
418.98720479809117
 20
-582.60027155400439
 30
0.0
 11
418.98720479809117
 21
-593.31712714024388
 31
0.0
  0
ARC
  5
1AE
100
AcDbEntity
  8
ADF70-0602
370
              15
390
0
  6
STYLE_12
 62
               7
100
AcDbCircle
 10
423.98720479809072
 20
-582.60027155400417
 30
0.0
 40
4.9999999999994973
100
AcDbArc
 50
130.91438322002921
 51
180.00000000000526
  0
LINE
  5
1AF
100
AcDbEntity
  8
ADF70-0602
370
              15
390
0
  6
STYLE_12
 62
               7
100
AcDbLine
 10
432.75816900925884
 20
-568.38229149056588
 30
0.0
 11
420.71255210600202
 21
-578.82182614005524
 31
0.0
  0
ARC
  5
1B0
100
AcDbEntity
  8
ADF70-0602
370
              15
390
0
  6
STYLE_12
 62
               7
100
AcDbCircle
 10
436.03282170134798
 20
-572.16073690451412
 30
0.0
 40
4.9999999999992379
100
AcDbArc
 50
94.877506505102332
 51
130.91438322003094
  0
POLYLINE
  5
1B1
100
AcDbEntity
  8
ADF70-0602
370
              15
390
0
  6
Continuous
 62
               7
100
AcDb3dPolyline
 66
               1
 10
0.0
 20
0.0
 30
0.0
 70
               8
  0
VERTEX
  5
1B2
100
AcDbEntity
  8
ADF70-0602
370
              15
390
0
  6
Continuous
 62
               7
100
AcDbVertex
100
AcDb3dPolylineVertex
 10
-583.22246439764649
 20
715.93366985333853
 30
0.0000000000011692
 70
              32
  0
VERTEX
  5
1B3
100
AcDbEntity
  8
ADF70-0602
370
              15
390
0
  6
Continuous
 62
               7
100
AcDbVertex
100
AcDb3dPolylineVertex
 10
-659.57965303663104
 20
724.86775670017562
 30
0.0
 70
              32
  0
SEQEND
  5
1B4
100
AcDbEntity
  8
ADF70-0602
370
              15
390
0
  6
Continuous
 62
               7
  0
POLYLINE
  5
1B5
100
AcDbEntity
  8
ADF70-0602
370
              15
390
0
  6
Continuous
 62
               7
100
AcDb3dPolyline
 66
               1
 10
0.0
 20
0.0
 30
0.0
 70
               8
  0
VERTEX
  5
1B6
100
AcDbEntity
  8
ADF70-0602
370
              15
390
0
  6
Continuous
 62
               7
100
AcDbVertex
100
AcDb3dPolylineVertex
 10
-583.22145376876824
 20
537.15529079744408
 30
0.0000000000143569
 70
              32
  0
VERTEX
  5
1B7
100
AcDbEntity
  8
ADF70-0602
370
              15
390
0
  6
Continuous
 62
               7
100
AcDbVertex
100
AcDb3dPolylineVertex
 10
-659.58047059901492
 20
528.05419616243603
 30
0.0
 70
              32
  0
SEQEND
  5
1B8
100
AcDbEntity
  8
ADF70-0602
370
              15
390
0
  6
Continuous
 62
               7
  0
POLYLINE
  5
1B9
100
AcDbEntity
  8
ADF70-0602
370
              15
390
0
  6
Continuous
 62
               7
100
AcDb3dPolyline
 66
               1
 10
0.0
 20
0.0
 30
0.0
 70
               8
  0
VERTEX
  5
1BA
100
AcDbEntity
  8
ADF70-0602
370
              15
390
0
  6
Continuous
 62
               7
100
AcDbVertex
100
AcDb3dPolylineVertex
 10
-371.23718393929039
 20
537.15577113038955
 30
0.0000000000007927
 70
              32
  0
VERTEX
  5
1BB
100
AcDbEntity
  8
ADF70-0602
370
              15
390
0
  6
Continuous
 62
               7
100
AcDbVertex
100
AcDb3dPolylineVertex
 10
-294.87717166030006
 20
528.06392328865729
 30
0.0
 70
              32
  0
SEQEND
  5
1BC
100
AcDbEntity
  8
ADF70-0602
370
              15
390
0
  6
Continuous
 62
               7
  0
POLYLINE
  5
1BD
100
AcDbEntity
  8
ADF70-0602
370
              15
390
0
  6
Continuous
 62
               7
100
AcDb3dPolyline
 66
               1
 10
0.0
 20
0.0
 30
0.0
 70
               8
  0
VERTEX
  5
1BE
100
AcDbEntity
  8
ADF70-0602
370
              15
390
0
  6
Continuous
 62
               7
100
AcDbVertex
100
AcDb3dPolylineVertex
 10
-294.87802681516541
 20
724.85820182549571
 30
0.0
 70
              32
  0
VERTEX
  5
1BF
100
AcDbEntity
  8
ADF70-0602
370
              15
390
0
  6
Continuous
 62
               7
100
AcDbVertex
100
AcDb3dPolylineVertex
 10
-371.23617533666311
 20
715.93319787977373
 30
-0.0000000000251185
 70
              32
  0
SEQEND
  5
1C0
100
AcDbEntity
  8
ADF70-0602
370
              15
390
0
  6
Continuous
 62
               7
  0
LINE
  5
1C1
100
AcDbEntity
  8
ADF70-0602
370
              15
390
0
  6
STYLE_12
 62
               7
100
AcDbLine
 10
-514.72934746431338
 20
-567.31712714024388
 30
0.0
 11
-439.72934746431338
 21
-567.31712714024388
 31
0.0
  0
LINE
  5
1C2
100
AcDbEntity
  8
ADF70-0602
370
              15
390
0
  6
STYLE_12
 62
               7
100
AcDbLine
 10
-499.72934746431338
 20
-580.31712714024388
 30
0.0
 11
-454.72934746431338
 21
-580.31712714024388
 31
0.0
  0
LINE
  5
1C3
100
AcDbEntity
  8
ADF70-0602
370
              15
390
0
  6
STYLE_12
 62
               7
100
AcDbLine
 10
-499.72934746431338
 20
-581.23038490574754
 30
0.0
 11
-499.72934746431338
 21
-593.31712714024388
 31
0.0
  0
ARC
  5
1C4
100
AcDbEntity
  8
ADF70-0602
370
              15
390
0
  6
STYLE_12
 62
               7
100
AcDbCircle
 10
-501.72934746431292
 20
-581.23038490574754
 30
0.0
 40
1.9999999999995453
100
AcDbArc
 50
0.0
 51
49.085616779984093
  0
LINE
  5
1C5
100
AcDbEntity
  8
ADF70-0602
370
              15
390
0
  6
STYLE_12
 62
               7
100
AcDbLine
 10
-513.7047051333052
 20
-568.20515049378446
 30
0.0
 11
-500.41948638747772
 21
-579.71900674016797
 31
0.0
  0
ARC
  5
1C6
100
AcDbEntity
  8
ADF70-0602
370
              15
390
0
  6
STYLE_12
 62
               7
100
AcDbCircle
 10
-516.32442728697288
 20
-571.22790682493542
 30
0.0
 40
3.9999999999909264
100
AcDbArc
 50
49.085616779957988
 51
86.536484127307844
  0
LWPOLYLINE
  5
1C7
100
AcDbEntity
  8
ADF70-0602
370
              15
390
0
  6
STYLE_12
 62
               7
100
AcDbPolyline
 90
        5
 70
             128
 10
-516.08277549995046
 20
-567.23521294564011
 10
-576.5271275226055
 20
-563.57690952357825
 42
-0.2058912135918227
 10
-583.58344248622916
 20
-560.02305092218512
 10
-663.53040032445779
 20
-464.74597670149797
 42
0.2216946626426552
 10
-666.59457809693276
 20
-463.31712714024388
 42
0.2216946626426552
  0
LINE
  5
1C8
100
AcDbEntity
  8
ADF70-0602
370
              15
390
0
  6
Continuous
 62
               7
100
AcDbLine
 10
-685.72934746431338
 20
-463.31712714024388
 30
0.0
 11
-193.72934746431338
 21
-463.31712714024388
 31
0.0
  0
ARC
  5
1C9
100
AcDbEntity
  8
ADF70-0602
370
              15
390
0
  6
Continuous
 62
               7
100
AcDbCircle
 10
-685.72934746431338
 20
-467.31712714024388
 30
0.0
 40
4.0
100
AcDbArc
 50
90.0
 51
180.0
  0
LINE
  5
1CA
100
AcDbEntity
  8
ADF70-0602
370
              15
390
0
  6
Continuous
 62
               7
100
AcDbLine
 10
-689.72934746431338
 20
-591.31712714024388
 30
0.0
 11
-689.72934746431338
 21
-467.31712714024388
 31
0.0
  0
ARC
  5
1CB
100
AcDbEntity
  8
ADF70-0602
370
              15
390
0
  6
Continuous
 62
               7
100
AcDbCircle
 10
-687.72934746431338
 20
-591.31712714024388
 30
0.0
 40
2.0
100
AcDbArc
 50
180.0
 51
270.0
  0
LINE
  5
1CC
100
AcDbEntity
  8
ADF70-0602
370
              15
390
0
  6
Continuous
 62
               7
100
AcDbLine
 10
-267.21786603027931
 20
-463.35995693350333
 30
0.0
 11
-267.21786603027931
 21
-478.35995693350333
 31
0.0
  0
LWPOLYLINE
  5
1CD
100
AcDbEntity
  8
ADF70-0602
370
              15
390
0
  6
STYLE_12
 62
               7
100
AcDbPolyline
 90
        6
 70
             128
 10
-287.86411683169308
 20
-463.31712714024366
 42
0.2216946626429738
 10
-290.92829460416897
 20
-464.74597670149797
 10
-370.87525244239851
 20
-560.02305092218535
 42
-0.2058912135918845
 10
-377.93156740602262
 20
-563.57690952357825
 10
-438.3759194286763
 20
-567.23521294564011
 42
0.1648804506790211
 10
-440.75398979532019
 20
-568.20515049378378
 42
0.1648804506790211
  0
LINE
  5
1CE
100
AcDbEntity
  8
ADF70-0602
370
              15
390
0
  6
STYLE_12
 62
               7
100
AcDbLine
 10
-454.03920854114904
 20
-579.71900674016842
 30
0.0
 11
-440.75398979532156
 21
-568.20515049378446
 31
0.0
  0
ARC
  5
1CF
100
AcDbEntity
  8
ADF70-0602
370
              15
390
0
  6
STYLE_12
 62
               7
100
AcDbCircle
 10
-452.72934746431292
 20
-581.23038490574822
 30
0.0
 40
2.0000000000004059
100
AcDbArc
 50
130.91438322003134
 51
179.99999999999349
  0
LINE
  5
1D0
100
AcDbEntity
  8
ADF70-0602
370
              15
390
0
  6
STYLE_12
 62
               7
100
AcDbLine
 10
-454.72934746431338
 20
-593.31712714024388
 30
0.0
 11
-454.72934746431338
 21
-581.230384905748
 31
0.0
  0
CIRCLE
  5
1D1
100
AcDbEntity
  8
ADF70-0602
370
              15
390
0
  6
STYLE_12
 62
               7
100
AcDbCircle
 10
-249.72934746431338
 20
626.45712009004694
 30
0.0
 40
17.5
  0
LINE
  5
1D2
100
AcDbEntity
  8
ADF70-0602
370
              15
390
0
  6
Continuous
 62
               7
100
AcDbLine
 10
-232.21786603027931
 20
-478.35995693350333
 30
0.0
 11
-232.21786603027931
 21
-463.35995693350333
 31
0.0
  0
LINE
  5
1D3
100
AcDbEntity
  8
ADF70-0602
370
              15
390
0
  6
Continuous
 62
               7
100
AcDbLine
 10
-191.72934746431338
 20
-593.31712714024388
 30
0.0
 11
-688.0
 21
-593.31712714024388
 31
0.0
  0
ARC
  5
1D4
100
AcDbEntity
  8
ADF70-0602
370
              15
390
0
  6
Continuous
 62
               7
100
AcDbCircle
 10
-191.72934746431338
 20
-591.31712714024388
 30
0.0
 40
2.0
100
AcDbArc
 50
270.0
 51
0.0
  0
LINE
  5
1D5
100
AcDbEntity
  8
ADF70-0602
370
              15
390
0
  6
Continuous
 62
               7
100
AcDbLine
 10
-189.72934746431338
 20
-467.31712714024388
 30
0.0
 11
-189.72934746431338
 21
-591.31712714024388
 31
0.0
  0
ARC
  5
1D6
100
AcDbEntity
  8
ADF70-0602
370
              15
390
0
  6
Continuous
 62
               7
100
AcDbCircle
 10
-193.72934746431338
 20
-467.31712714024388
 30
0.0
 40
4.0
100
AcDbArc
 50
0.0
 51
90.0
  0
LWPOLYLINE
  5
1D7
100
AcDbEntity
  8
ADF70-0602
370
              15
390
0
  6
Continuous
 62
               7
100
AcDbPolyline
 90
        8
 70
             129
 10
-374.03755579402286
 20
712.64039825705174
 42
0.414213562373095
 10
-378.03755579402286
 20
716.64039825705174
 10
-576.42113913460389
 20
716.64039825705197
 42
0.4142135623730867
 10
-580.42113913460389
 20
712.64039825705197
 10
-580.42113913460435
 20
540.4571200900466
 42
0.414213562373095
 10
-576.42113913460435
 20
536.4571200900466
 10
-378.03755579402286
 20
536.45712009004671
 42
0.4142135623730867
 10
-374.03755579402286
 20
540.45712009004671
  0
LWPOLYLINE
  5
1D8
100
AcDbEntity
  8
ADF70-0602
370
              15
390
0
  6
Continuous
 62
               7
100
AcDbPolyline
 90
        9
 70
             129
 10
-660.72934746431338
 20
526.45712009004694
 10
-293.72934746431338
 20
526.45712009004671
 42
0.4142135623730867
 10
-289.72934746431338
 20
530.45712009004671
 10
-289.72934746431338
 20
722.45712009004694
 42
0.414213562373095
 10
-293.72934746431338
 20
726.45712009004694
 10
-660.72934746431338
 20
726.45712009004649
 42
0.4142135623730867
 10
-664.72934746431338
 20
722.45712009004649
 10
-664.72934746431338
 20
530.45712009004694
 42
0.414213562373095
 10
-660.72934746431338
 20
526.45712009004694
  0
LWPOLYLINE
  5
1D9
100
AcDbEntity
  8
ADF70-0602
370
              15
390
0
  6
Continuous
 62
               7
100
AcDbPolyline
 90
        9
 70
             129
 10
-193.72934746431338
 20
751.45712009004694
 10
-685.72934746431292
 20
751.45712009004671
 42
0.4142135623731034
 10
-689.72934746431292
 20
747.45712009004671
 10
-689.72934746431292
 20
505.45712009004694
 42
0.414213562373095
 10
-685.72934746431292
 20
501.45712009004694
 10
-193.72934746431338
 20
501.45712009004694
 42
0.4142135623731034
 10
-189.72934746431338
 20
505.45712009004694
 10
-189.72934746431338
 20
747.45712009004694
 42
0.414213562373095
 10
-193.72934746431338
 20
751.45712009004694
  0
LINE
  5
1DA
100
AcDbEntity
  8
ADF70-0602
370
              15
390
0
  6
STYLE_12
 62
               7
100
AcDbLine
 10
338.98720479809072
 20
-538.35995693350333
 30
0.0
 11
338.98720479809072
 21
-498.35995693350333
 31
0.0
  0
LINE
  5
1DB
100
AcDbEntity
  8
ADF70-0602
370
              15
390
0
  6
STYLE_12
 62
               7
100
AcDbLine
 10
-239.72934746431338
 20
-533.31712714024388
 30
0.0
 11
-239.72934746431338
 21
-493.31712714024388
 31
0.0
  0
LINE
  5
1DC
100
AcDbEntity
  8
ADF70-0602
370
              15
390
0
  6
STYLE_12
 62
               7
100
AcDbLine
 10
-219.72934746431338
 20
-513.31712714024388
 30
0.0
 11
-259.72934746431338
 21
-513.31712714024388
 31
0.0
  0
LINE
  5
1DD
100
AcDbEntity
  8
ADF70-0602
370
              15
390
0
  6
STYLE_12
 62
               7
100
AcDbLine
 10
-649.72934746431338
 20
-553.31712714024388
 30
0.0
 11
-649.72934746431338
 21
-513.31712714024388
 31
0.0
  0
LINE
  5
1DE
100
AcDbEntity
  8
ADF70-0602
370
              15
390
0
  6
STYLE_12
 62
               7
100
AcDbLine
 10
-629.72934746431338
 20
-533.31712714024388
 30
0.0
 11
-669.72934746431338
 21
-533.31712714024388
 31
0.0
  0
CIRCLE
  5
1DF
100
AcDbEntity
  8
ADF70-0602
370
               5
390
0
  6
STYLE_12
 62
               7
100
AcDbCircle
 10
437.2123192023505
 20
626.54875917354923
 30
0.0
 40
22.5
  0
CIRCLE
  5
1E0
100
AcDbEntity
  8
ADF70-0602
370
               5
390
0
  6
STYLE_12
 62
               7
100
AcDbCircle
 10
674.7123192023505
 20
626.45712009004694
 30
0.0
 40
17.5
  0
LWPOLYLINE
  5
1E1
100
AcDbEntity
  8
ADF70-0602
370
               5
390
0
  6
STYLE_12
 62
               7
100
AcDbPolyline
 90
        9
 70
             129
 10
720.7123192023505
 20
751.45712009004694
 10
228.71231920235141
 20
751.45712009004671
 42
0.4142135623731034
 10
224.71231920235141
 20
747.45712009004671
 10
224.71231920235141
 20
505.45712009004694
 42
0.414213562373095
 10
228.71231920235141
 20
501.45712009004694
 10
720.7123192023505
 20
501.45712009004694
 42
0.4142135623731034
 10
724.7123192023505
 20
505.45712009004694
 10
724.7123192023505
 20
747.45712009004694
 42
0.414213562373095
 10
720.7123192023505
 20
751.45712009004694
  0
POLYLINE
  5
1E2
100
AcDbEntity
  8
ADF70-0602
370
              15
390
0
  6
Continuous
 62
               7
100
AcDb2dPolyline
 66
               1
 10
0.0
 20
0.0
 30
0.0
 70
               1
 75
               5
  0
VERTEX
  5
1E3
100
AcDbEntity
  8
ADF70-0602
370
              15
390
0
  6
Continuous
 62
               7
100
AcDbVertex
100
AcDb2dVertex
 10
404.7123192023505
 20
676.48287285975596
 30
0.0
  0
VERTEX
  5
1E4
100
AcDbEntity
  8
ADF70-0602
370
              15
390
0
  6
Continuous
 62
               7
100
AcDbVertex
100
AcDb2dVertex
 10
704.7123192023505
 20
676.48287285975596
 30
0.0
  0
VERTEX
  5
1E5
100
AcDbEntity
  8
ADF70-0602
370
              15
390
0
  6
Continuous
 62
               7
100
AcDbVertex
100
AcDb2dVertex
 10
704.7123192023505
 20
576.48287285975596
 30
0.0
  0
VERTEX
  5
1E6
100
AcDbEntity
  8
ADF70-0602
370
              15
390
0
  6
Continuous
 62
               7
100
AcDbVertex
100
AcDb2dVertex
 10
404.7123192023505
 20
576.48287285975596
 30
0.0
  0
SEQEND
  5
1E7
100
AcDbEntity
  8
ADF70-0602
370
              15
390
0
  6
Continuous
 62
               7
  0
LINE
  5
1E8
100
AcDbEntity
  8
ADF70-0602
370
              15
390
0
  6
STYLE_12
 62
               7
100
AcDbLine
 10
358.98720479809072
 20
-518.35995693350333
 30
0.0
 11
318.98720479809072
 21
-518.35995693350333
 31
0.0
  0
LINE
  5
1E9
100
AcDbEntity
  8
ADF70-0602
370
              15
390
0
  6
STYLE_12
 62
               7
100
AcDbLine
 10
453.98720479809072
 20
-538.35995693350333
 30
0.0
 11
453.98720479809072
 21
-498.35995693350333
 31
0.0
  0
LINE
  5
1EA
100
AcDbEntity
  8
ADF70-0602
370
              15
390
0
  6
STYLE_12
 62
               7
100
AcDbLine
 10
473.98720479809072
 20
-518.35995693350333
 30
0.0
 11
433.98720479809072
 21
-518.35995693350333
 31
0.0
  0
ENDSEC
  0
SECTION
  2
OBJECTS
  0
DICTIONARY
  5
19
100
AcDbDictionary
280
               0
281
               1
  3
ACAD_GROUP
350
1A
  3
ACAD_MLINESTYLE
350
1B
  3
ACAD_LAYOUT
350
1E
  3
ACAD_PLOTSETTINGS
350
22
  3
ACAD_PLOTSTYLENAME
350
1F
  0
DICTIONARY
  5
1A
102
{ACAD_REACTORS
330
19
102
}
100
AcDbDictionary
280
               0
281
               1
  0
DICTIONARY
  5
1B
102
{ACAD_REACTORS
330
19
102
}
100
AcDbDictionary
280
               0
281
               1
  3
Standard
350
1C
  0
MLINESTYLE
  5
1C
102
{ACAD_REACTORS
330
1B
102
}
100
AcDbMlineStyle
  2
Standard
 70
               0
  3

 62
               0
 51
90.0
 52
90.0
 71
               2
 49
0.5
 62
             256
  6
ByLayer
 49
-0.5
 62
             256
  6
ByLayer
  0
ACDBDICTIONARYWDFLT
  5
1F
102
{ACAD_REACTORS
330
19
102
}
100
AcDbDictionary
281
               1
  3
Normal
350
1D
100
AcDbDictionaryWithDefault
340
1D
  0
ACDBPLACEHOLDER
  5
1D
102
{ACAD_REACTORS
330
1F
102
}
  0
LAYOUT
  5
20
102
{ACAD_REACTORS
330
1E
102
}
100
AcDbPlotSettings
  1

  2

  4

  6

 40
0.0
 41
0.0
 42
0.0
 43
0.0
 44
0.0
 45
0.0
 46
0.0
 47
0.0
 48
0.0
 49
0.0
140
0.0
141
0.0
142
1.0
143
1.0
 70
            1024
 72
               0
 73
               0
 74
               0
  7

 75
               0
147
1.0
148
0.0
149
0.0
100
AcDbLayout
  1
Model
 70
               0
 71
               0
 10
0.0
 20
0.0
 11
0.0
 21
0.0
 12
0.0
 22
0.0
 32
0.0
 14
0.0
 24
0.0
 34
0.0
 15
0.0
 25
0.0
 35
0.0
146
0.0
 13
0.0
 23
0.0
 33
0.0
 16
0.0
 26
0.0
 36
0.0
 17
0.0
 27
0.0
 37
0.0
 76
               0
330
A
331
0
345
0
346
0
  0
LAYOUT
  5
21
102
{ACAD_REACTORS
330
1E
102
}
100
AcDbPlotSettings
  1

  2

  4

  6

 40
0.0
 41
0.0
 42
0.0
 43
0.0
 44
0.0
 45
0.0
 46
0.0
 47
0.0
 48
0.0
 49
0.0
140
0.0
141
0.0
142
1.0
143
1.0
 70
               0
 72
               0
 73
               0
 74
               0
  7

 75
               0
147
1.0
148
0.0
149
0.0
100
AcDbLayout
  1
Layout1
 70
               0
 71
               0
 10
0.0
 20
0.0
 11
0.0
 21
0.0
 12
0.0
 22
0.0
 32
0.0
 14
0.0
 24
0.0
 34
0.0
 15
0.0
 25
0.0
 35
0.0
146
0.0
 13
0.0
 23
0.0
 33
0.0
 16
0.0
 26
0.0
 36
0.0
 17
0.0
 27
0.0
 37
0.0
 76
               0
330
B
331
0
345
0
346
0
  0
DICTIONARY
  5
1E
102
{ACAD_REACTORS
330
19
102
}
100
AcDbDictionary
280
               0
281
               1
  3
Layout1
350
21
  3
Model
350
20
  0
DICTIONARY
  5
22
102
{ACAD_REACTORS
330
19
102
}
100
AcDbDictionary
280
               0
281
               1
  0
ENDSEC
  0
EOF
