  0
SECTION
  2
HEADER
  9
$ACADVER
  1
AC1021
  9
$ACADMAINTVER
 70
    25
  9
$DWGCODEPAGE
  3
ANSI_932
  9
$LASTSAVEDBY
  1
tform
  9
$INSBASE
 10
0.0
 20
0.0
 30
0.0
  9
$EXTMIN
 10
86.42556894836775
 20
54.09130675862931
 30
0.0
  9
$EXTMAX
 10
2036.42556894885
 20
2887.445831940487
 30
0.0
  9
$LIMMIN
 10
0.0
 20
0.0
  9
$LIMMAX
 10
2100.0
 20
2970.0
  9
$ORTHOMODE
 70
     0
  9
$REGENMODE
 70
     1
  9
$FILLMODE
 70
     1
  9
$QTEXTMODE
 70
     0
  9
$MIRRTEXT
 70
     1
  9
$LTSCALE
 40
50.8
  9
$ATTMODE
 70
     1
  9
$TEXTSIZE
 40
0.0
  9
$TRACEWID
 40
1.0
  9
$TEXTSTYLE
  7
Standard
  9
$CLAYER
  8
ADF70-0603
  9
$CELTYPE
  6
Continuous
  9
$CECOLOR
 62
   256
  9
$CELTSCALE
 40
1.0
  9
$DISPSILH
 70
     0
  9
$DIMSCALE
 40
1.0
  9
$DIMASZ
 40
31.75
  9
$DIMEXO
 40
0.0
  9
$DIMDLI
 40
6.99999999999994
  9
$DIMRND
 40
0.0
  9
$DIMDLE
 40
0.0
  9
$DIMEXE
 40
19.9999999999962
  9
$DIMTP
 40
0.0
  9
$DIMTM
 40
0.0
  9
$DIMTXT
 40
48.86523437500001
  9
$DIMCEN
 40
0.0
  9
$DIMTSZ
 40
0.0
  9
$DIMTOL
 70
     0
  9
$DIMLIM
 70
     0
  9
$DIMTIH
 70
     0
  9
$DIMTOH
 70
     0
  9
$DIMSE1
 70
     0
  9
$DIMSE2
 70
     0
  9
$DIMTAD
 70
     1
  9
$DIMZIN
 70
    11
  9
$DIMBLK
  1
VW_FILLEDARROW
  9
$DIMASO
 70
     1
  9
$DIMSHO
 70
     1
  9
$DIMPOST
  1
<>
  9
$DIMAPOST
  1
[]
  9
$DIMALT
 70
     0
  9
$DIMALTD
 70
     1
  9
$DIMALTF
 40
1.0
  9
$DIMLFAC
 40
1.0
  9
$DIMTOFL
 70
     0
  9
$DIMTVP
 40
0.0
  9
$DIMTIX
 70
     1
  9
$DIMSOXD
 70
     0
  9
$DIMSAH
 70
     0
  9
$DIMBLK1
  1

  9
$DIMBLK2
  1

  9
$DIMSTYLE
  2
JIS
  9
$DIMCLRD
 70
     0
  9
$DIMCLRE
 70
     0
  9
$DIMCLRT
 70
     0
  9
$DIMTFAC
 40
1.0
  9
$DIMGAP
 40
1.00000000000108
  9
$DIMJUST
 70
     0
  9
$DIMSD1
 70
     0
  9
$DIMSD2
 70
     0
  9
$DIMTOLJ
 70
     1
  9
$DIMTZIN
 70
    11
  9
$DIMALTZ
 70
    11
  9
$DIMALTTZ
 70
    11
  9
$DIMUPT
 70
     0
  9
$DIMDEC
 70
     1
  9
$DIMTDEC
 70
     1
  9
$DIMALTU
 70
     2
  9
$DIMALTTD
 70
     2
  9
$DIMTXSTY
  7
ＭＳゴシック
  9
$DIMAUNIT
 70
     0
  9
$DIMADEC
 70
     2
  9
$DIMALTRND
 40
0.0
  9
$DIMAZIN
 70
     0
  9
$DIMDSEP
 70
    46
  9
$DIMATFIT
 70
     0
  9
$DIMFRAC
 70
     2
  9
$DIMLDRBLK
  1

  9
$DIMLUNIT
 70
     2
  9
$DIMLWD
 70
    -2
  9
$DIMLWE
 70
    -2
  9
$DIMTMOVE
 70
     0
  9
$DIMFXL
 40
1.0
  9
$DIMFXLON
 70
     0
  9
$DIMJOGANG
 40
0.7853981633974483
  9
$DIMTFILL
 70
     0
  9
$DIMTFILLCLR
 70
     0
  9
$DIMARCSYM
 70
     0
  9
$DIMLTYPE
  6

  9
$DIMLTEX1
  6

  9
$DIMLTEX2
  6

  9
$LUNITS
 70
     2
  9
$LUPREC
 70
     4
  9
$SKETCHINC
 40
0.1
  9
$FILLETRAD
 40
0.0
  9
$AUNITS
 70
     0
  9
$AUPREC
 70
     0
  9
$MENU
  1
acad
  9
$ELEVATION
 40
0.0
  9
$PELEVATION
 40
0.0
  9
$THICKNESS
 40
0.0
  9
$LIMCHECK
 70
     0
  9
$CHAMFERA
 40
0.0
  9
$CHAMFERB
 40
0.0
  9
$CHAMFERC
 40
0.0
  9
$CHAMFERD
 40
0.0
  9
$SKPOLY
 70
     0
  9
$TDCREATE
 40
2447893.375
  9
$TDUCREATE
 40
0.0
  9
$TDUPDATE
 40
2456681.482761227
  9
$TDUUPDATE
 40
2456681.107761227
  9
$TDINDWG
 40
0.0145769097
  9
$TDUSRTIMER
 40
2456681.099739433
  9
$USRTIMER
 70
     1
  9
$ANGBASE
 50
0.0
  9
$ANGDIR
 70
     0
  9
$PDMODE
 70
     1
  9
$PDSIZE
 40
-2.0
  9
$PLINEWID
 40
0.0
  9
$SPLFRAME
 70
     0
  9
$SPLINETYPE
 70
     6
  9
$SPLINESEGS
 70
     8
  9
$HANDSEED
  5
381
  9
$SURFTAB1
 70
     6
  9
$SURFTAB2
 70
     6
  9
$SURFTYPE
 70
     6
  9
$SURFU
 70
     6
  9
$SURFV
 70
     6
  9
$UCSBASE
  2

  9
$UCSNAME
  2

  9
$UCSORG
 10
0.0
 20
0.0
 30
0.0
  9
$UCSXDIR
 10
1.0
 20
0.0
 30
0.0
  9
$UCSYDIR
 10
0.0
 20
1.0
 30
0.0
  9
$UCSORTHOREF
  2

  9
$UCSORTHOVIEW
 70
     0
  9
$UCSORGTOP
 10
0.0
 20
0.0
 30
0.0
  9
$UCSORGBOTTOM
 10
0.0
 20
0.0
 30
0.0
  9
$UCSORGLEFT
 10
0.0
 20
0.0
 30
0.0
  9
$UCSORGRIGHT
 10
0.0
 20
0.0
 30
0.0
  9
$UCSORGFRONT
 10
0.0
 20
0.0
 30
0.0
  9
$UCSORGBACK
 10
0.0
 20
0.0
 30
0.0
  9
$PUCSBASE
  2

  9
$PUCSNAME
  2

  9
$PUCSORG
 10
0.0
 20
0.0
 30
0.0
  9
$PUCSXDIR
 10
1.0
 20
0.0
 30
0.0
  9
$PUCSYDIR
 10
0.0
 20
1.0
 30
0.0
  9
$PUCSORTHOREF
  2

  9
$PUCSORTHOVIEW
 70
     0
  9
$PUCSORGTOP
 10
0.0
 20
0.0
 30
0.0
  9
$PUCSORGBOTTOM
 10
0.0
 20
0.0
 30
0.0
  9
$PUCSORGLEFT
 10
0.0
 20
0.0
 30
0.0
  9
$PUCSORGRIGHT
 10
0.0
 20
0.0
 30
0.0
  9
$PUCSORGFRONT
 10
0.0
 20
0.0
 30
0.0
  9
$PUCSORGBACK
 10
0.0
 20
0.0
 30
0.0
  9
$USERI1
 70
     0
  9
$USERI2
 70
     0
  9
$USERI3
 70
     0
  9
$USERI4
 70
     0
  9
$USERI5
 70
     0
  9
$USERR1
 40
0.0
  9
$USERR2
 40
0.0
  9
$USERR3
 40
0.0
  9
$USERR4
 40
0.0
  9
$USERR5
 40
0.0
  9
$WORLDVIEW
 70
     1
  9
$SHADEDGE
 70
     3
  9
$SHADEDIF
 70
    70
  9
$TILEMODE
 70
     1
  9
$MAXACTVP
 70
    64
  9
$PINSBASE
 10
0.0
 20
0.0
 30
0.0
  9
$PLIMCHECK
 70
     0
  9
$PEXTMIN
 10
1.000000000000000E+20
 20
1.000000000000000E+20
 30
1.000000000000000E+20
  9
$PEXTMAX
 10
-1.000000000000000E+20
 20
-1.000000000000000E+20
 30
-1.000000000000000E+20
  9
$PLIMMIN
 10
0.0
 20
0.0
  9
$PLIMMAX
 10
0.0
 20
0.0
  9
$UNITMODE
 70
     0
  9
$VISRETAIN
 70
     0
  9
$PLINEGEN
 70
     1
  9
$PSLTSCALE
 70
     0
  9
$TREEDEPTH
 70
  3020
  9
$CMLSTYLE
  2
Standard
  9
$CMLJUST
 70
     0
  9
$CMLSCALE
 40
1.0
  9
$PROXYGRAPHICS
 70
     0
  9
$MEASUREMENT
 70
     1
  9
$CELWEIGHT
370
     0
  9
$ENDCAPS
280
     0
  9
$JOINSTYLE
280
     0
  9
$LWDISPLAY
290
     1
  9
$INSUNITS
 70
     4
  9
$HYPERLINKBASE
  1

  9
$STYLESHEET
  1

  9
$XEDIT
290
     1
  9
$CEPSNTYPE
380
     0
  9
$PSTYLEMODE
290
     1
  9
$FINGERPRINTGUID
  2

  9
$VERSIONGUID
  2

  9
$EXTNAMES
290
     1
  9
$PSVPSCALE
 40
0.0
  9
$OLESTARTUP
290
     0
  9
$SORTENTS
280
   127
  9
$INDEXCTL
280
     0
  9
$HIDETEXT
280
     1
  9
$XCLIPFRAME
290
     0
  9
$HALOGAP
280
     0
  9
$OBSCOLOR
 70
   257
  9
$OBSLTYPE
280
     0
  9
$INTERSECTIONDISPLAY
280
     0
  9
$INTERSECTIONCOLOR
 70
   257
  9
$DIMASSOC
280
     2
  9
$PROJECTNAME
  1

  9
$CAMERADISPLAY
290
     0
  9
$LENSLENGTH
 40
50.0
  9
$CAMERAHEIGHT
 40
0.0
  9
$STEPSPERSEC
 40
2.0
  9
$STEPSIZE
 40
6.0
  9
$3DDWFPREC
 40
2.0
  9
$PSOLWIDTH
 40
0.25
  9
$PSOLHEIGHT
 40
4.0
  9
$LOFTANG1
 40
1.570796326794897
  9
$LOFTANG2
 40
1.570796326794897
  9
$LOFTMAG1
 40
0.0
  9
$LOFTMAG2
 40
0.0
  9
$LOFTPARAM
 70
     7
  9
$LOFTNORMALS
280
     1
  9
$LATITUDE
 40
37.795
  9
$LONGITUDE
 40
-122.394
  9
$NORTHDIRECTION
 40
0.0
  9
$TIMEZONE
 70
 -8000
  9
$LIGHTGLYPHDISPLAY
280
     1
  9
$TILEMODELIGHTSYNCH
280
     1
  9
$SOLIDHIST
280
     1
  9
$SHOWHIST
280
     1
  9
$DWFFRAME
280
     2
  9
$DGNFRAME
280
     2
  9
$REALWORLDSCALE
290
     1
  9
$INTERFERECOLOR
 62
   256
  9
$CSHADOW
280
     0
  9
$SHADOWPLANELOCATION
 40
0.0
  0
ENDSEC
  0
SECTION
  2
CLASSES
  0
CLASS
  1
LWPOLYLINE
  2
AcDbPolyline
  3
ObjectDBX Classes
 90
        0
 91
        1
280
     0
281
     1
  0
CLASS
  1
IMAGE
  2
AcDbRasterImage
  3
ISM
 90
      127
 91
        5
280
     0
281
     1
  0
CLASS
  1
OLE2FRAME
  2
AcDbOle2Frame
  3
ObjectDBX Classes
 90
        0
 91
        1
280
     0
281
     1
  0
CLASS
  1
HATCH
  2
AcDbHatch
  3
ObjectDBX Classes
 90
        0
 91
        1
280
     0
281
     1
  0
CLASS
  1
DICTIONARYVAR
  2
AcDbDictionaryVar
  3
ObjectDBX Classes
 90
        0
 91
        4
280
     0
281
     0
  0
CLASS
  1
RASTERVARIABLES
  2
AcDbRasterVariables
  3
ISM
 90
        0
 91
        5
280
     0
281
     0
  0
CLASS
  1
IMAGEDEF
  2
AcDbRasterImageDef
  3
ISM
 90
        0
 91
        4
280
     0
281
     0
  0
CLASS
  1
IMAGEDEF_REACTOR
  2
AcDbRasterImageDefReactor
  3
ISM
 90
        1
 91
        4
280
     0
281
     0
  0
CLASS
  1
IDBUFFER
  2
AcDbIdBuffer
  3
ObjectDBX Classes
 90
        0
 91
        4
280
     0
281
     0
  0
CLASS
  1
SPATIAL_FILTER
  2
AcDbSpatialFilter
  3
ObjectDBX Classes
 90
        0
 91
        4
280
     0
281
     0
  0
CLASS
  1
XRECORD
  2
AcDbXrecord
  3
ObjectDBX Classes
 90
        0
 91
        1
280
     0
281
     0
  0
CLASS
  1
SORTENTSTABLE
  2
AcDbSortentsTable
  3
ObjectDBX Classes
 90
        0
 91
        4
280
     0
281
     0
  0
CLASS
  1
LAYER_INDEX
  2
AcDbLayerIndex
  3
ObjectDBX Classes
 90
        0
 91
        4
280
     0
281
     0
  0
CLASS
  1
SPATIAL_INDEX
  2
AcDbSpatialIndex
  3
AutoCAD 2000
 90
        0
 91
        4
280
     0
281
     0
  0
CLASS
  1
OBJECT_PTR
  2
CAseDLPNTableRecord
  3
ASE-LPNTableRecord
 90
        1
 91
        4
280
     0
281
     0
  0
CLASS
  1
LAYOUT
  2
AcDbLayout
  3
ObjectDBX Classes
 90
        0
 91
        1
280
     0
281
     0
  0
CLASS
  1
PLOTSETTINGS
  2
AcDbPlotSettings
  3
ObjectDBX Classes
 90
        0
 91
        4
280
     0
281
     0
  0
CLASS
  1
ACDBDICTIONARYWDFLT
  2
AcDbDictionaryWithDefault
  3
ObjectDBX Classes
 90
        0
 91
        5
280
     0
281
     0
  0
CLASS
  1
ACDBPLACEHOLDER
  2
AcDbPlaceHolder
  3
ObjectDBX Classes
 90
        0
 91
        1
280
     0
281
     0
  0
CLASS
  1
SCALE
  2
AcDbScale
  3
ObjectDBX Classes
 90
     1153
 91
        5
280
     0
281
     0
  0
CLASS
  1
VISUALSTYLE
  2
AcDbVisualStyle
  3
ObjectDBX Classes
 90
     4095
 91
        5
280
     0
281
     0
  0
CLASS
  1
MATERIAL
  2
AcDbMaterial
  3
ObjectDBX Classes
 90
     1153
 91
        5
280
     0
281
     0
  0
CLASS
  1
TABLESTYLE
  2
AcDbTableStyle
  3
ObjectDBX Classes
 90
     4095
 91
        5
280
     0
281
     0
  0
CLASS
  1
SUN
  2
AcDbSun
  3
SCENEOE
 90
     1153
 91
        5
280
     0
281
     0
  0
CLASS
  1
DIMASSOC
  2
AcDbDimAssoc
  3
"AcDbDimAssoc|Product Desc:     AcDim ARX App For Dimension|Company:          Autodesk, Inc.|WEB Address:      www.autodesk.com"
 90
        0
 91
        4
280
     0
281
     0
  0
CLASS
  1
CELLSTYLEMAP
  2
AcDbCellStyleMap
  3
ObjectDBX Classes
 90
     1152
 91
        4
280
     0
281
     0
  0
ENDSEC
  0
SECTION
  2
TABLES
  0
TABLE
  2
VPORT
  5
7
330
0
100
AcDbSymbolTable
 70
     1
  0
VPORT
  5
15
330
7
100
AcDbSymbolTableRecord
100
AcDbViewportTableRecord
  2
*ACTIVE
 70
     0
 10
0.0
 20
0.0
 11
1.0
 21
1.0
 12
1061.425568948609
 22
1470.768569349558
 13
0.0
 23
0.0
 14
1.0
 24
1.0
 15
0.0
 25
0.0
 16
0.0
 26
0.0
 36
1.0
 17
0.0
 27
0.0
 37
0.0
 40
2890.021615685494
 41
1.791718946047679
 42
50.0
 43
0.0
 44
0.0
 50
0.0
 51
0.0
 71
    16
 72
  2000
 73
     1
 74
     1
 75
     0
 76
     0
 77
     0
 78
     0
281
     0
 65
     0
110
0.0
120
0.0
130
0.0
111
1.0
121
0.0
131
0.0
112
0.0
122
1.0
132
0.0
 79
     0
146
0.0
348
26E
 60
     3
 61
     5
292
     1
282
     1
141
0.0
142
0.0
 63
   250
361
289
  0
ENDTAB
  0
TABLE
  2
LTYPE
  5
4
330
0
100
AcDbSymbolTable
 70
    13
  0
LTYPE
  5
11
330
4
100
AcDbSymbolTableRecord
100
AcDbLinetypeTableRecord
  2
ByBlock
 70
     0
  3

 72
    65
 73
     0
 40
0.0
  0
LTYPE
  5
12
330
4
100
AcDbSymbolTableRecord
100
AcDbLinetypeTableRecord
  2
ByLayer
 70
     0
  3

 72
    65
 73
     0
 40
0.0
  0
LTYPE
  5
13
330
4
100
AcDbSymbolTableRecord
100
AcDbLinetypeTableRecord
  2
Continuous
 70
     0
  3
Solid line
 72
    65
 73
     0
 40
0.0
  0
LTYPE
  5
3D
330
4
100
AcDbSymbolTableRecord
100
AcDbLinetypeTableRecord
  2
STYLE_01
 70
     0
  3

 72
    65
 73
     2
 40
0.1875
 49
0.125
 74
     0
 49
-0.0625
 74
     0
  0
LTYPE
  5
3E
330
4
100
AcDbSymbolTableRecord
100
AcDbLinetypeTableRecord
  2
STYLE_02
 70
     0
  3

 72
    65
 73
     4
 40
0.4999999999999999
 49
0.25
 74
     0
 49
-0.125
 74
     0
 49
0.0005
 74
     0
 49
-0.1245
 74
     0
  0
LTYPE
  5
3F
330
4
100
AcDbSymbolTableRecord
100
AcDbLinetypeTableRecord
  2
STYLE_03
 70
     0
  3

 72
    65
 73
     2
 40
1.25
 49
1.04164
 74
     0
 49
-0.2083599999999999
 74
     0
  0
LTYPE
  5
40
330
4
100
AcDbSymbolTableRecord
100
AcDbLinetypeTableRecord
  2
STYLE_04
 70
     0
  3

 72
    65
 73
     2
 40
1.52771
 49
1.319425
 74
     0
 49
-0.208285
 74
     0
  0
LTYPE
  5
41
330
4
100
AcDbSymbolTableRecord
100
AcDbLinetypeTableRecord
  2
STYLE_05
 70
     0
  3

 72
    65
 73
     2
 40
0.20828
 49
0.069425
 74
     0
 49
-0.138855
 74
     0
  0
LTYPE
  5
42
330
4
100
AcDbSymbolTableRecord
100
AcDbLinetypeTableRecord
  2
STYLE_06
 70
     0
  3

 72
    65
 73
     4
 40
1.04164
 49
0.625
 74
     0
 49
-0.20828
 74
     0
 49
0.06943
 74
     0
 49
-0.13893
 74
     0
  0
LTYPE
  5
43
330
4
100
AcDbSymbolTableRecord
100
AcDbLinetypeTableRecord
  2
STYLE_07
 70
     0
  3

 72
    65
 73
     6
 40
1.875
 49
0.625
 74
     0
 49
-0.20828
 74
     0
 49
0.6250000000000001
 74
     0
 49
-0.2083599999999999
 74
     0
 49
0.06943
 74
     0
 49
-0.1389299999999999
 74
     0
  0
LTYPE
  5
44
330
4
100
AcDbSymbolTableRecord
100
AcDbLinetypeTableRecord
  2
STYLE_08
 70
     0
  3

 72
    65
 73
     6
 40
1.25
 49
0.625
 74
     0
 49
-0.20828
 74
     0
 49
0.06943
 74
     0
 49
-0.13893
 74
     0
 49
0.0694299999999999
 74
     0
 49
-0.13893
 74
     0
  0
LTYPE
  5
45
330
4
100
AcDbSymbolTableRecord
100
AcDbLinetypeTableRecord
  2
STYLE_09
 70
     0
  3

 72
    65
 73
     4
 40
5.0
 49
3.75
 74
     0
 49
-0.2777849999999998
 74
     0
 49
0.6944300000000003
 74
     0
 49
-0.2777849999999998
 74
     0
  0
LTYPE
  5
46
330
4
100
AcDbSymbolTableRecord
100
AcDbLinetypeTableRecord
  2
STYLE_10
 70
     0
  3

 72
    65
 73
     6
 40
5.9375
 49
3.75
 74
     0
 49
-0.2777849999999998
 74
     0
 49
0.6944300000000003
 74
     0
 49
-0.2777849999999998
 74
     0
 49
0.625
 74
     0
 49
-0.3125
 74
     0
  0
LTYPE
  5
47
330
4
100
AcDbSymbolTableRecord
100
AcDbLinetypeTableRecord
  2
STYLE_11
 70
     0
  3

 72
    65
 73
     2
 40
0.0694444881889764
 49
0.0347222440944882
 74
     0
 49
-0.0347222440944882
 74
     0
  0
LTYPE
  5
48
330
4
100
AcDbSymbolTableRecord
100
AcDbLinetypeTableRecord
  2
STYLE_12
 70
     0
  3

 72
    65
 73
     2
 40
0.3937007874015748
 49
0.1968503937007874
 74
     0
 49
-0.1968503937007874
 74
     0
  0
ENDTAB
  0
TABLE
  2
LAYER
  5
2
330
0
100
AcDbSymbolTable
 70
     6
  0
LAYER
  5
14
330
2
100
AcDbSymbolTableRecord
100
AcDbLayerTableRecord
  2
0
 70
     0
 62
     7
  6
Continuous
370
    -3
390
1D
347
285
  0
LAYER
  5
49
330
2
100
AcDbSymbolTableRecord
100
AcDbLayerTableRecord
  2
Defpoints
 70
     0
 62
     7
  6
Continuous
290
     0
370
    -3
390
1D
347
285
  0
LAYER
  5
4A
330
2
100
AcDbSymbolTableRecord
100
AcDbLayerTableRecord
  2
template
 70
     0
 62
     7
  6
Continuous
370
    -3
390
1D
347
285
  0
LAYER
  5
4B
330
2
100
AcDbSymbolTableRecord
100
AcDbLayerTableRecord
  2
cut
 70
     0
 62
     7
  6
Continuous
370
    -3
390
1D
347
285
  0
LAYER
  5
4C
330
2
100
AcDbSymbolTableRecord
100
AcDbLayerTableRecord
  2
notes
 70
     0
 62
     7
  6
Continuous
370
    -3
390
1D
347
285
  0
LAYER
  5
4D
330
2
100
AcDbSymbolTableRecord
100
AcDbLayerTableRecord
  2
ADF70-0603
 70
     0
 62
     7
  6
Continuous
370
    -3
390
1D
347
285
  0
ENDTAB
  0
TABLE
  2
STYLE
  5
3
330
0
100
AcDbSymbolTable
 70
     3
  0
STYLE
  5
17
330
3
100
AcDbSymbolTableRecord
100
AcDbTextStyleTableRecord
  2
Standard
 70
     0
 40
0.0
 41
1.0
 50
0.0
 71
     0
 42
0.0
  3
txt
  4
BIGFONT.SHX
  0
STYLE
  5
3B
330
3
100
AcDbSymbolTableRecord
100
AcDbTextStyleTableRecord
  2
ＭＳ ゴシック
 70
     0
 40
0.0
 41
1.0
 50
0.0
 71
     0
 42
0.0
  3
msgothic.ttc
  4
ＭＳ ゴシック
1001
ACAD
1000
ＭＳ ゴシック
1071
        0
  0
STYLE
  5
3C
330
3
100
AcDbSymbolTableRecord
100
AcDbTextStyleTableRecord
  2
ＭＳゴシック
 70
     0
 40
0.0
 41
1.0
 50
0.0
 71
     0
 42
0.0
  3

  4
ＭＳゴシック
1001
ACAD
1000
ＭＳゴシック
1071
        0
  0
ENDTAB
  0
TABLE
  2
VIEW
  5
5
330
0
100
AcDbSymbolTable
 70
     0
  0
ENDTAB
  0
TABLE
  2
UCS
  5
6
330
0
100
AcDbSymbolTable
 70
     0
  0
ENDTAB
  0
TABLE
  2
APPID
  5
8
330
0
100
AcDbSymbolTable
 70
     1
  0
APPID
  5
16
330
8
100
AcDbSymbolTableRecord
100
AcDbRegAppTableRecord
  2
ACAD
 70
     0
  0
ENDTAB
  0
TABLE
  2
DIMSTYLE
  5
9
330
0
100
AcDbSymbolTable
 70
     3
100
AcDbDimStyleTable
  0
DIMSTYLE
105
18
330
9
100
AcDbSymbolTableRecord
100
AcDbDimStyleTableRecord
  2
Standard
 70
     0
178
     0
340
17
  0
DIMSTYLE
105
56
102
{ACAD_REACTORS
330
2FE
330
2FF
330
300
102
}
330
9
100
AcDbSymbolTableRecord
100
AcDbDimStyleTableRecord
  2
tform線あり
 70
     0
  3
<>
  4
[]
 41
9.999389648437498
 42
25.0
 43
0.9999999999999999
 44
0.0
 73
     0
 74
     0
 77
     1
 78
    11
140
48.86523437500001
141
0.0
143
1.0
147
0.4999999999999999
171
     1
174
     1
178
     0
179
     2
271
     1
272
     1
276
     2
284
    11
285
    11
286
    11
289
     0
340
3C
341
4E
342
4E
  0
DIMSTYLE
105
5B
330
9
100
AcDbSymbolTableRecord
100
AcDbDimStyleTableRecord
  2
JIS
 70
     0
  3
<>
  4
[]
 41
31.75
 42
0.0
 43
6.99999999999994
 44
19.9999999999962
 73
     0
 74
     0
 77
     1
 78
    11
140
48.86523437500001
141
0.0
143
1.0
147
1.00000000000108
171
     1
174
     1
178
     0
179
     2
271
     1
272
     1
276
     2
284
    11
285
    11
286
    11
289
     0
340
3C
341
57
342
57
  0
ENDTAB
  0
TABLE
  2
BLOCK_RECORD
  5
1
330
0
100
AcDbSymbolTable
 70
    30
  0
BLOCK_RECORD
  5
A
330
1
100
AcDbSymbolTableRecord
100
AcDbBlockTableRecord
  2
*MODEL_SPACE
340
20
 70
     0
280
     1
281
     0
  0
BLOCK_RECORD
  5
B
330
1
100
AcDbSymbolTableRecord
100
AcDbBlockTableRecord
  2
*PAPER_SPACE
340
21
 70
     0
280
     1
281
     0
  0
BLOCK_RECORD
  5
4E
330
1
100
AcDbSymbolTableRecord
100
AcDbBlockTableRecord
  2
_DOT
340
0
102
{BLKREFS
331
68
331
69
331
75
331
76
331
C0
331
C1
331
101
331
102
331
306
331
307
102
}
 70
     0
280
     1
281
     0
  0
BLOCK_RECORD
  5
57
330
1
100
AcDbSymbolTableRecord
100
AcDbBlockTableRecord
  2
VW_FILLEDARROW
340
0
102
{BLKREFS
331
294
331
295
102
}
 70
     0
280
     1
281
     0
  0
BLOCK_RECORD
  5
23
330
1
100
AcDbSymbolTableRecord
100
AcDbBlockTableRecord
  2
グループ
340
0
102
{BLKREFS
331
1B0
102
}
 70
     0
280
     1
281
     0
  0
BLOCK_RECORD
  5
24
330
1
100
AcDbSymbolTableRecord
100
AcDbBlockTableRecord
  2
*D3
340
0
 70
     0
280
     1
281
     0
  0
BLOCK_RECORD
  5
25
330
1
100
AcDbSymbolTableRecord
100
AcDbBlockTableRecord
  2
*D4
340
0
 70
     0
280
     1
281
     0
  0
BLOCK_RECORD
  5
26
330
1
100
AcDbSymbolTableRecord
100
AcDbBlockTableRecord
  2
*D5
340
0
 70
     0
280
     1
281
     0
  0
BLOCK_RECORD
  5
27
330
1
100
AcDbSymbolTableRecord
100
AcDbBlockTableRecord
  2
グループ-1
340
0
 70
     0
280
     1
281
     0
  0
BLOCK_RECORD
  5
28
330
1
100
AcDbSymbolTableRecord
100
AcDbBlockTableRecord
  2
*D7
340
0
 70
     0
280
     1
281
     0
  0
BLOCK_RECORD
  5
29
330
1
100
AcDbSymbolTableRecord
100
AcDbBlockTableRecord
  2
*D8
340
0
 70
     0
280
     1
281
     0
  0
BLOCK_RECORD
  5
2A
330
1
100
AcDbSymbolTableRecord
100
AcDbBlockTableRecord
  2
*D9
340
0
 70
     0
280
     1
281
     0
  0
BLOCK_RECORD
  5
2B
330
1
100
AcDbSymbolTableRecord
100
AcDbBlockTableRecord
  2
*D10
340
0
 70
     0
280
     1
281
     0
  0
BLOCK_RECORD
  5
2C
330
1
100
AcDbSymbolTableRecord
100
AcDbBlockTableRecord
  2
*D11
340
0
 70
     0
280
     1
281
     0
  0
BLOCK_RECORD
  5
2D
330
1
100
AcDbSymbolTableRecord
100
AcDbBlockTableRecord
  2
*D12
340
0
 70
     0
280
     1
281
     0
  0
BLOCK_RECORD
  5
2E
330
1
100
AcDbSymbolTableRecord
100
AcDbBlockTableRecord
  2
*D13
340
0
 70
     0
280
     1
281
     0
  0
BLOCK_RECORD
  5
2F
330
1
100
AcDbSymbolTableRecord
100
AcDbBlockTableRecord
  2
*D14
340
0
 70
     0
280
     1
281
     0
  0
BLOCK_RECORD
  5
30
330
1
100
AcDbSymbolTableRecord
100
AcDbBlockTableRecord
  2
*D15
340
0
 70
     0
280
     1
281
     0
  0
BLOCK_RECORD
  5
31
330
1
100
AcDbSymbolTableRecord
100
AcDbBlockTableRecord
  2
*D16
340
0
 70
     0
280
     1
281
     0
  0
BLOCK_RECORD
  5
32
330
1
100
AcDbSymbolTableRecord
100
AcDbBlockTableRecord
  2
*D17
340
0
 70
     0
280
     1
281
     0
  0
BLOCK_RECORD
  5
33
330
1
100
AcDbSymbolTableRecord
100
AcDbBlockTableRecord
  2
*D18
340
0
 70
     0
280
     1
281
     0
  0
BLOCK_RECORD
  5
34
330
1
100
AcDbSymbolTableRecord
100
AcDbBlockTableRecord
  2
*D19
340
0
 70
     0
280
     1
281
     0
  0
BLOCK_RECORD
  5
35
330
1
100
AcDbSymbolTableRecord
100
AcDbBlockTableRecord
  2
*D20
340
0
 70
     0
280
     1
281
     0
  0
BLOCK_RECORD
  5
36
330
1
100
AcDbSymbolTableRecord
100
AcDbBlockTableRecord
  2
*D21
340
0
 70
     0
280
     1
281
     0
  0
BLOCK_RECORD
  5
37
330
1
100
AcDbSymbolTableRecord
100
AcDbBlockTableRecord
  2
*D22
340
0
 70
     0
280
     1
281
     0
  0
BLOCK_RECORD
  5
38
330
1
100
AcDbSymbolTableRecord
100
AcDbBlockTableRecord
  2
*D23
340
0
 70
     0
280
     1
281
     0
  0
BLOCK_RECORD
  5
39
330
1
100
AcDbSymbolTableRecord
100
AcDbBlockTableRecord
  2
*D24
340
0
 70
     0
280
     1
281
     0
  0
BLOCK_RECORD
  5
3A
330
1
100
AcDbSymbolTableRecord
100
AcDbBlockTableRecord
  2
*D25
340
0
 70
     0
280
     1
281
     0
  0
BLOCK_RECORD
  5
28E
330
1
100
AcDbSymbolTableRecord
100
AcDbBlockTableRecord
  2
*D26
340
0
 70
     0
280
     1
281
     0
  0
BLOCK_RECORD
  5
301
330
1
100
AcDbSymbolTableRecord
100
AcDbBlockTableRecord
  2
*D27
340
0
 70
     0
280
     1
281
     0
  0
BLOCK_RECORD
  5
334
330
1
100
AcDbSymbolTableRecord
100
AcDbBlockTableRecord
  2
*D28
340
0
 70
     0
280
     1
281
     0
  0
ENDTAB
  0
ENDSEC
  0
SECTION
  2
BLOCKS
  0
BLOCK
  5
D
330
A
100
AcDbEntity
  8
0
390
1D
100
AcDbBlockBegin
  2
*MODEL_SPACE
 70
     0
 10
0.0
 20
0.0
 30
0.0
  3
*MODEL_SPACE
  1
*MODEL_SPACE
  0
ENDBLK
  5
E
330
A
100
AcDbEntity
  8
0
390
1D
100
AcDbBlockEnd
  0
BLOCK
  5
F
330
B
100
AcDbEntity
 67
     1
  8
0
390
1D
100
AcDbBlockBegin
  2
*PAPER_SPACE
 70
     0
 10
0.0
 20
0.0
 30
0.0
  3
*PAPER_SPACE
  1
*PAPER_SPACE
  0
ENDBLK
  5
10
330
B
100
AcDbEntity
 67
     1
  8
0
390
1D
100
AcDbBlockEnd
  0
BLOCK
  5
4F
330
4E
100
AcDbEntity
  8
0
390
1D
100
AcDbBlockBegin
  2
_DOT
 70
     0
 10
0.0
 20
0.0
 30
0.0
  3
_DOT
  1
_DOT
  0
POLYLINE
  5
50
330
4E
100
AcDbEntity
  8
0
  6
ByBlock
 62
     0
370
    -2
390
1D
100
AcDb2dPolyline
 66
     1
 10
0.0
 20
0.0
 30
0.0
 70
     1
 40
0.5
 41
0.5
  0
VERTEX
  5
51
330
50
100
AcDbEntity
  8
0
  6
ByBlock
 62
     0
370
    -2
390
1D
100
AcDbVertex
100
AcDb2dVertex
 10
-0.25
 20
0.0
 30
0.0
 42
1.0
  0
VERTEX
  5
52
330
50
100
AcDbEntity
  8
0
  6
ByBlock
 62
     0
370
    -2
390
1D
100
AcDbVertex
100
AcDb2dVertex
 10
0.25
 20
0.0
 30
0.0
 42
1.0
  0
SEQEND
  5
53
330
50
100
AcDbEntity
  8
0
390
1D
  0
LINE
  5
54
330
4E
100
AcDbEntity
  8
0
  6
ByBlock
 62
     0
370
    -2
390
1D
100
AcDbLine
 10
-0.5
 20
0.0
 30
0.0
 11
-1.0
 21
0.0
 31
0.0
  0
ENDBLK
  5
55
330
4E
100
AcDbEntity
  8
0
390
1D
100
AcDbBlockEnd
  0
BLOCK
  5
58
330
57
100
AcDbEntity
  8
0
  6
ByBlock
 62
     0
370
    -2
390
1D
100
AcDbBlockBegin
  2
VW_FILLEDARROW
 70
     0
 10
0.0
 20
0.0
 30
0.0
  3
VW_FILLEDARROW
  1
VW_FILLEDARROW
  0
SOLID
  5
59
330
57
100
AcDbEntity
  8
0
 62
     0
370
    -2
390
1D
100
AcDbTrace
 10
0.0
 20
0.0
 30
0.0
 11
-0.9921874999999999
 21
-0.2658558393652545
 31
0.0
 12
-0.9921874999999999
 22
0.2658558393652548
 32
0.0
 13
-0.9921874999999999
 23
0.2658558393652548
 33
0.0
  0
ENDBLK
  5
5A
330
57
100
AcDbEntity
  8
0
390
1D
100
AcDbBlockEnd
  0
BLOCK
  5
5C
330
23
100
AcDbEntity
  8
template
390
1D
100
AcDbBlockBegin
  2
グループ
 70
     0
 10
0.0
 20
0.0
 30
0.0
  3
グループ
  1
グループ
  0
LWPOLYLINE
  5
5D
330
23
100
AcDbEntity
  8
0
  6
Continuous
 62
     7
370
    15
390
1D
100
AcDbPolyline
 90
        8
 70
   129
 43
0.0
 10
514.4159956213682
 20
-1142.577235532725
 10
514.4159956213682
 20
-1148.574624226301
 10
504.9147987033649
 20
-1148.574624226301
 10
504.9147987033649
 20
-1173.025587489809
 10
496.5594214415821
 20
-1173.025587489809
 10
496.5594214415821
 20
-1148.574624226301
 10
487.2264644952726
 20
-1148.574624226301
 10
487.2264644952726
 20
-1142.577235532725
  0
LWPOLYLINE
  5
5E
330
23
100
AcDbEntity
  8
0
  6
Continuous
 62
     7
370
    15
390
1D
100
AcDbPolyline
 90
      101
 70
   128
 43
0.0
 10
527.144287451925
 20
-1143.305484025661
 10
527.1596374807068
 20
-1143.301123268977
 42
-0.0222221607814026
 10
527.4496420573812
 20
-1143.232498803731
 10
527.4654358213792
 20
-1143.229495380634
 42
-0.0146883565583658
 10
527.728138526599
 20
-1143.187492193685
 42
-0.0127458844187891
 10
527.9927774937477
 20
-1143.159955225613
 10
528.0552325720648
 20
-1143.155061803024
 42
-0.0198099018567725
 10
528.4460816815401
 20
-1143.139976645628
 10
528.4978931509854
 20
-1143.140030421293
 42
-0.0147617382765274
 10
528.9925166119564
 20
-1143.155150446538
 10
529.0652080668364
 20
-1143.159523053426
 42
-0.0162624549002986
 10
529.4553616962992
 20
-1143.195755928698
 10
529.5768940875646
 20
-1143.211042487695
 42
-0.0080020874661687
 10
529.7224731186499
 20
-1143.231725334963
 10
529.7607925892307
 20
-1143.237796612771
 42
-0.0053821929683088
 10
529.8292766945597
 20
-1143.249404136595
 10
529.1028709953612
 20
-1145.430332592309
 42
0.0108667757397007
 10
529.035553925227
 20
-1145.417145477089
 10
528.9980859020408
 20
-1145.410647734495
 42
0.0170663203310943
 10
528.8548691151263
 20
-1145.390818137203
 10
528.7869937824423
 20
-1145.383770966616
 42
0.0220162375273891
 10
528.5066143745884
 20
-1145.367088605846
 10
528.4287588075349
 20
-1145.365889238579
 42
0.0282606915783937
 10
528.093122483957
 20
-1145.379692515548
 10
528.0492092101829
 20
-1145.383992505552
 42
0.0169677213687025
 10
527.8032847152257
 20
-1145.416529555104
 42
0.0190576269870187
 10
527.5603767526455
 20
-1145.46667642721
 10
527.5541175645347
 20
-1145.468219401319
 42
0.0213685642842498
 10
527.3037330800565
 20
-1145.541419686424
 10
527.2982431851408
 20
-1145.543282682483
 42
0.0237595297594049
 10
527.0447483002408
 20
-1145.642967204379
 10
527.0396462262124
 20
-1145.645258979857
 42
0.0261857468811547
 10
526.7874754499842
 20
-1145.77479531723
 10
526.777049260897
 20
-1145.780860791699
 42
0.0272553062017181
 10
526.5406194856571
 20
-1145.936232997644
 10
526.5058564721471
 20
-1145.961894145737
 42
0.0325996893178025
 10
526.3557011284961
 20
-1146.088642018708
 10
526.3319916993711
 20
-1146.111460047222
 42
0.013805096063754
 10
526.2401085431629
 20
-1146.204909708772
 42
0.0125280103798276
 10
526.1532660103322
 20
-1146.303073035369
 10
526.129585565421
 20
-1146.33123153356
 42
0.0205218024730677
 10
526.0044854899064
 20
-1146.49302484779
 10
525.9820191494202
 20
-1146.524684577616
 42
0.0163110129582301
 10
525.826308770171
 20
-1146.760015012683
 10
525.823584874118
 20
-1146.764438774671
 42
0.0131897341904448
 10
525.6767843532089
 20
-1147.017570867041
 10
525.6750842578456
 20
-1147.020689106171
 42
0.0107895576061673
 10
525.537307555635
 20
-1147.286904315806
 10
525.5365746661097
 20
-1147.288398548453
 42
0.0091371507218305
 10
525.4080947174593
 20
-1147.562923746214
 10
525.378349086051
 20
-1147.629630253371
 42
0.0135418326351237
 10
525.206635146979
 20
-1148.044568038641
 10
525.1730303385472
 20
-1148.132434180916
 42
0.0092834542408606
 10
525.0018012786242
 20
-1148.606332679227
 10
524.976184150902
 20
-1148.681573749034
 42
0.0054261043581863
 10
524.8685460026136
 20
-1149.009337722085
 10
524.8510200164274
 20
-1149.064725884343
 42
0.000822509081558
 10
524.782349964606
 20
-1149.282994642464
 10
523.7976608326726
 20
-1152.307885935721
 10
527.0302846727466
 20
-1152.307885935721
 10
526.5260922428931
 20
-1154.212364234073
 10
523.2700359609098
 20
-1154.212364234073
 10
517.440886928556
 20
-1173.025587300078
 10
515.6157893182456
 20
-1173.025587300078
 10
521.4504673537465
 20
-1154.212364234073
 10
519.0453509847061
 20
-1154.212364234073
 10
519.5495434145596
 20
-1152.307885935721
 10
521.9780922255097
 20
-1152.307885935721
 10
522.8382471436983
 20
-1149.671472935022
 42
-0.0005863560622807
 10
522.8749818218811
 20
-1149.554646514796
 10
522.9510696555623
 20
-1149.313654215345
 42
-0.0087522378929913
 10
523.1505377990176
 20
-1148.718378128203
 10
523.2428020744318
 20
-1148.458237959688
 42
-0.0077400953829738
 10
523.5007357335637
 20
-1147.765233282137
 10
523.5165007051459
 20
-1147.724802398743
 42
-0.0082369946329987
 10
523.7635851757545
 20
-1147.120723332555
 42
-0.0085725238364229
 10
524.0308312717564
 20
-1146.525297293271
 10
524.1324608727672
 20
-1146.308876191278
 42
-0.0168109410595838
 10
524.4194053014947
 20
-1145.747668665179
 10
524.5452486919188
 20
-1145.520704632244
 42
-0.0007817726856607
 10
524.5995330420104
 20
-1145.42316038715
 10
524.5996613480202
 20
-1145.422930678428
 42
-0.0036626142157881
 10
524.654549212049
 20
-1145.326332798445
 42
-0.0080221150670984
 10
524.7116734674589
 20
-1145.231053563688
 10
524.7423734188169
 20
-1145.181662614571
 42
-0.020213932557516
 10
524.8700291586233
 20
-1144.993681013889
 10
524.9240966238112
 20
-1144.920602149648
 42
-0.0249323791800196
 10
525.1832594175294
 20
-1144.604556907495
 10
525.2073992316574
 20
-1144.577942634581
 42
-0.0242132121539114
 10
525.5470799731966
 20
-1144.23805914838
 10
525.594991545951
 20
-1144.19455001219
 42
-0.0251017527858837
 10
525.8789732465907
 20
-1143.961557266427
 10
525.8804187234035
 20
-1143.960488008848
 42
-0.0130868069040295
 10
526.1786793733618
 20
-1143.751707540305
 10
526.1802411925026
 20
-1143.750674100031
 42
-0.0290329526392199
 10
526.4913523338978
 20
-1143.569848598401
 10
526.5211978958832
 20
-1143.554746215561
 42
-0.0160250190048317
 10
526.7871023096485
 20
-1143.430730105348
 42
-0.0267600374782374
 10
527.0623783871177
 20
-1143.329981784799
 10
527.0891143066381
 20
-1143.321789225974
 42
-0.0049981587669928
 10
527.144287451925
 20
-1143.305484025661
 42
-0.0049981587669928
  0
LWPOLYLINE
  5
5F
330
23
100
AcDbEntity
  8
0
  6
Continuous
 62
     7
370
    15
390
1D
100
AcDbPolyline
 90
      118
 70
   128
 43
0.0
 10
546.958655016372
 20
-1152.381869263548
 10
548.8337769408715
 20
-1152.381869263548
 10
547.9957380352716
 20
-1155.063435789948
 42
-0.0010587229245241
 10
548.0271938508668
 20
-1155.026531256566
 10
548.0853879414755
 20
-1154.958549000417
 42
-0.0071874740406837
 10
548.2357631595685
 20
-1154.787908308394
 10
548.3774859328358
 20
-1154.631672167075
 42
-0.01481180535121
 10
548.8276152255513
 20
-1154.164058321059
 10
548.9148375604465
 20
-1154.078661000212
 42
-0.0086273358691157
 10
549.2503863614587
 20
-1153.761285366192
 10
549.2942200776827
 20
-1153.721235721861
 42
-0.0103138323113868
 10
549.5522437799181
 20
-1153.495072584521
 10
549.5980181862438
 20
-1153.456590537262
 42
-0.006020674856387
 10
549.7708662503574
 20
-1153.314795886506
 10
549.7728973812423
 20
-1153.313170180876
 42
-0.0067069027286091
 10
549.9451901959059
 20
-1153.17901954708
 10
549.9477389618289
 20
-1153.177089377207
 42
-0.0076184352045024
 10
550.1186442277033
 20
-1153.051714501961
 42
-0.0089652861669094
 10
550.293605190442
 20
-1152.932081241626
 10
550.3299569105814
 20
-1152.908170028146
 42
-0.0156916245935695
 10
550.5259164077428
 20
-1152.787907541671
 42
-0.0023299011061145
 10
550.726178451689
 20
-1152.674729602149
 10
550.7415625841024
 20
-1152.666129607065
 42
-0.0107669341487122
 10
550.9757994092045
 20
-1152.541729473716
 10
550.9980642102787
 20
-1152.530512723766
 42
-0.007805804589798
 10
551.2816543282256
 20
-1152.39315126813
 10
551.2915614159406
 20
-1152.388542140259
 42
-0.0181829330467043
 10
551.6018708205613
 20
-1152.257678399161
 10
551.6559262631199
 20
-1152.237163279221
 42
-0.0208411536029568
 10
552.0050112305731
 20
-1152.121072816727
 10
552.0193673306995
 20
-1152.116954371774
 42
-0.0222799817137052
 10
552.3480871246179
 20
-1152.038312805633
 10
552.3569760878529
 20
-1152.036600795048
 42
-0.0215509523884655
 10
552.6734470561347
 20
-1151.989685106514
 10
552.715929017181
 20
-1151.985247579723
 42
-0.0182545924872772
 10
552.9500377964889
 20
-1151.969403754332
 10
552.9894388128301
 20
-1151.968179209253
 42
-0.0072962856539052
 10
553.1453616925259
 20
-1151.96560988073
 10
553.1744613631093
 20
-1151.965555045327
 42
-0.0059227516303443
 10
553.2722108622428
 20
-1151.966528757117
 10
553.3014530797153
 20
-1151.96716652372
 42
-0.0011833111904845
 10
553.3407043634472
 20
-1151.96811552803
 10
552.5453177678401
 20
-1154.506849473129
 42
0.0143932051541561
 10
552.5189163854894
 20
-1154.496650503084
 10
552.5116444130721
 20
-1154.494079284227
 42
0.023438860349752
 10
552.4698135471406
 20
-1154.481460048512
 10
552.4611318842273
 20
-1154.479279086506
 42
0.0199162742972659
 10
552.4008430501477
 20
-1154.466662351171
 10
552.380029112341
 20
-1154.463165151743
 42
0.0293643550672353
 10
552.2769542535823
 20
-1154.45201510609
 10
552.2522690728616
 20
-1154.450803489071
 42
0.0214606686870364
 10
552.0991281569084
 20
-1154.449864928654
 10
552.0897562460913
 20
-1154.450209840198
 42
0.0167564054184735
 10
551.9182360549854
 20
-1154.462286882566
 10
551.9097762622238
 20
-1154.463168222993
 42
0.0137677553242894
 10
551.7224229489601
 20
-1154.487917531536
 10
551.7150712094513
 20
-1154.489095451505
 42
0.0118497261479869
 10
551.5145734453556
 20
-1154.526112801693
 10
551.5084234381027
 20
-1154.527399664414
 42
0.0106421143896313
 10
551.2975425508077
 20
-1154.576232039991
 10
551.2926337424285
 20
-1154.577479382674
 42
0.0099746379702285
 10
551.0741752732699
 20
-1154.637653910987
 10
551.0126272330958
 20
-1154.655935789619
 42
0.0191613675860625
 10
550.6766427705785
 20
-1154.769913169907
 10
550.5885829978345
 20
-1154.803600080231
 42
0.0205274080147477
 10
550.2032762259341
 20
-1154.969428488057
 10
550.1456269439576
 20
-1154.997096452626
 42
0.0181256912186603
 10
549.8873500032852
 20
-1155.132780271607
 10
549.8343946199708
 20
-1155.163097884822
 42
0.014070924240841
 10
549.6894396853428
 20
-1155.251592558256
 10
549.6631908167318
 20
-1155.268649376967
 42
0.0086667884383694
 10
549.5742646551818
 20
-1155.328652044854
 42
0.0036408192026277
 10
549.486831417149
 20
-1155.390832902646
 10
549.4516045426798
 20
-1155.41627384856
 42
0.0052260781282971
 10
549.295375845286
 20
-1155.531606235196
 10
549.2791689890291
 20
-1155.543834345812
 42
0.0050024435894335
 10
549.0931656459701
 20
-1155.687116914074
 10
549.0778474894552
 20
-1155.69916293652
 42
0.0136138710274103
 10
548.8674062211287
 20
-1155.874129441434
 10
548.8337383453362
 20
-1155.903708414147
 42
0.0172815186912981
 10
548.5693348036738
 20
-1156.152705086771
 10
548.5667724578311
 20
-1156.155290903918
 42
0.0189403857988868
 10
548.3161906592549
 20
-1156.428096168719
 10
548.283559165714
 20
-1156.466440100222
 42
0.0185044199509421
 10
548.091602726736
 20
-1156.709688681342
 42
0.008856524390124
 10
547.913142620107
 20
-1156.963205101493
 10
547.9039646404591
 20
-1156.976746481252
 42
0.0157195347225947
 10
547.7207440341242
 20
-1157.266268690569
 10
547.6746610922002
 20
-1157.344420887579
 42
0.0095451879775794
 10
547.5095755420565
 20
-1157.637015529946
 10
547.4984276231261
 20
-1157.657686202079
 42
0.0100351706251924
 10
547.3663838739675
 20
-1157.914741762568
 42
0.0086935915425788
 10
547.2440527221725
 20
-1158.176574907975
 10
547.2407319807589
 20
-1158.184017230944
 42
0.0072580174865627
 10
547.1203855288146
 20
-1158.464609222526
 10
547.1171238955077
 20
-1158.472529248545
 42
0.0060005122617791
 10
546.9979232271653
 20
-1158.77213891915
 10
546.9947122488235
 20
-1158.780500447055
 42
0.0049017786974609
 10
546.8758120899686
 20
-1159.099429427653
 10
546.8726462835756
 20
-1159.10818236489
 42
0.0039415167597635
 10
546.753210005524
 20
-1159.446724427288
 10
546.7500789028667
 20
-1159.455827628179
 42
0.0031035838763064
 10
546.6292741171686
 20
-1159.814267489968
 10
546.6261640726432
 20
-1159.823688111328
 42
0.0025070747151407
 10
546.5032627213359
 20
-1160.202335328246
 10
546.4659688249025
 20
-1160.319226993525
 42
0.0029081910285479
 10
546.2739505270905
 20
-1160.93339065182
 10
546.2331473585747
 20
-1161.066613894092
 42
0.0009266453736009
 10
545.9647299842395
 20
-1161.948838354083
 10
545.943842511643
 20
-1162.017950233173
 42
-0.000580999366583
 10
545.6665058310281
 20
-1162.931758339891
 10
545.6002240327613
 20
-1163.14924327203
 42
-0.001201870816682
 10
545.453239723326
 20
-1163.627405936571
 10
545.4009198717215
 20
-1163.796165077562
 42
-0.0002691059608971
 10
545.3573503905918
 20
-1163.936432697779
 10
542.5243944923027
 20
-1173.025587300078
 10
540.7064056003242
 20
-1173.025587300078
 10
546.958655016372
 20
-1152.381869263548
  0
SPLINE
  5
60
330
23
100
AcDbEntity
  8
0
  6
Continuous
 62
     7
370
    15
390
1D
100
AcDbSpline
210
0.0
220
0.0
230
1.0
 70
    15
 71
     2
 72
   782
 73
   779
 74
     0
 42
0.000000001
 43
0.000001
 40
0.0
 40
0.0
 40
0.0
 40
1.0
 40
1.0
 40
2.0
 40
2.0
 40
3.0
 40
3.0
 40
4.0
 40
4.0
 40
5.0
 40
5.0
 40
6.0
 40
6.0
 40
7.0
 40
7.0
 40
8.0
 40
8.0
 40
9.0
 40
9.0
 40
10.0
 40
10.0
 40
11.0
 40
11.0
 40
12.0
 40
12.0
 40
13.0
 40
13.0
 40
14.0
 40
14.0
 40
15.0
 40
15.0
 40
16.0
 40
16.0
 40
17.0
 40
17.0
 40
18.0
 40
18.0
 40
19.0
 40
19.0
 40
20.0
 40
20.0
 40
21.0
 40
21.0
 40
22.0
 40
22.0
 40
23.0
 40
23.0
 40
24.0
 40
24.0
 40
25.0
 40
25.0
 40
26.0
 40
26.0
 40
27.0
 40
27.0
 40
28.0
 40
28.0
 40
29.0
 40
29.0
 40
30.0
 40
30.0
 40
31.0
 40
31.0
 40
32.0
 40
32.0
 40
33.0
 40
33.0
 40
34.0
 40
34.0
 40
35.0
 40
35.0
 40
36.0
 40
36.0
 40
37.0
 40
37.0
 40
38.0
 40
38.0
 40
39.0
 40
39.0
 40
40.0
 40
40.0
 40
41.0
 40
41.0
 40
42.0
 40
42.0
 40
43.0
 40
43.0
 40
44.0
 40
44.0
 40
45.0
 40
45.0
 40
46.0
 40
46.0
 40
47.0
 40
47.0
 40
48.0
 40
48.0
 40
49.0
 40
49.0
 40
50.0
 40
50.0
 40
51.0
 40
51.0
 40
52.0
 40
52.0
 40
53.0
 40
53.0
 40
54.0
 40
54.0
 40
55.0
 40
55.0
 40
56.0
 40
56.0
 40
57.0
 40
57.0
 40
58.0
 40
58.0
 40
59.0
 40
59.0
 40
60.0
 40
60.0
 40
61.0
 40
61.0
 40
62.0
 40
62.0
 40
63.0
 40
63.0
 40
64.0
 40
64.0
 40
65.0
 40
65.0
 40
66.0
 40
66.0
 40
67.0
 40
67.0
 40
68.0
 40
68.0
 40
69.0
 40
69.0
 40
70.0
 40
70.0
 40
71.0
 40
71.0
 40
72.0
 40
72.0
 40
73.0
 40
73.0
 40
74.0
 40
74.0
 40
75.0
 40
75.0
 40
76.0
 40
76.0
 40
77.0
 40
77.0
 40
78.0
 40
78.0
 40
79.0
 40
79.0
 40
80.0
 40
80.0
 40
81.0
 40
81.0
 40
82.0
 40
82.0
 40
83.0
 40
83.0
 40
84.0
 40
84.0
 40
85.0
 40
85.0
 40
86.0
 40
86.0
 40
87.0
 40
87.0
 40
88.0
 40
88.0
 40
89.0
 40
89.0
 40
90.0
 40
90.0
 40
91.0
 40
91.0
 40
92.0
 40
92.0
 40
93.0
 40
93.0
 40
94.0
 40
94.0
 40
95.0
 40
95.0
 40
96.0
 40
96.0
 40
97.0
 40
97.0
 40
98.0
 40
98.0
 40
99.0
 40
99.0
 40
100.0
 40
100.0
 40
101.0
 40
101.0
 40
102.0
 40
102.0
 40
103.0
 40
103.0
 40
104.0
 40
104.0
 40
105.0
 40
105.0
 40
106.0
 40
106.0
 40
107.0
 40
107.0
 40
108.0
 40
108.0
 40
109.0
 40
109.0
 40
110.0
 40
110.0
 40
111.0
 40
111.0
 40
112.0
 40
112.0
 40
113.0
 40
113.0
 40
114.0
 40
114.0
 40
115.0
 40
115.0
 40
116.0
 40
116.0
 40
117.0
 40
117.0
 40
118.0
 40
118.0
 40
119.0
 40
119.0
 40
120.0
 40
120.0
 40
121.0
 40
121.0
 40
122.0
 40
122.0
 40
123.0
 40
123.0
 40
124.0
 40
124.0
 40
125.0
 40
125.0
 40
126.0
 40
126.0
 40
127.0
 40
127.0
 40
128.0
 40
128.0
 40
129.0
 40
129.0
 40
130.0
 40
130.0
 40
131.0
 40
131.0
 40
132.0
 40
132.0
 40
133.0
 40
133.0
 40
134.0
 40
134.0
 40
135.0
 40
135.0
 40
136.0
 40
136.0
 40
137.0
 40
137.0
 40
138.0
 40
138.0
 40
139.0
 40
139.0
 40
140.0
 40
140.0
 40
141.0
 40
141.0
 40
142.0
 40
142.0
 40
143.0
 40
143.0
 40
144.0
 40
144.0
 40
145.0
 40
145.0
 40
146.0
 40
146.0
 40
147.0
 40
147.0
 40
148.0
 40
148.0
 40
149.0
 40
149.0
 40
150.0
 40
150.0
 40
151.0
 40
151.0
 40
152.0
 40
152.0
 40
153.0
 40
153.0
 40
154.0
 40
154.0
 40
155.0
 40
155.0
 40
156.0
 40
156.0
 40
157.0
 40
157.0
 40
158.0
 40
158.0
 40
159.0
 40
159.0
 40
160.0
 40
160.0
 40
161.0
 40
161.0
 40
162.0
 40
162.0
 40
163.0
 40
163.0
 40
164.0
 40
164.0
 40
165.0
 40
165.0
 40
166.0
 40
166.0
 40
167.0
 40
167.0
 40
168.0
 40
168.0
 40
169.0
 40
169.0
 40
170.0
 40
170.0
 40
171.0
 40
171.0
 40
172.0
 40
172.0
 40
173.0
 40
173.0
 40
174.0
 40
174.0
 40
175.0
 40
175.0
 40
176.0
 40
176.0
 40
177.0
 40
177.0
 40
178.0
 40
178.0
 40
179.0
 40
179.0
 40
180.0
 40
180.0
 40
181.0
 40
181.0
 40
182.0
 40
182.0
 40
183.0
 40
183.0
 40
184.0
 40
184.0
 40
185.0
 40
185.0
 40
186.0
 40
186.0
 40
187.0
 40
187.0
 40
188.0
 40
188.0
 40
189.0
 40
189.0
 40
190.0
 40
190.0
 40
191.0
 40
191.0
 40
192.0
 40
192.0
 40
193.0
 40
193.0
 40
194.0
 40
194.0
 40
195.0
 40
195.0
 40
196.0
 40
196.0
 40
197.0
 40
197.0
 40
198.0
 40
198.0
 40
199.0
 40
199.0
 40
200.0
 40
200.0
 40
201.0
 40
201.0
 40
202.0
 40
202.0
 40
203.0
 40
203.0
 40
204.0
 40
204.0
 40
205.0
 40
205.0
 40
206.0
 40
206.0
 40
207.0
 40
207.0
 40
208.0
 40
208.0
 40
209.0
 40
209.0
 40
210.0
 40
210.0
 40
211.0
 40
211.0
 40
212.0
 40
212.0
 40
213.0
 40
213.0
 40
214.0
 40
214.0
 40
215.0
 40
215.0
 40
216.0
 40
216.0
 40
217.0
 40
217.0
 40
218.0
 40
218.0
 40
219.0
 40
219.0
 40
220.0
 40
220.0
 40
221.0
 40
221.0
 40
222.0
 40
222.0
 40
223.0
 40
223.0
 40
224.0
 40
224.0
 40
225.0
 40
225.0
 40
226.0
 40
226.0
 40
227.0
 40
227.0
 40
228.0
 40
228.0
 40
229.0
 40
229.0
 40
230.0
 40
230.0
 40
231.0
 40
231.0
 40
232.0
 40
232.0
 40
233.0
 40
233.0
 40
234.0
 40
234.0
 40
235.0
 40
235.0
 40
236.0
 40
236.0
 40
237.0
 40
237.0
 40
238.0
 40
238.0
 40
239.0
 40
239.0
 40
240.0
 40
240.0
 40
241.0
 40
241.0
 40
242.0
 40
242.0
 40
243.0
 40
243.0
 40
244.0
 40
244.0
 40
245.0
 40
245.0
 40
246.0
 40
246.0
 40
247.0
 40
247.0
 40
248.0
 40
248.0
 40
249.0
 40
249.0
 40
250.0
 40
250.0
 40
251.0
 40
251.0
 40
252.0
 40
252.0
 40
253.0
 40
253.0
 40
254.0
 40
254.0
 40
255.0
 40
255.0
 40
256.0
 40
256.0
 40
257.0
 40
257.0
 40
258.0
 40
258.0
 40
259.0
 40
259.0
 40
260.0
 40
260.0
 40
261.0
 40
261.0
 40
262.0
 40
262.0
 40
263.0
 40
263.0
 40
264.0
 40
264.0
 40
265.0
 40
265.0
 40
266.0
 40
266.0
 40
267.0
 40
267.0
 40
268.0
 40
268.0
 40
269.0
 40
269.0
 40
270.0
 40
270.0
 40
271.0
 40
271.0
 40
272.0
 40
272.0
 40
273.0
 40
273.0
 40
274.0
 40
274.0
 40
275.0
 40
275.0
 40
276.0
 40
276.0
 40
277.0
 40
277.0
 40
278.0
 40
278.0
 40
279.0
 40
279.0
 40
280.0
 40
280.0
 40
281.0
 40
281.0
 40
282.0
 40
282.0
 40
283.0
 40
283.0
 40
284.0
 40
284.0
 40
285.0
 40
285.0
 40
286.0
 40
286.0
 40
287.0
 40
287.0
 40
288.0
 40
288.0
 40
289.0
 40
289.0
 40
290.0
 40
290.0
 40
291.0
 40
291.0
 40
292.0
 40
292.0
 40
293.0
 40
293.0
 40
294.0
 40
294.0
 40
295.0
 40
295.0
 40
296.0
 40
296.0
 40
297.0
 40
297.0
 40
298.0
 40
298.0
 40
299.0
 40
299.0
 40
300.0
 40
300.0
 40
301.0
 40
301.0
 40
302.0
 40
302.0
 40
303.0
 40
303.0
 40
304.0
 40
304.0
 40
305.0
 40
305.0
 40
306.0
 40
306.0
 40
307.0
 40
307.0
 40
308.0
 40
308.0
 40
309.0
 40
309.0
 40
310.0
 40
310.0
 40
311.0
 40
311.0
 40
312.0
 40
312.0
 40
313.0
 40
313.0
 40
314.0
 40
314.0
 40
315.0
 40
315.0
 40
316.0
 40
316.0
 40
317.0
 40
317.0
 40
318.0
 40
318.0
 40
319.0
 40
319.0
 40
320.0
 40
320.0
 40
321.0
 40
321.0
 40
322.0
 40
322.0
 40
323.0
 40
323.0
 40
324.0
 40
324.0
 40
325.0
 40
325.0
 40
326.0
 40
326.0
 40
327.0
 40
327.0
 40
328.0
 40
328.0
 40
329.0
 40
329.0
 40
330.0
 40
330.0
 40
331.0
 40
331.0
 40
332.0
 40
332.0
 40
333.0
 40
333.0
 40
334.0
 40
334.0
 40
335.0
 40
335.0
 40
336.0
 40
336.0
 40
337.0
 40
337.0
 40
338.0
 40
338.0
 40
339.0
 40
339.0
 40
340.0
 40
340.0
 40
341.0
 40
341.0
 40
342.0
 40
342.0
 40
343.0
 40
343.0
 40
344.0
 40
344.0
 40
345.0
 40
345.0
 40
346.0
 40
346.0
 40
347.0
 40
347.0
 40
348.0
 40
348.0
 40
349.0
 40
349.0
 40
350.0
 40
350.0
 40
351.0
 40
351.0
 40
352.0
 40
352.0
 40
353.0
 40
353.0
 40
354.0
 40
354.0
 40
355.0
 40
355.0
 40
356.0
 40
356.0
 40
357.0
 40
357.0
 40
358.0
 40
358.0
 40
359.0
 40
359.0
 40
360.0
 40
360.0
 40
361.0
 40
361.0
 40
362.0
 40
362.0
 40
363.0
 40
363.0
 40
364.0
 40
364.0
 40
365.0
 40
365.0
 40
366.0
 40
366.0
 40
367.0
 40
367.0
 40
368.0
 40
368.0
 40
369.0
 40
369.0
 40
370.0
 40
370.0
 40
371.0
 40
371.0
 40
372.0
 40
372.0
 40
373.0
 40
373.0
 40
374.0
 40
374.0
 40
375.0
 40
375.0
 40
376.0
 40
376.0
 40
377.0
 40
377.0
 40
378.0
 40
378.0
 40
379.0
 40
379.0
 40
380.0
 40
380.0
 40
381.0
 40
381.0
 40
382.0
 40
382.0
 40
383.0
 40
383.0
 40
384.0
 40
384.0
 40
385.0
 40
385.0
 40
386.0
 40
386.0
 40
387.0
 40
387.0
 40
388.0
 40
388.0
 40
389.0
 40
389.0
 40
389.0
 10
557.2873594671046
 20
-1152.370942900186
 30
0.0
 41
1.0
 10
558.1057835758251
 20
-1152.370942900186
 30
0.0
 41
1.0
 10
558.9242076845455
 20
-1152.370942900186
 30
0.0
 41
1.0
 10
558.5104539490288
 20
-1153.713569164436
 30
0.0
 41
1.0
 10
558.0967002135121
 20
-1155.056195428685
 30
0.0
 41
1.0
 10
558.115039708666
 20
-1155.027494655796
 30
0.0
 41
0.9999957264398098
 10
558.1335467055013
 20
-1154.998901605638
 30
0.0
 41
1.0
 10
558.1639760296433
 20
-1154.951888727255
 30
0.0
 41
1.0
 10
558.1944053537853
 20
-1154.904875848872
 30
0.0
 41
1.0
 10
558.2737709988905
 20
-1154.782257041969
 30
0.0
 41
0.9995394069080765
 10
558.3604293904422
 20
-1154.664678980228
 30
0.0
 41
1.0
 10
558.3961862527024
 20
-1154.616164087634
 30
0.0
 41
1.0
 10
558.4319431149626
 20
-1154.56764919504
 30
0.0
 41
1.0
 10
558.5656697827815
 20
-1154.386208919912
 30
0.0
 41
0.999446061714329
 10
558.7111702640691
 20
-1154.214066522263
 30
0.0
 41
1.0
 10
558.7155584450445
 20
-1154.20887484188
 30
0.0
 41
1.0
 10
558.7199466260199
 20
-1154.203683161497
 30
0.0
 41
1.0
 10
558.8566707453567
 20
-1154.041924124614
 30
0.0
 41
0.9994359394934377
 10
559.0039449757084
 20
-1153.889707923449
 30
0.0
 41
1.0
 10
559.0063283296631
 20
-1153.887244593074
 30
0.0
 41
1.0
 10
559.0087116836178
 20
-1153.8847812627
 30
0.0
 41
1.0
 10
559.1512192060597
 20
-1153.737491722284
 30
0.0
 41
0.9995293688567357
 10
559.3024908870419
 20
-1153.59921851012
 30
0.0
 41
1.0
 10
559.3217846463051
 20
-1153.581582624469
 30
0.0
 41
1.0
 10
559.3410784055684
 20
-1153.563946738818
 30
0.0
 41
1.0
 10
559.4537625680236
 20
-1153.460945297956
 30
0.0
 41
0.9997087614804048
 10
559.5712854569791
 20
-1153.363501017158
 30
0.0
 41
1.0
 10
559.5904515301555
 20
-1153.347609438649
 30
0.0
 41
1.0
 10
559.6096176033319
 20
-1153.331717860141
 30
0.0
 41
1.0
 10
559.6888083459351
 20
-1153.266056736359
 30
0.0
 41
0.9999595338696937
 10
559.7691676167893
 20
-1153.201831005705
 30
0.0
 41
1.0
 10
559.8495268876366
 20
-1153.137605275056
 30
0.0
 41
0.999974941749939
 10
559.9307874219741
 20
-1153.074523721115
 30
0.0
 41
1.0
 10
559.9517735681545
 20
-1153.058232433799
 30
0.0
 41
1.0
 10
559.972759714335
 20
-1153.041941146483
 30
0.0
 41
1.0
 10
560.0573275996267
 20
-1152.97629213665
 30
0.0
 41
0.9999792037130785
 10
560.1427351993904
 20
-1152.911739355011
 30
0.0
 41
1.0
 10
560.1635600253742
 20
-1152.895999532699
 30
0.0
 41
1.0
 10
560.184384851358
 20
-1152.880259710387
 30
0.0
 41
1.0
 10
560.228142799252
 20
-1152.847186573298
 30
0.0
 41
0.9999993374276
 10
560.2718244853031
 20
-1152.814012777944
 30
0.0
 41
1.0
 10
560.3155061714526
 20
-1152.780838982515
 30
0.0
 41
0.9999160953815848
 10
560.3600325823788
 20
-1152.748807917312
 30
0.0
 41
1.0
 10
560.3928544697919
 20
-1152.725196761732
 30
0.0
 41
1.0
 10
560.4256763572049
 20
-1152.701585606152
 30
0.0
 41
1.0
 10
560.5358465429638
 20
-1152.622332229784
 30
0.0
 41
0.9980964527232067
 10
560.6549355364644
 20
-1152.557244756927
 30
0.0
 41
1.0
 10
560.6919681433924
 20
-1152.537004777334
 30
0.0
 41
1.0
 10
560.7290007503203
 20
-1152.516764797741
 30
0.0
 41
1.0
 10
560.9083277635933
 20
-1152.41875454704
 30
0.0
 41
0.9984572810572679
 10
561.0974163299521
 20
-1152.341232285694
 30
0.0
 41
1.0
 10
561.1010625993481
 20
-1152.339737393356
 30
0.0
 41
1.0
 10
561.1047088687442
 20
-1152.338242501018
 30
0.0
 41
1.0
 10
561.2865048963108
 20
-1152.263710024347
 30
0.0
 41
0.9987838528034079
 10
561.4747575548703
 20
-1152.207444384182
 30
0.0
 41
1.0
 10
561.4789955040704
 20
-1152.206177730491
 30
0.0
 41
1.0
 10
561.4832334532706
 20
-1152.2049110768
 30
0.0
 41
1.0
 10
561.663010213431
 20
-1152.151178744016
 30
0.0
 41
0.999065281620751
 10
561.8467561451454
 20
-1152.113175064474
 30
0.0
 41
1.0
 10
561.8519445461746
 20
-1152.112101961368
 30
0.0
 41
1.0
 10
561.8571329472039
 20
-1152.111028858262
 30
0.0
 41
1.0
 10
562.0305020768592
 20
-1152.075171384932
 30
0.0
 41
0.9992909934270299
 10
562.2060778433196
 20
-1152.052460952465
 30
0.0
 41
1.0
 10
562.3816536097808
 20
-1152.029750519999
 30
0.0
 41
0.9994553539448755
 10
562.5583450428771
 20
-1152.018671215792
 30
0.0
 41
1.0
 10
562.5937794506683
 20
-1152.016449327745
 30
0.0
 41
1.0
 10
562.6292138584595
 20
-1152.014227439697
 30
0.0
 41
1.0
 10
562.7954396250303
 20
-1152.003804377285
 30
0.0
 41
0.9990928098292617
 10
562.9619494169343
 20
-1152.00756401852
 30
0.0
 41
1.0
 10
563.0005112522068
 20
-1152.008434710053
 30
0.0
 41
1.0
 10
563.0390730874793
 20
-1152.009305401586
 30
0.0
 41
1.0
 10
563.1284592088376
 20
-1152.011323659754
 30
0.0
 41
0.9998382089204472
 10
563.2177148916231
 20
-1152.016555786282
 30
0.0
 41
1.0
 10
563.2181447978394
 20
-1152.016580987185
 30
0.0
 41
1.0
 10
563.2185747040556
 20
-1152.016606188087
 30
0.0
 41
1.0
 10
563.3069705744057
 20
-1152.02178791281
 30
0.0
 41
0.9997558016757315
 10
563.3950511516101
 20
-1152.030870428177
 30
0.0
 41
1.0
 10
563.3955272900405
 20
-1152.03091952566
 30
0.0
 41
1.0
 10
563.3960034284707
 20
-1152.030968623142
 30
0.0
 41
1.0
 10
563.4831317288113
 20
-1152.039952943543
 30
0.0
 41
0.9996565144182129
 10
563.5696695821531
 20
-1152.053490250232
 30
0.0
 41
1.0
 10
563.5701355075333
 20
-1152.053563135964
 30
0.0
 41
1.0
 10
563.5706014329136
 20
-1152.053636021696
 30
0.0
 41
1.0
 10
563.6562074354978
 20
-1152.067027556922
 30
0.0
 41
0.9995321806867496
 10
563.7408345158232
 20
-1152.085628045351
 30
0.0
 41
1.0
 10
563.7412237103931
 20
-1152.085713587816
 30
0.0
 41
1.0
 10
563.7416129049631
 20
-1152.085799130281
 30
0.0
 41
1.0
 10
563.8254615961497
 20
-1152.104228533779
 30
0.0
 41
0.999381919921951
 10
563.9078081303473
 20
-1152.128503917041
 30
0.0
 41
1.0
 10
563.908046563846
 20
-1152.12857420615
 30
0.0
 41
1.0
 10
563.9082849973446
 20
-1152.12864449526
 30
0.0
 41
1.0
 10
563.9901546645442
 20
-1152.152779300302
 30
0.0
 41
0.9992088568505099
 10
564.0698471835318
 20
-1152.183344536096
 30
0.0
 41
1.0
 10
564.1495281744108
 20
-1152.213904136829
 30
0.0
 41
0.9990226101773353
 10
564.226198844318
 20
-1152.251381568443
 30
0.0
 41
1.0
 10
564.3028579861166
 20
-1152.288853364997
 30
0.0
 41
0.9988424273972302
 10
564.3755616133283
 20
-1152.33351814025
 30
0.0
 41
1.0
 10
564.3758293217077
 20
-1152.333682604322
 30
0.0
 41
1.0
 10
564.3760970300871
 20
-1152.333847068394
 30
0.0
 41
1.0
 10
564.4493360740587
 20
-1152.378840771792
 30
0.0
 41
0.9986928844490202
 10
564.5175989407679
 20
-1152.431076506072
 30
0.0
 41
1.0
 10
564.5181802329905
 20
-1152.431521319299
 30
0.0
 41
1.0
 10
564.5187615252132
 20
-1152.431966132527
 30
0.0
 41
1.0
 10
564.5881869763675
 20
-1152.485091493262
 30
0.0
 41
0.9986007262277984
 10
564.6516131461343
 20
-1152.545252262955
 30
0.0
 41
1.0
 10
564.652507561592
 20
-1152.546100630791
 30
0.0
 41
1.0
 10
564.6534019770496
 20
-1152.546948998626
 30
0.0
 41
1.0
 10
564.7186169777308
 20
-1152.60880650399
 30
0.0
 41
0.9985581491381244
 10
564.7768245894325
 20
-1152.677298994262
 30
0.0
 41
1.0
 10
564.7860830430284
 20
-1152.688193351963
 30
0.0
 41
1.0
 10
564.7953414966241
 20
-1152.699087709665
 30
0.0
 41
1.0
 10
564.8720660155171
 20
-1152.78936891534
 30
0.0
 41
0.9970460233520638
 10
564.9340579166773
 20
-1152.890335999522
 30
0.0
 41
1.0
 10
564.9485272817567
 20
-1152.913902458603
 30
0.0
 41
1.0
 10
564.9629966468361
 20
-1152.937468917684
 30
0.0
 41
1.0
 10
565.0027333468487
 20
-1153.002188641717
 30
0.0
 41
0.9988468816637087
 10
565.0360797175997
 20
-1153.070421094144
 30
0.0
 41
1.0
 10
565.043115740092
 20
-1153.084818015283
 30
0.0
 41
1.0
 10
565.0501517625844
 20
-1153.099214936422
 30
0.0
 41
1.0
 10
565.0694260883506
 20
-1153.13865354657
 30
0.0
 41
0.9998431189998067
 10
565.0872914158462
 20
-1153.178750101012
 30
0.0
 41
1.0
 10
565.1051567433572
 20
-1153.218846655489
 30
0.0
 41
0.9999989989682309
 10
565.1231354667705
 20
-1153.258892493053
 30
0.0
 41
1.0
 10
565.129307778361
 20
-1153.272640709857
 30
0.0
 41
1.0
 10
565.1354800899516
 20
-1153.286388926662
 30
0.0
 41
1.0
 10
565.1658034365623
 20
-1153.353931197872
 30
0.0
 41
0.9998790356323677
 10
565.194011316701
 20
-1153.42238394981
 30
0.0
 41
1.0
 10
565.2008464979849
 20
-1153.438971051237
 30
0.0
 41
1.0
 10
565.2076816792688
 20
-1153.455558152663
 30
0.0
 41
1.0
 10
565.231239341649
 20
-1153.512726107548
 30
0.0
 41
0.9998227574561435
 10
565.2526280900382
 20
-1153.570740415826
 30
0.0
 41
1.0
 10
565.2740168384274
 20
-1153.628754724102
 30
0.0
 41
0.9996797971041544
 10
565.2924431233863
 20
-1153.68777684322
 30
0.0
 41
1.0
 10
565.2963469261122
 20
-1153.70028130139
 30
0.0
 41
1.0
 10
565.3002507288379
 20
-1153.712785759559
 30
0.0
 41
1.0
 10
565.3264846192483
 20
-1153.796816795014
 30
0.0
 41
0.997927493873295
 10
565.3417091427274
 20
-1153.883521153675
 30
0.0
 41
1.0
 10
565.3439328299887
 20
-1153.896185154497
 30
0.0
 41
1.0
 10
565.3461565172499
 20
-1153.908849155319
 30
0.0
 41
1.0
 10
565.3570864569481
 20
-1153.971095662608
 30
0.0
 41
0.9994985982137329
 10
565.364054622125
 20
-1154.03390916375
 30
0.0
 41
1.0
 10
565.3710227873021
 20
-1154.096722664895
 30
0.0
 41
0.99963726112018
 10
565.3745986530697
 20
-1154.159820243575
 30
0.0
 41
1.0
 10
565.374767230559
 20
-1154.162794860657
 30
0.0
 41
1.0
 10
565.3749358080482
 20
-1154.165769477739
 30
0.0
 41
1.0
 10
565.3788488287946
 20
-1154.234816290583
 30
0.0
 41
0.9997730630736165
 10
565.3798171422827
 20
-1154.30396711462
 30
0.0
 41
1.0
 10
565.3798742487008
 20
-1154.308045293761
 30
0.0
 41
1.0
 10
565.379931355119
 20
-1154.312123472903
 30
0.0
 41
1.0
 10
565.3810138814431
 20
-1154.389430655225
 30
0.0
 41
0.9998772614070979
 10
565.3796737947115
 20
-1154.466733801786
 30
0.0
 41
1.0
 10
565.3795845315128
 20
-1154.47188296562
 30
0.0
 41
1.0
 10
565.379495268314
 20
-1154.477032129455
 30
0.0
 41
1.0
 10
565.377976655185
 20
-1154.564633603684
 30
0.0
 41
0.9999415567328559
 10
565.3745643449392
 20
-1154.652181765354
 30
0.0
 41
1.0
 10
565.3743230242637
 20
-1154.658373225097
 30
0.0
 41
1.0
 10
565.3740817035882
 20
-1154.664564684839
 30
0.0
 41
1.0
 10
565.370186751992
 20
-1154.764495765985
 30
0.0
 41
0.9999716810419969
 10
565.3647881688729
 20
-1154.864356904223
 30
0.0
 41
1.0
 10
565.3615753700847
 20
-1154.92378615387
 30
0.0
 41
1.0
 10
565.3583625712963
 20
-1154.983215403518
 30
0.0
 41
1.0
 10
565.3502886621434
 20
-1155.132563804805
 30
0.0
 41
0.9999819129901539
 10
565.3404188705263
 20
-1155.281804282524
 30
0.0
 41
1.0
 10
565.3305490789096
 20
-1155.431044760236
 30
0.0
 41
1.0
 10
565.3281097583458
 20
-1155.468237806085
 30
0.0
 41
1.0
 10
565.3508079921608
 20
-1155.429496808782
 30
0.0
 41
0.9999982128174513
 10
565.3736525509338
 20
-1155.390841914794
 30
0.0
 41
1.0
 10
565.4005621108179
 20
-1155.345308700741
 30
0.0
 41
1.0
 10
565.4274716707018
 20
-1155.299775486687
 30
0.0
 41
1.0
 10
565.5041353492277
 20
-1155.170054164617
 30
0.0
 41
0.9998609190057637
 10
565.5850826620875
 20
-1155.042961782691
 30
0.0
 41
1.0
 10
565.6147309835687
 20
-1154.996412049735
 30
0.0
 41
1.0
 10
565.6443793050499
 20
-1154.949862316778
 30
0.0
 41
1.0
 10
565.7266515252888
 20
-1154.82068974678
 30
0.0
 41
0.9999067609731522
 10
565.8124205347541
 20
-1154.693812057337
 30
0.0
 41
1.0
 10
565.8148252379549
 20
-1154.690254791283
 30
0.0
 41
1.0
 10
565.8172299411556
 20
-1154.686697525228
 30
0.0
 41
1.0
 10
565.8981895442172
 20
-1154.566934367897
 30
0.0
 41
0.9998784952149982
 10
565.9828431538995
 20
-1154.449753151187
 30
0.0
 41
1.0
 10
566.0674967635794
 20
-1154.33257193448
 30
0.0
 41
0.9998532968283868
 10
566.1561143844038
 20
-1154.218359026008
 30
0.0
 41
1.0
 10
566.1760761733949
 20
-1154.192631704988
 30
0.0
 41
1.0
 10
566.1960379623858
 20
-1154.166904383968
 30
0.0
 41
1.0
 10
566.3145220121437
 20
-1154.014198773
 30
0.0
 41
0.9991551975795099
 10
566.4451464617681
 20
-1153.871739210916
 30
0.0
 41
1.0
 10
566.4486560777466
 20
-1153.867911609293
 30
0.0
 41
1.0
 10
566.4521656937252
 20
-1153.86408400767
 30
0.0
 41
1.0
 10
566.57577091139
 20
-1153.729279648834
 30
0.0
 41
0.9997418144181505
 10
566.7053730510922
 20
-1153.60023023822
 30
0.0
 41
1.0
 10
566.8349751907944
 20
-1153.471180827606
 30
0.0
 41
0.9989238204633198
 10
566.9759777390453
 20
-1153.354695865567
 30
0.0
 41
1.0
 10
567.0212254171843
 20
-1153.317315873959
 30
0.0
 41
1.0
 10
567.0664730953232
 20
-1153.279935882351
 30
0.0
 41
1.0
 10
567.206713152545
 20
-1153.164080829059
 30
0.0
 41
0.9990825084096452
 10
567.3563530851484
 20
-1153.060651831227
 30
0.0
 41
1.0
 10
567.3663984492055
 20
-1153.053708618148
 30
0.0
 41
1.0
 10
567.3764438132624
 20
-1153.046765405068
 30
0.0
 41
1.0
 10
567.5059930177524
 20
-1152.957222833394
 30
0.0
 41
0.9998164899824623
 10
567.6388772211286
 20
-1152.872708591878
 30
0.0
 41
1.0
 10
567.6507227816533
 20
-1152.865174825353
 30
0.0
 41
1.0
 10
567.662568342178
 20
-1152.857641058828
 30
0.0
 41
1.0
 10
567.7717614245039
 20
-1152.788194350362
 30
0.0
 41
0.9997473449132063
 10
567.8839653817543
 20
-1152.723725392545
 30
0.0
 41
1.0
 10
567.9961693390097
 20
-1152.659256434727
 30
0.0
 41
0.9999327861140722
 10
568.1098379497803
 20
-1152.597406443041
 30
0.0
 41
1.0
 10
568.1103899523343
 20
-1152.597106084366
 30
0.0
 41
1.0
 10
568.1109419548885
 20
-1152.59680572569
 30
0.0
 41
1.0
 10
568.2257145707708
 20
-1152.534355016651
 30
0.0
 41
0.9996956420483951
 10
568.3434278966082
 20
-1152.477641549678
 30
0.0
 41
1.0
 10
568.3738683015059
 20
-1152.462975572946
 30
0.0
 41
1.0
 10
568.4043087064036
 20
-1152.448309596213
 30
0.0
 41
1.0
 10
568.5072858131464
 20
-1152.398695937771
 30
0.0
 41
0.9998070570177321
 10
568.6121322020838
 20
-1152.353165350871
 30
0.0
 41
1.0
 10
568.7169785910239
 20
-1152.30763476397
 30
0.0
 41
0.9997827436147554
 10
568.8236315276326
 20
-1152.266513592659
 30
0.0
 41
1.0
 10
568.842854377265
 20
-1152.259102019026
 30
0.0
 41
1.0
 10
568.8620772268974
 20
-1152.251690445393
 30
0.0
 41
1.0
 10
569.0071758627697
 20
-1152.195746126817
 30
0.0
 41
0.9988031841976728
 10
569.157046225373
 20
-1152.154246062649
 30
0.0
 41
1.0
 10
569.1819634737375
 20
-1152.147346316842
 30
0.0
 41
1.0
 10
569.2068807221019
 20
-1152.140446571035
 30
0.0
 41
1.0
 10
569.3741507477487
 20
-1152.094128428628
 30
0.0
 41
0.9984748040550353
 10
569.5455076563975
 20
-1152.066534196364
 30
0.0
 41
1.0
 10
569.5502467926464
 20
-1152.06577103585
 30
0.0
 41
1.0
 10
569.5549859288952
 20
-1152.065007875337
 30
0.0
 41
1.0
 10
569.7168645650463
 20
-1152.038939964099
 30
0.0
 41
0.9984436495479863
 10
569.8806393087712
 20
-1152.03106201028
 30
0.0
 41
1.0
 10
569.9023365169037
 20
-1152.03001832308
 30
0.0
 41
1.0
 10
569.9240337250363
 20
-1152.028974635881
 30
0.0
 41
1.0
 10
570.0444140524971
 20
-1152.023184056461
 30
0.0
 41
0.998795478933579
 10
570.1647822974056
 20
-1152.029220584204
 30
0.0
 41
1.0
 10
570.1847470899017
 20
-1152.030221828542
 30
0.0
 41
1.0
 10
570.2047118823979
 20
-1152.031223072881
 30
0.0
 41
1.0
 10
570.2851505423173
 20
-1152.035257111946
 30
0.0
 41
0.999794159587657
 10
570.3653593204099
 20
-1152.042551177867
 30
0.0
 41
1.0
 10
570.445568098503
 20
-1152.049845243788
 30
0.0
 41
0.9998589466239003
 10
570.5254866453568
 20
-1152.059829098238
 30
0.0
 41
1.0
 10
570.5578928471663
 20
-1152.063877455157
 30
0.0
 41
1.0
 10
570.5902990489758
 20
-1152.067925812077
 30
0.0
 41
1.0
 10
570.7350299994475
 20
-1152.086006380365
 30
0.0
 41
0.9993495063249275
 10
570.8780812432135
 20
-1152.114472090107
 30
0.0
 41
1.0
 10
570.9110149403666
 20
-1152.121025553322
 30
0.0
 41
1.0
 10
570.9439486375198
 20
-1152.127579016537
 30
0.0
 41
1.0
 10
571.0532424607236
 20
-1152.149327350672
 30
0.0
 41
0.9996788715560928
 10
571.1612940326779
 20
-1152.176585150035
 30
0.0
 41
1.0
 10
571.1633570352177
 20
-1152.177105576608
 30
0.0
 41
1.0
 10
571.1654200377575
 20
-1152.177626003181
 30
0.0
 41
1.0
 10
571.2693456046359
 20
-1152.203842949398
 30
0.0
 41
0.9995480654492923
 10
571.3715078398637
 20
-1152.236257906022
 30
0.0
 41
1.0
 10
571.3731974819938
 20
-1152.236794010937
 30
0.0
 41
1.0
 10
571.3748871241238
 20
-1152.237330115851
 30
0.0
 41
1.0
 10
571.4736700750946
 20
-1152.268672862647
 30
0.0
 41
0.9993867959456372
 10
571.5700172335357
 20
-1152.306852231936
 30
0.0
 41
1.0
 10
571.5712601826198
 20
-1152.307344773832
 30
0.0
 41
1.0
 10
571.5725031317038
 20
-1152.307837315728
 30
0.0
 41
1.0
 10
571.6663643919776
 20
-1152.345031601226
 30
0.0
 41
0.9992050256522169
 10
571.7569640670116
 20
-1152.389585500465
 30
0.0
 41
1.0
 10
571.7576987497247
 20
-1152.389946792926
 30
0.0
 41
1.0
 10
571.7584334324378
 20
-1152.390308085387
 30
0.0
 41
1.0
 10
571.8475637420454
 20
-1152.434139399704
 30
0.0
 41
0.9990222350741808
 10
571.9324738034387
 20
-1152.485672667402
 30
0.0
 41
1.0
 10
571.9326576887213
 20
-1152.485784270307
 30
0.0
 41
1.0
 10
571.932841574004
 20
-1152.485895873212
 30
0.0
 41
1.0
 10
572.0173838648326
 20
-1152.5372059351
 30
0.0
 41
0.9988642743804803
 10
572.0966583994514
 20
-1152.596330122625
 30
0.0
 41
1.0
 10
572.1759329340694
 20
-1152.65545431015
 30
0.0
 41
0.9987681233311254
 10
572.248956718346
 20
-1152.722145001551
 30
0.0
 41
1.0
 10
572.249285646312
 20
-1152.722445402765
 30
0.0
 41
1.0
 10
572.2496145742781
 20
-1152.72274580398
 30
0.0
 41
1.0
 10
572.3232962144854
 20
-1152.790037297808
 30
0.0
 41
0.9987496570898597
 10
572.3898900198133
 20
-1152.864350111896
 30
0.0
 41
1.0
 10
572.3906621895736
 20
-1152.865211785254
 30
0.0
 41
1.0
 10
572.391434359334
 20
-1152.866073458611
 30
0.0
 41
1.0
 10
572.4595725041812
 20
-1152.942109619413
 30
0.0
 41
0.9988147669827311
 10
572.5199947584066
 20
-1153.024410626256
 30
0.0
 41
1.0
 10
572.5211140844845
 20
-1153.025935257609
 30
0.0
 41
1.0
 10
572.5222334105624
 20
-1153.027459888961
 30
0.0
 41
1.0
 10
572.5848943169428
 20
-1153.112810158509
 30
0.0
 41
0.9989452636216182
 10
572.6394612299043
 20
-1153.203548847667
 30
0.0
 41
1.0
 10
572.6408099559899
 20
-1153.205791628693
 30
0.0
 41
1.0
 10
572.6421586820755
 20
-1153.208034409719
 30
0.0
 41
1.0
 10
572.6994230472079
 20
-1153.303258660929
 30
0.0
 41
0.9991046436070644
 10
572.7484322605303
 20
-1153.402983093956
 30
0.0
 41
1.0
 10
572.7498961221202
 20
-1153.405961774028
 30
0.0
 41
1.0
 10
572.7513599837099
 20
-1153.4089404541
 30
0.0
 41
1.0
 10
572.803296920211
 20
-1153.514622247269
 30
0.0
 41
0.9992763831100802
 10
572.8470500487667
 20
-1153.623946309226
 30
0.0
 41
1.0
 10
572.8485293184301
 20
-1153.62764249676
 30
0.0
 41
1.0
 10
572.8500085880934
 20
-1153.631338684293
 30
0.0
 41
1.0
 10
572.8967202559751
 20
-1153.748055121316
 30
0.0
 41
0.999416347288375
 10
572.935353287165
 20
-1153.86768870978
 30
0.0
 41
1.0
 10
572.9365914394114
 20
-1153.871522853562
 30
0.0
 41
1.0
 10
572.9378295916579
 20
-1153.875356997344
 30
0.0
 41
1.0
 10
572.9777131526755
 20
-1153.998863058823
 30
0.0
 41
0.9997268055890229
 10
573.0117812085878
 20
-1154.124098090775
 30
0.0
 41
1.0
 10
573.0127113888573
 20
-1154.127517456884
 30
0.0
 41
1.0
 10
573.0136415691269
 20
-1154.130936822992
 30
0.0
 41
1.0
 10
573.0458492645001
 20
-1154.249333122727
 30
0.0
 41
0.9996701319000801
 10
573.0719348812702
 20
-1154.369227075989
 30
0.0
 41
1.0
 10
573.0980204980406
 20
-1154.489121029253
 30
0.0
 41
0.9995785451109326
 10
573.1171040753804
 20
-1154.610326790284
 30
0.0
 41
1.0
 10
573.1213238575542
 20
-1154.63712794505
 30
0.0
 41
1.0
 10
573.125543639728
 20
-1154.663929099815
 30
0.0
 41
1.0
 10
573.1521186156666
 20
-1154.832715073517
 30
0.0
 41
0.9979925101216042
 10
573.1571442015928
 20
-1155.003506401609
 30
0.0
 41
1.0
 10
573.1579690140175
 20
-1155.03153712509
 30
0.0
 41
1.0
 10
573.1587938264421
 20
-1155.059567848571
 30
0.0
 41
1.0
 10
573.1621697875192
 20
-1155.1742977297
 30
0.0
 41
0.9995314902263273
 10
573.1585195953807
 20
-1155.289019213453
 30
0.0
 41
1.0
 10
573.1548694032423
 20
-1155.403740697204
 30
0.0
 41
0.9996245486944256
 10
573.144940308111
 20
-1155.518089968331
 30
0.0
 41
1.0
 10
573.1447772601168
 20
-1155.519967724465
 30
0.0
 41
1.0
 10
573.1446142121227
 20
-1155.521845480599
 30
0.0
 41
1.0
 10
573.1343590210034
 20
-1155.639950263993
 30
0.0
 41
0.9997286095000927
 10
573.1186136974321
 20
-1155.757449172887
 30
0.0
 41
1.0
 10
573.1182202047817
 20
-1155.760385597589
 30
0.0
 41
1.0
 10
573.1178267121312
 20
-1155.763322022292
 30
0.0
 41
1.0
 10
573.1012944032587
 20
-1155.886693780593
 30
0.0
 41
0.9998265533969963
 10
573.0801789445268
 20
-1156.009364255377
 30
0.0
 41
1.0
 10
573.0795024023895
 20
-1156.013294633885
 30
0.0
 41
1.0
 10
573.0788258602522
 20
-1156.017225012394
 30
0.0
 41
1.0
 10
573.0563573172446
 20
-1156.147756244201
 30
0.0
 41
0.99990225308543
 10
573.0302478526344
 20
-1156.277608212841
 30
0.0
 41
1.0
 10
573.0292692114695
 20
-1156.282475355225
 30
0.0
 41
1.0
 10
573.0282905703046
 20
-1156.28734249761
 30
0.0
 41
1.0
 10
573.0002238233642
 20
-1156.426928751022
 30
0.0
 41
0.9999524761939613
 10
572.9694408545324
 20
-1156.565941244174
 30
0.0
 41
1.0
 10
572.9681647473553
 20
-1156.571704003483
 30
0.0
 41
1.0
 10
572.9668886401782
 20
-1156.577466762793
 30
0.0
 41
1.0
 10
572.9335534569946
 20
-1156.728004774554
 30
0.0
 41
0.9999813588731143
 10
572.8983824561959
 20
-1156.878124487222
 30
0.0
 41
1.0
 10
572.8968285307399
 20
-1156.884757077642
 30
0.0
 41
1.0
 10
572.8952746052837
 20
-1156.891389668063
 30
0.0
 41
1.0
 10
572.8569957535831
 20
-1157.054774561529
 30
0.0
 41
0.9999955237687947
 10
572.8177398756008
 20
-1157.217927465143
 30
0.0
 41
1.0
 10
572.8054582399632
 20
-1157.268971655679
 30
0.0
 41
1.0
 10
572.7931766043255
 20
-1157.320015846216
 30
0.0
 41
1.0
 10
572.729357455072
 20
-1157.585257130885
 30
0.0
 41
0.9999993604080679
 10
572.6649385079248
 20
-1157.850353381484
 30
0.0
 41
1.0
 10
572.6602196723695
 20
-1157.869772289559
 30
0.0
 41
1.0
 10
572.6555008368142
 20
-1157.889191197633
 30
0.0
 41
1.0
 10
572.5816442185496
 20
-1158.193125264408
 30
0.0
 41
0.9999659914736997
 10
572.5027846226637
 20
-1158.495799810969
 30
0.0
 41
1.0
 10
572.4978319337354
 20
-1158.514808948143
 30
0.0
 41
1.0
 10
572.4928792448071
 20
-1158.533818085316
 30
0.0
 41
1.0
 10
572.4041142710645
 20
-1158.874510906226
 30
0.0
 41
0.999944197602398
 10
572.3081712381002
 20
-1159.213252331527
 30
0.0
 41
1.0
 10
572.2914707196737
 20
-1159.272216044058
 30
0.0
 41
1.0
 10
572.2747702012472
 20
-1159.33117975659
 30
0.0
 41
1.0
 10
572.1454261314332
 20
-1159.787848606943
 30
0.0
 41
0.9999625120731547
 10
572.0081933641103
 20
-1160.242209140936
 30
0.0
 41
1.0
 10
571.9724034210227
 20
-1160.360705167579
 30
0.0
 41
1.0
 10
571.9366134779351
 20
-1160.479201194221
 30
0.0
 41
1.0
 10
571.862093273896
 20
-1160.725928272316
 30
0.0
 41
0.9999793386326538
 10
571.7844072507646
 20
-1160.971676911533
 30
0.0
 41
1.0
 10
571.706721227627
 20
-1161.217425550769
 30
0.0
 41
1.0
 10
571.6959416687564
 20
-1161.251443455143
 30
0.0
 41
1.0
 10
569.8455686154872
 20
-1167.138515377611
 30
0.0
 41
1.0
 10
567.995195562218
 20
-1173.025587300078
 30
0.0
 41
1.0
 10
567.0339388721944
 20
-1173.025587300078
 30
0.0
 41
1.0
 10
566.0726821821709
 20
-1173.025587300078
 30
0.0
 41
1.0
 10
567.6916269608494
 20
-1167.877558798289
 30
0.0
 41
1.0
 10
569.3105717395279
 20
-1162.729530296499
 30
0.0
 41
1.0
 10
569.3557375627074
 20
-1162.585499074213
 30
0.0
 41
1.0
 10
569.4009033858869
 20
-1162.441467851926
 30
0.0
 41
1.0
 10
569.5712078032402
 20
-1161.898376822794
 30
0.0
 41
0.9999911657901318
 10
569.7369406149194
 20
-1161.353873291434
 30
0.0
 41
1.0
 10
569.7666365584159
 20
-1161.256309351396
 30
0.0
 41
1.0
 10
569.7963325019124
 20
-1161.158745411358
 30
0.0
 41
1.0
 10
569.9026734265964
 20
-1160.809369760081
 30
0.0
 41
0.9999952428105733
 10
570.0068570159245
 20
-1160.45934473572
 30
0.0
 41
1.0
 10
570.0119164862589
 20
-1160.442346461439
 30
0.0
 41
1.0
 10
570.0169759565932
 20
-1160.425348187157
 30
0.0
 41
1.0
 10
570.1110406052524
 20
-1160.109319711361
 30
0.0
 41
0.9999931687529898
 10
570.2027664431231
 20
-1159.7926044981
 30
0.0
 41
1.0
 10
570.207701707581
 20
-1159.775563788835
 30
0.0
 41
1.0
 10
570.2126369720388
 20
-1159.75852307957
 30
0.0
 41
1.0
 10
570.2944922809952
 20
-1159.475889284835
 30
0.0
 41
0.9999893840813135
 10
570.3737395074536
 20
-1159.192513155583
 30
0.0
 41
1.0
 10
570.4529867339115
 20
-1158.909137026333
 30
0.0
 41
0.9999833980083463
 10
570.5289629746468
 20
-1158.624866443329
 30
0.0
 41
1.0
 10
570.5379669113726
 20
-1158.591177564837
 30
0.0
 41
1.0
 10
570.5469708480983
 20
-1158.557488686346
 30
0.0
 41
1.0
 10
570.6159353969645
 20
-1158.299452854051
 30
0.0
 41
0.9999233658068689
 10
570.678490368184
 20
-1158.03978869533
 30
0.0
 41
1.0
 10
570.7410453394043
 20
-1157.780124536608
 30
0.0
 41
1.0
 10
570.7805287582619
 20
-1157.616317872182
 30
0.0
 41
1.0
 10
570.7855073622363
 20
-1157.595662910323
 30
0.0
 41
1.0
 10
570.7904859662107
 20
-1157.575007948464
 30
0.0
 41
1.0
 10
570.8200121771172
 20
-1157.452511207764
 30
0.0
 41
0.9999868670862786
 10
570.8482812611156
 20
-1157.32971826211
 30
0.0
 41
1.0
 10
570.8521787482741
 20
-1157.31278867469
 30
0.0
 41
1.0
 10
570.8560762354326
 20
-1157.295859087269
 30
0.0
 41
1.0
 10
570.8765503451136
 20
-1157.206925316456
 30
0.0
 41
0.999977817334293
 10
570.8958379432272
 20
-1157.117726699234
 30
0.0
 41
1.0
 10
570.915125541344
 20
-1157.028528081997
 30
0.0
 41
0.9999602692861425
 10
570.9328198999746
 20
-1156.938999793571
 30
0.0
 41
1.0
 10
570.9360237320516
 20
-1156.922789338688
 30
0.0
 41
1.0
 10
570.9392275641286
 20
-1156.906578883806
 30
0.0
 41
1.0
 10
570.9633295869146
 20
-1156.784629685609
 30
0.0
 41
0.9995617985320555
 10
570.9801729341331
 20
-1156.661467937904
 30
0.0
 41
1.0
 10
570.9826374240395
 20
-1156.643447120538
 30
0.0
 41
1.0
 10
570.9851019139459
 20
-1156.625426303171
 30
0.0
 41
1.0
 10
571.0053851749941
 20
-1156.477111253471
 30
0.0
 41
0.9991121410639369
 10
571.0131105285825
 20
-1156.327615154663
 30
0.0
 41
1.0
 10
571.014029318607
 20
-1156.309835318089
 30
0.0
 41
1.0
 10
571.0149481086314
 20
-1156.292055481515
 30
0.0
 41
1.0
 10
571.0208358821707
 20
-1156.17811905586
 30
0.0
 41
0.9989792494905938
 10
571.0164167900534
 20
-1156.064116219959
 30
0.0
 41
1.0
 10
571.0157688181848
 20
-1156.047399974032
 30
0.0
 41
1.0
 10
571.0151208463161
 20
-1156.030683728104
 30
0.0
 41
1.0
 10
571.0119976979361
 20
-1155.950113384063
 30
0.0
 41
0.9997820295395191
 10
571.0055137005604
 20
-1155.869743662317
 30
0.0
 41
1.0
 10
570.9990297031844
 20
-1155.789373940569
 30
0.0
 41
0.9998335105974131
 10
570.9896175076727
 20
-1155.709294324121
 30
0.0
 41
1.0
 10
570.9880225829966
 20
-1155.695724593639
 30
0.0
 41
1.0
 10
570.9864276583203
 20
-1155.682154863156
 30
0.0
 41
1.0
 10
570.9738256134559
 20
-1155.574935785741
 30
0.0
 41
0.999687645787953
 10
570.9558817006578
 20
-1155.468480358026
 30
0.0
 41
1.0
 10
570.9536500375125
 20
-1155.455240622784
 30
0.0
 41
1.0
 10
570.9514183743672
 20
-1155.442000887543
 30
0.0
 41
1.0
 10
570.9376225529463
 20
-1155.360154743585
 30
0.0
 41
0.9995547496495332
 10
570.9189692310532
 20
-1155.279277246391
 30
0.0
 41
1.0
 10
570.9185952741819
 20
-1155.277655835686
 30
0.0
 41
1.0
 10
570.9182213173107
 20
-1155.27603442498
 30
0.0
 41
1.0
 10
570.9003159091604
 20
-1155.198399749199
 30
0.0
 41
0.9994899427174606
 10
570.8774910004813
 20
-1155.122066466366
 30
0.0
 41
1.0
 10
570.8770324737404
 20
-1155.120533016576
 30
0.0
 41
1.0
 10
570.8765739469995
 20
-1155.118999566787
 30
0.0
 41
1.0
 10
570.854666091802
 20
-1155.045733183531
 30
0.0
 41
0.9993784877590582
 10
570.8276504566954
 20
-1154.974192478372
 30
0.0
 41
1.0
 10
570.8271187657185
 20
-1154.972784495651
 30
0.0
 41
1.0
 10
570.8265870747416
 20
-1154.971376512931
 30
0.0
 41
1.0
 10
570.8006348215891
 20
-1154.902651773214
 30
0.0
 41
0.9992430832254457
 10
570.7694182864294
 20
-1154.836152621145
 30
0.0
 41
1.0
 10
570.7688361703731
 20
-1154.834912566028
 30
0.0
 41
1.0
 10
570.7682540543168
 20
-1154.833672510911
 30
0.0
 41
1.0
 10
570.7382017512704
 20
-1154.769653469077
 30
0.0
 41
0.9990789632798255
 10
570.7027711244933
 20
-1154.708446857327
 30
0.0
 41
1.0
 10
570.7021754183113
 20
-1154.707417771468
 30
0.0
 41
1.0
 10
570.7015797121294
 20
-1154.706388685609
 30
0.0
 41
1.0
 10
570.6673404977158
 20
-1154.647240245576
 30
0.0
 41
0.9988874801120816
 10
570.6276812216846
 20
-1154.591580533159
 30
0.0
 41
1.0
 10
570.6271256956204
 20
-1154.590800881484
 30
0.0
 41
1.0
 10
570.6265701695562
 20
-1154.59002122981
 30
0.0
 41
1.0
 10
570.588021945652
 20
-1154.535920820741
 30
0.0
 41
0.9986762060692788
 10
570.5441194743764
 20
-1154.486067106302
 30
0.0
 41
1.0
 10
570.543675514044
 20
-1154.485562964486
 30
0.0
 41
1.0
 10
570.5432315537117
 20
-1154.485058822669
 30
0.0
 41
1.0
 10
570.5002170031007
 20
-1154.436213391863
 30
0.0
 41
0.9984621642487723
 10
570.4520594463224
 20
-1154.392430091392
 30
0.0
 41
1.0
 10
570.4518128118059
 20
-1154.392205859228
 30
0.0
 41
1.0
 10
570.4515661772892
 20
-1154.391981627065
 30
0.0
 41
1.0
 10
570.4039018895452
 20
-1154.348646790922
 30
0.0
 41
0.9982724693852708
 10
570.3514832577032
 20
-1154.311202440403
 30
0.0
 41
1.0
 10
570.2990646258618
 20
-1154.273758089886
 30
0.0
 41
0.9981399180159828
 10
570.2424785624687
 20
-1154.242971570442
 30
0.0
 41
1.0
 10
570.2424329003901
 20
-1154.242946727285
 30
0.0
 41
1.0
 10
570.2423872383115
 20
-1154.242921884128
 30
0.0
 41
1.0
 10
570.185709850761
 20
-1154.21208567837
 30
0.0
 41
0.9980927086836713
 10
570.1256644996948
 20
-1154.188468869517
 30
0.0
 41
1.0
 10
570.1252243299832
 20
-1154.188295743642
 30
0.0
 41
1.0
 10
570.1247841602715
 20
-1154.188122617767
 30
0.0
 41
1.0
 10
570.0638584697815
 20
-1154.164159557165
 30
0.0
 41
0.9981411356561893
 10
570.0004699483824
 20
-1154.147786915659
 30
0.0
 41
1.0
 10
569.9995878316809
 20
-1154.147559073454
 30
0.0
 41
1.0
 10
569.9987057149795
 20
-1154.147331231248
 30
0.0
 41
1.0
 10
569.9335529601772
 20
-1154.130502905332
 30
0.0
 41
0.9983031812935197
 10
569.866885531182
 20
-1154.121363544156
 30
0.0
 41
1.0
 10
569.8580145057799
 20
-1154.120147425484
 30
0.0
 41
1.0
 10
569.8491434803777
 20
-1154.118931306813
 30
0.0
 41
1.0
 10
569.7947938378719
 20
-1154.111480576822
 30
0.0
 41
0.9983887708263751
 10
569.7399499885777
 20
-1154.110235903189
 30
0.0
 41
1.0
 10
569.7318865833612
 20
-1154.110052905314
 30
0.0
 41
1.0
 10
569.7238231781447
 20
-1154.109869907439
 30
0.0
 41
1.0
 10
569.685106139286
 20
-1154.108991229555
 30
0.0
 41
0.9998869563078993
 10
569.6463801860822
 20
-1154.109277098915
 30
0.0
 41
1.0
 10
569.6076542328983
 20
-1154.109562968275
 30
0.0
 41
0.9999972320184408
 10
569.5689300537061
 20
-1154.110031067803
 30
0.0
 41
1.0
 10
569.5495770371074
 20
-1154.110265007893
 30
0.0
 41
1.0
 10
569.5302240205087
 20
-1154.110498947983
 30
0.0
 41
1.0
 10
569.4527938081387
 20
-1154.11143492769
 30
0.0
 41
0.9997304945087468
 10
569.3754905019018
 20
-1154.115964021476
 30
0.0
 41
1.0
 10
569.3664408601969
 20
-1154.116494227466
 30
0.0
 41
1.0
 10
569.3573912184919
 20
-1154.117024433456
 30
0.0
 41
1.0
 10
569.2619886288448
 20
-1154.122613939222
 30
0.0
 41
0.9997888306416176
 10
569.1668962930019
 20
-1154.132118903712
 30
0.0
 41
1.0
 10
569.1581752314298
 20
-1154.132990618344
 30
0.0
 41
1.0
 10
569.1494541698577
 20
-1154.133862332976
 30
0.0
 41
1.0
 10
569.0369197108693
 20
-1154.145110726729
 30
0.0
 41
0.9984170238190517
 10
568.9263605635176
 20
-1154.168926808665
 30
0.0
 41
1.0
 10
568.8899794325304
 20
-1154.176763844471
 30
0.0
 41
1.0
 10
568.8535983015431
 20
-1154.184600880277
 30
0.0
 41
1.0
 10
568.7384072331225
 20
-1154.209414746787
 30
0.0
 41
0.9976592854197873
 10
568.6276790667188
 20
-1154.249713423934
 30
0.0
 41
1.0
 10
568.516950900313
 20
-1154.290012101081
 30
0.0
 41
0.9993255074351753
 10
568.4094791015225
 20
-1154.338328999574
 30
0.0
 41
1.0
 10
568.4048539225994
 20
-1154.340408375773
 30
0.0
 41
1.0
 10
568.4002287436764
 20
-1154.342487751973
 30
0.0
 41
1.0
 10
568.2835065870394
 20
-1154.394963402865
 30
0.0
 41
0.9976475078275359
 10
568.1750592427292
 20
-1154.462911392523
 30
0.0
 41
1.0
 10
568.1567168485931
 20
-1154.474403871338
 30
0.0
 41
1.0
 10
568.1383744544569
 20
-1154.485896350153
 30
0.0
 41
1.0
 10
568.0541722629058
 20
-1154.538653470921
 30
0.0
 41
0.999513133640701
 10
567.9734245479495
 20
-1154.596559682874
 30
0.0
 41
1.0
 10
567.8926768329949
 20
-1154.654465894825
 30
0.0
 41
0.9995810107606724
 10
567.8154151852666
 20
-1154.71694757729
 30
0.0
 41
1.0
 10
567.8124451540549
 20
-1154.719349448756
 30
0.0
 41
1.0
 10
567.8094751228432
 20
-1154.721751320222
 30
0.0
 41
1.0
 10
567.7262734126929
 20
-1154.789036745618
 30
0.0
 41
0.999661783795411
 10
567.646682725558
 20
-1154.860557201178
 30
0.0
 41
1.0
 10
567.6345519746831
 20
-1154.871457934166
 30
0.0
 41
1.0
 10
567.6224212238081
 20
-1154.882358667155
 30
0.0
 41
1.0
 10
567.5541456964087
 20
-1154.94371128263
 30
0.0
 41
0.999726775005354
 10
567.4888121881237
 20
-1155.008187819157
 30
0.0
 41
1.0
 10
567.4234786798407
 20
-1155.072664355681
 30
0.0
 41
0.9999667288962124
 10
567.3592057367014
 20
-1155.138198162568
 30
0.0
 41
1.0
 10
567.2903782889223
 20
-1155.208375821331
 30
0.0
 41
1.0
 10
567.2215508411431
 20
-1155.278553480093
 30
0.0
 41
1.0
 10
567.019623002447
 20
-1155.484442604503
 30
0.0
 41
0.9988205335175065
 10
566.838617385468
 20
-1155.708946836563
 30
0.0
 41
1.0
 10
566.8079774205627
 20
-1155.746950086994
 30
0.0
 41
1.0
 10
566.7773374556574
 20
-1155.784953337424
 30
0.0
 41
1.0
 10
566.5350519088655
 20
-1156.085464070348
 30
0.0
 41
0.999707782675452
 10
566.3075739577603
 20
-1156.397333864565
 30
0.0
 41
1.0
 10
566.3058505426313
 20
-1156.399696647943
 30
0.0
 41
1.0
 10
566.3041271275024
 20
-1156.40205943132
 30
0.0
 41
1.0
 10
566.0732023461377
 20
-1156.718654792294
 30
0.0
 41
0.9989147567079112
 10
565.8727388432541
 20
-1157.055364253478
 30
0.0
 41
1.0
 10
565.847997697947
 20
-1157.096920834031
 30
0.0
 41
1.0
 10
565.8232565526398
 20
-1157.138477414584
 30
0.0
 41
1.0
 10
565.6680452540018
 20
-1157.399178799038
 30
0.0
 41
0.9997476598182289
 10
565.5247002664919
 20
-1157.66658854762
 30
0.0
 41
1.0
 10
565.381355278982
 20
-1157.933998296203
 30
0.0
 41
0.9996258967109478
 10
565.2528470270487
 20
-1158.208846232831
 30
0.0
 41
1.0
 10
565.2396471176
 20
-1158.237077632924
 30
0.0
 41
1.0
 10
565.2264472081514
 20
-1158.265309033018
 30
0.0
 41
1.0
 10
565.0862384871531
 20
-1158.565181430968
 30
0.0
 41
0.9998735413944395
 10
564.9556371404308
 20
-1158.869361030439
 30
0.0
 41
1.0
 10
564.9521943123716
 20
-1158.877379615901
 30
0.0
 41
1.0
 10
564.9487514843124
 20
-1158.885398201362
 30
0.0
 41
1.0
 10
564.8250357937121
 20
-1159.173540629903
 30
0.0
 41
0.9999377418863407
 10
564.7077809915356
 20
-1159.464372097582
 30
0.0
 41
1.0
 10
564.5905261893594
 20
-1159.755203565261
 30
0.0
 41
0.9999508299508657
 10
564.4790622459825
 20
-1160.048303242081
 30
0.0
 41
1.0
 10
564.4759814773204
 20
-1160.056404268044
 30
0.0
 41
1.0
 10
564.4729007086581
 20
-1160.064505294007
 30
0.0
 41
1.0
 10
564.3552752279529
 20
-1160.373807022764
 30
0.0
 41
0.9999609228428988
 10
564.2431366250754
 20
-1160.68514003879
 30
0.0
 41
1.0
 10
564.2401806147291
 20
-1160.69334687919
 30
0.0
 41
1.0
 10
564.2372246043826
 20
-1160.701553719591
 30
0.0
 41
1.0
 10
564.1191739808127
 20
-1161.029300416416
 30
0.0
 41
0.9999674607398676
 10
564.0064264547466
 20
-1161.358909036405
 30
0.0
 41
1.0
 10
563.9550280641815
 20
-1161.509168232104
 30
0.0
 41
1.0
 10
563.9036296736164
 20
-1161.659427427803
 30
0.0
 41
1.0
 10
563.7876190668585
 20
-1161.998575410307
 30
0.0
 41
0.9999287532309489
 10
563.6797376628875
 20
-1162.340396149283
 30
0.0
 41
1.0
 10
563.6332604067431
 20
-1162.48765869367
 30
0.0
 41
1.0
 10
563.5867831505986
 20
-1162.634921238058
 30
0.0
 41
1.0
 10
563.5718562589104
 20
-1162.682216888279
 30
0.0
 41
0.9999998223039943
 10
563.5569857501864
 20
-1162.729530296499
 30
0.0
 41
1.0
 10
561.936329613391
 20
-1167.877558798289
 30
0.0
 41
1.0
 10
560.3156734765955
 20
-1173.025587300078
 30
0.0
 41
1.0
 10
559.4103650327046
 20
-1173.025587300078
 30
0.0
 41
1.0
 10
558.5050565888137
 20
-1173.025587300078
 30
0.0
 41
1.0
 10
560.3571410001997
 20
-1167.138515377611
 30
0.0
 41
1.0
 10
562.2092254115857
 20
-1161.251443455143
 30
0.0
 41
1.0
 10
562.2193471698884
 20
-1161.219400241694
 30
0.0
 41
1.0
 10
562.2919548387381
 20
-1160.989100699868
 30
0.0
 41
1.0
 10
562.3645625075869
 20
-1160.758801158045
 30
0.0
 41
0.999982568197935
 10
562.4344455467974
 20
-1160.527660262983
 30
0.0
 41
1.0
 10
562.4827366089594
 20
-1160.367935679483
 30
0.0
 41
1.0
 10
562.5310276711215
 20
-1160.208211095983
 30
0.0
 41
1.0
 10
562.6281800244371
 20
-1159.886875874212
 30
0.0
 41
0.9999672528967558
 10
562.7201188300602
 20
-1159.564010328627
 30
0.0
 41
1.0
 10
562.7229077137301
 20
-1159.554216483236
 30
0.0
 41
1.0
 10
562.7256965974
 20
-1159.544422637846
 30
0.0
 41
1.0
 10
562.812057635681
 20
-1159.24114478305
 30
0.0
 41
0.9999899749182771
 10
562.8956992452182
 20
-1158.937105694588
 30
0.0
 41
1.0
 10
562.9058051642364
 20
-1158.900370456907
 30
0.0
 41
1.0
 10
562.9159110832547
 20
-1158.863635219226
 30
0.0
 41
1.0
 10
562.9793408547519
 20
-1158.63306660614
 30
0.0
 41
0.9999214200505084
 10
563.0369702831307
 20
-1158.400980263927
 30
0.0
 41
1.0
 10
563.0497361353114
 20
-1158.34956937853
 30
0.0
 41
1.0
 10
563.0625019874922
 20
-1158.298158493133
 30
0.0
 41
1.0
 10
563.0945997115105
 20
-1158.168893921709
 30
0.0
 41
0.9999828681655334
 10
563.1251819635039
 20
-1158.03926244725
 30
0.0
 41
1.0
 10
563.1557642154991
 20
-1157.909630972783
 30
0.0
 41
0.9999389844479712
 10
563.1834752042884
 20
-1157.779355516883
 30
0.0
 41
1.0
 10
563.1906129480087
 20
-1157.745799413045
 30
0.0
 41
1.0
 10
563.197750691729
 20
-1157.712243309207
 30
0.0
 41
1.0
 10
563.2397371679581
 20
-1157.514855645635
 30
0.0
 41
0.9998933699440593
 10
563.27594143236
 20
-1157.316326037879
 30
0.0
 41
1.0
 10
563.2773142575768
 20
-1157.308798017179
 30
0.0
 41
1.0
 10
563.2786870827936
 20
-1157.301269996481
 30
0.0
 41
1.0
 10
563.3176369976286
 20
-1157.087684347329
 30
0.0
 41
0.9996850305193041
 10
563.3458206738879
 20
-1156.872413341887
 30
0.0
 41
1.0
 10
563.3478157072566
 20
-1156.85717498777
 30
0.0
 41
1.0
 10
563.3498107406252
 20
-1156.841936633653
 30
0.0
 41
1.0
 10
563.3772186030843
 20
-1156.632591406497
 30
0.0
 41
0.9994697936706728
 10
563.3909431623044
 20
-1156.421906211163
 30
0.0
 41
1.0
 10
563.3914202315543
 20
-1156.41458273895
 30
0.0
 41
1.0
 10
563.3918973008041
 20
-1156.407259266737
 30
0.0
 41
1.0
 10
563.4046677215239
 20
-1156.211221015832
 30
0.0
 41
0.9991804893137097
 10
563.4015394052512
 20
-1156.014792165859
 30
0.0
 41
1.0
 10
563.4014555264291
 20
-1156.009525364447
 30
0.0
 41
1.0
 10
563.401371647607
 20
-1156.004258563034
 30
0.0
 41
1.0
 10
563.3984110889785
 20
-1155.818363315886
 30
0.0
 41
0.9988448329321649
 10
563.3776195433547
 20
-1155.633610726052
 30
0.0
 41
1.0
 10
563.3760254696517
 20
-1155.61944587028
 30
0.0
 41
1.0
 10
563.3744313959486
 20
-1155.605281014509
 30
0.0
 41
1.0
 10
563.3568279977309
 20
-1155.448858136218
 30
0.0
 41
0.9985503209458728
 10
563.3225117254314
 20
-1155.295233952129
 30
0.0
 41
1.0
 10
563.3149257333603
 20
-1155.26127362473
 30
0.0
 41
1.0
 10
563.3073397412891
 20
-1155.22731329733
 30
0.0
 41
1.0
 10
563.2881954531318
 20
-1155.141609768041
 30
0.0
 41
0.999103678137077
 10
563.2618705914806
 20
-1155.057832680715
 30
0.0
 41
1.0
 10
563.2578883660249
 20
-1155.045159518206
 30
0.0
 41
1.0
 10
563.2539061405693
 20
-1155.032486355696
 30
0.0
 41
1.0
 10
563.2355457298298
 20
-1154.974055593391
 30
0.0
 41
0.9998874504368644
 10
563.215440522151
 20
-1154.916201991167
 30
0.0
 41
1.0
 10
563.1953353144722
 20
-1154.858348388943
 30
0.0
 41
0.9994041637544419
 10
563.1712867015377
 20
-1154.802019685053
 30
0.0
 41
1.0
 10
563.1670899173137
 20
-1154.79218962057
 30
0.0
 41
1.0
 10
563.1628931330896
 20
-1154.782359556088
 30
0.0
 41
1.0
 10
563.1350143020946
 20
-1154.717059390121
 30
0.0
 41
0.9991846840702224
 10
563.1019579454025
 20
-1154.654221358843
 30
0.0
 41
1.0
 10
563.1008213390078
 20
-1154.652060742388
 30
0.0
 41
1.0
 10
563.0996847326131
 20
-1154.649900125934
 30
0.0
 41
1.0
 10
563.06890158871
 20
-1154.591383327564
 30
0.0
 41
0.9989253167925084
 10
563.0328321646546
 20
-1154.535968399172
 30
0.0
 41
1.0
 10
563.0317780399803
 20
-1154.534348904409
 30
0.0
 41
1.0
 10
563.0307239153059
 20
-1154.532729409647
 30
0.0
 41
1.0
 10
562.9967627405995
 20
-1154.480553470782
 30
0.0
 41
0.9986467172837411
 10
562.9575655879622
 20
-1154.432187437152
 30
0.0
 41
1.0
 10
562.9566914592616
 20
-1154.431108834874
 30
0.0
 41
1.0
 10
562.955817330561
 20
-1154.430030232596
 30
0.0
 41
1.0
 10
562.9183684353249
 20
-1154.383821403523
 30
0.0
 41
0.9984001104267084
 10
562.8759417048076
 20
-1154.342136296154
 30
0.0
 41
1.0
 10
562.8753545666983
 20
-1154.341559421273
 30
0.0
 41
1.0
 10
562.874767428589
 20
-1154.340982546392
 30
0.0
 41
1.0
 10
562.8335149742906
 20
-1154.300451188785
 30
0.0
 41
0.9982442159083096
 10
562.7877588729549
 20
-1154.265082627525
 30
0.0
 41
1.0
 10
562.7875440774934
 20
-1154.264916594882
 30
0.0
 41
1.0
 10
562.7873292820319
 20
-1154.264750562239
 30
0.0
 41
1.0
 10
562.7420027716203
 20
-1154.229714066265
 30
0.0
 41
0.9982450060835968
 10
562.6928517925476
 20
-1154.200282283231
 30
0.0
 41
1.0
 10
562.6437008134757
 20
-1154.170850500198
 30
0.0
 41
0.9983922639635456
 10
562.5915345073108
 20
-1154.147170865543
 30
0.0
 41
1.0
 10
562.5913076299864
 20
-1154.147067880062
 30
0.0
 41
1.0
 10
562.591080752662
 20
-1154.146964894581
 30
0.0
 41
1.0
 10
562.5384606918487
 20
-1154.123079288964
 30
0.0
 41
0.9986517147149896
 10
562.4836477189813
 20
-1154.104778169842
 30
0.0
 41
1.0
 10
562.4829697975529
 20
-1154.104551823411
 30
0.0
 41
1.0
 10
562.4822918761246
 20
-1154.104325476979
 30
0.0
 41
1.0
 10
562.4261230604008
 20
-1154.085571664994
 30
0.0
 41
0.9989435598956855
 10
562.3684696732493
 20
-1154.07205396276
 30
0.0
 41
1.0
 10
562.3673895536676
 20
-1154.071800712507
 30
0.0
 41
1.0
 10
562.3663094340861
 20
-1154.071547462254
 30
0.0
 41
1.0
 10
562.3064958077703
 20
-1154.057523259513
 30
0.0
 41
0.9992249241239877
 10
562.2457642988712
 20
-1154.048247916798
 30
0.0
 41
1.0
 10
562.2443506105816
 20
-1154.04803200839
 30
0.0
 41
1.0
 10
562.242936922292
 20
-1154.047816099982
 30
0.0
 41
1.0
 10
562.1793780368151
 20
-1154.038108940452
 30
0.0
 41
0.9994396597834455
 10
562.1153121002815
 20
-1154.032676018106
 30
0.0
 41
1.0
 10
562.0961714328007
 20
-1154.031052850388
 30
0.0
 41
1.0
 10
562.0770307653199
 20
-1154.029429682669
 30
0.0
 41
1.0
 10
561.9746834938267
 20
-1154.020750424886
 30
0.0
 41
0.9987693403120834
 10
561.8719798702392
 20
-1154.022253488338
 30
0.0
 41
1.0
 10
561.8617255360116
 20
-1154.022403560112
 30
0.0
 41
1.0
 10
561.8514712017841
 20
-1154.022553631886
 30
0.0
 41
1.0
 10
561.741915435606
 20
-1154.024156976174
 30
0.0
 41
0.9989753644966034
 10
561.6329534355904
 20
-1154.035659983099
 30
0.0
 41
1.0
 10
561.5239914355745
 20
-1154.047162990024
 30
0.0
 41
0.9983190067305872
 10
561.4170926246103
 20
-1154.071197981811
 30
0.0
 41
1.0
 10
561.4081916730029
 20
-1154.073199260374
 30
0.0
 41
1.0
 10
561.3992907213955
 20
-1154.075200538937
 30
0.0
 41
1.0
 10
561.2745900072174
 20
-1154.103238087848
 30
0.0
 41
0.9985539388303277
 10
561.1536202535402
 20
-1154.144501763894
 30
0.0
 41
1.0
 10
561.1512748225794
 20
-1154.14530180771
 30
0.0
 41
1.0
 10
561.1489293916185
 20
-1154.146101851526
 30
0.0
 41
1.0
 10
561.0232687760208
 20
-1154.188965615203
 30
0.0
 41
0.9988468746493548
 10
560.9022984337205
 20
-1154.243683700265
 30
0.0
 41
1.0
 10
560.8991156117314
 20
-1154.245123374825
 30
0.0
 41
1.0
 10
560.8959327897423
 20
-1154.246563049385
 30
0.0
 41
1.0
 10
560.7685968034654
 20
-1154.304160483567
 30
0.0
 41
0.9991322885918941
 10
560.6464962194088
 20
-1154.372155815749
 30
0.0
 41
1.0
 10
560.6288942083625
 20
-1154.381958017741
 30
0.0
 41
1.0
 10
560.6112921973162
 20
-1154.391760219732
 30
0.0
 41
1.0
 10
560.5091155162611
 20
-1154.448660335511
 30
0.0
 41
0.999386003784932
 10
560.4111745121894
 20
-1154.512576351098
 30
0.0
 41
1.0
 10
560.40555619934
 20
-1154.516242845792
 30
0.0
 41
1.0
 10
560.3999378864908
 20
-1154.519909340484
 30
0.0
 41
1.0
 10
560.313233508119
 20
-1154.576492366685
 30
0.0
 41
0.9998821494953106
 10
560.2283071323031
 20
-1154.635710596764
 30
0.0
 41
1.0
 10
560.1433807564915
 20
-1154.694928826839
 30
0.0
 41
0.9997976482744848
 10
560.0609051260914
 20
-1154.757515234879
 30
0.0
 41
1.0
 10
560.046268861284
 20
-1154.76862192466
 30
0.0
 41
1.0
 10
560.0316325964768
 20
-1154.779728614442
 30
0.0
 41
1.0
 10
559.9198844364636
 20
-1154.864528402043
 30
0.0
 41
0.9998091630800757
 10
559.8115341584364
 20
-1154.953628752744
 30
0.0
 41
1.0
 10
559.7985284059587
 20
-1154.96432385319
 30
0.0
 41
1.0
 10
559.785522653481
 20
-1154.975018953637
 30
0.0
 41
1.0
 10
559.6511608704978
 20
-1155.085509505231
 30
0.0
 41
0.999503511231744
 10
559.5240249927334
 20
-1155.204243322247
 30
0.0
 41
1.0
 10
559.5143776823463
 20
-1155.213253068405
 30
0.0
 41
1.0
 10
559.5047303719591
 20
-1155.222262814562
 30
0.0
 41
1.0
 10
559.3813073091959
 20
-1155.337529186316
 30
0.0
 41
0.9994630424299311
 10
559.2656989034116
 20
-1155.460631929552
 30
0.0
 41
1.0
 10
559.26201606464
 20
-1155.464553509065
 30
0.0
 41
1.0
 10
559.2583332258682
 20
-1155.468475088579
 30
0.0
 41
1.0
 10
559.1500904976267
 20
-1155.583734672788
 30
0.0
 41
0.999516069375019
 10
559.0492244680958
 20
-1155.70550209066
 30
0.0
 41
1.0
 10
559.0472907480166
 20
-1155.707836514866
 30
0.0
 41
1.0
 10
559.0453570279375
 20
-1155.710170939072
 30
0.0
 41
1.0
 10
558.9483584385648
 20
-1155.827269508531
 30
0.0
 41
0.9996561470514747
 10
558.8576322198979
 20
-1155.949292270981
 30
0.0
 41
1.0
 10
558.8514745539942
 20
-1155.957574060026
 30
0.0
 41
1.0
 10
558.8453168880905
 20
-1155.965855849071
 30
0.0
 41
1.0
 10
558.7669060012286
 20
-1156.071315033435
 30
0.0
 41
0.99983490551721
 10
558.6923787192998
 20
-1156.179553617094
 30
0.0
 41
1.0
 10
558.6178514373669
 20
-1156.287792200758
 30
0.0
 41
0.9999728109569125
 10
558.5449285414577
 20
-1156.397118126312
 30
0.0
 41
1.0
 10
558.5436133260457
 20
-1156.399089895815
 30
0.0
 41
1.0
 10
558.5422981106339
 20
-1156.401061665318
 30
0.0
 41
1.0
 10
558.4667447838979
 20
-1156.514331129882
 30
0.0
 41
0.9999972147390339
 10
558.3917269735416
 20
-1156.62795597269
 30
0.0
 41
1.0
 10
558.3867554309115
 20
-1156.635486061174
 30
0.0
 41
1.0
 10
558.3817838882815
 20
-1156.643016149658
 30
0.0
 41
1.0
 10
558.2968229926614
 20
-1156.771701169441
 30
0.0
 41
0.9999371979004519
 10
558.2147676432571
 20
-1156.902258083218
 30
0.0
 41
1.0
 10
558.2112587588958
 20
-1156.907841011283
 30
0.0
 41
1.0
 10
558.2077498745344
 20
-1156.913423939347
 30
0.0
 41
1.0
 10
558.1186767564061
 20
-1157.055146709255
 30
0.0
 41
0.9998272025611967
 10
558.0349333655237
 20
-1157.200082585998
 30
0.0
 41
1.0
 10
558.0197181934998
 20
-1157.226415700455
 30
0.0
 41
1.0
 10
558.0045030214758
 20
-1157.252748814911
 30
0.0
 41
1.0
 10
557.8903292865455
 20
-1157.450350920567
 30
0.0
 41
0.999521721483861
 10
557.7885895969883
 20
-1157.654633248432
 30
0.0
 41
1.0
 10
557.7809460343555
 20
-1157.669980698131
 30
0.0
 41
1.0
 10
557.7733024717226
 20
-1157.68532814783
 30
0.0
 41
1.0
 10
557.6863971791317
 20
-1157.859824605914
 30
0.0
 41
0.99982697626094
 10
557.6060427128581
 20
-1158.03743289264
 30
0.0
 41
1.0
 10
557.5256882465857
 20
-1158.215041179364
 30
0.0
 41
0.9998944747387787
 10
557.4505274520182
 20
-1158.394908905001
 30
0.0
 41
1.0
 10
557.4455737824295
 20
-1158.406763559912
 30
0.0
 41
1.0
 10
557.4406201128409
 20
-1158.418618214823
 30
0.0
 41
1.0
 10
557.3599730522873
 20
-1158.611615154844
 30
0.0
 41
0.9999506734411635
 10
557.2831755233824
 20
-1158.806175959703
 30
0.0
 41
1.0
 10
557.2685755581217
 20
-1158.843163881483
 30
0.0
 41
1.0
 10
557.2539755928611
 20
-1158.880151803263
 30
0.0
 41
1.0
 10
557.206377994491
 20
-1159.000736764528
 30
0.0
 41
0.9999912393941516
 10
557.1597915504562
 20
-1159.121715967255
 30
0.0
 41
1.0
 10
557.1132051064244
 20
-1159.242695169975
 30
0.0
 41
0.9999927113982016
 10
557.067543812022
 20
-1159.364026577499
 30
0.0
 41
1.0
 10
557.053575380633
 20
-1159.401143559475
 30
0.0
 41
1.0
 10
557.0396069492441
 20
-1159.438260541451
 30
0.0
 41
1.0
 10
556.9660087920556
 20
-1159.633825912948
 30
0.0
 41
0.9999487550952191
 10
556.8963851670852
 20
-1159.830841278126
 30
0.0
 41
1.0
 10
556.8727915571452
 20
-1159.897604588428
 30
0.0
 41
1.0
 10
556.8491979472052
 20
-1159.964367898729
 30
0.0
 41
1.0
 10
556.7545123128341
 20
-1160.232301733555
 30
0.0
 41
0.9999808436927112
 10
556.6631507241971
 20
-1160.501387164808
 30
0.0
 41
1.0
 10
556.5717891355564
 20
-1160.77047259607
 30
0.0
 41
0.9999873932915736
 10
556.4831344268456
 20
-1161.040461951061
 30
0.0
 41
1.0
 10
556.4630420699722
 20
-1161.101651283826
 30
0.0
 41
1.0
 10
556.4429497130988
 20
-1161.162840616591
 30
0.0
 41
1.0
 10
556.3141102906436
 20
-1161.555208637105
 30
0.0
 41
0.9999794883021407
 10
556.1903075056805
 20
-1161.949194843399
 30
0.0
 41
1.0
 10
556.1791552462328
 20
-1161.984685453669
 30
0.0
 41
1.0
 10
556.1680029867849
 20
-1162.020176063939
 30
0.0
 41
1.0
 10
556.0254448228939
 20
-1162.473848816005
 30
0.0
 41
0.9999982761848963
 10
555.8845723828963
 20
-1162.928047838072
 30
0.0
 41
1.0
 10
554.2964320503237
 20
-1167.976817569075
 30
0.0
 41
1.0
 10
552.7082917177511
 20
-1173.025587300078
 30
0.0
 41
1.0
 10
551.7595411062747
 20
-1173.025587300078
 30
0.0
 41
1.0
 10
550.8107904947983
 20
-1173.025587300078
 30
0.0
 41
1.0
 10
554.0490749809514
 20
-1162.698265100132
 30
0.0
 41
1.0
 10
557.2873594671046
 20
-1152.370942900186
 30
0.0
 41
1.0
  0
LWPOLYLINE
  5
61
330
23
100
AcDbEntity
  8
0
  6
Continuous
 62
     7
370
    15
390
1D
100
AcDbPolyline
 90
      232
 70
   128
 43
0.0
 10
531.5838136932775
 20
-1153.455285731701
 42
0.0004370800689577
 10
531.5309365192777
 20
-1153.523952370864
 10
531.4916522880781
 20
-1153.575059483854
 42
0.0030481992173531
 10
531.3613135709594
 20
-1153.746781176198
 10
531.3228018992085
 20
-1153.798167959986
 42
0.0042058245760717
 10
531.1188168485345
 20
-1154.075173705066
 10
531.0664117260379
 20
-1154.147606551841
 42
0.0120948898742607
 10
530.7703678092764
 20
-1154.57835615639
 10
530.6741753101543
 20
-1154.725836891615
 42
0.0141601263948332
 10
530.3705312632326
 20
-1155.22150622835
 10
530.3309939958002
 20
-1155.290350195793
 42
0.0071131081304033
 10
530.1257216725683
 20
-1155.65985299462
 42
0.0068458790999909
 10
529.9308421457325
 20
-1156.034944558082
 10
529.9240302832675
 20
-1156.04850627182
 42
0.0064120880292503
 10
529.7258880332234
 20
-1156.455930746738
 10
529.7183533477062
 20
-1156.47194260346
 42
0.0058857236448625
 10
529.515597955833
 20
-1156.916318714498
 10
529.5074230295405
 20
-1156.934808868129
 42
0.0053189741897331
 10
529.2987187168751
 20
-1157.420772342042
 10
529.2899709111916
 20
-1157.441754220243
 42
0.0047503650419909
 10
529.0739971850363
 20
-1157.973953653464
 10
529.0647289366927
 20
-1157.99743002956
 42
0.0042071762172264
 10
528.8401815529646
 20
-1158.580523623631
 10
528.8304321506163
 20
-1158.6064897985
 42
0.003668008648492
 10
528.5959775073057
 20
-1159.245125183027
 10
528.5857697274564
 20
-1159.273573717376
 42
0.0032573142628851
 10
528.340137441485
 20
-1159.972426377143
 10
528.2714869206427
 20
-1160.171889461201
 42
0.002613336664951
 10
527.9230417218911
 20
-1161.201752744854
 10
527.8597849344044
 20
-1161.391983580204
 42
0.0020592950739868
 10
527.6459218654232
 20
-1162.04408723286
 10
527.6428700742604
 20
-1162.053523721269
 42
0.0025609928534497
 10
527.4410495727743
 20
-1162.688668943636
 10
527.4384582056409
 20
-1162.696971284597
 42
0.0031362356242885
 10
527.2489674199708
 20
-1163.317734140756
 10
527.2468363770458
 20
-1163.324875446958
 42
0.003722991802783
 10
527.070035990117
 20
-1163.933860748941
 10
527.0683574009123
 20
-1163.939807639109
 42
0.0043077623705881
 10
526.9046165988456
 20
-1164.539626370884
 42
0.0047654161823792
 10
526.7517878763286
 20
-1165.14231245979
 10
526.7173232674904
 20
-1165.283874236936
 42
0.0112969368445921
 10
526.5214589093464
 20
-1166.175566397562
 10
526.4934525202501
 20
-1166.318394443658
 42
0.0130056762570138
 10
526.2926152766036
 20
-1167.505335515303
 10
526.2720755264568
 20
-1167.649413628778
 42
0.0138721532144255
 10
526.1683725219186
 20
-1168.556243114606
 10
526.1490770340105
 20
-1168.779740836534
 42
0.0071254697010239
 10
526.1157303880881
 20
-1169.242927845378
 10
526.1107694139246
 20
-1169.328931839943
 42
0.002888179920548
 10
526.095631120635
 20
-1169.620673549781
 42
0.0060297297134306
 10
526.0856989208596
 20
-1169.912622485891
 10
526.0846366391924
 20
-1169.961014857829
 42
0.0229523164156406
 10
526.0923676669781
 20
-1170.283769704113
 10
526.0965934404985
 20
-1170.344173238129
 42
0.0123673300665973
 10
526.1156720870168
 20
-1170.545293963304
 42
0.0128577674465948
 10
526.1448674774235
 20
-1170.745191813233
 10
526.1519933508101
 20
-1170.786520627827
 42
0.0285717853764389
 10
526.2164873525061
 20
-1171.064636779141
 10
526.2301558761726
 20
-1171.111291548619
 42
0.03162830991602
 10
526.3459664560864
 20
-1171.430306050444
 10
526.3490151478418
 20
-1171.437292422769
 42
0.0338984824236973
 10
526.4984468588091
 20
-1171.724858386958
 10
526.5007555881785
 20
-1171.728649416234
 42
0.0350228718348807
 10
526.6831158788525
 20
-1171.985701400911
 10
526.6840011306276
 20
-1171.986780478675
 42
0.0347476747528706
 10
526.8984258178676
 20
-1172.213965525895
 42
0.033133770191103
 10
527.1416691436143
 20
-1172.410094187973
 10
527.1427692421302
 20
-1172.410866891145
 42
0.0305233319081685
 10
527.4113139377039
 20
-1172.575995061237
 10
527.4145439822048
 20
-1172.577719073099
 42
0.0273744481155364
 10
527.7070976937781
 20
-1172.713857216989
 10
527.7122022289167
 20
-1172.715900801459
 42
0.0240964406197454
 10
528.027679304563
 20
-1172.824884527741
 10
528.0342626337723
 20
-1172.826809267416
 42
0.0209636179811635
 10
528.3716627864242
 20
-1172.910277415348
 10
528.3792952468735
 20
-1172.911829328349
 42
0.0181388704695053
 10
528.7376176388769
 20
-1172.971245421564
 10
528.7458984872502
 20
-1172.97231160538
 42
0.0156086547585605
 10
529.124085851437
 20
-1173.009047791957
 10
529.1672811037664
 20
-1173.011886294436
 42
0.013714832902506
 10
529.494954249065
 20
-1173.024406549687
 10
529.5408904389927
 20
-1173.024900982802
 42
0.0051057823880902
 10
529.7770360255832
 20
-1173.025031237212
 42
0.0052256693311167
 10
530.0131333093806
 20
-1173.020282412747
 10
530.0833600931113
 20
-1173.018135446733
 42
0.0161507179047033
 10
530.4590971712104
 20
-1172.994485076407
 10
530.4791101315856
 20
-1172.992574881119
 42
0.0101216737834379
 10
530.8931373530779
 20
-1172.944581950753
 10
530.927190642503
 20
-1172.939934253944
 42
0.0245291776397554
 10
531.4039802980524
 20
-1172.850859175868
 10
531.4888036135792
 20
-1172.830663255522
 42
0.0143509212559133
 10
531.8454347175178
 20
-1172.734858621743
 42
0.0156557857041923
 10
532.1956507822451
 20
-1172.617847405924
 10
532.2031519967397
 20
-1172.61507724417
 42
0.0170137333631375
 10
532.5597479924219
 20
-1172.469419629299
 10
532.5668519148286
 20
-1172.466231793735
 42
0.0183105364408481
 10
532.9262015829955
 20
-1172.288896751911
 10
532.9331483476336
 20
-1172.285146317039
 42
0.0194899958152812
 10
533.2916290886209
 20
-1172.073167335146
 10
533.2986429679543
 20
-1172.068641992853
 42
0.0204869852946411
 10
533.6526572700453
 20
-1171.81912197777
 10
533.6599228786351
 20
-1171.813541912419
 42
0.0212516938554929
 10
534.0059128097428
 20
-1171.523637915525
 10
534.0524295038194
 20
-1171.48117060543
 42
0.0215248918252275
 10
534.3124556727065
 20
-1171.222406326436
 10
534.3574854070906
 20
-1171.173562205083
 42
0.0114578554955249
 10
534.5122775607645
 20
-1170.997739271628
 10
534.5234720967453
 20
-1170.98442050809
 42
0.0061531305126768
 10
534.6499467427454
 20
-1170.830130974777
 42
0.0006325587118654
 10
534.7743252268806
 20
-1170.674127599122
 10
534.7973653619488
 20
-1170.645154078442
 42
0.0041897761555747
 10
534.9658207659306
 20
-1170.429634702369
 10
535.0242828858137
 20
-1170.353533355395
 42
0.0092993880038096
 10
535.3008948130339
 20
-1169.979254591516
 10
535.3832893062356
 20
-1169.863317587943
 42
0.0159321727085424
 10
535.7298957888786
 20
-1169.341143367186
 10
535.7742519242719
 20
-1169.26946380293
 42
0.0085547317023387
 10
536.0087636895935
 20
-1168.875588853712
 42
0.008460115688909
 10
536.229739867035
 20
-1168.473962004681
 10
536.237855340866
 20
-1168.458602322406
 42
0.0081429654286646
 10
536.4611046113068
 20
-1168.018880809859
 10
536.4699647754875
 20
-1168.000701967846
 42
0.007657458132768
 10
536.6963722860562
 20
-1167.517519092589
 10
536.7058519267779
 20
-1167.49645461429
 42
0.0070682724199844
 10
536.936296834585
 20
-1166.964417309508
 10
536.9462871185664
 20
-1166.940428120497
 42
0.0064559514448694
 10
537.1816203267498
 20
-1166.354115853974
 10
537.192029684913
 20
-1166.327180928536
 42
0.0058311413906256
 10
537.4330764216777
 20
-1165.681148834147
 10
537.4438314990632
 20
-1165.651264492992
 42
0.005231242581789
 10
537.6914127770989
 20
-1164.940062079173
 10
537.702456613484
 20
-1164.907235367088
 42
0.0046680544796262
 10
537.9573850412154
 20
-1164.125409051342
 10
537.9993771912626
 20
-1163.992425814039
 42
0.0041666856446606
 10
538.2026632036569
 20
-1163.329457039035
 10
538.2403256443225
 20
-1163.202875931376
 42
0.0015170975152838
 10
538.3615122227337
 20
-1162.791007579888
 42
-0.0004887993111491
 10
538.4818519958967
 20
-1162.37888916771
 10
538.558329253352
 20
-1162.117931781905
 42
0.0002583378929194
 10
538.8315438235005
 20
-1161.183875078437
 10
538.9133166729918
 20
-1160.903775819147
 42
0.0006636169673407
 10
539.1071844330042
 20
-1160.236422895556
 10
539.112281087355
 20
-1160.218791312663
 42
0.0010589131322279
 10
539.2937297882679
 20
-1159.586059969627
 10
539.2987118587524
 20
-1159.568547062592
 42
0.0015655524464719
 10
539.4669820659311
 20
-1158.969930383406
 10
539.4718122663413
 20
-1158.952538224487
 42
0.0021640440472797
 10
539.6261022383321
 20
-1158.387511206452
 10
539.630736457761
 20
-1158.370246476462
 42
0.0028763871851906
 10
539.770252175815
 20
-1157.838278525611
 10
539.7746380399801
 20
-1157.821154547465
 42
0.0037310511943036
 10
539.8985947318191
 20
-1157.321706953433
 10
539.902669952106
 20
-1157.304746682196
 42
0.0047652197769701
 10
540.0102938526167
 20
-1156.837268913882
 10
540.0139844519421
 20
-1156.820509358723
 42
0.0060276699298868
 10
540.1045145510936
 20
-1156.384433563588
 10
540.1077332413826
 20
-1156.36793234928
 42
0.0075824337753503
 10
540.1804225507982
 20
-1155.962665184853
 10
540.1830679281793
 20
-1155.946510237397
 42
0.0095130624607654
 10
540.2371831638097
 20
-1155.57142088433
 10
540.2441693876928
 20
-1155.515487326211
 42
0.0121054653233108
 10
540.2707607182703
 20
-1155.25059149774
 10
540.2716272080302
 20
-1155.239188054806
 42
0.0069050827390711
 10
540.2867160260674
 20
-1154.996246827966
 10
540.287851325736
 20
-1154.972720570921
 42
0.0169063976696527
 10
540.2906786047163
 20
-1154.776527843621
 10
540.2895079531852
 20
-1154.716192082276
 42
0.0052007732893554
 10
540.287254504592
 20
-1154.64059869212
 42
0.0054038123303005
 10
540.2672909927529
 20
-1154.520580396108
 10
540.2622051368827
 20
-1154.491921909529
 42
0.0112050460457379
 10
540.2268207748243
 20
-1154.31559547119
 10
540.2089958127835
 20
-1154.236053884469
 42
0.0240764468012807
 10
540.118098446637
 20
-1153.905816848966
 10
540.0995396838239
 20
-1153.849196683973
 42
0.025681233183553
 10
539.9561767636344
 20
-1153.477472477716
 10
539.9507673378131
 20
-1153.465341142727
 42
0.0268360501210324
 10
539.781340096963
 20
-1153.134348008706
 10
539.7758036893281
 20
-1153.124828338393
 42
0.0274670231726778
 10
539.5836027129147
 20
-1152.832540963476
 10
539.5782214129523
 20
-1152.825261815935
 42
0.0275035967106245
 10
539.3666485333903
 20
-1152.569745925631
 10
539.3615790324228
 20
-1152.564266837999
 42
0.02695576735209
 10
539.1341754889842
 20
-1152.343624552038
 10
539.1294324312018
 20
-1152.339494597577
 42
0.0259124802209415
 10
538.8898775997708
 20
-1152.151804070425
 10
538.8853467545871
 20
-1152.148618568094
 42
0.0245162153004866
 10
538.637430401494
 20
-1151.991885558984
 10
538.6329038551721
 20
-1151.989325361784
 42
0.022928258883368
 10
538.3804842983425
 20
-1151.861457169284
 10
538.3757038045077
 20
-1151.859304869523
 42
0.0212984135689616
 10
538.1226658520441
 20
-1151.75810595228
 10
538.1173615670746
 20
-1151.75624238952
 42
0.0197555462338979
 10
537.8675832293516
 20
-1151.679426971555
 42
0.0183511896782944
 10
537.612654503889
 20
-1151.62184406459
 10
537.5262893071637
 20
-1151.605641274204
 42
0.0338057877150453
 10
537.2407819579051
 20
-1151.571832869065
 10
537.1497765528615
 20
-1151.567253213803
 42
0.0091990524501613
 10
537.0439294442292
 20
-1151.563877357881
 42
0.0028333980777972
 10
536.9380155282354
 20
-1151.563049250364
 10
536.9371000751869
 20
-1151.56304728054
 42
-0.0023619827797989
 10
536.8293540600381
 20
-1151.562306439461
 10
536.7929488899051
 20
-1151.561884132999
 42
0.0008824598484669
 10
536.6123929000829
 20
-1151.560108354761
 10
536.5685314676493
 20
-1151.559754393235
 42
0.0038132665767965
 10
536.3002485717963
 20
-1151.559635457168
 10
536.283714916977
 20
-1151.559754223312
 42
0.0060665569337696
 10
535.9824344253742
 20
-1151.565574522733
 10
535.9681840933604
 20
-1151.5660228307
 42
0.0080356953339227
 10
535.6387253770157
 20
-1151.581690552767
 10
535.6266553619339
 20
-1151.582459135707
 42
0.0098996399102236
 10
535.273892277294
 20
-1151.611944364905
 10
535.2638465679083
 20
-1151.612984661104
 42
0.0117740981367881
 10
534.892689709558
 20
-1151.660276908634
 10
534.884467013077
 20
-1151.661522025204
 42
0.0137435215133999
 10
534.4998781935935
 20
-1151.730618998766
 10
534.4932211544685
 20
-1151.732004895
 42
0.0158359869383418
 10
534.1002240606664
 20
-1151.82689698348
 10
534.0948108737989
 20
-1151.828386924351
 42
0.018055412402621
 10
533.6984958291831
 20
-1151.953024940591
 10
533.6939390411031
 20
-1151.954640976856
 42
0.0203657431284744
 10
533.2994615232896
 20
-1152.112901318373
 10
533.2953179842845
 20
-1152.114762939814
 42
0.0226819684657227
 10
532.9078819280777
 20
-1152.310405518486
 10
532.9036821370627
 20
-1152.312771110404
 42
0.0248634984607016
 10
532.5285001958795
 20
-1152.549397756353
 10
532.4803052670983
 20
-1152.583254798177
 42
0.0267044190884883
 10
532.206012570181
 20
-1152.798695174045
 42
0.013930300219766
 10
531.949845404241
 20
-1153.035934014959
 10
531.9449920185212
 20
-1153.040686677818
 42
0.0283460963440095
 10
531.7009194242951
 20
-1153.308417338261
 10
531.6612509191375
 20
-1153.357218915736
 42
0.0070695364819168
 10
531.5838136932775
 20
-1153.455285731701
 42
0.0070695364819168
  0
LWPOLYLINE
  5
62
330
23
100
AcDbEntity
  8
0
  6
Continuous
 62
     7
370
    15
390
1D
100
AcDbPolyline
 90
      226
 70
   128
 43
0.0
 10
528.0549932560311
 20
-1169.176874537885
 42
-0.002627763660806
 10
528.0549153722311
 20
-1169.11010261212
 10
528.0551327304631
 20
-1169.056947394699
 42
-0.0088680296730387
 10
528.0589093467563
 20
-1168.883931612295
 10
528.0612557058687
 20
-1168.824651586842
 42
-0.0077381705612813
 10
528.0773018166321
 20
-1168.53339109104
 10
528.078169727805
 20
-1168.521102857359
 42
-0.0068872530534434
 10
528.1048018075528
 20
-1168.205881105293
 10
528.1060060317392
 20
-1168.193640126271
 42
-0.0062130021490447
 10
528.1435997485668
 20
-1167.854770435034
 10
528.1451036521021
 20
-1167.842596563116
 42
-0.0056726929672654
 10
528.1940255116052
 20
-1167.480401340996
 10
528.1957989572487
 20
-1167.468307540757
 42
-0.0052341884496638
 10
528.2564095435092
 20
-1167.083114285237
 10
528.2584275322854
 20
-1167.071109355247
 42
-0.0049768450169678
 10
528.33116621371
 20
-1166.663264787824
 10
528.3554152284336
 20
-1166.534716804809
 42
-0.008902980562564
 10
528.4924960802289
 20
-1165.872941357384
 10
528.5252414555468
 20
-1165.727909926863
 42
-0.0080318257099523
 10
528.7547900698869
 20
-1164.782200295012
 10
528.7667749963358
 20
-1164.736069659819
 42
-0.0074265721318571
 10
529.0507865351877
 20
-1163.706005081431
 10
529.0706660783045
 20
-1163.637871020842
 42
-0.0069711922702096
 10
529.397970656809
 20
-1162.571603280521
 10
529.4579226039124
 20
-1162.385581922157
 42
-0.005207042289637
 10
529.6873478291739
 20
-1161.698309845119
 10
529.7046290213565
 20
-1161.648282564472
 42
-0.0009167004450058
 10
529.9077209086355
 20
-1161.063826716348
 42
-0.0025162726944786
 10
530.1148185389059
 20
-1160.480785452164
 10
530.1520431507106
 20
-1160.37763590626
 42
-0.0028212681456549
 10
530.4002190696666
 20
-1159.701905274109
 10
530.4100498324233
 20
-1159.675597829416
 42
-0.0031964916819157
 10
530.6463420900797
 20
-1159.055393067305
 10
530.6559765440787
 20
-1159.030583077162
 42
-0.0036281836450779
 10
530.8810825051798
 20
-1158.463142396269
 10
530.8905209153403
 20
-1158.439844964759
 42
-0.0041269166833556
 10
531.1051386119965
 20
-1157.922404068788
 10
531.1377715684079
 20
-1157.845525622449
 42
-0.0047472213059736
 10
531.2948163739709
 20
-1157.485104154543
 10
531.3017104551792
 20
-1157.469683557211
 42
-0.0025651659997803
 10
531.4500684890293
 20
-1157.142355501463
 42
-0.0057144634992121
 10
531.6038181828018
 20
-1156.817545828098
 10
531.631848888203
 20
-1156.760037445704
 42
-0.0065388068373935
 10
531.8153159159415
 20
-1156.395804949041
 10
531.8237743717242
 20
-1156.379545369664
 42
-0.0074510843021704
 10
531.9999566175978
 20
-1156.052857088549
 10
532.0081362881285
 20
-1156.038216311281
 42
-0.0084648979864717
 10
532.177770141229
 20
-1155.746307300319
 10
532.185626267716
 20
-1155.73330030867
 42
-0.0095638542808447
 10
532.3494617153113
 20
-1155.47341143669
 10
532.356936658983
 20
-1155.462042075234
 42
-0.0107191626803424
 10
532.5157382393706
 20
-1155.23143084069
 10
532.5227549730996
 20
-1155.221694748328
 42
-0.0118458573904221
 10
532.6773030716142
 20
-1155.017622553015
 42
-0.0129184518190183
 10
532.8417556952181
 20
-1154.821462036842
 10
532.8719004675787
 20
-1154.787335957945
 42
-0.0217742579637986
 10
533.0485127899142
 20
-1154.604129187695
 10
533.0592583343722
 20
-1154.593912354494
 42
-0.009726656864992
 10
533.2253159532303
 20
-1154.442064780054
 42
-0.0187720905715916
 10
533.399663529121
 20
-1154.299995926664
 10
533.4303695197937
 20
-1154.276836844269
 42
-0.017942820751739
 10
533.6627902397902
 20
-1154.114284667157
 10
533.6664425667078
 20
-1154.111920732268
 42
-0.0170047877696846
 10
533.9022062042363
 20
-1153.970460218118
 10
533.9059891929815
 20
-1153.968361913083
 42
-0.0160190788370739
 10
534.1428977406182
 20
-1153.846710611094
 42
-0.0151102861490453
 10
534.3869295230667
 20
-1153.740027835038
 10
534.4393160252766
 20
-1153.718987702144
 42
-0.0271945441885526
 10
534.7979785843356
 20
-1153.597122891438
 10
534.8670433848222
 20
-1153.577773350172
 42
-0.0237596594019302
 10
535.2828402318454
 20
-1153.48232263819
 10
535.3509030855722
 20
-1153.470067950064
 42
-0.0213715440553962
 10
535.6367780170211
 20
-1153.431120918554
 10
535.696925183243
 20
-1153.425531203853
 42
-0.0101465655813053
 10
535.8644177152333
 20
-1153.413387660589
 10
535.8737581014348
 20
-1153.412900745591
 42
-0.0100375910870989
 10
536.0229122019941
 20
-1153.408124927666
 10
536.033171471677
 20
-1153.408002488652
 42
-0.0103625633382111
 10
536.1618794663293
 20
-1153.409133922179
 10
536.1841451175914
 20
-1153.409791280644
 42
-0.0115689250241411
 10
536.2681958551241
 20
-1153.414220786889
 42
-0.0072438037425944
 10
536.3520341345635
 20
-1153.421809986638
 10
536.368834644036
 20
-1153.423576529362
 42
-0.0217917313133267
 10
536.4854044073508
 20
-1153.440996422084
 10
536.5510044979193
 20
-1153.453743030498
 42
-0.0332943556753446
 10
536.7553966629448
 20
-1153.507783321805
 10
536.7855692314944
 20
-1153.517951398923
 42
-0.0184824084792265
 10
536.9240742879603
 20
-1153.57040241431
 42
-0.0198002050691311
 10
537.0581486284586
 20
-1153.633286474509
 10
537.0600352658365
 20
-1153.634264261389
 42
-0.0212242342980824
 10
537.1921742082376
 20
-1153.710027000182
 10
537.193989503782
 20
-1153.711172802391
 42
-0.0226090605799649
 10
537.3224934050016
 20
-1153.800652445954
 10
537.3243378467411
 20
-1153.802064698943
 42
-0.0238457052240905
 10
537.4475199280341
 20
-1153.906060594805
 10
537.449472656593
 20
-1153.907875472571
 42
-0.0248160564154514
 10
537.5656741638938
 20
-1154.02715007378
 10
537.5677777972958
 20
-1154.029535407484
 42
-0.0254109591457824
 10
537.675383015162
 20
-1154.164823793449
 10
537.6776310370758
 20
-1154.167965341849
 42
-0.0255528488279973
 10
537.7750777158725
 20
-1154.319992396083
 10
537.777408815789
 20
-1154.324074007691
 42
-0.0252146793224636
 10
537.8631898417985
 20
-1154.493576253688
 10
537.8654920809558
 20
-1154.498758335601
 42
-0.0244265635947638
 10
537.9381467747176
 20
-1154.686504907648
 10
537.9473931761856
 20
-1154.714370325985
 42
-0.023131961290583
 10
537.9933159551778
 20
-1154.877671372787
 42
-0.0112130424354135
 10
538.0279519777158
 20
-1155.043874972974
 10
538.0291545028284
 20
-1155.050371559863
 42
-0.0210527881240717
 10
538.0548409781992
 20
-1155.231427205304
 10
538.0583515730211
 20
-1155.266832753851
 42
-0.0190029892425116
 10
538.0737930465657
 20
-1155.520368600123
 10
538.0746030230098
 20
-1155.555844214492
 42
-0.0137974553663083
 10
538.0730541701744
 20
-1155.880875621222
 10
538.0722087152188
 20
-1155.906994365813
 42
-0.0081336634215635
 10
538.0573493799961
 20
-1156.212341833418
 42
-0.007352692357583
 10
538.0330408466215
 20
-1156.517090077705
 10
538.0317794228388
 20
-1156.530426752369
 42
-0.0066886138688052
 10
537.996043836792
 20
-1156.861012795869
 10
537.9943867473223
 20
-1156.874634414858
 42
-0.0061359187352418
 10
537.9465361452717
 20
-1157.231398394956
 10
537.9444986441986
 20
-1157.245293197787
 42
-0.0056698610064453
 10
537.8838483134302
 20
-1157.628571766633
 10
537.8814428801085
 20
-1157.642730885856
 42
-0.0052721077275694
 10
537.8073106793091
 20
-1158.052858225532
 10
537.8045475304671
 20
-1158.06727486092
 42
-0.0049289272178009
 10
537.716253412369
 20
-1158.504583372033
 10
537.7131409176845
 20
-1158.519252224858
 42
-0.0047415956711908
 10
537.609902926152
 20
-1158.98404898227
 10
537.5751347157925
 20
-1159.133856077652
 42
-0.0084404470904892
 10
537.3851182722209
 20
-1159.894080102182
 10
537.378991584235
 20
-1159.916944226336
 42
-0.0039635940257222
 10
537.1575378999497
 20
-1160.717933090588
 10
537.1441611047715
 20
-1160.764864707176
 42
-0.0072475040837395
 10
536.8767142169102
 20
-1161.65408442356
 10
536.8065018900827
 20
-1161.875824773533
 42
-0.0051345458829762
 10
536.5197425180221
 20
-1162.750149961349
 10
536.4982162512555
 20
-1162.813576228476
 42
-0.001915001660254
 10
536.2426828443879
 20
-1163.557125348705
 10
536.2362152400051
 20
-1163.575712813588
 42
-0.0021524362753461
 10
535.9877371889278
 20
-1164.280038635335
 10
535.9785267682277
 20
-1164.305792213646
 42
-0.0024331286818503
 10
535.7422715091953
 20
-1164.956391521754
 10
535.7332235566415
 20
-1164.980934828117
 42
-0.002744972179032
 10
535.5086089858095
 20
-1165.580064707033
 10
535.4997189784294
 20
-1165.603387296853
 42
-0.0031083229770231
 10
535.2861764918073
 20
-1166.153311334465
 10
535.2774403601325
 20
-1166.175401050321
 42
-0.0035311343281775
 10
535.0743991745398
 20
-1166.678384176053
 10
535.0658138353883
 20
-1166.699226899572
 42
-0.0040245640947739
 10
534.8727020315977
 20
-1167.157536222156
 10
534.8642659179997
 20
-1167.177115590216
 42
-0.0046015135851915
 10
534.6805096248308
 20
-1167.59302061987
 10
534.6722234470024
 20
-1167.611317759322
 42
-0.0052768638269947
 10
534.497245928047
 20
-1167.987090643592
 10
534.4891137174237
 20
-1168.004083982128
 42
-0.0060672675646057
 10
534.3223341046541
 20
-1168.34199960525
 10
534.3143646241706
 20
-1168.357664864251
 42
-0.0069904648868218
 10
534.1551962301711
 20
-1168.66000067091
 10
534.1474048305615
 20
-1168.674311220136
 42
-0.0080637022773421
 10
533.9952529702144
 20
-1168.943346523291
 10
533.9876639375814
 20
-1168.956274388895
 42
-0.0093006455661707
 10
533.8419232610516
 20
-1169.194288787395
 10
533.8345725943067
 20
-1169.20580675657
 42
-0.0107060778053228
 10
533.6946240508696
 20
-1169.415077073947
 10
533.6875622825918
 20
-1169.42516261651
 42
-0.0122723111422475
 10
533.5527685643918
 20
-1169.607955946002
 10
533.5524423408365
 20
-1169.608376333813
 42
-0.0141836319625572
 10
533.4088607378637
 20
-1169.782946091641
 10
533.4019129822149
 20
-1169.790921091902
 42
-0.0175957477214987
 10
533.2620068141771
 20
-1169.940541980311
 42
-0.0080466359670108
 10
533.1145430491404
 20
-1170.082864508468
 10
533.0685085046293
 20
-1170.125884946553
 42
-0.026960026039895
 10
532.8152282586485
 20
-1170.338208205061
 10
532.7486611223509
 20
-1170.388159619685
 42
-0.0178362839754744
 10
532.5087166326937
 20
-1170.555177545938
 10
532.5014716616913
 20
-1170.559846058145
 42
-0.0174650732649807
 10
532.2651354642519
 20
-1170.700707023102
 42
-0.0169240130168643
 10
532.0196692183981
 20
-1170.824999282878
 10
531.9736830628364
 20
-1170.846361238447
 42
-0.0318883036838798
 10
531.6233322072151
 20
-1170.982699547958
 10
531.5549666720495
 20
-1171.004400168433
 42
-0.0284435909900476
 10
531.1789165457607
 20
-1171.100617603907
 10
531.1437583852621
 20
-1171.107511199736
 42
-0.0243909341013028
 10
530.8303149243432
 20
-1171.153232230766
 10
530.7800341975699
 20
-1171.158077777668
 42
-0.0196639292929163
 10
530.5644386200447
 20
-1171.170326063181
 10
530.5126145488862
 20
-1171.171229323918
 42
-0.0100501510692435
 10
530.400191267217
 20
-1171.170928925565
 10
530.3685314058534
 20
-1171.170207853679
 42
-0.0019752031117821
 10
530.3194390691916
 20
-1171.16889569347
 10
530.3166787659717
 20
-1171.168811001644
 42
0.0065378752001573
 10
530.2731021912147
 20
-1171.168044110429
 42
-0.0167974694656217
 10
530.2295713682822
 20
-1171.166384211902
 10
530.2254920290208
 20
-1171.166091201007
 42
-0.0081283276295304
 10
530.1739322312875
 20
-1171.16154420737
 10
530.1621926574037
 20
-1171.160316289791
 42
-0.0126703440171175
 10
530.0874743616081
 20
-1171.15058149872
 10
530.0646864939334
 20
-1171.147023242805
 42
-0.0117852088437212
 10
529.945147508102
 20
-1171.125460247648
 10
529.8897670563381
 20
-1171.114116707413
 42
-0.0251774592290896
 10
529.6629230173305
 20
-1171.05561869798
 10
529.6182038274779
 20
-1171.041651878644
 42
-0.014652519987985
 10
529.4318108399407
 20
-1170.977385351447
 42
-0.016692943584972
 10
529.2498331838148
 20
-1170.901578218392
 10
529.2451765525408
 20
-1170.899453317778
 42
-0.0191684358442539
 10
529.0599929212943
 20
-1170.806217233989
 10
529.0566603355346
 20
-1170.804375986434
 42
-0.0221181781813503
 10
528.8733500316318
 20
-1170.692242488063
 10
528.871000227624
 20
-1170.690658190073
 42
-0.0254984685387104
 10
528.6947100772386
 20
-1170.558247040103
 10
528.6722279295374
 20
-1170.539494731167
 42
-0.0292492648808933
 10
528.5474589906937
 20
-1170.422401931524
 42
-0.0159048957495241
 10
528.4336189932441
 20
-1170.294381939925
 10
528.4323002026642
 20
-1170.292800326905
 42
-0.0343813379562602
 10
528.3296629410376
 20
-1170.150929001135
 10
528.2981714096776
 20
-1170.100425609042
 42
-0.0369117275705399
 10
528.2122789077798
 20
-1169.936948368093
 42
-0.0191751379909462
 10
528.1450855222226
 20
-1169.764543762086
 10
528.1433221984634
 20
-1169.759450417412
 42
-0.0378178042221562
 10
528.0935274796791
 20
-1169.570509641331
 10
528.0875321839487
 20
-1169.537949023133
 42
-0.0184846046478017
 10
528.0668149846545
 20
-1169.396196202589
 42
-0.0179866351324163
 10
528.0564819795808
 20
-1169.253305389507
 10
528.056425537135
 20
-1169.251747702895
 42
-0.008549718610888
 10
528.0549932560311
 20
-1169.176874537885
 42
-0.008549718610888
  0
ENDBLK
  5
63
330
23
100
AcDbEntity
  8
template
390
1D
100
AcDbBlockEnd
  0
BLOCK
  5
64
330
24
100
AcDbEntity
  8
cut
390
1D
100
AcDbBlockBegin
  2
*D3
 70
     1
 10
0.0
 20
0.0
 30
0.0
  3
*D3
  1
*D3
  0
LINE
  5
65
330
24
100
AcDbEntity
  8
cut
  6
Continuous
 62
     0
370
    -2
100
AcDbLine
 10
612.7796491093038
 20
2212.46671259809
 30
0.0
 11
746.7858350044729
 21
2212.46671259809
 31
0.0
  0
LINE
  5
66
330
24
100
AcDbEntity
  8
cut
  6
Continuous
 62
     0
370
    -2
100
AcDbLine
 10
612.7796491093038
 20
2562.46671259809
 30
0.0
 11
746.7858350044729
 21
2562.46671259809
 31
0.0
  0
LINE
  5
67
330
24
100
AcDbEntity
  8
cut
  6
Continuous
 62
     0
370
    -2
100
AcDbLine
 10
746.7858350044729
 20
2222.466102246527
 30
0.0
 11
746.7858350044729
 21
2552.467322949652
 31
0.0
  0
INSERT
  5
68
102
{ACAD_REACTORS
330
69
102
}
330
24
100
AcDbEntity
  8
cut
 62
     0
370
    -2
100
AcDbBlockReference
  2
_DOT
 10
746.7858350044729
 20
2212.46671259809
 30
0.0
 41
9.999389648437498
 42
9.999389648437498
 43
9.999389648437498
 50
270.0
  0
INSERT
  5
69
330
24
100
AcDbEntity
  8
cut
 62
     0
370
    -2
100
AcDbBlockReference
  2
_DOT
 10
746.7858350044729
 20
2562.46671259809
 30
0.0
 41
9.999389648437498
 42
9.999389648437498
 43
9.999389648437498
 50
90.0
  0
MTEXT
  5
6A
102
{ACAD_REACTORS
330
6B
102
}
330
24
100
AcDbEntity
  8
cut
  6
Continuous
 62
     0
370
     5
100
AcDbMText
 10
724.5695264107229
 20
2387.46671259809
 30
0.0
 40
24.4326171875
 41
0.0
 46
0.0
 71
     5
 72
     1
  1
\A1;700
  7
ＭＳ ゴシック
 11
0.0
 21
1.0
 31
0.0
 73
     1
 44
1.0
  0
POINT
  5
6B
330
24
100
AcDbEntity
  8
Defpoints
 62
     0
100
AcDbPoint
 10
587.7796491093038
 20
2212.46671259809
 30
0.0
  0
POINT
  5
6C
330
24
100
AcDbEntity
  8
Defpoints
 62
     0
100
AcDbPoint
 10
587.7796491093038
 20
2562.46671259809
 30
0.0
  0
POINT
  5
6D
330
24
100
AcDbEntity
  8
Defpoints
 62
     0
100
AcDbPoint
 10
746.7858350044729
 20
2562.46671259809
 30
0.0
  0
ENDBLK
  5
70
330
24
100
AcDbEntity
  8
cut
390
1D
100
AcDbBlockEnd
  0
BLOCK
  5
71
330
25
100
AcDbEntity
  8
cut
390
1D
100
AcDbBlockBegin
  2
*D4
 70
     1
 10
0.0
 20
0.0
 30
0.0
  3
*D4
  1
*D4
  0
LINE
  5
72
330
25
100
AcDbEntity
  8
cut
  6
Continuous
 62
     0
370
    -2
100
AcDbLine
 10
447.7796491093036
 20
2587.46671259809
 30
0.0
 11
447.7796491093036
 21
2639.008233182763
 31
0.0
  0
LINE
  5
73
330
25
100
AcDbEntity
  8
cut
  6
Continuous
 62
     0
370
    -2
100
AcDbLine
 10
587.7796491093038
 20
2587.46671259809
 30
0.0
 11
587.7796491093038
 21
2639.008233182763
 31
0.0
  0
LINE
  5
74
330
25
100
AcDbEntity
  8
cut
  6
Continuous
 62
     0
370
    -2
100
AcDbLine
 10
457.7790387577411
 20
2639.008233182763
 30
0.0
 11
577.7802594608663
 21
2639.008233182763
 31
0.0
  0
INSERT
  5
75
102
{ACAD_REACTORS
330
76
102
}
330
25
100
AcDbEntity
  8
cut
 62
     0
370
    -2
100
AcDbBlockReference
  2
_DOT
 10
447.7796491093036
 20
2639.008233182763
 30
0.0
 41
9.999389648437498
 42
9.999389648437498
 43
9.999389648437498
 50
180.0
  0
INSERT
  5
76
330
25
100
AcDbEntity
  8
cut
 62
     0
370
    -2
100
AcDbBlockReference
  2
_DOT
 10
587.7796491093038
 20
2639.008233182763
 30
0.0
 41
9.999389648437498
 42
9.999389648437498
 43
9.999389648437498
  0
MTEXT
  5
77
102
{ACAD_REACTORS
330
78
102
}
330
25
100
AcDbEntity
  8
cut
  6
Continuous
 62
     0
370
     5
100
AcDbMText
 10
517.7796491093037
 20
2661.224541776513
 30
0.0
 40
24.4326171875
 41
0.0
 46
0.0
 71
     5
 72
     1
  1
\A1;280
  7
ＭＳ ゴシック
 73
     1
 44
1.0
  0
POINT
  5
78
330
25
100
AcDbEntity
  8
Defpoints
 62
     0
100
AcDbPoint
 10
447.7796491093036
 20
2562.46671259809
 30
0.0
  0
POINT
  5
79
330
25
100
AcDbEntity
  8
Defpoints
 62
     0
100
AcDbPoint
 10
587.7796491093038
 20
2562.46671259809
 30
0.0
  0
POINT
  5
7A
330
25
100
AcDbEntity
  8
Defpoints
 62
     0
100
AcDbPoint
 10
587.7796491093038
 20
2639.008233182763
 30
0.0
  0
ENDBLK
  5
7D
330
25
100
AcDbEntity
  8
cut
390
1D
100
AcDbBlockEnd
  0
BLOCK
  5
7E
330
26
100
AcDbEntity
  8
cut
390
1D
100
AcDbBlockBegin
  2
*D5
 70
     1
 10
0.0
 20
0.0
 30
0.0
  3
*D5
  1
*D5
  0
LINE
  5
7F
330
26
100
AcDbEntity
  8
0
  6
Continuous
 62
     0
370
    -2
390
1D
100
AcDbLine
 10
-1868.623778282624
 20
2541.423449552926
 30
0.0
 11
-1868.623778282624
 21
2644.506490722275
 31
0.0
  0
LINE
  5
80
330
26
100
AcDbEntity
  8
0
  6
Continuous
 62
     0
370
    -2
390
1D
100
AcDbLine
 10
-1908.623778282624
 20
2541.423449552926
 30
0.0
 11
-1908.623778282624
 21
2644.506490722275
 31
0.0
  0
LINE
  5
81
330
26
100
AcDbEntity
  8
0
  6
Continuous
 62
     0
370
    -2
390
1D
100
AcDbLine
 10
-1908.623778282624
 20
2644.506490722275
 30
0.0
 11
-1983.873778282624
 21
2644.506490722275
 31
0.0
  0
LINE
  5
82
330
26
100
AcDbEntity
  8
0
  6
Continuous
 62
     0
370
    -2
390
1D
100
AcDbLine
 10
-1868.623778282624
 20
2644.506490722275
 30
0.0
 11
-1908.623778282624
 21
2644.506490722275
 31
0.0
  0
CIRCLE
  5
83
102
{ACAD_REACTORS
330
84
102
}
330
26
100
AcDbEntity
  8
0
  6
Continuous
 62
     0
370
    -2
390
1D
100
AcDbCircle
 10
-1868.623778282624
 20
2644.506490722275
 30
0.0
 40
9.9993896484375
  0
HATCH
  5
84
330
26
100
AcDbEntity
  8
0
  6
Continuous
 62
     0
370
    -2
390
1D
100
AcDbHatch
 10
0.0
 20
0.0
 30
0.0
210
0.0
220
0.0
230
1.0
  2
SOLID
 70
     1
 71
     1
 91
        1
 92
        1
 93
        1
 72
     2
 10
-1868.623778282624
 20
2644.506490722275
 40
9.9993896484375
 50
0.0
 51
360.0
 73
     0
 97
        1
330
83
 75
     0
 76
     1
 98
        1
 10
0.0
 20
0.0
  0
CIRCLE
  5
85
102
{ACAD_REACTORS
330
86
102
}
330
26
100
AcDbEntity
  8
0
  6
Continuous
 62
     0
370
    -2
390
1D
100
AcDbCircle
 10
-1908.623778282624
 20
2644.506490722275
 30
0.0
 40
9.9993896484375
  0
HATCH
  5
86
330
26
100
AcDbEntity
  8
0
  6
Continuous
 62
     0
370
    -2
390
1D
100
AcDbHatch
 10
0.0
 20
0.0
 30
0.0
210
0.0
220
0.0
230
1.0
  2
SOLID
 70
     1
 71
     1
 91
        1
 92
        1
 93
        1
 72
     2
 10
-1908.623778282624
 20
2644.506490722275
 40
9.9993896484375
 50
0.0
 51
360.0
 73
     0
 97
        1
330
85
 75
     0
 76
     1
 98
        1
 10
0.0
 20
0.0
  0
MTEXT
  5
87
330
26
100
AcDbEntity
  8
0
 62
     0
390
1D
100
AcDbMText
 10
-1983.873778282624
 20
2712.261725097275
 30
0.0
 40
48.86523437500001
 41
0.0
 46
0.0
 71
     1
 72
     1
  1
40
  7
ＭＳゴシック
 73
     1
 44
0.7828267384257843
  0
POINT
  5
88
330
26
100
AcDbEntity
  8
Defpoints
 62
     0
370
     0
390
1D
100
AcDbPoint
 10
-1908.623778282624
 20
2491.423449552926
 30
0.0
  0
POINT
  5
89
330
26
100
AcDbEntity
  8
Defpoints
 62
     0
370
     0
390
1D
100
AcDbPoint
 10
-1868.623778282624
 20
2491.423449552926
 30
0.0
  0
POINT
  5
8A
330
26
100
AcDbEntity
  8
Defpoints
 62
     0
370
     0
390
1D
100
AcDbPoint
 10
-1868.623778282624
 20
2644.506490722275
 30
0.0
  0
ENDBLK
  5
8B
330
26
100
AcDbEntity
  8
cut
390
1D
100
AcDbBlockEnd
  0
BLOCK
  5
8C
330
27
100
AcDbEntity
  8
cut
390
1D
100
AcDbBlockBegin
  2
グループ-1
 70
     0
 10
0.0
 20
0.0
 30
0.0
  3
グループ-1
  1
グループ-1
  0
POLYLINE
  5
8D
330
27
100
AcDbEntity
  8
0
  6
Continuous
 62
     7
370
    15
390
1D
100
AcDb2dPolyline
 66
     1
 10
0.0
 20
0.0
 30
0.0
 70
     1
 75
     5
  0
VERTEX
  5
8E
330
8D
100
AcDbEntity
  8
0
  6
Continuous
 62
     7
370
    15
390
1D
100
AcDbVertex
100
AcDb2dVertex
 10
-1868.623778282624
 20
2491.423449552926
 30
0.0
  0
VERTEX
  5
8F
330
8D
100
AcDbEntity
  8
0
  6
Continuous
 62
     7
370
    15
390
1D
100
AcDbVertex
100
AcDb2dVertex
 10
-1588.623778282624
 20
2491.423449552926
 30
0.0
  0
VERTEX
  5
90
330
8D
100
AcDbEntity
  8
0
  6
Continuous
 62
     7
370
    15
390
1D
100
AcDbVertex
100
AcDb2dVertex
 10
-1588.623778282624
 20
1791.423449552926
 30
0.0
  0
VERTEX
  5
91
330
8D
100
AcDbEntity
  8
0
  6
Continuous
 62
     7
370
    15
390
1D
100
AcDbVertex
100
AcDb2dVertex
 10
-1868.623778282624
 20
1791.423449552926
 30
0.0
  0
SEQEND
  5
92
330
8D
100
AcDbEntity
  8
0
  6
Continuous
 62
     7
370
    15
390
1D
  0
LINE
  5
93
330
27
100
AcDbEntity
  8
0
  6
STYLE_03
 62
     7
370
     5
390
1D
100
AcDbLine
 10
-1908.623778282619
 20
1544.393020348479
 30
0.0
 11
-1908.623778282619
 21
2141.393020348479
 31
0.0
  0
LINE
  5
94
330
27
100
AcDbEntity
  8
0
  6
STYLE_12
 62
     7
370
     5
390
1D
100
AcDbLine
 10
-1905.62377828262
 20
1541.393020348479
 30
0.0
 11
-1451.623778282621
 21
1541.393020348479
 31
0.0
  0
ARC
  5
95
330
27
100
AcDbEntity
  8
0
  6
STYLE_12
 62
     7
370
     5
390
1D
100
AcDbCircle
 10
-1639.623778282622
 20
2141.393020348479
 30
0.0
 40
22.5
100
AcDbArc
 50
180.0
 51
0.0
  0
ARC
  5
96
330
27
100
AcDbEntity
  8
0
  6
STYLE_12
 62
     7
370
     5
390
1D
100
AcDbCircle
 10
-1451.623778282622
 20
1544.393020348479
 30
0.0
 40
3.0
100
AcDbArc
 50
270.0
 51
0.0
  0
ARC
  5
97
330
27
100
AcDbEntity
  8
0
  6
STYLE_12
 62
     7
370
     5
390
1D
100
AcDbCircle
 10
-1905.62377828262
 20
1544.393020348479
 30
0.0
 40
3.0
100
AcDbArc
 50
180.0
 51
270.0
  0
LINE
  5
98
330
27
100
AcDbEntity
  8
0
  6
STYLE_03
 62
     7
370
     5
390
1D
100
AcDbLine
 10
-1908.623778282619
 20
2141.393020348479
 30
0.0
 11
-1908.623778282619
 21
1746.381843663607
 31
0.0
  0
LINE
  5
99
330
27
100
AcDbEntity
  8
0
  6
STYLE_12
 62
     7
370
     5
390
1D
100
AcDbLine
 10
-1448.623778282621
 20
2141.393020348479
 30
0.0
 11
-1448.623778282621
 21
1544.393020348479
 31
0.0
  0
ARC
  5
9A
330
27
100
AcDbEntity
  8
0
  6
STYLE_12
 62
     7
370
     5
390
1D
100
AcDbCircle
 10
-1639.623778282622
 20
2141.393020348479
 30
0.0
 40
22.5
100
AcDbArc
 50
0.0
 51
180.0
  0
LINE
  5
9B
330
27
100
AcDbEntity
  8
0
  6
STYLE_12
 62
     7
370
     5
390
1D
100
AcDbLine
 10
-1905.623778282624
 20
2741.393020348469
 30
0.0
 11
-1451.623778282626
 21
2741.393020348472
 31
0.0
  0
LINE
  5
9C
330
27
100
AcDbEntity
  8
0
  6
STYLE_12
 62
     7
370
     5
390
1D
100
AcDbLine
 10
-1448.623778282621
 20
2141.393020348481
 30
0.0
 11
-1448.623778282626
 21
2738.393020348472
 31
0.0
  0
ARC
  5
9D
330
27
100
AcDbEntity
  8
0
  6
STYLE_12
 62
     7
370
     5
390
1D
100
AcDbCircle
 10
-1451.623778282626
 20
2738.393020348472
 30
0.0
 40
3.0
100
AcDbArc
 50
0.0
 51
90.0
  0
LINE
  5
9E
330
27
100
AcDbEntity
  8
0
  6
STYLE_03
 62
     7
370
     5
390
1D
100
AcDbLine
 10
-1908.623778282624
 20
2738.393020348469
 30
0.0
 11
-1908.623778282619
 21
2141.393020348477
 31
0.0
  0
ARC
  5
9F
330
27
100
AcDbEntity
  8
0
  6
STYLE_12
 62
     7
370
     5
390
1D
100
AcDbCircle
 10
-1905.623778282624
 20
2738.393020348469
 30
0.0
 40
3.0
100
AcDbArc
 50
90.0
 51
180.0
  0
CIRCLE
  5
A0
330
27
100
AcDbEntity
  8
0
  6
STYLE_12
 62
     7
370
     5
390
1D
100
AcDbCircle
 10
-1838.629593461216
 20
2041.393020348479
 30
0.0
 40
17.50000000000023
  0
CIRCLE
  5
A1
330
27
100
AcDbEntity
  8
0
  6
STYLE_12
 62
     7
370
     5
390
1D
100
AcDbCircle
 10
-1838.629593461216
 20
1941.393020348479
 30
0.0
 40
17.5
  0
CIRCLE
  5
A2
330
27
100
AcDbEntity
  8
0
  6
STYLE_12
 62
     7
370
     5
390
1D
100
AcDbCircle
 10
-1838.629593461216
 20
1841.39302034848
 30
0.0
 40
17.5
  0
CIRCLE
  5
A3
330
27
100
AcDbEntity
  8
0
  6
STYLE_12
 62
     7
370
     5
390
1D
100
AcDbCircle
 10
-1838.629593461218
 20
2441.393020348477
 30
0.0
 40
17.5
  0
CIRCLE
  5
A4
330
27
100
AcDbEntity
  8
0
  6
STYLE_12
 62
     7
370
     5
390
1D
100
AcDbCircle
 10
-1838.629593461217
 20
2341.393020348477
 30
0.0
 40
17.5
  0
CIRCLE
  5
A5
330
27
100
AcDbEntity
  8
0
  6
STYLE_12
 62
     7
370
     5
390
1D
100
AcDbCircle
 10
-1838.629593461216
 20
2241.393020348478
 30
0.0
 40
17.5
  0
CIRCLE
  5
A6
330
27
100
AcDbEntity
  8
0
  6
STYLE_12
 62
     7
370
     5
390
1D
100
AcDbCircle
 10
-1838.629593461216
 20
2141.393020348479
 30
0.0
 40
17.5
  0
LINE
  5
A7
330
27
100
AcDbEntity
  8
0
  6
Continuous
 62
     7
370
     5
390
1D
100
AcDbLine
 10
-1908.623778282624
 20
1441.393020348474
 30
0.0
 11
-1908.623778282624
 21
2841.393020348474
 31
0.0
  0
LINE
  5
A8
330
27
100
AcDbEntity
  8
0
  6
Continuous
 62
     7
370
     5
390
1D
100
AcDbLine
 10
-1908.133133019579
 20
2722.872015314772
 30
0.0
 11
-1982.133133019579
 21
2796.872015314772
 31
0.0
  0
LINE
  5
A9
330
27
100
AcDbEntity
  8
0
  6
Continuous
 62
     7
370
     5
390
1D
100
AcDbLine
 10
-1908.133133019579
 20
2762.872015314772
 30
0.0
 11
-1982.133133019579
 21
2836.872015314772
 31
0.0
  0
LINE
  5
AA
330
27
100
AcDbEntity
  8
0
  6
Continuous
 62
     7
370
     5
390
1D
100
AcDbLine
 10
-1908.133133019579
 20
2802.872015314772
 30
0.0
 11
-1982.133133019579
 21
2876.872015314773
 31
0.0
  0
DIMENSION
  5
AB
330
27
100
AcDbEntity
  8
0
  6
Continuous
 62
     7
370
     5
390
1D
100
AcDbDimension
  2
*D3
 10
-1270.611406492286
 20
2491.423449552926
 30
0.0
 11
-1270.611406492286
 21
2141.423449552926
 31
0.0
 70
    32
 71
     5
 42
0.0
 73
     0
 74
     0
 75
     0
  3
tform線あり
100
AcDbAlignedDimension
 13
-1588.623778282624
 23
1791.423449552926
 33
0.0
 14
-1588.623778282624
 24
2491.423449552926
 34
0.0
 50
90.0
100
AcDbRotatedDimension
1001
ACAD
1000
DSTYLE
1002
{
1070
   279
1070
     2
1070
   340
1005
3B
1070
   140
1040
24.4326171875
1070
   144
1040
2.0
1070
   147
1040
10.0
1002
}
  0
DIMENSION
  5
AC
330
27
100
AcDbEntity
  8
0
  6
Continuous
 62
     7
370
     5
390
1D
100
AcDbDimension
  2
*D4
 10
-1588.623778282624
 20
2644.506490722275
 30
0.0
 11
-1728.623778282624
 21
2644.506490722275
 31
0.0
 70
    32
 71
     5
 42
0.0
 73
     0
 74
     0
 75
     0
  3
tform線あり
100
AcDbAlignedDimension
 13
-1868.623778282624
 23
2491.423449552926
 33
0.0
 14
-1588.623778282624
 24
2491.423449552926
 34
0.0
100
AcDbRotatedDimension
1001
ACAD
1000
DSTYLE
1002
{
1070
   279
1070
     2
1070
   340
1005
3B
1070
   140
1040
24.4326171875
1070
   144
1040
2.0
1070
   147
1040
10.0
1002
}
  0
DIMENSION
  5
AD
330
27
100
AcDbEntity
  8
0
  6
Continuous
 62
     7
370
     5
390
1D
100
AcDbDimension
  2
*D5
 10
-1868.623778282624
 20
2644.506490722275
 30
0.0
 11
-1920.373778282624
 21
2654.506490722275
 31
0.0
 70
   128
 71
     5
 42
0.0
 73
     0
 74
     0
 75
     0
  3
tform線あり
100
AcDbAlignedDimension
 13
-1908.623778282624
 23
2491.423449552926
 33
0.0
 14
-1868.623778282624
 24
2491.423449552926
 34
0.0
100
AcDbRotatedDimension
1001
ACAD
1000
DSTYLE
1002
{
1070
   279
1070
     2
1070
   340
1005
3B
1070
   140
1040
24.4326171875
1070
   144
1040
2.0
1070
   174
1070
     0
1070
   147
1040
10.0
1002
}
  0
ENDBLK
  5
AE
330
27
100
AcDbEntity
  8
cut
390
1D
100
AcDbBlockEnd
  0
BLOCK
  5
AF
330
28
100
AcDbEntity
  8
notes
390
1D
100
AcDbBlockBegin
  2
*D7
 70
     1
 10
0.0
 20
0.0
 30
0.0
  3
*D7
  1
*D7
  0
LINE
  5
B0
330
28
100
AcDbEntity
  8
notes
  6
Continuous
 62
     0
370
    -2
100
AcDbLine
 10
1781.274330212628
 20
2309.836701357235
 30
0.0
 11
1856.274330212628
 21
2309.836701357235
 31
0.0
  0
LINE
  5
B1
330
28
100
AcDbEntity
  8
notes
  6
Continuous
 62
     0
370
    -2
100
AcDbLine
 10
1776.274330212627
 20
2589.836701357232
 30
0.0
 11
1856.274330212628
 21
2589.836701357232
 31
0.0
  0
LINE
  5
B2
330
28
100
AcDbEntity
  8
notes
  6
Continuous
 62
     0
370
    -2
100
AcDbLine
 10
1856.274330212628
 20
2319.836091005673
 30
0.0
 11
1856.274330212628
 21
2579.837311708795
 31
0.0
  0
INSERT
  5
B3
102
{ACAD_REACTORS
330
B4
102
}
330
28
100
AcDbEntity
  8
notes
 62
     0
370
    -2
100
AcDbBlockReference
  2
_DOT
 10
1856.274330212628
 20
2309.836701357235
 30
0.0
 41
9.999389648437498
 42
9.999389648437498
 43
9.999389648437498
 50
270.0
  0
INSERT
  5
B4
330
28
100
AcDbEntity
  8
notes
 62
     0
370
    -2
100
AcDbBlockReference
  2
_DOT
 10
1856.274330212628
 20
2589.836701357232
 30
0.0
 41
9.999389648437498
 42
9.999389648437498
 43
9.999389648437498
 50
90.0
  0
MTEXT
  5
B5
102
{ACAD_REACTORS
330
B6
102
}
330
28
100
AcDbEntity
  8
notes
  6
Continuous
 62
     0
370
     5
100
AcDbMText
 10
1839.058021618878
 20
2449.836701357234
 30
0.0
 40
24.4326171875
 41
0.0
 46
0.0
 71
     5
 72
     1
  1
\A1;280
  7
ＭＳ ゴシック
 11
0.0
 21
1.0
 31
0.0
 73
     1
 44
1.0
  0
POINT
  5
B6
330
28
100
AcDbEntity
  8
Defpoints
 62
     0
100
AcDbPoint
 10
1756.274330212628
 20
2309.836701357235
 30
0.0
  0
POINT
  5
B7
330
28
100
AcDbEntity
  8
Defpoints
 62
     0
100
AcDbPoint
 10
1751.274330212627
 20
2589.836701357232
 30
0.0
  0
POINT
  5
B8
330
28
100
AcDbEntity
  8
Defpoints
 62
     0
100
AcDbPoint
 10
1856.274330212628
 20
2589.836701357232
 30
0.0
  0
ENDBLK
  5
BB
330
28
100
AcDbEntity
  8
notes
390
1D
100
AcDbBlockEnd
  0
BLOCK
  5
BC
330
29
100
AcDbEntity
  8
notes
390
1D
100
AcDbBlockBegin
  2
*D8
 70
     1
 10
0.0
 20
0.0
 30
0.0
  3
*D8
  1
*D8
  0
LINE
  5
BD
330
29
100
AcDbEntity
  8
notes
  6
Continuous
 62
     0
370
    -2
100
AcDbLine
 10
509.22703213257
 20
1080.397289466328
 30
0.0
 11
381.7328473111638
 21
1080.397289466328
 31
0.0
  0
LINE
  5
BE
330
29
100
AcDbEntity
  8
notes
  6
Continuous
 62
     0
370
    -2
100
AcDbLine
 10
509.2270321325702
 20
880.3972894663306
 30
0.0
 11
381.7328473111638
 21
880.3972894663306
 31
0.0
  0
LINE
  5
BF
330
29
100
AcDbEntity
  8
notes
  6
Continuous
 62
     0
370
    -2
100
AcDbLine
 10
381.7328473111638
 20
1070.39789981789
 30
0.0
 11
381.7328473111638
 21
890.3966791147681
 31
0.0
  0
INSERT
  5
C0
102
{ACAD_REACTORS
330
C1
102
}
330
29
100
AcDbEntity
  8
notes
 62
     0
370
    -2
100
AcDbBlockReference
  2
_DOT
 10
381.7328473111638
 20
1080.397289466328
 30
0.0
 41
9.999389648437498
 42
9.999389648437498
 43
9.999389648437498
 50
90.0
  0
INSERT
  5
C1
330
29
100
AcDbEntity
  8
notes
 62
     0
370
    -2
100
AcDbBlockReference
  2
_DOT
 10
381.7328473111638
 20
880.3972894663306
 30
0.0
 41
9.999389648437498
 42
9.999389648437498
 43
9.999389648437498
 50
270.0
  0
MTEXT
  5
C2
102
{ACAD_REACTORS
330
C3
102
}
330
29
100
AcDbEntity
  8
notes
  6
Continuous
 62
     0
370
     5
100
AcDbMText
 10
364.5165387174138
 20
980.3972894663291
 30
0.0
 40
24.4326171875
 41
0.0
 46
0.0
 71
     5
 72
     1
  1
\A1;200
  7
ＭＳ ゴシック
 11
0.0
 21
1.0
 31
0.0
 73
     1
 44
1.0
  0
POINT
  5
C3
330
29
100
AcDbEntity
  8
Defpoints
 62
     0
100
AcDbPoint
 10
534.22703213257
 20
1080.397289466328
 30
0.0
  0
POINT
  5
C4
330
29
100
AcDbEntity
  8
Defpoints
 62
     0
100
AcDbPoint
 10
534.2270321325702
 20
880.3972894663306
 30
0.0
  0
POINT
  5
C5
330
29
100
AcDbEntity
  8
Defpoints
 62
     0
100
AcDbPoint
 10
381.7328473111638
 20
880.3972894663306
 30
0.0
  0
ENDBLK
  5
C8
330
29
100
AcDbEntity
  8
notes
390
1D
100
AcDbBlockEnd
  0
BLOCK
  5
C9
330
2A
100
AcDbEntity
  8
notes
390
1D
100
AcDbBlockBegin
  2
*D9
 70
     1
 10
0.0
 20
0.0
 30
0.0
  3
*D9
  1
*D9
  0
LINE
  5
CA
330
2A
100
AcDbEntity
  8
0
  6
Continuous
 62
     0
370
    -2
390
1D
100
AcDbLine
 10
-552.1985368160388
 20
-501.0512498328573
 30
0.0
 11
-679.6927216374452
 21
-501.0512498328573
 31
0.0
  0
LINE
  5
CB
330
2A
100
AcDbEntity
  8
0
  6
Continuous
 62
     0
370
    -2
390
1D
100
AcDbLine
 10
-552.198536816039
 20
-401.0512498328586
 30
0.0
 11
-679.6927216374452
 21
-401.0512498328586
 31
0.0
  0
LINE
  5
CC
330
2A
100
AcDbEntity
  8
0
  6
Continuous
 62
     0
370
    -2
390
1D
100
AcDbLine
 10
-679.6927216374452
 20
-501.0512498328573
 30
0.0
 11
-679.6927216374452
 21
-401.0512498328586
 31
0.0
  0
CIRCLE
  5
CD
102
{ACAD_REACTORS
330
CE
102
}
330
2A
100
AcDbEntity
  8
0
  6
Continuous
 62
     0
370
    -2
390
1D
100
AcDbCircle
 10
-679.6927216374452
 20
-501.0512498328573
 30
0.0
 40
4.99969482421875
  0
HATCH
  5
CE
330
2A
100
AcDbEntity
  8
0
  6
Continuous
 62
     0
370
    -2
390
1D
100
AcDbHatch
 10
0.0
 20
0.0
 30
0.0
210
0.0
220
0.0
230
1.0
  2
SOLID
 70
     1
 71
     1
 91
        1
 92
        1
 93
        1
 72
     2
 10
-679.6927216374452
 20
-501.0512498328573
 40
4.99969482421875
 50
0.0
 51
360.0
 73
     0
 97
        1
330
CD
 75
     0
 76
     1
 98
        1
 10
0.0
 20
0.0
  0
CIRCLE
  5
CF
102
{ACAD_REACTORS
330
D0
102
}
330
2A
100
AcDbEntity
  8
0
  6
Continuous
 62
     0
370
    -2
390
1D
100
AcDbCircle
 10
-679.6927216374452
 20
-401.0512498328586
 30
0.0
 40
4.99969482421875
  0
HATCH
  5
D0
330
2A
100
AcDbEntity
  8
0
  6
Continuous
 62
     0
370
    -2
390
1D
100
AcDbHatch
 10
0.0
 20
0.0
 30
0.0
210
0.0
220
0.0
230
1.0
  2
SOLID
 70
     1
 71
     1
 91
        1
 92
        1
 93
        1
 72
     2
 10
-679.6927216374452
 20
-401.0512498328586
 40
4.99969482421875
 50
0.0
 51
360.0
 73
     0
 97
        1
330
CF
 75
     0
 76
     1
 98
        1
 10
0.0
 20
0.0
  0
MTEXT
  5
D1
330
2A
100
AcDbEntity
  8
0
 62
     0
390
1D
100
AcDbMText
 10
-713.5703388249451
 20
-474.8637515150335
 30
0.0
 40
24.4326171875
 41
0.0
 46
0.0
 71
     1
 72
     1
  1
100
  7
ＭＳゴシック
 11
0.0
 21
1.0
 31
0.0
 73
     1
 44
0.7828267384257843
  0
POINT
  5
D2
330
2A
100
AcDbEntity
  8
Defpoints
 62
     0
370
     0
390
1D
100
AcDbPoint
 10
-527.198536816039
 20
-401.0512498328586
 30
0.0
  0
POINT
  5
D3
330
2A
100
AcDbEntity
  8
Defpoints
 62
     0
370
     0
390
1D
100
AcDbPoint
 10
-527.1985368160388
 20
-501.0512498328573
 30
0.0
  0
POINT
  5
D4
330
2A
100
AcDbEntity
  8
Defpoints
 62
     0
370
     0
390
1D
100
AcDbPoint
 10
-679.6927216374452
 20
-501.0512498328573
 30
0.0
  0
ENDBLK
  5
D5
330
2A
100
AcDbEntity
  8
notes
390
1D
100
AcDbBlockEnd
  0
BLOCK
  5
D6
330
2B
100
AcDbEntity
  8
notes
390
1D
100
AcDbBlockBegin
  2
*D10
 70
     1
 10
0.0
 20
0.0
 30
0.0
  3
*D10
  1
*D10
  0
LINE
  5
D7
330
2B
100
AcDbEntity
  8
notes
  6
Continuous
 62
     0
370
    -2
100
AcDbLine
 10
509.2270321325702
 20
1180.397289466328
 30
0.0
 11
381.7328473111636
 21
1180.397289466328
 31
0.0
  0
LINE
  5
D8
330
2B
100
AcDbEntity
  8
notes
  6
Continuous
 62
     0
370
    -2
100
AcDbLine
 10
509.22703213257
 20
1080.397289466328
 30
0.0
 11
381.7328473111636
 21
1080.397289466328
 31
0.0
  0
LINE
  5
D9
330
2B
100
AcDbEntity
  8
notes
  6
Continuous
 62
     0
370
    -2
100
AcDbLine
 10
381.7328473111636
 20
1170.39789981789
 30
0.0
 11
381.7328473111636
 21
1090.396679114765
 31
0.0
  0
INSERT
  5
DA
102
{ACAD_REACTORS
330
DB
102
}
330
2B
100
AcDbEntity
  8
notes
 62
     0
370
    -2
100
AcDbBlockReference
  2
_DOT
 10
381.7328473111636
 20
1180.397289466328
 30
0.0
 41
9.999389648437498
 42
9.999389648437498
 43
9.999389648437498
 50
90.0
  0
INSERT
  5
DB
330
2B
100
AcDbEntity
  8
notes
 62
     0
370
    -2
100
AcDbBlockReference
  2
_DOT
 10
381.7328473111636
 20
1080.397289466328
 30
0.0
 41
9.999389648437498
 42
9.999389648437498
 43
9.999389648437498
 50
270.0
  0
MTEXT
  5
DC
102
{ACAD_REACTORS
330
DD
102
}
330
2B
100
AcDbEntity
  8
notes
  6
Continuous
 62
     0
370
     5
100
AcDbMText
 10
364.5165387174136
 20
1130.397289466328
 30
0.0
 40
24.4326171875
 41
0.0
 46
0.0
 71
     5
 72
     1
  1
\A1;100
  7
ＭＳ ゴシック
 11
0.0
 21
1.0
 31
0.0
 73
     1
 44
1.0
  0
POINT
  5
DD
330
2B
100
AcDbEntity
  8
Defpoints
 62
     0
100
AcDbPoint
 10
534.2270321325702
 20
1180.397289466328
 30
0.0
  0
POINT
  5
DE
330
2B
100
AcDbEntity
  8
Defpoints
 62
     0
100
AcDbPoint
 10
534.22703213257
 20
1080.397289466328
 30
0.0
  0
POINT
  5
DF
330
2B
100
AcDbEntity
  8
Defpoints
 62
     0
100
AcDbPoint
 10
381.7328473111636
 20
1080.397289466328
 30
0.0
  0
ENDBLK
  5
E2
330
2B
100
AcDbEntity
  8
notes
390
1D
100
AcDbBlockEnd
  0
BLOCK
  5
E3
330
2C
100
AcDbEntity
  8
notes
390
1D
100
AcDbBlockBegin
  2
*D11
 70
     1
 10
0.0
 20
0.0
 30
0.0
  3
*D11
  1
*D11
  0
LINE
  5
E4
330
2C
100
AcDbEntity
  8
notes
  6
Continuous
 62
     0
370
    -2
100
AcDbLine
 10
509.2270321325695
 20
1280.397289466326
 30
0.0
 11
381.7328473111638
 21
1280.397289466326
 31
0.0
  0
LINE
  5
E5
330
2C
100
AcDbEntity
  8
notes
  6
Continuous
 62
     0
370
    -2
100
AcDbLine
 10
509.2270321325702
 20
1180.397289466328
 30
0.0
 11
381.7328473111638
 21
1180.397289466328
 31
0.0
  0
LINE
  5
E6
330
2C
100
AcDbEntity
  8
notes
  6
Continuous
 62
     0
370
    -2
100
AcDbLine
 10
381.7328473111638
 20
1270.397899817888
 30
0.0
 11
381.7328473111638
 21
1190.396679114765
 31
0.0
  0
INSERT
  5
E7
102
{ACAD_REACTORS
330
E8
102
}
330
2C
100
AcDbEntity
  8
notes
 62
     0
370
    -2
100
AcDbBlockReference
  2
_DOT
 10
381.7328473111638
 20
1280.397289466326
 30
0.0
 41
9.999389648437498
 42
9.999389648437498
 43
9.999389648437498
 50
90.0
  0
INSERT
  5
E8
330
2C
100
AcDbEntity
  8
notes
 62
     0
370
    -2
100
AcDbBlockReference
  2
_DOT
 10
381.7328473111638
 20
1180.397289466328
 30
0.0
 41
9.999389648437498
 42
9.999389648437498
 43
9.999389648437498
 50
270.0
  0
MTEXT
  5
E9
102
{ACAD_REACTORS
330
EA
102
}
330
2C
100
AcDbEntity
  8
notes
  6
Continuous
 62
     0
370
     5
100
AcDbMText
 10
364.5165387174138
 20
1230.397289466327
 30
0.0
 40
24.4326171875
 41
0.0
 46
0.0
 71
     5
 72
     1
  1
\A1;100
  7
ＭＳ ゴシック
 11
0.0
 21
1.0
 31
0.0
 73
     1
 44
1.0
  0
POINT
  5
EA
330
2C
100
AcDbEntity
  8
Defpoints
 62
     0
100
AcDbPoint
 10
534.2270321325695
 20
1280.397289466326
 30
0.0
  0
POINT
  5
EB
330
2C
100
AcDbEntity
  8
Defpoints
 62
     0
100
AcDbPoint
 10
534.2270321325702
 20
1180.397289466328
 30
0.0
  0
POINT
  5
EC
330
2C
100
AcDbEntity
  8
Defpoints
 62
     0
100
AcDbPoint
 10
381.7328473111638
 20
1180.397289466328
 30
0.0
  0
ENDBLK
  5
EF
330
2C
100
AcDbEntity
  8
notes
390
1D
100
AcDbBlockEnd
  0
BLOCK
  5
F0
330
2D
100
AcDbEntity
  8
notes
390
1D
100
AcDbBlockBegin
  2
*D12
 70
     1
 10
0.0
 20
0.0
 30
0.0
  3
*D12
  1
*D12
  0
LINE
  5
F1
330
2D
100
AcDbEntity
  8
0
  6
Continuous
 62
     0
370
    -2
390
1D
100
AcDbLine
 10
-552.1985368160395
 20
-201.0512498328602
 30
0.0
 11
-679.6927216374452
 21
-201.0512498328602
 31
0.0
  0
LINE
  5
F2
330
2D
100
AcDbEntity
  8
0
  6
Continuous
 62
     0
370
    -2
390
1D
100
AcDbLine
 10
-552.1985368160404
 20
-101.0512498328603
 30
0.0
 11
-679.6927216374452
 21
-101.0512498328603
 31
0.0
  0
LINE
  5
F3
330
2D
100
AcDbEntity
  8
0
  6
Continuous
 62
     0
370
    -2
390
1D
100
AcDbLine
 10
-679.6927216374452
 20
-201.0512498328602
 30
0.0
 11
-679.6927216374452
 21
-101.0512498328603
 31
0.0
  0
CIRCLE
  5
F4
102
{ACAD_REACTORS
330
F5
102
}
330
2D
100
AcDbEntity
  8
0
  6
Continuous
 62
     0
370
    -2
390
1D
100
AcDbCircle
 10
-679.6927216374452
 20
-201.0512498328602
 30
0.0
 40
4.99969482421875
  0
HATCH
  5
F5
330
2D
100
AcDbEntity
  8
0
  6
Continuous
 62
     0
370
    -2
390
1D
100
AcDbHatch
 10
0.0
 20
0.0
 30
0.0
210
0.0
220
0.0
230
1.0
  2
SOLID
 70
     1
 71
     1
 91
        1
 92
        1
 93
        1
 72
     2
 10
-679.6927216374452
 20
-201.0512498328602
 40
4.99969482421875
 50
0.0
 51
360.0
 73
     0
 97
        1
330
F4
 75
     0
 76
     1
 98
        1
 10
0.0
 20
0.0
  0
CIRCLE
  5
F6
102
{ACAD_REACTORS
330
F7
102
}
330
2D
100
AcDbEntity
  8
0
  6
Continuous
 62
     0
370
    -2
390
1D
100
AcDbCircle
 10
-679.6927216374452
 20
-101.0512498328603
 30
0.0
 40
4.99969482421875
  0
HATCH
  5
F7
330
2D
100
AcDbEntity
  8
0
  6
Continuous
 62
     0
370
    -2
390
1D
100
AcDbHatch
 10
0.0
 20
0.0
 30
0.0
210
0.0
220
0.0
230
1.0
  2
SOLID
 70
     1
 71
     1
 91
        1
 92
        1
 93
        1
 72
     2
 10
-679.6927216374452
 20
-101.0512498328603
 40
4.99969482421875
 50
0.0
 51
360.0
 73
     0
 97
        1
330
F6
 75
     0
 76
     1
 98
        1
 10
0.0
 20
0.0
  0
MTEXT
  5
F8
330
2D
100
AcDbEntity
  8
0
 62
     0
390
1D
100
AcDbMText
 10
-713.5703388249451
 20
-174.8637515150358
 30
0.0
 40
24.4326171875
 41
0.0
 46
0.0
 71
     1
 72
     1
  1
100
  7
ＭＳゴシック
 11
0.0
 21
1.0
 31
0.0
 73
     1
 44
0.7828267384257843
  0
POINT
  5
F9
330
2D
100
AcDbEntity
  8
Defpoints
 62
     0
370
     0
390
1D
100
AcDbPoint
 10
-527.1985368160404
 20
-101.0512498328603
 30
0.0
  0
POINT
  5
FA
330
2D
100
AcDbEntity
  8
Defpoints
 62
     0
370
     0
390
1D
100
AcDbPoint
 10
-527.1985368160395
 20
-201.0512498328602
 30
0.0
  0
POINT
  5
FB
330
2D
100
AcDbEntity
  8
Defpoints
 62
     0
370
     0
390
1D
100
AcDbPoint
 10
-679.6927216374452
 20
-201.0512498328602
 30
0.0
  0
ENDBLK
  5
FC
330
2D
100
AcDbEntity
  8
notes
390
1D
100
AcDbBlockEnd
  0
BLOCK
  5
FD
330
2E
100
AcDbEntity
  8
notes
390
1D
100
AcDbBlockBegin
  2
*D13
 70
     1
 10
0.0
 20
0.0
 30
0.0
  3
*D13
  1
*D13
  0
LINE
  5
FE
330
2E
100
AcDbEntity
  8
notes
  6
Continuous
 62
     0
370
    -2
100
AcDbLine
 10
509.227032132568
 20
1480.397289466326
 30
0.0
 11
381.7328473111638
 21
1480.397289466326
 31
0.0
  0
LINE
  5
FF
330
2E
100
AcDbEntity
  8
notes
  6
Continuous
 62
     0
370
    -2
100
AcDbLine
 10
509.2270321325695
 20
1280.397289466326
 30
0.0
 11
381.7328473111638
 21
1280.397289466326
 31
0.0
  0
LINE
  5
100
330
2E
100
AcDbEntity
  8
notes
  6
Continuous
 62
     0
370
    -2
100
AcDbLine
 10
381.7328473111638
 20
1470.397899817888
 30
0.0
 11
381.7328473111638
 21
1290.396679114763
 31
0.0
  0
INSERT
  5
101
102
{ACAD_REACTORS
330
102
102
}
330
2E
100
AcDbEntity
  8
notes
 62
     0
370
    -2
100
AcDbBlockReference
  2
_DOT
 10
381.7328473111638
 20
1480.397289466326
 30
0.0
 41
9.999389648437498
 42
9.999389648437498
 43
9.999389648437498
 50
90.0
  0
INSERT
  5
102
330
2E
100
AcDbEntity
  8
notes
 62
     0
370
    -2
100
AcDbBlockReference
  2
_DOT
 10
381.7328473111638
 20
1280.397289466326
 30
0.0
 41
9.999389648437498
 42
9.999389648437498
 43
9.999389648437498
 50
270.0
  0
MTEXT
  5
103
102
{ACAD_REACTORS
330
104
102
}
330
2E
100
AcDbEntity
  8
notes
  6
Continuous
 62
     0
370
     5
100
AcDbMText
 10
364.5165387174138
 20
1380.397289466326
 30
0.0
 40
24.4326171875
 41
0.0
 46
0.0
 71
     5
 72
     1
  1
\A1;200
  7
ＭＳ ゴシック
 11
0.0
 21
1.0
 31
0.0
 73
     1
 44
1.0
  0
POINT
  5
104
330
2E
100
AcDbEntity
  8
Defpoints
 62
     0
100
AcDbPoint
 10
534.227032132568
 20
1480.397289466326
 30
0.0
  0
POINT
  5
105
330
2E
100
AcDbEntity
  8
Defpoints
 62
     0
100
AcDbPoint
 10
534.2270321325695
 20
1280.397289466326
 30
0.0
  0
POINT
  5
106
330
2E
100
AcDbEntity
  8
Defpoints
 62
     0
100
AcDbPoint
 10
381.7328473111638
 20
1280.397289466326
 30
0.0
  0
ENDBLK
  5
109
330
2E
100
AcDbEntity
  8
notes
390
1D
100
AcDbBlockEnd
  0
BLOCK
  5
10A
330
2F
100
AcDbEntity
  8
notes
390
1D
100
AcDbBlockBegin
  2
*D14
 70
     1
 10
0.0
 20
0.0
 30
0.0
  3
*D14
  1
*D14
  0
LINE
  5
10B
330
2F
100
AcDbEntity
  8
notes
  6
Continuous
 62
     0
370
    -2
100
AcDbLine
 10
1576.274330212625
 20
1041.499940354618
 30
0.0
 11
1481.225568948608
 21
1041.499940354618
 31
0.0
  0
LINE
  5
10C
330
2F
100
AcDbEntity
  8
notes
  6
Continuous
 62
     0
370
    -2
100
AcDbLine
 10
1576.225568948608
 20
931.4999403546199
 30
0.0
 11
1481.225568948608
 21
931.4999403546199
 31
0.0
  0
LINE
  5
10D
330
2F
100
AcDbEntity
  8
notes
  6
Continuous
 62
     0
370
    -2
100
AcDbLine
 10
1481.225568948608
 20
1031.500550706181
 30
0.0
 11
1481.225568948608
 21
941.4993300030574
 31
0.0
  0
INSERT
  5
10E
102
{ACAD_REACTORS
330
10F
102
}
330
2F
100
AcDbEntity
  8
notes
 62
     0
370
    -2
100
AcDbBlockReference
  2
_DOT
 10
1481.225568948608
 20
1041.499940354618
 30
0.0
 41
9.999389648437498
 42
9.999389648437498
 43
9.999389648437498
 50
90.0
  0
INSERT
  5
10F
330
2F
100
AcDbEntity
  8
notes
 62
     0
370
    -2
100
AcDbBlockReference
  2
_DOT
 10
1481.225568948608
 20
931.4999403546199
 30
0.0
 41
9.999389648437498
 42
9.999389648437498
 43
9.999389648437498
 50
270.0
  0
MTEXT
  5
110
102
{ACAD_REACTORS
330
111
102
}
330
2F
100
AcDbEntity
  8
notes
  6
Continuous
 62
     0
370
     5
100
AcDbMText
 10
1464.009260354858
 20
986.499940354619
 30
0.0
 40
24.4326171875
 41
0.0
 46
0.0
 71
     5
 72
     1
  1
\A1;110
  7
ＭＳ ゴシック
 11
0.0
 21
1.0
 31
0.0
 73
     1
 44
1.0
  0
POINT
  5
111
330
2F
100
AcDbEntity
  8
Defpoints
 62
     0
100
AcDbPoint
 10
1601.274330212625
 20
1041.499940354618
 30
0.0
  0
POINT
  5
112
330
2F
100
AcDbEntity
  8
Defpoints
 62
     0
100
AcDbPoint
 10
1601.225568948608
 20
931.4999403546199
 30
0.0
  0
POINT
  5
113
330
2F
100
AcDbEntity
  8
Defpoints
 62
     0
100
AcDbPoint
 10
1481.225568948608
 20
931.4999403546199
 30
0.0
  0
ENDBLK
  5
116
330
2F
100
AcDbEntity
  8
notes
390
1D
100
AcDbBlockEnd
  0
BLOCK
  5
117
330
30
100
AcDbEntity
  8
notes
390
1D
100
AcDbBlockBegin
  2
*D15
 70
     1
 10
0.0
 20
0.0
 30
0.0
  3
*D15
  1
*D15
  0
LINE
  5
118
330
30
100
AcDbEntity
  8
notes
  6
Continuous
 62
     0
370
    -2
100
AcDbLine
 10
1576.274330212625
 20
1321.499940354618
 30
0.0
 11
1481.274330212626
 21
1321.499940354618
 31
0.0
  0
LINE
  5
119
330
30
100
AcDbEntity
  8
notes
  6
Continuous
 62
     0
370
    -2
100
AcDbLine
 10
1576.225568948608
 20
1041.49994035462
 30
0.0
 11
1481.274330212626
 21
1041.49994035462
 31
0.0
  0
LINE
  5
11A
330
30
100
AcDbEntity
  8
notes
  6
Continuous
 62
     0
370
    -2
100
AcDbLine
 10
1481.274330212626
 20
1311.50055070618
 30
0.0
 11
1481.274330212626
 21
1051.499330003057
 31
0.0
  0
INSERT
  5
11B
102
{ACAD_REACTORS
330
11C
102
}
330
30
100
AcDbEntity
  8
notes
 62
     0
370
    -2
100
AcDbBlockReference
  2
_DOT
 10
1481.274330212626
 20
1321.499940354618
 30
0.0
 41
9.999389648437498
 42
9.999389648437498
 43
9.999389648437498
 50
90.0
  0
INSERT
  5
11C
330
30
100
AcDbEntity
  8
notes
 62
     0
370
    -2
100
AcDbBlockReference
  2
_DOT
 10
1481.274330212626
 20
1041.49994035462
 30
0.0
 41
9.999389648437498
 42
9.999389648437498
 43
9.999389648437498
 50
270.0
  0
MTEXT
  5
11D
102
{ACAD_REACTORS
330
11E
102
}
330
30
100
AcDbEntity
  8
notes
  6
Continuous
 62
     0
370
     5
100
AcDbMText
 10
1464.058021618876
 20
1181.499940354619
 30
0.0
 40
24.4326171875
 41
0.0
 46
0.0
 71
     5
 72
     1
  1
\A1;280
  7
ＭＳ ゴシック
 11
0.0
 21
1.0
 31
0.0
 73
     1
 44
1.0
  0
POINT
  5
11E
330
30
100
AcDbEntity
  8
Defpoints
 62
     0
100
AcDbPoint
 10
1601.274330212625
 20
1321.499940354618
 30
0.0
  0
POINT
  5
11F
330
30
100
AcDbEntity
  8
Defpoints
 62
     0
100
AcDbPoint
 10
1601.225568948608
 20
1041.49994035462
 30
0.0
  0
POINT
  5
120
330
30
100
AcDbEntity
  8
Defpoints
 62
     0
100
AcDbPoint
 10
1481.274330212626
 20
1041.49994035462
 30
0.0
  0
ENDBLK
  5
123
330
30
100
AcDbEntity
  8
notes
390
1D
100
AcDbBlockEnd
  0
BLOCK
  5
124
330
31
100
AcDbEntity
  8
notes
390
1D
100
AcDbBlockBegin
  2
*D16
 70
     1
 10
0.0
 20
0.0
 30
0.0
  3
*D16
  1
*D16
  0
LINE
  5
125
330
31
100
AcDbEntity
  8
notes
  6
Continuous
 62
     0
370
    -2
100
AcDbLine
 10
1576.225568948608
 20
1431.49994035462
 30
0.0
 11
1481.274330212626
 21
1431.49994035462
 31
0.0
  0
LINE
  5
126
330
31
100
AcDbEntity
  8
notes
  6
Continuous
 62
     0
370
    -2
100
AcDbLine
 10
1576.274330212625
 20
1321.499940354618
 30
0.0
 11
1481.274330212626
 21
1321.499940354618
 31
0.0
  0
LINE
  5
127
330
31
100
AcDbEntity
  8
notes
  6
Continuous
 62
     0
370
    -2
100
AcDbLine
 10
1481.274330212626
 20
1421.500550706182
 30
0.0
 11
1481.274330212626
 21
1331.499330003055
 31
0.0
  0
INSERT
  5
128
102
{ACAD_REACTORS
330
129
102
}
330
31
100
AcDbEntity
  8
notes
 62
     0
370
    -2
100
AcDbBlockReference
  2
_DOT
 10
1481.274330212626
 20
1431.49994035462
 30
0.0
 41
9.999389648437498
 42
9.999389648437498
 43
9.999389648437498
 50
90.0
  0
INSERT
  5
129
330
31
100
AcDbEntity
  8
notes
 62
     0
370
    -2
100
AcDbBlockReference
  2
_DOT
 10
1481.274330212626
 20
1321.499940354618
 30
0.0
 41
9.999389648437498
 42
9.999389648437498
 43
9.999389648437498
 50
270.0
  0
MTEXT
  5
12A
102
{ACAD_REACTORS
330
12B
102
}
330
31
100
AcDbEntity
  8
notes
  6
Continuous
 62
     0
370
     5
100
AcDbMText
 10
1464.058021618876
 20
1376.499940354619
 30
0.0
 40
24.4326171875
 41
0.0
 46
0.0
 71
     5
 72
     1
  1
\A1;110
  7
ＭＳ ゴシック
 11
0.0
 21
1.0
 31
0.0
 73
     1
 44
1.0
  0
POINT
  5
12B
330
31
100
AcDbEntity
  8
Defpoints
 62
     0
100
AcDbPoint
 10
1601.225568948608
 20
1431.49994035462
 30
0.0
  0
POINT
  5
12C
330
31
100
AcDbEntity
  8
Defpoints
 62
     0
100
AcDbPoint
 10
1601.274330212625
 20
1321.499940354618
 30
0.0
  0
POINT
  5
12D
330
31
100
AcDbEntity
  8
Defpoints
 62
     0
100
AcDbPoint
 10
1481.274330212626
 20
1321.499940354618
 30
0.0
  0
ENDBLK
  5
130
330
31
100
AcDbEntity
  8
notes
390
1D
100
AcDbBlockEnd
  0
BLOCK
  5
131
330
32
100
AcDbEntity
  8
notes
390
1D
100
AcDbBlockBegin
  2
*D17
 70
     1
 10
0.0
 20
0.0
 30
0.0
  3
*D17
  1
*D17
  0
LINE
  5
132
330
32
100
AcDbEntity
  8
0
  6
Continuous
 62
     0
370
    -2
390
1D
100
AcDbLine
 10
519.8487612640163
 20
833.2575951158312
 30
0.0
 11
519.8487612640163
 21
835.6412406010793
 31
0.0
  0
LINE
  5
133
330
32
100
AcDbEntity
  8
0
  6
Continuous
 62
     0
370
    -2
390
1D
100
AcDbLine
 10
639.8487612640179
 20
833.2575951158312
 30
0.0
 11
639.8487612640179
 21
835.6412406010793
 31
0.0
  0
LINE
  5
134
330
32
100
AcDbEntity
  8
0
  6
Continuous
 62
     0
370
    -2
390
1D
100
AcDbLine
 10
519.8487612640163
 20
835.6412406010793
 30
0.0
 11
368.1250000000002
 21
835.6412406010793
 31
0.0
  0
LINE
  5
135
330
32
100
AcDbEntity
  8
0
  6
Continuous
 62
     0
370
    -2
390
1D
100
AcDbLine
 10
519.8487612640163
 20
835.6412406010793
 30
0.0
 11
639.8487612640179
 21
835.6412406010793
 31
0.0
  0
CIRCLE
  5
136
102
{ACAD_REACTORS
330
137
102
}
330
32
100
AcDbEntity
  8
0
  6
Continuous
 62
     0
370
    -2
390
1D
100
AcDbCircle
 10
519.8487612640163
 20
835.6412406010793
 30
0.0
 40
4.99969482421875
  0
HATCH
  5
137
330
32
100
AcDbEntity
  8
0
  6
Continuous
 62
     0
370
    -2
390
1D
100
AcDbHatch
 10
0.0
 20
0.0
 30
0.0
210
0.0
220
0.0
230
1.0
  2
SOLID
 70
     1
 71
     1
 91
        1
 92
        1
 93
        1
 72
     2
 10
519.8487612640163
 20
835.6412406010793
 40
4.99969482421875
 50
0.0
 51
360.0
 73
     0
 97
        1
330
136
 75
     0
 76
     1
 98
        1
 10
0.0
 20
0.0
  0
CIRCLE
  5
138
102
{ACAD_REACTORS
330
139
102
}
330
32
100
AcDbEntity
  8
0
  6
Continuous
 62
     0
370
    -2
390
1D
100
AcDbCircle
 10
639.8487612640179
 20
835.6412406010793
 30
0.0
 40
4.99969482421875
  0
HATCH
  5
139
330
32
100
AcDbEntity
  8
0
  6
Continuous
 62
     0
370
    -2
390
1D
100
AcDbHatch
 10
0.0
 20
0.0
 30
0.0
210
0.0
220
0.0
230
1.0
  2
SOLID
 70
     1
 71
     1
 91
        1
 92
        1
 93
        1
 72
     2
 10
639.8487612640179
 20
835.6412406010793
 40
4.99969482421875
 50
0.0
 51
360.0
 73
     0
 97
        1
330
138
 75
     0
 76
     1
 98
        1
 10
0.0
 20
0.0
  0
MTEXT
  5
13A
330
32
100
AcDbEntity
  8
0
 62
     0
390
1D
100
AcDbMText
 10
368.1250000000002
 20
869.5188577885792
 30
0.0
 40
24.4326171875
 41
0.0
 46
0.0
 71
     1
 72
     1
  1
120(深さ)
  7
ＭＳゴシック
 73
     1
 44
0.7828267384257843
  0
POINT
  5
13B
330
32
100
AcDbEntity
  8
Defpoints
 62
     0
370
     0
390
1D
100
AcDbPoint
 10
639.8487612640179
 20
858.2575951158312
 30
0.0
  0
POINT
  5
13C
330
32
100
AcDbEntity
  8
Defpoints
 62
     0
370
     0
390
1D
100
AcDbPoint
 10
519.8487612640163
 20
858.2575951158312
 30
0.0
  0
POINT
  5
13D
330
32
100
AcDbEntity
  8
Defpoints
 62
     0
370
     0
390
1D
100
AcDbPoint
 10
519.8487612640163
 20
835.6412406010793
 30
0.0
  0
ENDBLK
  5
13E
330
32
100
AcDbEntity
  8
notes
390
1D
100
AcDbBlockEnd
  0
BLOCK
  5
13F
330
33
100
AcDbEntity
  8
notes
390
1D
100
AcDbBlockBegin
  2
*D18
 70
     1
 10
0.0
 20
0.0
 30
0.0
  3
*D18
  1
*D18
  0
LINE
  5
140
330
33
100
AcDbEntity
  8
notes
  6
Continuous
 62
     0
370
    -2
100
AcDbLine
 10
1556.274330212626
 20
2519.836701357233
 30
0.0
 11
1500.274330212625
 21
2519.836701357233
 31
0.0
  0
LINE
  5
141
330
33
100
AcDbEntity
  8
notes
  6
Continuous
 62
     0
370
    -2
100
AcDbLine
 10
1562.274330212625
 20
2589.836701357232
 30
0.0
 11
1500.274330212625
 21
2589.836701357232
 31
0.0
  0
LINE
  5
142
330
33
100
AcDbEntity
  8
notes
  6
Continuous
 62
     0
370
    -2
100
AcDbLine
 10
1500.274330212625
 20
2529.836091005671
 30
0.0
 11
1500.274330212625
 21
2579.837311708795
 31
0.0
  0
INSERT
  5
143
102
{ACAD_REACTORS
330
144
102
}
330
33
100
AcDbEntity
  8
notes
 62
     0
370
    -2
100
AcDbBlockReference
  2
_DOT
 10
1500.274330212625
 20
2519.836701357233
 30
0.0
 41
9.999389648437498
 42
9.999389648437498
 43
9.999389648437498
 50
270.0
  0
INSERT
  5
144
330
33
100
AcDbEntity
  8
notes
 62
     0
370
    -2
100
AcDbBlockReference
  2
_DOT
 10
1500.274330212625
 20
2589.836701357232
 30
0.0
 41
9.999389648437498
 42
9.999389648437498
 43
9.999389648437498
 50
90.0
  0
MTEXT
  5
145
102
{ACAD_REACTORS
330
146
102
}
330
33
100
AcDbEntity
  8
notes
  6
Continuous
 62
     0
370
     5
100
AcDbMText
 10
1479.540601333253
 20
2554.836701357233
 30
0.0
 40
24.4326171875
 41
0.0
 46
0.0
 71
     5
 72
     1
  1
\A1;70
  7
ＭＳ ゴシック
 11
0.0
 21
1.0
 31
0.0
 73
     1
 44
1.0
  0
POINT
  5
146
330
33
100
AcDbEntity
  8
Defpoints
 62
     0
100
AcDbPoint
 10
1581.274330212626
 20
2519.836701357233
 30
0.0
  0
POINT
  5
147
330
33
100
AcDbEntity
  8
Defpoints
 62
     0
100
AcDbPoint
 10
1587.274330212625
 20
2589.836701357232
 30
0.0
  0
POINT
  5
148
330
33
100
AcDbEntity
  8
Defpoints
 62
     0
100
AcDbPoint
 10
1500.274330212625
 20
2589.836701357232
 30
0.0
  0
ENDBLK
  5
14B
330
33
100
AcDbEntity
  8
notes
390
1D
100
AcDbBlockEnd
  0
BLOCK
  5
14C
330
34
100
AcDbEntity
  8
notes
390
1D
100
AcDbBlockBegin
  2
*D19
 70
     1
 10
0.0
 20
0.0
 30
0.0
  3
*D19
  1
*D19
  0
LINE
  5
14D
330
34
100
AcDbEntity
  8
notes
  6
Continuous
 62
     0
370
    -2
100
AcDbLine
 10
1756.274330212626
 20
2112.94445515396
 30
0.0
 11
1756.274330212626
 21
2029.836701357239
 31
0.0
  0
LINE
  5
14E
330
34
100
AcDbEntity
  8
notes
  6
Continuous
 62
     0
370
    -2
100
AcDbLine
 10
1581.274330212624
 20
2109.83670135724
 30
0.0
 11
1581.274330212624
 21
2029.836701357239
 31
0.0
  0
LINE
  5
14F
330
34
100
AcDbEntity
  8
notes
  6
Continuous
 62
     0
370
    -2
100
AcDbLine
 10
1746.274940564189
 20
2029.836701357239
 30
0.0
 11
1591.273719861061
 21
2029.836701357239
 31
0.0
  0
INSERT
  5
150
102
{ACAD_REACTORS
330
151
102
}
330
34
100
AcDbEntity
  8
notes
 62
     0
370
    -2
100
AcDbBlockReference
  2
_DOT
 10
1756.274330212626
 20
2029.836701357239
 30
0.0
 41
9.999389648437498
 42
9.999389648437498
 43
9.999389648437498
  0
INSERT
  5
151
330
34
100
AcDbEntity
  8
notes
 62
     0
370
    -2
100
AcDbBlockReference
  2
_DOT
 10
1581.274330212624
 20
2029.836701357239
 30
0.0
 41
9.999389648437498
 42
9.999389648437498
 43
9.999389648437498
 50
180.0
  0
MTEXT
  5
152
102
{ACAD_REACTORS
330
153
102
}
330
34
100
AcDbEntity
  8
notes
  6
Continuous
 62
     0
370
     5
100
AcDbMText
 10
1668.774330212625
 20
2047.053009950989
 30
0.0
 40
24.4326171875
 41
0.0
 46
0.0
 71
     5
 72
     1
  1
\A1;175
  7
ＭＳ ゴシック
 73
     1
 44
1.0
  0
POINT
  5
153
330
34
100
AcDbEntity
  8
Defpoints
 62
     0
100
AcDbPoint
 10
1756.274330212626
 20
2137.94445515396
 30
0.0
  0
POINT
  5
154
330
34
100
AcDbEntity
  8
Defpoints
 62
     0
100
AcDbPoint
 10
1581.274330212624
 20
2134.83670135724
 30
0.0
  0
POINT
  5
155
330
34
100
AcDbEntity
  8
Defpoints
 62
     0
100
AcDbPoint
 10
1581.274330212624
 20
2029.836701357239
 30
0.0
  0
ENDBLK
  5
158
330
34
100
AcDbEntity
  8
notes
390
1D
100
AcDbBlockEnd
  0
BLOCK
  5
159
330
35
100
AcDbEntity
  8
notes
390
1D
100
AcDbBlockBegin
  2
*D20
 70
     1
 10
0.0
 20
0.0
 30
0.0
  3
*D20
  1
*D20
  0
LINE
  5
15A
330
35
100
AcDbEntity
  8
notes
  6
Continuous
 62
     0
370
    -2
100
AcDbLine
 10
616.732847311164
 20
558.3972894663312
 30
0.0
 11
616.732847311164
 21
481.4999403546213
 31
0.0
  0
LINE
  5
15B
330
35
100
AcDbEntity
  8
notes
  6
Continuous
 62
     0
370
    -2
100
AcDbLine
 10
481.7328473111661
 20
558.3972894663312
 30
0.0
 11
481.7328473111661
 21
481.4999403546213
 31
0.0
  0
LINE
  5
15C
330
35
100
AcDbEntity
  8
notes
  6
Continuous
 62
     0
370
    -2
100
AcDbLine
 10
606.7334576627266
 20
481.4999403546213
 30
0.0
 11
491.7322369596036
 21
481.4999403546213
 31
0.0
  0
INSERT
  5
15D
102
{ACAD_REACTORS
330
15E
102
}
330
35
100
AcDbEntity
  8
notes
 62
     0
370
    -2
100
AcDbBlockReference
  2
_DOT
 10
616.732847311164
 20
481.4999403546213
 30
0.0
 41
9.999389648437498
 42
9.999389648437498
 43
9.999389648437498
  0
INSERT
  5
15E
330
35
100
AcDbEntity
  8
notes
 62
     0
370
    -2
100
AcDbBlockReference
  2
_DOT
 10
481.7328473111661
 20
481.4999403546213
 30
0.0
 41
9.999389648437498
 42
9.999389648437498
 43
9.999389648437498
 50
180.0
  0
MTEXT
  5
15F
102
{ACAD_REACTORS
330
160
102
}
330
35
100
AcDbEntity
  8
notes
  6
Continuous
 62
     0
370
     5
100
AcDbMText
 10
549.2328473111651
 20
498.7162489483713
 30
0.0
 40
24.4326171875
 41
0.0
 46
0.0
 71
     5
 72
     1
  1
\A1;135
  7
ＭＳ ゴシック
 73
     1
 44
1.0
  0
POINT
  5
160
330
35
100
AcDbEntity
  8
Defpoints
 62
     0
100
AcDbPoint
 10
616.732847311164
 20
583.3972894663312
 30
0.0
  0
POINT
  5
161
330
35
100
AcDbEntity
  8
Defpoints
 62
     0
100
AcDbPoint
 10
481.7328473111661
 20
583.3972894663312
 30
0.0
  0
POINT
  5
162
330
35
100
AcDbEntity
  8
Defpoints
 62
     0
100
AcDbPoint
 10
481.7328473111661
 20
481.4999403546213
 30
0.0
  0
ENDBLK
  5
165
330
35
100
AcDbEntity
  8
notes
390
1D
100
AcDbBlockEnd
  0
BLOCK
  5
166
330
36
100
AcDbEntity
  8
notes
390
1D
100
AcDbBlockBegin
  2
*D21
 70
     1
 10
0.0
 20
0.0
 30
0.0
  3
*D21
  1
*D21
  0
LINE
  5
167
330
36
100
AcDbEntity
  8
notes
  6
Continuous
 62
     0
370
    -2
100
AcDbLine
 10
906.732847311164
 20
555.3972894663312
 30
0.0
 11
906.732847311164
 21
481.4999403546213
 31
0.0
  0
LINE
  5
168
330
36
100
AcDbEntity
  8
notes
  6
Continuous
 62
     0
370
    -2
100
AcDbLine
 10
616.732847311164
 20
555.3972894663312
 30
0.0
 11
616.732847311164
 21
481.4999403546213
 31
0.0
  0
LINE
  5
169
330
36
100
AcDbEntity
  8
notes
  6
Continuous
 62
     0
370
    -2
100
AcDbLine
 10
896.7334576627266
 20
481.4999403546213
 30
0.0
 11
626.7322369596016
 21
481.4999403546213
 31
0.0
  0
INSERT
  5
16A
102
{ACAD_REACTORS
330
16B
102
}
330
36
100
AcDbEntity
  8
notes
 62
     0
370
    -2
100
AcDbBlockReference
  2
_DOT
 10
906.732847311164
 20
481.4999403546213
 30
0.0
 41
9.999389648437498
 42
9.999389648437498
 43
9.999389648437498
  0
INSERT
  5
16B
330
36
100
AcDbEntity
  8
notes
 62
     0
370
    -2
100
AcDbBlockReference
  2
_DOT
 10
616.732847311164
 20
481.4999403546213
 30
0.0
 41
9.999389648437498
 42
9.999389648437498
 43
9.999389648437498
 50
180.0
  0
MTEXT
  5
16C
102
{ACAD_REACTORS
330
16D
102
}
330
36
100
AcDbEntity
  8
notes
  6
Continuous
 62
     0
370
     5
100
AcDbMText
 10
761.732847311164
 20
498.7162489483713
 30
0.0
 40
24.4326171875
 41
0.0
 46
0.0
 71
     5
 72
     1
  1
\A1;290
  7
ＭＳ ゴシック
 73
     1
 44
1.0
  0
POINT
  5
16D
330
36
100
AcDbEntity
  8
Defpoints
 62
     0
100
AcDbPoint
 10
906.732847311164
 20
580.3972894663312
 30
0.0
  0
POINT
  5
16E
330
36
100
AcDbEntity
  8
Defpoints
 62
     0
100
AcDbPoint
 10
616.732847311164
 20
580.3972894663312
 30
0.0
  0
POINT
  5
16F
330
36
100
AcDbEntity
  8
Defpoints
 62
     0
100
AcDbPoint
 10
616.732847311164
 20
481.4999403546213
 30
0.0
  0
ENDBLK
  5
172
330
36
100
AcDbEntity
  8
notes
390
1D
100
AcDbBlockEnd
  0
BLOCK
  5
173
330
37
100
AcDbEntity
  8
notes
390
1D
100
AcDbBlockBegin
  2
*D22
 70
     1
 10
0.0
 20
0.0
 30
0.0
  3
*D22
  1
*D22
  0
LINE
  5
174
330
37
100
AcDbEntity
  8
notes
  6
Continuous
 62
     0
370
    -2
100
AcDbLine
 10
1621.274330212626
 20
856.4999403546207
 30
0.0
 11
1621.274330212626
 21
481.4999403546213
 31
0.0
  0
LINE
  5
175
330
37
100
AcDbEntity
  8
notes
  6
Continuous
 62
     0
370
    -2
100
AcDbLine
 10
1581.274330212625
 20
561.4999403546216
 30
0.0
 11
1581.274330212625
 21
481.4999403546213
 31
0.0
  0
LINE
  5
176
330
37
100
AcDbEntity
  8
notes
  6
Continuous
 62
     0
370
    -2
100
AcDbLine
 10
1611.274940564188
 20
481.4999403546213
 30
0.0
 11
1591.273719861063
 21
481.4999403546213
 31
0.0
  0
INSERT
  5
177
102
{ACAD_REACTORS
330
178
102
}
330
37
100
AcDbEntity
  8
notes
 62
     0
370
    -2
100
AcDbBlockReference
  2
_DOT
 10
1621.274330212626
 20
481.4999403546213
 30
0.0
 41
9.999389648437498
 42
9.999389648437498
 43
9.999389648437498
  0
INSERT
  5
178
330
37
100
AcDbEntity
  8
notes
 62
     0
370
    -2
100
AcDbBlockReference
  2
_DOT
 10
1581.274330212625
 20
481.4999403546213
 30
0.0
 41
9.999389648437498
 42
9.999389648437498
 43
9.999389648437498
 50
180.0
  0
MTEXT
  5
179
102
{ACAD_REACTORS
330
17A
102
}
330
37
100
AcDbEntity
  8
notes
  6
Continuous
 62
     0
370
     5
100
AcDbMText
 10
1601.274330212626
 20
498.7162489483713
 30
0.0
 40
24.4326171875
 41
0.0
 46
0.0
 71
     5
 72
     1
  1
\A1;40
  7
ＭＳ ゴシック
 73
     1
 44
1.0
  0
POINT
  5
17A
330
37
100
AcDbEntity
  8
Defpoints
 62
     0
100
AcDbPoint
 10
1621.274330212626
 20
881.4999403546207
 30
0.0
  0
POINT
  5
17B
330
37
100
AcDbEntity
  8
Defpoints
 62
     0
100
AcDbPoint
 10
1581.274330212625
 20
586.4999403546216
 30
0.0
  0
POINT
  5
17C
330
37
100
AcDbEntity
  8
Defpoints
 62
     0
100
AcDbPoint
 10
1581.274330212625
 20
481.4999403546213
 30
0.0
  0
ENDBLK
  5
17F
330
37
100
AcDbEntity
  8
notes
390
1D
100
AcDbBlockEnd
  0
BLOCK
  5
180
330
38
100
AcDbEntity
  8
notes
390
1D
100
AcDbBlockBegin
  2
*D23
 70
     1
 10
0.0
 20
0.0
 30
0.0
  3
*D23
  1
*D23
  0
LINE
  5
181
330
38
100
AcDbEntity
  8
notes
  6
Continuous
 62
     0
370
    -2
100
AcDbLine
 10
459.7328473111656
 20
580.3972894663312
 30
0.0
 11
281.7328473111635
 21
580.3972894663314
 31
0.0
  0
LINE
  5
182
330
38
100
AcDbEntity
  8
notes
  6
Continuous
 62
     0
370
    -2
100
AcDbLine
 10
459.7328473111611
 20
1780.397289466325
 30
0.0
 11
281.7328473111636
 21
1780.397289466325
 31
0.0
  0
LINE
  5
183
330
38
100
AcDbEntity
  8
notes
  6
Continuous
 62
     0
370
    -2
100
AcDbLine
 10
281.7328473111635
 20
590.3966791147689
 30
0.0
 11
281.7328473111636
 21
1770.397899817888
 31
0.0
  0
INSERT
  5
184
102
{ACAD_REACTORS
330
185
102
}
330
38
100
AcDbEntity
  8
notes
 62
     0
370
    -2
100
AcDbBlockReference
  2
_DOT
 10
281.7328473111635
 20
580.3972894663314
 30
0.0
 41
9.999389648437498
 42
9.999389648437498
 43
9.999389648437498
 50
270.0
  0
INSERT
  5
185
330
38
100
AcDbEntity
  8
notes
 62
     0
370
    -2
100
AcDbBlockReference
  2
_DOT
 10
281.7328473111636
 20
1780.397289466325
 30
0.0
 41
9.999389648437498
 42
9.999389648437498
 43
9.999389648437498
 50
90.0
  0
MTEXT
  5
186
102
{ACAD_REACTORS
330
187
102
}
330
38
100
AcDbEntity
  8
notes
  6
Continuous
 62
     0
370
     5
100
AcDbMText
 10
264.5165387174136
 20
1180.397289466328
 30
0.0
 40
24.4326171875
 41
0.0
 46
0.0
 71
     5
 72
     1
  1
\A1;1200
  7
ＭＳ ゴシック
 11
4.736951571734024E-17
 21
1.0
 31
0.0
 73
     1
 44
1.0
  0
POINT
  5
187
330
38
100
AcDbEntity
  8
Defpoints
 62
     0
100
AcDbPoint
 10
484.7328473111656
 20
580.3972894663312
 30
0.0
  0
POINT
  5
188
330
38
100
AcDbEntity
  8
Defpoints
 62
     0
100
AcDbPoint
 10
484.7328473111611
 20
1780.397289466325
 30
0.0
  0
POINT
  5
189
330
38
100
AcDbEntity
  8
Defpoints
 62
     0
100
AcDbPoint
 10
281.7328473111636
 20
1780.397289466325
 30
0.0
  0
ENDBLK
  5
18C
330
38
100
AcDbEntity
  8
notes
390
1D
100
AcDbBlockEnd
  0
BLOCK
  5
18D
330
39
100
AcDbEntity
  8
notes
390
1D
100
AcDbBlockBegin
  2
*D24
 70
     1
 10
0.0
 20
0.0
 30
0.0
  3
*D24
  1
*D24
  0
LINE
  5
18E
330
39
100
AcDbEntity
  8
notes
  6
Continuous
 62
     0
370
    -2
100
AcDbLine
 10
941.7328473111592
 20
1802.397289466329
 30
0.0
 11
941.7328473111592
 21
1880.397289466325
 31
0.0
  0
LINE
  5
18F
330
39
100
AcDbEntity
  8
notes
  6
Continuous
 62
     0
370
    -2
100
AcDbLine
 10
481.7328473111611
 20
1802.397289466325
 30
0.0
 11
481.7328473111611
 21
1880.397289466325
 31
0.0
  0
LINE
  5
190
330
39
100
AcDbEntity
  8
notes
  6
Continuous
 62
     0
370
    -2
100
AcDbLine
 10
931.7334576627217
 20
1880.397289466325
 30
0.0
 11
491.7322369595986
 21
1880.397289466325
 31
0.0
  0
INSERT
  5
191
102
{ACAD_REACTORS
330
192
102
}
330
39
100
AcDbEntity
  8
notes
 62
     0
370
    -2
100
AcDbBlockReference
  2
_DOT
 10
941.7328473111592
 20
1880.397289466325
 30
0.0
 41
9.999389648437498
 42
9.999389648437498
 43
9.999389648437498
  0
INSERT
  5
192
330
39
100
AcDbEntity
  8
notes
 62
     0
370
    -2
100
AcDbBlockReference
  2
_DOT
 10
481.7328473111611
 20
1880.397289466325
 30
0.0
 41
9.999389648437498
 42
9.999389648437498
 43
9.999389648437498
 50
180.0
  0
MTEXT
  5
193
102
{ACAD_REACTORS
330
194
102
}
330
39
100
AcDbEntity
  8
notes
  6
Continuous
 62
     0
370
     5
100
AcDbMText
 10
711.7328473111602
 20
1897.613598060075
 30
0.0
 40
24.4326171875
 41
0.0
 46
0.0
 71
     5
 72
     1
  1
\A1;460
  7
ＭＳ ゴシック
 73
     1
 44
1.0
  0
POINT
  5
194
330
39
100
AcDbEntity
  8
Defpoints
 62
     0
100
AcDbPoint
 10
941.7328473111592
 20
1777.397289466329
 30
0.0
  0
POINT
  5
195
330
39
100
AcDbEntity
  8
Defpoints
 62
     0
100
AcDbPoint
 10
481.7328473111611
 20
1777.397289466325
 30
0.0
  0
POINT
  5
196
330
39
100
AcDbEntity
  8
Defpoints
 62
     0
100
AcDbPoint
 10
481.7328473111611
 20
1880.397289466325
 30
0.0
  0
ENDBLK
  5
199
330
39
100
AcDbEntity
  8
notes
390
1D
100
AcDbBlockEnd
  0
BLOCK
  5
19A
330
3A
100
AcDbEntity
  8
notes
390
1D
100
AcDbBlockBegin
  2
*D25
 70
     1
 10
0.0
 20
0.0
 30
0.0
  3
*D25
  1
*D25
  0
LINE
  5
19B
330
3A
100
AcDbEntity
  8
notes
  6
Continuous
 62
     0
370
    -2
100
AcDbLine
 10
966.7328473111642
 20
612.8972894663283
 30
0.0
 11
1091.732847311164
 21
612.8972894663284
 31
0.0
  0
LINE
  5
19C
330
3A
100
AcDbEntity
  8
notes
  6
Continuous
 62
     0
370
    -2
100
AcDbLine
 10
966.7328473111594
 20
1747.897289466328
 30
0.0
 11
1091.732847311164
 21
1747.897289466328
 31
0.0
  0
LINE
  5
19D
330
3A
100
AcDbEntity
  8
notes
  6
Continuous
 62
     0
370
    -2
100
AcDbLine
 10
1091.732847311164
 20
622.8966791147659
 30
0.0
 11
1091.732847311164
 21
1737.897899817891
 31
0.0
  0
INSERT
  5
19E
102
{ACAD_REACTORS
330
19F
102
}
330
3A
100
AcDbEntity
  8
notes
 62
     0
370
    -2
100
AcDbBlockReference
  2
_DOT
 10
1091.732847311164
 20
612.8972894663284
 30
0.0
 41
9.999389648437498
 42
9.999389648437498
 43
9.999389648437498
 50
270.0
  0
INSERT
  5
19F
330
3A
100
AcDbEntity
  8
notes
 62
     0
370
    -2
100
AcDbBlockReference
  2
_DOT
 10
1091.732847311164
 20
1747.897289466328
 30
0.0
 41
9.999389648437498
 42
9.999389648437498
 43
9.999389648437498
 50
90.0
  0
MTEXT
  5
1A0
102
{ACAD_REACTORS
330
1A1
102
}
330
3A
100
AcDbEntity
  8
notes
  6
Continuous
 62
     0
370
     5
100
AcDbMText
 10
1074.516538717414
 20
1180.397289466328
 30
0.0
 40
24.4326171875
 41
0.0
 46
0.0
 71
     5
 72
     1
  1
\A1;1135
  7
ＭＳ ゴシック
 11
0.0
 21
1.0
 31
0.0
 73
     1
 44
1.0
  0
POINT
  5
1A1
330
3A
100
AcDbEntity
  8
Defpoints
 62
     0
100
AcDbPoint
 10
941.7328473111642
 20
612.8972894663283
 30
0.0
  0
POINT
  5
1A2
330
3A
100
AcDbEntity
  8
Defpoints
 62
     0
100
AcDbPoint
 10
941.7328473111594
 20
1747.897289466328
 30
0.0
  0
POINT
  5
1A3
330
3A
100
AcDbEntity
  8
Defpoints
 62
     0
100
AcDbPoint
 10
1091.732847311164
 20
1747.897289466328
 30
0.0
  0
ENDBLK
  5
1A6
330
3A
100
AcDbEntity
  8
notes
390
1D
100
AcDbBlockEnd
  0
BLOCK
  5
28F
330
28E
100
AcDbEntity
  8
0
100
AcDbBlockBegin
  2
*D26
 70
     1
 10
0.0
 20
0.0
 30
0.0
  3
*D26
  1
*D26
  0
LINE
  5
291
330
28E
100
AcDbEntity
  8
ADF70-0603
  6
Continuous
 62
     0
370
    -2
100
AcDbLine
 10
-963.8780283302099
 20
2299.510964061965
 30
0.0
 11
-719.3527920232438
 21
2299.510964061965
 31
0.0
  0
LINE
  5
292
330
28E
100
AcDbEntity
  8
ADF70-0603
  6
Continuous
 62
     0
370
    -2
100
AcDbLine
 10
-963.8780283302099
 20
1599.510964061965
 30
0.0
 11
-719.3527920232438
 21
1599.510964061965
 31
0.0
  0
LINE
  5
293
330
28E
100
AcDbEntity
  8
ADF70-0603
  6
Continuous
 62
     0
370
    -2
100
AcDbLine
 10
-739.35279202324
 20
2267.760964061965
 30
0.0
 11
-739.35279202324
 21
1631.260964061965
 31
0.0
  0
INSERT
  5
294
330
28E
100
AcDbEntity
  8
ADF70-0603
 62
     0
370
    -2
100
AcDbBlockReference
  2
VW_FILLEDARROW
 10
-739.35279202324
 20
2299.510964061965
 30
0.0
 41
31.75
 42
31.75
 43
31.75
 50
90.0
  0
INSERT
  5
295
330
28E
100
AcDbEntity
  8
ADF70-0603
 62
     0
370
    -2
100
AcDbBlockReference
  2
VW_FILLEDARROW
 10
-739.35279202324
 20
1599.510964061965
 30
0.0
 41
31.75
 42
31.75
 43
31.75
 50
270.0
  0
MTEXT
  5
296
330
28E
100
AcDbEntity
  8
ADF70-0603
  6
Continuous
 62
     0
370
     0
100
AcDbMText
 10
-764.7854092107411
 20
1949.510964061965
 30
0.0
 40
48.86523437500001
 41
0.0
 46
0.0
 71
     5
 72
     1
  1
\A1;700
  7
ＭＳゴシック
 11
0.0
 21
1.0
 31
0.0
 73
     1
 44
1.0
  0
POINT
  5
297
330
28E
100
AcDbEntity
  8
Defpoints
 62
     0
100
AcDbPoint
 10
-963.8780283302099
 20
2299.510964061965
 30
0.0
  0
POINT
  5
298
330
28E
100
AcDbEntity
  8
Defpoints
 62
     0
100
AcDbPoint
 10
-963.8780283302099
 20
1599.510964061965
 30
0.0
  0
POINT
  5
299
330
28E
100
AcDbEntity
  8
Defpoints
 62
     0
100
AcDbPoint
 10
-739.35279202324
 20
1599.510964061965
 30
0.0
  0
ENDBLK
  5
290
330
28E
100
AcDbEntity
  8
0
100
AcDbBlockEnd
  0
BLOCK
  5
302
330
301
100
AcDbEntity
  8
0
100
AcDbBlockBegin
  2
*D27
 70
     1
 10
0.0
 20
0.0
 30
0.0
  3
*D27
  1
*D27
  0
LINE
  5
304
330
301
100
AcDbEntity
  8
cut
  6
Continuous
 62
     0
370
    -2
100
AcDbLine
 10
427.7796491093036
 20
2587.46671259809
 30
0.0
 11
427.7796491093036
 21
2639.008233182763
 31
0.0
  0
LINE
  5
305
330
301
100
AcDbEntity
  8
cut
  6
Continuous
 62
     0
370
    -2
100
AcDbLine
 10
447.7796491093036
 20
2587.46671259809
 30
0.0
 11
447.7796491093036
 21
2639.008233182763
 31
0.0
  0
INSERT
  5
306
330
301
100
AcDbEntity
  8
cut
 62
     0
370
    -2
100
AcDbBlockReference
  2
_DOT
 10
427.7796491093036
 20
2639.008233182763
 30
0.0
 41
9.999389648437498
 42
9.999389648437498
 43
9.999389648437498
 50
180.0
  0
INSERT
  5
307
330
301
100
AcDbEntity
  8
cut
 62
     0
370
    -2
100
AcDbBlockReference
  2
_DOT
 10
447.7796491093036
 20
2639.008233182763
 30
0.0
 41
9.999389648437498
 42
9.999389648437498
 43
9.999389648437498
  0
MTEXT
  5
308
330
301
100
AcDbEntity
  8
cut
  6
Continuous
 62
     0
370
     5
100
AcDbMText
 10
406.7222600190512
 20
2658.765533964013
 30
0.0
 40
24.4326171875
 41
0.0
 46
0.0
 71
     5
 72
     1
  1
\A1;40
  7
ＭＳ ゴシック
 73
     1
 44
1.0
  0
POINT
  5
309
330
301
100
AcDbEntity
  8
Defpoints
 62
     0
100
AcDbPoint
 10
427.7796491093036
 20
2562.46671259809
 30
0.0
  0
POINT
  5
30A
330
301
100
AcDbEntity
  8
Defpoints
 62
     0
100
AcDbPoint
 10
447.7796491093036
 20
2562.46671259809
 30
0.0
  0
POINT
  5
30B
330
301
100
AcDbEntity
  8
Defpoints
 62
     0
100
AcDbPoint
 10
447.7796491093036
 20
2639.008233182763
 30
0.0
  0
ENDBLK
  5
303
330
301
100
AcDbEntity
  8
0
100
AcDbBlockEnd
  0
BLOCK
  5
335
330
334
100
AcDbEntity
  8
0
100
AcDbBlockBegin
  2
*D28
 70
     1
 10
0.0
 20
0.0
 30
0.0
  3
*D28
  1
*D28
  0
LINE
  5
337
330
334
100
AcDbEntity
  8
notes
  6
Continuous
 62
     0
370
    -2
100
AcDbLine
 10
1701.274330212627
 20
2314.706134415018
 30
0.0
 11
1701.274330212627
 21
2317.089779900266
 31
0.0
  0
LINE
  5
338
330
334
100
AcDbEntity
  8
notes
  6
Continuous
 62
     0
370
    -2
100
AcDbLine
 10
1581.274330212625
 20
2314.706134415018
 30
0.0
 11
1581.274330212625
 21
2317.089779900266
 31
0.0
  0
LINE
  5
339
330
334
100
AcDbEntity
  8
notes
  6
Continuous
 62
     0
370
    -2
100
AcDbLine
 10
1691.274940564189
 20
2317.089779900266
 30
0.0
 11
1591.273719861063
 21
2317.089779900266
 31
0.0
  0
INSERT
  5
33A
330
334
100
AcDbEntity
  8
notes
 62
     0
370
    -2
100
AcDbBlockReference
  2
_DOT
 10
1701.274330212627
 20
2317.089779900266
 30
0.0
 41
9.999389648437498
 42
9.999389648437498
 43
9.999389648437498
  0
INSERT
  5
33B
330
334
100
AcDbEntity
  8
notes
 62
     0
370
    -2
100
AcDbBlockReference
  2
_DOT
 10
1581.274330212625
 20
2317.089779900266
 30
0.0
 41
9.999389648437498
 42
9.999389648437498
 43
9.999389648437498
 50
180.0
  0
MTEXT
  5
33C
330
334
100
AcDbEntity
  8
notes
  6
Continuous
 62
     0
370
     5
100
AcDbMText
 10
1505.412449580617
 20
2338.545733153457
 30
0.0
 40
24.4326171875
 41
0.0
 46
0.0
 71
     5
 72
     1
  1
\A1;120(深さ)
  7
ＭＳ ゴシック
 73
     1
 44
1.0
  0
POINT
  5
33D
330
334
100
AcDbEntity
  8
Defpoints
 62
     0
100
AcDbPoint
 10
1701.274330212627
 20
2339.706134415018
 30
0.0
  0
POINT
  5
33E
330
334
100
AcDbEntity
  8
Defpoints
 62
     0
100
AcDbPoint
 10
1581.274330212625
 20
2339.706134415018
 30
0.0
  0
POINT
  5
33F
330
334
100
AcDbEntity
  8
Defpoints
 62
     0
100
AcDbPoint
 10
1581.274330212625
 20
2317.089779900266
 30
0.0
  0
ENDBLK
  5
336
330
334
100
AcDbEntity
  8
0
100
AcDbBlockEnd
  0
ENDSEC
  0
SECTION
  2
ENTITIES
  0
MTEXT
  5
1A7
330
A
100
AcDbEntity
  8
template
 62
     7
390
1D
100
AcDbMText
 10
93.42556894884979
 20
334.0309100654852
 30
0.0
 40
16.28841145833333
 41
0.0
 46
0.0
 71
     1
 72
     1
  1
品名
  7
ＭＳ ゴシック
 73
     1
 44
0.7828267384257843
  0
MTEXT
  5
1A8
330
A
100
AcDbEntity
  8
template
 62
     7
390
1D
100
AcDbMText
 10
93.42556894884979
 20
249.0309100654863
 30
0.0
 40
16.28841145833333
 41
0.0
 46
0.0
 71
     1
 72
     1
  1
仕様
  7
ＭＳ ゴシック
 73
     1
 44
0.7828267384257843
  0
MTEXT
  5
1A9
330
A
100
AcDbEntity
  8
template
 62
     7
390
1D
100
AcDbMText
 10
146.4255689488498
 20
305.4484491279852
 30
0.0
 40
24.4326171875
 41
0.0
 46
0.0
 71
     1
 72
     1
  1
洗面器 -CATALANO,Verso-
  7
ＭＳ ゴシック
 73
     1
 44
0.7828267384257843
  0
LINE
  5
1AA
330
A
100
AcDbEntity
  8
template
  6
Continuous
 62
     7
370
     5
390
1D
100
AcDbLine
 10
2036.425568948368
 20
257.4458319404862
 30
0.0
 11
86.42556894836775
 21
257.4458319404862
 31
0.0
  0
LWPOLYLINE
  5
1AB
330
A
100
AcDbEntity
  8
template
  6
Continuous
 62
     7
370
     5
390
1D
100
AcDbPolyline
 90
        5
 70
   128
 43
0.0
 10
2036.42556894885
 20
2887.445831940487
 10
86.42556894884979
 20
2887.445831940487
 10
86.42556894884979
 20
87.44583194048619
 10
2036.42556894885
 20
87.44583194048619
 10
2036.42556894885
 20
2887.445831940487
  0
LINE
  5
1AC
330
A
100
AcDbEntity
  8
template
  6
Continuous
 62
     7
370
     5
390
1D
100
AcDbLine
 10
2036.425568948368
 20
342.4458319404862
 30
0.0
 11
86.42556894836775
 21
342.4458319404862
 31
0.0
  0
LINE
  5
1AD
330
A
100
AcDbEntity
  8
template
  6
Continuous
 62
     7
370
     5
390
1D
100
AcDbLine
 10
2036.42556894885
 20
172.4458319404862
 30
0.0
 11
1283.42556894885
 21
172.4458319404862
 31
0.0
  0
MTEXT
  5
1AE
330
A
100
AcDbEntity
  8
template
 62
     7
390
1D
100
AcDbMText
 10
86.42556894905306
 20
75.59200988362932
 30
0.0
 40
21.71788194444445
 41
0.0
 46
0.0
 71
     1
 72
     1
  1
100707SH
  7
ＭＳ ゴシック
 73
     1
 44
0.7828267384257843
  0
MTEXT
  5
1AF
330
A
100
AcDbEntity
  8
template
 62
     7
390
1D
100
AcDbMText
 10
1313.29697520111
 20
142.5354374671783
 30
0.0
 40
24.4326171875
 41
0.0
 46
0.0
 71
     1
 72
     1
  1
大洋金物株式会社 ティーフォルム事業部
  7
ＭＳ ゴシック
 73
     1
 44
0.7828267384257843
  0
INSERT
  5
1B0
330
A
100
AcDbEntity
  8
template
 62
     7
390
1D
100
AcDbBlockReference
  2
グループ
 10
1434.438081130316
 20
1289.536053808225
 30
0.0
  0
MTEXT
  5
1B1
330
A
100
AcDbEntity
  8
template
 62
     7
390
1D
100
AcDbMText
 10
1845.425568949109
 20
220.4484491279852
 30
0.0
 40
24.4326171875
 41
0.0
 46
0.0
 71
     1
 72
     1
  1
1:10
  7
ＭＳ ゴシック
 73
     1
 44
0.7828267384257843
  0
MTEXT
  5
1B2
330
A
100
AcDbEntity
  8
template
 62
     7
390
1D
100
AcDbMText
 10
1792.425568949109
 20
249.0309100654863
 30
0.0
 40
16.28841145833333
 41
0.0
 46
0.0
 71
     1
 72
     1
  1
縮尺
  7
ＭＳ ゴシック
 73
     1
 44
0.7828267384257843
  0
LINE
  5
1B3
330
A
100
AcDbEntity
  8
template
  6
Continuous
 62
     7
370
     5
390
1D
100
AcDbLine
 10
1785.425568949109
 20
172.4458319404862
 30
0.0
 11
1785.425568949109
 21
257.4458319404862
 31
0.0
  0
MTEXT
  5
1B4
330
A
100
AcDbEntity
  8
template
 62
     7
390
1D
100
AcDbMText
 10
1541.425568949109
 20
249.0309100654863
 30
0.0
 40
16.28841145833333
 41
0.0
 46
0.0
 71
     1
 72
     1
  1
容量
  7
ＭＳ ゴシック
 73
     1
 44
0.7828267384257843
  0
MTEXT
  5
1B5
330
A
100
AcDbEntity
  8
template
 62
     7
390
1D
100
AcDbMText
 10
1594.425568949109
 20
220.4484491279852
 30
0.0
 40
24.4326171875
 41
0.0
 46
0.0
 71
     1
 72
     1
  1
17L
  7
ＭＳ ゴシック
 73
     1
 44
0.7828267384257843
  0
LINE
  5
1B6
330
A
100
AcDbEntity
  8
template
  6
Continuous
 62
     7
370
     5
390
1D
100
AcDbLine
 10
1534.425568949109
 20
172.4458319404862
 30
0.0
 11
1534.425568949109
 21
257.4458319404862
 31
0.0
  0
MTEXT
  5
1B7
330
A
100
AcDbEntity
  8
template
 62
     7
390
1D
100
AcDbMText
 10
1290.425568949109
 20
334.0309100654852
 30
0.0
 40
16.28841145833333
 41
0.0
 46
0.0
 71
     1
 72
     1
  1
品番
  7
ＭＳ ゴシック
 73
     1
 44
0.7828267384257843
  0
MTEXT
  5
1B8
330
A
100
AcDbEntity
  8
template
 62
     7
390
1D
100
AcDbMText
 10
1290.425568949109
 20
249.0309100654863
 30
0.0
 40
16.28841145833333
 41
0.0
 46
0.0
 71
     1
 72
     1
  1
重量
  7
ＭＳ ゴシック
 73
     1
 44
0.7828267384257843
  0
MTEXT
  5
1B9
330
A
100
AcDbEntity
  8
template
 62
     7
390
1D
100
AcDbMText
 10
1343.425568949109
 20
305.4484491279852
 30
0.0
 40
24.4326171875
 41
0.0
 46
0.0
 71
     1
 72
     1
  1
ADF70-0603
  7
ＭＳ ゴシック
 73
     1
 44
0.7828267384257843
  0
MTEXT
  5
1BA
330
A
100
AcDbEntity
  8
template
 62
     7
390
1D
100
AcDbMText
 10
1343.425568949109
 20
220.4484491279852
 30
0.0
 40
24.4326171875
 41
0.0
 46
0.0
 71
     1
 72
     1
  1
38.5kg
  7
ＭＳ ゴシック
 73
     1
 44
0.7828267384257843
  0
LINE
  5
1BB
330
A
100
AcDbEntity
  8
template
  6
Continuous
 62
     7
370
     5
390
1D
100
AcDbLine
 10
1283.425568949109
 20
87.44583194048619
 30
0.0
 11
1283.425568949109
 21
342.4458319404862
 31
0.0
  0
MTEXT
  5
1BC
330
A
100
AcDbEntity
  8
template
 62
     7
390
1D
100
AcDbMText
 10
146.4255689488498
 20
220.4484491279861
 30
0.0
 40
24.4326171875
 41
0.0
 46
0.0
 71
     1
 72
     1
  1
壁掛け,カウンタ ー置き/オーバーフローあり/壁取付ボルト付属/\P陶器/ホワイト
  7
ＭＳ ゴシック
 73
     1
 44
1.304711230709641
  0
MTEXT
  5
1BE
330
A
100
AcDbEntity
  8
cut
 62
     7
390
1D
100
AcDbMText
 10
886.853498305596
 20
2015.649115255936
 30
0.0
 40
24.4326171875
 41
822.8747472934745
 46
113.5195576982408
 71
     1
 72
     1
  1
{\fメイリオ|b0|i0|c0|p0;※\fＭＳ ゴシック|b0|i0|c0|p0;陶器製品には寸法公差があります。\P  洗面器の収め方をご確認の上、必ず現物を合わせて\P  カウンターに切込を行ってください。}
  7
ＭＳ ゴシック
 11
0.0
 21
1.0
 31
0.0
 73
     1
 44
1.043768984567712
1001
ACAD
1000
ACAD_MTEXT_DEFINED_HEIGHT_BEGIN
1070
    46
1040
113.5195576982408
1000
ACAD_MTEXT_DEFINED_HEIGHT_END
  0
MTEXT
  5
1C0
330
A
100
AcDbEntity
  8
notes
 62
     7
390
1D
100
AcDbMText
 10
1144.036167388399
 20
812.6265853176543
 30
0.0
 40
24.4326171875
 41
864.6361111111112
 46
68.27975785302667
 71
     1
 72
     1
  1
{=φ30もしくはφ35の水栓取付用穴あけ加工を承ります。\P  必要な場合\fメイリオ|b0|i0|c0|p0;、\fＭＳ ゴシック|b0|i0|c0|p0;ご注文の際にご指示ください。}
  7
ＭＳ ゴシック
 11
0.0
 21
1.0
 31
0.0
 73
     1
 44
1.043768984567712
1001
ACAD
1000
ACAD_MTEXT_DEFINED_HEIGHT_BEGIN
1070
    46
1040
68.27975785302667
1000
ACAD_MTEXT_DEFINED_HEIGHT_END
  0
MTEXT
  5
1C1
330
A
100
AcDbEntity
  8
notes
 62
     7
390
1D
100
AcDbMText
 10
1490.254803912304
 20
1489.642872245852
 30
0.0
 40
24.4326171875
 41
0.0
 46
0.0
 71
     1
 72
     1
  1
壁取付ボルト穴(4ヶ所)
  7
ＭＳ ゴシック
 11
0.0
 21
1.0
 31
0.0
 73
     1
 44
0.7828267384257843
  0
LINE
  5
1C2
330
A
100
AcDbEntity
  8
notes
  6
Continuous
 62
     7
370
     5
390
1D
100
AcDbLine
 10
1621.274330212626
 20
1431.499940354618
 30
0.0
 11
1533.567039018118
 21
1519.207231549125
 31
0.0
  0
CIRCLE
  5
1C3
330
A
100
AcDbEntity
  8
notes
  6
STYLE_12
 62
     7
370
    15
390
1D
100
AcDbCircle
 10
1157.951622718684
 20
787.5504725661866
 30
0.0
 40
17.49999999999966
  0
DIMENSION
  5
1C4
330
A
100
AcDbEntity
  8
notes
  6
Continuous
 62
     7
370
     5
390
1D
100
AcDbDimension
  2
*D7
 10
1856.274330212628
 20
2589.836701357232
 30
0.0
 11
1839.058021618878
 21
2449.836701357234
 31
0.0
 70
    32
 71
     5
 42
279.9999999999973
 73
     0
 74
     0
 75
     0
  3
tform線あり
100
AcDbAlignedDimension
 13
1756.274330212628
 23
2309.836701357235
 33
0.0
 14
1751.274330212627
 24
2589.836701357232
 34
0.0
 50
90.0
100
AcDbRotatedDimension
1001
ACAD
1000
DSTYLE
1002
{
1070
   279
1070
     2
1070
   340
1005
3B
1070
   140
1040
24.4326171875
1070
   147
1040
5.0
1002
}
  0
DIMENSION
  5
1C5
330
A
100
AcDbEntity
  8
notes
  6
Continuous
 62
     7
370
     5
390
1D
100
AcDbDimension
  2
*D8
 10
381.7328473111638
 20
880.3972894663306
 30
0.0
 11
364.5165387174138
 21
980.3972894663291
 31
0.0
 70
    32
 71
     5
 42
199.9999999999972
 73
     0
 74
     0
 75
     0
  3
tform線あり
100
AcDbAlignedDimension
 13
534.22703213257
 23
1080.397289466328
 33
0.0
 14
534.2270321325702
 24
880.3972894663306
 34
0.0
 50
90.0
100
AcDbRotatedDimension
1001
ACAD
1000
DSTYLE
1002
{
1070
   279
1070
     2
1070
   340
1005
3B
1070
   140
1040
24.4326171875
1070
   147
1040
5.0
1002
}
  0
DIMENSION
  5
1C7
330
A
100
AcDbEntity
  8
notes
  6
Continuous
 62
     7
370
     5
390
1D
100
AcDbDimension
  2
*D10
 10
381.7328473111636
 20
1080.397289466328
 30
0.0
 11
364.5165387174136
 21
1130.397289466328
 31
0.0
 70
    32
 71
     5
 42
100.0
 73
     0
 74
     0
 75
     0
  3
tform線あり
100
AcDbAlignedDimension
 13
534.2270321325702
 23
1180.397289466328
 33
0.0
 14
534.22703213257
 24
1080.397289466328
 34
0.0
 50
90.0
100
AcDbRotatedDimension
1001
ACAD
1000
DSTYLE
1002
{
1070
   279
1070
     2
1070
   340
1005
3B
1070
   140
1040
24.4326171875
1070
   147
1040
5.0
1002
}
  0
DIMENSION
  5
1C8
330
A
100
AcDbEntity
  8
notes
  6
Continuous
 62
     7
370
     5
390
1D
100
AcDbDimension
  2
*D11
 10
381.7328473111638
 20
1180.397289466328
 30
0.0
 11
364.5165387174138
 21
1230.397289466327
 31
0.0
 70
    32
 71
     5
 42
99.99999999999818
 73
     0
 74
     0
 75
     0
  3
tform線あり
100
AcDbAlignedDimension
 13
534.2270321325695
 23
1280.397289466326
 33
0.0
 14
534.2270321325702
 24
1180.397289466328
 34
0.0
 50
90.0
100
AcDbRotatedDimension
1001
ACAD
1000
DSTYLE
1002
{
1070
   279
1070
     2
1070
   340
1005
3B
1070
   140
1040
24.4326171875
1070
   147
1040
5.0
1002
}
  0
DIMENSION
  5
1CA
330
A
100
AcDbEntity
  8
notes
  6
Continuous
 62
     7
370
     5
390
1D
100
AcDbDimension
  2
*D13
 10
381.7328473111638
 20
1280.397289466326
 30
0.0
 11
364.5165387174138
 21
1380.397289466326
 31
0.0
 70
    32
 71
     5
 42
200.0
 73
     0
 74
     0
 75
     0
  3
tform線あり
100
AcDbAlignedDimension
 13
534.227032132568
 23
1480.397289466326
 33
0.0
 14
534.2270321325695
 24
1280.397289466326
 34
0.0
 50
90.0
100
AcDbRotatedDimension
1001
ACAD
1000
DSTYLE
1002
{
1070
   279
1070
     2
1070
   340
1005
3B
1070
   140
1040
24.4326171875
1070
   147
1040
5.0
1002
}
  0
DIMENSION
  5
1CB
330
A
100
AcDbEntity
  8
notes
  6
Continuous
 62
     7
370
     5
390
1D
100
AcDbDimension
  2
*D14
 10
1481.225568948608
 20
931.4999403546199
 30
0.0
 11
1464.009260354858
 21
986.499940354619
 31
0.0
 70
    32
 71
     5
 42
109.9999999999982
 73
     0
 74
     0
 75
     0
  3
tform線あり
100
AcDbAlignedDimension
 13
1601.274330212625
 23
1041.499940354618
 33
0.0
 14
1601.225568948608
 24
931.4999403546199
 34
0.0
 50
90.0
100
AcDbRotatedDimension
1001
ACAD
1000
DSTYLE
1002
{
1070
   279
1070
     2
1070
   340
1005
3B
1070
   140
1040
24.4326171875
1070
   147
1040
5.0
1002
}
  0
DIMENSION
  5
1CC
330
A
100
AcDbEntity
  8
notes
  6
Continuous
 62
     7
370
     5
390
1D
100
AcDbDimension
  2
*D15
 10
1481.274330212626
 20
1041.49994035462
 30
0.0
 11
1464.058021618876
 21
1181.499940354619
 31
0.0
 70
    32
 71
     5
 42
279.9999999999977
 73
     0
 74
     0
 75
     0
  3
tform線あり
100
AcDbAlignedDimension
 13
1601.274330212625
 23
1321.499940354618
 33
0.0
 14
1601.225568948608
 24
1041.49994035462
 34
0.0
 50
90.0
100
AcDbRotatedDimension
1001
ACAD
1000
DSTYLE
1002
{
1070
   279
1070
     2
1070
   340
1005
3B
1070
   140
1040
24.4326171875
1070
   147
1040
5.0
1002
}
  0
DIMENSION
  5
1CD
330
A
100
AcDbEntity
  8
notes
  6
Continuous
 62
     7
370
     5
390
1D
100
AcDbDimension
  2
*D16
 10
1481.274330212626
 20
1321.499940354618
 30
0.0
 11
1464.058021618876
 21
1376.499940354619
 31
0.0
 70
    32
 71
     5
 42
110.0000000000023
 73
     0
 74
     0
 75
     0
  3
tform線あり
100
AcDbAlignedDimension
 13
1601.225568948608
 23
1431.49994035462
 33
0.0
 14
1601.274330212625
 24
1321.499940354618
 34
0.0
 50
90.0
100
AcDbRotatedDimension
1001
ACAD
1000
DSTYLE
1002
{
1070
   279
1070
     2
1070
   340
1005
3B
1070
   140
1040
24.4326171875
1070
   147
1040
5.0
1002
}
  0
DIMENSION
  5
1CE
330
A
100
AcDbEntity
  8
notes
  6
Continuous
 62
     7
370
     5
390
1D
100
AcDbDimension
  2
*D28
 10
1581.274330212625
 20
2317.089779900266
 30
0.0
 11
1505.412449580617
 21
2338.545733153457
 31
0.0
 70
   160
 71
     5
 42
120.0000000000016
 73
     0
 74
     0
 75
     0
  3
tform線あり
100
AcDbAlignedDimension
 13
1701.274330212627
 23
2339.706134415018
 33
0.0
 14
1581.274330212625
 24
2339.706134415018
 34
0.0
100
AcDbRotatedDimension
1001
ACAD
1000
DSTYLE
1002
{
1070
   279
1070
     2
1070
   340
1005
3B
1070
   140
1040
24.4326171875
1070
     3
1000
<>(深さ)
1070
   174
1070
     0
1070
   147
1040
5.0
1002
}
  0
DIMENSION
  5
1CF
330
A
100
AcDbEntity
  8
notes
  6
Continuous
 62
     7
370
     5
390
1D
100
AcDbDimension
  2
*D18
 10
1500.274330212625
 20
2589.836701357232
 30
0.0
 11
1479.540601333253
 21
2554.836701357233
 31
0.0
 70
   160
 71
     5
 42
69.99999999999909
 73
     0
 74
     0
 75
     0
  3
tform線あり
100
AcDbAlignedDimension
 13
1581.274330212626
 23
2519.836701357233
 33
0.0
 14
1587.274330212625
 24
2589.836701357232
 34
0.0
 50
90.0
100
AcDbRotatedDimension
1001
ACAD
1000
DSTYLE
1002
{
1070
   279
1070
     2
1070
   340
1005
3B
1070
   140
1040
24.4326171875
1070
   147
1040
5.0
1002
}
  0
DIMENSION
  5
1D0
330
A
100
AcDbEntity
  8
notes
  6
Continuous
 62
     7
370
     5
390
1D
100
AcDbDimension
  2
*D19
 10
1581.274330212624
 20
2029.836701357239
 30
0.0
 11
1668.774330212625
 21
2047.053009950989
 31
0.0
 70
    32
 71
     5
 42
175.0000000000025
 73
     0
 74
     0
 75
     0
  3
tform線あり
100
AcDbAlignedDimension
 13
1756.274330212626
 23
2137.94445515396
 33
0.0
 14
1581.274330212624
 24
2134.83670135724
 34
0.0
100
AcDbRotatedDimension
1001
ACAD
1000
DSTYLE
1002
{
1070
   279
1070
     2
1070
   340
1005
3B
1070
   140
1040
24.4326171875
1070
   147
1040
5.0
1002
}
  0
DIMENSION
  5
1D1
330
A
100
AcDbEntity
  8
notes
  6
Continuous
 62
     7
370
     5
390
1D
100
AcDbDimension
  2
*D20
 10
481.7328473111661
 20
481.4999403546213
 30
0.0
 11
549.2328473111651
 21
498.7162489483713
 31
0.0
 70
    32
 71
     5
 42
134.999999999998
 73
     0
 74
     0
 75
     0
  3
tform線あり
100
AcDbAlignedDimension
 13
616.732847311164
 23
583.3972894663312
 33
0.0
 14
481.7328473111661
 24
583.3972894663312
 34
0.0
100
AcDbRotatedDimension
1001
ACAD
1000
DSTYLE
1002
{
1070
   279
1070
     2
1070
   340
1005
3B
1070
   140
1040
24.4326171875
1070
   147
1040
5.0
1002
}
  0
DIMENSION
  5
1D2
330
A
100
AcDbEntity
  8
notes
  6
Continuous
 62
     7
370
     5
390
1D
100
AcDbDimension
  2
*D21
 10
616.732847311164
 20
481.4999403546213
 30
0.0
 11
761.732847311164
 21
498.7162489483713
 31
0.0
 70
    32
 71
     5
 42
290.0
 73
     0
 74
     0
 75
     0
  3
tform線あり
100
AcDbAlignedDimension
 13
906.732847311164
 23
580.3972894663312
 33
0.0
 14
616.732847311164
 24
580.3972894663312
 34
0.0
100
AcDbRotatedDimension
1001
ACAD
1000
DSTYLE
1002
{
1070
   279
1070
     2
1070
   340
1005
3B
1070
   140
1040
24.4326171875
1070
   147
1040
5.0
1002
}
  0
DIMENSION
  5
1D3
330
A
100
AcDbEntity
  8
notes
  6
Continuous
 62
     7
370
     5
390
1D
100
AcDbDimension
  2
*D22
 10
1581.274330212625
 20
481.4999403546213
 30
0.0
 11
1601.274330212626
 21
498.7162489483713
 31
0.0
 70
    32
 71
     5
 42
40.00000000000045
 73
     0
 74
     0
 75
     0
  3
tform線あり
100
AcDbAlignedDimension
 13
1621.274330212626
 23
881.4999403546207
 33
0.0
 14
1581.274330212625
 24
586.4999403546216
 34
0.0
100
AcDbRotatedDimension
1001
ACAD
1000
DSTYLE
1002
{
1070
   279
1070
     2
1070
   340
1005
3B
1070
   140
1040
24.4326171875
1070
   147
1040
5.0
1002
}
  0
DIMENSION
  5
1D4
330
A
100
AcDbEntity
  8
notes
  6
Continuous
 62
     7
370
     5
390
1D
100
AcDbDimension
  2
*D23
 10
281.7328473111636
 20
1780.397289466325
 30
0.0
 11
264.5165387174136
 21
1180.397289466328
 31
0.0
 70
    32
 71
     5
 42
1199.999999999994
 73
     0
 74
     0
 75
     0
  3
tform線あり
100
AcDbAlignedDimension
 13
484.7328473111656
 23
580.3972894663312
 33
0.0
 14
484.7328473111611
 24
1780.397289466325
 34
0.0
 50
90.0
100
AcDbRotatedDimension
1001
ACAD
1000
DSTYLE
1002
{
1070
   279
1070
     2
1070
   340
1005
3B
1070
   140
1040
24.4326171875
1070
   147
1040
5.0
1002
}
  0
DIMENSION
  5
1D5
330
A
100
AcDbEntity
  8
notes
  6
Continuous
 62
     7
370
     5
390
1D
100
AcDbDimension
  2
*D24
 10
481.7328473111611
 20
1880.397289466325
 30
0.0
 11
711.7328473111602
 21
1897.613598060075
 31
0.0
 70
    32
 71
     5
 42
459.9999999999981
 73
     0
 74
     0
 75
     0
  3
tform線あり
100
AcDbAlignedDimension
 13
941.7328473111592
 23
1777.397289466329
 33
0.0
 14
481.7328473111611
 24
1777.397289466325
 34
0.0
100
AcDbRotatedDimension
1001
ACAD
1000
DSTYLE
1002
{
1070
   279
1070
     2
1070
   340
1005
3B
1070
   140
1040
24.4326171875
1070
   147
1040
5.0
1002
}
  0
DIMENSION
  5
1D6
330
A
100
AcDbEntity
  8
notes
  6
Continuous
 62
     7
370
     5
390
1D
100
AcDbDimension
  2
*D25
 10
1091.732847311164
 20
1747.897289466328
 30
0.0
 11
1074.516538717414
 21
1180.397289466328
 31
0.0
 70
    32
 71
     5
 42
1135.0
 73
     0
 74
     0
 75
     0
  3
tform線あり
100
AcDbAlignedDimension
 13
941.7328473111642
 23
612.8972894663283
 33
0.0
 14
941.7328473111594
 24
1747.897289466328
 34
0.0
 50
90.0
100
AcDbRotatedDimension
1001
ACAD
1000
DSTYLE
1002
{
1070
   279
1070
     2
1070
   340
1005
3B
1070
   140
1040
24.4326171875
1070
   147
1040
5.0
1002
}
  0
LINE
  5
1D7
330
A
100
AcDbEntity
  8
ADF70-0603
  6
Continuous
 62
     7
370
    15
390
1D
100
AcDbLine
 10
481.7328473111661
 20
583.3972894663312
 30
0.0
 11
481.7328473111663
 21
1180.397289466327
 31
0.0
  0
LINE
  5
1D8
330
A
100
AcDbEntity
  8
ADF70-0603
  6
Continuous
 62
     7
370
    15
390
1D
100
AcDbLine
 10
484.7328473111659
 20
580.3972894663312
 30
0.0
 11
938.732847311164
 21
580.3972894663312
 31
0.0
  0
LINE
  5
1D9
330
A
100
AcDbEntity
  8
ADF70-0603
  6
Continuous
 62
     7
370
    15
390
1D
100
AcDbLine
 10
626.732847311164
 20
615.3972894663315
 30
0.0
 11
896.732847311164
 21
615.3972894663315
 31
0.0
  0
LINE
  5
1DA
330
A
100
AcDbEntity
  8
ADF70-0603
  6
Continuous
 62
     7
370
    15
390
1D
100
AcDbLine
 10
636.7328473111638
 20
1180.397289466327
 30
0.0
 11
636.7328473111631
 21
797.3959500184027
 31
0.0
  0
LINE
  5
1DB
330
A
100
AcDbEntity
  8
ADF70-0603
  6
Continuous
 62
     7
370
    15
390
1D
100
AcDbLine
 10
886.7328473111638
 20
1180.397289466327
 30
0.0
 11
886.7328473111634
 21
797.3959500184029
 31
0.0
  0
LINE
  5
1DC
330
A
100
AcDbEntity
  8
ADF70-0603
  6
Continuous
 62
     7
370
    15
390
1D
100
AcDbLine
 10
636.732847311164
 20
1154.147289466327
 30
0.0
 11
636.7328473111631
 21
797.3959500184027
 31
0.0
  0
LINE
  5
1DD
330
A
100
AcDbEntity
  8
ADF70-0603
  6
Continuous
 62
     7
370
    15
390
1D
100
AcDbLine
 10
646.7328473111631
 20
787.3959500184027
 30
0.0
 11
876.7328473111634
 21
787.3959500184029
 31
0.0
  0
ARC
  5
1DE
330
A
100
AcDbEntity
  8
ADF70-0603
  6
Continuous
 62
     7
370
    15
390
1D
100
AcDbCircle
 10
761.7328473111612
 20
1180.397289466327
 30
0.0
 40
22.5
100
AcDbArc
 50
180.0
 51
0.0
  0
ARC
  5
1DF
330
A
100
AcDbEntity
  8
ADF70-0603
  6
Continuous
 62
     7
370
    15
390
1D
100
AcDbCircle
 10
761.7328473111612
 20
1180.397289466327
 30
0.0
 40
39.0
100
AcDbArc
 50
180.0
 51
359.9999999999997
  0
ARC
  5
1E0
330
A
100
AcDbEntity
  8
ADF70-0603
  6
Continuous
 62
     7
370
    15
390
1D
100
AcDbCircle
 10
938.7328473111637
 20
583.3972894663312
 30
0.0
 40
3.0
100
AcDbArc
 50
270.0
 51
0.0
  0
ARC
  5
1E1
330
A
100
AcDbEntity
  8
ADF70-0603
  6
Continuous
 62
     7
370
    15
390
1D
100
AcDbCircle
 10
484.7328473111656
 20
583.3972894663312
 30
0.0
 40
3.0
100
AcDbArc
 50
180.0
 51
270.0
  0
ARC
  5
1E2
330
A
100
AcDbEntity
  8
ADF70-0603
  6
Continuous
 62
     7
370
    15
390
1D
100
AcDbCircle
 10
626.7328473111638
 20
625.3972894663315
 30
0.0
 40
10.0
100
AcDbArc
 50
180.0
 51
270.0
  0
ARC
  5
1E3
330
A
100
AcDbEntity
  8
ADF70-0603
  6
Continuous
 62
     7
370
    15
390
1D
100
AcDbCircle
 10
896.7328473111637
 20
625.3972894663315
 30
0.0
 40
10.0
100
AcDbArc
 50
270.0
 51
0.0
  0
LINE
  5
1E4
330
A
100
AcDbEntity
  8
ADF70-0603
  6
Continuous
 62
     7
370
    15
390
1D
100
AcDbLine
 10
901.6834056500761
 20
627.8372275448913
 30
0.0
 11
886.7328473111634
 21
787.3959500184029
 31
0.0
  0
SPLINE
  5
1E5
330
A
100
AcDbEntity
  8
ADF70-0603
  6
Continuous
 62
     7
370
    15
390
1D
100
AcDbSpline
210
0.0
220
0.0
230
1.0
 70
     8
 71
     2
 72
    21
 73
    18
 74
     0
 42
0.000000001
 43
0.000001
 40
0.0
 40
0.0
 40
0.0
 40
1.0
 40
1.0
 40
2.0
 40
3.0
 40
4.0
 40
5.0
 40
6.0
 40
7.0
 40
8.0
 40
9.0
 40
10.0
 40
11.0
 40
12.0
 40
13.0
 40
13.0
 40
14.0
 40
14.0
 40
14.0
 10
623.7328473111643
 20
1180.397289466327
 30
0.0
 10
623.7328473111643
 20
1180.223678355216
 30
0.0
 10
623.7328473111643
 20
1180.050067244105
 30
0.0
 10
623.746902129416
 20
1178.993886887448
 30
0.0
 10
623.8345361997174
 20
1176.84843319892
 30
0.0
 10
624.116377834194
 20
1174.101343379029
 30
0.0
 10
624.6631718767512
 20
1171.099708453373
 30
0.0
 10
625.3696324756372
 20
1169.171676574792
 30
0.0
 10
626.0212419184606
 20
1168.1640415398
 30
0.0
 10
626.7334792051946
 20
1167.809017255985
 30
0.0
 10
627.4459024418089
 20
1168.167585745688
 30
0.0
 10
628.4173852657476
 20
1169.653271030455
 30
0.0
 10
629.1512983896822
 20
1172.852569786016
 30
0.0
 10
629.5106642035275
 20
1175.449562311578
 30
0.0
 10
629.7096929610717
 20
1178.285081815933
 30
0.0
 10
629.7328473111643
 20
1180.050067244105
 30
0.0
 10
629.7328473111643
 20
1180.223678355216
 30
0.0
 10
629.7328473111643
 20
1180.397289466327
 30
0.0
  0
LINE
  5
1E6
330
A
100
AcDbEntity
  8
ADF70-0603
  6
Continuous
 62
     7
370
    15
390
1D
100
AcDbLine
 10
616.7328473111643
 20
1180.397289466327
 30
0.0
 11
616.732847311164
 21
625.3972894663315
 31
0.0
  0
LINE
  5
1E7
330
A
100
AcDbEntity
  8
ADF70-0603
  6
Continuous
 62
     7
370
    15
390
1D
100
AcDbLine
 10
906.7328473111642
 20
1180.397289466327
 30
0.0
 11
906.732847311164
 21
625.3972894663315
 31
0.0
  0
LINE
  5
1E8
330
A
100
AcDbEntity
  8
ADF70-0603
  6
Continuous
 62
     7
370
    15
390
1D
100
AcDbLine
 10
941.7328473111642
 20
1180.397289466327
 30
0.0
 11
941.732847311164
 21
583.3972894663312
 31
0.0
  0
SPLINE
  5
1E9
330
A
100
AcDbEntity
  8
ADF70-0603
  6
Continuous
 62
     7
370
    15
390
1D
100
AcDbSpline
210
0.0
220
0.0
230
1.0
 70
    12
 71
     2
 72
     8
 73
     5
 74
     0
 42
0.000000001
 43
0.000001
 40
0.0
 40
0.0
 40
0.0
 40
0.5
 40
0.5
 40
1.0
 40
1.0
 40
1.0
 10
623.7328473111643
 20
1180.397289466326
 30
0.0
 41
1.0
 10
623.7328473111639
 20
1192.897289466326
 30
0.0
 41
0.7071067811865476
 10
626.7328473111643
 20
1192.897289466326
 30
0.0
 41
1.0
 10
629.7328473111637
 20
1192.897289466326
 30
0.0
 41
0.7071067811865476
 10
629.7328473111643
 20
1180.397289466326
 30
0.0
 41
1.0
  0
ARC
  5
1EA
330
A
100
AcDbEntity
  8
ADF70-0603
  6
Continuous
 62
     7
370
    15
390
1D
100
AcDbCircle
 10
646.7328473111629
 20
797.3959500184027
 30
0.0
 40
9.999999999999886
100
AcDbArc
 50
180.0
 51
270.0
  0
ARC
  5
1EB
330
A
100
AcDbEntity
  8
ADF70-0603
  6
Continuous
 62
     7
370
    15
390
1D
100
AcDbCircle
 10
876.7328473111631
 20
797.3959500184029
 30
0.0
 40
10.0
100
AcDbArc
 50
270.0
 51
0.0
  0
LINE
  5
1EC
330
A
100
AcDbEntity
  8
ADF70-0603
  6
Continuous
 62
     7
370
    15
390
1D
100
AcDbLine
 10
621.7822889722561
 20
627.8372275448902
 30
0.0
 11
636.7328473111671
 21
787.3959500184018
 31
0.0
  0
LINE
  5
1ED
330
A
100
AcDbEntity
  8
ADF70-0603
  6
Continuous
 62
     7
370
    15
390
1D
100
AcDbLine
 10
646.7328473111597
 20
1573.398628914255
 30
0.0
 11
876.7328473111601
 21
1573.398628914257
 31
0.0
  0
ARC
  5
1EE
330
A
100
AcDbEntity
  8
ADF70-0603
  6
Continuous
 62
     7
370
    15
390
1D
100
AcDbCircle
 10
761.7328473111612
 20
1180.397289466327
 30
0.0
 40
39.0
100
AcDbArc
 50
0.0000000000006681
 51
180.0000000000003
  0
ARC
  5
1EF
330
A
100
AcDbEntity
  8
ADF70-0603
  6
Continuous
 62
     7
370
    15
390
1D
100
AcDbCircle
 10
761.7328473111612
 20
1180.397289466327
 30
0.0
 40
22.5
100
AcDbArc
 50
0.000000000000579
 51
180.0
  0
LINE
  5
1F0
330
A
100
AcDbEntity
  8
ADF70-0603
  6
Continuous
 62
     7
370
    15
390
1D
100
AcDbLine
 10
626.7328473111593
 20
1745.397289466326
 30
0.0
 11
896.7328473111592
 21
1745.397289466329
 31
0.0
  0
LINE
  5
1F1
330
A
100
AcDbEntity
  8
ADF70-0603
  6
Continuous
 62
     7
370
    15
390
1D
100
AcDbLine
 10
484.7328473111611
 20
1780.397289466325
 30
0.0
 11
938.732847311159
 21
1780.397289466329
 31
0.0
  0
LINE
  5
1F2
330
A
100
AcDbEntity
  8
ADF70-0603
  6
Continuous
 62
     7
370
    15
390
1D
100
AcDbLine
 10
901.6834056500716
 20
1732.957351387769
 30
0.0
 11
886.7328473111602
 21
1573.398628914257
 31
0.0
  0
LINE
  5
1F3
330
A
100
AcDbEntity
  8
ADF70-0603
  6
Continuous
 62
     7
370
    15
390
1D
100
AcDbLine
 10
941.7328473111642
 20
1180.397289466329
 30
0.0
 11
941.732847311159
 21
1777.397289466329
 31
0.0
  0
LINE
  5
1F4
330
A
100
AcDbEntity
  8
ADF70-0603
  6
Continuous
 62
     7
370
    15
390
1D
100
AcDbLine
 10
906.7328473111642
 20
1180.397289466329
 30
0.0
 11
906.7328473111593
 21
1735.397289466329
 31
0.0
  0
ARC
  5
1F5
330
A
100
AcDbEntity
  8
ADF70-0603
  6
Continuous
 62
     7
370
    15
390
1D
100
AcDbCircle
 10
938.7328473111592
 20
1777.397289466329
 30
0.0
 40
3.0
100
AcDbArc
 50
0.0
 51
90.0
  0
ARC
  5
1F6
330
A
100
AcDbEntity
  8
ADF70-0603
  6
Continuous
 62
     7
370
    15
390
1D
100
AcDbCircle
 10
896.7328473111593
 20
1735.397289466329
 30
0.0
 40
10.0
100
AcDbArc
 50
0.0
 51
90.0
  0
LINE
  5
1F7
330
A
100
AcDbEntity
  8
ADF70-0603
  6
Continuous
 62
     7
370
    15
390
1D
100
AcDbLine
 10
886.7328473111639
 20
1180.397289466329
 30
0.0
 11
886.7328473111602
 21
1563.398628914257
 31
0.0
  0
ARC
  5
1F8
330
A
100
AcDbEntity
  8
ADF70-0603
  6
Continuous
 62
     7
370
    15
390
1D
100
AcDbCircle
 10
876.7328473111602
 20
1563.398628914257
 30
0.0
 40
10.0
100
AcDbArc
 50
0.0000000000013028
 51
90.00000000000064
  0
LINE
  5
1F9
330
A
100
AcDbEntity
  8
ADF70-0603
  6
Continuous
 62
     7
370
    15
390
1D
100
AcDbLine
 10
621.7822889722515
 20
1732.957351387768
 30
0.0
 11
636.7328473111638
 21
1573.398628914256
 31
0.0
  0
LINE
  5
1FA
330
A
100
AcDbEntity
  8
ADF70-0603
  6
Continuous
 62
     7
370
    15
390
1D
100
AcDbLine
 10
616.7328473111643
 20
1180.397289466326
 30
0.0
 11
616.7328473111596
 21
1735.397289466326
 31
0.0
  0
LINE
  5
1FB
330
A
100
AcDbEntity
  8
ADF70-0603
  6
Continuous
 62
     7
370
    15
390
1D
100
AcDbLine
 10
481.7328473111611
 20
1777.397289466325
 30
0.0
 11
481.7328473111663
 21
1180.397289466325
 31
0.0
  0
ARC
  5
1FC
330
A
100
AcDbEntity
  8
ADF70-0603
  6
Continuous
 62
     7
370
    15
390
1D
100
AcDbCircle
 10
626.7328473111596
 20
1735.397289466326
 30
0.0
 40
10.0
100
AcDbArc
 50
90.00000000000132
 51
180.0
  0
ARC
  5
1FD
330
A
100
AcDbEntity
  8
ADF70-0603
  6
Continuous
 62
     7
370
    15
390
1D
100
AcDbCircle
 10
484.7328473111611
 20
1777.397289466325
 30
0.0
 40
3.0
100
AcDbArc
 50
90.0
 51
180.0
  0
LINE
  5
1FE
330
A
100
AcDbEntity
  8
ADF70-0603
  6
Continuous
 62
     7
370
    15
390
1D
100
AcDbLine
 10
636.7328473111638
 20
1206.647289466326
 30
0.0
 11
636.73284731116
 21
1563.398628914255
 31
0.0
  0
LINE
  5
1FF
330
A
100
AcDbEntity
  8
ADF70-0603
  6
Continuous
 62
     7
370
    15
390
1D
100
AcDbLine
 10
636.7328473111638
 20
1180.397289466327
 30
0.0
 11
636.73284731116
 21
1563.398628914255
 31
0.0
  0
ARC
  5
200
330
A
100
AcDbEntity
  8
ADF70-0603
  6
Continuous
 62
     7
370
    15
390
1D
100
AcDbCircle
 10
646.73284731116
 20
1563.398628914256
 30
0.0
 40
10.0
100
AcDbArc
 50
90.00000000000132
 51
180.0000000000013
  0
LINE
  5
201
330
A
100
AcDbEntity
  8
ADF70-0603
  6
STYLE_12
 62
     7
370
    15
390
1D
100
AcDbLine
 10
1751.257995271987
 20
2333.988700165432
 30
0.0
 11
1751.257995271987
 21
2287.988740175199
 31
0.0
  0
LINE
  5
202
330
A
100
AcDbEntity
  8
ADF70-0603
  6
STYLE_12
 62
     7
370
    15
390
1D
100
AcDbLine
 10
1718.428850156474
 20
2333.988700165433
 30
0.0
 11
1718.453733179026
 21
2287.9887401752
 31
0.0
  0
LINE
  5
203
330
A
100
AcDbEntity
  8
ADF70-0603
  6
Continuous
 62
     7
370
    15
390
1D
100
AcDbLine
 10
1756.274330212628
 20
2584.836701357232
 30
0.0
 11
1756.274330212626
 21
2134.83670135724
 31
0.0
  0
LINE
  5
204
330
A
100
AcDbEntity
  8
ADF70-0603
  6
STYLE_12
 62
     7
370
    15
390
1D
100
AcDbLine
 10
1706.586116425224
 20
2355.033648830517
 30
0.0
 11
1706.586116425224
 21
2310.836701357238
 31
0.0
  0
LINE
  5
205
330
A
100
AcDbEntity
  8
ADF70-0603
  6
STYLE_12
 62
     7
370
    15
390
1D
100
AcDbLine
 10
1706.586116425224
 20
2273.845010734593
 30
0.0
 11
1706.586116425224
 21
2310.836701357238
 31
0.0
  0
LINE
  5
206
330
A
100
AcDbEntity
  8
ADF70-0603
  6
STYLE_12
 62
     7
370
    15
390
1D
100
AcDbLine
 10
1751.257995271987
 20
2333.988700165432
 30
0.0
 11
1718.428850156474
 21
2333.988700165432
 31
0.0
  0
LINE
  5
207
330
A
100
AcDbEntity
  8
ADF70-0603
  6
STYLE_12
 62
     7
370
    15
390
1D
100
AcDbLine
 10
1600.853609758494
 20
2454.68787662768
 30
0.0
 11
1631.669469454123
 21
2451.313877995215
 31
0.0
  0
ARC
  5
208
330
A
100
AcDbEntity
  8
ADF70-0603
  6
STYLE_12
 62
     7
370
    15
390
1D
100
AcDbCircle
 10
1586.274330212625
 20
2461.319136536395
 30
0.0
 40
5.000000000000114
100
AcDbArc
 50
180.0
 51
263.7516294451901
  0
LINE
  5
209
330
A
100
AcDbEntity
  8
ADF70-0603
  6
STYLE_12
 62
     7
370
    15
390
1D
100
AcDbLine
 10
1600.853609758494
 20
2454.68787662768
 30
0.0
 11
1585.730137189339
 21
2456.348839366867
 31
0.0
  0
LINE
  5
20A
330
A
100
AcDbEntity
  8
ADF70-0603
  6
Continuous
 62
     7
370
    15
390
1D
100
AcDbLine
 10
1584.274330212626
 20
2589.836701357232
 30
0.0
 11
1751.274330212628
 21
2589.836701357232
 31
0.0
  0
ARC
  5
20B
330
A
100
AcDbEntity
  8
ADF70-0603
  6
Continuous
 62
     7
370
    15
390
1D
100
AcDbCircle
 10
1751.274330212628
 20
2584.836701357232
 30
0.0
 40
5.000000000000227
100
AcDbArc
 50
0.0
 51
90.0
  0
ARC
  5
20C
330
A
100
AcDbEntity
  8
ADF70-0603
  6
Continuous
 62
     7
370
    15
390
1D
100
AcDbCircle
 10
1584.274330212626
 20
2586.836701357233
 30
0.0
 40
3.0
100
AcDbArc
 50
90.0
 51
180.0
  0
LINE
  5
20D
330
A
100
AcDbEntity
  8
ADF70-0603
  6
STYLE_12
 62
     7
370
    15
390
1D
100
AcDbLine
 10
1676.125094077194
 20
2444.802252869014
 30
0.0
 11
1631.669469454122
 21
2451.313877995215
 31
0.0
  0
ARC
  5
20E
330
A
100
AcDbEntity
  8
ADF70-0603
  6
STYLE_12
 62
     7
370
    15
390
1D
100
AcDbCircle
 10
1673.511882495502
 20
2419.939205484808
 30
0.0
 40
24.99999999999951
100
AcDbArc
 50
6.471939182752029
 51
83.99999999999955
  0
LINE
  5
20F
330
A
100
AcDbEntity
  8
ADF70-0603
  6
STYLE_12
 62
     7
370
    15
390
1D
100
AcDbLine
 10
1706.240939608046
 20
2355.774562700936
 30
0.0
 11
1698.352561950584
 21
2422.757120353966
 31
0.0
  0
ARC
  5
210
330
A
100
AcDbEntity
  8
ADF70-0603
  6
STYLE_12
 62
     7
370
    15
390
1D
100
AcDbCircle
 10
1707.234829561645
 20
2355.884938242304
 30
0.0
 40
0.9999999999984979
100
AcDbArc
 50
186.3369643288918
 51
220.0000000187129
  0
LINE
  5
211
330
A
100
AcDbEntity
  8
ADF70-0603
  6
STYLE_12
 62
     7
370
    15
390
1D
100
AcDbLine
 10
1718.428850156474
 20
2333.988700165433
 30
0.0
 11
1706.468785118737
 21
2355.242150632368
 31
0.0
  0
LINE
  5
212
330
A
100
AcDbEntity
  8
ADF70-0603
  6
Continuous
 62
     7
370
    15
390
1D
100
AcDbLine
 10
1756.274330212626
 20
2134.83670135724
 30
0.0
 11
1756.274330212626
 21
2132.83670135724
 31
0.0
  0
LINE
  5
213
330
A
100
AcDbEntity
  8
ADF70-0603
  6
STYLE_12
 62
     7
370
    15
390
1D
100
AcDbLine
 10
1718.453742777928
 20
2287.970995182491
 30
0.0
 11
1751.257995271987
 21
2287.988740175199
 31
0.0
  0
LINE
  5
214
330
A
100
AcDbEntity
  8
ADF70-0603
  6
STYLE_12
 62
     7
370
    15
390
1D
100
AcDbLine
 10
1706.469106683785
 20
2273.705734544165
 30
0.0
 11
1718.453742777928
 21
2287.970995182491
 31
0.0
  0
ARC
  5
215
330
A
100
AcDbEntity
  8
ADF70-0603
  6
STYLE_12
 62
     7
370
    15
390
1D
100
AcDbCircle
 10
1707.234763512385
 20
2273.062485276141
 30
0.0
 40
0.9999999999986043
100
AcDbArc
 50
139.9654618376691
 51
173.6581833578836
  0
LINE
  5
216
330
A
100
AcDbEntity
  8
ADF70-0603
  6
STYLE_12
 62
     7
370
    15
390
1D
100
AcDbLine
 10
1698.050890770643
 20
2184.706134415022
 30
0.0
 11
1706.240882909927
 21
2273.172944988504
 31
0.0
  0
ARC
  5
217
330
A
100
AcDbEntity
  8
ADF70-0603
  6
STYLE_12
 62
     7
370
    15
390
1D
100
AcDbCircle
 10
1673.210211315561
 20
2188.095243412005
 30
0.0
 40
25.00000000000038
100
AcDbArc
 50
275.9999999999997
 51
353.528060817244
  0
LINE
  5
218
330
A
100
AcDbEntity
  8
ADF70-0603
  6
STYLE_12
 62
     7
370
    15
390
1D
100
AcDbLine
 10
1585.751687896286
 20
2153.463657802288
 30
0.0
 11
1675.823422897252
 21
2163.2321960278
 31
0.0
  0
ARC
  5
219
330
A
100
AcDbEntity
  8
ADF70-0603
  6
STYLE_12
 62
     7
370
    15
390
1D
100
AcDbCircle
 10
1586.274330212624
 20
2148.491048325447
 30
0.0
 40
4.999999999999792
100
AcDbArc
 50
96.00000000000068
 51
180.0
  0
LINE
  5
21A
330
A
100
AcDbEntity
  8
ADF70-0603
  6
Continuous
 62
     7
370
    15
390
1D
100
AcDbLine
 10
1581.274330212624
 20
2134.83670135724
 30
0.0
 11
1581.274330212624
 21
2586.836701357233
 31
0.0
  0
ARC
  5
21B
330
A
100
AcDbEntity
  8
ADF70-0603
  6
Continuous
 62
     7
370
    15
390
1D
100
AcDbCircle
 10
1586.274330212624
 20
2134.836701357239
 30
0.0
 40
4.999999999999432
100
AcDbArc
 50
179.9999999999896
 51
270.0
  0
LINE
  5
21C
330
A
100
AcDbEntity
  8
ADF70-0603
  6
Continuous
 62
     7
370
    15
390
1D
100
AcDbLine
 10
1753.274330212626
 20
2129.83670135724
 30
0.0
 11
1586.274330212623
 21
2129.83670135724
 31
0.0
  0
ARC
  5
21D
330
A
100
AcDbEntity
  8
ADF70-0603
  6
Continuous
 62
     7
370
    15
390
1D
100
AcDbCircle
 10
1753.274330212626
 20
2132.83670135724
 30
0.0
 40
3.0
100
AcDbArc
 50
269.9999999999913
 51
0.0
  0
LWPOLYLINE
  5
21E
330
A
100
AcDbEntity
  8
ADF70-0603
  6
Continuous
 62
     7
370
    15
390
1D
100
AcDbPolyline
 90
        8
 70
   129
 43
0.0
 10
1586.274330212625
 20
581.4999403546213
 42
-0.414213562373095
 10
1581.274330212625
 20
586.4999403546213
 10
1581.274330212625
 20
1776.499940354618
 42
-0.414213562373095
 10
1586.274330212625
 20
1781.499940354618
 10
1751.274330212628
 20
1781.499940354618
 42
-0.414213562373095
 10
1756.274330212628
 20
1776.499940354618
 10
1756.274330212628
 20
586.4999403546213
 42
-0.414213562373095
 10
1751.274330212628
 20
581.4999403546213
  0
LINE
  5
21F
330
A
100
AcDbEntity
  8
ADF70-0603
  6
STYLE_12
 62
     7
370
    15
390
1D
100
AcDbLine
 10
1751.257995271987
 20
1157.3999603595
 30
0.0
 11
1751.257995271987
 21
1203.399920349735
 31
0.0
  0
LINE
  5
220
330
A
100
AcDbEntity
  8
ADF70-0603
  6
STYLE_12
 62
     7
370
    15
390
1D
100
AcDbLine
 10
1718.428850156474
 20
1157.3999603595
 30
0.0
 11
1718.453733179026
 21
1203.399920349734
 31
0.0
  0
LINE
  5
221
330
A
100
AcDbEntity
  8
ADF70-0603
  6
STYLE_12
 62
     7
370
    15
390
1D
100
AcDbLine
 10
1706.586116425224
 20
1143.256230918893
 30
0.0
 11
1706.586116425224
 21
1180.551959167696
 31
0.0
  0
LINE
  5
222
330
A
100
AcDbEntity
  8
ADF70-0603
  6
STYLE_12
 62
     7
370
    15
390
1D
100
AcDbLine
 10
1706.586116425224
 20
1217.543649790342
 30
0.0
 11
1706.586116425224
 21
1180.551959167696
 31
0.0
  0
LINE
  5
223
330
A
100
AcDbEntity
  8
ADF70-0603
  6
STYLE_12
 62
     7
370
    15
390
1D
100
AcDbLine
 10
1718.453742777928
 20
1203.417665342444
 30
0.0
 11
1706.469106683785
 21
1217.68292598077
 31
0.0
  0
LINE
  5
224
330
A
100
AcDbEntity
  8
ADF70-0603
  6
STYLE_12
 62
     7
370
    15
390
1D
100
AcDbLine
 10
1751.257995271987
 20
1203.399920349735
 30
0.0
 11
1718.453742777928
 21
1203.417665342444
 31
0.0
  0
LINE
  5
225
330
A
100
AcDbEntity
  8
ADF70-0603
  6
STYLE_12
 62
     7
370
    15
390
1D
100
AcDbLine
 10
1718.453742777928
 20
1157.382215366791
 30
0.0
 11
1706.469106683785
 21
1143.116954728466
 31
0.0
  0
LINE
  5
226
330
A
100
AcDbEntity
  8
ADF70-0603
  6
STYLE_12
 62
     7
370
    15
390
1D
100
AcDbLine
 10
1751.257995271987
 20
1157.3999603595
 30
0.0
 11
1718.453742777928
 21
1157.382215366791
 31
0.0
  0
LINE
  5
227
330
A
100
AcDbEntity
  8
ADF70-0603
  6
STYLE_12
 62
     7
370
    15
390
1D
100
AcDbLine
 10
1641.225568948609
 20
931.4999403546199
 30
0.0
 11
1601.225568948608
 21
931.4999403546199
 31
0.0
  0
CIRCLE
  5
228
330
A
100
AcDbEntity
  8
ADF70-0603
  6
STYLE_12
 62
     7
370
    15
390
1D
100
AcDbCircle
 10
551.7270321325701
 20
1080.397289466328
 30
0.0
 40
17.50000000000011
  0
CIRCLE
  5
22A
330
A
100
AcDbEntity
  8
ADF70-0603
  6
STYLE_12
 62
     7
370
    15
390
1D
100
AcDbCircle
 10
551.7270321325701
 20
880.3972894663306
 30
0.0
 40
17.49999999999966
  0
CIRCLE
  5
22B
330
A
100
AcDbEntity
  8
ADF70-0603
  6
STYLE_12
 62
     7
370
    15
390
1D
100
AcDbCircle
 10
551.7270321325677
 20
1480.397289466326
 30
0.0
 40
17.5
  0
CIRCLE
  5
22D
330
A
100
AcDbEntity
  8
ADF70-0603
  6
STYLE_12
 62
     7
370
    15
390
1D
100
AcDbCircle
 10
551.7270321325693
 20
1280.397289466326
 30
0.0
 40
17.5
  0
CIRCLE
  5
22E
330
A
100
AcDbEntity
  8
ADF70-0603
  6
STYLE_12
 62
     7
370
    15
390
1D
100
AcDbCircle
 10
551.7270321325701
 20
1180.397289466328
 30
0.0
 40
17.5
  0
LINE
  5
22F
330
A
100
AcDbEntity
  8
ADF70-0603
  6
STYLE_12
 62
     7
370
    15
390
1D
100
AcDbLine
 10
1706.586116425224
 20
1143.256230918893
 30
0.0
 11
1706.060320744655
 21
1142.6762306798
 31
0.0
  0
ARC
  5
230
330
A
100
AcDbEntity
  8
ADF70-0603
  6
STYLE_12
 62
     7
370
    15
390
1D
100
AcDbCircle
 10
1713.469106683785
 20
1135.959840957028
 30
0.0
 40
9.999999999999861
100
AcDbArc
 50
137.806312162122
 51
180.0
  0
ARC
  5
231
330
A
100
AcDbEntity
  8
ADF70-0603
  6
STYLE_12
 62
     7
370
    15
390
1D
100
AcDbCircle
 10
1591.274330212625
 20
601.811019194134
 30
0.0
 40
9.99999999999985
100
AcDbArc
 50
130.0296569073431
 51
180.0000000000013
  0
LINE
  5
232
330
A
100
AcDbEntity
  8
ADF70-0603
  6
STYLE_12
 62
     7
370
    15
390
1D
100
AcDbLine
 10
1584.842489849174
 20
1751.251630633873
 30
0.0
 11
1694.222468145474
 21
1585.995620988713
 31
0.0
  0
LINE
  5
233
330
A
100
AcDbEntity
  8
ADF70-0603
  6
STYLE_12
 62
     7
370
    15
390
1D
100
AcDbLine
 10
1703.469106683785
 20
1224.759925138806
 30
0.0
 11
1699.203560404344
 21
1569.808409979067
 31
0.0
  0
ARC
  5
234
330
A
100
AcDbEntity
  8
ADF70-0603
  6
STYLE_12
 62
     7
370
    15
390
1D
100
AcDbCircle
 10
1713.469106683785
 20
1224.759925138805
 30
0.0
 40
10.00000000000023
100
AcDbArc
 50
180.0
 51
222.1936878378754
  0
ARC
  5
235
330
A
100
AcDbEntity
  8
ADF70-0603
  6
STYLE_01
 62
     7
370
    15
390
1D
100
AcDbCircle
 10
1591.274330212625
 20
1758.908746901703
 30
0.0
 40
10.0
100
AcDbArc
 50
179.9999999999987
 51
229.9703430926578
  0
LINE
  5
236
330
A
100
AcDbEntity
  8
ADF70-0603
  6
STYLE_12
 62
     7
370
    15
390
1D
100
AcDbLine
 10
1621.274330212625
 20
951.4999403546201
 30
0.0
 11
1621.274330212625
 21
911.4999403546195
 31
0.0
  0
CIRCLE
  5
237
330
A
100
AcDbEntity
  8
ADF70-0603
  6
STYLE_12
 62
     7
370
    15
390
1D
100
AcDbCircle
 10
1621.225568948609
 20
931.4999403546199
 30
0.0
 40
10.0
  0
LINE
  5
238
330
A
100
AcDbEntity
  8
ADF70-0603
  6
STYLE_12
 62
     7
370
    15
390
1D
100
AcDbLine
 10
1641.225568948609
 20
1041.49994035462
 30
0.0
 11
1601.225568948608
 21
1041.49994035462
 31
0.0
  0
LINE
  5
239
330
A
100
AcDbEntity
  8
ADF70-0603
  6
STYLE_12
 62
     7
370
    15
390
1D
100
AcDbLine
 10
1621.274330212625
 20
1061.49994035462
 30
0.0
 11
1621.274330212625
 21
1021.49994035462
 31
0.0
  0
CIRCLE
  5
23A
330
A
100
AcDbEntity
  8
ADF70-0603
  6
STYLE_12
 62
     7
370
    15
390
1D
100
AcDbCircle
 10
1621.225568948609
 20
1041.49994035462
 30
0.0
 40
10.0
  0
LINE
  5
23B
330
A
100
AcDbEntity
  8
ADF70-0603
  6
STYLE_12
 62
     7
370
    15
390
1D
100
AcDbLine
 10
1641.225568948609
 20
1321.49994035462
 30
0.0
 11
1601.225568948608
 21
1321.49994035462
 31
0.0
  0
LINE
  5
23C
330
A
100
AcDbEntity
  8
ADF70-0603
  6
STYLE_12
 62
     7
370
    15
390
1D
100
AcDbLine
 10
1621.274330212625
 20
1341.49994035462
 30
0.0
 11
1621.274330212625
 21
1301.49994035462
 31
0.0
  0
CIRCLE
  5
23D
330
A
100
AcDbEntity
  8
ADF70-0603
  6
STYLE_12
 62
     7
370
    15
390
1D
100
AcDbCircle
 10
1621.225568948609
 20
1321.49994035462
 30
0.0
 40
10.0
  0
LINE
  5
23E
330
A
100
AcDbEntity
  8
ADF70-0603
  6
STYLE_12
 62
     7
370
    15
390
1D
100
AcDbLine
 10
1641.225568948609
 20
1431.49994035462
 30
0.0
 11
1601.225568948608
 21
1431.49994035462
 31
0.0
  0
LINE
  5
23F
330
A
100
AcDbEntity
  8
ADF70-0603
  6
STYLE_12
 62
     7
370
    15
390
1D
100
AcDbLine
 10
1621.274330212625
 20
1451.49994035462
 30
0.0
 11
1621.274330212625
 21
1411.499940354619
 31
0.0
  0
CIRCLE
  5
240
330
A
100
AcDbEntity
  8
ADF70-0603
  6
STYLE_12
 62
     7
370
    15
390
1D
100
AcDbCircle
 10
1621.225568948609
 20
1431.49994035462
 30
0.0
 40
10.0
  0
LINE
  5
241
330
A
100
AcDbEntity
  8
ADF70-0603
  6
Continuous
 62
     7
370
    15
390
1D
100
AcDbLine
 10
1581.274330212626
 20
2537.289779900264
 30
0.0
 11
1596.274330212626
 21
2537.289779900264
 31
0.0
  0
LINE
  5
242
330
A
100
AcDbEntity
  8
ADF70-0603
  6
Continuous
 62
     7
370
    15
390
1D
100
AcDbLine
 10
1596.274330212625
 20
2502.289779900265
 30
0.0
 11
1581.274330212625
 21
2502.289779900265
 31
0.0
  0
ARC
  5
243
330
A
100
AcDbEntity
  8
ADF70-0603
  6
STYLE_12
 62
     7
370
    15
390
1D
100
AcDbCircle
 10
1669.205852488463
 20
1569.437573366202
 30
0.0
 40
29.99999999999994
100
AcDbArc
 50
0.7082637980751549
 51
33.49985814536036
  0
LINE
  5
244
330
A
100
AcDbEntity
  8
ADF70-0603
  6
STYLE_12
 62
     7
370
    15
390
1D
100
AcDbLine
 10
1584.842489849174
 20
609.5429482987852
 30
0.0
 11
1694.222468145474
 21
774.7989579439447
 31
0.0
  0
LINE
  5
245
330
A
100
AcDbEntity
  8
ADF70-0603
  6
STYLE_12
 62
     7
370
    15
390
1D
100
AcDbLine
 10
1703.469106683785
 20
1136.034653793853
 30
0.0
 11
1699.203560404344
 21
790.9861689535917
 31
0.0
  0
ARC
  5
246
330
A
100
AcDbEntity
  8
ADF70-0603
  6
STYLE_12
 62
     7
370
    15
390
1D
100
AcDbCircle
 10
1669.205852488463
 20
791.3570055664566
 30
0.0
 40
30.00000000000002
100
AcDbArc
 50
326.5001418546397
 51
359.2917362019251
  0
POLYLINE
  5
2E0
330
A
100
AcDbEntity
  8
cut
  6
Continuous
 62
     7
370
    15
390
1D
100
AcDb2dPolyline
 66
     1
 10
0.0
 20
0.0
 30
0.0
 70
     1
 75
     5
  0
VERTEX
  5
2E1
330
2E0
100
AcDbEntity
  8
cut
  6
Continuous
 62
     7
370
    15
390
1D
100
AcDbVertex
100
AcDb2dVertex
 10
447.7796491093036
 20
2562.46671259809
 30
0.0
  0
VERTEX
  5
2E2
330
2E0
100
AcDbEntity
  8
cut
  6
Continuous
 62
     7
370
    15
390
1D
100
AcDbVertex
100
AcDb2dVertex
 10
587.7796491093038
 20
2562.46671259809
 30
0.0
  0
VERTEX
  5
2E3
330
2E0
100
AcDbEntity
  8
cut
  6
Continuous
 62
     7
370
    15
390
1D
100
AcDbVertex
100
AcDb2dVertex
 10
587.7796491093038
 20
2212.46671259809
 30
0.0
  0
VERTEX
  5
2E4
330
2E0
100
AcDbEntity
  8
cut
  6
Continuous
 62
     7
370
    15
390
1D
100
AcDbVertex
100
AcDb2dVertex
 10
447.7796491093036
 20
2212.46671259809
 30
0.0
  0
SEQEND
  5
2E5
330
2E0
100
AcDbEntity
  8
cut
  6
Continuous
 62
     7
370
    15
390
1D
  0
LINE
  5
2E6
330
A
100
AcDbEntity
  8
cut
  6
STYLE_03
 62
     7
370
     5
390
1D
100
AcDbLine
 10
427.7796491093061
 20
2088.951497995866
 30
0.0
 11
427.7796491093061
 21
2387.451497995866
 31
0.0
  0
LINE
  5
2E7
330
A
100
AcDbEntity
  8
cut
  6
STYLE_12
 62
     7
370
     5
390
1D
100
AcDbLine
 10
429.2796491093059
 20
2087.451497995866
 30
0.0
 11
656.2796491093053
 21
2087.451497995866
 31
0.0
  0
ARC
  5
2E8
330
A
100
AcDbEntity
  8
cut
  6
STYLE_12
 62
     7
370
     5
390
1D
100
AcDbCircle
 10
562.2796491093052
 20
2387.451497995866
 30
0.0
 40
11.25
100
AcDbArc
 50
180.0
 51
0.0
  0
ARC
  5
2E9
330
A
100
AcDbEntity
  8
cut
  6
STYLE_12
 62
     7
370
     5
390
1D
100
AcDbCircle
 10
656.2796491093052
 20
2088.951497995866
 30
0.0
 40
1.5
100
AcDbArc
 50
270.0
 51
0.0
  0
ARC
  5
2EA
330
A
100
AcDbEntity
  8
cut
  6
STYLE_12
 62
     7
370
     5
390
1D
100
AcDbCircle
 10
429.2796491093056
 20
2088.951497995866
 30
0.0
 40
1.5
100
AcDbArc
 50
180.0
 51
270.0
  0
LINE
  5
2EB
330
A
100
AcDbEntity
  8
cut
  6
STYLE_03
 62
     7
370
     5
390
1D
100
AcDbLine
 10
427.7796491093061
 20
2387.451497995866
 30
0.0
 11
427.7796491093061
 21
2189.94590965343
 31
0.0
  0
LINE
  5
2EC
330
A
100
AcDbEntity
  8
cut
  6
STYLE_12
 62
     7
370
     5
390
1D
100
AcDbLine
 10
657.7796491093055
 20
2387.451497995866
 30
0.0
 11
657.7796491093053
 21
2088.951497995866
 31
0.0
  0
ARC
  5
2ED
330
A
100
AcDbEntity
  8
cut
  6
STYLE_12
 62
     7
370
     5
390
1D
100
AcDbCircle
 10
562.2796491093052
 20
2387.451497995866
 30
0.0
 40
11.25
100
AcDbArc
 50
0.0
 51
180.0
  0
LINE
  5
2EE
330
A
100
AcDbEntity
  8
cut
  6
STYLE_12
 62
     7
370
     5
390
1D
100
AcDbLine
 10
429.2796491093036
 20
2687.45149799586
 30
0.0
 11
656.2796491093028
 21
2687.451497995862
 31
0.0
  0
LINE
  5
2EF
330
A
100
AcDbEntity
  8
cut
  6
STYLE_12
 62
     7
370
     5
390
1D
100
AcDbLine
 10
657.7796491093055
 20
2387.451497995867
 30
0.0
 11
657.7796491093028
 21
2685.951497995862
 31
0.0
  0
ARC
  5
2F0
330
A
100
AcDbEntity
  8
cut
  6
STYLE_12
 62
     7
370
     5
390
1D
100
AcDbCircle
 10
656.2796491093028
 20
2685.951497995862
 30
0.0
 40
1.5
100
AcDbArc
 50
0.0
 51
90.0
  0
LINE
  5
2F1
330
A
100
AcDbEntity
  8
cut
  6
STYLE_03
 62
     7
370
     5
390
1D
100
AcDbLine
 10
427.7796491093036
 20
2685.95149799586
 30
0.0
 11
427.7796491093061
 21
2387.451497995865
 31
0.0
  0
ARC
  5
2F2
330
A
100
AcDbEntity
  8
cut
  6
STYLE_12
 62
     7
370
     5
390
1D
100
AcDbCircle
 10
429.2796491093036
 20
2685.95149799586
 30
0.0
 40
1.5
100
AcDbArc
 50
90.0
 51
180.0
  0
CIRCLE
  5
2F3
330
A
100
AcDbEntity
  8
cut
  6
STYLE_12
 62
     7
370
     5
390
1D
100
AcDbCircle
 10
462.776741520008
 20
2337.451497995866
 30
0.0
 40
8.750000000000114
  0
CIRCLE
  5
2F5
330
A
100
AcDbEntity
  8
cut
  6
STYLE_12
 62
     7
370
     5
390
1D
100
AcDbCircle
 10
462.776741520008
 20
2237.451497995867
 30
0.0
 40
8.75
  0
CIRCLE
  5
2F6
330
A
100
AcDbEntity
  8
cut
  6
STYLE_12
 62
     7
370
     5
390
1D
100
AcDbCircle
 10
462.7767415200067
 20
2537.451497995864
 30
0.0
 40
8.75
  0
CIRCLE
  5
2F8
330
A
100
AcDbEntity
  8
cut
  6
STYLE_12
 62
     7
370
     5
390
1D
100
AcDbCircle
 10
462.7767415200076
 20
2437.451497995865
 30
0.0
 40
8.75
  0
CIRCLE
  5
2F9
330
A
100
AcDbEntity
  8
cut
  6
STYLE_12
 62
     7
370
     5
390
1D
100
AcDbCircle
 10
462.776741520008
 20
2387.451497995866
 30
0.0
 40
8.75
  0
LINE
  5
2FA
330
A
100
AcDbEntity
  8
cut
  6
Continuous
 62
     7
370
     5
390
1D
100
AcDbLine
 10
427.7796491093036
 20
2037.451497995863
 30
0.0
 11
427.7796491093036
 21
2737.451497995863
 31
0.0
  0
LINE
  5
2FB
330
A
100
AcDbEntity
  8
cut
  6
Continuous
 62
     7
370
     5
390
1D
100
AcDbLine
 10
428.0249717408263
 20
2678.190995479013
 30
0.0
 11
391.0249717408263
 21
2715.190995479013
 31
0.0
  0
LINE
  5
2FC
330
A
100
AcDbEntity
  8
cut
  6
Continuous
 62
     7
370
     5
390
1D
100
AcDbLine
 10
428.0249717408263
 20
2698.190995479013
 30
0.0
 11
391.0249717408263
 21
2735.190995479013
 31
0.0
  0
LINE
  5
2FD
330
A
100
AcDbEntity
  8
cut
  6
Continuous
 62
     7
370
     5
390
1D
100
AcDbLine
 10
428.0249717408263
 20
2718.190995479013
 30
0.0
 11
391.0249717408263
 21
2755.190995479014
 31
0.0
  0
DIMENSION
  5
2FE
330
A
100
AcDbEntity
  8
cut
  6
Continuous
 62
     7
370
     5
390
1D
100
AcDbDimension
  2
*D3
 10
746.7858350044729
 20
2562.46671259809
 30
0.0
 11
724.5695264107229
 21
2387.46671259809
 31
0.0
 70
    32
 71
     5
 42
700.0
 73
     0
 74
     0
 75
     0
  3
tform線あり
100
AcDbAlignedDimension
 13
587.7796491093038
 23
2212.46671259809
 33
0.0
 14
587.7796491093038
 24
2562.46671259809
 34
0.0
 50
90.0
100
AcDbRotatedDimension
1001
ACAD
1000
DSTYLE
1002
{
1070
   279
1070
     2
1070
   340
1005
3B
1070
   140
1040
24.4326171875
1070
   144
1040
2.0
1070
   147
1040
10.0
1002
}
  0
DIMENSION
  5
2FF
330
A
100
AcDbEntity
  8
cut
  6
Continuous
 62
     7
370
     5
390
1D
100
AcDbDimension
  2
*D4
 10
587.7796491093038
 20
2639.008233182763
 30
0.0
 11
517.7796491093037
 21
2661.224541776513
 31
0.0
 70
    32
 71
     5
 42
280.0000000000005
 73
     0
 74
     0
 75
     0
  3
tform線あり
100
AcDbAlignedDimension
 13
447.7796491093036
 23
2562.46671259809
 33
0.0
 14
587.7796491093038
 24
2562.46671259809
 34
0.0
100
AcDbRotatedDimension
1001
ACAD
1000
DSTYLE
1002
{
1070
   279
1070
     2
1070
   340
1005
3B
1070
   140
1040
24.4326171875
1070
   144
1040
2.0
1070
   147
1040
10.0
1002
}
  0
DIMENSION
  5
300
330
A
100
AcDbEntity
  8
cut
  6
Continuous
 62
     7
370
     5
390
1D
100
AcDbDimension
  2
*D27
 10
447.7796491093036
 20
2639.008233182763
 30
0.0
 11
406.7222600190512
 21
2658.765533964013
 31
0.0
 70
   160
 71
     5
 42
40.0
 73
     0
 74
     1
 75
     1
  3
tform線あり
100
AcDbAlignedDimension
 13
427.7796491093036
 23
2562.46671259809
 33
0.0
 14
447.7796491093036
 24
2562.46671259809
 34
0.0
100
AcDbRotatedDimension
1001
ACAD
1000
DSTYLE
1002
{
1070
   279
1070
     2
1070
   340
1005
3B
1070
   140
1040
24.4326171875
1070
   144
1040
2.0
1070
   174
1070
     0
1070
   147
1040
10.0
1002
}
  0
LINE
  5
31C
330
A
100
AcDbEntity
  8
ADF70-0603
  6
Continuous
370
     0
100
AcDbLine
 10
427.7796491093036
 20
2639.008233182763
 30
0.0
 11
394.3741271347355
 21
2639.008233182763
 31
0.0
  0
LINE
  5
340
330
A
100
AcDbEntity
  8
ADF70-0603
  6
Continuous
370
     0
100
AcDbLine
 10
1581.274330212625
 20
2315.897957157642
 30
0.0
 11
1428.971070280573
 21
2315.897957157642
 31
0.0
  0
MTEXT
  5
375
330
A
100
AcDbEntity
  8
notes
 62
     7
390
1D
100
AcDbMText
 10
250.2789494451903
 20
2221.430063665198
 30
0.0
 40
24.4326171875
 41
0.0
 46
24.4326171875
 71
     1
 72
     1
  1
{カウンター切込寸法 (1/20)}
  7
ＭＳ ゴシック
 11
0.0
 21
1.0
 31
0.0
 73
     1
 44
0.7828267384257843
1001
ACAD
1000
ACAD_MTEXT_DEFINED_HEIGHT_BEGIN
1070
    46
1040
24.4326171875
1000
ACAD_MTEXT_DEFINED_HEIGHT_END
  0
ENDSEC
  0
SECTION
  2
OBJECTS
  0
DICTIONARY
  5
19
330
0
100
AcDbDictionary
281
     1
  3
ACAD_DETAILVIEWSTYLE
350
326
  3
ACAD_GROUP
350
1A
  3
ACAD_IMAGE_VARS
350
28A
  3
ACAD_LAYOUT
350
1E
  3
ACAD_MATERIAL
350
282
  3
ACAD_MLEADERSTYLE
350
324
  3
ACAD_MLINESTYLE
350
1B
  3
ACAD_PLOTSETTINGS
350
22
  3
ACAD_PLOTSTYLENAME
350
1F
  3
ACAD_SCALELIST
350
247
  3
ACAD_SECTIONVIEWSTYLE
350
327
  3
ACAD_TABLESTYLE
350
286
  3
ACAD_VISUALSTYLE
350
269
  3
ACDB_RECOMPOSE_DATA
350
380
  3
AcDbVariableDictionary
350
31D
  3
APPDATA
350
288
  0
SUN
  5
289
330
15
100
AcDbSun
 90
        1
290
     0
 63
     7
421
 16777215
 40
1.0
291
     1
 91
  2455826
 92
 54000000
292
     0
 70
     2
 71
   256
280
     1
  0
DICTIONARY
  5
326
102
{ACAD_REACTORS
330
19
102
}
330
19
100
AcDbDictionary
281
     1
  0
DICTIONARY
  5
1A
102
{ACAD_REACTORS
330
19
102
}
330
19
100
AcDbDictionary
281
     1
  0
RASTERVARIABLES
  5
28A
102
{ACAD_REACTORS
330
19
102
}
330
19
100
AcDbRasterVariables
 90
        0
 70
     1
 71
     1
 72
     1
  0
DICTIONARY
  5
1E
102
{ACAD_REACTORS
330
19
102
}
330
19
100
AcDbDictionary
281
     1
  3
Layout1
350
21
  3
Model
350
20
  0
DICTIONARY
  5
282
102
{ACAD_REACTORS
330
19
102
}
330
19
100
AcDbDictionary
281
     1
  3
ByBlock
350
284
  3
ByLayer
350
283
  3
Global
350
285
  0
DICTIONARY
  5
324
102
{ACAD_REACTORS
330
19
102
}
330
19
100
AcDbDictionary
281
     1
  0
DICTIONARY
  5
1B
102
{ACAD_REACTORS
330
19
102
}
330
19
100
AcDbDictionary
281
     1
  3
Standard
350
1C
  0
DICTIONARY
  5
22
102
{ACAD_REACTORS
330
19
102
}
330
19
100
AcDbDictionary
281
     1
  0
ACDBDICTIONARYWDFLT
  5
1F
102
{ACAD_REACTORS
330
19
102
}
330
19
100
AcDbDictionary
281
     1
  3
Normal
350
1D
100
AcDbDictionaryWithDefault
340
1D
  0
DICTIONARY
  5
247
102
{ACAD_REACTORS
330
19
102
}
330
19
100
AcDbDictionary
281
     1
  3
A0
350
248
  3
A1
350
249
  3
A2
350
24A
  3
A3
350
24B
  3
A4
350
24C
  3
A5
350
24D
  3
A6
350
24E
  3
A7
350
24F
  3
A8
350
250
  3
A9
350
251
  3
B0
350
252
  3
B1
350
253
  3
B2
350
254
  3
B3
350
255
  3
B4
350
256
  3
B5
350
257
  3
B6
350
258
  3
B7
350
259
  3
B8
350
25A
  3
B9
350
25B
  3
C0
350
25C
  3
C1
350
25D
  3
C2
350
25E
  3
C3
350
25F
  3
C4
350
260
  3
C5
350
261
  3
C6
350
262
  3
C7
350
263
  3
C8
350
264
  3
C9
350
265
  3
D0
350
266
  3
D1
350
267
  3
D2
350
268
  0
DICTIONARY
  5
327
102
{ACAD_REACTORS
330
19
102
}
330
19
100
AcDbDictionary
281
     1
  0
DICTIONARY
  5
286
102
{ACAD_REACTORS
330
19
102
}
330
19
100
AcDbDictionary
281
     1
  3
Standard
350
287
  0
DICTIONARY
  5
269
102
{ACAD_REACTORS
330
19
102
}
330
19
100
AcDbDictionary
281
     1
  3
2dWireframe
350
26E
  3
Basic
350
271
  3
Brighten
350
275
  3
ColorChange
350
279
  3
Conceptual
350
273
  3
Dim
350
274
  3
EdgeColorOff
350
27C
  3
Facepattern
350
278
  3
Flat
350
26A
  3
FlatWithEdges
350
26B
  3
Gouraud
350
26C
  3
GouraudWithEdges
350
26D
  3
Hidden
350
270
  3
JitterOff
350
27A
  3
Linepattern
350
277
  3
OverhangOff
350
27B
  3
Realistic
350
272
  3
Shaded
350
281
  3
Shaded with edges
350
280
  3
Shades of Gray
350
27D
  3
Sketchy
350
27E
  3
Thicken
350
276
  3
Wireframe
350
26F
  3
X-Ray
350
27F
  0
XRECORD
  5
380
102
{ACAD_REACTORS
330
19
102
}
330
19
100
AcDbXrecord
280
     1
 90
        1
330
287
  0
DICTIONARY
  5
31D
102
{ACAD_REACTORS
330
19
102
}
330
19
100
AcDbDictionary
281
     1
  3
CANNOSCALE
350
31E
  3
CTABLESTYLE
350
323
  3
LIGHTINGUNITS
350
31F
  3
MSLTSCALE
350
325
  3
XCLIPFRAME
350
344
  0
DICTIONARY
  5
288
102
{ACAD_REACTORS
330
19
102
}
330
19
100
AcDbDictionary
281
     1
  0
LAYOUT
  5
21
102
{ACAD_REACTORS
330
1E
102
}
330
1E
100
AcDbPlotSettings
  1

  2

  4

  6

 40
0.0
 41
0.0
 42
0.0
 43
0.0
 44
0.0
 45
0.0
 46
0.0
 47
0.0
 48
0.0
 49
0.0
140
0.0
141
0.0
142
1.0
143
1.0
 70
     0
 72
     0
 73
     0
 74
     0
  7

 75
     0
 76
     0
 77
     2
 78
   300
147
1.0
148
0.0
149
0.0
100
AcDbLayout
  1
Layout1
 70
     0
 71
     0
 10
0.0
 20
0.0
 11
0.0
 21
0.0
 12
0.0
 22
0.0
 32
0.0
 14
0.0
 24
0.0
 34
0.0
 15
0.0
 25
0.0
 35
0.0
146
0.0
 13
0.0
 23
0.0
 33
0.0
 16
0.0
 26
0.0
 36
0.0
 17
0.0
 27
0.0
 37
0.0
 76
     0
330
B
  0
LAYOUT
  5
20
102
{ACAD_REACTORS
330
1E
102
}
330
1E
100
AcDbPlotSettings
  1

  2

  4

  6

 40
0.0
 41
0.0
 42
0.0
 43
0.0
 44
0.0
 45
0.0
 46
0.0
 47
0.0
 48
0.0
 49
0.0
140
0.0
141
0.0
142
1.0
143
1.0
 70
  1024
 72
     0
 73
     0
 74
     0
  7

 75
     0
 76
     0
 77
     2
 78
   300
147
1.0
148
0.0
149
0.0
100
AcDbLayout
  1
Model
 70
     0
 71
     1
 10
0.0
 20
0.0
 11
2100.0
 21
2970.0
 12
0.0
 22
0.0
 32
0.0
 14
86.42556894836775
 24
54.09130675862931
 34
0.0
 15
2036.42556894885
 25
2887.445831940487
 35
0.0
146
0.0
 13
0.0
 23
0.0
 33
0.0
 16
0.0
 26
0.0
 36
0.0
 17
0.0
 27
0.0
 37
0.0
 76
     0
330
A
331
15
  0
MATERIAL
  5
284
102
{ACAD_REACTORS
330
282
102
}
330
282
100
AcDbMaterial
  1
ByBlock
 72
     1
 94
      127
  0
MATERIAL
  5
283
102
{ACAD_REACTORS
330
282
102
}
330
282
100
AcDbMaterial
  1
ByLayer
 72
     1
 94
      127
  0
MATERIAL
  5
285
102
{ACAD_REACTORS
330
282
102
}
330
282
100
AcDbMaterial
  1
Global
 72
     1
 94
      127
  0
MLINESTYLE
  5
1C
102
{ACAD_REACTORS
330
1B
102
}
330
1B
100
AcDbMlineStyle
  2
Standard
 70
     0
  3

 62
     0
 51
90.0
 52
90.0
 71
     2
 49
0.5
 62
   256
  6
BYLAYER
 49
-0.5
 62
   256
  6
BYLAYER
  0
ACDBPLACEHOLDER
  5
1D
102
{ACAD_REACTORS
330
1F
102
}
330
1F
  0
SCALE
  5
248
102
{ACAD_REACTORS
330
247
102
}
330
247
100
AcDbScale
 70
     0
300
1:1
140
1.0
141
1.0
290
     1
  0
SCALE
  5
249
102
{ACAD_REACTORS
330
247
102
}
330
247
100
AcDbScale
 70
     0
300
1:2
140
1.0
141
2.0
290
     0
  0
SCALE
  5
24A
102
{ACAD_REACTORS
330
247
102
}
330
247
100
AcDbScale
 70
     0
300
1:4
140
1.0
141
4.0
290
     0
  0
SCALE
  5
24B
102
{ACAD_REACTORS
330
247
102
}
330
247
100
AcDbScale
 70
     0
300
1:5
140
1.0
141
5.0
290
     0
  0
SCALE
  5
24C
102
{ACAD_REACTORS
330
247
102
}
330
247
100
AcDbScale
 70
     0
300
1:8
140
1.0
141
8.0
290
     0
  0
SCALE
  5
24D
102
{ACAD_REACTORS
330
247
102
}
330
247
100
AcDbScale
 70
     0
300
1:10
140
1.0
141
10.0
290
     0
  0
SCALE
  5
24E
102
{ACAD_REACTORS
330
247
102
}
330
247
100
AcDbScale
 70
     0
300
1:16
140
1.0
141
16.0
290
     0
  0
SCALE
  5
24F
102
{ACAD_REACTORS
330
247
102
}
330
247
100
AcDbScale
 70
     0
300
1:20
140
1.0
141
20.0
290
     0
  0
SCALE
  5
250
102
{ACAD_REACTORS
330
247
102
}
330
247
100
AcDbScale
 70
     0
300
1:30
140
1.0
141
30.0
290
     0
  0
SCALE
  5
251
102
{ACAD_REACTORS
330
247
102
}
330
247
100
AcDbScale
 70
     0
300
1:40
140
1.0
141
40.0
290
     0
  0
SCALE
  5
252
102
{ACAD_REACTORS
330
247
102
}
330
247
100
AcDbScale
 70
     0
300
1:50
140
1.0
141
50.0
290
     0
  0
SCALE
  5
253
102
{ACAD_REACTORS
330
247
102
}
330
247
100
AcDbScale
 70
     0
300
1:100
140
1.0
141
100.0
290
     0
  0
SCALE
  5
254
102
{ACAD_REACTORS
330
247
102
}
330
247
100
AcDbScale
 70
     0
300
2:1
140
2.0
141
1.0
290
     0
  0
SCALE
  5
255
102
{ACAD_REACTORS
330
247
102
}
330
247
100
AcDbScale
 70
     0
300
4:1
140
4.0
141
1.0
290
     0
  0
SCALE
  5
256
102
{ACAD_REACTORS
330
247
102
}
330
247
100
AcDbScale
 70
     0
300
8:1
140
8.0
141
1.0
290
     0
  0
SCALE
  5
257
102
{ACAD_REACTORS
330
247
102
}
330
247
100
AcDbScale
 70
     0
300
10:1
140
10.0
141
1.0
290
     0
  0
SCALE
  5
258
102
{ACAD_REACTORS
330
247
102
}
330
247
100
AcDbScale
 70
     0
300
100:1
140
100.0
141
1.0
290
     0
  0
SCALE
  5
259
102
{ACAD_REACTORS
330
247
102
}
330
247
100
AcDbScale
 70
     0
300
1/128" = 1'-0"
140
0.0078125
141
12.0
290
     0
  0
SCALE
  5
25A
102
{ACAD_REACTORS
330
247
102
}
330
247
100
AcDbScale
 70
     0
300
1/64" = 1'-0"
140
0.015625
141
12.0
290
     0
  0
SCALE
  5
25B
102
{ACAD_REACTORS
330
247
102
}
330
247
100
AcDbScale
 70
     0
300
1/32" = 1'-0"
140
0.03125
141
12.0
290
     0
  0
SCALE
  5
25C
102
{ACAD_REACTORS
330
247
102
}
330
247
100
AcDbScale
 70
     0
300
1/16" = 1'-0"
140
0.0625
141
12.0
290
     0
  0
SCALE
  5
25D
102
{ACAD_REACTORS
330
247
102
}
330
247
100
AcDbScale
 70
     0
300
3/32" = 1'-0"
140
0.09375
141
12.0
290
     0
  0
SCALE
  5
25E
102
{ACAD_REACTORS
330
247
102
}
330
247
100
AcDbScale
 70
     0
300
1/8" = 1'-0"
140
0.125
141
12.0
290
     0
  0
SCALE
  5
25F
102
{ACAD_REACTORS
330
247
102
}
330
247
100
AcDbScale
 70
     0
300
3/16" = 1'-0"
140
0.1875
141
12.0
290
     0
  0
SCALE
  5
260
102
{ACAD_REACTORS
330
247
102
}
330
247
100
AcDbScale
 70
     0
300
1/4" = 1'-0"
140
0.25
141
12.0
290
     0
  0
SCALE
  5
261
102
{ACAD_REACTORS
330
247
102
}
330
247
100
AcDbScale
 70
     0
300
3/8" = 1'-0"
140
0.375
141
12.0
290
     0
  0
SCALE
  5
262
102
{ACAD_REACTORS
330
247
102
}
330
247
100
AcDbScale
 70
     0
300
1/2" = 1'-0"
140
0.5
141
12.0
290
     0
  0
SCALE
  5
263
102
{ACAD_REACTORS
330
247
102
}
330
247
100
AcDbScale
 70
     0
300
3/4" = 1'-0"
140
0.75
141
12.0
290
     0
  0
SCALE
  5
264
102
{ACAD_REACTORS
330
247
102
}
330
247
100
AcDbScale
 70
     0
300
1" = 1'-0"
140
1.0
141
12.0
290
     0
  0
SCALE
  5
265
102
{ACAD_REACTORS
330
247
102
}
330
247
100
AcDbScale
 70
     0
300
1-1/2" = 1'-0"
140
1.5
141
12.0
290
     0
  0
SCALE
  5
266
102
{ACAD_REACTORS
330
247
102
}
330
247
100
AcDbScale
 70
     0
300
3" = 1'-0"
140
3.0
141
12.0
290
     0
  0
SCALE
  5
267
102
{ACAD_REACTORS
330
247
102
}
330
247
100
AcDbScale
 70
     0
300
6" = 1'-0"
140
6.0
141
12.0
290
     0
  0
SCALE
  5
268
102
{ACAD_REACTORS
330
247
102
}
330
247
100
AcDbScale
 70
     0
300
1'-0" = 1'-0"
140
12.0
141
12.0
290
     0
  0
TABLESTYLE
  5
287
102
{ACAD_REACTORS
330
286
102
}
102
{ACAD_XDICTIONARY
360
37E
102
}
330
286
100
AcDbTableStyle
  3
Standard
 70
     0
 71
     0
 40
0.06
 41
0.06
280
     0
281
     0
  7
Standard
140
4.5
170
     2
 62
     0
 63
   257
283
     0
 90
        4
 91
        0
  1

274
    -2
284
     1
 64
     0
275
    -2
285
     1
 65
     0
276
    -2
286
     1
 66
     0
277
    -2
287
     1
 67
     0
278
    -2
288
     1
 68
     0
279
    -2
289
     1
 69
     0
  7
Standard
140
6.0
170
     5
 62
     0
 63
   257
283
     0
 90
        4
 91
        0
  1

274
    -2
284
     1
 64
     0
275
    -2
285
     1
 65
     0
276
    -2
286
     1
 66
     0
277
    -2
287
     1
 67
     0
278
    -2
288
     1
 68
     0
279
    -2
289
     1
 69
     0
  7
Standard
140
4.5
170
     5
 62
     0
 63
   257
283
     0
 90
        4
 91
        0
  1

274
    -2
284
     1
 64
     0
275
    -2
285
     1
 65
     0
276
    -2
286
     1
 66
     0
277
    -2
287
     1
 67
     0
278
    -2
288
     1
 68
     0
279
    -2
289
     1
 69
     0
  0
VISUALSTYLE
  5
26E
102
{ACAD_REACTORS
330
269
102
}
330
269
100
AcDbVisualStyle
  2
2dWireframe
 70
     4
 71
     0
 72
     2
 73
     0
 90
        0
 40
0.6
 41
30.0
 62
     5
 63
     7
421
 16777215
 74
     1
 91
        4
 64
     7
 65
   257
 75
     1
175
     1
 42
1.0
 92
        0
 66
   257
 43
1.0
 76
     1
 77
     6
 78
     2
 67
     7
 79
     5
170
     0
171
     0
290
     0
174
     0
 93
        1
 44
0.0
173
     0
291
     0
 45
0.0
  0
VISUALSTYLE
  5
271
102
{ACAD_REACTORS
330
269
102
}
330
269
100
AcDbVisualStyle
  2
Basic
 70
     7
 71
     1
 72
     0
 73
     1
 90
        0
 40
0.6
 41
30.0
 62
     5
 63
     7
421
 16777215
 74
     0
 91
        4
 64
     7
 65
   257
 75
     1
175
     1
 42
1.0
 92
        8
 66
     7
 43
1.0
 76
     1
 77
     6
 78
     2
 67
     7
 79
     5
170
     0
171
     0
290
     0
174
     0
 93
        1
 44
0.0
173
     0
291
     1
 45
0.0
  0
VISUALSTYLE
  5
275
102
{ACAD_REACTORS
330
269
102
}
330
269
100
AcDbVisualStyle
  2
Brighten
 70
    12
 71
     2
 72
     2
 73
     0
 90
        0
 40
0.6
 41
30.0
 62
     5
 63
     7
421
 16777215
 74
     1
 91
        4
 64
     7
 65
   257
 75
     1
175
     1
 42
1.0
 92
        8
 66
     7
 43
1.0
 76
     1
 77
     6
 78
     2
 67
     7
 79
     5
170
     0
171
     0
290
     0
174
     0
 93
        1
 44
50.0
173
     0
291
     1
 45
0.0
  0
VISUALSTYLE
  5
279
102
{ACAD_REACTORS
330
269
102
}
330
269
100
AcDbVisualStyle
  2
ColorChange
 70
    16
 71
     2
 72
     2
 73
     3
 90
        0
 40
0.6
 41
30.0
 62
     5
 63
     8
421
  8421504
 74
     1
 91
        4
 64
     7
 65
   257
 75
     1
175
     1
 42
1.0
 92
        8
 66
     8
424
  8421504
 43
1.0
 76
     1
 77
     6
 78
     2
 67
     7
 79
     5
170
     0
171
     0
290
     0
174
     0
 93
        1
 44
0.0
173
     0
291
     1
 45
0.0
  0
VISUALSTYLE
  5
273
102
{ACAD_REACTORS
330
269
102
}
330
269
100
AcDbVisualStyle
  2
Conceptual
 70
     9
 71
     3
 72
     2
 73
     0
 90
        0
 40
0.6
 41
30.0
 62
     5
 63
     7
421
 16777215
 74
     2
 91
        2
 64
     7
 65
   257
 75
     1
175
     1
 42
179.0
 92
        8
 66
     7
 43
1.0
 76
     1
 77
     6
 78
     2
 67
     7
 79
     3
170
     0
171
     0
290
     0
174
     0
 93
        1
 44
0.0
173
     0
291
     0
 45
0.0
  0
VISUALSTYLE
  5
274
102
{ACAD_REACTORS
330
269
102
}
330
269
100
AcDbVisualStyle
  2
Dim
 70
    11
 71
     2
 72
     2
 73
     0
 90
        0
 40
0.6
 41
30.0
 62
     5
 63
     7
421
 16777215
 74
     1
 91
        4
 64
     7
 65
   257
 75
     1
175
     1
 42
1.0
 92
        8
 66
     7
 43
1.0
 76
     1
 77
     6
 78
     2
 67
     7
 79
     5
170
     0
171
     0
290
     0
174
     0
 93
        1
 44
-50.0
173
     0
291
     1
 45
0.0
  0
VISUALSTYLE
  5
27C
102
{ACAD_REACTORS
330
269
102
}
330
269
100
AcDbVisualStyle
  2
EdgeColorOff
 70
    22
 71
     2
 72
     2
 73
     0
 90
        0
 40
0.6
 41
30.0
 62
     5
 63
     7
421
 16777215
 74
     1
 91
        4
 64
     7
 65
   257
 75
     1
175
     1
 42
1.0
 92
        8
 66
     7
 43
1.0
 76
     1
 77
     6
 78
     2
 67
     7
 79
     5
170
     0
171
     0
290
     0
174
     0
 93
        1
 44
0.0
173
     0
291
     1
 45
0.0
  0
VISUALSTYLE
  5
278
102
{ACAD_REACTORS
330
269
102
}
330
269
100
AcDbVisualStyle
  2
Facepattern
 70
    15
 71
     2
 72
     2
 73
     0
 90
        0
 40
0.6
 41
30.0
 62
     5
 63
     7
421
 16777215
 74
     1
 91
        4
 64
     7
 65
   257
 75
     1
175
     1
 42
1.0
 92
        8
 66
     7
 43
1.0
 76
     1
 77
     6
 78
     2
 67
     7
 79
     5
170
     0
171
     0
290
     0
174
     0
 93
        1
 44
0.0
173
     0
291
     1
 45
0.0
  0
VISUALSTYLE
  5
26A
102
{ACAD_REACTORS
330
269
102
}
330
269
100
AcDbVisualStyle
  2
Flat
 70
     0
 71
     2
 72
     1
 73
     1
 90
        2
 40
0.6
 41
30.0
 62
     5
 63
     7
421
 16777215
 74
     0
 91
        0
 64
     7
 65
   257
 75
     1
175
     1
 42
1.0
 92
        8
 66
     7
 43
1.0
 76
     1
 77
     6
 78
     2
 67
     7
 79
     5
170
     0
171
     0
290
     0
174
     0
 93
       13
 44
0.0
173
     0
291
     1
 45
0.0
  0
VISUALSTYLE
  5
26B
102
{ACAD_REACTORS
330
269
102
}
330
269
100
AcDbVisualStyle
  2
FlatWithEdges
 70
     1
 71
     2
 72
     1
 73
     1
 90
        2
 40
0.6
 41
30.0
 62
     5
 63
     7
421
 16777215
 74
     1
 91
        0
 64
     7
 65
   257
 75
     1
175
     1
 42
1.0
 92
        0
 66
   257
 43
1.0
 76
     1
 77
     6
 78
     2
 67
     7
 79
     5
170
     0
171
     0
290
     0
174
     0
 93
       13
 44
0.0
173
     0
291
     1
 45
0.0
  0
VISUALSTYLE
  5
26C
102
{ACAD_REACTORS
330
269
102
}
330
269
100
AcDbVisualStyle
  2
Gouraud
 70
     2
 71
     2
 72
     2
 73
     1
 90
        2
 40
0.6
 41
30.0
 62
     5
 63
     7
421
 16777215
 74
     0
 91
        0
 64
     7
 65
   257
 75
     1
175
     1
 42
1.0
 92
        0
 66
     7
 43
1.0
 76
     1
 77
     6
 78
     2
 67
     7
 79
     5
170
     0
171
     0
290
     0
174
     0
 93
       13
 44
0.0
173
     0
291
     1
 45
0.0
  0
VISUALSTYLE
  5
26D
102
{ACAD_REACTORS
330
269
102
}
330
269
100
AcDbVisualStyle
  2
GouraudWithEdges
 70
     3
 71
     2
 72
     2
 73
     1
 90
        2
 40
0.6
 41
30.0
 62
     5
 63
     7
421
 16777215
 74
     1
 91
        0
 64
     7
 65
   257
 75
     1
175
     1
 42
1.0
 92
        0
 66
   257
 43
1.0
 76
     1
 77
     6
 78
     2
 67
     7
 79
     5
170
     0
171
     0
290
     0
174
     0
 93
       13
 44
0.0
173
     0
291
     1
 45
0.0
  0
VISUALSTYLE
  5
270
102
{ACAD_REACTORS
330
269
102
}
330
269
100
AcDbVisualStyle
  2
Hidden
 70
     6
 71
     1
 72
     2
 73
     2
 90
        0
 40
0.6
 41
30.0
 62
     5
 63
     7
421
 16777215
 74
     2
 91
        2
 64
     7
 65
   257
 75
     2
175
     1
 42
40.0
 92
        0
 66
   257
 43
1.0
 76
     1
 77
     6
 78
     2
 67
     7
 79
     3
170
     0
171
     0
290
     0
174
     0
 93
        1
 44
0.0
173
     0
291
     0
 45
0.0
  0
VISUALSTYLE
  5
27A
102
{ACAD_REACTORS
330
269
102
}
330
269
100
AcDbVisualStyle
  2
JitterOff
 70
    20
 71
     2
 72
     2
 73
     0
 90
        0
 40
0.6
 41
30.0
 62
     5
 63
     7
421
 16777215
 74
     1
 91
        4
 64
     7
 65
   257
 75
     1
175
     1
 42
1.0
 92
       10
 66
     7
 43
1.0
 76
     1
 77
     6
 78
     2
 67
     7
 79
     5
170
     0
171
     0
290
     0
174
     0
 93
        1
 44
0.0
173
     0
291
     1
 45
0.0
  0
VISUALSTYLE
  5
277
102
{ACAD_REACTORS
330
269
102
}
330
269
100
AcDbVisualStyle
  2
Linepattern
 70
    14
 71
     2
 72
     2
 73
     0
 90
        0
 40
0.6
 41
30.0
 62
     5
 63
     7
421
 16777215
 74
     1
 91
        4
 64
     7
 65
   257
 75
     7
175
     7
 42
1.0
 92
        8
 66
     7
 43
1.0
 76
     1
 77
     6
 78
     2
 67
     7
 79
     5
170
     0
171
     0
290
     0
174
     0
 93
        1
 44
0.0
173
     0
291
     1
 45
0.0
  0
VISUALSTYLE
  5
27B
102
{ACAD_REACTORS
330
269
102
}
330
269
100
AcDbVisualStyle
  2
OverhangOff
 70
    21
 71
     2
 72
     2
 73
     0
 90
        0
 40
0.6
 41
30.0
 62
     5
 63
     7
421
 16777215
 74
     1
 91
        4
 64
     7
 65
   257
 75
     1
175
     1
 42
1.0
 92
        9
 66
     7
 43
1.0
 76
     1
 77
     6
 78
     2
 67
     7
 79
     5
170
     0
171
     0
290
     0
174
     0
 93
        1
 44
0.0
173
     0
291
     1
 45
0.0
  0
VISUALSTYLE
  5
272
102
{ACAD_REACTORS
330
269
102
}
330
269
100
AcDbVisualStyle
  2
Realistic
 70
     8
 71
     2
 72
     3
 73
     0
 90
        2
 40
0.6
 41
30.0
 62
     5
 63
     7
421
 16777215
 74
     0
 91
        0
 64
     7
 65
   257
 75
     1
175
     1
 42
1.0
 92
        8
 66
   257
 43
1.0
 76
     1
 77
     6
 78
     2
 67
     7
 79
     3
170
     0
171
     0
290
     0
174
     0
 93
       13
 44
0.0
173
     0
291
     0
 45
0.0
  0
VISUALSTYLE
  5
281
102
{ACAD_REACTORS
330
269
102
}
330
269
100
AcDbVisualStyle
  2
Shaded
 70
    27
 71
     2
 72
     2
 73
     1
 90
        2
 40
0.6
 41
30.0
 62
     5
 63
     7
421
 16777215
 74
     0
 91
        4
 64
     7
 65
   257
 75
     1
175
     1
 42
1.0
 92
        8
 66
   257
 43
1.0
 76
     1
 77
     6
 78
     2
 67
     8
425
  7895160
 79
     3
170
     0
171
     0
290
     0
174
     0
 93
        5
 44
0.0
173
     0
291
     0
 45
0.0
  0
VISUALSTYLE
  5
280
102
{ACAD_REACTORS
330
269
102
}
330
269
100
AcDbVisualStyle
  2
Shaded with edges
 70
    26
 71
     2
 72
     2
 73
     1
 90
        2
 40
0.6
 41
30.0
 62
     5
 63
     7
421
 16777215
 74
     1
 91
       10
 64
     7
 65
   257
 75
     2
175
     1
 42
1.0
 92
        8
 66
   257
 43
1.0
 76
     1
 77
     6
 78
     2
 67
     7
 79
     3
170
     0
171
     0
290
     0
174
     0
 93
        5
 44
0.0
173
     0
291
     0
 45
0.0
  0
VISUALSTYLE
  5
27D
102
{ACAD_REACTORS
330
269
102
}
330
269
100
AcDbVisualStyle
  2
Shades of Gray
 70
    23
 71
     2
 72
     2
 73
     3
 90
        0
 40
0.6
 41
30.0
 62
     5
 63
     7
421
 16777215
 74
     2
 91
        2
 64
     7
 65
     7
 75
     1
175
     1
 42
40.0
 92
        8
 66
     7
 43
1.0
 76
     1
 77
     6
 78
     2
 67
     7
 79
     3
170
     0
171
     0
290
     0
174
     0
 93
        1
 44
0.0
173
     0
291
     0
 45
0.0
  0
VISUALSTYLE
  5
27E
102
{ACAD_REACTORS
330
269
102
}
330
269
100
AcDbVisualStyle
  2
Sketchy
 70
    24
 71
     1
 72
     2
 73
     2
 90
        0
 40
0.6
 41
30.0
 62
     5
 63
     7
421
 16777215
 74
     2
 91
        2
 64
     7
 65
     7
 75
     1
175
     1
 42
40.0
 92
       11
 66
     7
 43
1.0
 76
     1
 77
     6
 78
     2
 67
     7
 79
     6
170
     0
171
     0
290
     0
174
     0
 93
        1
 44
0.0
173
     0
291
     0
 45
0.0
  0
VISUALSTYLE
  5
276
102
{ACAD_REACTORS
330
269
102
}
330
269
100
AcDbVisualStyle
  2
Thicken
 70
    13
 71
     2
 72
     2
 73
     0
 90
        0
 40
0.6
 41
30.0
 62
     5
 63
     7
421
 16777215
 74
     1
 91
        4
 64
     7
 65
   257
 75
     1
175
     1
 42
1.0
 92
       12
 66
     7
 43
1.0
 76
     1
 77
     6
 78
     2
 67
     7
 79
     5
170
     0
171
     0
290
     0
174
     0
 93
        1
 44
0.0
173
     0
291
     1
 45
0.0
  0
VISUALSTYLE
  5
26F
102
{ACAD_REACTORS
330
269
102
}
330
269
100
AcDbVisualStyle
  2
Wireframe
 70
     5
 71
     0
 72
     2
 73
     0
 90
        0
 40
0.6
 41
30.0
 62
     5
 63
     7
421
 16777215
 74
     1
 91
        4
 64
     7
 65
   257
 75
     1
175
     1
 42
1.0
 92
        0
 66
   257
 43
1.0
 76
     1
 77
     6
 78
     2
 67
     7
 79
     3
170
     0
171
     0
290
     0
174
     0
 93
        1
 44
0.0
173
     0
291
     0
 45
0.0
  0
VISUALSTYLE
  5
27F
102
{ACAD_REACTORS
330
269
102
}
330
269
100
AcDbVisualStyle
  2
X-Ray
 70
    25
 71
     2
 72
     2
 73
     1
 90
        1
 40
0.5
 41
30.0
 62
     5
 63
     7
421
 16777215
 74
     1
 91
        0
 64
     7
 65
   257
 75
     1
175
     1
 42
1.0
 92
        8
 66
     7
 43
1.0
 76
     1
 77
     6
 78
     2
 67
     7
 79
     3
170
     0
171
     0
290
     0
174
     0
 93
       13
 44
0.0
173
     0
291
     0
 45
0.0
  0
DICTIONARYVAR
  5
31E
102
{ACAD_REACTORS
330
31D
102
}
330
31D
100
DictionaryVariables
280
     0
  1
1:1
  0
DICTIONARYVAR
  5
323
102
{ACAD_REACTORS
330
31D
102
}
330
31D
100
DictionaryVariables
280
     0
  1
Standard
  0
DICTIONARYVAR
  5
31F
102
{ACAD_REACTORS
330
31D
102
}
330
31D
100
DictionaryVariables
280
     0
  1
0
  0
DICTIONARYVAR
  5
325
102
{ACAD_REACTORS
330
31D
102
}
330
31D
100
DictionaryVariables
280
     0
  1
0
  0
DICTIONARYVAR
  5
344
102
{ACAD_REACTORS
330
31D
102
}
330
31D
100
DictionaryVariables
280
     0
  1
0
  0
DICTIONARY
  5
37E
330
287
100
AcDbDictionary
280
     1
281
     1
  3
ACAD_ROUNDTRIP_2008_TABLESTYLE_CELLSTYLEMAP
360
37F
  0
CELLSTYLEMAP
  5
37F
102
{ACAD_REACTORS
330
37E
102
}
330
37E
100
AcDbCellStyleMap
 90
        3
300
CELLSTYLE
  1
TABLEFORMAT_BEGIN
 90
        5
170
     1
 91
        0
 92
        0
 62
   257
 93
        1
300
CONTENTFORMAT
  1
CONTENTFORMAT_BEGIN
 90
        0
 91
        0
 92
        4
 93
        0
300

 40
0.0
140
1.0
 94
        5
 62
     0
340
17
144
6.0
309
CONTENTFORMAT_END
171
     1
301
MARGIN
  1
CELLMARGIN_BEGIN
 40
1.5
 40
1.5
 40
1.5
 40
1.5
 40
1.5
 40
1.5
309
CELLMARGIN_END
 94
        6
 95
        1
302
GRIDFORMAT
  1
GRIDFORMAT_BEGIN
 90
        0
 91
        1
 62
     0
 92
       -2
340
11
 93
        0
 40
0.045
309
GRIDFORMAT_END
 95
        2
302
GRIDFORMAT
  1
GRIDFORMAT_BEGIN
 90
        0
 91
        1
 62
     0
 92
       -2
340
11
 93
        0
 40
0.045
309
GRIDFORMAT_END
 95
        4
302
GRIDFORMAT
  1
GRIDFORMAT_BEGIN
 90
        0
 91
        1
 62
     0
 92
       -2
340
11
 93
        0
 40
0.045
309
GRIDFORMAT_END
 95
        8
302
GRIDFORMAT
  1
GRIDFORMAT_BEGIN
 90
        0
 91
        1
 62
     0
 92
       -2
340
11
 93
        0
 40
0.045
309
GRIDFORMAT_END
 95
       16
302
GRIDFORMAT
  1
GRIDFORMAT_BEGIN
 90
        0
 91
        1
 62
     0
 92
       -2
340
11
 93
        0
 40
0.045
309
GRIDFORMAT_END
 95
       32
302
GRIDFORMAT
  1
GRIDFORMAT_BEGIN
 90
        0
 91
        1
 62
     0
 92
       -2
340
11
 93
        0
 40
0.045
309
GRIDFORMAT_END
309
TABLEFORMAT_END
  1
CELLSTYLE_BEGIN
 90
        1
 91
        1
300
_TITLE
309
CELLSTYLE_END
300
CELLSTYLE
  1
TABLEFORMAT_BEGIN
 90
        5
170
     1
 91
        0
 92
        0
 62
   257
 93
        1
300
CONTENTFORMAT
  1
CONTENTFORMAT_BEGIN
 90
        0
 91
        0
 92
        4
 93
        0
300

 40
0.0
140
1.0
 94
        5
 62
     0
340
17
144
4.5
309
CONTENTFORMAT_END
171
     1
301
MARGIN
  1
CELLMARGIN_BEGIN
 40
1.5
 40
1.5
 40
1.5
 40
1.5
 40
1.5
 40
1.5
309
CELLMARGIN_END
 94
        6
 95
        1
302
GRIDFORMAT
  1
GRIDFORMAT_BEGIN
 90
        0
 91
        1
 62
     0
 92
       -2
340
11
 93
        0
 40
0.045
309
GRIDFORMAT_END
 95
        2
302
GRIDFORMAT
  1
GRIDFORMAT_BEGIN
 90
        0
 91
        1
 62
     0
 92
       -2
340
11
 93
        0
 40
0.045
309
GRIDFORMAT_END
 95
        4
302
GRIDFORMAT
  1
GRIDFORMAT_BEGIN
 90
        0
 91
        1
 62
     0
 92
       -2
340
11
 93
        0
 40
0.045
309
GRIDFORMAT_END
 95
        8
302
GRIDFORMAT
  1
GRIDFORMAT_BEGIN
 90
        0
 91
        1
 62
     0
 92
       -2
340
11
 93
        0
 40
0.045
309
GRIDFORMAT_END
 95
       16
302
GRIDFORMAT
  1
GRIDFORMAT_BEGIN
 90
        0
 91
        1
 62
     0
 92
       -2
340
11
 93
        0
 40
0.045
309
GRIDFORMAT_END
 95
       32
302
GRIDFORMAT
  1
GRIDFORMAT_BEGIN
 90
        0
 91
        1
 62
     0
 92
       -2
340
11
 93
        0
 40
0.045
309
GRIDFORMAT_END
309
TABLEFORMAT_END
  1
CELLSTYLE_BEGIN
 90
        2
 91
        1
300
_HEADER
309
CELLSTYLE_END
300
CELLSTYLE
  1
TABLEFORMAT_BEGIN
 90
        5
170
     1
 91
        0
 92
        0
 62
   257
 93
        1
300
CONTENTFORMAT
  1
CONTENTFORMAT_BEGIN
 90
        0
 91
        0
 92
        4
 93
        0
300

 40
0.0
140
1.0
 94
        2
 62
     0
340
17
144
4.5
309
CONTENTFORMAT_END
171
     1
301
MARGIN
  1
CELLMARGIN_BEGIN
 40
1.5
 40
1.5
 40
1.5
 40
1.5
 40
1.5
 40
1.5
309
CELLMARGIN_END
 94
        6
 95
        1
302
GRIDFORMAT
  1
GRIDFORMAT_BEGIN
 90
        0
 91
        1
 62
     0
 92
       -2
340
11
 93
        0
 40
0.045
309
GRIDFORMAT_END
 95
        2
302
GRIDFORMAT
  1
GRIDFORMAT_BEGIN
 90
        0
 91
        1
 62
     0
 92
       -2
340
11
 93
        0
 40
0.045
309
GRIDFORMAT_END
 95
        4
302
GRIDFORMAT
  1
GRIDFORMAT_BEGIN
 90
        0
 91
        1
 62
     0
 92
       -2
340
11
 93
        0
 40
0.045
309
GRIDFORMAT_END
 95
        8
302
GRIDFORMAT
  1
GRIDFORMAT_BEGIN
 90
        0
 91
        1
 62
     0
 92
       -2
340
11
 93
        0
 40
0.045
309
GRIDFORMAT_END
 95
       16
302
GRIDFORMAT
  1
GRIDFORMAT_BEGIN
 90
        0
 91
        1
 62
     0
 92
       -2
340
11
 93
        0
 40
0.045
309
GRIDFORMAT_END
 95
       32
302
GRIDFORMAT
  1
GRIDFORMAT_BEGIN
 90
        0
 91
        1
 62
     0
 92
       -2
340
11
 93
        0
 40
0.045
309
GRIDFORMAT_END
309
TABLEFORMAT_END
  1
CELLSTYLE_BEGIN
 90
        3
 91
        2
300
_DATA
309
CELLSTYLE_END
  0
ENDSEC
  0
EOF
