  0
SECTION
  2
HEADER
  9
$ACADVER
  1
AC1015
  9
$ACADMAINTVER
 70
               6
  9
$DWGCODEPAGE
  3
ANSI_932
  9
$INSBASE
 10
0.0
 20
0.0
 30
0.0
  9
$EXTMIN
 10
-975.00000000024124
 20
-1431.5255224711129
 30
-14.834305555555554
  9
$EXTMAX
 10
975.00000000024124
 20
1405.9972926412995
 30
14.834305555555554
  9
$LIMMIN
 10
0.0
 20
0.0
  9
$LIMMAX
 10
0.0
 20
0.0
  9
$ORTHOMODE
 70
               0
  9
$REGENMODE
 70
               1
  9
$FILLMODE
 70
               1
  9
$QTEXTMODE
 70
               0
  9
$MIRRTEXT
 70
               1
  9
$LTSCALE
 40
50.799999999999997
  9
$ATTMODE
 70
               1
  9
$TEXTSIZE
 40
0.2
  9
$TRACEWID
 40
1.0
  9
$TEXTSTYLE
  7
Standard
  9
$CLAYER
  8
ADF70-0603
  9
$CELTYPE
  6
Continuous
  9
$CECOLOR
 62
             256
  9
$CELTSCALE
 40
1.0
  9
$DISPSILH
 70
               0
  9
$DIMSCALE
 40
1.0
  9
$DIMASZ
 40
31.75
  9
$DIMEXO
 40
0.0
  9
$DIMDLI
 40
6.9999999999999396
  9
$DIMRND
 40
0.0
  9
$DIMDLE
 40
0.0
  9
$DIMEXE
 40
19.999999999996199
  9
$DIMTP
 40
0.0
  9
$DIMTM
 40
0.0
  9
$DIMTXT
 40
24.432617187500004
  9
$DIMCEN
 40
0.0
  9
$DIMTSZ
 40
0.0
  9
$DIMTOL
 70
               0
  9
$DIMLIM
 70
               0
  9
$DIMTIH
 70
               0
  9
$DIMTOH
 70
               0
  9
$DIMSE1
 70
               0
  9
$DIMSE2
 70
               0
  9
$DIMTAD
 70
               1
  9
$DIMZIN
 70
              11
  9
$DIMBLK
  1
VW_FILLEDARROW
  9
$DIMASO
 70
               1
  9
$DIMSHO
 70
               1
  9
$DIMPOST
  1
<>
  9
$DIMAPOST
  1
[]
  9
$DIMALT
 70
               0
  9
$DIMALTD
 70
               1
  9
$DIMALTF
 40
1.0
  9
$DIMLFAC
 40
1.0
  9
$DIMTOFL
 70
               0
  9
$DIMTVP
 40
0.0
  9
$DIMTIX
 70
               1
  9
$DIMSOXD
 70
               0
  9
$DIMSAH
 70
               0
  9
$DIMBLK1
  1

  9
$DIMBLK2
  1

  9
$DIMSTYLE
  2
JIS
  9
$DIMCLRD
 70
               0
  9
$DIMCLRE
 70
               0
  9
$DIMCLRT
 70
               0
  9
$DIMTFAC
 40
1.0
  9
$DIMGAP
 40
1.00000000000108
  9
$DIMJUST
 70
               0
  9
$DIMSD1
 70
               0
  9
$DIMSD2
 70
               0
  9
$DIMTOLJ
 70
               1
  9
$DIMTZIN
 70
              11
  9
$DIMALTZ
 70
              11
  9
$DIMALTTZ
 70
              11
  9
$DIMUPT
 70
               0
  9
$DIMDEC
 70
               1
  9
$DIMTDEC
 70
               1
  9
$DIMALTU
 70
               2
  9
$DIMALTTD
 70
               2
  9
$DIMTXSTY
  7
ＭＳゴシック
  9
$DIMAUNIT
 70
               0
  9
$DIMADEC
 70
               2
  9
$DIMALTRND
 40
0.0
  9
$DIMAZIN
 70
               0
  9
$DIMDSEP
 70
              46
  9
$DIMATFIT
 70
               0
  9
$DIMFRAC
 70
               2
  9
$DIMLDRBLK
  1

  9
$DIMLUNIT
 70
               2
  9
$DIMLWD
 70
              -2
  9
$DIMLWE
 70
              -2
  9
$DIMTMOVE
 70
               0
  9
$LUNITS
 70
               2
  9
$LUPREC
 70
               4
  9
$SKETCHINC
 40
0.1
  9
$FILLETRAD
 40
0.0
  9
$AUNITS
 70
               0
  9
$AUPREC
 70
               0
  9
$MENU
  1
acad
  9
$ELEVATION
 40
0.0
  9
$PELEVATION
 40
0.0
  9
$THICKNESS
 40
0.0
  9
$LIMCHECK
 70
               0
  9
$CHAMFERA
 40
0.0
  9
$CHAMFERB
 40
0.0
  9
$CHAMFERC
 40
0.0
  9
$CHAMFERD
 40
0.0
  9
$SKPOLY
 70
               0
  9
$TDCREATE
 40
2455995.613576389
  9
$TDUCREATE
 40
0.000000000
  9
$TDUPDATE
 40
2455995.613576389
  9
$TDUUPDATE
 40
0.000000000
  9
$TDINDWG
 40
0.0000000000
  9
$TDUSRTIMER
 40
0.0000000000
  9
$USRTIMER
 70
               1
  9
$ANGBASE
 50
0.0
  9
$ANGDIR
 70
               0
  9
$PDMODE
 70
               1
  9
$PDSIZE
 40
-2.0
  9
$PLINEWID
 40
0.0
  9
$SPLFRAME
 70
               0
  9
$SPLINETYPE
 70
               6
  9
$SPLINESEGS
 70
               8
  9
$HANDSEED
  5
248
  9
$SURFTAB1
 70
               6
  9
$SURFTAB2
 70
               6
  9
$SURFTYPE
 70
               6
  9
$SURFU
 70
               6
  9
$SURFV
 70
               6
  9
$UCSBASE
  2

  9
$UCSNAME
  2

  9
$UCSORG
 10
0.0
 20
0.0
 30
0.0
  9
$UCSXDIR
 10
1.0
 20
0.0
 30
0.0
  9
$UCSYDIR
 10
0.0
 20
1.0
 30
0.0
  9
$UCSORTHOREF
  2

  9
$UCSORTHOVIEW
 70
               0
  9
$UCSORGTOP
 10
0.0
 20
0.0
 30
0.0
  9
$UCSORGBOTTOM
 10
0.0
 20
0.0
 30
0.0
  9
$UCSORGLEFT
 10
0.0
 20
0.0
 30
0.0
  9
$UCSORGRIGHT
 10
0.0
 20
0.0
 30
0.0
  9
$UCSORGFRONT
 10
0.0
 20
0.0
 30
0.0
  9
$UCSORGBACK
 10
0.0
 20
0.0
 30
0.0
  9
$PUCSBASE
  2

  9
$PUCSNAME
  2

  9
$PUCSORG
 10
0.0
 20
0.0
 30
0.0
  9
$PUCSXDIR
 10
1.0
 20
0.0
 30
0.0
  9
$PUCSYDIR
 10
0.0
 20
1.0
 30
0.0
  9
$PUCSORTHOREF
  2

  9
$PUCSORTHOVIEW
 70
               0
  9
$PUCSORGTOP
 10
0.0
 20
0.0
 30
0.0
  9
$PUCSORGBOTTOM
 10
0.0
 20
0.0
 30
0.0
  9
$PUCSORGLEFT
 10
0.0
 20
0.0
 30
0.0
  9
$PUCSORGRIGHT
 10
0.0
 20
0.0
 30
0.0
  9
$PUCSORGFRONT
 10
0.0
 20
0.0
 30
0.0
  9
$PUCSORGBACK
 10
0.0
 20
0.0
 30
0.0
  9
$USERI1
 70
               0
  9
$USERI2
 70
               0
  9
$USERI3
 70
               0
  9
$USERI4
 70
               0
  9
$USERI5
 70
               0
  9
$USERR1
 40
0.0
  9
$USERR2
 40
0.0
  9
$USERR3
 40
0.0
  9
$USERR4
 40
0.0
  9
$USERR5
 40
0.0
  9
$WORLDVIEW
 70
               1
  9
$SHADEDGE
 70
               3
  9
$SHADEDIF
 70
              70
  9
$TILEMODE
 70
               1
  9
$MAXACTVP
 70
              64
  9
$PINSBASE
 10
0.0
 20
0.0
 30
0.0
  9
$PLIMCHECK
 70
               0
  9
$PEXTMIN
 10
1.0000000000000000E+20
 20
1.0000000000000000E+20
 30
1.0000000000000000E+20
  9
$PEXTMAX
 10
-1.0000000000000000E+20
 20
-1.0000000000000000E+20
 30
-1.0000000000000000E+20
  9
$PLIMMIN
 10
0.0
 20
0.0
  9
$PLIMMAX
 10
12.0
 20
9.0
  9
$UNITMODE
 70
               0
  9
$VISRETAIN
 70
               0
  9
$PLINEGEN
 70
               1
  9
$PSLTSCALE
 70
               0
  9
$TREEDEPTH
 70
            3020
  9
$CMLSTYLE
  2
Standard
  9
$CMLJUST
 70
               0
  9
$CMLSCALE
 40
1.0
  9
$PROXYGRAPHICS
 70
               0
  9
$MEASUREMENT
 70
               1
  9
$CELWEIGHT
370
               0
  9
$ENDCAPS
280
               0
  9
$JOINSTYLE
280
               0
  9
$LWDISPLAY
290
               1
  9
$INSUNITS
 70
               4
  9
$HYPERLINKBASE
  1

  9
$STYLESHEET
  1

  9
$XEDIT
290
               1
  9
$CEPSNTYPE
380
               0
  9
$PSTYLEMODE
290
               1
  9
$FINGERPRINTGUID
  2

  9
$VERSIONGUID
  2

  9
$EXTNAMES
290
               1
  9
$PSVPSCALE
 40
0.0
  0
ENDSEC
  0
SECTION
  2
CLASSES
  0
CLASS
  1
LWPOLYLINE
  2
AcDbPolyline
  3
AutoCAD 2000
 90
        0
280
               0
281
               1
  0
CLASS
  1
IMAGE
  2
AcDbRasterImage
  3
ISM
 90
      127
280
               0
281
               1
  0
CLASS
  1
OLE2FRAME
  2
AcDbOle2Frame
  3
AutoCAD 2000
 90
        0
280
               0
281
               1
  0
CLASS
  1
HATCH
  2
AcDbHatch
  3
AutoCAD 2000
 90
        0
280
               0
281
               1
  0
CLASS
  1
DICTIONARYVAR
  2
AcDbDictionaryVar
  3
AutoCAD 2000
 90
        0
280
               0
281
               0
  0
CLASS
  1
RASTERVARIABLES
  2
AcDbRasterVariables
  3
ISM
 90
        0
280
               0
281
               0
  0
CLASS
  1
IMAGEDEF
  2
AcDbRasterImageDef
  3
ISM
 90
        0
280
               0
281
               0
  0
CLASS
  1
IMAGEDEF_REACTOR
  2
AcDbRasterImageDefReactor
  3
ISM
 90
        1
280
               0
281
               0
  0
CLASS
  1
IDBUFFER
  2
AcDbIdBuffer
  3
AutoCAD 2000
 90
        0
280
               0
281
               0
  0
CLASS
  1
SPATIAL_FILTER
  2
AcDbSpatialFilter
  3
AutoCAD 2000
 90
        0
280
               0
281
               0
  0
CLASS
  1
XRECORD
  2
AcDbXrecord
  3
AutoCAD 2000
 90
        0
280
               0
281
               0
  0
CLASS
  1
SORTENTSTABLE
  2
AcDbSortentsTable
  3
AutoCAD 2000
 90
        0
280
               0
281
               0
  0
CLASS
  1
LAYER_INDEX
  2
AcDbLayerIndex
  3
AutoCAD 2000
 90
        0
280
               0
281
               0
  0
CLASS
  1
SPATIAL_INDEX
  2
AcDbSpatialIndex
  3
AutoCAD 2000
 90
        0
280
               0
281
               0
  0
CLASS
  1
OBJECT_PTR
  2
CAseDLPNTableRecord
  3
"ASE-LPNTableRecord"
 90
        1
280
               0
281
               0
  0
CLASS
  1
LAYOUT
  2
AcDbLayout
  3
AutoCAD 2000
 90
        0
280
               0
281
               0
  0
CLASS
  1
PLOTSETTINGS
  2
AcDbPlotSettings
  3
AutoCAD 2000
 90
        0
280
               0
281
               0
  0
CLASS
  1
ACDBDICTIONARYWDFLT
  2
AcDbDictionaryWithDefault
  3
AutoCAD 2000
 90
        0
280
               0
281
               0
  0
CLASS
  1
ACDBPLACEHOLDER
  2
AcDbPlaceHolder
  3
AutoCAD 2000
 90
        0
280
               0
281
               0
  0
ENDSEC
  0
SECTION
  2
TABLES
  0
TABLE
  2
VPORT
  5
7
100
AcDbSymbolTable
 70
               1
  0
VPORT
  5
15
100
AcDbSymbolTableRecord
100
AcDbViewportTableRecord
  2
*ACTIVE
 70
               0
 10
0.0
 20
0.0
 11
1.0
 21
1.0
 12
0.0
 22
-12.764114914906713
 13
0.0
 23
0.0
 14
1.0
 24
1.0
 15
0.0
 25
0.0
 16
0.0
 26
0.0
 36
1.0
 17
0.0
 27
0.0
 37
0.0
 40
2837.5228151124124
 41
0.688564
 42
50.0
 43
0.0
 44
0.0
 50
0.0
 51
0.0
 71
               0
 72
            2000
 73
               1
 74
               1
 75
               0
 76
               0
 77
               0
 78
               0
281
               0
 65
               0
110
0.0
120
0.0
130
0.0
111
1.0
121
0.0
131
0.0
112
0.0
122
1.0
132
0.0
345
0
346
0
 79
               0
146
0.0
  0
ENDTAB
  0
TABLE
  2
LTYPE
  5
4
100
AcDbSymbolTable
 70
              15
  0
LTYPE
  5
11
100
AcDbSymbolTableRecord
100
AcDbLinetypeTableRecord
  2
ByBlock
 70
              64
  3

 72
              65
 73
               0
 40
0.0
  0
LTYPE
  5
12
100
AcDbSymbolTableRecord
100
AcDbLinetypeTableRecord
  2
ByLayer
 70
              64
  3

 72
              65
 73
               0
 40
0.0
  0
LTYPE
  5
13
100
AcDbSymbolTableRecord
100
AcDbLinetypeTableRecord
  2
Continuous
 70
              64
  3
Solid line
 72
              65
 73
               0
 40
0.0
  0
LTYPE
  5
3D
100
AcDbSymbolTableRecord
100
AcDbLinetypeTableRecord
  2
STYLE_01
 70
               0
  3

 72
              65
 73
               2
 40
0.1875
 49
0.125
 74
               0
 49
-0.0625
 74
               0
  0
LTYPE
  5
3E
100
AcDbSymbolTableRecord
100
AcDbLinetypeTableRecord
  2
STYLE_02
 70
               0
  3

 72
              65
 73
               4
 40
0.4999999999999999
 49
0.25
 74
               0
 49
-0.125
 74
               0
 49
0.0005
 74
               0
 49
-0.1245
 74
               0
  0
LTYPE
  5
3F
100
AcDbSymbolTableRecord
100
AcDbLinetypeTableRecord
  2
STYLE_03
 70
               0
  3

 72
              65
 73
               2
 40
1.25
 49
1.0416400000000001
 74
               0
 49
-0.2083599999999999
 74
               0
  0
LTYPE
  5
40
100
AcDbSymbolTableRecord
100
AcDbLinetypeTableRecord
  2
STYLE_04
 70
               0
  3

 72
              65
 73
               2
 40
1.5277099999999999
 49
1.3194249999999998
 74
               0
 49
-0.208285
 74
               0
  0
LTYPE
  5
41
100
AcDbSymbolTableRecord
100
AcDbLinetypeTableRecord
  2
STYLE_05
 70
               0
  3

 72
              65
 73
               2
 40
0.20828
 49
0.069425
 74
               0
 49
-0.138855
 74
               0
  0
LTYPE
  5
42
100
AcDbSymbolTableRecord
100
AcDbLinetypeTableRecord
  2
STYLE_06
 70
               0
  3

 72
              65
 73
               4
 40
1.0416400000000001
 49
0.625
 74
               0
 49
-0.20828
 74
               0
 49
0.06943
 74
               0
 49
-0.13893
 74
               0
  0
LTYPE
  5
43
100
AcDbSymbolTableRecord
100
AcDbLinetypeTableRecord
  2
STYLE_07
 70
               0
  3

 72
              65
 73
               6
 40
1.875
 49
0.625
 74
               0
 49
-0.20828
 74
               0
 49
0.6250000000000001
 74
               0
 49
-0.2083599999999999
 74
               0
 49
0.06943
 74
               0
 49
-0.1389299999999999
 74
               0
  0
LTYPE
  5
44
100
AcDbSymbolTableRecord
100
AcDbLinetypeTableRecord
  2
STYLE_08
 70
               0
  3

 72
              65
 73
               6
 40
1.25
 49
0.625
 74
               0
 49
-0.20828
 74
               0
 49
0.06943
 74
               0
 49
-0.13893
 74
               0
 49
0.0694299999999999
 74
               0
 49
-0.13893
 74
               0
  0
LTYPE
  5
45
100
AcDbSymbolTableRecord
100
AcDbLinetypeTableRecord
  2
STYLE_09
 70
               0
  3

 72
              65
 73
               4
 40
5.0
 49
3.75
 74
               0
 49
-0.2777849999999998
 74
               0
 49
0.6944300000000003
 74
               0
 49
-0.2777849999999998
 74
               0
  0
LTYPE
  5
46
100
AcDbSymbolTableRecord
100
AcDbLinetypeTableRecord
  2
STYLE_10
 70
               0
  3

 72
              65
 73
               6
 40
5.9375
 49
3.75
 74
               0
 49
-0.2777849999999998
 74
               0
 49
0.6944300000000003
 74
               0
 49
-0.2777849999999998
 74
               0
 49
0.625
 74
               0
 49
-0.3125
 74
               0
  0
LTYPE
  5
47
100
AcDbSymbolTableRecord
100
AcDbLinetypeTableRecord
  2
STYLE_11
 70
               0
  3

 72
              65
 73
               2
 40
0.0694444881889764
 49
0.0347222440944882
 74
               0
 49
-0.0347222440944882
 74
               0
  0
LTYPE
  5
48
100
AcDbSymbolTableRecord
100
AcDbLinetypeTableRecord
  2
STYLE_12
 70
               0
  3

 72
              65
 73
               2
 40
0.3937007874015748
 49
0.1968503937007874
 74
               0
 49
-0.1968503937007874
 74
               0
  0
ENDTAB
  0
TABLE
  2
LAYER
  5
2
100
AcDbSymbolTable
 70
               6
  0
LAYER
  5
14
100
AcDbSymbolTableRecord
100
AcDbLayerTableRecord
  2
0
 70
               0
 62
               7
  6
Continuous
290
               1
370
              -3
390
1D
  0
LAYER
  5
49
100
AcDbSymbolTableRecord
100
AcDbLayerTableRecord
  2
Defpoints
 70
               0
 62
               7
  6
Continuous
290
               0
370
              -3
390
1D
  0
LAYER
  5
4A
100
AcDbSymbolTableRecord
100
AcDbLayerTableRecord
  2
template
 70
               0
 62
               7
  6
Continuous
290
               1
370
              -3
390
1D
  0
LAYER
  5
4B
100
AcDbSymbolTableRecord
100
AcDbLayerTableRecord
  2
cut
 70
               0
 62
               7
  6
Continuous
290
               1
370
              -3
390
1D
  0
LAYER
  5
4C
100
AcDbSymbolTableRecord
100
AcDbLayerTableRecord
  2
notes
 70
               0
 62
               7
  6
Continuous
290
               1
370
              -3
390
1D
  0
LAYER
  5
4D
100
AcDbSymbolTableRecord
100
AcDbLayerTableRecord
  2
ADF70-0603
 70
               0
 62
               7
  6
Continuous
290
               1
370
              -3
390
1D
  0
ENDTAB
  0
TABLE
  2
STYLE
  5
3
100
AcDbSymbolTable
 70
               3
  0
STYLE
  5
17
100
AcDbSymbolTableRecord
100
AcDbTextStyleTableRecord
  2
Standard
 70
               0
 40
0.0
 41
1.0
 50
0.0
 71
               0
 42
0.0
  3
txt
  4
BIGFONT.SHX
  0
STYLE
  5
3B
100
AcDbSymbolTableRecord
100
AcDbTextStyleTableRecord
  2
ＭＳ ゴシック
 70
               0
 40
0.0
 41
1.0
 50
0.0
 71
               0
 42
0.0
  3

  4
ＭＳ ゴシック
1001
ACAD
1000
ＭＳ ゴシック
1071
        0
  0
STYLE
  5
3C
100
AcDbSymbolTableRecord
100
AcDbTextStyleTableRecord
  2
ＭＳゴシック
 70
               0
 40
0.0
 41
1.0
 50
0.0
 71
               0
 42
0.0
  3

  4
ＭＳゴシック
1001
ACAD
1000
ＭＳゴシック
1071
        0
  0
ENDTAB
  0
TABLE
  2
VIEW
  5
5
100
AcDbSymbolTable
 70
               0
  0
ENDTAB
  0
TABLE
  2
UCS
  5
6
100
AcDbSymbolTable
 70
               0
  0
ENDTAB
  0
TABLE
  2
APPID
  5
8
100
AcDbSymbolTable
 70
               1
  0
APPID
  5
16
100
AcDbSymbolTableRecord
100
AcDbRegAppTableRecord
  2
ACAD
 70
               0
  0
ENDTAB
  0
TABLE
  2
DIMSTYLE
  5
9
100
AcDbSymbolTable
 70
               3
100
AcDbDimStyleTable
 71
               0
  0
DIMSTYLE
105
18
100
AcDbSymbolTableRecord
100
AcDbDimStyleTableRecord
  2
Standard
 70
               0
  3

  4

 40
1.0
 41
0.18
 42
0.0625
 43
0.38
 44
0.18
 45
0.0
 46
0.0
 47
0.0
 48
0.0
 71
               0
 72
               0
 73
               1
 74
               1
 75
               0
 76
               0
 77
               0
 78
               0
 79
               0
140
0.18
141
0.09
142
0.0
143
25.399999999999999
144
1.0
145
0.0
146
1.0
147
0.09
148
0.0
170
               0
171
               2
172
               0
173
               0
174
               0
175
               0
176
               0
177
               0
178
               0
179
               0
271
               4
272
               4
273
               2
274
               2
275
               0
276
               0
277
               2
278
              46
279
               0
280
               0
281
               0
282
               0
283
               1
284
               0
285
               0
286
               0
288
               0
289
               3
340
17
341
0
342
0
343
0
344
0
371
              -2
372
              -2
  0
DIMSTYLE
105
56
100
AcDbSymbolTableRecord
100
AcDbDimStyleTableRecord
  2
tform線あり
 70
               0
  3
<>
  4
[]
 40
1.0
 41
3.999755859375
 42
24.999999999999996
 43
0.9999999999999999
 44
0.0
 45
0.0
 46
0.0
 47
0.0
 48
0.0
 71
               0
 72
               0
 73
               0
 74
               0
 75
               0
 76
               0
 77
               1
 78
              11
 79
               0
140
24.432617187500004
141
0.0
142
0.0
143
1.0
144
1.0
145
0.0
146
1.0
147
0.4999999999999999
148
0.0
170
               0
171
               1
172
               0
173
               0
174
               1
175
               0
176
               0
177
               0
178
               0
179
               2
271
               1
272
               1
273
               2
274
               2
275
               0
276
               2
277
               2
278
              46
279
               0
280
               0
281
               0
282
               0
283
               1
284
              11
285
              11
286
              11
288
               0
289
               0
340
3C
341
4E
342
4E
343
0
344
0
371
              -2
372
              -2
  0
DIMSTYLE
105
5B
100
AcDbSymbolTableRecord
100
AcDbDimStyleTableRecord
  2
JIS
 70
               0
  3
<>
  4
[]
 40
1.0
 41
31.75
 42
0.0
 43
6.9999999999999396
 44
19.999999999996199
 45
0.0
 46
0.0
 47
0.0
 48
0.0
 71
               0
 72
               0
 73
               0
 74
               0
 75
               0
 76
               0
 77
               1
 78
              11
 79
               0
140
24.432617187500004
141
0.0
142
0.0
143
1.0
144
1.0
145
0.0
146
1.0
147
1.00000000000108
148
0.0
170
               0
171
               1
172
               0
173
               0
174
               1
175
               0
176
               0
177
               0
178
               0
179
               2
271
               1
272
               1
273
               2
274
               2
275
               0
276
               2
277
               2
278
              46
279
               0
280
               0
281
               0
282
               0
283
               1
284
              11
285
              11
286
              11
288
               0
289
               0
340
3C
341
57
342
57
343
0
344
0
371
              -2
372
              -2
  0
ENDTAB
  0
TABLE
  2
BLOCK_RECORD
  5
1
100
AcDbSymbolTable
 70
              26
  0
BLOCK_RECORD
  5
A
100
AcDbSymbolTableRecord
100
AcDbBlockTableRecord
  2
*MODEL_SPACE
340
20
  0
BLOCK_RECORD
  5
B
100
AcDbSymbolTableRecord
100
AcDbBlockTableRecord
  2
*PAPER_SPACE
340
21
  0
BLOCK_RECORD
  5
4E
100
AcDbSymbolTableRecord
100
AcDbBlockTableRecord
  2
_DOT
340
0
  0
BLOCK_RECORD
  5
57
100
AcDbSymbolTableRecord
100
AcDbBlockTableRecord
  2
VW_FILLEDARROW
340
0
  0
BLOCK_RECORD
  5
23
100
AcDbSymbolTableRecord
100
AcDbBlockTableRecord
  2
グループ
340
0
102
{BLKREFS
331
1B0
102
}
  0
BLOCK_RECORD
  5
24
100
AcDbSymbolTableRecord
100
AcDbBlockTableRecord
  2
*D3
340
0
  0
BLOCK_RECORD
  5
25
100
AcDbSymbolTableRecord
100
AcDbBlockTableRecord
  2
*D4
340
0
  0
BLOCK_RECORD
  5
26
100
AcDbSymbolTableRecord
100
AcDbBlockTableRecord
  2
*D5
340
0
  0
BLOCK_RECORD
  5
27
100
AcDbSymbolTableRecord
100
AcDbBlockTableRecord
  2
グループ-1
340
0
102
{BLKREFS
331
1BF
102
}
  0
BLOCK_RECORD
  5
28
100
AcDbSymbolTableRecord
100
AcDbBlockTableRecord
  2
*D7
340
0
  0
BLOCK_RECORD
  5
29
100
AcDbSymbolTableRecord
100
AcDbBlockTableRecord
  2
*D8
340
0
  0
BLOCK_RECORD
  5
2A
100
AcDbSymbolTableRecord
100
AcDbBlockTableRecord
  2
*D9
340
0
  0
BLOCK_RECORD
  5
2B
100
AcDbSymbolTableRecord
100
AcDbBlockTableRecord
  2
*D10
340
0
  0
BLOCK_RECORD
  5
2C
100
AcDbSymbolTableRecord
100
AcDbBlockTableRecord
  2
*D11
340
0
  0
BLOCK_RECORD
  5
2D
100
AcDbSymbolTableRecord
100
AcDbBlockTableRecord
  2
*D12
340
0
  0
BLOCK_RECORD
  5
2E
100
AcDbSymbolTableRecord
100
AcDbBlockTableRecord
  2
*D13
340
0
  0
BLOCK_RECORD
  5
2F
100
AcDbSymbolTableRecord
100
AcDbBlockTableRecord
  2
*D14
340
0
  0
BLOCK_RECORD
  5
30
100
AcDbSymbolTableRecord
100
AcDbBlockTableRecord
  2
*D15
340
0
  0
BLOCK_RECORD
  5
31
100
AcDbSymbolTableRecord
100
AcDbBlockTableRecord
  2
*D16
340
0
  0
BLOCK_RECORD
  5
32
100
AcDbSymbolTableRecord
100
AcDbBlockTableRecord
  2
*D17
340
0
  0
BLOCK_RECORD
  5
33
100
AcDbSymbolTableRecord
100
AcDbBlockTableRecord
  2
*D18
340
0
  0
BLOCK_RECORD
  5
34
100
AcDbSymbolTableRecord
100
AcDbBlockTableRecord
  2
*D19
340
0
  0
BLOCK_RECORD
  5
35
100
AcDbSymbolTableRecord
100
AcDbBlockTableRecord
  2
*D20
340
0
  0
BLOCK_RECORD
  5
36
100
AcDbSymbolTableRecord
100
AcDbBlockTableRecord
  2
*D21
340
0
  0
BLOCK_RECORD
  5
37
100
AcDbSymbolTableRecord
100
AcDbBlockTableRecord
  2
*D22
340
0
  0
BLOCK_RECORD
  5
38
100
AcDbSymbolTableRecord
100
AcDbBlockTableRecord
  2
*D23
340
0
  0
BLOCK_RECORD
  5
39
100
AcDbSymbolTableRecord
100
AcDbBlockTableRecord
  2
*D24
340
0
  0
BLOCK_RECORD
  5
3A
100
AcDbSymbolTableRecord
100
AcDbBlockTableRecord
  2
*D25
340
0
  0
ENDTAB
  0
ENDSEC
  0
SECTION
  2
BLOCKS
  0
BLOCK
  5
D
100
AcDbEntity
  8
0
390
0
100
AcDbBlockBegin
  2
*MODEL_SPACE
 70
               0
 10
0.0
 20
0.0
 30
0.0
  3
*MODEL_SPACE
  1

  0
ENDBLK
  5
E
100
AcDbEntity
  8
0
390
0
100
AcDbBlockEnd
  0
BLOCK
  5
F
100
AcDbEntity
 67
               1
  8
0
390
0
100
AcDbBlockBegin
  2
*PAPER_SPACE
 70
               0
 10
0.0
 20
0.0
 30
0.0
  3
*PAPER_SPACE
  1

  0
ENDBLK
  5
10
100
AcDbEntity
 67
               1
  8
0
390
0
100
AcDbBlockEnd
  0
BLOCK
  5
4F
100
AcDbEntity
  8
0
390
0
100
AcDbBlockBegin
  2
_DOT
 70
               0
 10
0.0
 20
0.0
 30
0.0
  3
_DOT
  1

  0
POLYLINE
  5
50
100
AcDbEntity
  8
0
370
              -2
390
0
  6
ByBlock
 62
               0
100
AcDb2dPolyline
 66
               1
 10
0.0
 20
0.0
 30
0.0
 70
               1
 40
0.5
 41
0.5
  0
VERTEX
  5
51
100
AcDbEntity
  8
0
370
              -2
390
0
  6
ByBlock
 62
               0
100
AcDbVertex
100
AcDb2dVertex
 10
-0.25
 20
0.0
 30
0.0
 42
1.0
  0
VERTEX
  5
52
100
AcDbEntity
  8
0
370
              -2
390
0
  6
ByBlock
 62
               0
100
AcDbVertex
100
AcDb2dVertex
 10
0.25
 20
0.0
 30
0.0
 42
1.0
  0
SEQEND
  5
53
100
AcDbEntity
  8
0
390
0
  0
LINE
  5
54
100
AcDbEntity
  8
0
370
              -2
390
0
  6
ByBlock
 62
               0
100
AcDbLine
 10
-0.5
 20
0.0
 30
0.0
 11
-1.0
 21
0.0
 31
0.0
  0
ENDBLK
  5
55
100
AcDbEntity
  8
0
390
0
100
AcDbBlockEnd
  0
BLOCK
  5
58
100
AcDbEntity
  8
0
370
              -2
390
0
  6
ByBlock
 62
               0
100
AcDbBlockBegin
  2
VW_FILLEDARROW
 70
               0
 10
0.0
 20
0.0
 30
0.0
  3
VW_FILLEDARROW
  1

  0
SOLID
  5
59
100
AcDbEntity
  8
0
370
              -2
390
0
 62
               0
100
AcDbTrace
 10
0.0
 20
0.0
 30
0.0
 11
-0.9921874999999999
 21
-0.2658558393652545
 31
0.0
 12
-0.9921874999999999
 22
0.2658558393652548
 32
0.0
 13
-0.9921874999999999
 23
0.2658558393652548
 33
0.0
  0
ENDBLK
  5
5A
100
AcDbEntity
  8
0
390
0
100
AcDbBlockEnd
  0
BLOCK
  5
5C
100
AcDbEntity
  8
template
390
0
100
AcDbBlockBegin
  2
グループ
 70
               0
 10
0.0
 20
0.0
 30
0.0
  3
グループ
  1

  0
LWPOLYLINE
  5
5D
100
AcDbEntity
  8
0
370
              15
390
0
  6
Continuous
 62
               7
100
AcDbPolyline
 90
        8
 70
             129
 10
514.41599562136821
 20
-1142.5772355327247
 10
514.41599562136821
 20
-1148.5746242263006
 10
504.91479870336485
 20
-1148.5746242263006
 10
504.91479870336485
 20
-1173.0255874898094
 10
496.55942144158206
 20
-1173.0255874898094
 10
496.55942144158206
 20
-1148.5746242263006
 10
487.22646449527264
 20
-1148.5746242263006
 10
487.22646449527264
 20
-1142.5772355327247
  0
LWPOLYLINE
  5
5E
100
AcDbEntity
  8
0
370
              15
390
0
  6
Continuous
 62
               7
100
AcDbPolyline
 90
      101
 70
             128
 10
527.14428745192504
 20
-1143.3054840256611
 10
527.15963748070681
 20
-1143.3011232689769
 42
-0.0222221607814026
 10
527.4496420573812
 20
-1143.2324988037315
 10
527.46543582137917
 20
-1143.2294953806336
 42
-0.0146883565583658
 10
527.72813852659897
 20
-1143.1874921936851
 42
-0.0127458844187891
 10
527.99277749374767
 20
-1143.159955225613
 10
528.05523257206482
 20
-1143.1550618030244
 42
-0.0198099018567725
 10
528.44608168154014
 20
-1143.1399766456279
 10
528.49789315098542
 20
-1143.140030421293
 42
-0.0147617382765274
 10
528.99251661195638
 20
-1143.1551504465376
 10
529.06520806683636
 20
-1143.1595230534256
 42
-0.0162624549002986
 10
529.45536169629918
 20
-1143.1957559286977
 10
529.5768940875646
 20
-1143.2110424876951
 42
-0.0080020874661687
 10
529.72247311864987
 20
-1143.2317253349627
 10
529.76079258923073
 20
-1143.2377966127715
 42
-0.0053821929683088
 10
529.82927669455967
 20
-1143.2494041365953
 10
529.10287099536117
 20
-1145.4303325923092
 42
0.0108667757397007
 10
529.03555392522696
 20
-1145.4171454770888
 10
528.99808590204077
 20
-1145.4106477344949
 42
0.0170663203310943
 10
528.85486911512635
 20
-1145.3908181372033
 10
528.78699378244232
 20
-1145.3837709666157
 42
0.0220162375273891
 10
528.50661437458837
 20
-1145.3670886058455
 10
528.4287588075349
 20
-1145.365889238579
 42
0.0282606915783937
 10
528.09312248395702
 20
-1145.379692515548
 10
528.04920921018288
 20
-1145.3839925055518
 42
0.0169677213687025
 10
527.80328471522569
 20
-1145.4165295551038
 42
0.0190576269870187
 10
527.56037675264554
 20
-1145.4666764272101
 10
527.55411756453475
 20
-1145.4682194013194
 42
0.0213685642842498
 10
527.30373308005653
 20
-1145.5414196864242
 10
527.29824318514079
 20
-1145.5432826824831
 42
0.0237595297594049
 10
527.04474830024083
 20
-1145.6429672043794
 10
527.03964622621243
 20
-1145.6452589798569
 42
0.0261857468811547
 10
526.78747544998419
 20
-1145.7747953172304
 10
526.777049260897
 20
-1145.7808607916988
 42
0.0272553062017181
 10
526.54061948565709
 20
-1145.9362329976443
 10
526.50585647214712
 20
-1145.9618941457368
 42
0.0325996893178025
 10
526.35570112849609
 20
-1146.0886420187078
 10
526.33199169937109
 20
-1146.1114600472224
 42
0.013805096063754
 10
526.24010854316293
 20
-1146.2049097087724
 42
0.0125280103798276
 10
526.15326601033223
 20
-1146.3030730353689
 10
526.12958556542105
 20
-1146.3312315335597
 42
0.0205218024730677
 10
526.00448548990641
 20
-1146.4930248477899
 10
525.98201914942024
 20
-1146.5246845776157
 42
0.0163110129582301
 10
525.82630877017095
 20
-1146.7600150126825
 10
525.82358487411796
 20
-1146.7644387746711
 42
0.0131897341904448
 10
525.67678435320886
 20
-1147.0175708670413
 10
525.67508425784558
 20
-1147.0206891061712
 42
0.0107895576061673
 10
525.53730755563504
 20
-1147.2869043158057
 10
525.53657466610969
 20
-1147.288398548453
 42
0.0091371507218305
 10
525.40809471745933
 20
-1147.5629237462144
 10
525.378349086051
 20
-1147.6296302533715
 42
0.0135418326351237
 10
525.20663514697901
 20
-1148.0445680386413
 10
525.17303033854716
 20
-1148.1324341809161
 42
0.0092834542408606
 10
525.00180127862416
 20
-1148.6063326792269
 10
524.97618415090199
 20
-1148.6815737490335
 42
0.0054261043581863
 10
524.86854600261358
 20
-1149.0093377220851
 10
524.85102001642736
 20
-1149.0647258843433
 42
0.000822509081558
 10
524.78234996460606
 20
-1149.2829946424645
 10
523.79766083267259
 20
-1152.3078859357211
 10
527.03028467274657
 20
-1152.3078859357211
 10
526.52609224289313
 20
-1154.2123642340734
 10
523.27003596090981
 20
-1154.2123642340734
 10
517.44088692855598
 20
-1173.0255873000783
 10
515.61578931824556
 20
-1173.0255873000783
 10
521.45046735374649
 20
-1154.2123642340734
 10
519.04535098470615
 20
-1154.2123642340734
 10
519.54954341455959
 20
-1152.3078859357211
 10
521.97809222550973
 20
-1152.3078859357211
 10
522.83824714369825
 20
-1149.6714729350222
 42
-0.0005863560622807
 10
522.87498182188108
 20
-1149.5546465147961
 10
522.95106965556226
 20
-1149.313654215345
 42
-0.0087522378929913
 10
523.15053779901757
 20
-1148.7183781282029
 10
523.24280207443178
 20
-1148.4582379596877
 42
-0.0077400953829738
 10
523.50073573356372
 20
-1147.7652332821372
 10
523.51650070514586
 20
-1147.7248023987429
 42
-0.0082369946329987
 10
523.76358517575454
 20
-1147.1207233325554
 42
-0.0085725238364229
 10
524.03083127175637
 20
-1146.5252972932706
 10
524.13246087276718
 20
-1146.3088761912784
 42
-0.0168109410595838
 10
524.41940530149475
 20
-1145.7476686651789
 10
524.5452486919188
 20
-1145.5207046322441
 42
-0.0007817726856607
 10
524.59953304201042
 20
-1145.4231603871503
 10
524.59966134802016
 20
-1145.4229306784275
 42
-0.0036626142157881
 10
524.65454921204901
 20
-1145.3263327984455
 42
-0.0080221150670984
 10
524.71167346745892
 20
-1145.2310535636875
 10
524.7423734188169
 20
-1145.1816626145705
 42
-0.020213932557516
 10
524.87002915862331
 20
-1144.9936810138895
 10
524.92409662381124
 20
-1144.9206021496482
 42
-0.0249323791800196
 10
525.18325941752937
 20
-1144.604556907495
 10
525.2073992316574
 20
-1144.5779426345812
 42
-0.0242132121539114
 10
525.54707997319656
 20
-1144.2380591483798
 10
525.59499154595096
 20
-1144.1945500121903
 42
-0.0251017527858837
 10
525.8789732465907
 20
-1143.9615572664266
 10
525.88041872340352
 20
-1143.9604880088482
 42
-0.0130868069040295
 10
526.17867937336177
 20
-1143.751707540305
 10
526.18024119250265
 20
-1143.7506741000311
 42
-0.0290329526392199
 10
526.49135233389779
 20
-1143.5698485984008
 10
526.52119789588323
 20
-1143.5547462155614
 42
-0.0160250190048317
 10
526.7871023096485
 20
-1143.4307301053477
 42
-0.0267600374782374
 10
527.06237838711775
 20
-1143.3299817847992
 10
527.08911430663807
 20
-1143.3217892259736
 42
-0.0049981587669928
 10
527.14428745192504
 20
-1143.3054840256611
 42
-0.0049981587669928
  0
LWPOLYLINE
  5
5F
100
AcDbEntity
  8
0
370
              15
390
0
  6
Continuous
 62
               7
100
AcDbPolyline
 90
      118
 70
             128
 10
546.95865501637195
 20
-1152.3818692635484
 10
548.83377694087153
 20
-1152.3818692635484
 10
547.99573803527164
 20
-1155.0634357899485
 42
-0.0010587229245241
 10
548.02719385086675
 20
-1155.0265312565659
 10
548.08538794147546
 20
-1154.9585490004174
 42
-0.0071874740406837
 10
548.23576315956848
 20
-1154.787908308394
 10
548.37748593283584
 20
-1154.6316721670751
 42
-0.01481180535121
 10
548.82761522555131
 20
-1154.1640583210594
 10
548.91483756044647
 20
-1154.0786610002124
 42
-0.0086273358691157
 10
549.25038636145871
 20
-1153.7612853661922
 10
549.29422007768267
 20
-1153.7212357218609
 42
-0.0103138323113868
 10
549.55224377991806
 20
-1153.4950725845208
 10
549.59801818624385
 20
-1153.4565905372617
 42
-0.006020674856387
 10
549.77086625035736
 20
-1153.3147958865061
 10
549.77289738124227
 20
-1153.3131701808757
 42
-0.0067069027286091
 10
549.94519019590587
 20
-1153.1790195470799
 10
549.94773896182892
 20
-1153.1770893772068
 42
-0.0076184352045024
 10
550.11864422770327
 20
-1153.0517145019608
 42
-0.0089652861669094
 10
550.29360519044201
 20
-1152.9320812416256
 10
550.32995691058136
 20
-1152.9081700281463
 42
-0.0156916245935695
 10
550.52591640774278
 20
-1152.7879075416708
 42
-0.0023299011061145
 10
550.72617845168895
 20
-1152.6747296021488
 10
550.74156258410244
 20
-1152.6661296070654
 42
-0.0107669341487122
 10
550.97579940920446
 20
-1152.5417294737156
 10
550.9980642102787
 20
-1152.5305127237659
 42
-0.007805804589798
 10
551.28165432822561
 20
-1152.3931512681302
 10
551.29156141594058
 20
-1152.388542140259
 42
-0.0181829330467043
 10
551.60187082056132
 20
-1152.2576783991613
 10
551.65592626311991
 20
-1152.237163279221
 42
-0.0208411536029568
 10
552.00501123057313
 20
-1152.1210728167266
 10
552.01936733069954
 20
-1152.1169543717735
 42
-0.0222799817137052
 10
552.3480871246179
 20
-1152.0383128056328
 10
552.3569760878529
 20
-1152.0366007950481
 42
-0.0215509523884655
 10
552.67344705613471
 20
-1151.9896851065137
 10
552.715929017181
 20
-1151.9852475797229
 42
-0.0182545924872772
 10
552.95003779648891
 20
-1151.9694037543318
 10
552.98943881283014
 20
-1151.9681792092529
 42
-0.0072962856539052
 10
553.14536169252585
 20
-1151.9656098807304
 10
553.17446136310934
 20
-1151.9655550453267
 42
-0.0059227516303443
 10
553.27221086224279
 20
-1151.966528757117
 10
553.30145307971532
 20
-1151.9671665237204
 42
-0.0011833111904845
 10
553.34070436344723
 20
-1151.9681155280305
 10
552.54531776784006
 20
-1154.5068494731295
 42
0.0143932051541561
 10
552.51891638548943
 20
-1154.4966505030841
 10
552.51164441307208
 20
-1154.4940792842267
 42
0.023438860349752
 10
552.46981354714057
 20
-1154.4814600485117
 10
552.46113188422726
 20
-1154.4792790865065
 42
0.0199162742972659
 10
552.40084305014773
 20
-1154.4666623511714
 10
552.38002911234105
 20
-1154.4631651517429
 42
0.0293643550672353
 10
552.27695425358229
 20
-1154.4520151060899
 10
552.25226907286162
 20
-1154.4508034890712
 42
0.0214606686870364
 10
552.09912815690836
 20
-1154.4498649286538
 10
552.08975624609127
 20
-1154.4502098401981
 42
0.0167564054184735
 10
551.91823605498541
 20
-1154.4622868825659
 10
551.90977626222377
 20
-1154.4631682229933
 42
0.0137677553242894
 10
551.72242294896012
 20
-1154.4879175315364
 10
551.71507120945125
 20
-1154.4890954515047
 42
0.0118497261479869
 10
551.51457344535561
 20
-1154.5261128016925
 10
551.50842343810268
 20
-1154.5273996644139
 42
0.0106421143896313
 10
551.29754255080775
 20
-1154.5762320399913
 10
551.29263374242851
 20
-1154.5774793826738
 42
0.0099746379702285
 10
551.07417527326993
 20
-1154.6376539109874
 10
551.01262723309583
 20
-1154.6559357896192
 42
0.0191613675860625
 10
550.6766427705785
 20
-1154.7699131699069
 10
550.58858299783446
 20
-1154.8036000802306
 42
0.0205274080147477
 10
550.20327622593413
 20
-1154.9694284880568
 10
550.14562694395761
 20
-1154.9970964526265
 42
0.0181256912186603
 10
549.88735000328518
 20
-1155.1327802716069
 10
549.83439461997079
 20
-1155.1630978848218
 42
0.014070924240841
 10
549.68943968534279
 20
-1155.2515925582561
 10
549.6631908167318
 20
-1155.2686493769666
 42
0.0086667884383694
 10
549.57426465518176
 20
-1155.3286520448544
 42
0.0036408192026277
 10
549.48683141714901
 20
-1155.3908329026463
 10
549.45160454267977
 20
-1155.4162738485595
 42
0.0052260781282971
 10
549.295375845286
 20
-1155.5316062351958
 10
549.27916898902913
 20
-1155.5438343458118
 42
0.0050024435894335
 10
549.09316564597009
 20
-1155.6871169140743
 10
549.07784748945517
 20
-1155.6991629365198
 42
0.0136138710274103
 10
548.8674062211287
 20
-1155.874129441434
 10
548.8337383453362
 20
-1155.9037084141473
 42
0.0172815186912981
 10
548.56933480367377
 20
-1156.1527050867708
 10
548.56677245783112
 20
-1156.1552909039178
 42
0.0189403857988868
 10
548.31619065925486
 20
-1156.4280961687191
 10
548.283559165714
 20
-1156.4664401002219
 42
0.0185044199509421
 10
548.09160272673603
 20
-1156.7096886813424
 42
0.008856524390124
 10
547.91314262010701
 20
-1156.9632051014933
 10
547.90396464045909
 20
-1156.9767464812523
 42
0.0157195347225947
 10
547.72074403412421
 20
-1157.2662686905694
 10
547.67466109220015
 20
-1157.3444208875785
 42
0.0095451879775794
 10
547.5095755420565
 20
-1157.6370155299455
 10
547.49842762312608
 20
-1157.6576862020788
 42
0.0100351706251924
 10
547.36638387396749
 20
-1157.9147417625682
 42
0.0086935915425788
 10
547.24405272217246
 20
-1158.1765749079748
 10
547.24073198075894
 20
-1158.1840172309444
 42
0.0072580174865627
 10
547.12038552881461
 20
-1158.4646092225262
 10
547.11712389550769
 20
-1158.4725292485455
 42
0.0060005122617791
 10
546.9979232271653
 20
-1158.7721389191499
 10
546.99471224882348
 20
-1158.7805004470551
 42
0.0049017786974609
 10
546.87581208996858
 20
-1159.0994294276527
 10
546.87264628357559
 20
-1159.1081823648901
 42
0.0039415167597635
 10
546.75321000552401
 20
-1159.446724427288
 10
546.75007890286668
 20
-1159.4558276281793
 42
0.0031035838763064
 10
546.62927411716862
 20
-1159.8142674899677
 10
546.62616407264318
 20
-1159.8236881113276
 42
0.0025070747151407
 10
546.50326272133589
 20
-1160.2023353282464
 10
546.46596882490246
 20
-1160.3192269935246
 42
0.0029081910285479
 10
546.27395052709051
 20
-1160.93339065182
 10
546.23314735857468
 20
-1161.0666138940921
 42
0.0009266453736009
 10
545.96472998423951
 20
-1161.9488383540831
 10
545.94384251164297
 20
-1162.017950233173
 42
-0.000580999366583
 10
545.66650583102808
 20
-1162.9317583398906
 10
545.60022403276128
 20
-1163.1492432720299
 42
-0.001201870816682
 10
545.45323972332596
 20
-1163.627405936571
 10
545.4009198717215
 20
-1163.7961650775624
 42
-0.0002691059608971
 10
545.35735039059182
 20
-1163.9364326977786
 10
542.52439449230269
 20
-1173.0255873000783
 10
540.70640560032416
 20
-1173.0255873000783
 10
546.95865501637195
 20
-1152.3818692635484
  0
SPLINE
  5
60
100
AcDbEntity
  8
0
370
              15
390
0
  6
Continuous
 62
               7
100
AcDbSpline
210
0.0
220
0.0
230
1.0
 70
              13
 71
               2
 72
             782
 73
             779
 74
               0
 42
0.000001
 43
0.000001
 40
0.0
 40
0.0
 40
0.0
 40
1.0
 40
1.0
 40
2.0
 40
2.0
 40
3.0
 40
3.0
 40
4.0
 40
4.0
 40
5.0
 40
5.0
 40
6.0
 40
6.0
 40
7.0
 40
7.0
 40
8.0
 40
8.0
 40
9.0
 40
9.0
 40
10.0
 40
10.0
 40
11.0
 40
11.0
 40
12.0
 40
12.0
 40
13.0
 40
13.0
 40
14.0
 40
14.0
 40
15.0
 40
15.0
 40
16.0
 40
16.0
 40
17.0
 40
17.0
 40
18.0
 40
18.0
 40
19.0
 40
19.0
 40
20.0
 40
20.0
 40
21.0
 40
21.0
 40
22.0
 40
22.0
 40
23.0
 40
23.0
 40
24.0
 40
24.0
 40
25.0
 40
25.0
 40
26.0
 40
26.0
 40
27.0
 40
27.0
 40
28.0
 40
28.0
 40
29.0
 40
29.0
 40
30.0
 40
30.0
 40
31.0
 40
31.0
 40
32.0
 40
32.0
 40
33.0
 40
33.0
 40
34.0
 40
34.0
 40
35.0
 40
35.0
 40
36.0
 40
36.0
 40
37.0
 40
37.0
 40
38.0
 40
38.0
 40
39.0
 40
39.0
 40
40.0
 40
40.0
 40
41.0
 40
41.0
 40
42.0
 40
42.0
 40
43.0
 40
43.0
 40
44.0
 40
44.0
 40
45.0
 40
45.0
 40
46.0
 40
46.0
 40
47.0
 40
47.0
 40
48.0
 40
48.0
 40
49.0
 40
49.0
 40
50.0
 40
50.0
 40
51.0
 40
51.0
 40
52.0
 40
52.0
 40
53.0
 40
53.0
 40
54.0
 40
54.0
 40
55.0
 40
55.0
 40
56.0
 40
56.0
 40
57.0
 40
57.0
 40
58.0
 40
58.0
 40
59.0
 40
59.0
 40
60.0
 40
60.0
 40
61.0
 40
61.0
 40
62.0
 40
62.0
 40
63.0
 40
63.0
 40
64.0
 40
64.0
 40
65.0
 40
65.0
 40
66.0
 40
66.0
 40
67.0
 40
67.0
 40
68.0
 40
68.0
 40
69.0
 40
69.0
 40
70.0
 40
70.0
 40
71.0
 40
71.0
 40
72.0
 40
72.0
 40
73.0
 40
73.0
 40
74.0
 40
74.0
 40
75.0
 40
75.0
 40
76.0
 40
76.0
 40
77.0
 40
77.0
 40
78.0
 40
78.0
 40
79.0
 40
79.0
 40
80.0
 40
80.0
 40
81.0
 40
81.0
 40
82.0
 40
82.0
 40
83.0
 40
83.0
 40
84.0
 40
84.0
 40
85.0
 40
85.0
 40
86.0
 40
86.0
 40
87.0
 40
87.0
 40
88.0
 40
88.0
 40
89.0
 40
89.0
 40
90.0
 40
90.0
 40
91.0
 40
91.0
 40
92.0
 40
92.0
 40
93.0
 40
93.0
 40
94.0
 40
94.0
 40
95.0
 40
95.0
 40
96.0
 40
96.0
 40
97.0
 40
97.0
 40
98.0
 40
98.0
 40
99.0
 40
99.0
 40
100.0
 40
100.0
 40
101.0
 40
101.0
 40
102.0
 40
102.0
 40
103.0
 40
103.0
 40
104.0
 40
104.0
 40
105.0
 40
105.0
 40
106.0
 40
106.0
 40
107.0
 40
107.0
 40
108.0
 40
108.0
 40
109.0
 40
109.0
 40
110.0
 40
110.0
 40
111.0
 40
111.0
 40
112.0
 40
112.0
 40
113.0
 40
113.0
 40
114.0
 40
114.0
 40
115.0
 40
115.0
 40
116.0
 40
116.0
 40
117.0
 40
117.0
 40
118.0
 40
118.0
 40
119.0
 40
119.0
 40
120.0
 40
120.0
 40
121.0
 40
121.0
 40
122.0
 40
122.0
 40
123.0
 40
123.0
 40
124.0
 40
124.0
 40
125.0
 40
125.0
 40
126.0
 40
126.0
 40
127.0
 40
127.0
 40
128.0
 40
128.0
 40
129.0
 40
129.0
 40
130.0
 40
130.0
 40
131.0
 40
131.0
 40
132.0
 40
132.0
 40
133.0
 40
133.0
 40
134.0
 40
134.0
 40
135.0
 40
135.0
 40
136.0
 40
136.0
 40
137.0
 40
137.0
 40
138.0
 40
138.0
 40
139.0
 40
139.0
 40
140.0
 40
140.0
 40
141.0
 40
141.0
 40
142.0
 40
142.0
 40
143.0
 40
143.0
 40
144.0
 40
144.0
 40
145.0
 40
145.0
 40
146.0
 40
146.0
 40
147.0
 40
147.0
 40
148.0
 40
148.0
 40
149.0
 40
149.0
 40
150.0
 40
150.0
 40
151.0
 40
151.0
 40
152.0
 40
152.0
 40
153.0
 40
153.0
 40
154.0
 40
154.0
 40
155.0
 40
155.0
 40
156.0
 40
156.0
 40
157.0
 40
157.0
 40
158.0
 40
158.0
 40
159.0
 40
159.0
 40
160.0
 40
160.0
 40
161.0
 40
161.0
 40
162.0
 40
162.0
 40
163.0
 40
163.0
 40
164.0
 40
164.0
 40
165.0
 40
165.0
 40
166.0
 40
166.0
 40
167.0
 40
167.0
 40
168.0
 40
168.0
 40
169.0
 40
169.0
 40
170.0
 40
170.0
 40
171.0
 40
171.0
 40
172.0
 40
172.0
 40
173.0
 40
173.0
 40
174.0
 40
174.0
 40
175.0
 40
175.0
 40
176.0
 40
176.0
 40
177.0
 40
177.0
 40
178.0
 40
178.0
 40
179.0
 40
179.0
 40
180.0
 40
180.0
 40
181.0
 40
181.0
 40
182.0
 40
182.0
 40
183.0
 40
183.0
 40
184.0
 40
184.0
 40
185.0
 40
185.0
 40
186.0
 40
186.0
 40
187.0
 40
187.0
 40
188.0
 40
188.0
 40
189.0
 40
189.0
 40
190.0
 40
190.0
 40
191.0
 40
191.0
 40
192.0
 40
192.0
 40
193.0
 40
193.0
 40
194.0
 40
194.0
 40
195.0
 40
195.0
 40
196.0
 40
196.0
 40
197.0
 40
197.0
 40
198.0
 40
198.0
 40
199.0
 40
199.0
 40
200.0
 40
200.0
 40
201.0
 40
201.0
 40
202.0
 40
202.0
 40
203.0
 40
203.0
 40
204.0
 40
204.0
 40
205.0
 40
205.0
 40
206.0
 40
206.0
 40
207.0
 40
207.0
 40
208.0
 40
208.0
 40
209.0
 40
209.0
 40
210.0
 40
210.0
 40
211.0
 40
211.0
 40
212.0
 40
212.0
 40
213.0
 40
213.0
 40
214.0
 40
214.0
 40
215.0
 40
215.0
 40
216.0
 40
216.0
 40
217.0
 40
217.0
 40
218.0
 40
218.0
 40
219.0
 40
219.0
 40
220.0
 40
220.0
 40
221.0
 40
221.0
 40
222.0
 40
222.0
 40
223.0
 40
223.0
 40
224.0
 40
224.0
 40
225.0
 40
225.0
 40
226.0
 40
226.0
 40
227.0
 40
227.0
 40
228.0
 40
228.0
 40
229.0
 40
229.0
 40
230.0
 40
230.0
 40
231.0
 40
231.0
 40
232.0
 40
232.0
 40
233.0
 40
233.0
 40
234.0
 40
234.0
 40
235.0
 40
235.0
 40
236.0
 40
236.0
 40
237.0
 40
237.0
 40
238.0
 40
238.0
 40
239.0
 40
239.0
 40
240.0
 40
240.0
 40
241.0
 40
241.0
 40
242.0
 40
242.0
 40
243.0
 40
243.0
 40
244.0
 40
244.0
 40
245.0
 40
245.0
 40
246.0
 40
246.0
 40
247.0
 40
247.0
 40
248.0
 40
248.0
 40
249.0
 40
249.0
 40
250.0
 40
250.0
 40
251.0
 40
251.0
 40
252.0
 40
252.0
 40
253.0
 40
253.0
 40
254.0
 40
254.0
 40
255.0
 40
255.0
 40
256.0
 40
256.0
 40
257.0
 40
257.0
 40
258.0
 40
258.0
 40
259.0
 40
259.0
 40
260.0
 40
260.0
 40
261.0
 40
261.0
 40
262.0
 40
262.0
 40
263.0
 40
263.0
 40
264.0
 40
264.0
 40
265.0
 40
265.0
 40
266.0
 40
266.0
 40
267.0
 40
267.0
 40
268.0
 40
268.0
 40
269.0
 40
269.0
 40
270.0
 40
270.0
 40
271.0
 40
271.0
 40
272.0
 40
272.0
 40
273.0
 40
273.0
 40
274.0
 40
274.0
 40
275.0
 40
275.0
 40
276.0
 40
276.0
 40
277.0
 40
277.0
 40
278.0
 40
278.0
 40
279.0
 40
279.0
 40
280.0
 40
280.0
 40
281.0
 40
281.0
 40
282.0
 40
282.0
 40
283.0
 40
283.0
 40
284.0
 40
284.0
 40
285.0
 40
285.0
 40
286.0
 40
286.0
 40
287.0
 40
287.0
 40
288.0
 40
288.0
 40
289.0
 40
289.0
 40
290.0
 40
290.0
 40
291.0
 40
291.0
 40
292.0
 40
292.0
 40
293.0
 40
293.0
 40
294.0
 40
294.0
 40
295.0
 40
295.0
 40
296.0
 40
296.0
 40
297.0
 40
297.0
 40
298.0
 40
298.0
 40
299.0
 40
299.0
 40
300.0
 40
300.0
 40
301.0
 40
301.0
 40
302.0
 40
302.0
 40
303.0
 40
303.0
 40
304.0
 40
304.0
 40
305.0
 40
305.0
 40
306.0
 40
306.0
 40
307.0
 40
307.0
 40
308.0
 40
308.0
 40
309.0
 40
309.0
 40
310.0
 40
310.0
 40
311.0
 40
311.0
 40
312.0
 40
312.0
 40
313.0
 40
313.0
 40
314.0
 40
314.0
 40
315.0
 40
315.0
 40
316.0
 40
316.0
 40
317.0
 40
317.0
 40
318.0
 40
318.0
 40
319.0
 40
319.0
 40
320.0
 40
320.0
 40
321.0
 40
321.0
 40
322.0
 40
322.0
 40
323.0
 40
323.0
 40
324.0
 40
324.0
 40
325.0
 40
325.0
 40
326.0
 40
326.0
 40
327.0
 40
327.0
 40
328.0
 40
328.0
 40
329.0
 40
329.0
 40
330.0
 40
330.0
 40
331.0
 40
331.0
 40
332.0
 40
332.0
 40
333.0
 40
333.0
 40
334.0
 40
334.0
 40
335.0
 40
335.0
 40
336.0
 40
336.0
 40
337.0
 40
337.0
 40
338.0
 40
338.0
 40
339.0
 40
339.0
 40
340.0
 40
340.0
 40
341.0
 40
341.0
 40
342.0
 40
342.0
 40
343.0
 40
343.0
 40
344.0
 40
344.0
 40
345.0
 40
345.0
 40
346.0
 40
346.0
 40
347.0
 40
347.0
 40
348.0
 40
348.0
 40
349.0
 40
349.0
 40
350.0
 40
350.0
 40
351.0
 40
351.0
 40
352.0
 40
352.0
 40
353.0
 40
353.0
 40
354.0
 40
354.0
 40
355.0
 40
355.0
 40
356.0
 40
356.0
 40
357.0
 40
357.0
 40
358.0
 40
358.0
 40
359.0
 40
359.0
 40
360.0
 40
360.0
 40
361.0
 40
361.0
 40
362.0
 40
362.0
 40
363.0
 40
363.0
 40
364.0
 40
364.0
 40
365.0
 40
365.0
 40
366.0
 40
366.0
 40
367.0
 40
367.0
 40
368.0
 40
368.0
 40
369.0
 40
369.0
 40
370.0
 40
370.0
 40
371.0
 40
371.0
 40
372.0
 40
372.0
 40
373.0
 40
373.0
 40
374.0
 40
374.0
 40
375.0
 40
375.0
 40
376.0
 40
376.0
 40
377.0
 40
377.0
 40
378.0
 40
378.0
 40
379.0
 40
379.0
 40
380.0
 40
380.0
 40
381.0
 40
381.0
 40
382.0
 40
382.0
 40
383.0
 40
383.0
 40
384.0
 40
384.0
 40
385.0
 40
385.0
 40
386.0
 40
386.0
 40
387.0
 40
387.0
 40
388.0
 40
388.0
 40
389.0
 40
389.0
 40
389.0
 10
557.28735946710458
 20
-1152.370942900186
 30
0.0
 41
1.0
 10
558.10578357582506
 20
-1152.370942900186
 30
0.0
 41
1.0
 10
558.92420768454554
 20
-1152.370942900186
 30
0.0
 41
1.0
 10
558.51045394902883
 20
-1153.7135691644357
 30
0.0
 41
1.0
 10
558.09670021351212
 20
-1155.0561954286854
 30
0.0
 41
1.0
 10
558.11503970866602
 20
-1155.0274946557959
 30
0.0
 41
0.9999957264398098
 10
558.13354670550132
 20
-1154.9989016056379
 30
0.0
 41
1.0
 10
558.16397602964332
 20
-1154.9518887272548
 30
0.0
 41
1.0
 10
558.19440535378533
 20
-1154.9048758488716
 30
0.0
 41
1.0
 10
558.27377099889054
 20
-1154.7822570419694
 30
0.0
 41
0.9995394069080765
 10
558.36042939044216
 20
-1154.6646789802282
 30
0.0
 41
1.0
 10
558.39618625270236
 20
-1154.6161640876342
 30
0.0
 41
1.0
 10
558.43194311496256
 20
-1154.5676491950401
 30
0.0
 41
1.0
 10
558.56566978278147
 20
-1154.3862089199124
 30
0.0
 41
0.999446061714329
 10
558.7111702640691
 20
-1154.2140665222632
 30
0.0
 41
1.0
 10
558.71555844504451
 20
-1154.2088748418801
 30
0.0
 41
1.0
 10
558.71994662601992
 20
-1154.2036831614971
 30
0.0
 41
1.0
 10
558.85667074535672
 20
-1154.0419241246138
 30
0.0
 41
0.9994359394934377
 10
559.00394497570835
 20
-1153.8897079234489
 30
0.0
 41
1.0
 10
559.00632832966312
 20
-1153.8872445930742
 30
0.0
 41
1.0
 10
559.00871168361778
 20
-1153.8847812626998
 30
0.0
 41
1.0
 10
559.15121920605975
 20
-1153.7374917222842
 30
0.0
 41
0.9995293688567357
 10
559.30249088704193
 20
-1153.59921851012
 30
0.0
 41
1.0
 10
559.3217846463051
 20
-1153.5815826244689
 30
0.0
 41
1.0
 10
559.3410784055684
 20
-1153.5639467388178
 30
0.0
 41
1.0
 10
559.45376256802365
 20
-1153.4609452979564
 30
0.0
 41
0.9997087614804048
 10
559.57128545697913
 20
-1153.3635010171581
 30
0.0
 41
1.0
 10
559.59045153015552
 20
-1153.3476094386494
 30
0.0
 41
1.0
 10
559.60961760333191
 20
-1153.3317178601408
 30
0.0
 41
1.0
 10
559.68880834593506
 20
-1153.2660567363594
 30
0.0
 41
0.9999595338696937
 10
559.76916761678933
 20
-1153.2018310057051
 30
0.0
 41
1.0
 10
559.84952688763656
 20
-1153.1376052750563
 30
0.0
 41
0.999974941749939
 10
559.93078742197406
 20
-1153.0745237211147
 30
0.0
 41
1.0
 10
559.95177356815452
 20
-1153.058232433799
 30
0.0
 41
1.0
 10
559.97275971433498
 20
-1153.0419411464834
 30
0.0
 41
1.0
 10
560.05732759962666
 20
-1152.9762921366505
 30
0.0
 41
0.9999792037130785
 10
560.14273519939036
 20
-1152.9117393550114
 30
0.0
 41
1.0
 10
560.16356002537418
 20
-1152.8959995326991
 30
0.0
 41
1.0
 10
560.184384851358
 20
-1152.8802597103866
 30
0.0
 41
1.0
 10
560.22814279925205
 20
-1152.8471865732979
 30
0.0
 41
0.9999993374276001
 10
560.27182448530311
 20
-1152.8140127779436
 30
0.0
 41
1.0
 10
560.31550617145263
 20
-1152.780838982515
 30
0.0
 41
0.9999160953815848
 10
560.36003258237884
 20
-1152.748807917312
 30
0.0
 41
1.0
 10
560.39285446979193
 20
-1152.7251967617317
 30
0.0
 41
1.0
 10
560.42567635720491
 20
-1152.7015856061516
 30
0.0
 41
1.0
 10
560.53584654296378
 20
-1152.6223322297835
 30
0.0
 41
0.9980964527232067
 10
560.65493553646445
 20
-1152.5572447569273
 30
0.0
 41
1.0
 10
560.69196814339239
 20
-1152.5370047773345
 30
0.0
 41
1.0
 10
560.72900075032032
 20
-1152.5167647977414
 30
0.0
 41
1.0
 10
560.90832776359332
 20
-1152.4187545470402
 30
0.0
 41
0.9984572810572679
 10
561.09741632995213
 20
-1152.3412322856939
 30
0.0
 41
1.0
 10
561.1010625993481
 20
-1152.3397373933558
 30
0.0
 41
1.0
 10
561.10470886874418
 20
-1152.3382425010177
 30
0.0
 41
1.0
 10
561.28650489631082
 20
-1152.2637100243473
 30
0.0
 41
0.9987838528034079
 10
561.47475755487028
 20
-1152.2074443841816
 30
0.0
 41
1.0
 10
561.47899550407044
 20
-1152.2061777304909
 30
0.0
 41
1.0
 10
561.4832334532706
 20
-1152.2049110768003
 30
0.0
 41
1.0
 10
561.66301021343099
 20
-1152.1511787440156
 30
0.0
 41
0.999065281620751
 10
561.84675614514538
 20
-1152.1131750644738
 30
0.0
 41
1.0
 10
561.85194454617465
 20
-1152.1121019613679
 30
0.0
 41
1.0
 10
561.85713294720392
 20
-1152.1110288582618
 30
0.0
 41
1.0
 10
562.03050207685919
 20
-1152.075171384932
 30
0.0
 41
0.9992909934270299
 10
562.20607784331958
 20
-1152.0524609524653
 30
0.0
 41
1.0
 10
562.38165360978076
 20
-1152.0297505199985
 30
0.0
 41
0.9994553539448755
 10
562.55834504287714
 20
-1152.018671215792
 30
0.0
 41
1.0
 10
562.59377945066831
 20
-1152.0164493277446
 30
0.0
 41
1.0
 10
562.62921385845948
 20
-1152.0142274396972
 30
0.0
 41
1.0
 10
562.79543962503033
 20
-1152.0038043772852
 30
0.0
 41
0.9990928098292617
 10
562.96194941693432
 20
-1152.0075640185196
 30
0.0
 41
1.0
 10
563.00051125220682
 20
-1152.0084347100526
 30
0.0
 41
1.0
 10
563.03907308747932
 20
-1152.0093054015856
 30
0.0
 41
1.0
 10
563.12845920883763
 20
-1152.0113236597542
 30
0.0
 41
0.9998382089204472
 10
563.21771489162313
 20
-1152.0165557862824
 30
0.0
 41
1.0
 10
563.21814479783939
 20
-1152.0165809871846
 30
0.0
 41
1.0
 10
563.21857470405564
 20
-1152.0166061880866
 30
0.0
 41
1.0
 10
563.30697057440568
 20
-1152.0217879128099
 30
0.0
 41
0.9997558016757315
 10
563.39505115161012
 20
-1152.030870428177
 30
0.0
 41
1.0
 10
563.39552729004049
 20
-1152.0309195256596
 30
0.0
 41
1.0
 10
563.39600342847075
 20
-1152.0309686231421
 30
0.0
 41
1.0
 10
563.48313172881126
 20
-1152.0399529435433
 30
0.0
 41
0.9996565144182129
 10
563.5696695821531
 20
-1152.0534902502322
 30
0.0
 41
1.0
 10
563.57013550753334
 20
-1152.0535631359639
 30
0.0
 41
1.0
 10
563.57060143291358
 20
-1152.0536360216959
 30
0.0
 41
1.0
 10
563.65620743549778
 20
-1152.0670275569219
 30
0.0
 41
0.9995321806867497
 10
563.74083451582317
 20
-1152.0856280453506
 30
0.0
 41
1.0
 10
563.74122371039311
 20
-1152.0857135878159
 30
0.0
 41
1.0
 10
563.74161290496306
 20
-1152.0857991302814
 30
0.0
 41
1.0
 10
563.82546159614969
 20
-1152.1042285337794
 30
0.0
 41
0.999381919921951
 10
563.90780813034735
 20
-1152.1285039170407
 30
0.0
 41
1.0
 10
563.90804656384603
 20
-1152.1285742061502
 30
0.0
 41
1.0
 10
563.90828499734459
 20
-1152.1286444952598
 30
0.0
 41
1.0
 10
563.99015466454421
 20
-1152.1527793003015
 30
0.0
 41
0.9992088568505099
 10
564.06984718353181
 20
-1152.1833445360958
 30
0.0
 41
1.0
 10
564.14952817441076
 20
-1152.2139041368289
 30
0.0
 41
0.9990226101773353
 10
564.22619884431799
 20
-1152.2513815684433
 30
0.0
 41
1.0
 10
564.30285798611658
 20
-1152.2888533649971
 30
0.0
 41
0.9988424273972302
 10
564.37556161332827
 20
-1152.3335181402499
 30
0.0
 41
1.0
 10
564.37582932170767
 20
-1152.3336826043221
 30
0.0
 41
1.0
 10
564.37609703008707
 20
-1152.3338470683943
 30
0.0
 41
1.0
 10
564.44933607405869
 20
-1152.3788407717921
 30
0.0
 41
0.9986928844490202
 10
564.51759894076793
 20
-1152.4310765060716
 30
0.0
 41
1.0
 10
564.51818023299052
 20
-1152.4315213192995
 30
0.0
 41
1.0
 10
564.51876152521322
 20
-1152.4319661325271
 30
0.0
 41
1.0
 10
564.58818697636752
 20
-1152.4850914932617
 30
0.0
 41
0.9986007262277984
 10
564.65161314613431
 20
-1152.5452522629553
 30
0.0
 41
1.0
 10
564.65250756159196
 20
-1152.5461006307908
 30
0.0
 41
1.0
 10
564.65340197704961
 20
-1152.5469489986262
 30
0.0
 41
1.0
 10
564.71861697773079
 20
-1152.6088065039899
 30
0.0
 41
0.9985581491381244
 10
564.77682458943252
 20
-1152.6772989942617
 30
0.0
 41
1.0
 10
564.78608304302838
 20
-1152.6881933519635
 30
0.0
 41
1.0
 10
564.79534149662413
 20
-1152.699087709665
 30
0.0
 41
1.0
 10
564.87206601551713
 20
-1152.7893689153398
 30
0.0
 41
0.9970460233520638
 10
564.93405791667726
 20
-1152.8903359995222
 30
0.0
 41
1.0
 10
564.9485272817567
 20
-1152.9139024586034
 30
0.0
 41
1.0
 10
564.96299664683613
 20
-1152.9374689176843
 30
0.0
 41
1.0
 10
565.00273334684869
 20
-1153.0021886417169
 30
0.0
 41
0.9988468816637087
 10
565.0360797175997
 20
-1153.0704210941435
 30
0.0
 41
1.0
 10
565.04311574009205
 20
-1153.0848180152827
 30
0.0
 41
1.0
 10
565.05015176258439
 20
-1153.099214936422
 30
0.0
 41
1.0
 10
565.06942608835061
 20
-1153.1386535465697
 30
0.0
 41
0.9998431189998067
 10
565.08729141584615
 20
-1153.1787501010119
 30
0.0
 41
1.0
 10
565.10515674335716
 20
-1153.218846655489
 30
0.0
 41
0.9999989989682309
 10
565.12313546677046
 20
-1153.2588924930528
 30
0.0
 41
1.0
 10
565.12930777836095
 20
-1153.2726407098573
 30
0.0
 41
1.0
 10
565.13548008995156
 20
-1153.2863889266619
 30
0.0
 41
1.0
 10
565.16580343656233
 20
-1153.3539311978718
 30
0.0
 41
0.9998790356323677
 10
565.19401131670099
 20
-1153.4223839498104
 30
0.0
 41
1.0
 10
565.20084649798491
 20
-1153.4389710512369
 30
0.0
 41
1.0
 10
565.20768167926883
 20
-1153.4555581526633
 30
0.0
 41
1.0
 10
565.23123934164903
 20
-1153.5127261075484
 30
0.0
 41
0.9998227574561435
 10
565.25262809003823
 20
-1153.5707404158256
 30
0.0
 41
1.0
 10
565.27401683842743
 20
-1153.6287547241025
 30
0.0
 41
0.9996797971041544
 10
565.29244312338631
 20
-1153.6877768432198
 30
0.0
 41
1.0
 10
565.29634692611216
 20
-1153.7002813013896
 30
0.0
 41
1.0
 10
565.30025072883791
 20
-1153.7127857595592
 30
0.0
 41
1.0
 10
565.32648461924828
 20
-1153.7968167950144
 30
0.0
 41
0.9979274938732951
 10
565.34170914272738
 20
-1153.8835211536752
 30
0.0
 41
1.0
 10
565.34393282998872
 20
-1153.8961851544968
 30
0.0
 41
1.0
 10
565.34615651724994
 20
-1153.9088491553186
 30
0.0
 41
1.0
 10
565.35708645694808
 20
-1153.9710956626084
 30
0.0
 41
0.9994985982137329
 10
565.36405462212497
 20
-1154.0339091637502
 30
0.0
 41
1.0
 10
565.37102278730208
 20
-1154.0967226648945
 30
0.0
 41
0.99963726112018
 10
565.37459865306971
 20
-1154.1598202435753
 30
0.0
 41
1.0
 10
565.37476723055897
 20
-1154.162794860657
 30
0.0
 41
1.0
 10
565.37493580804824
 20
-1154.1657694777386
 30
0.0
 41
1.0
 10
565.37884882879462
 20
-1154.234816290583
 30
0.0
 41
0.9997730630736165
 10
565.37981714228272
 20
-1154.30396711462
 30
0.0
 41
1.0
 10
565.37987424870084
 20
-1154.3080452937613
 30
0.0
 41
1.0
 10
565.37993135511897
 20
-1154.3121234729026
 30
0.0
 41
1.0
 10
565.3810138814431
 20
-1154.3894306552247
 30
0.0
 41
0.9998772614070979
 10
565.37967379471149
 20
-1154.4667338017859
 30
0.0
 41
1.0
 10
565.37958453151282
 20
-1154.4718829656204
 30
0.0
 41
1.0
 10
565.37949526831403
 20
-1154.4770321294548
 30
0.0
 41
1.0
 10
565.37797665518497
 20
-1154.5646336036843
 30
0.0
 41
0.9999415567328559
 10
565.37456434493924
 20
-1154.6521817653545
 30
0.0
 41
1.0
 10
565.37432302426373
 20
-1154.6583732250965
 30
0.0
 41
1.0
 10
565.37408170358822
 20
-1154.6645646848388
 30
0.0
 41
1.0
 10
565.37018675199204
 20
-1154.764495765985
 30
0.0
 41
0.9999716810419969
 10
565.36478816887291
 20
-1154.8643569042231
 30
0.0
 41
1.0
 10
565.36157537008467
 20
-1154.9237861538704
 30
0.0
 41
1.0
 10
565.35836257129631
 20
-1154.9832154035178
 30
0.0
 41
1.0
 10
565.35028866214338
 20
-1155.1325638048052
 30
0.0
 41
0.9999819129901539
 10
565.34041887052626
 20
-1155.2818042825243
 30
0.0
 41
1.0
 10
565.3305490789096
 20
-1155.4310447602356
 30
0.0
 41
1.0
 10
565.32810975834582
 20
-1155.468237806085
 30
0.0
 41
1.0
 10
565.35080799216075
 20
-1155.4294968087825
 30
0.0
 41
0.9999982128174513
 10
565.3736525509338
 20
-1155.3908419147945
 30
0.0
 41
1.0
 10
565.40056211081787
 20
-1155.3453087007406
 30
0.0
 41
1.0
 10
565.42747167070183
 20
-1155.2997754866869
 30
0.0
 41
1.0
 10
565.50413534922768
 20
-1155.1700541646173
 30
0.0
 41
0.9998609190057637
 10
565.58508266208753
 20
-1155.042961782691
 30
0.0
 41
1.0
 10
565.61473098356873
 20
-1154.9964120497348
 30
0.0
 41
1.0
 10
565.64437930504994
 20
-1154.9498623167783
 30
0.0
 41
1.0
 10
565.72665152528884
 20
-1154.8206897467801
 30
0.0
 41
0.9999067609731522
 10
565.8124205347541
 20
-1154.6938120573373
 30
0.0
 41
1.0
 10
565.81482523795489
 20
-1154.6902547912828
 30
0.0
 41
1.0
 10
565.81722994115557
 20
-1154.6866975252281
 30
0.0
 41
1.0
 10
565.89818954421719
 20
-1154.5669343678971
 30
0.0
 41
0.9998784952149982
 10
565.98284315389947
 20
-1154.449753151187
 30
0.0
 41
1.0
 10
566.06749676357936
 20
-1154.33257193448
 30
0.0
 41
0.9998532968283868
 10
566.15611438440385
 20
-1154.2183590260076
 30
0.0
 41
1.0
 10
566.1760761733949
 20
-1154.1926317049877
 30
0.0
 41
1.0
 10
566.19603796238584
 20
-1154.1669043839677
 30
0.0
 41
1.0
 10
566.3145220121437
 20
-1154.0141987730001
 30
0.0
 41
0.9991551975795099
 10
566.4451464617681
 20
-1153.8717392109156
 30
0.0
 41
1.0
 10
566.44865607774659
 20
-1153.8679116092926
 30
0.0
 41
1.0
 10
566.45216569372519
 20
-1153.8640840076696
 30
0.0
 41
1.0
 10
566.57577091139001
 20
-1153.7292796488337
 30
0.0
 41
0.9997418144181505
 10
566.70537305109224
 20
-1153.6002302382196
 30
0.0
 41
1.0
 10
566.83497519079435
 20
-1153.4711808276058
 30
0.0
 41
0.9989238204633198
 10
566.97597773904533
 20
-1153.3546958655672
 30
0.0
 41
1.0
 10
567.02122541718427
 20
-1153.3173158739589
 30
0.0
 41
1.0
 10
567.0664730953232
 20
-1153.2799358823506
 30
0.0
 41
1.0
 10
567.20671315254503
 20
-1153.1640808290595
 30
0.0
 41
0.9990825084096452
 10
567.35635308514838
 20
-1153.060651831227
 30
0.0
 41
1.0
 10
567.36639844920546
 20
-1153.0537086181475
 30
0.0
 41
1.0
 10
567.37644381326243
 20
-1153.0467654050678
 30
0.0
 41
1.0
 10
567.50599301775242
 20
-1152.9572228333939
 30
0.0
 41
0.9998164899824623
 10
567.63887722112861
 20
-1152.8727085918777
 30
0.0
 41
1.0
 10
567.65072278165326
 20
-1152.8651748253528
 30
0.0
 41
1.0
 10
567.66256834217802
 20
-1152.8576410588278
 30
0.0
 41
1.0
 10
567.77176142450389
 20
-1152.7881943503617
 30
0.0
 41
0.9997473449132063
 10
567.88396538175425
 20
-1152.7237253925455
 30
0.0
 41
1.0
 10
567.99616933900973
 20
-1152.6592564347266
 30
0.0
 41
0.9999327861140722
 10
568.10983794978029
 20
-1152.5974064430411
 30
0.0
 41
1.0
 10
568.11038995233434
 20
-1152.5971060843656
 30
0.0
 41
1.0
 10
568.11094195488852
 20
-1152.59680572569
 30
0.0
 41
1.0
 10
568.22571457077083
 20
-1152.5343550166515
 30
0.0
 41
0.9996956420483951
 10
568.3434278966082
 20
-1152.4776415496783
 30
0.0
 41
1.0
 10
568.37386830150592
 20
-1152.4629755729459
 30
0.0
 41
1.0
 10
568.40430870640364
 20
-1152.4483095962134
 30
0.0
 41
1.0
 10
568.50728581314638
 20
-1152.3986959377705
 30
0.0
 41
0.9998070570177321
 10
568.61213220208379
 20
-1152.3531653508712
 30
0.0
 41
1.0
 10
568.71697859102392
 20
-1152.3076347639703
 30
0.0
 41
0.9997827436147554
 10
568.82363152763264
 20
-1152.2665135926591
 30
0.0
 41
1.0
 10
568.84285437726498
 20
-1152.2591020190262
 30
0.0
 41
1.0
 10
568.86207722689744
 20
-1152.2516904453935
 30
0.0
 41
1.0
 10
569.00717586276971
 20
-1152.1957461268169
 30
0.0
 41
0.9988031841976728
 10
569.15704622537305
 20
-1152.1542460626495
 30
0.0
 41
1.0
 10
569.18196347373748
 20
-1152.1473463168422
 30
0.0
 41
1.0
 10
569.20688072210191
 20
-1152.140446571035
 30
0.0
 41
1.0
 10
569.37415074774867
 20
-1152.0941284286284
 30
0.0
 41
0.9984748040550353
 10
569.54550765639749
 20
-1152.0665341963636
 30
0.0
 41
1.0
 10
569.55024679264636
 20
-1152.06577103585
 30
0.0
 41
1.0
 10
569.55498592889523
 20
-1152.0650078753367
 30
0.0
 41
1.0
 10
569.71686456504631
 20
-1152.0389399640987
 30
0.0
 41
0.9984436495479863
 10
569.88063930877115
 20
-1152.03106201028
 30
0.0
 41
1.0
 10
569.90233651690369
 20
-1152.0300183230802
 30
0.0
 41
1.0
 10
569.92403372503634
 20
-1152.0289746358806
 30
0.0
 41
1.0
 10
570.04441405249713
 20
-1152.0231840564613
 30
0.0
 41
0.998795478933579
 10
570.16478229740562
 20
-1152.0292205842036
 30
0.0
 41
1.0
 10
570.18474708990175
 20
-1152.0302218285424
 30
0.0
 41
1.0
 10
570.20471188239787
 20
-1152.0312230728809
 30
0.0
 41
1.0
 10
570.2851505423173
 20
-1152.0352571119461
 30
0.0
 41
0.9997941595876571
 10
570.36535932040988
 20
-1152.0425511778669
 30
0.0
 41
1.0
 10
570.44556809850303
 20
-1152.0498452437878
 30
0.0
 41
0.9998589466239003
 10
570.52548664535675
 20
-1152.0598290982377
 30
0.0
 41
1.0
 10
570.55789284716627
 20
-1152.0638774551571
 30
0.0
 41
1.0
 10
570.59029904897579
 20
-1152.0679258120765
 30
0.0
 41
1.0
 10
570.73502999944753
 20
-1152.086006380365
 30
0.0
 41
0.9993495063249275
 10
570.8780812432135
 20
-1152.1144720901068
 30
0.0
 41
1.0
 10
570.91101494036661
 20
-1152.1210255533219
 30
0.0
 41
1.0
 10
570.94394863751984
 20
-1152.1275790165371
 30
0.0
 41
1.0
 10
571.0532424607236
 20
-1152.1493273506721
 30
0.0
 41
0.9996788715560928
 10
571.16129403267792
 20
-1152.1765851500347
 30
0.0
 41
1.0
 10
571.1633570352177
 20
-1152.1771055766078
 30
0.0
 41
1.0
 10
571.16542003775749
 20
-1152.1776260031809
 30
0.0
 41
1.0
 10
571.26934560463587
 20
-1152.2038429493982
 30
0.0
 41
0.9995480654492923
 10
571.37150783986374
 20
-1152.2362579060223
 30
0.0
 41
1.0
 10
571.37319748199377
 20
-1152.2367940109366
 30
0.0
 41
1.0
 10
571.3748871241238
 20
-1152.2373301158507
 30
0.0
 41
1.0
 10
571.47367007509456
 20
-1152.268672862647
 30
0.0
 41
0.9993867959456372
 10
571.57001723353574
 20
-1152.3068522319363
 30
0.0
 41
1.0
 10
571.57126018261977
 20
-1152.3073447738323
 30
0.0
 41
1.0
 10
571.5725031317038
 20
-1152.3078373157282
 30
0.0
 41
1.0
 10
571.6663643919776
 20
-1152.3450316012259
 30
0.0
 41
0.9992050256522169
 10
571.75696406701161
 20
-1152.3895855004648
 30
0.0
 41
1.0
 10
571.75769874972468
 20
-1152.3899467929259
 30
0.0
 41
1.0
 10
571.75843343243776
 20
-1152.390308085387
 30
0.0
 41
1.0
 10
571.84756374204539
 20
-1152.4341393997038
 30
0.0
 41
0.9990222350741808
 10
571.93247380343871
 20
-1152.485672667402
 30
0.0
 41
1.0
 10
571.93265768872129
 20
-1152.4857842703068
 30
0.0
 41
1.0
 10
571.93284157400399
 20
-1152.4858958732116
 30
0.0
 41
1.0
 10
572.0173838648326
 20
-1152.5372059351002
 30
0.0
 41
0.9988642743804803
 10
572.09665839945137
 20
-1152.5963301226254
 30
0.0
 41
1.0
 10
572.17593293406935
 20
-1152.6554543101499
 30
0.0
 41
0.9987681233311254
 10
572.24895671834599
 20
-1152.7221450015509
 30
0.0
 41
1.0
 10
572.24928564631205
 20
-1152.7224454027653
 30
0.0
 41
1.0
 10
572.2496145742781
 20
-1152.7227458039797
 30
0.0
 41
1.0
 10
572.32329621448537
 20
-1152.7900372978083
 30
0.0
 41
0.9987496570898597
 10
572.38989001981327
 20
-1152.8643501118959
 30
0.0
 41
1.0
 10
572.39066218957362
 20
-1152.8652117852537
 30
0.0
 41
1.0
 10
572.39143435933397
 20
-1152.8660734586115
 30
0.0
 41
1.0
 10
572.45957250418121
 20
-1152.942109619413
 30
0.0
 41
0.9988147669827311
 10
572.5199947584066
 20
-1153.0244106262558
 30
0.0
 41
1.0
 10
572.52111408448445
 20
-1153.0259352576086
 30
0.0
 41
1.0
 10
572.52223341056242
 20
-1153.0274598889614
 30
0.0
 41
1.0
 10
572.58489431694284
 20
-1153.1128101585089
 30
0.0
 41
0.9989452636216182
 10
572.63946122990433
 20
-1153.2035488476668
 30
0.0
 41
1.0
 10
572.64080995598988
 20
-1153.2057916286929
 30
0.0
 41
1.0
 10
572.64215868207555
 20
-1153.2080344097189
 30
0.0
 41
1.0
 10
572.69942304720792
 20
-1153.3032586609286
 30
0.0
 41
0.9991046436070644
 10
572.74843226053031
 20
-1153.4029830939555
 30
0.0
 41
1.0
 10
572.74989612212016
 20
-1153.4059617740277
 30
0.0
 41
1.0
 10
572.7513599837099
 20
-1153.4089404540996
 30
0.0
 41
1.0
 10
572.80329692021098
 20
-1153.5146222472688
 30
0.0
 41
0.9992763831100802
 10
572.84705004876673
 20
-1153.6239463092261
 30
0.0
 41
1.0
 10
572.84852931843011
 20
-1153.6276424967596
 30
0.0
 41
1.0
 10
572.85000858809337
 20
-1153.6313386842933
 30
0.0
 41
1.0
 10
572.89672025597508
 20
-1153.7480551213164
 30
0.0
 41
0.999416347288375
 10
572.93535328716496
 20
-1153.8676887097804
 30
0.0
 41
1.0
 10
572.93659143941136
 20
-1153.8715228535623
 30
0.0
 41
1.0
 10
572.93782959165787
 20
-1153.8753569973442
 30
0.0
 41
1.0
 10
572.97771315267551
 20
-1153.9988630588234
 30
0.0
 41
0.9997268055890229
 10
573.01178120858776
 20
-1154.1240980907751
 30
0.0
 41
1.0
 10
573.01271138885727
 20
-1154.1275174568837
 30
0.0
 41
1.0
 10
573.01364156912689
 20
-1154.1309368229925
 30
0.0
 41
1.0
 10
573.04584926450013
 20
-1154.2493331227272
 30
0.0
 41
0.9996701319000801
 10
573.07193488127018
 20
-1154.3692270759893
 30
0.0
 41
1.0
 10
573.09802049804057
 20
-1154.4891210292526
 30
0.0
 41
0.9995785451109326
 10
573.11710407538044
 20
-1154.6103267902845
 30
0.0
 41
1.0
 10
573.12132385755422
 20
-1154.63712794505
 30
0.0
 41
1.0
 10
573.12554363972799
 20
-1154.6639290998153
 30
0.0
 41
1.0
 10
573.15211861566661
 20
-1154.8327150735172
 30
0.0
 41
0.9979925101216042
 10
573.15714420159281
 20
-1155.003506401609
 30
0.0
 41
1.0
 10
573.15796901401745
 20
-1155.0315371250899
 30
0.0
 41
1.0
 10
573.15879382644209
 20
-1155.0595678485706
 30
0.0
 41
1.0
 10
573.16216978751925
 20
-1155.1742977296999
 30
0.0
 41
0.9995314902263273
 10
573.15851959538065
 20
-1155.2890192134528
 30
0.0
 41
1.0
 10
573.15486940324229
 20
-1155.4037406972036
 30
0.0
 41
0.9996245486944256
 10
573.14494030811102
 20
-1155.5180899683314
 30
0.0
 41
1.0
 10
573.14477726011683
 20
-1155.5199677244652
 30
0.0
 41
1.0
 10
573.14461421212275
 20
-1155.521845480599
 30
0.0
 41
1.0
 10
573.13435902100343
 20
-1155.6399502639933
 30
0.0
 41
0.9997286095000927
 10
573.11861369743212
 20
-1155.7574491728867
 30
0.0
 41
1.0
 10
573.11822020478166
 20
-1155.7603855975894
 30
0.0
 41
1.0
 10
573.1178267121312
 20
-1155.763322022292
 30
0.0
 41
1.0
 10
573.10129440325875
 20
-1155.8866937805926
 30
0.0
 41
0.9998265533969963
 10
573.08017894452678
 20
-1156.0093642553772
 30
0.0
 41
1.0
 10
573.07950240238949
 20
-1156.0132946338854
 30
0.0
 41
1.0
 10
573.07882586025221
 20
-1156.0172250123937
 30
0.0
 41
1.0
 10
573.05635731724465
 20
-1156.1477562442005
 30
0.0
 41
0.99990225308543
 10
573.03024785263437
 20
-1156.2776082128405
 30
0.0
 41
1.0
 10
573.02926921146945
 20
-1156.2824753552254
 30
0.0
 41
1.0
 10
573.02829057030465
 20
-1156.2873424976103
 30
0.0
 41
1.0
 10
573.00022382336419
 20
-1156.4269287510224
 30
0.0
 41
0.9999524761939613
 10
572.96944085453242
 20
-1156.5659412441737
 30
0.0
 41
1.0
 10
572.96816474735533
 20
-1156.5717040034833
 30
0.0
 41
1.0
 10
572.96688864017824
 20
-1156.5774667627929
 30
0.0
 41
1.0
 10
572.93355345699456
 20
-1156.7280047745544
 30
0.0
 41
0.9999813588731144
 10
572.89838245619592
 20
-1156.8781244872216
 30
0.0
 41
1.0
 10
572.89682853073987
 20
-1156.884757077642
 30
0.0
 41
1.0
 10
572.8952746052837
 20
-1156.8913896680626
 30
0.0
 41
1.0
 10
572.85699575358308
 20
-1157.0547745615295
 30
0.0
 41
0.9999955237687948
 10
572.81773987560075
 20
-1157.2179274651428
 30
0.0
 41
1.0
 10
572.80545823996317
 20
-1157.2689716556793
 30
0.0
 41
1.0
 10
572.79317660432548
 20
-1157.3200158462159
 30
0.0
 41
1.0
 10
572.72935745507198
 20
-1157.5852571308851
 30
0.0
 41
0.9999993604080679
 10
572.66493850792483
 20
-1157.8503533814844
 30
0.0
 41
1.0
 10
572.66021967236952
 20
-1157.869772289559
 30
0.0
 41
1.0
 10
572.65550083681421
 20
-1157.8891911976334
 30
0.0
 41
1.0
 10
572.58164421854963
 20
-1158.1931252644081
 30
0.0
 41
0.9999659914736997
 10
572.50278462266374
 20
-1158.4957998109694
 30
0.0
 41
1.0
 10
572.49783193373537
 20
-1158.5148089481429
 30
0.0
 41
1.0
 10
572.49287924480711
 20
-1158.5338180853164
 30
0.0
 41
1.0
 10
572.40411427106449
 20
-1158.8745109062259
 30
0.0
 41
0.9999441976023981
 10
572.30817123810016
 20
-1159.2132523315274
 30
0.0
 41
1.0
 10
572.29147071967373
 20
-1159.2722160440585
 30
0.0
 41
1.0
 10
572.27477020124718
 20
-1159.3311797565898
 30
0.0
 41
1.0
 10
572.14542613143317
 20
-1159.7878486069426
 30
0.0
 41
0.9999625120731547
 10
572.0081933641103
 20
-1160.2422091409364
 30
0.0
 41
1.0
 10
571.9724034210227
 20
-1160.360705167579
 30
0.0
 41
1.0
 10
571.93661347793511
 20
-1160.4792011942213
 30
0.0
 41
1.0
 10
571.86209327389599
 20
-1160.7259282723162
 30
0.0
 41
0.9999793386326538
 10
571.78440725076462
 20
-1160.9716769115325
 30
0.0
 41
1.0
 10
571.70672122762699
 20
-1161.2174255507687
 30
0.0
 41
1.0
 10
571.6959416687564
 20
-1161.2514434551433
 30
0.0
 41
1.0
 10
569.8455686154872
 20
-1167.1385153776109
 30
0.0
 41
1.0
 10
567.99519556221799
 20
-1173.0255873000783
 30
0.0
 41
1.0
 10
567.03393887219443
 20
-1173.0255873000783
 30
0.0
 41
1.0
 10
566.07268218217087
 20
-1173.0255873000783
 30
0.0
 41
1.0
 10
567.69162696084936
 20
-1167.8775587982889
 30
0.0
 41
1.0
 10
569.31057173952786
 20
-1162.7295302964994
 30
0.0
 41
1.0
 10
569.35573756270742
 20
-1162.5854990742127
 30
0.0
 41
1.0
 10
569.40090338588686
 20
-1162.4414678519263
 30
0.0
 41
1.0
 10
569.57120780324021
 20
-1161.8983768227936
 30
0.0
 41
0.9999911657901318
 10
569.73694061491938
 20
-1161.3538732914335
 30
0.0
 41
1.0
 10
569.76663655841594
 20
-1161.2563093513959
 30
0.0
 41
1.0
 10
569.79633250191239
 20
-1161.1587454113585
 30
0.0
 41
1.0
 10
569.90267342659638
 20
-1160.8093697600809
 30
0.0
 41
0.9999952428105733
 10
570.00685701592454
 20
-1160.4593447357202
 30
0.0
 41
1.0
 10
570.01191648625888
 20
-1160.4423464614388
 30
0.0
 41
1.0
 10
570.01697595659323
 20
-1160.4253481871572
 30
0.0
 41
1.0
 10
570.11104060525236
 20
-1160.1093197113612
 30
0.0
 41
0.9999931687529898
 10
570.2027664431231
 20
-1159.7926044981002
 30
0.0
 41
1.0
 10
570.20770170758101
 20
-1159.7755637888349
 30
0.0
 41
1.0
 10
570.21263697203881
 20
-1159.7585230795696
 30
0.0
 41
1.0
 10
570.2944922809952
 20
-1159.4758892848351
 30
0.0
 41
0.9999893840813136
 10
570.37373950745359
 20
-1159.1925131555831
 30
0.0
 41
1.0
 10
570.45298673391153
 20
-1158.9091370263327
 30
0.0
 41
0.9999833980083464
 10
570.52896297464679
 20
-1158.6248664433285
 30
0.0
 41
1.0
 10
570.53796691137256
 20
-1158.5911775648369
 30
0.0
 41
1.0
 10
570.54697084809834
 20
-1158.5574886863456
 30
0.0
 41
1.0
 10
570.61593539696446
 20
-1158.2994528540507
 30
0.0
 41
0.9999233658068689
 10
570.67849036818404
 20
-1158.0397886953301
 30
0.0
 41
1.0
 10
570.74104533940431
 20
-1157.7801245366077
 30
0.0
 41
1.0
 10
570.78052875826188
 20
-1157.6163178721815
 30
0.0
 41
1.0
 10
570.78550736223633
 20
-1157.595662910323
 30
0.0
 41
1.0
 10
570.79048596621067
 20
-1157.5750079484644
 30
0.0
 41
1.0
 10
570.82001217711718
 20
-1157.4525112077645
 30
0.0
 41
0.9999868670862786
 10
570.84828126111563
 20
-1157.32971826211
 30
0.0
 41
1.0
 10
570.85217874827413
 20
-1157.3127886746897
 30
0.0
 41
1.0
 10
570.85607623543262
 20
-1157.2958590872695
 30
0.0
 41
1.0
 10
570.87655034511363
 20
-1157.2069253164559
 30
0.0
 41
0.999977817334293
 10
570.89583794322721
 20
-1157.117726699234
 30
0.0
 41
1.0
 10
570.91512554134397
 20
-1157.0285280819969
 30
0.0
 41
0.9999602692861425
 10
570.93281989997456
 20
-1156.9389997935709
 30
0.0
 41
1.0
 10
570.93602373205158
 20
-1156.9227893386883
 30
0.0
 41
1.0
 10
570.9392275641286
 20
-1156.9065788838059
 30
0.0
 41
1.0
 10
570.9633295869146
 20
-1156.7846296856089
 30
0.0
 41
0.9995617985320555
 10
570.98017293413307
 20
-1156.6614679379045
 30
0.0
 41
1.0
 10
570.98263742403947
 20
-1156.6434471205375
 30
0.0
 41
1.0
 10
570.98510191394587
 20
-1156.6254263031706
 30
0.0
 41
1.0
 10
571.0053851749941
 20
-1156.4771112534713
 30
0.0
 41
0.9991121410639369
 10
571.0131105285825
 20
-1156.3276151546634
 30
0.0
 41
1.0
 10
571.01402931860696
 20
-1156.3098353180894
 30
0.0
 41
1.0
 10
571.01494810863142
 20
-1156.2920554815155
 30
0.0
 41
1.0
 10
571.02083588217067
 20
-1156.1781190558597
 30
0.0
 41
0.9989792494905938
 10
571.01641679005343
 20
-1156.064116219959
 30
0.0
 41
1.0
 10
571.01576881818482
 20
-1156.0473999740316
 30
0.0
 41
1.0
 10
571.01512084631611
 20
-1156.0306837281043
 30
0.0
 41
1.0
 10
571.01199769793607
 20
-1155.9501133840631
 30
0.0
 41
0.9997820295395191
 10
571.00551370056041
 20
-1155.8697436623165
 30
0.0
 41
1.0
 10
570.99902970318442
 20
-1155.7893739405686
 30
0.0
 41
0.9998335105974131
 10
570.98961750767273
 20
-1155.7092943241207
 30
0.0
 41
1.0
 10
570.98802258299656
 20
-1155.6957245936387
 30
0.0
 41
1.0
 10
570.98642765832028
 20
-1155.6821548631565
 30
0.0
 41
1.0
 10
570.97382561345592
 20
-1155.5749357857412
 30
0.0
 41
0.999687645787953
 10
570.95588170065776
 20
-1155.468480358026
 30
0.0
 41
1.0
 10
570.95365003751249
 20
-1155.4552406227845
 30
0.0
 41
1.0
 10
570.95141837436722
 20
-1155.4420008875427
 30
0.0
 41
1.0
 10
570.93762255294632
 20
-1155.3601547435849
 30
0.0
 41
0.9995547496495332
 10
570.91896923105321
 20
-1155.2792772463911
 30
0.0
 41
1.0
 10
570.91859527418194
 20
-1155.2776558356859
 30
0.0
 41
1.0
 10
570.91822131731067
 20
-1155.2760344249805
 30
0.0
 41
1.0
 10
570.90031590916044
 20
-1155.1983997491986
 30
0.0
 41
0.9994899427174606
 10
570.87749100048131
 20
-1155.1220664663656
 30
0.0
 41
1.0
 10
570.87703247374043
 20
-1155.1205330165765
 30
0.0
 41
1.0
 10
570.87657394699954
 20
-1155.1189995667874
 30
0.0
 41
1.0
 10
570.85466609180196
 20
-1155.045733183531
 30
0.0
 41
0.9993784877590582
 10
570.82765045669544
 20
-1154.9741924783721
 30
0.0
 41
1.0
 10
570.82711876571852
 20
-1154.9727844956515
 30
0.0
 41
1.0
 10
570.82658707474161
 20
-1154.9713765129309
 30
0.0
 41
1.0
 10
570.80063482158914
 20
-1154.9026517732136
 30
0.0
 41
0.9992430832254458
 10
570.76941828642941
 20
-1154.8361526211447
 30
0.0
 41
1.0
 10
570.76883617037311
 20
-1154.8349125660279
 30
0.0
 41
1.0
 10
570.7682540543168
 20
-1154.8336725109114
 30
0.0
 41
1.0
 10
570.73820175127037
 20
-1154.7696534690772
 30
0.0
 41
0.9990789632798255
 10
570.70277112449332
 20
-1154.7084468573269
 30
0.0
 41
1.0
 10
570.7021754183113
 20
-1154.7074177714676
 30
0.0
 41
1.0
 10
570.70157971212939
 20
-1154.7063886856085
 30
0.0
 41
1.0
 10
570.66734049771583
 20
-1154.6472402455759
 30
0.0
 41
0.9988874801120816
 10
570.62768122168461
 20
-1154.5915805331592
 30
0.0
 41
1.0
 10
570.62712569562041
 20
-1154.5908008814845
 30
0.0
 41
1.0
 10
570.6265701695562
 20
-1154.59002122981
 30
0.0
 41
1.0
 10
570.58802194565203
 20
-1154.5359208207408
 30
0.0
 41
0.9986762060692788
 10
570.54411947437643
 20
-1154.4860671063025
 30
0.0
 41
1.0
 10
570.54367551404403
 20
-1154.4855629644858
 30
0.0
 41
1.0
 10
570.54323155371173
 20
-1154.4850588226689
 30
0.0
 41
1.0
 10
570.50021700310072
 20
-1154.4362133918635
 30
0.0
 41
0.9984621642487723
 10
570.45205944632244
 20
-1154.392430091392
 30
0.0
 41
1.0
 10
570.45181281180589
 20
-1154.3922058592284
 30
0.0
 41
1.0
 10
570.45156617728924
 20
-1154.391981627065
 30
0.0
 41
1.0
 10
570.40390188954518
 20
-1154.3486467909215
 30
0.0
 41
0.9982724693852708
 10
570.35148325770319
 20
-1154.3112024404031
 30
0.0
 41
1.0
 10
570.29906462586177
 20
-1154.2737580898856
 30
0.0
 41
0.9981399180159828
 10
570.2424785624687
 20
-1154.2429715704423
 30
0.0
 41
1.0
 10
570.2424329003901
 20
-1154.242946727285
 30
0.0
 41
1.0
 10
570.24238723831149
 20
-1154.2429218841278
 30
0.0
 41
1.0
 10
570.18570985076099
 20
-1154.2120856783699
 30
0.0
 41
0.9980927086836713
 10
570.12566449969484
 20
-1154.1884688695175
 30
0.0
 41
1.0
 10
570.12522432998321
 20
-1154.1882957436424
 30
0.0
 41
1.0
 10
570.12478416027147
 20
-1154.1881226177675
 30
0.0
 41
1.0
 10
570.06385846978151
 20
-1154.164159557165
 30
0.0
 41
0.9981411356561893
 10
570.00046994838237
 20
-1154.1477869156595
 30
0.0
 41
1.0
 10
569.99958783168086
 20
-1154.147559073454
 30
0.0
 41
1.0
 10
569.99870571497945
 20
-1154.1473312312485
 30
0.0
 41
1.0
 10
569.93355296017717
 20
-1154.1305029053319
 30
0.0
 41
0.9983031812935197
 10
569.86688553118199
 20
-1154.1213635441557
 30
0.0
 41
1.0
 10
569.85801450577992
 20
-1154.1201474254844
 30
0.0
 41
1.0
 10
569.84914348037773
 20
-1154.1189313068135
 30
0.0
 41
1.0
 10
569.79479383787191
 20
-1154.1114805768223
 30
0.0
 41
0.9983887708263751
 10
569.73994998857768
 20
-1154.1102359031888
 30
0.0
 41
1.0
 10
569.73188658336119
 20
-1154.110052905314
 30
0.0
 41
1.0
 10
569.7238231781447
 20
-1154.1098699074391
 30
0.0
 41
1.0
 10
569.68510613928595
 20
-1154.1089912295554
 30
0.0
 41
0.9998869563078993
 10
569.64638018608218
 20
-1154.1092770989151
 30
0.0
 41
1.0
 10
569.60765423289831
 20
-1154.1095629682745
 30
0.0
 41
0.9999972320184408
 10
569.56893005370614
 20
-1154.1100310678034
 30
0.0
 41
1.0
 10
569.54957703710738
 20
-1154.1102650078931
 30
0.0
 41
1.0
 10
569.53022402050874
 20
-1154.1104989479827
 30
0.0
 41
1.0
 10
569.45279380813872
 20
-1154.1114349276904
 30
0.0
 41
0.9997304945087469
 10
569.37549050190182
 20
-1154.1159640214762
 30
0.0
 41
1.0
 10
569.36644086019692
 20
-1154.1164942274663
 30
0.0
 41
1.0
 10
569.3573912184919
 20
-1154.1170244334562
 30
0.0
 41
1.0
 10
569.26198862884485
 20
-1154.1226139392222
 30
0.0
 41
0.9997888306416176
 10
569.16689629300186
 20
-1154.1321189037117
 30
0.0
 41
1.0
 10
569.15817523142982
 20
-1154.1329906183437
 30
0.0
 41
1.0
 10
569.14945416985768
 20
-1154.1338623329757
 30
0.0
 41
1.0
 10
569.03691971086926
 20
-1154.1451107267289
 30
0.0
 41
0.9984170238190517
 10
568.92636056351762
 20
-1154.1689268086648
 30
0.0
 41
1.0
 10
568.88997943253037
 20
-1154.1767638444712
 30
0.0
 41
1.0
 10
568.85359830154312
 20
-1154.1846008802775
 30
0.0
 41
1.0
 10
568.73840723312253
 20
-1154.2094147467867
 30
0.0
 41
0.9976592854197873
 10
568.62767906671877
 20
-1154.2497134239338
 30
0.0
 41
1.0
 10
568.51695090031296
 20
-1154.2900121010812
 30
0.0
 41
0.9993255074351753
 10
568.40947910152249
 20
-1154.3383289995736
 30
0.0
 41
1.0
 10
568.40485392259939
 20
-1154.3404083757732
 30
0.0
 41
1.0
 10
568.40022874367639
 20
-1154.3424877519728
 30
0.0
 41
1.0
 10
568.28350658703937
 20
-1154.3949634028645
 30
0.0
 41
0.9976475078275359
 10
568.17505924272916
 20
-1154.4629113925225
 30
0.0
 41
1.0
 10
568.15671684859308
 20
-1154.4744038713379
 30
0.0
 41
1.0
 10
568.13837445445688
 20
-1154.4858963501533
 30
0.0
 41
1.0
 10
568.05417226290581
 20
-1154.5386534709212
 30
0.0
 41
0.9995131336407011
 10
567.97342454794955
 20
-1154.5965596828737
 30
0.0
 41
1.0
 10
567.89267683299488
 20
-1154.6544658948249
 30
0.0
 41
0.9995810107606724
 10
567.8154151852666
 20
-1154.7169475772901
 30
0.0
 41
1.0
 10
567.8124451540549
 20
-1154.719349448756
 30
0.0
 41
1.0
 10
567.8094751228432
 20
-1154.7217513202218
 30
0.0
 41
1.0
 10
567.72627341269288
 20
-1154.789036745618
 30
0.0
 41
0.999661783795411
 10
567.64668272555798
 20
-1154.8605572011777
 30
0.0
 41
1.0
 10
567.63455197468306
 20
-1154.8714579341663
 30
0.0
 41
1.0
 10
567.62242122380815
 20
-1154.8823586671551
 30
0.0
 41
1.0
 10
567.55414569640868
 20
-1154.9437112826301
 30
0.0
 41
0.999726775005354
 10
567.48881218812369
 20
-1155.0081878191568
 30
0.0
 41
1.0
 10
567.42347867984074
 20
-1155.0726643556811
 30
0.0
 41
0.9999667288962124
 10
567.35920573670137
 20
-1155.1381981625684
 30
0.0
 41
1.0
 10
567.29037828892228
 20
-1155.2083758213307
 30
0.0
 41
1.0
 10
567.22155084114308
 20
-1155.2785534800928
 30
0.0
 41
1.0
 10
567.01962300244702
 20
-1155.4844426045029
 30
0.0
 41
0.9988205335175066
 10
566.83861738546796
 20
-1155.708946836563
 30
0.0
 41
1.0
 10
566.80797742056268
 20
-1155.7469500869936
 30
0.0
 41
1.0
 10
566.7773374556574
 20
-1155.7849533374242
 30
0.0
 41
1.0
 10
566.53505190886551
 20
-1156.0854640703483
 30
0.0
 41
0.999707782675452
 10
566.30757395776027
 20
-1156.3973338645653
 30
0.0
 41
1.0
 10
566.30585054263133
 20
-1156.3996966479426
 30
0.0
 41
1.0
 10
566.3041271275024
 20
-1156.4020594313201
 30
0.0
 41
1.0
 10
566.07320234613769
 20
-1156.7186547922936
 30
0.0
 41
0.9989147567079112
 10
565.87273884325407
 20
-1157.0553642534783
 30
0.0
 41
1.0
 10
565.84799769794699
 20
-1157.0969208340309
 30
0.0
 41
1.0
 10
565.8232565526398
 20
-1157.1384774145836
 30
0.0
 41
1.0
 10
565.66804525400175
 20
-1157.3991787990376
 30
0.0
 41
0.9997476598182289
 10
565.52470026649189
 20
-1157.6665885476204
 30
0.0
 41
1.0
 10
565.38135527898203
 20
-1157.9339982962033
 30
0.0
 41
0.9996258967109478
 10
565.25284702704869
 20
-1158.2088462328311
 30
0.0
 41
1.0
 10
565.23964711760004
 20
-1158.2370776329244
 30
0.0
 41
1.0
 10
565.2264472081514
 20
-1158.2653090330177
 30
0.0
 41
1.0
 10
565.08623848715308
 20
-1158.5651814309679
 30
0.0
 41
0.9998735413944395
 10
564.95563714043078
 20
-1158.8693610304394
 30
0.0
 41
1.0
 10
564.9521943123716
 20
-1158.877379615901
 30
0.0
 41
1.0
 10
564.94875148431242
 20
-1158.8853982013625
 30
0.0
 41
1.0
 10
564.82503579371212
 20
-1159.1735406299031
 30
0.0
 41
0.9999377418863407
 10
564.70778099153563
 20
-1159.4643720975819
 30
0.0
 41
1.0
 10
564.59052618935937
 20
-1159.7552035652607
 30
0.0
 41
0.9999508299508657
 10
564.4790622459825
 20
-1160.0483032420809
 30
0.0
 41
1.0
 10
564.47598147732037
 20
-1160.0564042680439
 30
0.0
 41
1.0
 10
564.47290070865813
 20
-1160.0645052940072
 30
0.0
 41
1.0
 10
564.35527522795292
 20
-1160.3738070227641
 30
0.0
 41
0.9999609228428988
 10
564.24313662507541
 20
-1160.6851400387898
 30
0.0
 41
1.0
 10
564.24018061472907
 20
-1160.6933468791904
 30
0.0
 41
1.0
 10
564.23722460438262
 20
-1160.7015537195907
 30
0.0
 41
1.0
 10
564.11917398081266
 20
-1161.0293004164159
 30
0.0
 41
0.9999674607398676
 10
564.00642645474659
 20
-1161.3589090364046
 30
0.0
 41
1.0
 10
563.95502806418153
 20
-1161.509168232104
 30
0.0
 41
1.0
 10
563.90362967361636
 20
-1161.6594274278034
 30
0.0
 41
1.0
 10
563.7876190668585
 20
-1161.9985754103068
 30
0.0
 41
0.9999287532309489
 10
563.67973766288753
 20
-1162.3403961492827
 30
0.0
 41
1.0
 10
563.63326040674315
 20
-1162.4876586936705
 30
0.0
 41
1.0
 10
563.58678315059865
 20
-1162.6349212380583
 30
0.0
 41
1.0
 10
563.57185625891043
 20
-1162.6822168882786
 30
0.0
 41
0.9999998223039943
 10
563.55698575018641
 20
-1162.7295302964994
 30
0.0
 41
1.0
 10
561.93632961339097
 20
-1167.8775587982889
 30
0.0
 41
1.0
 10
560.31567347659552
 20
-1173.0255873000783
 30
0.0
 41
1.0
 10
559.41036503270459
 20
-1173.0255873000783
 30
0.0
 41
1.0
 10
558.50505658881366
 20
-1173.0255873000783
 30
0.0
 41
1.0
 10
560.3571410001997
 20
-1167.1385153776109
 30
0.0
 41
1.0
 10
562.20922541158575
 20
-1161.2514434551433
 30
0.0
 41
1.0
 10
562.21934716988835
 20
-1161.2194002416936
 30
0.0
 41
1.0
 10
562.29195483873809
 20
-1160.9891006998678
 30
0.0
 41
1.0
 10
562.36456250758692
 20
-1160.7588011580451
 30
0.0
 41
0.999982568197935
 10
562.43444554679741
 20
-1160.5276602629831
 30
0.0
 41
1.0
 10
562.48273660895939
 20
-1160.3679356794833
 30
0.0
 41
1.0
 10
562.53102767112148
 20
-1160.2082110959832
 30
0.0
 41
1.0
 10
562.62818002443714
 20
-1159.8868758742119
 30
0.0
 41
0.9999672528967558
 10
562.72011883006019
 20
-1159.5640103286269
 30
0.0
 41
1.0
 10
562.72290771373014
 20
-1159.5542164832364
 30
0.0
 41
1.0
 10
562.72569659739997
 20
-1159.5444226378459
 30
0.0
 41
1.0
 10
562.81205763568096
 20
-1159.2411447830498
 30
0.0
 41
0.9999899749182771
 10
562.89569924521822
 20
-1158.9371056945884
 30
0.0
 41
1.0
 10
562.90580516423643
 20
-1158.9003704569072
 30
0.0
 41
1.0
 10
562.91591108325474
 20
-1158.8636352192261
 30
0.0
 41
1.0
 10
562.97934085475185
 20
-1158.6330666061397
 30
0.0
 41
0.9999214200505084
 10
563.0369702831307
 20
-1158.4009802639266
 30
0.0
 41
1.0
 10
563.04973613531138
 20
-1158.3495693785298
 30
0.0
 41
1.0
 10
563.06250198749217
 20
-1158.2981584931331
 30
0.0
 41
1.0
 10
563.09459971151045
 20
-1158.1688939217092
 30
0.0
 41
0.9999828681655334
 10
563.12518196350391
 20
-1158.0392624472497
 30
0.0
 41
1.0
 10
563.15576421549906
 20
-1157.9096309727829
 30
0.0
 41
0.9999389844479713
 10
563.18347520428836
 20
-1157.7793555168832
 30
0.0
 41
1.0
 10
563.19061294800872
 20
-1157.7457994130452
 30
0.0
 41
1.0
 10
563.19775069172897
 20
-1157.7122433092072
 30
0.0
 41
1.0
 10
563.23973716795808
 20
-1157.514855645635
 30
0.0
 41
0.9998933699440593
 10
563.27594143236001
 20
-1157.3163260378785
 30
0.0
 41
1.0
 10
563.27731425757679
 20
-1157.3087980171795
 30
0.0
 41
1.0
 10
563.27868708279357
 20
-1157.3012699964806
 30
0.0
 41
1.0
 10
563.3176369976286
 20
-1157.0876843473286
 30
0.0
 41
0.9996850305193041
 10
563.34582067388794
 20
-1156.8724133418873
 30
0.0
 41
1.0
 10
563.34781570725659
 20
-1156.8571749877701
 30
0.0
 41
1.0
 10
563.34981074062523
 20
-1156.8419366336527
 30
0.0
 41
1.0
 10
563.37721860308432
 20
-1156.6325914064973
 30
0.0
 41
0.9994697936706728
 10
563.39094316230444
 20
-1156.4219062111629
 30
0.0
 41
1.0
 10
563.39142023155432
 20
-1156.4145827389498
 30
0.0
 41
1.0
 10
563.39189730080409
 20
-1156.4072592667367
 30
0.0
 41
1.0
 10
563.40466772152388
 20
-1156.2112210158318
 30
0.0
 41
0.9991804893137097
 10
563.40153940525124
 20
-1156.0147921658588
 30
0.0
 41
1.0
 10
563.40145552642912
 20
-1156.0095253644467
 30
0.0
 41
1.0
 10
563.40137164760699
 20
-1156.0042585630345
 30
0.0
 41
1.0
 10
563.39841108897849
 20
-1155.8183633158858
 30
0.0
 41
0.9988448329321649
 10
563.37761954335474
 20
-1155.633610726052
 30
0.0
 41
1.0
 10
563.37602546965172
 20
-1155.6194458702803
 30
0.0
 41
1.0
 10
563.37443139594859
 20
-1155.6052810145086
 30
0.0
 41
1.0
 10
563.35682799773087
 20
-1155.4488581362182
 30
0.0
 41
0.9985503209458728
 10
563.32251172543135
 20
-1155.2952339521294
 30
0.0
 41
1.0
 10
563.31492573336027
 20
-1155.2612736247297
 30
0.0
 41
1.0
 10
563.30733974128907
 20
-1155.2273132973298
 30
0.0
 41
1.0
 10
563.28819545313183
 20
-1155.1416097680406
 30
0.0
 41
0.999103678137077
 10
563.2618705914806
 20
-1155.0578326807151
 30
0.0
 41
1.0
 10
563.25788836602487
 20
-1155.0451595182058
 30
0.0
 41
1.0
 10
563.25390614056926
 20
-1155.0324863556962
 30
0.0
 41
1.0
 10
563.23554572982982
 20
-1154.9740555933909
 30
0.0
 41
0.9998874504368644
 10
563.21544052215097
 20
-1154.9162019911669
 30
0.0
 41
1.0
 10
563.19533531447223
 20
-1154.8583483889433
 30
0.0
 41
0.9994041637544419
 10
563.17128670153772
 20
-1154.8020196850525
 30
0.0
 41
1.0
 10
563.16708991731366
 20
-1154.7921896205703
 30
0.0
 41
1.0
 10
563.1628931330896
 20
-1154.7823595560883
 30
0.0
 41
1.0
 10
563.13501430209465
 20
-1154.7170593901208
 30
0.0
 41
0.9991846840702224
 10
563.10195794540255
 20
-1154.6542213588425
 30
0.0
 41
1.0
 10
563.10082133900778
 20
-1154.6520607423884
 30
0.0
 41
1.0
 10
563.09968473261313
 20
-1154.6499001259342
 30
0.0
 41
1.0
 10
563.06890158870999
 20
-1154.5913833275636
 30
0.0
 41
0.9989253167925084
 10
563.03283216465456
 20
-1154.5359683991719
 30
0.0
 41
1.0
 10
563.03177803998028
 20
-1154.5343489044094
 30
0.0
 41
1.0
 10
563.03072391530588
 20
-1154.5327294096469
 30
0.0
 41
1.0
 10
562.99676274059948
 20
-1154.4805534707816
 30
0.0
 41
0.9986467172837411
 10
562.95756558796222
 20
-1154.4321874371522
 30
0.0
 41
1.0
 10
562.95669145926161
 20
-1154.4311088348741
 30
0.0
 41
1.0
 10
562.95581733056099
 20
-1154.430030232596
 30
0.0
 41
1.0
 10
562.91836843532485
 20
-1154.3838214035227
 30
0.0
 41
0.9984001104267084
 10
562.87594170480759
 20
-1154.342136296154
 30
0.0
 41
1.0
 10
562.87535456669832
 20
-1154.3415594212729
 30
0.0
 41
1.0
 10
562.87476742858905
 20
-1154.3409825463916
 30
0.0
 41
1.0
 10
562.83351497429055
 20
-1154.3004511887852
 30
0.0
 41
0.9982442159083096
 10
562.7877588729549
 20
-1154.2650826275249
 30
0.0
 41
1.0
 10
562.78754407749341
 20
-1154.2649165948819
 30
0.0
 41
1.0
 10
562.78732928203192
 20
-1154.264750562239
 30
0.0
 41
1.0
 10
562.74200277162026
 20
-1154.2297140662654
 30
0.0
 41
0.9982450060835968
 10
562.69285179254757
 20
-1154.200282283231
 30
0.0
 41
1.0
 10
562.64370081347568
 20
-1154.1708505001975
 30
0.0
 41
0.9983922639635456
 10
562.59153450731083
 20
-1154.1471708655433
 30
0.0
 41
1.0
 10
562.59130762998643
 20
-1154.147067880062
 30
0.0
 41
1.0
 10
562.59108075266204
 20
-1154.1469648945806
 30
0.0
 41
1.0
 10
562.53846069184874
 20
-1154.1230792889639
 30
0.0
 41
0.9986517147149896
 10
562.48364771898127
 20
-1154.1047781698423
 30
0.0
 41
1.0
 10
562.48296979755287
 20
-1154.1045518234107
 30
0.0
 41
1.0
 10
562.48229187612458
 20
-1154.1043254769791
 30
0.0
 41
1.0
 10
562.42612306040076
 20
-1154.0855716649944
 30
0.0
 41
0.9989435598956855
 10
562.36846967324925
 20
-1154.0720539627598
 30
0.0
 41
1.0
 10
562.36738955366764
 20
-1154.071800712507
 30
0.0
 41
1.0
 10
562.36630943408613
 20
-1154.0715474622539
 30
0.0
 41
1.0
 10
562.30649580777026
 20
-1154.0575232595131
 30
0.0
 41
0.9992249241239877
 10
562.24576429887122
 20
-1154.0482479167977
 30
0.0
 41
1.0
 10
562.24435061058159
 20
-1154.04803200839
 30
0.0
 41
1.0
 10
562.24293692229196
 20
-1154.0478160999824
 30
0.0
 41
1.0
 10
562.17937803681514
 20
-1154.038108940452
 30
0.0
 41
0.9994396597834455
 10
562.11531210028147
 20
-1154.0326760181065
 30
0.0
 41
1.0
 10
562.0961714328007
 20
-1154.0310528503876
 30
0.0
 41
1.0
 10
562.07703076531993
 20
-1154.0294296826687
 30
0.0
 41
1.0
 10
561.97468349382666
 20
-1154.0207504248856
 30
0.0
 41
0.9987693403120834
 10
561.87197987023922
 20
-1154.0222534883383
 30
0.0
 41
1.0
 10
561.86172553601159
 20
-1154.0224035601123
 30
0.0
 41
1.0
 10
561.85147120178408
 20
-1154.0225536318865
 30
0.0
 41
1.0
 10
561.74191543560596
 20
-1154.024156976174
 30
0.0
 41
0.9989753644966034
 10
561.63295343559037
 20
-1154.0356599830993
 30
0.0
 41
1.0
 10
561.52399143557454
 20
-1154.0471629900244
 30
0.0
 41
0.9983190067305872
 10
561.41709262461029
 20
-1154.0711979818109
 30
0.0
 41
1.0
 10
561.40819167300288
 20
-1154.0731992603737
 30
0.0
 41
1.0
 10
561.39929072139546
 20
-1154.0752005389365
 30
0.0
 41
1.0
 10
561.2745900072174
 20
-1154.1032380878485
 30
0.0
 41
0.9985539388303277
 10
561.15362025354023
 20
-1154.1445017638939
 30
0.0
 41
1.0
 10
561.15127482257935
 20
-1154.14530180771
 30
0.0
 41
1.0
 10
561.14892939161848
 20
-1154.1461018515261
 30
0.0
 41
1.0
 10
561.02326877602081
 20
-1154.188965615203
 30
0.0
 41
0.9988468746493548
 10
560.90229843372049
 20
-1154.2436837002654
 30
0.0
 41
1.0
 10
560.89911561173142
 20
-1154.2451233748254
 30
0.0
 41
1.0
 10
560.89593278974235
 20
-1154.2465630493855
 30
0.0
 41
1.0
 10
560.76859680346536
 20
-1154.3041604835673
 30
0.0
 41
0.9991322885918941
 10
560.64649621940885
 20
-1154.3721558157492
 30
0.0
 41
1.0
 10
560.62889420836245
 20
-1154.3819580177405
 30
0.0
 41
1.0
 10
560.61129219731617
 20
-1154.3917602197316
 30
0.0
 41
1.0
 10
560.50911551626109
 20
-1154.448660335511
 30
0.0
 41
0.999386003784932
 10
560.4111745121894
 20
-1154.5125763510985
 30
0.0
 41
1.0
 10
560.40555619934003
 20
-1154.5162428457916
 30
0.0
 41
1.0
 10
560.39993788649076
 20
-1154.5199093404844
 30
0.0
 41
1.0
 10
560.31323350811897
 20
-1154.576492366685
 30
0.0
 41
0.9998821494953106
 10
560.22830713230314
 20
-1154.6357105967636
 30
0.0
 41
1.0
 10
560.14338075649152
 20
-1154.6949288268395
 30
0.0
 41
0.9997976482744848
 10
560.06090512609137
 20
-1154.7575152348786
 30
0.0
 41
1.0
 10
560.04626886128403
 20
-1154.7686219246602
 30
0.0
 41
1.0
 10
560.03163259647681
 20
-1154.7797286144419
 30
0.0
 41
1.0
 10
559.91988443646358
 20
-1154.8645284020431
 30
0.0
 41
0.9998091630800757
 10
559.81153415843642
 20
-1154.953628752744
 30
0.0
 41
1.0
 10
559.79852840595868
 20
-1154.9643238531903
 30
0.0
 41
1.0
 10
559.78552265348105
 20
-1154.9750189536367
 30
0.0
 41
1.0
 10
559.65116087049785
 20
-1155.0855095052311
 30
0.0
 41
0.999503511231744
 10
559.52402499273342
 20
-1155.2042433222468
 30
0.0
 41
1.0
 10
559.51437768234632
 20
-1155.2132530684046
 30
0.0
 41
1.0
 10
559.50473037195911
 20
-1155.2222628145623
 30
0.0
 41
1.0
 10
559.3813073091959
 20
-1155.3375291863165
 30
0.0
 41
0.9994630424299311
 10
559.26569890341159
 20
-1155.4606319295519
 30
0.0
 41
1.0
 10
559.26201606463997
 20
-1155.4645535090654
 30
0.0
 41
1.0
 10
559.25833322586823
 20
-1155.4684750885785
 30
0.0
 41
1.0
 10
559.15009049762671
 20
-1155.5837346727881
 30
0.0
 41
0.999516069375019
 10
559.04922446809576
 20
-1155.7055020906596
 30
0.0
 41
1.0
 10
559.04729074801662
 20
-1155.7078365148659
 30
0.0
 41
1.0
 10
559.04535702793748
 20
-1155.710170939072
 30
0.0
 41
1.0
 10
558.94835843856481
 20
-1155.8272695085311
 30
0.0
 41
0.9996561470514747
 10
558.85763221989794
 20
-1155.9492922709815
 30
0.0
 41
1.0
 10
558.85147455399419
 20
-1155.9575740600262
 30
0.0
 41
1.0
 10
558.84531688809045
 20
-1155.9658558490707
 30
0.0
 41
1.0
 10
558.76690600122856
 20
-1156.0713150334354
 30
0.0
 41
0.99983490551721
 10
558.69237871929977
 20
-1156.1795536170939
 30
0.0
 41
1.0
 10
558.61785143736688
 20
-1156.2877922007583
 30
0.0
 41
0.9999728109569125
 10
558.54492854145769
 20
-1156.3971181263121
 30
0.0
 41
1.0
 10
558.54361332604572
 20
-1156.399089895815
 30
0.0
 41
1.0
 10
558.54229811063385
 20
-1156.4010616653177
 30
0.0
 41
1.0
 10
558.46674478389787
 20
-1156.5143311298816
 30
0.0
 41
0.9999972147390339
 10
558.39172697354161
 20
-1156.6279559726904
 30
0.0
 41
1.0
 10
558.38675543091153
 20
-1156.6354860611743
 30
0.0
 41
1.0
 10
558.38178388828146
 20
-1156.6430161496583
 30
0.0
 41
1.0
 10
558.29682299266142
 20
-1156.7717011694408
 30
0.0
 41
0.9999371979004519
 10
558.21476764325712
 20
-1156.9022580832184
 30
0.0
 41
1.0
 10
558.21125875889584
 20
-1156.9078410112827
 30
0.0
 41
1.0
 10
558.20774987453444
 20
-1156.913423939347
 30
0.0
 41
1.0
 10
558.1186767564061
 20
-1157.0551467092555
 30
0.0
 41
0.9998272025611967
 10
558.03493336552367
 20
-1157.2000825859982
 30
0.0
 41
1.0
 10
558.01971819349978
 20
-1157.2264157004547
 30
0.0
 41
1.0
 10
558.00450302147578
 20
-1157.2527488149112
 30
0.0
 41
1.0
 10
557.89032928654547
 20
-1157.4503509205672
 30
0.0
 41
0.999521721483861
 10
557.78858959698834
 20
-1157.6546332484324
 30
0.0
 41
1.0
 10
557.78094603435545
 20
-1157.669980698131
 30
0.0
 41
1.0
 10
557.77330247172256
 20
-1157.6853281478298
 30
0.0
 41
1.0
 10
557.68639717913175
 20
-1157.8598246059137
 30
0.0
 41
0.99982697626094
 10
557.60604271285808
 20
-1158.03743289264
 30
0.0
 41
1.0
 10
557.52568824658567
 20
-1158.2150411793639
 30
0.0
 41
0.9998944747387787
 10
557.45052745201815
 20
-1158.3949089050006
 30
0.0
 41
1.0
 10
557.44557378242951
 20
-1158.406763559912
 30
0.0
 41
1.0
 10
557.44062011284086
 20
-1158.4186182148233
 30
0.0
 41
1.0
 10
557.35997305228727
 20
-1158.6116151548438
 30
0.0
 41
0.9999506734411635
 10
557.2831755233824
 20
-1158.8061759597031
 30
0.0
 41
1.0
 10
557.26857555812171
 20
-1158.8431638814832
 30
0.0
 41
1.0
 10
557.25397559286114
 20
-1158.8801518032631
 30
0.0
 41
1.0
 10
557.20637799449105
 20
-1159.0007367645276
 30
0.0
 41
0.9999912393941516
 10
557.15979155045625
 20
-1159.1217159672549
 30
0.0
 41
1.0
 10
557.1132051064244
 20
-1159.2426951699749
 30
0.0
 41
0.9999927113982016
 10
557.067543812022
 20
-1159.3640265774991
 30
0.0
 41
1.0
 10
557.05357538063299
 20
-1159.4011435594748
 30
0.0
 41
1.0
 10
557.0396069492441
 20
-1159.4382605414505
 30
0.0
 41
1.0
 10
556.96600879205562
 20
-1159.6338259129479
 30
0.0
 41
0.9999487550952191
 10
556.89638516708521
 20
-1159.8308412781262
 30
0.0
 41
1.0
 10
556.87279155714521
 20
-1159.8976045884278
 30
0.0
 41
1.0
 10
556.8491979472052
 20
-1159.9643678987293
 30
0.0
 41
1.0
 10
556.75451231283409
 20
-1160.2323017335552
 30
0.0
 41
0.9999808436927112
 10
556.66315072419707
 20
-1160.5013871648077
 30
0.0
 41
1.0
 10
556.5717891355564
 20
-1160.7704725960698
 30
0.0
 41
0.9999873932915736
 10
556.4831344268456
 20
-1161.0404619510612
 30
0.0
 41
1.0
 10
556.46304206997218
 20
-1161.1016512838264
 30
0.0
 41
1.0
 10
556.44294971309876
 20
-1161.1628406165914
 30
0.0
 41
1.0
 10
556.31411029064361
 20
-1161.5552086371049
 30
0.0
 41
0.9999794883021407
 10
556.19030750568049
 20
-1161.9491948433993
 30
0.0
 41
1.0
 10
556.17915524623277
 20
-1161.984685453669
 30
0.0
 41
1.0
 10
556.16800298678493
 20
-1162.0201760639388
 30
0.0
 41
1.0
 10
556.02544482289386
 20
-1162.4738488160046
 30
0.0
 41
0.9999982761848963
 10
555.88457238289629
 20
-1162.9280478380717
 30
0.0
 41
1.0
 10
554.29643205032369
 20
-1167.9768175690751
 30
0.0
 41
1.0
 10
552.70829171775108
 20
-1173.0255873000783
 30
0.0
 41
1.0
 10
551.7595411062747
 20
-1173.0255873000783
 30
0.0
 41
1.0
 10
550.81079049479831
 20
-1173.0255873000783
 30
0.0
 41
1.0
 10
554.04907498095145
 20
-1162.6982651001322
 30
0.0
 41
1.0
 10
557.28735946710458
 20
-1152.370942900186
 30
0.0
 41
1.0
  0
LWPOLYLINE
  5
61
100
AcDbEntity
  8
0
370
              15
390
0
  6
Continuous
 62
               7
100
AcDbPolyline
 90
      232
 70
             128
 10
531.58381369327753
 20
-1153.4552857317012
 42
0.0004370800689577
 10
531.5309365192777
 20
-1153.5239523708635
 10
531.49165228807806
 20
-1153.5750594838541
 42
0.0030481992173531
 10
531.3613135709594
 20
-1153.7467811761976
 10
531.32280189920846
 20
-1153.7981679599864
 42
0.0042058245760717
 10
531.11881684853449
 20
-1154.0751737050657
 10
531.06641172603793
 20
-1154.1476065518409
 42
0.0120948898742607
 10
530.77036780927642
 20
-1154.5783561563899
 10
530.67417531015428
 20
-1154.725836891615
 42
0.0141601263948332
 10
530.37053126323258
 20
-1155.2215062283501
 10
530.33099399580021
 20
-1155.2903501957931
 42
0.0071131081304033
 10
530.12572167256826
 20
-1155.65985299462
 42
0.0068458790999909
 10
529.93084214573253
 20
-1156.0349445580816
 10
529.92403028326748
 20
-1156.0485062718199
 42
0.0064120880292503
 10
529.72588803322344
 20
-1156.4559307467382
 10
529.71835334770617
 20
-1156.4719426034599
 42
0.0058857236448625
 10
529.51559795583296
 20
-1156.9163187144984
 10
529.50742302954052
 20
-1156.9348088681288
 42
0.0053189741897331
 10
529.2987187168751
 20
-1157.4207723420416
 10
529.28997091119163
 20
-1157.4417542202427
 42
0.0047503650419909
 10
529.07399718503632
 20
-1157.9739536534639
 10
529.06472893669275
 20
-1157.9974300295603
 42
0.0042071762172264
 10
528.84018155296462
 20
-1158.5805236236308
 10
528.83043215061628
 20
-1158.6064897984998
 42
0.003668008648492
 10
528.59597750730575
 20
-1159.2451251830269
 10
528.58576972745641
 20
-1159.2735737173757
 42
0.0032573142628851
 10
528.34013744148501
 20
-1159.9724263771427
 10
528.2714869206427
 20
-1160.1718894612006
 42
0.002613336664951
 10
527.92304172189108
 20
-1161.2017527448538
 10
527.85978493440439
 20
-1161.3919835802044
 42
0.0020592950739868
 10
527.64592186542325
 20
-1162.04408723286
 10
527.64287007426037
 20
-1162.0535237212689
 42
0.0025609928534497
 10
527.44104957277432
 20
-1162.6886689436355
 10
527.43845820564093
 20
-1162.6969712845973
 42
0.0031362356242885
 10
527.24896741997077
 20
-1163.3177341407556
 10
527.24683637704584
 20
-1163.3248754469585
 42
0.003722991802783
 10
527.07003599011705
 20
-1163.9338607489408
 10
527.0683574009123
 20
-1163.9398076391094
 42
0.0043077623705881
 10
526.90461659884556
 20
-1164.5396263708844
 42
0.0047654161823792
 10
526.75178787632865
 20
-1165.1423124597904
 10
526.71732326749043
 20
-1165.2838742369363
 42
0.0112969368445921
 10
526.52145890934639
 20
-1166.1755663975623
 10
526.49345252025012
 20
-1166.3183944436585
 42
0.0130056762570138
 10
526.29261527660356
 20
-1167.5053355153034
 10
526.27207552645677
 20
-1167.6494136287783
 42
0.0138721532144255
 10
526.16837252191863
 20
-1168.5562431146061
 10
526.14907703401047
 20
-1168.7797408365341
 42
0.0071254697010239
 10
526.11573038808808
 20
-1169.2429278453783
 10
526.11076941392457
 20
-1169.3289318399434
 42
0.002888179920548
 10
526.09563112063495
 20
-1169.6206735497813
 42
0.0060297297134306
 10
526.08569892085961
 20
-1169.9126224858912
 10
526.08463663919235
 20
-1169.9610148578292
 42
0.0229523164156406
 10
526.09236766697813
 20
-1170.2837697041127
 10
526.09659344049851
 20
-1170.3441732381291
 42
0.0123673300665973
 10
526.11567208701683
 20
-1170.5452939633037
 42
0.0128577674465948
 10
526.14486747742353
 20
-1170.7451918132331
 10
526.15199335081013
 20
-1170.7865206278275
 42
0.0285717853764389
 10
526.21648735250608
 20
-1171.0646367791414
 10
526.2301558761726
 20
-1171.1112915486187
 42
0.03162830991602
 10
526.34596645608644
 20
-1171.4303060504437
 10
526.34901514784178
 20
-1171.4372924227689
 42
0.0338984824236973
 10
526.49844685880907
 20
-1171.7248583869584
 10
526.50075558817855
 20
-1171.7286494162338
 42
0.0350228718348807
 10
526.6831158788525
 20
-1171.9857014009112
 10
526.68400113062762
 20
-1171.9867804786754
 42
0.0347476747528706
 10
526.89842581786763
 20
-1172.2139655258952
 42
0.033133770191103
 10
527.14166914361431
 20
-1172.4100941879731
 10
527.14276924213016
 20
-1172.4108668911454
 42
0.0305233319081685
 10
527.41131393770388
 20
-1172.5759950612367
 10
527.4145439822048
 20
-1172.5777190730992
 42
0.0273744481155364
 10
527.70709769377811
 20
-1172.7138572169893
 10
527.71220222891668
 20
-1172.7159008014594
 42
0.0240964406197454
 10
528.02767930456298
 20
-1172.8248845277408
 10
528.0342626337723
 20
-1172.8268092674157
 42
0.0209636179811635
 10
528.37166278642417
 20
-1172.9102774153478
 10
528.37929524687354
 20
-1172.9118293283493
 42
0.0181388704695053
 10
528.73761763887694
 20
-1172.9712454215639
 10
528.7458984872502
 20
-1172.9723116053804
 42
0.0156086547585605
 10
529.12408585143703
 20
-1173.0090477919568
 10
529.16728110376641
 20
-1173.011886294436
 42
0.013714832902506
 10
529.49495424906502
 20
-1173.0244065496872
 10
529.54089043899273
 20
-1173.0249009828024
 42
0.0051057823880902
 10
529.77703602558324
 20
-1173.0250312372118
 42
0.0052256693311167
 10
530.01313330938058
 20
-1173.0202824127471
 10
530.08336009311131
 20
-1173.0181354467334
 42
0.0161507179047033
 10
530.45909717121037
 20
-1172.994485076407
 10
530.47911013158557
 20
-1172.9925748811193
 42
0.0101216737834379
 10
530.89313735307792
 20
-1172.9445819507534
 10
530.92719064250298
 20
-1172.9399342539441
 42
0.0245291776397554
 10
531.40398029805237
 20
-1172.8508591758682
 10
531.48880361357919
 20
-1172.8306632555218
 42
0.0143509212559133
 10
531.84543471751783
 20
-1172.7348586217431
 42
0.0156557857041923
 10
532.19565078224514
 20
-1172.6178474059243
 10
532.20315199673973
 20
-1172.6150772441702
 42
0.0170137333631375
 10
532.55974799242188
 20
-1172.4694196292987
 10
532.56685191482859
 20
-1172.4662317937355
 42
0.0183105364408481
 10
532.92620158299553
 20
-1172.2888967519109
 10
532.93314834763362
 20
-1172.2851463170391
 42
0.0194899958152812
 10
533.29162908862088
 20
-1172.0731673351461
 10
533.29864296795427
 20
-1172.0686419928534
 42
0.0204869852946411
 10
533.65265727004532
 20
-1171.8191219777696
 10
533.65992287863514
 20
-1171.8135419124192
 42
0.0212516938554929
 10
534.00591280974277
 20
-1171.5236379155249
 10
534.05242950381944
 20
-1171.4811706054302
 42
0.0215248918252275
 10
534.31245567270651
 20
-1171.2224063264362
 10
534.35748540709062
 20
-1171.1735622050826
 42
0.0114578554955249
 10
534.51227756076446
 20
-1170.9977392716282
 10
534.52347209674531
 20
-1170.9844205080897
 42
0.0061531305126768
 10
534.64994674274544
 20
-1170.8301309747771
 42
0.0006325587118654
 10
534.77432522688059
 20
-1170.6741275991221
 10
534.79736536194878
 20
-1170.6451540784419
 42
0.0041897761555747
 10
534.96582076593063
 20
-1170.4296347023685
 10
535.0242828858137
 20
-1170.353533355395
 42
0.0092993880038096
 10
535.30089481303389
 20
-1169.9792545915159
 10
535.38328930623561
 20
-1169.8633175879434
 42
0.0159321727085424
 10
535.72989578887859
 20
-1169.3411433671863
 10
535.77425192427188
 20
-1169.2694638029295
 42
0.0085547317023387
 10
536.00876368959348
 20
-1168.8755888537116
 42
0.008460115688909
 10
536.22973986703505
 20
-1168.4739620046807
 10
536.23785534086596
 20
-1168.4586023224065
 42
0.0081429654286646
 10
536.46110461130684
 20
-1168.0188808098587
 10
536.46996477548748
 20
-1168.0007019678465
 42
0.007657458132768
 10
536.6963722860562
 20
-1167.5175190925891
 10
536.70585192677788
 20
-1167.4964546142901
 42
0.0070682724199844
 10
536.93629683458505
 20
-1166.9644173095082
 10
536.94628711856637
 20
-1166.9404281204975
 42
0.0064559514448694
 10
537.18162032674979
 20
-1166.3541158539738
 10
537.192029684913
 20
-1166.3271809285361
 42
0.0058311413906256
 10
537.4330764216777
 20
-1165.6811488341471
 10
537.44383149906321
 20
-1165.6512644929921
 42
0.005231242581789
 10
537.69141277709889
 20
-1164.940062079173
 10
537.70245661348395
 20
-1164.9072353670877
 42
0.0046680544796262
 10
537.95738504121539
 20
-1164.1254090513423
 10
537.99937719126262
 20
-1163.9924258140391
 42
0.0041666856446606
 10
538.20266320365693
 20
-1163.3294570390353
 10
538.24032564432252
 20
-1163.2028759313757
 42
0.0015170975152838
 10
538.36151222273372
 20
-1162.7910075798879
 42
-0.0004887993111491
 10
538.4818519958967
 20
-1162.3788891677102
 10
538.55832925335199
 20
-1162.1179317819049
 42
0.0002583378929194
 10
538.83154382350051
 20
-1161.1838750784375
 10
538.91331667299175
 20
-1160.9037758191466
 42
0.0006636169673407
 10
539.10718443300425
 20
-1160.2364228955557
 10
539.11228108735497
 20
-1160.2187913126629
 42
0.0010589131322279
 10
539.29372978826791
 20
-1159.5860599696268
 10
539.29871185875243
 20
-1159.5685470625924
 42
0.0015655524464719
 10
539.46698206593112
 20
-1158.9699303834059
 10
539.47181226634132
 20
-1158.9525382244874
 42
0.0021640440472797
 10
539.62610223833212
 20
-1158.387511206452
 10
539.63073645776103
 20
-1158.3702464764619
 42
0.0028763871851906
 10
539.77025217581502
 20
-1157.838278525611
 10
539.77463803998012
 20
-1157.8211545474651
 42
0.0037310511943036
 10
539.89859473181912
 20
-1157.3217069534326
 10
539.90266995210595
 20
-1157.3047466821961
 42
0.0047652197769701
 10
540.01029385261666
 20
-1156.8372689138821
 10
540.01398445194206
 20
-1156.820509358723
 42
0.0060276699298868
 10
540.10451455109364
 20
-1156.3844335635879
 10
540.10773324138256
 20
-1156.36793234928
 42
0.0075824337753503
 10
540.1804225507982
 20
-1155.9626651848525
 10
540.1830679281793
 20
-1155.9465102373972
 42
0.0095130624607654
 10
540.23718316380973
 20
-1155.5714208843301
 10
540.24416938769275
 20
-1155.5154873262106
 42
0.0121054653233108
 10
540.27076071827025
 20
-1155.2505914977398
 10
540.27162720803017
 20
-1155.2391880548062
 42
0.0069050827390711
 10
540.28671602606744
 20
-1154.9962468279664
 10
540.28785132573603
 20
-1154.9727205709207
 42
0.0169063976696527
 10
540.29067860471628
 20
-1154.7765278436209
 10
540.28950795318519
 20
-1154.7161920822762
 42
0.0052007732893554
 10
540.28725450459206
 20
-1154.6405986921197
 42
0.0054038123303005
 10
540.26729099275292
 20
-1154.5205803961082
 10
540.2622051368827
 20
-1154.4919219095286
 42
0.0112050460457379
 10
540.22682077482432
 20
-1154.3155954711901
 10
540.20899581278354
 20
-1154.2360538844687
 42
0.0240764468012807
 10
540.11809844663696
 20
-1153.9058168489664
 10
540.09953968382388
 20
-1153.8491966839733
 42
0.025681233183553
 10
539.9561767636344
 20
-1153.4774724777164
 10
539.95076733781309
 20
-1153.4653411427269
 42
0.0268360501210324
 10
539.78134009696305
 20
-1153.1343480087057
 10
539.77580368932809
 20
-1153.1248283383934
 42
0.0274670231726778
 10
539.58360271291474
 20
-1152.8325409634763
 10
539.5782214129523
 20
-1152.8252618159352
 42
0.0275035967106245
 10
539.36664853339028
 20
-1152.5697459256307
 10
539.36157903242281
 20
-1152.5642668379992
 42
0.02695576735209
 10
539.13417548898417
 20
-1152.3436245520379
 10
539.12943243120185
 20
-1152.3394945975774
 42
0.0259124802209415
 10
538.88987759977078
 20
-1152.151804070425
 10
538.88534675458709
 20
-1152.1486185680935
 42
0.0245162153004866
 10
538.63743040149404
 20
-1151.991885558984
 10
538.63290385517212
 20
-1151.9893253617845
 42
0.022928258883368
 10
538.38048429834248
 20
-1151.8614571692842
 10
538.37570380450768
 20
-1151.8593048695232
 42
0.0212984135689616
 10
538.12266585204407
 20
-1151.7581059522799
 10
538.11736156707457
 20
-1151.7562423895199
 42
0.0197555462338979
 10
537.86758322935157
 20
-1151.6794269715551
 42
0.0183511896782944
 10
537.61265450388896
 20
-1151.6218440645898
 10
537.52628930716367
 20
-1151.6056412742043
 42
0.0338057877150453
 10
537.24078195790514
 20
-1151.5718328690646
 10
537.14977655286145
 20
-1151.567253213803
 42
0.0091990524501613
 10
537.04392944422921
 20
-1151.563877357881
 42
0.0028333980777972
 10
536.93801552823538
 20
-1151.5630492503642
 10
536.93710007518689
 20
-1151.5630472805401
 42
-0.0023619827797989
 10
536.8293540600381
 20
-1151.5623064394613
 10
536.79294888990512
 20
-1151.5618841329988
 42
0.0008824598484669
 10
536.61239290008291
 20
-1151.5601083547608
 10
536.56853146764934
 20
-1151.5597543932349
 42
0.0038132665767965
 10
536.30024857179626
 20
-1151.559635457168
 10
536.28371491697703
 20
-1151.5597542233118
 42
0.0060665569337696
 10
535.98243442537421
 20
-1151.565574522733
 10
535.96818409336038
 20
-1151.5660228307001
 42
0.0080356953339227
 10
535.6387253770157
 20
-1151.5816905527674
 10
535.6266553619339
 20
-1151.5824591357075
 42
0.0098996399102236
 10
535.27389227729395
 20
-1151.6119443649045
 10
535.26384656790833
 20
-1151.6129846611038
 42
0.0117740981367881
 10
534.892689709558
 20
-1151.6602769086339
 10
534.88446701307703
 20
-1151.6615220252045
 42
0.0137435215133999
 10
534.49987819359353
 20
-1151.7306189987657
 10
534.49322115446853
 20
-1151.7320048949996
 42
0.0158359869383418
 10
534.10022406066639
 20
-1151.8268969834803
 10
534.09481087379891
 20
-1151.828386924351
 42
0.018055412402621
 10
533.69849582918312
 20
-1151.9530249405907
 10
533.69393904110314
 20
-1151.9546409768559
 42
0.0203657431284744
 10
533.29946152328955
 20
-1152.1129013183729
 10
533.29531798428445
 20
-1152.1147629398138
 42
0.0226819684657227
 10
532.9078819280777
 20
-1152.3104055184863
 10
532.90368213706267
 20
-1152.3127711104044
 42
0.0248634984607016
 10
532.52850019587947
 20
-1152.5493977563531
 10
532.48030526709829
 20
-1152.583254798177
 42
0.0267044190884883
 10
532.20601257018097
 20
-1152.7986951740454
 42
0.013930300219766
 10
531.94984540424105
 20
-1153.0359340149587
 10
531.94499201852125
 20
-1153.0406866778176
 42
0.0283460963440095
 10
531.70091942429508
 20
-1153.3084173382613
 10
531.6612509191375
 20
-1153.3572189157358
 42
0.0070695364819168
 10
531.58381369327753
 20
-1153.4552857317012
 42
0.0070695364819168
  0
LWPOLYLINE
  5
62
100
AcDbEntity
  8
0
370
              15
390
0
  6
Continuous
 62
               7
100
AcDbPolyline
 90
      226
 70
             128
 10
528.05499325603114
 20
-1169.1768745378852
 42
-0.002627763660806
 10
528.05491537223111
 20
-1169.1101026121196
 10
528.05513273046313
 20
-1169.0569473946989
 42
-0.0088680296730387
 10
528.05890934675631
 20
-1168.8839316122946
 10
528.06125570586869
 20
-1168.8246515868423
 42
-0.0077381705612813
 10
528.07730181663214
 20
-1168.5333910910397
 10
528.07816972780495
 20
-1168.521102857359
 42
-0.0068872530534434
 10
528.1048018075528
 20
-1168.2058811052932
 10
528.10600603173918
 20
-1168.1936401262715
 42
-0.0062130021490447
 10
528.14359974856677
 20
-1167.8547704350344
 10
528.14510365210208
 20
-1167.8425965631163
 42
-0.0056726929672654
 10
528.19402551160522
 20
-1167.4804013409964
 10
528.19579895724871
 20
-1167.4683075407575
 42
-0.0052341884496638
 10
528.25640954350922
 20
-1167.0831142852367
 10
528.2584275322854
 20
-1167.0711093552472
 42
-0.0049768450169678
 10
528.33116621371005
 20
-1166.6632647878241
 10
528.35541522843357
 20
-1166.5347168048088
 42
-0.008902980562564
 10
528.49249608022888
 20
-1165.8729413573838
 10
528.52524145554685
 20
-1165.7279099268628
 42
-0.0080318257099523
 10
528.75479006988689
 20
-1164.7822002950115
 10
528.76677499633581
 20
-1164.7360696598189
 42
-0.0074265721318571
 10
529.05078653518774
 20
-1163.7060050814314
 10
529.0706660783045
 20
-1163.6378710208419
 42
-0.0069711922702096
 10
529.39797065680898
 20
-1162.5716032805212
 10
529.45792260391238
 20
-1162.3855819221574
 42
-0.005207042289637
 10
529.68734782917386
 20
-1161.6983098451192
 10
529.70462902135648
 20
-1161.6482825644723
 42
-0.0009167004450058
 10
529.9077209086355
 20
-1161.0638267163481
 42
-0.0025162726944786
 10
530.11481853890587
 20
-1160.4807854521637
 10
530.1520431507106
 20
-1160.3776359062601
 42
-0.0028212681456549
 10
530.4002190696666
 20
-1159.7019052741089
 10
530.41004983242328
 20
-1159.6755978294159
 42
-0.0031964916819157
 10
530.64634209007966
 20
-1159.0553930673052
 10
530.65597654407873
 20
-1159.0305830771617
 42
-0.0036281836450779
 10
530.88108250517985
 20
-1158.4631423962687
 10
530.89052091534029
 20
-1158.4398449647585
 42
-0.0041269166833556
 10
531.10513861199649
 20
-1157.9224040687877
 10
531.13777156840786
 20
-1157.8455256224486
 42
-0.0047472213059736
 10
531.29481637397089
 20
-1157.4851041545433
 10
531.3017104551792
 20
-1157.4696835572111
 42
-0.0025651659997803
 10
531.45006848902926
 20
-1157.1423555014628
 42
-0.0057144634992121
 10
531.60381818280177
 20
-1156.8175458280978
 10
531.63184888820297
 20
-1156.7600374457036
 42
-0.0065388068373935
 10
531.81531591594148
 20
-1156.3958049490411
 10
531.8237743717242
 20
-1156.3795453696637
 42
-0.0074510843021704
 10
531.99995661759783
 20
-1156.052857088549
 10
532.00813628812853
 20
-1156.0382163112806
 42
-0.0084648979864717
 10
532.17777014122896
 20
-1155.7463073003189
 10
532.18562626771597
 20
-1155.7333003086699
 42
-0.0095638542808447
 10
532.34946171531135
 20
-1155.4734114366895
 10
532.35693665898305
 20
-1155.4620420752342
 42
-0.0107191626803424
 10
532.51573823937065
 20
-1155.2314308406899
 10
532.52275497309961
 20
-1155.2216947483282
 42
-0.0118458573904221
 10
532.67730307161423
 20
-1155.0176225530147
 42
-0.0129184518190183
 10
532.84175569521813
 20
-1154.8214620368417
 10
532.87190046757871
 20
-1154.7873359579448
 42
-0.0217742579637986
 10
533.04851278991418
 20
-1154.6041291876945
 10
533.0592583343722
 20
-1154.5939123544938
 42
-0.009726656864992
 10
533.22531595323028
 20
-1154.4420647800544
 42
-0.0187720905715916
 10
533.39966352912097
 20
-1154.2999959266642
 10
533.43036951979366
 20
-1154.2768368442692
 42
-0.017942820751739
 10
533.66279023979018
 20
-1154.1142846671573
 10
533.66644256670781
 20
-1154.1119207322683
 42
-0.0170047877696846
 10
533.90220620423634
 20
-1153.9704602181182
 10
533.90598919298145
 20
-1153.9683619130826
 42
-0.0160190788370739
 10
534.1428977406182
 20
-1153.8467106110938
 42
-0.0151102861490453
 10
534.38692952306667
 20
-1153.7400278350383
 10
534.43931602527664
 20
-1153.7189877021444
 42
-0.0271945441885526
 10
534.79797858433562
 20
-1153.5971228914382
 10
534.86704338482218
 20
-1153.5777733501723
 42
-0.0237596594019302
 10
535.2828402318454
 20
-1153.4823226381905
 10
535.35090308557221
 20
-1153.4700679500643
 42
-0.0213715440553962
 10
535.63677801702113
 20
-1153.4311209185539
 10
535.69692518324302
 20
-1153.4255312038526
 42
-0.0101465655813053
 10
535.86441771523334
 20
-1153.4133876605888
 10
535.87375810143476
 20
-1153.4129007455913
 42
-0.0100375910870989
 10
536.02291220199413
 20
-1153.4081249276664
 10
536.03317147167695
 20
-1153.4080024886521
 42
-0.0103625633382111
 10
536.16187946632931
 20
-1153.4091339221786
 10
536.18414511759136
 20
-1153.4097912806435
 42
-0.0115689250241411
 10
536.26819585512408
 20
-1153.4142207868886
 42
-0.0072438037425944
 10
536.3520341345635
 20
-1153.421809986638
 10
536.36883464403604
 20
-1153.4235765293622
 42
-0.0217917313133267
 10
536.48540440735076
 20
-1153.4409964220836
 10
536.55100449791928
 20
-1153.4537430304983
 42
-0.0332943556753446
 10
536.7553966629448
 20
-1153.5077833218047
 10
536.78556923149438
 20
-1153.5179513989231
 42
-0.0184824084792265
 10
536.92407428796025
 20
-1153.5704024143097
 42
-0.0198002050691311
 10
537.05814862845864
 20
-1153.6332864745086
 10
537.06003526583652
 20
-1153.634264261389
 42
-0.0212242342980824
 10
537.19217420823759
 20
-1153.7100270001815
 10
537.19398950378195
 20
-1153.7111728023906
 42
-0.0226090605799649
 10
537.32249340500164
 20
-1153.8006524459536
 10
537.32433784674106
 20
-1153.8020646989426
 42
-0.0238457052240905
 10
537.44751992803413
 20
-1153.906060594805
 10
537.449472656593
 20
-1153.907875472571
 42
-0.0248160564154514
 10
537.56567416389385
 20
-1154.0271500737799
 10
537.56777779729578
 20
-1154.0295354074842
 42
-0.0254109591457824
 10
537.67538301516197
 20
-1154.1648237934489
 10
537.6776310370758
 20
-1154.1679653418491
 42
-0.0255528488279973
 10
537.7750777158725
 20
-1154.3199923960826
 10
537.77740881578904
 20
-1154.3240740076908
 42
-0.0252146793224636
 10
537.86318984179854
 20
-1154.4935762536884
 10
537.86549208095585
 20
-1154.4987583356008
 42
-0.0244265635947638
 10
537.93814677471755
 20
-1154.6865049076478
 10
537.94739317618564
 20
-1154.7143703259849
 42
-0.023131961290583
 10
537.99331595517776
 20
-1154.8776713727868
 42
-0.0112130424354135
 10
538.02795197771582
 20
-1155.0438749729744
 10
538.02915450282842
 20
-1155.0503715598629
 42
-0.0210527881240717
 10
538.05484097819919
 20
-1155.2314272053036
 10
538.05835157302113
 20
-1155.2668327538513
 42
-0.0190029892425116
 10
538.0737930465657
 20
-1155.520368600123
 10
538.07460302300979
 20
-1155.5558442144925
 42
-0.0137974553663083
 10
538.07305417017437
 20
-1155.8808756212215
 10
538.07220871521884
 20
-1155.906994365813
 42
-0.0081336634215635
 10
538.05734937999614
 20
-1156.2123418334181
 42
-0.007352692357583
 10
538.03304084662147
 20
-1156.5170900777046
 10
538.03177942283878
 20
-1156.5304267523693
 42
-0.0066886138688052
 10
537.99604383679196
 20
-1156.8610127958686
 10
537.99438674732232
 20
-1156.8746344148581
 42
-0.0061359187352418
 10
537.94653614527169
 20
-1157.2313983949564
 10
537.94449864419857
 20
-1157.2452931977873
 42
-0.0056698610064453
 10
537.88384831343024
 20
-1157.6285717666331
 10
537.88144288010847
 20
-1157.6427308858561
 42
-0.0052721077275694
 10
537.80731067930913
 20
-1158.0528582255322
 10
537.80454753046706
 20
-1158.06727486092
 42
-0.0049289272178009
 10
537.71625341236904
 20
-1158.504583372033
 10
537.71314091768454
 20
-1158.5192522248581
 42
-0.0047415956711908
 10
537.60990292615202
 20
-1158.9840489822695
 10
537.5751347157925
 20
-1159.1338560776519
 42
-0.0084404470904892
 10
537.38511827222089
 20
-1159.8940801021822
 10
537.378991584235
 20
-1159.9169442263365
 42
-0.0039635940257222
 10
537.15753789994972
 20
-1160.7179330905881
 10
537.14416110477146
 20
-1160.7648647071755
 42
-0.0072475040837395
 10
536.87671421691016
 20
-1161.6540844235603
 10
536.8065018900827
 20
-1161.8758247735327
 42
-0.0051345458829762
 10
536.5197425180221
 20
-1162.7501499613491
 10
536.49821625125549
 20
-1162.8135762284764
 42
-0.001915001660254
 10
536.2426828443879
 20
-1163.5571253487051
 10
536.23621524000509
 20
-1163.5757128135876
 42
-0.0021524362753461
 10
535.98773718892778
 20
-1164.2800386353347
 10
535.97852676822765
 20
-1164.3057922136463
 42
-0.0024331286818503
 10
535.74227150919535
 20
-1164.9563915217541
 10
535.73322355664152
 20
-1164.9809348281174
 42
-0.002744972179032
 10
535.50860898580947
 20
-1165.580064707033
 10
535.49971897842943
 20
-1165.6033872968533
 42
-0.0031083229770231
 10
535.28617649180728
 20
-1166.1533113344649
 10
535.27744036013246
 20
-1166.1754010503209
 42
-0.0035311343281775
 10
535.07439917453985
 20
-1166.6783841760528
 10
535.06581383538833
 20
-1166.6992268995723
 42
-0.0040245640947739
 10
534.87270203159767
 20
-1167.1575362221556
 10
534.86426591799966
 20
-1167.1771155902159
 42
-0.0046015135851915
 10
534.68050962483085
 20
-1167.5930206198698
 10
534.67222344700235
 20
-1167.6113177593222
 42
-0.0052768638269947
 10
534.49724592804705
 20
-1167.9870906435922
 10
534.48911371742372
 20
-1168.0040839821279
 42
-0.0060672675646057
 10
534.32233410465415
 20
-1168.3419996052496
 10
534.31436462417059
 20
-1168.3576648642511
 42
-0.0069904648868218
 10
534.1551962301711
 20
-1168.6600006709104
 10
534.14740483056153
 20
-1168.6743112201357
 42
-0.0080637022773421
 10
533.99525297021444
 20
-1168.943346523291
 10
533.98766393758137
 20
-1168.9562743888948
 42
-0.0093006455661707
 10
533.84192326105165
 20
-1169.1942887873947
 10
533.83457259430668
 20
-1169.2058067565699
 42
-0.0107060778053228
 10
533.69462405086961
 20
-1169.415077073947
 10
533.68756228259178
 20
-1169.4251626165103
 42
-0.0122723111422475
 10
533.55276856439184
 20
-1169.6079559460018
 10
533.55244234083648
 20
-1169.6083763338131
 42
-0.0141836319625572
 10
533.40886073786373
 20
-1169.782946091641
 10
533.40191298221487
 20
-1169.7909210919022
 42
-0.0175957477214987
 10
533.26200681417708
 20
-1169.9405419803106
 42
-0.0080466359670108
 10
533.11454304914037
 20
-1170.0828645084678
 10
533.06850850462934
 20
-1170.125884946553
 42
-0.026960026039895
 10
532.81522825864852
 20
-1170.3382082050607
 10
532.74866112235088
 20
-1170.388159619685
 42
-0.0178362839754744
 10
532.50871663269368
 20
-1170.5551775459385
 10
532.50147166169131
 20
-1170.5598460581446
 42
-0.0174650732649807
 10
532.2651354642519
 20
-1170.7007070231025
 42
-0.0169240130168643
 10
532.01966921839812
 20
-1170.824999282878
 10
531.97368306283636
 20
-1170.8463612384471
 42
-0.0318883036838798
 10
531.62333220721507
 20
-1170.9826995479577
 10
531.55496667204955
 20
-1171.0044001684334
 42
-0.0284435909900476
 10
531.17891654576067
 20
-1171.1006176039073
 10
531.14375838526212
 20
-1171.1075111997359
 42
-0.0243909341013028
 10
530.83031492434316
 20
-1171.153232230766
 10
530.78003419756988
 20
-1171.1580777776678
 42
-0.0196639292929163
 10
530.56443862004471
 20
-1171.1703260631812
 10
530.51261454888618
 20
-1171.1712293239177
 42
-0.0100501510692435
 10
530.400191267217
 20
-1171.1709289255648
 10
530.36853140585345
 20
-1171.1702078536789
 42
-0.0019752031117821
 10
530.31943906919162
 20
-1171.1688956934699
 10
530.31667876597169
 20
-1171.1688110016437
 42
0.0065378752001573
 10
530.27310219121466
 20
-1171.1680441104286
 42
-0.0167974694656217
 10
530.22957136828222
 20
-1171.1663842119024
 10
530.22549202902076
 20
-1171.1660912010075
 42
-0.0081283276295304
 10
530.17393223128749
 20
-1171.1615442073703
 10
530.16219265740369
 20
-1171.1603162897914
 42
-0.0126703440171175
 10
530.08747436160809
 20
-1171.1505814987197
 10
530.06468649393344
 20
-1171.1470232428046
 42
-0.0117852088437212
 10
529.94514750810197
 20
-1171.1254602476477
 10
529.88976705633809
 20
-1171.1141167074129
 42
-0.0251774592290896
 10
529.66292301733051
 20
-1171.0556186979802
 10
529.61820382747794
 20
-1171.0416518786444
 42
-0.014652519987985
 10
529.43181083994068
 20
-1170.9773853514466
 42
-0.016692943584972
 10
529.24983318381476
 20
-1170.9015782183924
 10
529.24517655254078
 20
-1170.8994533177779
 42
-0.0191684358442539
 10
529.05999292129434
 20
-1170.8062172339894
 10
529.05666033553462
 20
-1170.8043759864345
 42
-0.0221181781813503
 10
528.87335003163184
 20
-1170.6922424880634
 10
528.87100022762399
 20
-1170.6906581900728
 42
-0.0254984685387104
 10
528.6947100772386
 20
-1170.558247040103
 10
528.67222792953737
 20
-1170.5394947311675
 42
-0.0292492648808933
 10
528.54745899069371
 20
-1170.4224019315238
 42
-0.0159048957495241
 10
528.43361899324407
 20
-1170.2943819399254
 10
528.43230020266424
 20
-1170.2928003269049
 42
-0.0343813379562602
 10
528.32966294103755
 20
-1170.1509290011347
 10
528.29817140967759
 20
-1170.1004256090421
 42
-0.0369117275705399
 10
528.21227890777982
 20
-1169.9369483680928
 42
-0.0191751379909462
 10
528.14508552222264
 20
-1169.7645437620861
 10
528.14332219846335
 20
-1169.7594504174119
 42
-0.0378178042221562
 10
528.0935274796791
 20
-1169.5705096413305
 10
528.08753218394872
 20
-1169.5379490231328
 42
-0.0184846046478017
 10
528.06681498465446
 20
-1169.3961962025887
 42
-0.0179866351324163
 10
528.05648197958078
 20
-1169.2533053895065
 10
528.05642553713506
 20
-1169.251747702895
 42
-0.008549718610888
 10
528.05499325603114
 20
-1169.1768745378852
 42
-0.008549718610888
  0
ENDBLK
  5
63
100
AcDbEntity
  8
template
390
0
100
AcDbBlockEnd
  0
BLOCK
  5
64
100
AcDbEntity
  8
cut
390
0
100
AcDbBlockBegin
  2
*D3
 70
               1
 10
0.0
 20
0.0
 30
0.0
  3
*D3
  1

  0
LINE
  5
65
100
AcDbEntity
  8
0
370
              -2
390
0
  6
Continuous
 62
               0
100
AcDbLine
 10
-1538.6237782826238
 20
2491.4234495529263
 30
0.0
 11
-1270.6114064922858
 21
2491.4234495529263
 31
0.0
  0
LINE
  5
66
100
AcDbEntity
  8
0
370
              -2
390
0
  6
Continuous
 62
               0
100
AcDbLine
 10
-1538.6237782826238
 20
1791.4234495529261
 30
0.0
 11
-1270.6114064922858
 21
1791.4234495529261
 31
0.0
  0
LINE
  5
67
100
AcDbEntity
  8
0
370
              -2
390
0
  6
Continuous
 62
               0
100
AcDbLine
 10
-1270.6114064922858
 20
2491.4234495529263
 30
0.0
 11
-1270.6114064922858
 21
1791.4234495529261
 31
0.0
  0
CIRCLE
  5
68
102
{ACAD_REACTORS
330
69
102
}
100
AcDbEntity
  8
0
370
              -2
390
0
  6
Continuous
 62
               0
100
AcDbCircle
 10
-1270.6114064922858
 20
2491.4234495529263
 30
0.0
 40
3.999755859375
  0
HATCH
  5
69
100
AcDbEntity
  8
0
370
              -2
390
0
  6
Continuous
 62
               0
100
AcDbHatch
 10
0.0
 20
0.0
 30
0.0
210
0.0
220
0.0
230
1.0
  2
SOLID
 70
               1
 71
               1
 91
        1
 92
        1
 93
        1
 72
               2
 10
-1270.6114064922858
 20
2491.4234495529263
 40
3.999755859375
 50
0.0
 51
360.0
 73
               0
 97
        1
330
68
 75
               0
 76
               1
 98
        1
 10
0.0
 20
0.0
  0
CIRCLE
  5
6A
102
{ACAD_REACTORS
330
6B
102
}
100
AcDbEntity
  8
0
370
              -2
390
0
  6
Continuous
 62
               0
100
AcDbCircle
 10
-1270.6114064922858
 20
1791.4234495529261
 30
0.0
 40
3.999755859375
  0
HATCH
  5
6B
100
AcDbEntity
  8
0
370
              -2
390
0
  6
Continuous
 62
               0
100
AcDbHatch
 10
0.0
 20
0.0
 30
0.0
210
0.0
220
0.0
230
1.0
  2
SOLID
 70
               1
 71
               1
 91
        1
 92
        1
 93
        1
 72
               2
 10
-1270.6114064922858
 20
1791.4234495529261
 40
3.999755859375
 50
0.0
 51
360.0
 73
               0
 97
        1
330
6A
 75
               0
 76
               1
 98
        1
 10
0.0
 20
0.0
  0
MTEXT
  5
6C
100
AcDbEntity
  8
0
390
0
 62
               0
100
AcDbMText
 10
-1338.3666408672859
 20
2093.7984461885753
 30
0.0
 40
48.865234375000007
 41
0.0
 71
               1
 72
               1
  1
700
  7
ＭＳゴシック
 11
0.0
 21
1.0
 31
0.0
 73
               1
 44
0.7828267384257843
  0
POINT
  5
6D
100
AcDbEntity
  8
Defpoints
370
               0
390
0
 62
               0
100
AcDbPoint
 10
-1588.6237782826238
 20
1791.4234495529261
 30
0.0
  0
POINT
  5
6E
100
AcDbEntity
  8
Defpoints
370
               0
390
0
 62
               0
100
AcDbPoint
 10
-1588.6237782826238
 20
2491.4234495529263
 30
0.0
  0
POINT
  5
6F
100
AcDbEntity
  8
Defpoints
370
               0
390
0
 62
               0
100
AcDbPoint
 10
-1270.6114064922858
 20
2491.4234495529263
 30
0.0
  0
ENDBLK
  5
70
100
AcDbEntity
  8
cut
390
0
100
AcDbBlockEnd
  0
BLOCK
  5
71
100
AcDbEntity
  8
cut
390
0
100
AcDbBlockBegin
  2
*D4
 70
               1
 10
0.0
 20
0.0
 30
0.0
  3
*D4
  1

  0
LINE
  5
72
100
AcDbEntity
  8
0
370
              -2
390
0
  6
Continuous
 62
               0
100
AcDbLine
 10
-1588.6237782826238
 20
2541.4234495529263
 30
0.0
 11
-1588.6237782826238
 21
2644.506490722275
 31
0.0
  0
LINE
  5
73
100
AcDbEntity
  8
0
370
              -2
390
0
  6
Continuous
 62
               0
100
AcDbLine
 10
-1868.6237782826245
 20
2541.4234495529263
 30
0.0
 11
-1868.6237782826245
 21
2644.506490722275
 31
0.0
  0
LINE
  5
74
100
AcDbEntity
  8
0
370
              -2
390
0
  6
Continuous
 62
               0
100
AcDbLine
 10
-1588.6237782826238
 20
2644.506490722275
 30
0.0
 11
-1868.6237782826245
 21
2644.506490722275
 31
0.0
  0
CIRCLE
  5
75
102
{ACAD_REACTORS
330
76
102
}
100
AcDbEntity
  8
0
370
              -2
390
0
  6
Continuous
 62
               0
100
AcDbCircle
 10
-1588.6237782826238
 20
2644.506490722275
 30
0.0
 40
3.999755859375
  0
HATCH
  5
76
100
AcDbEntity
  8
0
370
              -2
390
0
  6
Continuous
 62
               0
100
AcDbHatch
 10
0.0
 20
0.0
 30
0.0
210
0.0
220
0.0
230
1.0
  2
SOLID
 70
               1
 71
               1
 91
        1
 92
        1
 93
        1
 72
               2
 10
-1588.6237782826238
 20
2644.506490722275
 40
3.999755859375
 50
0.0
 51
360.0
 73
               0
 97
        1
330
75
 75
               0
 76
               1
 98
        1
 10
0.0
 20
0.0
  0
CIRCLE
  5
77
102
{ACAD_REACTORS
330
78
102
}
100
AcDbEntity
  8
0
370
              -2
390
0
  6
Continuous
 62
               0
100
AcDbCircle
 10
-1868.6237782826245
 20
2644.506490722275
 30
0.0
 40
3.999755859375
  0
HATCH
  5
78
100
AcDbEntity
  8
0
370
              -2
390
0
  6
Continuous
 62
               0
100
AcDbHatch
 10
0.0
 20
0.0
 30
0.0
210
0.0
220
0.0
230
1.0
  2
SOLID
 70
               1
 71
               1
 91
        1
 92
        1
 93
        1
 72
               2
 10
-1868.6237782826245
 20
2644.506490722275
 40
3.999755859375
 50
0.0
 51
360.0
 73
               0
 97
        1
330
77
 75
               0
 76
               1
 98
        1
 10
0.0
 20
0.0
  0
MTEXT
  5
79
100
AcDbEntity
  8
0
390
0
 62
               0
100
AcDbMText
 10
-1776.2487816469752
 20
2712.2617250972748
 30
0.0
 40
48.865234375000007
 41
0.0
 71
               1
 72
               1
  1
280
  7
ＭＳゴシック
 73
               1
 44
0.7828267384257843
  0
POINT
  5
7A
100
AcDbEntity
  8
Defpoints
370
               0
390
0
 62
               0
100
AcDbPoint
 10
-1868.6237782826245
 20
2491.4234495529263
 30
0.0
  0
POINT
  5
7B
100
AcDbEntity
  8
Defpoints
370
               0
390
0
 62
               0
100
AcDbPoint
 10
-1588.6237782826238
 20
2491.4234495529263
 30
0.0
  0
POINT
  5
7C
100
AcDbEntity
  8
Defpoints
370
               0
390
0
 62
               0
100
AcDbPoint
 10
-1588.6237782826238
 20
2644.506490722275
 30
0.0
  0
ENDBLK
  5
7D
100
AcDbEntity
  8
cut
390
0
100
AcDbBlockEnd
  0
BLOCK
  5
7E
100
AcDbEntity
  8
cut
390
0
100
AcDbBlockBegin
  2
*D5
 70
               1
 10
0.0
 20
0.0
 30
0.0
  3
*D5
  1

  0
LINE
  5
7F
100
AcDbEntity
  8
0
370
              -2
390
0
  6
Continuous
 62
               0
100
AcDbLine
 10
-1868.6237782826245
 20
2541.4234495529263
 30
0.0
 11
-1868.6237782826245
 21
2644.506490722275
 31
0.0
  0
LINE
  5
80
100
AcDbEntity
  8
0
370
              -2
390
0
  6
Continuous
 62
               0
100
AcDbLine
 10
-1908.6237782826245
 20
2541.4234495529263
 30
0.0
 11
-1908.6237782826245
 21
2644.506490722275
 31
0.0
  0
LINE
  5
81
100
AcDbEntity
  8
0
370
              -2
390
0
  6
Continuous
 62
               0
100
AcDbLine
 10
-1908.6237782826245
 20
2644.506490722275
 30
0.0
 11
-1983.8737782826245
 21
2644.506490722275
 31
0.0
  0
LINE
  5
82
100
AcDbEntity
  8
0
370
              -2
390
0
  6
Continuous
 62
               0
100
AcDbLine
 10
-1868.6237782826245
 20
2644.506490722275
 30
0.0
 11
-1908.6237782826245
 21
2644.506490722275
 31
0.0
  0
CIRCLE
  5
83
102
{ACAD_REACTORS
330
84
102
}
100
AcDbEntity
  8
0
370
              -2
390
0
  6
Continuous
 62
               0
100
AcDbCircle
 10
-1868.6237782826245
 20
2644.506490722275
 30
0.0
 40
3.999755859375
  0
HATCH
  5
84
100
AcDbEntity
  8
0
370
              -2
390
0
  6
Continuous
 62
               0
100
AcDbHatch
 10
0.0
 20
0.0
 30
0.0
210
0.0
220
0.0
230
1.0
  2
SOLID
 70
               1
 71
               1
 91
        1
 92
        1
 93
        1
 72
               2
 10
-1868.6237782826245
 20
2644.506490722275
 40
3.999755859375
 50
0.0
 51
360.0
 73
               0
 97
        1
330
83
 75
               0
 76
               1
 98
        1
 10
0.0
 20
0.0
  0
CIRCLE
  5
85
102
{ACAD_REACTORS
330
86
102
}
100
AcDbEntity
  8
0
370
              -2
390
0
  6
Continuous
 62
               0
100
AcDbCircle
 10
-1908.6237782826245
 20
2644.506490722275
 30
0.0
 40
3.999755859375
  0
HATCH
  5
86
100
AcDbEntity
  8
0
370
              -2
390
0
  6
Continuous
 62
               0
100
AcDbHatch
 10
0.0
 20
0.0
 30
0.0
210
0.0
220
0.0
230
1.0
  2
SOLID
 70
               1
 71
               1
 91
        1
 92
        1
 93
        1
 72
               2
 10
-1908.6237782826245
 20
2644.506490722275
 40
3.999755859375
 50
0.0
 51
360.0
 73
               0
 97
        1
330
85
 75
               0
 76
               1
 98
        1
 10
0.0
 20
0.0
  0
MTEXT
  5
87
100
AcDbEntity
  8
0
390
0
 62
               0
100
AcDbMText
 10
-1983.8737782826245
 20
2712.2617250972748
 30
0.0
 40
48.865234375000007
 41
0.0
 71
               1
 72
               1
  1
40
  7
ＭＳゴシック
 73
               1
 44
0.7828267384257843
  0
POINT
  5
88
100
AcDbEntity
  8
Defpoints
370
               0
390
0
 62
               0
100
AcDbPoint
 10
-1908.6237782826245
 20
2491.4234495529263
 30
0.0
  0
POINT
  5
89
100
AcDbEntity
  8
Defpoints
370
               0
390
0
 62
               0
100
AcDbPoint
 10
-1868.6237782826245
 20
2491.4234495529263
 30
0.0
  0
POINT
  5
8A
100
AcDbEntity
  8
Defpoints
370
               0
390
0
 62
               0
100
AcDbPoint
 10
-1868.6237782826245
 20
2644.506490722275
 30
0.0
  0
ENDBLK
  5
8B
100
AcDbEntity
  8
cut
390
0
100
AcDbBlockEnd
  0
BLOCK
  5
8C
100
AcDbEntity
  8
cut
390
0
100
AcDbBlockBegin
  2
グループ-1
 70
               0
 10
0.0
 20
0.0
 30
0.0
  3
グループ-1
  1

  0
POLYLINE
  5
8D
100
AcDbEntity
  8
0
370
              15
390
0
  6
Continuous
 62
               7
100
AcDb2dPolyline
 66
               1
 10
0.0
 20
0.0
 30
0.0
 70
               1
 75
               5
  0
VERTEX
  5
8E
100
AcDbEntity
  8
0
370
              15
390
0
  6
Continuous
 62
               7
100
AcDbVertex
100
AcDb2dVertex
 10
-1868.6237782826245
 20
2491.4234495529263
 30
0.0
  0
VERTEX
  5
8F
100
AcDbEntity
  8
0
370
              15
390
0
  6
Continuous
 62
               7
100
AcDbVertex
100
AcDb2dVertex
 10
-1588.6237782826238
 20
2491.4234495529263
 30
0.0
  0
VERTEX
  5
90
100
AcDbEntity
  8
0
370
              15
390
0
  6
Continuous
 62
               7
100
AcDbVertex
100
AcDb2dVertex
 10
-1588.6237782826238
 20
1791.4234495529261
 30
0.0
  0
VERTEX
  5
91
100
AcDbEntity
  8
0
370
              15
390
0
  6
Continuous
 62
               7
100
AcDbVertex
100
AcDb2dVertex
 10
-1868.6237782826245
 20
1791.4234495529261
 30
0.0
  0
SEQEND
  5
92
100
AcDbEntity
  8
0
370
              15
390
0
  6
Continuous
 62
               7
  0
LINE
  5
93
100
AcDbEntity
  8
0
370
               5
390
0
  6
STYLE_03
 62
               7
100
AcDbLine
 10
-1908.6237782826195
 20
1544.3930203484786
 30
0.0
 11
-1908.6237782826195
 21
2141.3930203484788
 31
0.0
  0
LINE
  5
94
100
AcDbEntity
  8
0
370
               5
390
0
  6
STYLE_12
 62
               7
100
AcDbLine
 10
-1905.6237782826199
 20
1541.3930203484786
 30
0.0
 11
-1451.6237782826211
 21
1541.3930203484786
 31
0.0
  0
ARC
  5
95
100
AcDbEntity
  8
0
370
               5
390
0
  6
STYLE_12
 62
               7
100
AcDbCircle
 10
-1639.6237782826215
 20
2141.3930203484788
 30
0.0
 40
22.5
100
AcDbArc
 50
180.0
 51
0.0
  0
ARC
  5
96
100
AcDbEntity
  8
0
370
               5
390
0
  6
STYLE_12
 62
               7
100
AcDbCircle
 10
-1451.6237782826215
 20
1544.3930203484786
 30
0.0
 40
3.0
100
AcDbArc
 50
270.0
 51
0.0
  0
ARC
  5
97
100
AcDbEntity
  8
0
370
               5
390
0
  6
STYLE_12
 62
               7
100
AcDbCircle
 10
-1905.6237782826204
 20
1544.3930203484786
 30
0.0
 40
3.0
100
AcDbArc
 50
180.0
 51
270.0
  0
LINE
  5
98
100
AcDbEntity
  8
0
370
               5
390
0
  6
STYLE_03
 62
               7
100
AcDbLine
 10
-1908.6237782826195
 20
2141.3930203484788
 30
0.0
 11
-1908.6237782826195
 21
1746.3818436636072
 31
0.0
  0
LINE
  5
99
100
AcDbEntity
  8
0
370
               5
390
0
  6
STYLE_12
 62
               7
100
AcDbLine
 10
-1448.6237782826206
 20
2141.3930203484788
 30
0.0
 11
-1448.6237782826211
 21
1544.3930203484786
 31
0.0
  0
ARC
  5
9A
100
AcDbEntity
  8
0
370
               5
390
0
  6
STYLE_12
 62
               7
100
AcDbCircle
 10
-1639.6237782826215
 20
2141.3930203484788
 30
0.0
 40
22.5
100
AcDbArc
 50
0.0
 51
180.0
  0
LINE
  5
9B
100
AcDbEntity
  8
0
370
               5
390
0
  6
STYLE_12
 62
               7
100
AcDbLine
 10
-1905.6237782826245
 20
2741.3930203484688
 30
0.0
 11
-1451.6237782826261
 21
2741.3930203484724
 31
0.0
  0
LINE
  5
9C
100
AcDbEntity
  8
0
370
               5
390
0
  6
STYLE_12
 62
               7
100
AcDbLine
 10
-1448.6237782826206
 20
2141.3930203484806
 30
0.0
 11
-1448.6237782826261
 21
2738.3930203484724
 31
0.0
  0
ARC
  5
9D
100
AcDbEntity
  8
0
370
               5
390
0
  6
STYLE_12
 62
               7
100
AcDbCircle
 10
-1451.6237782826261
 20
2738.3930203484724
 30
0.0
 40
3.0
100
AcDbArc
 50
0.0
 51
90.0
  0
LINE
  5
9E
100
AcDbEntity
  8
0
370
               5
390
0
  6
STYLE_03
 62
               7
100
AcDbLine
 10
-1908.6237782826245
 20
2738.3930203484688
 30
0.0
 11
-1908.6237782826195
 21
2141.393020348477
 31
0.0
  0
ARC
  5
9F
100
AcDbEntity
  8
0
370
               5
390
0
  6
STYLE_12
 62
               7
100
AcDbCircle
 10
-1905.6237782826245
 20
2738.3930203484688
 30
0.0
 40
3.0
100
AcDbArc
 50
90.0
 51
180.0
  0
CIRCLE
  5
A0
100
AcDbEntity
  8
0
370
               5
390
0
  6
STYLE_12
 62
               7
100
AcDbCircle
 10
-1838.6295934612156
 20
2041.3930203484786
 30
0.0
 40
17.500000000000227
  0
CIRCLE
  5
A1
100
AcDbEntity
  8
0
370
               5
390
0
  6
STYLE_12
 62
               7
100
AcDbCircle
 10
-1838.6295934612156
 20
1941.3930203484786
 30
0.0
 40
17.5
  0
CIRCLE
  5
A2
100
AcDbEntity
  8
0
370
               5
390
0
  6
STYLE_12
 62
               7
100
AcDbCircle
 10
-1838.6295934612156
 20
1841.3930203484804
 30
0.0
 40
17.5
  0
CIRCLE
  5
A3
100
AcDbEntity
  8
0
370
               5
390
0
  6
STYLE_12
 62
               7
100
AcDbCircle
 10
-1838.6295934612183
 20
2441.393020348477
 30
0.0
 40
17.5
  0
CIRCLE
  5
A4
100
AcDbEntity
  8
0
370
               5
390
0
  6
STYLE_12
 62
               7
100
AcDbCircle
 10
-1838.6295934612174
 20
2341.393020348477
 30
0.0
 40
17.5
  0
CIRCLE
  5
A5
100
AcDbEntity
  8
0
370
               5
390
0
  6
STYLE_12
 62
               7
100
AcDbCircle
 10
-1838.6295934612165
 20
2241.3930203484779
 30
0.0
 40
17.5
  0
CIRCLE
  5
A6
100
AcDbEntity
  8
0
370
               5
390
0
  6
STYLE_12
 62
               7
100
AcDbCircle
 10
-1838.6295934612156
 20
2141.3930203484788
 30
0.0
 40
17.5
  0
LINE
  5
A7
100
AcDbEntity
  8
0
370
               5
390
0
  6
Continuous
 62
               7
100
AcDbLine
 10
-1908.6237782826245
 20
1441.393020348474
 30
0.0
 11
-1908.6237782826245
 21
2841.3930203484742
 31
0.0
  0
LINE
  5
A8
100
AcDbEntity
  8
0
370
               5
390
0
  6
Continuous
 62
               7
100
AcDbLine
 10
-1908.133133019579
 20
2722.8720153147724
 30
0.0
 11
-1982.133133019579
 21
2796.8720153147724
 31
0.0
  0
LINE
  5
A9
100
AcDbEntity
  8
0
370
               5
390
0
  6
Continuous
 62
               7
100
AcDbLine
 10
-1908.133133019579
 20
2762.8720153147724
 30
0.0
 11
-1982.133133019579
 21
2836.8720153147724
 31
0.0
  0
LINE
  5
AA
100
AcDbEntity
  8
0
370
               5
390
0
  6
Continuous
 62
               7
100
AcDbLine
 10
-1908.133133019579
 20
2802.8720153147724
 30
0.0
 11
-1982.133133019579
 21
2876.8720153147733
 31
0.0
  0
DIMENSION
  5
AB
100
AcDbEntity
  8
0
370
               5
390
0
  6
Continuous
 62
               7
100
AcDbDimension
  2
*D3
 10
-1270.6114064922858
 20
2491.4234495529263
 30
0.0
 11
-1270.6114064922858
 21
2141.4234495529263
 31
0.0
 71
               5
 72
               1
 41
1.0
 42
0.0
  3
tform線あり
100
AcDbAlignedDimension
 13
-1588.6237782826238
 23
1791.4234495529261
 33
0.0
 14
-1588.6237782826238
 24
2491.4234495529263
 34
0.0
 50
90.0
100
AcDbRotatedDimension
1001
ACAD
1000
DSTYLE
1002
{
1070
             279
1070
               2
1070
             340
1005
3B
1070
             144
1040
2.0
1070
             147
1040
10.0
1002
}
  0
DIMENSION
  5
AC
100
AcDbEntity
  8
0
370
               5
390
0
  6
Continuous
 62
               7
100
AcDbDimension
  2
*D4
 10
-1588.6237782826238
 20
2644.506490722275
 30
0.0
 11
-1728.6237782826242
 21
2644.506490722275
 31
0.0
 71
               5
 72
               1
 41
1.0
 42
0.0
  3
tform線あり
100
AcDbAlignedDimension
 13
-1868.6237782826245
 23
2491.4234495529263
 33
0.0
 14
-1588.6237782826238
 24
2491.4234495529263
 34
0.0
100
AcDbRotatedDimension
1001
ACAD
1000
DSTYLE
1002
{
1070
             279
1070
               2
1070
             340
1005
3B
1070
             144
1040
2.0
1070
             147
1040
10.0
1002
}
  0
DIMENSION
  5
AD
100
AcDbEntity
  8
0
370
               5
390
0
  6
Continuous
 62
               7
100
AcDbDimension
  2
*D5
 10
-1868.6237782826245
 20
2644.506490722275
 30
0.0
 11
-1920.3737782826245
 21
2654.506490722275
 31
0.0
 70
             128
 71
               5
 72
               1
 41
1.0
 42
0.0
  3
tform線あり
100
AcDbAlignedDimension
 13
-1908.6237782826245
 23
2491.4234495529263
 33
0.0
 14
-1868.6237782826245
 24
2491.4234495529263
 34
0.0
100
AcDbRotatedDimension
1001
ACAD
1000
DSTYLE
1002
{
1070
             279
1070
               2
1070
             340
1005
3B
1070
             144
1040
2.0
1070
             174
1070
               0
1070
             147
1040
10.0
1002
}
  0
ENDBLK
  5
AE
100
AcDbEntity
  8
cut
390
0
100
AcDbBlockEnd
  0
BLOCK
  5
AF
100
AcDbEntity
  8
notes
390
0
100
AcDbBlockBegin
  2
*D7
 70
               1
 10
0.0
 20
0.0
 30
0.0
  3
*D7
  1

  0
LINE
  5
B0
100
AcDbEntity
  8
0
370
              -2
390
0
  6
Continuous
 62
               0
100
AcDbLine
 10
714.84876126401878
 20
1108.3881620580462
 30
0.0
 11
794.84876126401878
 21
1108.3881620580462
 31
0.0
  0
LINE
  5
B1
100
AcDbEntity
  8
0
370
              -2
390
0
  6
Continuous
 62
               0
100
AcDbLine
 10
719.84876126401878
 20
828.38816205804858
 30
0.0
 11
794.84876126401878
 21
828.38816205804858
 31
0.0
  0
LINE
  5
B2
100
AcDbEntity
  8
0
370
              -2
390
0
  6
Continuous
 62
               0
100
AcDbLine
 10
794.84876126401878
 20
1108.3881620580462
 30
0.0
 11
794.84876126401878
 21
828.38816205804858
 31
0.0
  0
CIRCLE
  5
B3
102
{ACAD_REACTORS
330
B4
102
}
100
AcDbEntity
  8
0
370
              -2
390
0
  6
Continuous
 62
               0
100
AcDbCircle
 10
794.84876126401878
 20
1108.3881620580462
 30
0.0
 40
1.9998779296875
  0
HATCH
  5
B4
100
AcDbEntity
  8
0
370
              -2
390
0
  6
Continuous
 62
               0
100
AcDbHatch
 10
0.0
 20
0.0
 30
0.0
210
0.0
220
0.0
230
1.0
  2
SOLID
 70
               1
 71
               1
 91
        1
 92
        1
 93
        1
 72
               2
 10
794.84876126401878
 20
1108.3881620580462
 40
1.9998779296875
 50
0.0
 51
360.0
 73
               0
 97
        1
330
B3
 75
               0
 76
               1
 98
        1
 10
0.0
 20
0.0
  0
CIRCLE
  5
B5
102
{ACAD_REACTORS
330
B6
102
}
100
AcDbEntity
  8
0
370
              -2
390
0
  6
Continuous
 62
               0
100
AcDbCircle
 10
794.84876126401878
 20
828.38816205804858
 30
0.0
 40
1.9998779296875
  0
HATCH
  5
B6
100
AcDbEntity
  8
0
370
              -2
390
0
  6
Continuous
 62
               0
100
AcDbHatch
 10
0.0
 20
0.0
 30
0.0
210
0.0
220
0.0
230
1.0
  2
SOLID
 70
               1
 71
               1
 91
        1
 92
        1
 93
        1
 72
               2
 10
794.84876126401878
 20
828.38816205804858
 40
1.9998779296875
 50
0.0
 51
360.0
 73
               0
 97
        1
330
B5
 75
               0
 76
               1
 98
        1
 10
0.0
 20
0.0
  0
MTEXT
  5
B7
100
AcDbEntity
  8
0
390
0
 62
               0
100
AcDbMText
 10
760.97114407651884
 20
944.57566037587185
 30
0.0
 40
24.432617187500004
 41
0.0
 71
               1
 72
               1
  1
280
  7
ＭＳゴシック
 11
0.0
 21
1.0
 31
0.0
 73
               1
 44
0.7828267384257843
  0
POINT
  5
B8
100
AcDbEntity
  8
Defpoints
370
               0
390
0
 62
               0
100
AcDbPoint
 10
694.84876126401878
 20
828.38816205804858
 30
0.0
  0
POINT
  5
B9
100
AcDbEntity
  8
Defpoints
370
               0
390
0
 62
               0
100
AcDbPoint
 10
689.84876126401878
 20
1108.3881620580462
 30
0.0
  0
POINT
  5
BA
100
AcDbEntity
  8
Defpoints
370
               0
390
0
 62
               0
100
AcDbPoint
 10
794.84876126401878
 20
1108.3881620580462
 30
0.0
  0
ENDBLK
  5
BB
100
AcDbEntity
  8
notes
390
0
100
AcDbBlockEnd
  0
BLOCK
  5
BC
100
AcDbEntity
  8
notes
390
0
100
AcDbBlockBegin
  2
*D8
 70
               1
 10
0.0
 20
0.0
 30
0.0
  3
*D8
  1

  0
LINE
  5
BD
100
AcDbEntity
  8
0
370
              -2
390
0
  6
Continuous
 62
               0
100
AcDbLine
 10
-552.19853681603877
 20
-601.05124983285566
 30
0.0
 11
-679.69272163744517
 21
-601.05124983285566
 31
0.0
  0
LINE
  5
BE
100
AcDbEntity
  8
0
370
              -2
390
0
  6
Continuous
 62
               0
100
AcDbLine
 10
-552.19853681603877
 20
-501.05124983285725
 30
0.0
 11
-679.69272163744517
 21
-501.05124983285725
 31
0.0
  0
LINE
  5
BF
100
AcDbEntity
  8
0
370
              -2
390
0
  6
Continuous
 62
               0
100
AcDbLine
 10
-679.69272163744517
 20
-601.05124983285566
 30
0.0
 11
-679.69272163744517
 21
-501.05124983285725
 31
0.0
  0
CIRCLE
  5
C0
102
{ACAD_REACTORS
330
C1
102
}
100
AcDbEntity
  8
0
370
              -2
390
0
  6
Continuous
 62
               0
100
AcDbCircle
 10
-679.69272163744517
 20
-601.05124983285566
 30
0.0
 40
1.9998779296875
  0
HATCH
  5
C1
100
AcDbEntity
  8
0
370
              -2
390
0
  6
Continuous
 62
               0
100
AcDbHatch
 10
0.0
 20
0.0
 30
0.0
210
0.0
220
0.0
230
1.0
  2
SOLID
 70
               1
 71
               1
 91
        1
 92
        1
 93
        1
 72
               2
 10
-679.69272163744517
 20
-601.05124983285566
 40
1.9998779296875
 50
0.0
 51
360.0
 73
               0
 97
        1
330
C0
 75
               0
 76
               1
 98
        1
 10
0.0
 20
0.0
  0
CIRCLE
  5
C2
102
{ACAD_REACTORS
330
C3
102
}
100
AcDbEntity
  8
0
370
              -2
390
0
  6
Continuous
 62
               0
100
AcDbCircle
 10
-679.69272163744517
 20
-501.05124983285725
 30
0.0
 40
1.9998779296875
  0
HATCH
  5
C3
100
AcDbEntity
  8
0
370
              -2
390
0
  6
Continuous
 62
               0
100
AcDbHatch
 10
0.0
 20
0.0
 30
0.0
210
0.0
220
0.0
230
1.0
  2
SOLID
 70
               1
 71
               1
 91
        1
 92
        1
 93
        1
 72
               2
 10
-679.69272163744517
 20
-501.05124983285725
 40
1.9998779296875
 50
0.0
 51
360.0
 73
               0
 97
        1
330
C2
 75
               0
 76
               1
 98
        1
 10
0.0
 20
0.0
  0
MTEXT
  5
C4
100
AcDbEntity
  8
0
390
0
 62
               0
100
AcDbMText
 10
-713.57033882494511
 20
-574.86375151503194
 30
0.0
 40
24.432617187500004
 41
0.0
 71
               1
 72
               1
  1
100
  7
ＭＳゴシック
 11
0.0
 21
1.0
 31
0.0
 73
               1
 44
0.7828267384257843
  0
POINT
  5
C5
100
AcDbEntity
  8
Defpoints
370
               0
390
0
 62
               0
100
AcDbPoint
 10
-527.19853681603877
 20
-501.05124983285725
 30
0.0
  0
POINT
  5
C6
100
AcDbEntity
  8
Defpoints
370
               0
390
0
 62
               0
100
AcDbPoint
 10
-527.19853681603877
 20
-601.05124983285566
 30
0.0
  0
POINT
  5
C7
100
AcDbEntity
  8
Defpoints
370
               0
390
0
 62
               0
100
AcDbPoint
 10
-679.69272163744517
 20
-601.05124983285566
 30
0.0
  0
ENDBLK
  5
C8
100
AcDbEntity
  8
notes
390
0
100
AcDbBlockEnd
  0
BLOCK
  5
C9
100
AcDbEntity
  8
notes
390
0
100
AcDbBlockBegin
  2
*D9
 70
               1
 10
0.0
 20
0.0
 30
0.0
  3
*D9
  1

  0
LINE
  5
CA
100
AcDbEntity
  8
0
370
              -2
390
0
  6
Continuous
 62
               0
100
AcDbLine
 10
-552.19853681603877
 20
-501.05124983285725
 30
0.0
 11
-679.69272163744517
 21
-501.05124983285725
 31
0.0
  0
LINE
  5
CB
100
AcDbEntity
  8
0
370
              -2
390
0
  6
Continuous
 62
               0
100
AcDbLine
 10
-552.198536816039
 20
-401.05124983285862
 30
0.0
 11
-679.69272163744517
 21
-401.05124983285862
 31
0.0
  0
LINE
  5
CC
100
AcDbEntity
  8
0
370
              -2
390
0
  6
Continuous
 62
               0
100
AcDbLine
 10
-679.69272163744517
 20
-501.05124983285725
 30
0.0
 11
-679.69272163744517
 21
-401.05124983285862
 31
0.0
  0
CIRCLE
  5
CD
102
{ACAD_REACTORS
330
CE
102
}
100
AcDbEntity
  8
0
370
              -2
390
0
  6
Continuous
 62
               0
100
AcDbCircle
 10
-679.69272163744517
 20
-501.05124983285725
 30
0.0
 40
1.9998779296875
  0
HATCH
  5
CE
100
AcDbEntity
  8
0
370
              -2
390
0
  6
Continuous
 62
               0
100
AcDbHatch
 10
0.0
 20
0.0
 30
0.0
210
0.0
220
0.0
230
1.0
  2
SOLID
 70
               1
 71
               1
 91
        1
 92
        1
 93
        1
 72
               2
 10
-679.69272163744517
 20
-501.05124983285725
 40
1.9998779296875
 50
0.0
 51
360.0
 73
               0
 97
        1
330
CD
 75
               0
 76
               1
 98
        1
 10
0.0
 20
0.0
  0
CIRCLE
  5
CF
102
{ACAD_REACTORS
330
D0
102
}
100
AcDbEntity
  8
0
370
              -2
390
0
  6
Continuous
 62
               0
100
AcDbCircle
 10
-679.69272163744517
 20
-401.05124983285862
 30
0.0
 40
1.9998779296875
  0
HATCH
  5
D0
100
AcDbEntity
  8
0
370
              -2
390
0
  6
Continuous
 62
               0
100
AcDbHatch
 10
0.0
 20
0.0
 30
0.0
210
0.0
220
0.0
230
1.0
  2
SOLID
 70
               1
 71
               1
 91
        1
 92
        1
 93
        1
 72
               2
 10
-679.69272163744517
 20
-401.05124983285862
 40
1.9998779296875
 50
0.0
 51
360.0
 73
               0
 97
        1
330
CF
 75
               0
 76
               1
 98
        1
 10
0.0
 20
0.0
  0
MTEXT
  5
D1
100
AcDbEntity
  8
0
390
0
 62
               0
100
AcDbMText
 10
-713.57033882494511
 20
-474.86375151503347
 30
0.0
 40
24.432617187500004
 41
0.0
 71
               1
 72
               1
  1
100
  7
ＭＳゴシック
 11
0.0
 21
1.0
 31
0.0
 73
               1
 44
0.7828267384257843
  0
POINT
  5
D2
100
AcDbEntity
  8
Defpoints
370
               0
390
0
 62
               0
100
AcDbPoint
 10
-527.198536816039
 20
-401.05124983285862
 30
0.0
  0
POINT
  5
D3
100
AcDbEntity
  8
Defpoints
370
               0
390
0
 62
               0
100
AcDbPoint
 10
-527.19853681603877
 20
-501.05124983285725
 30
0.0
  0
POINT
  5
D4
100
AcDbEntity
  8
Defpoints
370
               0
390
0
 62
               0
100
AcDbPoint
 10
-679.69272163744517
 20
-501.05124983285725
 30
0.0
  0
ENDBLK
  5
D5
100
AcDbEntity
  8
notes
390
0
100
AcDbBlockEnd
  0
BLOCK
  5
D6
100
AcDbEntity
  8
notes
390
0
100
AcDbBlockBegin
  2
*D10
 70
               1
 10
0.0
 20
0.0
 30
0.0
  3
*D10
  1

  0
LINE
  5
D7
100
AcDbEntity
  8
0
370
              -2
390
0
  6
Continuous
 62
               0
100
AcDbLine
 10
-552.198536816039
 20
-401.05124983285862
 30
0.0
 11
-679.6927216374454
 21
-401.05124983285862
 31
0.0
  0
LINE
  5
D8
100
AcDbEntity
  8
0
370
              -2
390
0
  6
Continuous
 62
               0
100
AcDbLine
 10
-552.19853681603877
 20
-301.0512498328585
 30
0.0
 11
-679.6927216374454
 21
-301.0512498328585
 31
0.0
  0
LINE
  5
D9
100
AcDbEntity
  8
0
370
              -2
390
0
  6
Continuous
 62
               0
100
AcDbLine
 10
-679.6927216374454
 20
-401.05124983285862
 30
0.0
 11
-679.6927216374454
 21
-301.0512498328585
 31
0.0
  0
CIRCLE
  5
DA
102
{ACAD_REACTORS
330
DB
102
}
100
AcDbEntity
  8
0
370
              -2
390
0
  6
Continuous
 62
               0
100
AcDbCircle
 10
-679.6927216374454
 20
-401.05124983285862
 30
0.0
 40
1.9998779296875
  0
HATCH
  5
DB
100
AcDbEntity
  8
0
370
              -2
390
0
  6
Continuous
 62
               0
100
AcDbHatch
 10
0.0
 20
0.0
 30
0.0
210
0.0
220
0.0
230
1.0
  2
SOLID
 70
               1
 71
               1
 91
        1
 92
        1
 93
        1
 72
               2
 10
-679.6927216374454
 20
-401.05124983285862
 40
1.9998779296875
 50
0.0
 51
360.0
 73
               0
 97
        1
330
DA
 75
               0
 76
               1
 98
        1
 10
0.0
 20
0.0
  0
CIRCLE
  5
DC
102
{ACAD_REACTORS
330
DD
102
}
100
AcDbEntity
  8
0
370
              -2
390
0
  6
Continuous
 62
               0
100
AcDbCircle
 10
-679.6927216374454
 20
-301.0512498328585
 30
0.0
 40
1.9998779296875
  0
HATCH
  5
DD
100
AcDbEntity
  8
0
370
              -2
390
0
  6
Continuous
 62
               0
100
AcDbHatch
 10
0.0
 20
0.0
 30
0.0
210
0.0
220
0.0
230
1.0
  2
SOLID
 70
               1
 71
               1
 91
        1
 92
        1
 93
        1
 72
               2
 10
-679.6927216374454
 20
-301.0512498328585
 40
1.9998779296875
 50
0.0
 51
360.0
 73
               0
 97
        1
330
DC
 75
               0
 76
               1
 98
        1
 10
0.0
 20
0.0
  0
MTEXT
  5
DE
100
AcDbEntity
  8
0
390
0
 62
               0
100
AcDbMText
 10
-713.57033882494534
 20
-374.8637515150341
 30
0.0
 40
24.432617187500004
 41
0.0
 71
               1
 72
               1
  1
100
  7
ＭＳゴシック
 11
0.0
 21
1.0
 31
0.0
 73
               1
 44
0.7828267384257843
  0
POINT
  5
DF
100
AcDbEntity
  8
Defpoints
370
               0
390
0
 62
               0
100
AcDbPoint
 10
-527.19853681603877
 20
-301.0512498328585
 30
0.0
  0
POINT
  5
E0
100
AcDbEntity
  8
Defpoints
370
               0
390
0
 62
               0
100
AcDbPoint
 10
-527.198536816039
 20
-401.05124983285862
 30
0.0
  0
POINT
  5
E1
100
AcDbEntity
  8
Defpoints
370
               0
390
0
 62
               0
100
AcDbPoint
 10
-679.6927216374454
 20
-401.05124983285862
 30
0.0
  0
ENDBLK
  5
E2
100
AcDbEntity
  8
notes
390
0
100
AcDbBlockEnd
  0
BLOCK
  5
E3
100
AcDbEntity
  8
notes
390
0
100
AcDbBlockBegin
  2
*D11
 70
               1
 10
0.0
 20
0.0
 30
0.0
  3
*D11
  1

  0
LINE
  5
E4
100
AcDbEntity
  8
0
370
              -2
390
0
  6
Continuous
 62
               0
100
AcDbLine
 10
-552.19853681603877
 20
-301.0512498328585
 30
0.0
 11
-679.69272163744517
 21
-301.0512498328585
 31
0.0
  0
LINE
  5
E5
100
AcDbEntity
  8
0
370
              -2
390
0
  6
Continuous
 62
               0
100
AcDbLine
 10
-552.19853681603945
 20
-201.05124983286024
 30
0.0
 11
-679.69272163744517
 21
-201.05124983286024
 31
0.0
  0
LINE
  5
E6
100
AcDbEntity
  8
0
370
              -2
390
0
  6
Continuous
 62
               0
100
AcDbLine
 10
-679.69272163744517
 20
-301.0512498328585
 30
0.0
 11
-679.69272163744517
 21
-201.05124983286024
 31
0.0
  0
CIRCLE
  5
E7
102
{ACAD_REACTORS
330
E8
102
}
100
AcDbEntity
  8
0
370
              -2
390
0
  6
Continuous
 62
               0
100
AcDbCircle
 10
-679.69272163744517
 20
-301.0512498328585
 30
0.0
 40
1.9998779296875
  0
HATCH
  5
E8
100
AcDbEntity
  8
0
370
              -2
390
0
  6
Continuous
 62
               0
100
AcDbHatch
 10
0.0
 20
0.0
 30
0.0
210
0.0
220
0.0
230
1.0
  2
SOLID
 70
               1
 71
               1
 91
        1
 92
        1
 93
        1
 72
               2
 10
-679.69272163744517
 20
-301.0512498328585
 40
1.9998779296875
 50
0.0
 51
360.0
 73
               0
 97
        1
330
E7
 75
               0
 76
               1
 98
        1
 10
0.0
 20
0.0
  0
CIRCLE
  5
E9
102
{ACAD_REACTORS
330
EA
102
}
100
AcDbEntity
  8
0
370
              -2
390
0
  6
Continuous
 62
               0
100
AcDbCircle
 10
-679.69272163744517
 20
-201.05124983286024
 30
0.0
 40
1.9998779296875
  0
HATCH
  5
EA
100
AcDbEntity
  8
0
370
              -2
390
0
  6
Continuous
 62
               0
100
AcDbHatch
 10
0.0
 20
0.0
 30
0.0
210
0.0
220
0.0
230
1.0
  2
SOLID
 70
               1
 71
               1
 91
        1
 92
        1
 93
        1
 72
               2
 10
-679.69272163744517
 20
-201.05124983286024
 40
1.9998779296875
 50
0.0
 51
360.0
 73
               0
 97
        1
330
E9
 75
               0
 76
               1
 98
        1
 10
0.0
 20
0.0
  0
MTEXT
  5
EB
100
AcDbEntity
  8
0
390
0
 62
               0
100
AcDbMText
 10
-713.57033882494511
 20
-274.86375151503489
 30
0.0
 40
24.432617187500004
 41
0.0
 71
               1
 72
               1
  1
100
  7
ＭＳゴシック
 11
0.0
 21
1.0
 31
0.0
 73
               1
 44
0.7828267384257843
  0
POINT
  5
EC
100
AcDbEntity
  8
Defpoints
370
               0
390
0
 62
               0
100
AcDbPoint
 10
-527.19853681603945
 20
-201.05124983286024
 30
0.0
  0
POINT
  5
ED
100
AcDbEntity
  8
Defpoints
370
               0
390
0
 62
               0
100
AcDbPoint
 10
-527.19853681603877
 20
-301.0512498328585
 30
0.0
  0
POINT
  5
EE
100
AcDbEntity
  8
Defpoints
370
               0
390
0
 62
               0
100
AcDbPoint
 10
-679.69272163744517
 20
-301.0512498328585
 30
0.0
  0
ENDBLK
  5
EF
100
AcDbEntity
  8
notes
390
0
100
AcDbBlockEnd
  0
BLOCK
  5
F0
100
AcDbEntity
  8
notes
390
0
100
AcDbBlockBegin
  2
*D12
 70
               1
 10
0.0
 20
0.0
 30
0.0
  3
*D12
  1

  0
LINE
  5
F1
100
AcDbEntity
  8
0
370
              -2
390
0
  6
Continuous
 62
               0
100
AcDbLine
 10
-552.19853681603945
 20
-201.05124983286024
 30
0.0
 11
-679.69272163744517
 21
-201.05124983286024
 31
0.0
  0
LINE
  5
F2
100
AcDbEntity
  8
0
370
              -2
390
0
  6
Continuous
 62
               0
100
AcDbLine
 10
-552.19853681604036
 20
-101.05124983286035
 30
0.0
 11
-679.69272163744517
 21
-101.05124983286035
 31
0.0
  0
LINE
  5
F3
100
AcDbEntity
  8
0
370
              -2
390
0
  6
Continuous
 62
               0
100
AcDbLine
 10
-679.69272163744517
 20
-201.05124983286024
 30
0.0
 11
-679.69272163744517
 21
-101.05124983286035
 31
0.0
  0
CIRCLE
  5
F4
102
{ACAD_REACTORS
330
F5
102
}
100
AcDbEntity
  8
0
370
              -2
390
0
  6
Continuous
 62
               0
100
AcDbCircle
 10
-679.69272163744517
 20
-201.05124983286024
 30
0.0
 40
1.9998779296875
  0
HATCH
  5
F5
100
AcDbEntity
  8
0
370
              -2
390
0
  6
Continuous
 62
               0
100
AcDbHatch
 10
0.0
 20
0.0
 30
0.0
210
0.0
220
0.0
230
1.0
  2
SOLID
 70
               1
 71
               1
 91
        1
 92
        1
 93
        1
 72
               2
 10
-679.69272163744517
 20
-201.05124983286024
 40
1.9998779296875
 50
0.0
 51
360.0
 73
               0
 97
        1
330
F4
 75
               0
 76
               1
 98
        1
 10
0.0
 20
0.0
  0
CIRCLE
  5
F6
102
{ACAD_REACTORS
330
F7
102
}
100
AcDbEntity
  8
0
370
              -2
390
0
  6
Continuous
 62
               0
100
AcDbCircle
 10
-679.69272163744517
 20
-101.05124983286035
 30
0.0
 40
1.9998779296875
  0
HATCH
  5
F7
100
AcDbEntity
  8
0
370
              -2
390
0
  6
Continuous
 62
               0
100
AcDbHatch
 10
0.0
 20
0.0
 30
0.0
210
0.0
220
0.0
230
1.0
  2
SOLID
 70
               1
 71
               1
 91
        1
 92
        1
 93
        1
 72
               2
 10
-679.69272163744517
 20
-101.05124983286035
 40
1.9998779296875
 50
0.0
 51
360.0
 73
               0
 97
        1
330
F6
 75
               0
 76
               1
 98
        1
 10
0.0
 20
0.0
  0
MTEXT
  5
F8
100
AcDbEntity
  8
0
390
0
 62
               0
100
AcDbMText
 10
-713.57033882494511
 20
-174.86375151503583
 30
0.0
 40
24.432617187500004
 41
0.0
 71
               1
 72
               1
  1
100
  7
ＭＳゴシック
 11
0.0
 21
1.0
 31
0.0
 73
               1
 44
0.7828267384257843
  0
POINT
  5
F9
100
AcDbEntity
  8
Defpoints
370
               0
390
0
 62
               0
100
AcDbPoint
 10
-527.19853681604036
 20
-101.05124983286035
 30
0.0
  0
POINT
  5
FA
100
AcDbEntity
  8
Defpoints
370
               0
390
0
 62
               0
100
AcDbPoint
 10
-527.19853681603945
 20
-201.05124983286024
 30
0.0
  0
POINT
  5
FB
100
AcDbEntity
  8
Defpoints
370
               0
390
0
 62
               0
100
AcDbPoint
 10
-679.69272163744517
 20
-201.05124983286024
 30
0.0
  0
ENDBLK
  5
FC
100
AcDbEntity
  8
notes
390
0
100
AcDbBlockEnd
  0
BLOCK
  5
FD
100
AcDbEntity
  8
notes
390
0
100
AcDbBlockBegin
  2
*D13
 70
               1
 10
0.0
 20
0.0
 30
0.0
  3
*D13
  1

  0
LINE
  5
FE
100
AcDbEntity
  8
0
370
              -2
390
0
  6
Continuous
 62
               0
100
AcDbLine
 10
-552.19853681604036
 20
-101.05124983286035
 30
0.0
 11
-679.69272163744517
 21
-101.05124983286035
 31
0.0
  0
LINE
  5
FF
100
AcDbEntity
  8
0
370
              -2
390
0
  6
Continuous
 62
               0
100
AcDbLine
 10
-552.19853681604104
 20
-1.0512498328603499
 30
0.0
 11
-679.69272163744517
 21
-1.0512498328603499
 31
0.0
  0
LINE
  5
100
100
AcDbEntity
  8
0
370
              -2
390
0
  6
Continuous
 62
               0
100
AcDbLine
 10
-679.69272163744517
 20
-101.05124983286035
 30
0.0
 11
-679.69272163744517
 21
-1.0512498328603499
 31
0.0
  0
CIRCLE
  5
101
102
{ACAD_REACTORS
330
102
102
}
100
AcDbEntity
  8
0
370
              -2
390
0
  6
Continuous
 62
               0
100
AcDbCircle
 10
-679.69272163744517
 20
-101.05124983286035
 30
0.0
 40
1.9998779296875
  0
HATCH
  5
102
100
AcDbEntity
  8
0
370
              -2
390
0
  6
Continuous
 62
               0
100
AcDbHatch
 10
0.0
 20
0.0
 30
0.0
210
0.0
220
0.0
230
1.0
  2
SOLID
 70
               1
 71
               1
 91
        1
 92
        1
 93
        1
 72
               2
 10
-679.69272163744517
 20
-101.05124983286035
 40
1.9998779296875
 50
0.0
 51
360.0
 73
               0
 97
        1
330
101
 75
               0
 76
               1
 98
        1
 10
0.0
 20
0.0
  0
CIRCLE
  5
103
102
{ACAD_REACTORS
330
104
102
}
100
AcDbEntity
  8
0
370
              -2
390
0
  6
Continuous
 62
               0
100
AcDbCircle
 10
-679.69272163744517
 20
-1.0512498328603499
 30
0.0
 40
1.9998779296875
  0
HATCH
  5
104
100
AcDbEntity
  8
0
370
              -2
390
0
  6
Continuous
 62
               0
100
AcDbHatch
 10
0.0
 20
0.0
 30
0.0
210
0.0
220
0.0
230
1.0
  2
SOLID
 70
               1
 71
               1
 91
        1
 92
        1
 93
        1
 72
               2
 10
-679.69272163744517
 20
-1.0512498328603499
 40
1.9998779296875
 50
0.0
 51
360.0
 73
               0
 97
        1
330
103
 75
               0
 76
               1
 98
        1
 10
0.0
 20
0.0
  0
MTEXT
  5
105
100
AcDbEntity
  8
0
390
0
 62
               0
100
AcDbMText
 10
-713.57033882494511
 20
-74.863751515035887
 30
0.0
 40
24.432617187500004
 41
0.0
 71
               1
 72
               1
  1
100
  7
ＭＳゴシック
 11
0.0
 21
1.0
 31
0.0
 73
               1
 44
0.7828267384257843
  0
POINT
  5
106
100
AcDbEntity
  8
Defpoints
370
               0
390
0
 62
               0
100
AcDbPoint
 10
-527.19853681604104
 20
-1.0512498328603499
 30
0.0
  0
POINT
  5
107
100
AcDbEntity
  8
Defpoints
370
               0
390
0
 62
               0
100
AcDbPoint
 10
-527.19853681604036
 20
-101.05124983286035
 30
0.0
  0
POINT
  5
108
100
AcDbEntity
  8
Defpoints
370
               0
390
0
 62
               0
100
AcDbPoint
 10
-679.69272163744517
 20
-101.05124983286035
 30
0.0
  0
ENDBLK
  5
109
100
AcDbEntity
  8
notes
390
0
100
AcDbBlockEnd
  0
BLOCK
  5
10A
100
AcDbEntity
  8
notes
390
0
100
AcDbBlockBegin
  2
*D14
 70
               1
 10
0.0
 20
0.0
 30
0.0
  3
*D14
  1

  0
LINE
  5
10B
100
AcDbEntity
  8
0
370
              -2
390
0
  6
Continuous
 62
               0
100
AcDbLine
 10
514.79999999999927
 20
-549.94859894456636
 30
0.0
 11
419.79999999999944
 21
-549.94859894456636
 31
0.0
  0
LINE
  5
10C
100
AcDbEntity
  8
0
370
              -2
390
0
  6
Continuous
 62
               0
100
AcDbLine
 10
514.84876126401628
 20
-439.94859894456806
 30
0.0
 11
419.79999999999944
 21
-439.94859894456806
 31
0.0
  0
LINE
  5
10D
100
AcDbEntity
  8
0
370
              -2
390
0
  6
Continuous
 62
               0
100
AcDbLine
 10
419.79999999999944
 20
-549.94859894456636
 30
0.0
 11
419.79999999999944
 21
-439.94859894456806
 31
0.0
  0
CIRCLE
  5
10E
102
{ACAD_REACTORS
330
10F
102
}
100
AcDbEntity
  8
0
370
              -2
390
0
  6
Continuous
 62
               0
100
AcDbCircle
 10
419.79999999999944
 20
-549.94859894456636
 30
0.0
 40
1.9998779296875
  0
HATCH
  5
10F
100
AcDbEntity
  8
0
370
              -2
390
0
  6
Continuous
 62
               0
100
AcDbHatch
 10
0.0
 20
0.0
 30
0.0
210
0.0
220
0.0
230
1.0
  2
SOLID
 70
               1
 71
               1
 91
        1
 92
        1
 93
        1
 72
               2
 10
419.79999999999944
 20
-549.94859894456636
 40
1.9998779296875
 50
0.0
 51
360.0
 73
               0
 97
        1
330
10E
 75
               0
 76
               1
 98
        1
 10
0.0
 20
0.0
  0
CIRCLE
  5
110
102
{ACAD_REACTORS
330
111
102
}
100
AcDbEntity
  8
0
370
              -2
390
0
  6
Continuous
 62
               0
100
AcDbCircle
 10
419.79999999999944
 20
-439.94859894456806
 30
0.0
 40
1.9998779296875
  0
HATCH
  5
111
100
AcDbEntity
  8
0
370
              -2
390
0
  6
Continuous
 62
               0
100
AcDbHatch
 10
0.0
 20
0.0
 30
0.0
210
0.0
220
0.0
230
1.0
  2
SOLID
 70
               1
 71
               1
 91
        1
 92
        1
 93
        1
 72
               2
 10
419.79999999999944
 20
-439.94859894456806
 40
1.9998779296875
 50
0.0
 51
360.0
 73
               0
 97
        1
330
110
 75
               0
 76
               1
 98
        1
 10
0.0
 20
0.0
  0
MTEXT
  5
112
100
AcDbEntity
  8
0
390
0
 62
               0
100
AcDbMText
 10
385.92238281249945
 20
-518.76110062674275
 30
0.0
 40
24.432617187500004
 41
0.0
 71
               1
 72
               1
  1
110
  7
ＭＳゴシック
 11
0.0
 21
1.0
 31
0.0
 73
               1
 44
0.7828267384257843
  0
POINT
  5
113
100
AcDbEntity
  8
Defpoints
370
               0
390
0
 62
               0
100
AcDbPoint
 10
539.84876126401628
 20
-439.94859894456806
 30
0.0
  0
POINT
  5
114
100
AcDbEntity
  8
Defpoints
370
               0
390
0
 62
               0
100
AcDbPoint
 10
539.79999999999927
 20
-549.94859894456636
 30
0.0
  0
POINT
  5
115
100
AcDbEntity
  8
Defpoints
370
               0
390
0
 62
               0
100
AcDbPoint
 10
419.79999999999944
 20
-549.94859894456636
 30
0.0
  0
ENDBLK
  5
116
100
AcDbEntity
  8
notes
390
0
100
AcDbBlockEnd
  0
BLOCK
  5
117
100
AcDbEntity
  8
notes
390
0
100
AcDbBlockBegin
  2
*D15
 70
               1
 10
0.0
 20
0.0
 30
0.0
  3
*D15
  1

  0
LINE
  5
118
100
AcDbEntity
  8
0
370
              -2
390
0
  6
Continuous
 62
               0
100
AcDbLine
 10
514.84876126401628
 20
-439.94859894456806
 30
0.0
 11
419.84876126401645
 21
-439.94859894456806
 31
0.0
  0
LINE
  5
119
100
AcDbEntity
  8
0
370
              -2
390
0
  6
Continuous
 62
               0
100
AcDbLine
 10
514.84876126401628
 20
-159.9485989445686
 30
0.0
 11
419.84876126401645
 21
-159.9485989445686
 31
0.0
  0
LINE
  5
11A
100
AcDbEntity
  8
0
370
              -2
390
0
  6
Continuous
 62
               0
100
AcDbLine
 10
419.84876126401645
 20
-439.94859894456806
 30
0.0
 11
419.84876126401645
 21
-159.9485989445686
 31
0.0
  0
CIRCLE
  5
11B
102
{ACAD_REACTORS
330
11C
102
}
100
AcDbEntity
  8
0
370
              -2
390
0
  6
Continuous
 62
               0
100
AcDbCircle
 10
419.84876126401645
 20
-439.94859894456806
 30
0.0
 40
1.9998779296875
  0
HATCH
  5
11C
100
AcDbEntity
  8
0
370
              -2
390
0
  6
Continuous
 62
               0
100
AcDbHatch
 10
0.0
 20
0.0
 30
0.0
210
0.0
220
0.0
230
1.0
  2
SOLID
 70
               1
 71
               1
 91
        1
 92
        1
 93
        1
 72
               2
 10
419.84876126401645
 20
-439.94859894456806
 40
1.9998779296875
 50
0.0
 51
360.0
 73
               0
 97
        1
330
11B
 75
               0
 76
               1
 98
        1
 10
0.0
 20
0.0
  0
CIRCLE
  5
11D
102
{ACAD_REACTORS
330
11E
102
}
100
AcDbEntity
  8
0
370
              -2
390
0
  6
Continuous
 62
               0
100
AcDbCircle
 10
419.84876126401645
 20
-159.9485989445686
 30
0.0
 40
1.9998779296875
  0
HATCH
  5
11E
100
AcDbEntity
  8
0
370
              -2
390
0
  6
Continuous
 62
               0
100
AcDbHatch
 10
0.0
 20
0.0
 30
0.0
210
0.0
220
0.0
230
1.0
  2
SOLID
 70
               1
 71
               1
 91
        1
 92
        1
 93
        1
 72
               2
 10
419.84876126401645
 20
-159.9485989445686
 40
1.9998779296875
 50
0.0
 51
360.0
 73
               0
 97
        1
330
11D
 75
               0
 76
               1
 98
        1
 10
0.0
 20
0.0
  0
MTEXT
  5
11F
100
AcDbEntity
  8
0
390
0
 62
               0
100
AcDbMText
 10
385.97114407651645
 20
-323.76110062674388
 30
0.0
 40
24.432617187500004
 41
0.0
 71
               1
 72
               1
  1
280
  7
ＭＳゴシック
 11
0.0
 21
1.0
 31
0.0
 73
               1
 44
0.7828267384257843
  0
POINT
  5
120
100
AcDbEntity
  8
Defpoints
370
               0
390
0
 62
               0
100
AcDbPoint
 10
539.84876126401628
 20
-159.9485989445686
 30
0.0
  0
POINT
  5
121
100
AcDbEntity
  8
Defpoints
370
               0
390
0
 62
               0
100
AcDbPoint
 10
539.84876126401628
 20
-439.94859894456806
 30
0.0
  0
POINT
  5
122
100
AcDbEntity
  8
Defpoints
370
               0
390
0
 62
               0
100
AcDbPoint
 10
419.84876126401645
 20
-439.94859894456806
 30
0.0
  0
ENDBLK
  5
123
100
AcDbEntity
  8
notes
390
0
100
AcDbBlockEnd
  0
BLOCK
  5
124
100
AcDbEntity
  8
notes
390
0
100
AcDbBlockBegin
  2
*D16
 70
               1
 10
0.0
 20
0.0
 30
0.0
  3
*D16
  1

  0
LINE
  5
125
100
AcDbEntity
  8
0
370
              -2
390
0
  6
Continuous
 62
               0
100
AcDbLine
 10
514.84876126401628
 20
-159.9485989445686
 30
0.0
 11
419.84876126401645
 21
-159.9485989445686
 31
0.0
  0
LINE
  5
126
100
AcDbEntity
  8
0
370
              -2
390
0
  6
Continuous
 62
               0
100
AcDbLine
 10
514.84876126401628
 20
-49.948598944568545
 30
0.0
 11
419.84876126401645
 21
-49.948598944568545
 31
0.0
  0
LINE
  5
127
100
AcDbEntity
  8
0
370
              -2
390
0
  6
Continuous
 62
               0
100
AcDbLine
 10
419.84876126401645
 20
-159.9485989445686
 30
0.0
 11
419.84876126401645
 21
-49.948598944568545
 31
0.0
  0
CIRCLE
  5
128
102
{ACAD_REACTORS
330
129
102
}
100
AcDbEntity
  8
0
370
              -2
390
0
  6
Continuous
 62
               0
100
AcDbCircle
 10
419.84876126401645
 20
-159.9485989445686
 30
0.0
 40
1.9998779296875
  0
HATCH
  5
129
100
AcDbEntity
  8
0
370
              -2
390
0
  6
Continuous
 62
               0
100
AcDbHatch
 10
0.0
 20
0.0
 30
0.0
210
0.0
220
0.0
230
1.0
  2
SOLID
 70
               1
 71
               1
 91
        1
 92
        1
 93
        1
 72
               2
 10
419.84876126401645
 20
-159.9485989445686
 40
1.9998779296875
 50
0.0
 51
360.0
 73
               0
 97
        1
330
128
 75
               0
 76
               1
 98
        1
 10
0.0
 20
0.0
  0
CIRCLE
  5
12A
102
{ACAD_REACTORS
330
12B
102
}
100
AcDbEntity
  8
0
370
              -2
390
0
  6
Continuous
 62
               0
100
AcDbCircle
 10
419.84876126401645
 20
-49.948598944568545
 30
0.0
 40
1.9998779296875
  0
HATCH
  5
12B
100
AcDbEntity
  8
0
370
              -2
390
0
  6
Continuous
 62
               0
100
AcDbHatch
 10
0.0
 20
0.0
 30
0.0
210
0.0
220
0.0
230
1.0
  2
SOLID
 70
               1
 71
               1
 91
        1
 92
        1
 93
        1
 72
               2
 10
419.84876126401645
 20
-49.948598944568545
 40
1.9998779296875
 50
0.0
 51
360.0
 73
               0
 97
        1
330
12A
 75
               0
 76
               1
 98
        1
 10
0.0
 20
0.0
  0
MTEXT
  5
12C
100
AcDbEntity
  8
0
390
0
 62
               0
100
AcDbMText
 10
385.97114407651645
 20
-128.76110062674411
 30
0.0
 40
24.432617187500004
 41
0.0
 71
               1
 72
               1
  1
110
  7
ＭＳゴシック
 11
0.0
 21
1.0
 31
0.0
 73
               1
 44
0.7828267384257843
  0
POINT
  5
12D
100
AcDbEntity
  8
Defpoints
370
               0
390
0
 62
               0
100
AcDbPoint
 10
539.84876126401628
 20
-49.948598944568545
 30
0.0
  0
POINT
  5
12E
100
AcDbEntity
  8
Defpoints
370
               0
390
0
 62
               0
100
AcDbPoint
 10
539.84876126401628
 20
-159.9485989445686
 30
0.0
  0
POINT
  5
12F
100
AcDbEntity
  8
Defpoints
370
               0
390
0
 62
               0
100
AcDbPoint
 10
419.84876126401645
 20
-159.9485989445686
 30
0.0
  0
ENDBLK
  5
130
100
AcDbEntity
  8
notes
390
0
100
AcDbBlockEnd
  0
BLOCK
  5
131
100
AcDbEntity
  8
notes
390
0
100
AcDbBlockBegin
  2
*D17
 70
               1
 10
0.0
 20
0.0
 30
0.0
  3
*D17
  1

  0
LINE
  5
132
100
AcDbEntity
  8
0
370
              -2
390
0
  6
Continuous
 62
               0
100
AcDbLine
 10
-94.692721637444777
 20
-866.05124983285475
 30
0.0
 11
-19.692721637444834
 21
-866.05124983285475
 31
0.0
  0
LINE
  5
133
100
AcDbEntity
  8
0
370
              -2
390
0
  6
Continuous
 62
               0
100
AcDbLine
 10
-94.692721637444777
 20
263.94875016714229
 30
0.0
 11
-19.692721637444834
 21
263.94875016714229
 31
0.0
  0
LINE
  5
134
100
AcDbEntity
  8
0
370
              -2
390
0
  6
Continuous
 62
               0
100
AcDbLine
 10
-19.692721637444834
 20
-866.05124983285475
 30
0.0
 11
-19.692721637444834
 21
263.94875016714229
 31
0.0
  0
CIRCLE
  5
135
102
{ACAD_REACTORS
330
136
102
}
100
AcDbEntity
  8
0
370
              -2
390
0
  6
Continuous
 62
               0
100
AcDbCircle
 10
-19.692721637444834
 20
-866.05124983285475
 30
0.0
 40
1.9998779296875
  0
HATCH
  5
136
100
AcDbEntity
  8
0
370
              -2
390
0
  6
Continuous
 62
               0
100
AcDbHatch
 10
0.0
 20
0.0
 30
0.0
210
0.0
220
0.0
230
1.0
  2
SOLID
 70
               1
 71
               1
 91
        1
 92
        1
 93
        1
 72
               2
 10
-19.692721637444834
 20
-866.05124983285475
 40
1.9998779296875
 50
0.0
 51
360.0
 73
               0
 97
        1
330
135
 75
               0
 76
               1
 98
        1
 10
0.0
 20
0.0
  0
CIRCLE
  5
137
102
{ACAD_REACTORS
330
138
102
}
100
AcDbEntity
  8
0
370
              -2
390
0
  6
Continuous
 62
               0
100
AcDbCircle
 10
-19.692721637444834
 20
263.94875016714229
 30
0.0
 40
1.9998779296875
  0
HATCH
  5
138
100
AcDbEntity
  8
0
370
              -2
390
0
  6
Continuous
 62
               0
100
AcDbHatch
 10
0.0
 20
0.0
 30
0.0
210
0.0
220
0.0
230
1.0
  2
SOLID
 70
               1
 71
               1
 91
        1
 92
        1
 93
        1
 72
               2
 10
-19.692721637444834
 20
263.94875016714229
 40
1.9998779296875
 50
0.0
 51
360.0
 73
               0
 97
        1
330
137
 75
               0
 76
               1
 98
        1
 10
0.0
 20
0.0
  0
MTEXT
  5
139
100
AcDbEntity
  8
0
390
0
 62
               0
100
AcDbMText
 10
-53.570338824944827
 20
-332.80124983285623
 30
0.0
 40
24.432617187500004
 41
0.0
 71
               1
 72
               1
  1
1130
  7
ＭＳゴシック
 11
0.0
 21
1.0
 31
0.0
 73
               1
 44
0.7828267384257843
  0
POINT
  5
13A
100
AcDbEntity
  8
Defpoints
370
               0
390
0
 62
               0
100
AcDbPoint
 10
-119.69272163744478
 20
263.94875016714229
 30
0.0
  0
POINT
  5
13B
100
AcDbEntity
  8
Defpoints
370
               0
390
0
 62
               0
100
AcDbPoint
 10
-119.69272163744478
 20
-866.05124983285475
 30
0.0
  0
POINT
  5
13C
100
AcDbEntity
  8
Defpoints
370
               0
390
0
 62
               0
100
AcDbPoint
 10
-19.692721637444834
 20
-866.05124983285475
 30
0.0
  0
ENDBLK
  5
13D
100
AcDbEntity
  8
notes
390
0
100
AcDbBlockEnd
  0
BLOCK
  5
13E
100
AcDbEntity
  8
notes
390
0
100
AcDbBlockBegin
  2
*D18
 70
               1
 10
0.0
 20
0.0
 30
0.0
  3
*D18
  1

  0
LINE
  5
13F
100
AcDbEntity
  8
0
370
              -2
390
0
  6
Continuous
 62
               0
100
AcDbLine
 10
519.84876126401628
 20
833.25759511583124
 30
0.0
 11
519.84876126401628
 21
835.64124060107929
 31
0.0
  0
LINE
  5
140
100
AcDbEntity
  8
0
370
              -2
390
0
  6
Continuous
 62
               0
100
AcDbLine
 10
639.84876126401787
 20
833.25759511583124
 30
0.0
 11
639.84876126401787
 21
835.64124060107929
 31
0.0
  0
LINE
  5
141
100
AcDbEntity
  8
0
370
              -2
390
0
  6
Continuous
 62
               0
100
AcDbLine
 10
519.84876126401628
 20
835.64124060107929
 30
0.0
 11
368.12500000000017
 21
835.64124060107929
 31
0.0
  0
LINE
  5
142
100
AcDbEntity
  8
0
370
              -2
390
0
  6
Continuous
 62
               0
100
AcDbLine
 10
519.84876126401628
 20
835.64124060107929
 30
0.0
 11
639.84876126401787
 21
835.64124060107929
 31
0.0
  0
CIRCLE
  5
143
102
{ACAD_REACTORS
330
144
102
}
100
AcDbEntity
  8
0
370
              -2
390
0
  6
Continuous
 62
               0
100
AcDbCircle
 10
519.84876126401628
 20
835.64124060107929
 30
0.0
 40
1.9998779296875
  0
HATCH
  5
144
100
AcDbEntity
  8
0
370
              -2
390
0
  6
Continuous
 62
               0
100
AcDbHatch
 10
0.0
 20
0.0
 30
0.0
210
0.0
220
0.0
230
1.0
  2
SOLID
 70
               1
 71
               1
 91
        1
 92
        1
 93
        1
 72
               2
 10
519.84876126401628
 20
835.64124060107929
 40
1.9998779296875
 50
0.0
 51
360.0
 73
               0
 97
        1
330
143
 75
               0
 76
               1
 98
        1
 10
0.0
 20
0.0
  0
CIRCLE
  5
145
102
{ACAD_REACTORS
330
146
102
}
100
AcDbEntity
  8
0
370
              -2
390
0
  6
Continuous
 62
               0
100
AcDbCircle
 10
639.84876126401787
 20
835.64124060107929
 30
0.0
 40
1.9998779296875
  0
HATCH
  5
146
100
AcDbEntity
  8
0
370
              -2
390
0
  6
Continuous
 62
               0
100
AcDbHatch
 10
0.0
 20
0.0
 30
0.0
210
0.0
220
0.0
230
1.0
  2
SOLID
 70
               1
 71
               1
 91
        1
 92
        1
 93
        1
 72
               2
 10
639.84876126401787
 20
835.64124060107929
 40
1.9998779296875
 50
0.0
 51
360.0
 73
               0
 97
        1
330
145
 75
               0
 76
               1
 98
        1
 10
0.0
 20
0.0
  0
MTEXT
  5
147
100
AcDbEntity
  8
0
390
0
 62
               0
100
AcDbMText
 10
368.12500000000017
 20
869.51885778857923
 30
0.0
 40
24.432617187500004
 41
0.0
 71
               1
 72
               1
  1
120(深さ)
  7
ＭＳゴシック
 73
               1
 44
0.7828267384257843
  0
POINT
  5
148
100
AcDbEntity
  8
Defpoints
370
               0
390
0
 62
               0
100
AcDbPoint
 10
639.84876126401787
 20
858.25759511583124
 30
0.0
  0
POINT
  5
149
100
AcDbEntity
  8
Defpoints
370
               0
390
0
 62
               0
100
AcDbPoint
 10
519.84876126401628
 20
858.25759511583124
 30
0.0
  0
POINT
  5
14A
100
AcDbEntity
  8
Defpoints
370
               0
390
0
 62
               0
100
AcDbPoint
 10
519.84876126401628
 20
835.64124060107929
 30
0.0
  0
ENDBLK
  5
14B
100
AcDbEntity
  8
notes
390
0
100
AcDbBlockEnd
  0
BLOCK
  5
14C
100
AcDbEntity
  8
notes
390
0
100
AcDbBlockBegin
  2
*D19
 70
               1
 10
0.0
 20
0.0
 30
0.0
  3
*D19
  1

  0
LINE
  5
14D
100
AcDbEntity
  8
0
370
              -2
390
0
  6
Continuous
 62
               0
100
AcDbLine
 10
500.84876126401622
 20
1108.3881620580462
 30
0.0
 11
438.84876126401628
 21
1108.3881620580462
 31
0.0
  0
LINE
  5
14E
100
AcDbEntity
  8
0
370
              -2
390
0
  6
Continuous
 62
               0
100
AcDbLine
 10
494.84876126401667
 20
1038.3881620580471
 30
0.0
 11
438.84876126401628
 21
1038.3881620580471
 31
0.0
  0
LINE
  5
14F
100
AcDbEntity
  8
0
370
              -2
390
0
  6
Continuous
 62
               0
100
AcDbLine
 10
438.84876126401628
 20
1108.3881620580462
 30
0.0
 11
438.84876126401628
 21
1038.3881620580471
 31
0.0
  0
CIRCLE
  5
150
102
{ACAD_REACTORS
330
151
102
}
100
AcDbEntity
  8
0
370
              -2
390
0
  6
Continuous
 62
               0
100
AcDbCircle
 10
438.84876126401628
 20
1108.3881620580462
 30
0.0
 40
1.9998779296875
  0
HATCH
  5
151
100
AcDbEntity
  8
0
370
              -2
390
0
  6
Continuous
 62
               0
100
AcDbHatch
 10
0.0
 20
0.0
 30
0.0
210
0.0
220
0.0
230
1.0
  2
SOLID
 70
               1
 71
               1
 91
        1
 92
        1
 93
        1
 72
               2
 10
438.84876126401628
 20
1108.3881620580462
 40
1.9998779296875
 50
0.0
 51
360.0
 73
               0
 97
        1
330
150
 75
               0
 76
               1
 98
        1
 10
0.0
 20
0.0
  0
CIRCLE
  5
152
102
{ACAD_REACTORS
330
153
102
}
100
AcDbEntity
  8
0
370
              -2
390
0
  6
Continuous
 62
               0
100
AcDbCircle
 10
438.84876126401628
 20
1038.3881620580471
 30
0.0
 40
1.9998779296875
  0
HATCH
  5
153
100
AcDbEntity
  8
0
370
              -2
390
0
  6
Continuous
 62
               0
100
AcDbHatch
 10
0.0
 20
0.0
 30
0.0
210
0.0
220
0.0
230
1.0
  2
SOLID
 70
               1
 71
               1
 91
        1
 92
        1
 93
        1
 72
               2
 10
438.84876126401628
 20
1038.3881620580471
 40
1.9998779296875
 50
0.0
 51
360.0
 73
               0
 97
        1
330
152
 75
               0
 76
               1
 98
        1
 10
0.0
 20
0.0
  0
MTEXT
  5
154
100
AcDbEntity
  8
0
390
0
 62
               0
100
AcDbMText
 10
404.97114407651628
 20
1057.5131620580466
 30
0.0
 40
24.432617187500004
 41
0.0
 71
               1
 72
               1
  1
70
  7
ＭＳゴシック
 11
0.0
 21
1.0
 31
0.0
 73
               1
 44
0.7828267384257843
  0
POINT
  5
155
100
AcDbEntity
  8
Defpoints
370
               0
390
0
 62
               0
100
AcDbPoint
 10
519.84876126401673
 20
1038.3881620580471
 30
0.0
  0
POINT
  5
156
100
AcDbEntity
  8
Defpoints
370
               0
390
0
 62
               0
100
AcDbPoint
 10
525.84876126401628
 20
1108.3881620580462
 30
0.0
  0
POINT
  5
157
100
AcDbEntity
  8
Defpoints
370
               0
390
0
 62
               0
100
AcDbPoint
 10
438.84876126401628
 20
1108.3881620580462
 30
0.0
  0
ENDBLK
  5
158
100
AcDbEntity
  8
notes
390
0
100
AcDbBlockEnd
  0
BLOCK
  5
159
100
AcDbEntity
  8
notes
390
0
100
AcDbBlockBegin
  2
*D20
 70
               1
 10
0.0
 20
0.0
 30
0.0
  3
*D20
  1

  0
LINE
  5
15A
100
AcDbEntity
  8
0
370
              -2
390
0
  6
Continuous
 62
               0
100
AcDbLine
 10
519.84876126401491
 20
628.38816205805358
 30
0.0
 11
519.84876126401491
 21
548.38816205805301
 31
0.0
  0
LINE
  5
15B
100
AcDbEntity
  8
0
370
              -2
390
0
  6
Continuous
 62
               0
100
AcDbLine
 10
694.84876126401741
 20
628.38816205805358
 30
0.0
 11
694.84876126401741
 21
548.38816205805301
 31
0.0
  0
LINE
  5
15C
100
AcDbEntity
  8
0
370
              -2
390
0
  6
Continuous
 62
               0
100
AcDbLine
 10
519.84876126401491
 20
548.38816205805301
 30
0.0
 11
694.84876126401741
 21
548.38816205805301
 31
0.0
  0
CIRCLE
  5
15D
102
{ACAD_REACTORS
330
15E
102
}
100
AcDbEntity
  8
0
370
              -2
390
0
  6
Continuous
 62
               0
100
AcDbCircle
 10
519.84876126401491
 20
548.38816205805301
 30
0.0
 40
1.9998779296875
  0
HATCH
  5
15E
100
AcDbEntity
  8
0
370
              -2
390
0
  6
Continuous
 62
               0
100
AcDbHatch
 10
0.0
 20
0.0
 30
0.0
210
0.0
220
0.0
230
1.0
  2
SOLID
 70
               1
 71
               1
 91
        1
 92
        1
 93
        1
 72
               2
 10
519.84876126401491
 20
548.38816205805301
 40
1.9998779296875
 50
0.0
 51
360.0
 73
               0
 97
        1
330
15D
 75
               0
 76
               1
 98
        1
 10
0.0
 20
0.0
  0
CIRCLE
  5
15F
102
{ACAD_REACTORS
330
160
102
}
100
AcDbEntity
  8
0
370
              -2
390
0
  6
Continuous
 62
               0
100
AcDbCircle
 10
694.84876126401741
 20
548.38816205805301
 30
0.0
 40
1.9998779296875
  0
HATCH
  5
160
100
AcDbEntity
  8
0
370
              -2
390
0
  6
Continuous
 62
               0
100
AcDbHatch
 10
0.0
 20
0.0
 30
0.0
210
0.0
220
0.0
230
1.0
  2
SOLID
 70
               1
 71
               1
 91
        1
 92
        1
 93
        1
 72
               2
 10
694.84876126401741
 20
548.38816205805301
 40
1.9998779296875
 50
0.0
 51
360.0
 73
               0
 97
        1
330
15F
 75
               0
 76
               1
 98
        1
 10
0.0
 20
0.0
  0
MTEXT
  5
161
100
AcDbEntity
  8
0
390
0
 62
               0
100
AcDbMText
 10
583.53625958184057
 20
582.26577924555306
 30
0.0
 40
24.432617187500004
 41
0.0
 71
               1
 72
               1
  1
175
  7
ＭＳゴシック
 73
               1
 44
0.7828267384257843
  0
POINT
  5
162
100
AcDbEntity
  8
Defpoints
370
               0
390
0
 62
               0
100
AcDbPoint
 10
694.84876126401741
 20
653.38816205805358
 30
0.0
  0
POINT
  5
163
100
AcDbEntity
  8
Defpoints
370
               0
390
0
 62
               0
100
AcDbPoint
 10
519.84876126401491
 20
653.38816205805358
 30
0.0
  0
POINT
  5
164
100
AcDbEntity
  8
Defpoints
370
               0
390
0
 62
               0
100
AcDbPoint
 10
519.84876126401491
 20
548.38816205805301
 30
0.0
  0
ENDBLK
  5
165
100
AcDbEntity
  8
notes
390
0
100
AcDbBlockEnd
  0
BLOCK
  5
166
100
AcDbEntity
  8
notes
390
0
100
AcDbBlockBegin
  2
*D21
 70
               1
 10
0.0
 20
0.0
 30
0.0
  3
*D21
  1

  0
LINE
  5
167
100
AcDbEntity
  8
0
370
              -2
390
0
  6
Continuous
 62
               0
100
AcDbLine
 10
-579.6927216374429
 20
-923.05124983285498
 30
0.0
 11
-579.6927216374429
 21
-999.94859894456488
 31
0.0
  0
LINE
  5
168
100
AcDbEntity
  8
0
370
              -2
390
0
  6
Continuous
 62
               0
100
AcDbLine
 10
-444.69272163744489
 20
-923.05124983285498
 30
0.0
 11
-444.69272163744489
 21
-999.94859894456488
 31
0.0
  0
LINE
  5
169
100
AcDbEntity
  8
0
370
              -2
390
0
  6
Continuous
 62
               0
100
AcDbLine
 10
-579.6927216374429
 20
-999.94859894456488
 30
0.0
 11
-444.69272163744489
 21
-999.94859894456488
 31
0.0
  0
CIRCLE
  5
16A
102
{ACAD_REACTORS
330
16B
102
}
100
AcDbEntity
  8
0
370
              -2
390
0
  6
Continuous
 62
               0
100
AcDbCircle
 10
-579.6927216374429
 20
-999.94859894456488
 30
0.0
 40
1.9998779296875
  0
HATCH
  5
16B
100
AcDbEntity
  8
0
370
              -2
390
0
  6
Continuous
 62
               0
100
AcDbHatch
 10
0.0
 20
0.0
 30
0.0
210
0.0
220
0.0
230
1.0
  2
SOLID
 70
               1
 71
               1
 91
        1
 92
        1
 93
        1
 72
               2
 10
-579.6927216374429
 20
-999.94859894456488
 40
1.9998779296875
 50
0.0
 51
360.0
 73
               0
 97
        1
330
16A
 75
               0
 76
               1
 98
        1
 10
0.0
 20
0.0
  0
CIRCLE
  5
16C
102
{ACAD_REACTORS
330
16D
102
}
100
AcDbEntity
  8
0
370
              -2
390
0
  6
Continuous
 62
               0
100
AcDbCircle
 10
-444.69272163744489
 20
-999.94859894456488
 30
0.0
 40
1.9998779296875
  0
HATCH
  5
16D
100
AcDbEntity
  8
0
370
              -2
390
0
  6
Continuous
 62
               0
100
AcDbHatch
 10
0.0
 20
0.0
 30
0.0
210
0.0
220
0.0
230
1.0
  2
SOLID
 70
               1
 71
               1
 91
        1
 92
        1
 93
        1
 72
               2
 10
-444.69272163744489
 20
-999.94859894456488
 40
1.9998779296875
 50
0.0
 51
360.0
 73
               0
 97
        1
330
16C
 75
               0
 76
               1
 98
        1
 10
0.0
 20
0.0
  0
MTEXT
  5
16E
100
AcDbEntity
  8
0
390
0
 62
               0
100
AcDbMText
 10
-536.00522331961929
 20
-966.07098175706483
 30
0.0
 40
24.432617187500004
 41
0.0
 71
               1
 72
               1
  1
135
  7
ＭＳゴシック
 73
               1
 44
0.7828267384257843
  0
POINT
  5
16F
100
AcDbEntity
  8
Defpoints
370
               0
390
0
 62
               0
100
AcDbPoint
 10
-444.69272163744489
 20
-898.05124983285498
 30
0.0
  0
POINT
  5
170
100
AcDbEntity
  8
Defpoints
370
               0
390
0
 62
               0
100
AcDbPoint
 10
-579.6927216374429
 20
-898.05124983285498
 30
0.0
  0
POINT
  5
171
100
AcDbEntity
  8
Defpoints
370
               0
390
0
 62
               0
100
AcDbPoint
 10
-579.6927216374429
 20
-999.94859894456488
 30
0.0
  0
ENDBLK
  5
172
100
AcDbEntity
  8
notes
390
0
100
AcDbBlockEnd
  0
BLOCK
  5
173
100
AcDbEntity
  8
notes
390
0
100
AcDbBlockBegin
  2
*D22
 70
               1
 10
0.0
 20
0.0
 30
0.0
  3
*D22
  1

  0
LINE
  5
174
100
AcDbEntity
  8
0
370
              -2
390
0
  6
Continuous
 62
               0
100
AcDbLine
 10
-444.69272163744489
 20
-926.05124983285498
 30
0.0
 11
-444.69272163744489
 21
-999.94859894456488
 31
0.0
  0
LINE
  5
175
100
AcDbEntity
  8
0
370
              -2
390
0
  6
Continuous
 62
               0
100
AcDbLine
 10
-154.692721637445
 20
-926.05124983285498
 30
0.0
 11
-154.692721637445
 21
-999.94859894456488
 31
0.0
  0
LINE
  5
176
100
AcDbEntity
  8
0
370
              -2
390
0
  6
Continuous
 62
               0
100
AcDbLine
 10
-444.69272163744489
 20
-999.94859894456488
 30
0.0
 11
-154.692721637445
 21
-999.94859894456488
 31
0.0
  0
CIRCLE
  5
177
102
{ACAD_REACTORS
330
178
102
}
100
AcDbEntity
  8
0
370
              -2
390
0
  6
Continuous
 62
               0
100
AcDbCircle
 10
-444.69272163744489
 20
-999.94859894456488
 30
0.0
 40
1.9998779296875
  0
HATCH
  5
178
100
AcDbEntity
  8
0
370
              -2
390
0
  6
Continuous
 62
               0
100
AcDbHatch
 10
0.0
 20
0.0
 30
0.0
210
0.0
220
0.0
230
1.0
  2
SOLID
 70
               1
 71
               1
 91
        1
 92
        1
 93
        1
 72
               2
 10
-444.69272163744489
 20
-999.94859894456488
 40
1.9998779296875
 50
0.0
 51
360.0
 73
               0
 97
        1
330
177
 75
               0
 76
               1
 98
        1
 10
0.0
 20
0.0
  0
CIRCLE
  5
179
102
{ACAD_REACTORS
330
17A
102
}
100
AcDbEntity
  8
0
370
              -2
390
0
  6
Continuous
 62
               0
100
AcDbCircle
 10
-154.692721637445
 20
-999.94859894456488
 30
0.0
 40
1.9998779296875
  0
HATCH
  5
17A
100
AcDbEntity
  8
0
370
              -2
390
0
  6
Continuous
 62
               0
100
AcDbHatch
 10
0.0
 20
0.0
 30
0.0
210
0.0
220
0.0
230
1.0
  2
SOLID
 70
               1
 71
               1
 91
        1
 92
        1
 93
        1
 72
               2
 10
-154.692721637445
 20
-999.94859894456488
 40
1.9998779296875
 50
0.0
 51
360.0
 73
               0
 97
        1
330
179
 75
               0
 76
               1
 98
        1
 10
0.0
 20
0.0
  0
MTEXT
  5
17B
100
AcDbEntity
  8
0
390
0
 62
               0
100
AcDbMText
 10
-323.50522331962037
 20
-966.07098175706483
 30
0.0
 40
24.432617187500004
 41
0.0
 71
               1
 72
               1
  1
290
  7
ＭＳゴシック
 73
               1
 44
0.7828267384257843
  0
POINT
  5
17C
100
AcDbEntity
  8
Defpoints
370
               0
390
0
 62
               0
100
AcDbPoint
 10
-154.692721637445
 20
-901.05124983285498
 30
0.0
  0
POINT
  5
17D
100
AcDbEntity
  8
Defpoints
370
               0
390
0
 62
               0
100
AcDbPoint
 10
-444.69272163744489
 20
-901.05124983285498
 30
0.0
  0
POINT
  5
17E
100
AcDbEntity
  8
Defpoints
370
               0
390
0
 62
               0
100
AcDbPoint
 10
-444.69272163744489
 20
-999.94859894456488
 30
0.0
  0
ENDBLK
  5
17F
100
AcDbEntity
  8
notes
390
0
100
AcDbBlockEnd
  0
BLOCK
  5
180
100
AcDbEntity
  8
notes
390
0
100
AcDbBlockBegin
  2
*D23
 70
               1
 10
0.0
 20
0.0
 30
0.0
  3
*D23
  1

  0
LINE
  5
181
100
AcDbEntity
  8
0
370
              -2
390
0
  6
Continuous
 62
               0
100
AcDbLine
 10
519.84876126401628
 20
-919.94859894456465
 30
0.0
 11
519.84876126401628
 21
-999.94859894456488
 31
0.0
  0
LINE
  5
182
100
AcDbEntity
  8
0
370
              -2
390
0
  6
Continuous
 62
               0
100
AcDbLine
 10
559.84876126401673
 20
-624.94859894456556
 30
0.0
 11
559.84876126401673
 21
-999.94859894456488
 31
0.0
  0
LINE
  5
183
100
AcDbEntity
  8
0
370
              -2
390
0
  6
Continuous
 62
               0
100
AcDbLine
 10
519.84876126401628
 20
-999.94859894456488
 30
0.0
 11
559.84876126401673
 21
-999.94859894456488
 31
0.0
  0
CIRCLE
  5
184
102
{ACAD_REACTORS
330
185
102
}
100
AcDbEntity
  8
0
370
              -2
390
0
  6
Continuous
 62
               0
100
AcDbCircle
 10
519.84876126401628
 20
-999.94859894456488
 30
0.0
 40
1.9998779296875
  0
HATCH
  5
185
100
AcDbEntity
  8
0
370
              -2
390
0
  6
Continuous
 62
               0
100
AcDbHatch
 10
0.0
 20
0.0
 30
0.0
210
0.0
220
0.0
230
1.0
  2
SOLID
 70
               1
 71
               1
 91
        1
 92
        1
 93
        1
 72
               2
 10
519.84876126401628
 20
-999.94859894456488
 40
1.9998779296875
 50
0.0
 51
360.0
 73
               0
 97
        1
330
184
 75
               0
 76
               1
 98
        1
 10
0.0
 20
0.0
  0
CIRCLE
  5
186
102
{ACAD_REACTORS
330
187
102
}
100
AcDbEntity
  8
0
370
              -2
390
0
  6
Continuous
 62
               0
100
AcDbCircle
 10
559.84876126401673
 20
-999.94859894456488
 30
0.0
 40
1.9998779296875
  0
HATCH
  5
187
100
AcDbEntity
  8
0
370
              -2
390
0
  6
Continuous
 62
               0
100
AcDbHatch
 10
0.0
 20
0.0
 30
0.0
210
0.0
220
0.0
230
1.0
  2
SOLID
 70
               1
 71
               1
 91
        1
 92
        1
 93
        1
 72
               2
 10
559.84876126401673
 20
-999.94859894456488
 40
1.9998779296875
 50
0.0
 51
360.0
 73
               0
 97
        1
330
186
 75
               0
 76
               1
 98
        1
 10
0.0
 20
0.0
  0
MTEXT
  5
188
100
AcDbEntity
  8
0
390
0
 62
               0
100
AcDbMText
 10
523.9737612640165
 20
-966.07098175706483
 30
0.0
 40
24.432617187500004
 41
0.0
 71
               1
 72
               1
  1
40
  7
ＭＳゴシック
 73
               1
 44
0.7828267384257843
  0
POINT
  5
189
100
AcDbEntity
  8
Defpoints
370
               0
390
0
 62
               0
100
AcDbPoint
 10
559.84876126401673
 20
-599.94859894456556
 30
0.0
  0
POINT
  5
18A
100
AcDbEntity
  8
Defpoints
370
               0
390
0
 62
               0
100
AcDbPoint
 10
519.84876126401628
 20
-894.94859894456465
 30
0.0
  0
POINT
  5
18B
100
AcDbEntity
  8
Defpoints
370
               0
390
0
 62
               0
100
AcDbPoint
 10
519.84876126401628
 20
-999.94859894456488
 30
0.0
  0
ENDBLK
  5
18C
100
AcDbEntity
  8
notes
390
0
100
AcDbBlockEnd
  0
BLOCK
  5
18D
100
AcDbEntity
  8
notes
390
0
100
AcDbBlockBegin
  2
*D24
 70
               1
 10
0.0
 20
0.0
 30
0.0
  3
*D24
  1

  0
LINE
  5
18E
100
AcDbEntity
  8
0
370
              -2
390
0
  6
Continuous
 62
               0
100
AcDbLine
 10
-601.6927216374479
 20
298.94875016713911
 30
0.0
 11
-779.6927216374454
 21
298.94875016713911
 31
0.0
  0
LINE
  5
18F
100
AcDbEntity
  8
0
370
              -2
390
0
  6
Continuous
 62
               0
100
AcDbLine
 10
-601.69272163744336
 20
-901.05124983285498
 30
0.0
 11
-779.6927216374454
 21
-901.05124983285498
 31
0.0
  0
LINE
  5
190
100
AcDbEntity
  8
0
370
              -2
390
0
  6
Continuous
 62
               0
100
AcDbLine
 10
-779.6927216374454
 20
298.94875016713911
 30
0.0
 11
-779.6927216374454
 21
-901.05124983285498
 31
0.0
  0
CIRCLE
  5
191
102
{ACAD_REACTORS
330
192
102
}
100
AcDbEntity
  8
0
370
              -2
390
0
  6
Continuous
 62
               0
100
AcDbCircle
 10
-779.6927216374454
 20
298.94875016713911
 30
0.0
 40
1.9998779296875
  0
HATCH
  5
192
100
AcDbEntity
  8
0
370
              -2
390
0
  6
Continuous
 62
               0
100
AcDbHatch
 10
0.0
 20
0.0
 30
0.0
210
0.0
220
0.0
230
1.0
  2
SOLID
 70
               1
 71
               1
 91
        1
 92
        1
 93
        1
 72
               2
 10
-779.6927216374454
 20
298.94875016713911
 40
1.9998779296875
 50
0.0
 51
360.0
 73
               0
 97
        1
330
191
 75
               0
 76
               1
 98
        1
 10
0.0
 20
0.0
  0
CIRCLE
  5
193
102
{ACAD_REACTORS
330
194
102
}
100
AcDbEntity
  8
0
370
              -2
390
0
  6
Continuous
 62
               0
100
AcDbCircle
 10
-779.6927216374454
 20
-901.05124983285498
 30
0.0
 40
1.9998779296875
  0
HATCH
  5
194
100
AcDbEntity
  8
0
370
              -2
390
0
  6
Continuous
 62
               0
100
AcDbHatch
 10
0.0
 20
0.0
 30
0.0
210
0.0
220
0.0
230
1.0
  2
SOLID
 70
               1
 71
               1
 91
        1
 92
        1
 93
        1
 72
               2
 10
-779.6927216374454
 20
-901.05124983285498
 40
1.9998779296875
 50
0.0
 51
360.0
 73
               0
 97
        1
330
193
 75
               0
 76
               1
 98
        1
 10
0.0
 20
0.0
  0
MTEXT
  5
195
100
AcDbEntity
  8
0
390
0
 62
               0
100
AcDbMText
 10
-813.57033882494534
 20
-332.80124983285793
 30
0.0
 40
24.432617187500004
 41
0.0
 71
               1
 72
               1
  1
1200
  7
ＭＳゴシック
 11
0.0
 21
1.0
 31
0.0
 73
               1
 44
0.7828267384257843
  0
POINT
  5
196
100
AcDbEntity
  8
Defpoints
370
               0
390
0
 62
               0
100
AcDbPoint
 10
-576.69272163744336
 20
-901.05124983285498
 30
0.0
  0
POINT
  5
197
100
AcDbEntity
  8
Defpoints
370
               0
390
0
 62
               0
100
AcDbPoint
 10
-576.6927216374479
 20
298.94875016713911
 30
0.0
  0
POINT
  5
198
100
AcDbEntity
  8
Defpoints
370
               0
390
0
 62
               0
100
AcDbPoint
 10
-779.6927216374454
 20
298.94875016713911
 30
0.0
  0
ENDBLK
  5
199
100
AcDbEntity
  8
notes
390
0
100
AcDbBlockEnd
  0
BLOCK
  5
19A
100
AcDbEntity
  8
notes
390
0
100
AcDbBlockBegin
  2
*D25
 70
               1
 10
0.0
 20
0.0
 30
0.0
  3
*D25
  1

  0
LINE
  5
19B
100
AcDbEntity
  8
0
370
              -2
390
0
  6
Continuous
 62
               0
100
AcDbLine
 10
-579.6927216374479
 20
320.94875016713911
 30
0.0
 11
-579.6927216374479
 21
398.948750167139
 31
0.0
  0
LINE
  5
19C
100
AcDbEntity
  8
0
370
              -2
390
0
  6
Continuous
 62
               0
100
AcDbLine
 10
-119.69272163744984
 20
320.94875016714252
 30
0.0
 11
-119.69272163744984
 21
398.948750167139
 31
0.0
  0
LINE
  5
19D
100
AcDbEntity
  8
0
370
              -2
390
0
  6
Continuous
 62
               0
100
AcDbLine
 10
-579.6927216374479
 20
398.948750167139
 30
0.0
 11
-119.69272163744984
 21
398.948750167139
 31
0.0
  0
CIRCLE
  5
19E
102
{ACAD_REACTORS
330
19F
102
}
100
AcDbEntity
  8
0
370
              -2
390
0
  6
Continuous
 62
               0
100
AcDbCircle
 10
-579.6927216374479
 20
398.948750167139
 30
0.0
 40
1.9998779296875
  0
HATCH
  5
19F
100
AcDbEntity
  8
0
370
              -2
390
0
  6
Continuous
 62
               0
100
AcDbHatch
 10
0.0
 20
0.0
 30
0.0
210
0.0
220
0.0
230
1.0
  2
SOLID
 70
               1
 71
               1
 91
        1
 92
        1
 93
        1
 72
               2
 10
-579.6927216374479
 20
398.948750167139
 40
1.9998779296875
 50
0.0
 51
360.0
 73
               0
 97
        1
330
19E
 75
               0
 76
               1
 98
        1
 10
0.0
 20
0.0
  0
CIRCLE
  5
1A0
102
{ACAD_REACTORS
330
1A1
102
}
100
AcDbEntity
  8
0
370
              -2
390
0
  6
Continuous
 62
               0
100
AcDbCircle
 10
-119.69272163744984
 20
398.948750167139
 30
0.0
 40
1.9998779296875
  0
HATCH
  5
1A1
100
AcDbEntity
  8
0
370
              -2
390
0
  6
Continuous
 62
               0
100
AcDbHatch
 10
0.0
 20
0.0
 30
0.0
210
0.0
220
0.0
230
1.0
  2
SOLID
 70
               1
 71
               1
 91
        1
 92
        1
 93
        1
 72
               2
 10
-119.69272163744984
 20
398.948750167139
 40
1.9998779296875
 50
0.0
 51
360.0
 73
               0
 97
        1
330
1A0
 75
               0
 76
               1
 98
        1
 10
0.0
 20
0.0
  0
MTEXT
  5
1A2
100
AcDbEntity
  8
0
390
0
 62
               0
100
AcDbMText
 10
-373.50522331962435
 20
432.82636735463905
 30
0.0
 40
24.432617187500004
 41
0.0
 71
               1
 72
               1
  1
460
  7
ＭＳゴシック
 73
               1
 44
0.7828267384257843
  0
POINT
  5
1A3
100
AcDbEntity
  8
Defpoints
370
               0
390
0
 62
               0
100
AcDbPoint
 10
-119.69272163744984
 20
295.94875016714252
 30
0.0
  0
POINT
  5
1A4
100
AcDbEntity
  8
Defpoints
370
               0
390
0
 62
               0
100
AcDbPoint
 10
-579.6927216374479
 20
295.94875016713911
 30
0.0
  0
POINT
  5
1A5
100
AcDbEntity
  8
Defpoints
370
               0
390
0
 62
               0
100
AcDbPoint
 10
-579.6927216374479
 20
398.948750167139
 30
0.0
  0
ENDBLK
  5
1A6
100
AcDbEntity
  8
notes
390
0
100
AcDbBlockEnd
  0
ENDSEC
  0
SECTION
  2
ENTITIES
  0
MTEXT
  5
1A7
100
AcDbEntity
  8
template
390
0
 62
               7
100
AcDbMText
 10
-967.99999999975921
 20
-1147.4176292337006
 30
0.0
 40
16.288411458333332
 41
0.0
 71
               1
 72
               1
  1
品名
  7
ＭＳ ゴシック
 73
               1
 44
0.7828267384257843
  0
MTEXT
  5
1A8
100
AcDbEntity
  8
template
390
0
 62
               7
100
AcDbMText
 10
-967.99999999975921
 20
-1232.4176292337004
 30
0.0
 40
16.288411458333332
 41
0.0
 71
               1
 72
               1
  1
仕様
  7
ＭＳ ゴシック
 73
               1
 44
0.7828267384257843
  0
MTEXT
  5
1A9
100
AcDbEntity
  8
template
390
0
 62
               7
100
AcDbMText
 10
-914.99999999975921
 20
-1176.0000901712006
 30
0.0
 40
24.432617187500004
 41
0.0
 71
               1
 72
               1
  1
洗面器 -CATALANO,Verso-
  7
ＭＳ ゴシック
 73
               1
 44
0.7828267384257843
  0
LINE
  5
1AA
100
AcDbEntity
  8
template
370
               5
390
0
  6
Continuous
 62
               7
100
AcDbLine
 10
974.99999999975876
 20
-1224.0027073587005
 30
0.0
 11
-975.00000000024124
 21
-1224.0027073587005
 31
0.0
  0
LWPOLYLINE
  5
1AB
100
AcDbEntity
  8
template
370
               5
390
0
  6
Continuous
 62
               7
100
AcDbPolyline
 90
        5
 70
             128
 10
975.00000000024124
 20
1405.9972926412995
 10
-974.99999999975921
 20
1405.9972926412995
 10
-974.99999999975921
 20
-1394.0027073587005
 10
975.00000000024124
 20
-1394.0027073587005
 10
975.00000000024124
 20
1405.9972926412995
  0
LINE
  5
1AC
100
AcDbEntity
  8
template
370
               5
390
0
  6
Continuous
 62
               7
100
AcDbLine
 10
974.99999999975876
 20
-1139.0027073587005
 30
0.0
 11
-975.00000000024124
 21
-1139.0027073587005
 31
0.0
  0
LINE
  5
1AD
100
AcDbEntity
  8
template
370
               5
390
0
  6
Continuous
 62
               7
100
AcDbLine
 10
975.00000000024124
 20
-1309.0027073587005
 30
0.0
 11
222.00000000024124
 21
-1309.0027073587005
 31
0.0
  0
MTEXT
  5
1AE
100
AcDbEntity
  8
template
390
0
 62
               7
100
AcDbMText
 10
-974.99999999955594
 20
-1405.8565294155574
 30
0.0
 40
21.717881944444446
 41
0.0
 71
               1
 72
               1
  1
100707SH
  7
ＭＳ ゴシック
 73
               1
 44
0.7828267384257843
  0
MTEXT
  5
1AF
100
AcDbEntity
  8
template
390
0
 62
               7
100
AcDbMText
 10
251.87140625250089
 20
-1338.9131018320081
 30
0.0
 40
24.432617187500004
 41
0.0
 71
               1
 72
               1
  1
大洋金物株式会社 ティーフォルム事業部
  7
ＭＳ ゴシック
 73
               1
 44
0.7828267384257843
  0
INSERT
  5
1B0
100
AcDbEntity
  8
template
390
0
 62
               7
100
AcDbBlockReference
  2
グループ
 10
373.01251218170665
 20
-191.91248549096122
 30
0.0
  0
MTEXT
  5
1B1
100
AcDbEntity
  8
template
390
0
 62
               7
100
AcDbMText
 10
784.00000000049999
 20
-1261.0000901712006
 30
0.0
 40
24.432617187500004
 41
0.0
 71
               1
 72
               1
  1
1:10
  7
ＭＳ ゴシック
 73
               1
 44
0.7828267384257843
  0
MTEXT
  5
1B2
100
AcDbEntity
  8
template
390
0
 62
               7
100
AcDbMText
 10
731.00000000049999
 20
-1232.4176292337004
 30
0.0
 40
16.288411458333332
 41
0.0
 71
               1
 72
               1
  1
縮尺
  7
ＭＳ ゴシック
 73
               1
 44
0.7828267384257843
  0
LINE
  5
1B3
100
AcDbEntity
  8
template
370
               5
390
0
  6
Continuous
 62
               7
100
AcDbLine
 10
724.00000000049999
 20
-1309.0027073587005
 30
0.0
 11
724.00000000049999
 21
-1224.0027073587005
 31
0.0
  0
MTEXT
  5
1B4
100
AcDbEntity
  8
template
390
0
 62
               7
100
AcDbMText
 10
480.00000000049999
 20
-1232.4176292337004
 30
0.0
 40
16.288411458333332
 41
0.0
 71
               1
 72
               1
  1
容量
  7
ＭＳ ゴシック
 73
               1
 44
0.7828267384257843
  0
MTEXT
  5
1B5
100
AcDbEntity
  8
template
390
0
 62
               7
100
AcDbMText
 10
533.00000000049999
 20
-1261.0000901712006
 30
0.0
 40
24.432617187500004
 41
0.0
 71
               1
 72
               1
  1
17L
  7
ＭＳ ゴシック
 73
               1
 44
0.7828267384257843
  0
LINE
  5
1B6
100
AcDbEntity
  8
template
370
               5
390
0
  6
Continuous
 62
               7
100
AcDbLine
 10
473.00000000049999
 20
-1309.0027073587005
 30
0.0
 11
473.00000000049999
 21
-1224.0027073587005
 31
0.0
  0
MTEXT
  5
1B7
100
AcDbEntity
  8
template
390
0
 62
               7
100
AcDbMText
 10
229.00000000049999
 20
-1147.4176292337006
 30
0.0
 40
16.288411458333332
 41
0.0
 71
               1
 72
               1
  1
品番
  7
ＭＳ ゴシック
 73
               1
 44
0.7828267384257843
  0
MTEXT
  5
1B8
100
AcDbEntity
  8
template
390
0
 62
               7
100
AcDbMText
 10
229.00000000049999
 20
-1232.4176292337004
 30
0.0
 40
16.288411458333332
 41
0.0
 71
               1
 72
               1
  1
重量
  7
ＭＳ ゴシック
 73
               1
 44
0.7828267384257843
  0
MTEXT
  5
1B9
100
AcDbEntity
  8
template
390
0
 62
               7
100
AcDbMText
 10
282.00000000049999
 20
-1176.0000901712006
 30
0.0
 40
24.432617187500004
 41
0.0
 71
               1
 72
               1
  1
ADF70-0603
  7
ＭＳ ゴシック
 73
               1
 44
0.7828267384257843
  0
MTEXT
  5
1BA
100
AcDbEntity
  8
template
390
0
 62
               7
100
AcDbMText
 10
282.00000000049999
 20
-1261.0000901712006
 30
0.0
 40
24.432617187500004
 41
0.0
 71
               1
 72
               1
  1
38.5kg
  7
ＭＳ ゴシック
 73
               1
 44
0.7828267384257843
  0
LINE
  5
1BB
100
AcDbEntity
  8
template
370
               5
390
0
  6
Continuous
 62
               7
100
AcDbLine
 10
222.00000000049999
 20
-1394.0027073587005
 30
0.0
 11
222.00000000049999
 21
-1139.0027073587005
 31
0.0
  0
MTEXT
  5
1BC
100
AcDbEntity
  8
template
390
0
 62
               7
100
AcDbMText
 10
-914.99999999975921
 20
-1261.0000901712003
 30
0.0
 40
24.432617187500004
 41
0.0
 71
               1
 72
               1
  1
壁掛け,カウンタ ー置き/オーバーフローあり/壁取付ボルト付属/\P陶器/ホワイト
  7
ＭＳ ゴシック
 73
               1
 44
1.3047112307096407
  0
MTEXT
  5
1BD
100
AcDbEntity
  8
cut
390
0
 62
               7
100
AcDbMText
 10
-791.49636109664675
 20
703.54374379711521
 30
0.0
 40
24.432617187500004
 41
0.0
 71
               1
 72
               1
  1
カウンター切込寸法(1/20)
  7
ＭＳゴシック
 11
0.0
 21
1.0
 31
0.0
 73
               1
 44
0.7828267384257843
  0
MTEXT
  5
1BE
100
AcDbEntity
  8
cut
390
0
 62
               7
100
AcDbMText
 10
-122.22552776331327
 20
506.98164194334834
 30
0.0
 40
24.432617187500004
 41
822.87474729347446
 71
               1
 72
               1
  1
※陶器製品には寸法公差があります。\P  洗面器の収め方をご確認の上、必ず現物を合わせて\P  カウンターに切込を行ってください。
  7
ＭＳ ゴシック
 11
0.0
 21
1.0
 31
0.0
 73
               1
 44
1.0437689845677123
  0
INSERT
  5
1BF
100
AcDbEntity
  8
cut
390
0
 62
               7
100
AcDbBlockReference
  2
グループ-1
 10
373.01251218170665
 20
-191.91248549096122
 30
0.0
 41
0.5
 42
0.5
 43
0.5
  0
MTEXT
  5
1C0
100
AcDbEntity
  8
notes
390
0
 62
               7
100
AcDbMText
 10
82.610598439790579
 20
-668.82195398153192
 30
0.0
 40
24.432617187500004
 41
864.63611111111118
 71
               1
 72
               1
  1
＝φ30もしくはφ35の水栓取付用穴あけ加工を承ります。\P  必要な場合、ご注文の際にご指示ください。
  7
ＭＳ ゴシック
 11
0.0
 21
1.0
 31
0.0
 73
               1
 44
1.0437689845677123
  0
MTEXT
  5
1C1
100
AcDbEntity
  8
notes
390
0
 62
               7
100
AcDbMText
 10
428.82923496369528
 20
8.1943329466652983
 30
0.0
 40
24.432617187500004
 41
0.0
 71
               1
 72
               1
  1
壁取付ボルト穴(4ヶ所)
  7
ＭＳ ゴシック
 11
0.0
 21
1.0
 31
0.0
 73
               1
 44
0.7828267384257843
  0
LINE
  5
1C2
100
AcDbEntity
  8
notes
370
               5
390
0
  6
Continuous
 62
               7
100
AcDbLine
 10
559.84876126401662
 20
-49.948598944568545
 30
0.0
 11
472.14147006950896
 21
37.758692249939116
 31
0.0
  0
CIRCLE
  5
1C3
100
AcDbEntity
  8
notes
370
               5
390
0
  6
STYLE_12
 62
               7
100
AcDbCircle
 10
95.241164225043121
 20
-690.6858428704204
 30
0.0
 40
17.499999999999659
  0
DIMENSION
  5
1C4
100
AcDbEntity
  8
notes
370
               5
390
0
  6
Continuous
 62
               7
100
AcDbDimension
  2
*D7
 10
794.84876126401878
 20
1108.3881620580462
 30
0.0
 11
794.84876126401878
 21
968.38816205804733
 31
0.0
 71
               5
 72
               1
 41
1.0
 42
0.0
  3
tform線あり
100
AcDbAlignedDimension
 13
694.84876126401878
 23
828.38816205804858
 33
0.0
 14
689.84876126401878
 24
1108.3881620580462
 34
0.0
 50
90.0
100
AcDbRotatedDimension
1001
ACAD
1000
DSTYLE
1002
{
1070
             279
1070
               2
1070
             340
1005
3B
1070
             147
1040
5.0
1002
}
  0
DIMENSION
  5
1C5
100
AcDbEntity
  8
notes
370
               5
390
0
  6
Continuous
 62
               7
100
AcDbDimension
  2
*D8
 10
-679.69272163744517
 20
-601.05124983285566
 30
0.0
 11
-679.69272163744517
 21
-551.05124983285646
 31
0.0
 71
               5
 72
               1
 41
1.0
 42
0.0
  3
tform線あり
100
AcDbAlignedDimension
 13
-527.19853681603877
 23
-501.05124983285725
 33
0.0
 14
-527.19853681603877
 24
-601.05124983285566
 34
0.0
 50
90.0
100
AcDbRotatedDimension
1001
ACAD
1000
DSTYLE
1002
{
1070
             279
1070
               2
1070
             340
1005
3B
1070
             147
1040
5.0
1002
}
  0
DIMENSION
  5
1C6
100
AcDbEntity
  8
notes
370
               5
390
0
  6
Continuous
 62
               7
100
AcDbDimension
  2
*D9
 10
-679.69272163744517
 20
-501.05124983285725
 30
0.0
 11
-679.69272163744517
 21
-451.05124983285793
 31
0.0
 71
               5
 72
               1
 41
1.0
 42
0.0
  3
tform線あり
100
AcDbAlignedDimension
 13
-527.198536816039
 23
-401.05124983285862
 33
0.0
 14
-527.19853681603877
 24
-501.05124983285725
 34
0.0
 50
90.0
100
AcDbRotatedDimension
1001
ACAD
1000
DSTYLE
1002
{
1070
             279
1070
               2
1070
             340
1005
3B
1070
             147
1040
5.0
1002
}
  0
DIMENSION
  5
1C7
100
AcDbEntity
  8
notes
370
               5
390
0
  6
Continuous
 62
               7
100
AcDbDimension
  2
*D10
 10
-679.6927216374454
 20
-401.05124983285862
 30
0.0
 11
-679.6927216374454
 21
-351.05124983285862
 31
0.0
 71
               5
 72
               1
 41
1.0
 42
0.0
  3
tform線あり
100
AcDbAlignedDimension
 13
-527.19853681603877
 23
-301.0512498328585
 33
0.0
 14
-527.198536816039
 24
-401.05124983285862
 34
0.0
 50
90.0
100
AcDbRotatedDimension
1001
ACAD
1000
DSTYLE
1002
{
1070
             279
1070
               2
1070
             340
1005
3B
1070
             147
1040
5.0
1002
}
  0
DIMENSION
  5
1C8
100
AcDbEntity
  8
notes
370
               5
390
0
  6
Continuous
 62
               7
100
AcDbDimension
  2
*D11
 10
-679.69272163744517
 20
-301.0512498328585
 30
0.0
 11
-679.69272163744517
 21
-251.05124983285938
 31
0.0
 71
               5
 72
               1
 41
1.0
 42
0.0
  3
tform線あり
100
AcDbAlignedDimension
 13
-527.19853681603945
 23
-201.05124983286024
 33
0.0
 14
-527.19853681603877
 24
-301.0512498328585
 34
0.0
 50
90.0
100
AcDbRotatedDimension
1001
ACAD
1000
DSTYLE
1002
{
1070
             279
1070
               2
1070
             340
1005
3B
1070
             147
1040
5.0
1002
}
  0
DIMENSION
  5
1C9
100
AcDbEntity
  8
notes
370
               5
390
0
  6
Continuous
 62
               7
100
AcDbDimension
  2
*D12
 10
-679.69272163744517
 20
-201.05124983286024
 30
0.0
 11
-679.69272163744517
 21
-151.05124983286029
 31
0.0
 71
               5
 72
               1
 41
1.0
 42
0.0
  3
tform線あり
100
AcDbAlignedDimension
 13
-527.19853681604036
 23
-101.05124983286035
 33
0.0
 14
-527.19853681603945
 24
-201.05124983286024
 34
0.0
 50
90.0
100
AcDbRotatedDimension
1001
ACAD
1000
DSTYLE
1002
{
1070
             279
1070
               2
1070
             340
1005
3B
1070
             147
1040
5.0
1002
}
  0
DIMENSION
  5
1CA
100
AcDbEntity
  8
notes
370
               5
390
0
  6
Continuous
 62
               7
100
AcDbDimension
  2
*D13
 10
-679.69272163744517
 20
-101.05124983286035
 30
0.0
 11
-679.69272163744517
 21
-51.05124983286035
 31
0.0
 71
               5
 72
               1
 41
1.0
 42
0.0
  3
tform線あり
100
AcDbAlignedDimension
 13
-527.19853681604104
 23
-1.0512498328603499
 33
0.0
 14
-527.19853681604036
 24
-101.05124983286035
 34
0.0
 50
90.0
100
AcDbRotatedDimension
1001
ACAD
1000
DSTYLE
1002
{
1070
             279
1070
               2
1070
             340
1005
3B
1070
             147
1040
5.0
1002
}
  0
DIMENSION
  5
1CB
100
AcDbEntity
  8
notes
370
               5
390
0
  6
Continuous
 62
               7
100
AcDbDimension
  2
*D14
 10
419.79999999999944
 20
-549.94859894456636
 30
0.0
 11
419.79999999999944
 21
-494.94859894456721
 31
0.0
 71
               5
 72
               1
 41
1.0
 42
0.0
  3
tform線あり
100
AcDbAlignedDimension
 13
539.84876126401628
 23
-439.94859894456806
 33
0.0
 14
539.79999999999927
 24
-549.94859894456636
 34
0.0
 50
90.0
100
AcDbRotatedDimension
1001
ACAD
1000
DSTYLE
1002
{
1070
             279
1070
               2
1070
             340
1005
3B
1070
             147
1040
5.0
1002
}
  0
DIMENSION
  5
1CC
100
AcDbEntity
  8
notes
370
               5
390
0
  6
Continuous
 62
               7
100
AcDbDimension
  2
*D15
 10
419.84876126401645
 20
-439.94859894456806
 30
0.0
 11
419.84876126401645
 21
-299.94859894456835
 31
0.0
 71
               5
 72
               1
 41
1.0
 42
0.0
  3
tform線あり
100
AcDbAlignedDimension
 13
539.84876126401628
 23
-159.9485989445686
 33
0.0
 14
539.84876126401628
 24
-439.94859894456806
 34
0.0
 50
90.0
100
AcDbRotatedDimension
1001
ACAD
1000
DSTYLE
1002
{
1070
             279
1070
               2
1070
             340
1005
3B
1070
             147
1040
5.0
1002
}
  0
DIMENSION
  5
1CD
100
AcDbEntity
  8
notes
370
               5
390
0
  6
Continuous
 62
               7
100
AcDbDimension
  2
*D16
 10
419.84876126401645
 20
-159.9485989445686
 30
0.0
 11
419.84876126401645
 21
-104.94859894456857
 31
0.0
 71
               5
 72
               1
 41
1.0
 42
0.0
  3
tform線あり
100
AcDbAlignedDimension
 13
539.84876126401628
 23
-49.948598944568545
 33
0.0
 14
539.84876126401628
 24
-159.9485989445686
 34
0.0
 50
90.0
100
AcDbRotatedDimension
1001
ACAD
1000
DSTYLE
1002
{
1070
             279
1070
               2
1070
             340
1005
3B
1070
             147
1040
5.0
1002
}
  0
DIMENSION
  5
1CE
100
AcDbEntity
  8
notes
370
               5
390
0
  6
Continuous
 62
               7
100
AcDbDimension
  2
*D17
 10
-19.692721637444834
 20
-866.05124983285475
 30
0.0
 11
-19.692721637444834
 21
-301.05124983285623
 31
0.0
 71
               5
 72
               1
 41
1.0
 42
0.0
  3
tform線あり
100
AcDbAlignedDimension
 13
-119.69272163744478
 23
263.94875016714229
 33
0.0
 14
-119.69272163744478
 24
-866.05124983285475
 34
0.0
 50
90.0
100
AcDbRotatedDimension
1001
ACAD
1000
DSTYLE
1002
{
1070
             279
1070
               2
1070
             340
1005
3B
1070
             147
1040
5.0
1002
}
  0
DIMENSION
  5
1CF
100
AcDbEntity
  8
notes
370
               5
390
0
  6
Continuous
 62
               7
100
AcDbDimension
  2
*D18
 10
519.84876126401628
 20
835.64124060107929
 30
0.0
 11
511.00000000000017
 21
840.64124060107929
 31
0.0
 70
             128
 71
               5
 72
               1
 41
1.0
 42
0.0
  3
tform線あり
100
AcDbAlignedDimension
 13
639.84876126401787
 23
858.25759511583124
 33
0.0
 14
519.84876126401628
 24
858.25759511583124
 34
0.0
100
AcDbRotatedDimension
1001
ACAD
1000
DSTYLE
1002
{
1070
             279
1070
               2
1070
             340
1005
3B
1070
               3
1000
<>(深さ)
1070
             174
1070
               0
1070
             147
1040
5.0
1002
}
  0
DIMENSION
  5
1D0
100
AcDbEntity
  8
notes
370
               5
390
0
  6
Continuous
 62
               7
100
AcDbDimension
  2
*D19
 10
438.84876126401628
 20
1108.3881620580462
 30
0.0
 11
438.84876126401628
 21
1073.3881620580466
 31
0.0
 71
               5
 72
               1
 41
1.0
 42
0.0
  3
tform線あり
100
AcDbAlignedDimension
 13
519.84876126401673
 23
1038.3881620580471
 33
0.0
 14
525.84876126401628
 24
1108.3881620580462
 34
0.0
 50
90.0
100
AcDbRotatedDimension
1001
ACAD
1000
DSTYLE
1002
{
1070
             279
1070
               2
1070
             340
1005
3B
1070
             147
1040
5.0
1002
}
  0
DIMENSION
  5
1D1
100
AcDbEntity
  8
notes
370
               5
390
0
  6
Continuous
 62
               7
100
AcDbDimension
  2
*D20
 10
519.84876126401491
 20
548.38816205805301
 30
0.0
 11
607.34876126401616
 21
548.38816205805301
 31
0.0
 71
               5
 72
               1
 41
1.0
 42
0.0
  3
tform線あり
100
AcDbAlignedDimension
 13
694.84876126401741
 23
653.38816205805358
 33
0.0
 14
519.84876126401491
 24
653.38816205805358
 34
0.0
100
AcDbRotatedDimension
1001
ACAD
1000
DSTYLE
1002
{
1070
             279
1070
               2
1070
             340
1005
3B
1070
             147
1040
5.0
1002
}
  0
DIMENSION
  5
1D2
100
AcDbEntity
  8
notes
370
               5
390
0
  6
Continuous
 62
               7
100
AcDbDimension
  2
*D21
 10
-579.6927216374429
 20
-999.94859894456488
 30
0.0
 11
-512.19272163744381
 21
-999.94859894456488
 31
0.0
 71
               5
 72
               1
 41
1.0
 42
0.0
  3
tform線あり
100
AcDbAlignedDimension
 13
-444.69272163744489
 23
-898.05124983285498
 33
0.0
 14
-579.6927216374429
 24
-898.05124983285498
 34
0.0
100
AcDbRotatedDimension
1001
ACAD
1000
DSTYLE
1002
{
1070
             279
1070
               2
1070
             340
1005
3B
1070
             147
1040
5.0
1002
}
  0
DIMENSION
  5
1D3
100
AcDbEntity
  8
notes
370
               5
390
0
  6
Continuous
 62
               7
100
AcDbDimension
  2
*D22
 10
-444.69272163744489
 20
-999.94859894456488
 30
0.0
 11
-299.69272163744489
 21
-999.94859894456488
 31
0.0
 71
               5
 72
               1
 41
1.0
 42
0.0
  3
tform線あり
100
AcDbAlignedDimension
 13
-154.692721637445
 23
-901.05124983285498
 33
0.0
 14
-444.69272163744489
 24
-901.05124983285498
 34
0.0
100
AcDbRotatedDimension
1001
ACAD
1000
DSTYLE
1002
{
1070
             279
1070
               2
1070
             340
1005
3B
1070
             147
1040
5.0
1002
}
  0
DIMENSION
  5
1D4
100
AcDbEntity
  8
notes
370
               5
390
0
  6
Continuous
 62
               7
100
AcDbDimension
  2
*D23
 10
519.84876126401628
 20
-999.94859894456488
 30
0.0
 11
539.8487612640165
 21
-999.94859894456488
 31
0.0
 71
               5
 72
               1
 41
1.0
 42
0.0
  3
tform線あり
100
AcDbAlignedDimension
 13
559.84876126401673
 23
-599.94859894456556
 33
0.0
 14
519.84876126401628
 24
-894.94859894456465
 34
0.0
100
AcDbRotatedDimension
1001
ACAD
1000
DSTYLE
1002
{
1070
             279
1070
               2
1070
             340
1005
3B
1070
             147
1040
5.0
1002
}
  0
DIMENSION
  5
1D5
100
AcDbEntity
  8
notes
370
               5
390
0
  6
Continuous
 62
               7
100
AcDbDimension
  2
*D24
 10
-779.6927216374454
 20
298.94875016713911
 30
0.0
 11
-779.6927216374454
 21
-301.05124983285793
 31
0.0
 71
               5
 72
               1
 41
1.0
 42
0.0
  3
tform線あり
100
AcDbAlignedDimension
 13
-576.69272163744336
 23
-901.05124983285498
 33
0.0
 14
-576.6927216374479
 24
298.94875016713911
 34
0.0
 50
90.0
100
AcDbRotatedDimension
1001
ACAD
1000
DSTYLE
1002
{
1070
             279
1070
               2
1070
             340
1005
3B
1070
             147
1040
5.0
1002
}
  0
DIMENSION
  5
1D6
100
AcDbEntity
  8
notes
370
               5
390
0
  6
Continuous
 62
               7
100
AcDbDimension
  2
*D25
 10
-579.6927216374479
 20
398.948750167139
 30
0.0
 11
-349.69272163744887
 21
398.948750167139
 31
0.0
 71
               5
 72
               1
 41
1.0
 42
0.0
  3
tform線あり
100
AcDbAlignedDimension
 13
-119.69272163744984
 23
295.94875016714252
 33
0.0
 14
-579.6927216374479
 24
295.94875016713911
 34
0.0
100
AcDbRotatedDimension
1001
ACAD
1000
DSTYLE
1002
{
1070
             279
1070
               2
1070
             340
1005
3B
1070
             147
1040
5.0
1002
}
  0
LINE
  5
1D7
100
AcDbEntity
  8
ADF70-0603
370
              15
390
0
  6
Continuous
 62
               7
100
AcDbLine
 10
-579.6927216374429
 20
-898.05124983285498
 30
0.0
 11
-579.69272163744267
 21
-301.05124983285884
 31
0.0
  0
LINE
  5
1D8
100
AcDbEntity
  8
ADF70-0603
370
              15
390
0
  6
Continuous
 62
               7
100
AcDbLine
 10
-576.69272163744313
 20
-901.05124983285498
 30
0.0
 11
-122.692721637445
 21
-901.05124983285498
 31
0.0
  0
LINE
  5
1D9
100
AcDbEntity
  8
ADF70-0603
370
              15
390
0
  6
Continuous
 62
               7
100
AcDbLine
 10
-434.69272163744489
 20
-866.05124983285475
 30
0.0
 11
-164.692721637445
 21
-866.05124983285475
 31
0.0
  0
LINE
  5
1DA
100
AcDbEntity
  8
ADF70-0603
370
              15
390
0
  6
Continuous
 62
               7
100
AcDbLine
 10
-424.69272163744512
 20
-301.05124983285896
 30
0.0
 11
-424.6927216374458
 21
-684.05258928078354
 31
0.0
  0
LINE
  5
1DB
100
AcDbEntity
  8
ADF70-0603
370
              15
390
0
  6
Continuous
 62
               7
100
AcDbLine
 10
-174.69272163744523
 20
-301.05124983285896
 30
0.0
 11
-174.69272163744569
 21
-684.05258928078331
 31
0.0
  0
LINE
  5
1DC
100
AcDbEntity
  8
ADF70-0603
370
              15
390
0
  6
Continuous
 62
               7
100
AcDbLine
 10
-424.69272163744489
 20
-327.30124983285884
 30
0.0
 11
-424.6927216374458
 21
-684.05258928078354
 31
0.0
  0
LINE
  5
1DD
100
AcDbEntity
  8
ADF70-0603
370
              15
390
0
  6
Continuous
 62
               7
100
AcDbLine
 10
-414.6927216374458
 20
-694.05258928078354
 30
0.0
 11
-184.69272163744569
 21
-694.05258928078331
 31
0.0
  0
ARC
  5
1DE
100
AcDbEntity
  8
ADF70-0603
370
              15
390
0
  6
Continuous
 62
               7
100
AcDbCircle
 10
-299.69272163744785
 20
-301.05124983285873
 30
0.0
 40
22.5
100
AcDbArc
 50
180.00000000000028
 51
359.99999999999966
  0
ARC
  5
1DF
100
AcDbEntity
  8
ADF70-0603
370
              15
390
0
  6
Continuous
 62
               7
100
AcDbCircle
 10
-299.69272163744785
 20
-301.05124983285873
 30
0.0
 40
39.0
100
AcDbArc
 50
180.00000000000014
 51
359.99999999999966
  0
ARC
  5
1E0
100
AcDbEntity
  8
ADF70-0603
370
              15
390
0
  6
Continuous
 62
               7
100
AcDbCircle
 10
-122.69272163744535
 20
-898.05124983285498
 30
0.0
 40
3.0
100
AcDbArc
 50
270.0
 51
0.0
  0
ARC
  5
1E1
100
AcDbEntity
  8
ADF70-0603
370
              15
390
0
  6
Continuous
 62
               7
100
AcDbCircle
 10
-576.69272163744336
 20
-898.05124983285498
 30
0.0
 40
3.0
100
AcDbArc
 50
180.0
 51
270.0
  0
ARC
  5
1E2
100
AcDbEntity
  8
ADF70-0603
370
              15
390
0
  6
Continuous
 62
               7
100
AcDbCircle
 10
-434.69272163744512
 20
-856.05124983285475
 30
0.0
 40
10.0
100
AcDbArc
 50
180.0
 51
270.0
  0
ARC
  5
1E3
100
AcDbEntity
  8
ADF70-0603
370
              15
390
0
  6
Continuous
 62
               7
100
AcDbCircle
 10
-164.69272163744535
 20
-856.05124983285475
 30
0.0
 40
10.0
100
AcDbArc
 50
270.0
 51
0.0
  0
LINE
  5
1E4
100
AcDbEntity
  8
ADF70-0603
370
              15
390
0
  6
Continuous
 62
               7
100
AcDbLine
 10
-159.74216329853294
 20
-853.61131175429489
 30
0.0
 11
-174.69272163744557
 21
-694.05258928078331
 31
0.0
  0
SPLINE
  5
1E5
100
AcDbEntity
  8
ADF70-0603
370
              15
390
0
  6
Continuous
 62
               7
100
AcDbSpline
210
0.0
220
0.0
230
1.0
 70
               8
 71
               2
 72
              21
 73
              18
 74
               0
 42
0.000001
 43
0.000001
 40
0.0
 40
0.0
 40
0.0
 40
1.0
 40
1.0
 40
2.0
 40
3.0
 40
4.0
 40
5.0
 40
6.0
 40
7.0
 40
8.0
 40
9.0
 40
10.0
 40
11.0
 40
12.0
 40
13.0
 40
13.0
 40
14.0
 40
14.0
 40
14.0
 10
-437.69272163744466
 20
-301.05124983285873
 30
0.0
 10
-437.69272163744466
 20
-301.22486094396982
 30
0.0
 10
-437.69272163744466
 20
-301.39847205508102
 30
0.0
 10
-437.67866681919298
 20
-302.45465241173804
 30
0.0
 10
-437.59103274889156
 20
-304.60010610026643
 30
0.0
 10
-437.30919111441489
 20
-307.34719592015767
 30
0.0
 10
-436.76239707185772
 20
-310.34883084581293
 30
0.0
 10
-436.05593647297172
 20
-312.27686272439439
 30
0.0
 10
-435.40432703014829
 20
-313.28449775938623
 30
0.0
 10
-434.69208974341444
 20
-313.63952204320162
 30
0.0
 10
-433.97966650680013
 20
-313.28095355349808
 30
0.0
 10
-433.00818368286144
 20
-311.79526826873143
 30
0.0
 10
-432.27427055892684
 20
-308.5959695131703
 30
0.0
 10
-431.9149047450814
 20
-305.99897698760822
 30
0.0
 10
-431.71587598753734
 20
-303.16345748325307
 30
0.0
 10
-431.69272163744466
 20
-301.39847205508102
 30
0.0
 10
-431.69272163744466
 20
-301.22486094396982
 30
0.0
 10
-431.69272163744466
 20
-301.05124983285873
 30
0.0
  0
LINE
  5
1E6
100
AcDbEntity
  8
ADF70-0603
370
              15
390
0
  6
Continuous
 62
               7
100
AcDbLine
 10
-579.69272163744267
 20
-301.05124983285884
 30
0.0
 11
-579.69272163744267
 21
-696.06242651772743
 31
0.0
  0
LINE
  5
1E7
100
AcDbEntity
  8
ADF70-0603
370
              15
390
0
  6
Continuous
 62
               7
100
AcDbLine
 10
-444.69272163744466
 20
-301.05124983285896
 30
0.0
 11
-444.69272163744489
 21
-856.05124983285475
 31
0.0
  0
LINE
  5
1E8
100
AcDbEntity
  8
ADF70-0603
370
              15
390
0
  6
Continuous
 62
               7
100
AcDbLine
 10
-154.69272163744478
 20
-301.05124983285896
 30
0.0
 11
-154.692721637445
 21
-856.05124983285475
 31
0.0
  0
LINE
  5
1E9
100
AcDbEntity
  8
ADF70-0603
370
              15
390
0
  6
Continuous
 62
               7
100
AcDbLine
 10
-119.69272163744478
 20
-301.05124983285896
 30
0.0
 11
-119.692721637445
 21
-898.05124983285498
 31
0.0
  0
SPLINE
  5
1EA
100
AcDbEntity
  8
ADF70-0603
370
              15
390
0
  6
Continuous
 62
               7
100
AcDbSpline
210
0.0
220
0.0
230
1.0
 70
              12
 71
               2
 72
               8
 73
               5
 74
               0
 42
0.000001
 43
0.000001
 40
0.0
 40
0.0
 40
0.0
 40
0.5
 40
0.5
 40
1.0
 40
1.0
 40
1.0
 10
-437.69272163744466
 20
-301.05124983285975
 30
0.0
 41
1.0
 10
-437.69272163744512
 20
-288.55124983285998
 30
0.0
 41
0.7071067811865476
 10
-434.69272163744466
 20
-288.55124983285975
 30
0.0
 41
1.0
 10
-431.69272163744535
 20
-288.55124983285998
 30
0.0
 41
0.7071067811865476
 10
-431.69272163744466
 20
-301.05124983285975
 30
0.0
 41
1.0
  0
ARC
  5
1EB
100
AcDbEntity
  8
ADF70-0603
370
              15
390
0
  6
Continuous
 62
               7
100
AcDbCircle
 10
-414.69272163744614
 20
-684.05258928078354
 30
0.0
 40
9.9999999999998863
100
AcDbArc
 50
180.0
 51
270.0
  0
ARC
  5
1EC
100
AcDbEntity
  8
ADF70-0603
370
              15
390
0
  6
Continuous
 62
               7
100
AcDbCircle
 10
-184.6927216374458
 20
-684.05258928078331
 30
0.0
 40
10.0
100
AcDbArc
 50
270.0
 51
0.0
  0
LINE
  5
1ED
100
AcDbEntity
  8
ADF70-0603
370
              15
390
0
  6
Continuous
 62
               7
100
AcDbLine
 10
-439.64327997635286
 20
-853.61131175429603
 30
0.0
 11
-424.69272163744193
 21
-694.05258928078445
 31
0.0
  0
LINE
  5
1EE
100
AcDbEntity
  8
ADF70-0603
370
              15
390
0
  6
Continuous
 62
               7
100
AcDbLine
 10
-414.69272163744921
 20
91.950089615069146
 30
0.0
 11
-184.69272163744887
 21
91.950089615070851
 31
0.0
  0
ARC
  5
1EF
100
AcDbEntity
  8
ADF70-0603
370
              15
390
0
  6
Continuous
 62
               7
100
AcDbCircle
 10
-299.69272163744785
 20
-301.05124983285873
 30
0.0
 40
39.0
100
AcDbArc
 50
0.0000000000006821
 51
180.00000000000037
  0
ARC
  5
1F0
100
AcDbEntity
  8
ADF70-0603
370
              15
390
0
  6
Continuous
 62
               7
100
AcDbCircle
 10
-299.69272163744785
 20
-301.05124983285873
 30
0.0
 40
22.5
100
AcDbArc
 50
0.0000000000005684
 51
180.00000000000028
  0
LINE
  5
1F1
100
AcDbEntity
  8
ADF70-0603
370
              15
390
0
  6
Continuous
 62
               7
100
AcDbLine
 10
-434.69272163744967
 20
263.94875016714013
 30
0.0
 11
-164.69272163744978
 21
263.94875016714229
 31
0.0
  0
LINE
  5
1F2
100
AcDbEntity
  8
ADF70-0603
370
              15
390
0
  6
Continuous
 62
               7
100
AcDbLine
 10
-576.6927216374479
 20
298.948750167139
 30
0.0
 11
-122.69272163744989
 21
298.94875016714263
 31
0.0
  0
LINE
  5
1F3
100
AcDbEntity
  8
ADF70-0603
370
              15
390
0
  6
Continuous
 62
               7
100
AcDbLine
 10
-159.74216329853749
 20
251.50881208858254
 30
0.0
 11
-174.69272163744876
 21
91.950089615070851
 31
0.0
  0
LINE
  5
1F4
100
AcDbEntity
  8
ADF70-0603
370
              15
390
0
  6
Continuous
 62
               7
100
AcDbLine
 10
-119.69272163744478
 20
-301.05124983285714
 30
0.0
 11
-119.69272163744989
 21
295.94875016714263
 31
0.0
  0
LINE
  5
1F5
100
AcDbEntity
  8
ADF70-0603
370
              15
390
0
  6
Continuous
 62
               7
100
AcDbLine
 10
-154.69272163744478
 20
-301.05124983285737
 30
0.0
 11
-154.69272163744967
 21
253.94875016714241
 31
0.0
  0
ARC
  5
1F6
100
AcDbEntity
  8
ADF70-0603
370
              15
390
0
  6
Continuous
 62
               7
100
AcDbCircle
 10
-122.69272163744984
 20
295.94875016714252
 30
0.0
 40
3.0
100
AcDbArc
 50
0.0
 51
90.0
  0
ARC
  5
1F7
100
AcDbEntity
  8
ADF70-0603
370
              15
390
0
  6
Continuous
 62
               7
100
AcDbCircle
 10
-164.69272163744967
 20
253.94875016714229
 30
0.0
 40
10.0
100
AcDbArc
 50
0.0
 51
90.0
  0
LINE
  5
1F8
100
AcDbEntity
  8
ADF70-0603
370
              15
390
0
  6
Continuous
 62
               7
100
AcDbLine
 10
-174.69272163744512
 20
-301.05124983285759
 30
0.0
 11
-174.69272163744876
 21
81.950089615070965
 31
0.0
  0
ARC
  5
1F9
100
AcDbEntity
  8
ADF70-0603
370
              15
390
0
  6
Continuous
 62
               7
100
AcDbCircle
 10
-184.69272163744876
 20
81.950089615070851
 30
0.0
 40
10.0
100
AcDbArc
 50
0.0000000000006821
 51
90.000000000000696
  0
LINE
  5
1FA
100
AcDbEntity
  8
ADF70-0603
370
              15
390
0
  6
Continuous
 62
               7
100
AcDbLine
 10
-439.64327997635741
 20
251.50881208858141
 30
0.0
 11
-424.69272163744512
 21
91.950089615069828
 31
0.0
  0
LINE
  5
1FB
100
AcDbEntity
  8
ADF70-0603
370
              15
390
0
  6
Continuous
 62
               7
100
AcDbLine
 10
-444.69272163744466
 20
-301.05124983285975
 30
0.0
 11
-444.69272163744944
 21
253.94875016714002
 31
0.0
  0
LINE
  5
1FC
100
AcDbEntity
  8
ADF70-0603
370
              15
390
0
  6
Continuous
 62
               7
100
AcDbLine
 10
-579.6927216374479
 20
295.948750167139
 30
0.0
 11
-579.69272163744267
 21
-301.05124983286089
 31
0.0
  0
ARC
  5
1FD
100
AcDbEntity
  8
ADF70-0603
370
              15
390
0
  6
Continuous
 62
               7
100
AcDbCircle
 10
-434.69272163744944
 20
253.94875016714025
 30
0.0
 40
10.0
100
AcDbArc
 50
90.000000000001307
 51
180.00000000000063
  0
ARC
  5
1FE
100
AcDbEntity
  8
ADF70-0603
370
              15
390
0
  6
Continuous
 62
               7
100
AcDbCircle
 10
-576.6927216374479
 20
295.94875016713911
 30
0.0
 40
3.0
100
AcDbArc
 50
90.0
 51
180.0
  0
LINE
  5
1FF
100
AcDbEntity
  8
ADF70-0603
370
              15
390
0
  6
Continuous
 62
               7
100
AcDbLine
 10
-424.69272163744512
 20
-274.80124983285975
 30
0.0
 11
-424.69272163744898
 21
81.950089615069032
 31
0.0
  0
LINE
  5
200
100
AcDbEntity
  8
ADF70-0603
370
              15
390
0
  6
Continuous
 62
               7
100
AcDbLine
 10
-424.69272163744512
 20
-301.05124983285964
 30
0.0
 11
-424.69272163744898
 21
81.950089615069032
 31
0.0
  0
ARC
  5
201
100
AcDbEntity
  8
ADF70-0603
370
              15
390
0
  6
Continuous
 62
               7
100
AcDbCircle
 10
-414.69272163744898
 20
81.95008961506926
 30
0.0
 40
10.0
100
AcDbArc
 50
90.000000000001307
 51
180.00000000000063
  0
LINE
  5
202
100
AcDbEntity
  8
ADF70-0603
370
              15
390
0
  6
STYLE_12
 62
               7
100
AcDbLine
 10
689.8324263233776
 20
852.54016086624642
 30
0.0
 11
689.8324263233776
 21
806.5402008760135
 31
0.0
  0
LINE
  5
203
100
AcDbEntity
  8
ADF70-0603
370
              15
390
0
  6
STYLE_12
 62
               7
100
AcDbLine
 10
657.00328120786457
 20
852.54016086624665
 30
0.0
 11
657.02816423041736
 21
806.54020087601373
 31
0.0
  0
LINE
  5
204
100
AcDbEntity
  8
ADF70-0603
370
              15
390
0
  6
Continuous
 62
               7
100
AcDbLine
 10
694.848761264019
 20
1103.3881620580462
 30
0.0
 11
694.84876126401753
 21
653.38816205805313
 31
0.0
  0
LINE
  5
205
100
AcDbEntity
  8
ADF70-0603
370
              15
390
0
  6
STYLE_12
 62
               7
100
AcDbLine
 10
645.16054747661497
 20
873.58510953133009
 30
0.0
 11
645.16054747661451
 21
829.38816205805153
 31
0.0
  0
LINE
  5
206
100
AcDbEntity
  8
ADF70-0603
370
              15
390
0
  6
STYLE_12
 62
               7
100
AcDbLine
 10
645.16054747661451
 20
792.3964714354064
 30
0.0
 11
645.16054747661451
 21
829.38816205805153
 31
0.0
  0
LINE
  5
207
100
AcDbEntity
  8
ADF70-0603
370
              15
390
0
  6
STYLE_12
 62
               7
100
AcDbLine
 10
689.8324263233776
 20
852.54016086624642
 30
0.0
 11
657.00328120786457
 21
852.54016086624642
 31
0.0
  0
LINE
  5
208
100
AcDbEntity
  8
ADF70-0603
370
              15
390
0
  6
STYLE_12
 62
               7
100
AcDbLine
 10
539.42804080988503
 20
973.239337328494
 30
0.0
 11
570.24390050551392
 21
969.8653386960284
 31
0.0
  0
ARC
  5
209
100
AcDbEntity
  8
ADF70-0603
370
              15
390
0
  6
STYLE_12
 62
               7
100
AcDbCircle
 10
524.84876126401593
 20
979.8705972372079
 30
0.0
 40
5.0000000000001137
100
AcDbArc
 50
180.0
 51
263.75162944519144
  0
LINE
  5
20A
100
AcDbEntity
  8
ADF70-0603
370
              15
390
0
  6
STYLE_12
 62
               7
100
AcDbLine
 10
539.42804080988503
 20
973.239337328494
 30
0.0
 11
524.30456824072985
 21
974.90030006768029
 31
0.0
  0
LINE
  5
20B
100
AcDbEntity
  8
ADF70-0603
370
              15
390
0
  6
Continuous
 62
               7
100
AcDbLine
 10
522.84876126401673
 20
1108.3881620580462
 30
0.0
 11
689.84876126401923
 21
1108.3881620580462
 31
0.0
  0
ARC
  5
20C
100
AcDbEntity
  8
ADF70-0603
370
              15
390
0
  6
Continuous
 62
               7
100
AcDbCircle
 10
689.84876126401878
 20
1103.3881620580457
 30
0.0
 40
5.0000000000002274
100
AcDbArc
 50
0.0000000000051728
 51
90.0
  0
ARC
  5
20D
100
AcDbEntity
  8
ADF70-0603
370
              15
390
0
  6
Continuous
 62
               7
100
AcDbCircle
 10
522.8487612640165
 20
1105.3881620580466
 30
0.0
 40
3.0
100
AcDbArc
 50
90.0
 51
180.0
  0
LINE
  5
20E
100
AcDbEntity
  8
ADF70-0603
370
              15
390
0
  6
STYLE_12
 62
               7
100
AcDbLine
 10
614.69952512858458
 20
963.35371356982796
 30
0.0
 11
570.24390050551347
 21
969.86533869602886
 31
0.0
  0
ARC
  5
20F
100
AcDbEntity
  8
ADF70-0603
370
              15
390
0
  6
STYLE_12
 62
               7
100
AcDbCircle
 10
612.08631354689317
 20
938.49066618562165
 30
0.0
 40
24.99999999999951
100
AcDbArc
 50
6.4719391827520498
 51
83.999999999999645
  0
LINE
  5
210
100
AcDbEntity
  8
ADF70-0603
370
              15
390
0
  6
STYLE_12
 62
               7
100
AcDbLine
 10
644.81537065943689
 20
874.32602340174958
 30
0.0
 11
636.92699300197546
 21
941.30858105478046
 31
0.0
  0
ARC
  5
211
100
AcDbEntity
  8
ADF70-0603
370
              15
390
0
  6
STYLE_12
 62
               7
100
AcDbCircle
 10
645.8092606130358
 20
874.43639894311741
 30
0.0
 40
0.9999999999984979
100
AcDbArc
 50
186.33696432885256
 51
220.00000001868301
  0
LINE
  5
212
100
AcDbEntity
  8
ADF70-0603
370
              15
390
0
  6
STYLE_12
 62
               7
100
AcDbLine
 10
657.00328120786457
 20
852.54016086624665
 30
0.0
 11
645.04321617012806
 21
873.79361133318162
 31
0.0
  0
LINE
  5
213
100
AcDbEntity
  8
ADF70-0603
370
              15
390
0
  6
Continuous
 62
               7
100
AcDbLine
 10
694.8487612640165
 20
653.38816205805313
 30
0.0
 11
694.84876126401696
 21
651.38816205805335
 31
0.0
  0
LINE
  5
214
100
AcDbEntity
  8
ADF70-0603
370
              15
390
0
  6
STYLE_12
 62
               7
100
AcDbLine
 10
657.02817382931858
 20
806.52245588330459
 30
0.0
 11
689.8324263233776
 21
806.5402008760135
 31
0.0
  0
LINE
  5
215
100
AcDbEntity
  8
ADF70-0603
370
              15
390
0
  6
STYLE_12
 62
               7
100
AcDbLine
 10
645.04353773517573
 20
792.25719524497924
 30
0.0
 11
657.02817382931858
 21
806.52245588330459
 31
0.0
  0
ARC
  5
216
100
AcDbEntity
  8
ADF70-0603
370
              15
390
0
  6
STYLE_12
 62
               7
100
AcDbCircle
 10
645.80919456377637
 20
791.6139459769546
 30
0.0
 40
0.9999999999986043
100
AcDbArc
 50
139.96546183764497
 51
173.65818335788509
  0
LINE
  5
217
100
AcDbEntity
  8
ADF70-0603
370
              15
390
0
  6
STYLE_12
 62
               7
100
AcDbLine
 10
636.62532182203449
 20
703.25759511583544
 30
0.0
 11
644.81531396131845
 21
791.72440568931768
 31
0.0
  0
ARC
  5
218
100
AcDbEntity
  8
ADF70-0603
370
              15
390
0
  6
STYLE_12
 62
               7
100
AcDbCircle
 10
611.78464236695197
 20
706.64670411281884
 30
0.0
 40
25.000000000000384
100
AcDbArc
 50
275.99999999999983
 51
353.52806081724503
  0
LINE
  5
219
100
AcDbEntity
  8
ADF70-0603
370
              15
390
0
  6
STYLE_12
 62
               7
100
AcDbLine
 10
524.3261189476766
 20
672.01511850310169
 30
0.0
 11
614.39785394864316
 21
681.78365672861298
 31
0.0
  0
ARC
  5
21A
100
AcDbEntity
  8
ADF70-0603
370
              15
390
0
  6
STYLE_12
 62
               7
100
AcDbCircle
 10
524.84876126401502
 20
667.04250902626097
 30
0.0
 40
4.9999999999997922
100
AcDbArc
 50
95.999999999998735
 51
180.0
  0
LINE
  5
21B
100
AcDbEntity
  8
ADF70-0603
370
              15
390
0
  6
Continuous
 62
               7
100
AcDbLine
 10
519.84876126401491
 20
653.38816205805358
 30
0.0
 11
519.84876126401491
 21
1105.3881620580466
 31
0.0
  0
ARC
  5
21C
100
AcDbEntity
  8
ADF70-0603
370
              15
390
0
  6
Continuous
 62
               7
100
AcDbCircle
 10
524.8487612640148
 20
653.38816205805267
 30
0.0
 40
4.9999999999994316
100
AcDbArc
 50
179.99999999998957
 51
270.0
  0
LINE
  5
21D
100
AcDbEntity
  8
ADF70-0603
370
              15
390
0
  6
Continuous
 62
               7
100
AcDbLine
 10
691.8487612640165
 20
648.38816205805335
 30
0.0
 11
524.84876126401423
 21
648.38816205805335
 31
0.0
  0
ARC
  5
21E
100
AcDbEntity
  8
ADF70-0603
370
              15
390
0
  6
Continuous
 62
               7
100
AcDbCircle
 10
691.84876126401741
 20
651.38816205805335
 30
0.0
 40
3.0
100
AcDbArc
 50
269.9999999999913
 51
0.0
  0
LWPOLYLINE
  5
21F
100
AcDbEntity
  8
ADF70-0603
370
              15
390
0
  6
Continuous
 62
               7
100
AcDbPolyline
 90
        8
 70
             129
 10
524.84876126401628
 20
-899.94859894456488
 42
-0.414213562373095
 10
519.84876126401628
 20
-894.94859894456488
 10
519.84876126401628
 20
295.05140105543148
 42
-0.414213562373095
 10
524.84876126401628
 20
300.05140105543148
 10
689.84876126401878
 20
300.05140105543148
 42
-0.414213562373095
 10
694.84876126401878
 20
295.05140105543148
 10
694.84876126401878
 20
-894.94859894456488
 42
-0.414213562373095
 10
689.84876126401878
 20
-899.94859894456488
  0
LINE
  5
220
100
AcDbEntity
  8
ADF70-0603
370
              15
390
0
  6
STYLE_12
 62
               7
100
AcDbLine
 10
689.83242632337806
 20
-324.04857893968585
 30
0.0
 11
689.8324263233776
 21
-278.04861894945145
 31
0.0
  0
LINE
  5
221
100
AcDbEntity
  8
ADF70-0603
370
              15
390
0
  6
STYLE_12
 62
               7
100
AcDbLine
 10
657.00328120786503
 20
-324.04857893968608
 30
0.0
 11
657.02816423041736
 21
-278.04861894945168
 31
0.0
  0
LINE
  5
222
100
AcDbEntity
  8
ADF70-0603
370
              15
390
0
  6
STYLE_12
 62
               7
100
AcDbLine
 10
645.16054747661497
 20
-338.19230838029284
 30
0.0
 11
645.16054747661497
 21
-300.89658013149017
 31
0.0
  0
LINE
  5
223
100
AcDbEntity
  8
ADF70-0603
370
              15
390
0
  6
STYLE_12
 62
               7
100
AcDbLine
 10
645.16054747661451
 20
-263.90488950884389
 30
0.0
 11
645.16054747661497
 21
-300.89658013149017
 31
0.0
  0
LINE
  5
224
100
AcDbEntity
  8
ADF70-0603
370
              15
390
0
  6
STYLE_12
 62
               7
100
AcDbLine
 10
657.02817382931858
 20
-278.03087395674254
 30
0.0
 11
645.04353773517573
 21
-263.76561331841674
 31
0.0
  0
LINE
  5
225
100
AcDbEntity
  8
ADF70-0603
370
              15
390
0
  6
STYLE_12
 62
               7
100
AcDbLine
 10
689.8324263233776
 20
-278.04861894945145
 30
0.0
 11
657.02817382931858
 21
-278.03087395674254
 31
0.0
  0
LINE
  5
226
100
AcDbEntity
  8
ADF70-0603
370
              15
390
0
  6
STYLE_12
 62
               7
100
AcDbLine
 10
657.02817382931858
 20
-324.06632393239477
 30
0.0
 11
645.04353773517573
 21
-338.33158457072057
 31
0.0
  0
LINE
  5
227
100
AcDbEntity
  8
ADF70-0603
370
              15
390
0
  6
STYLE_12
 62
               7
100
AcDbLine
 10
689.8324263233776
 20
-324.04857893968585
 30
0.0
 11
657.02817382931858
 21
-324.06632393239477
 31
0.0
  0
LINE
  5
228
100
AcDbEntity
  8
ADF70-0603
370
              15
390
0
  6
STYLE_12
 62
               7
100
AcDbLine
 10
579.79999999999995
 20
-549.94859894456636
 30
0.0
 11
539.79999999999927
 21
-549.94859894456636
 31
0.0
  0
CIRCLE
  5
229
100
AcDbEntity
  8
ADF70-0603
370
              15
390
0
  6
STYLE_12
 62
               7
100
AcDbCircle
 10
-509.69853681603894
 20
-401.05124983285862
 30
0.0
 40
17.500000000000114
  0
CIRCLE
  5
22A
100
AcDbEntity
  8
ADF70-0603
370
              15
390
0
  6
STYLE_12
 62
               7
100
AcDbCircle
 10
-509.69853681603894
 20
-501.05124983285725
 30
0.0
 40
17.499999999999773
  0
CIRCLE
  5
22B
100
AcDbEntity
  8
ADF70-0603
370
              15
390
0
  6
STYLE_12
 62
               7
100
AcDbCircle
 10
-509.69853681603894
 20
-601.05124983285566
 30
0.0
 40
17.499999999999659
  0
CIRCLE
  5
22C
100
AcDbEntity
  8
ADF70-0603
370
              15
390
0
  6
STYLE_12
 62
               7
100
AcDbCircle
 10
-509.69853681604121
 20
-1.0512498328603499
 30
0.0
 40
17.5
  0
CIRCLE
  5
22D
100
AcDbEntity
  8
ADF70-0603
370
              15
390
0
  6
STYLE_12
 62
               7
100
AcDbCircle
 10
-509.69853681604053
 20
-101.05124983286035
 30
0.0
 40
17.5
  0
CIRCLE
  5
22E
100
AcDbEntity
  8
ADF70-0603
370
              15
390
0
  6
STYLE_12
 62
               7
100
AcDbCircle
 10
-509.69853681603962
 20
-201.05124983286018
 30
0.0
 40
17.5
  0
CIRCLE
  5
22F
100
AcDbEntity
  8
ADF70-0603
370
              15
390
0
  6
STYLE_12
 62
               7
100
AcDbCircle
 10
-509.69853681603894
 20
-301.0512498328585
 30
0.0
 40
17.5
  0
LINE
  5
230
100
AcDbEntity
  8
ADF70-0603
370
              15
390
0
  6
STYLE_12
 62
               7
100
AcDbLine
 10
523.41692090056472
 20
-871.98040383722184
 30
0.0
 11
629.68996905848508
 21
-782.71294899122597
 31
0.0
  0
LINE
  5
231
100
AcDbEntity
  8
ADF70-0603
370
              15
390
0
  6
STYLE_12
 62
               7
100
AcDbLine
 10
642.04353773517551
 20
-345.48869834215827
 30
0.0
 11
636.82476027550342
 21
-767.64594086414127
 31
0.0
  0
LINE
  5
232
100
AcDbEntity
  8
ADF70-0603
370
              15
390
0
  6
STYLE_12
 62
               7
100
AcDbLine
 10
645.16054747661497
 20
-338.19230838029284
 30
0.0
 11
644.63475179604598
 21
-338.77230861938642
 31
0.0
  0
ARC
  5
233
100
AcDbEntity
  8
ADF70-0603
370
              15
390
0
  6
STYLE_12
 62
               7
100
AcDbCircle
 10
652.04353773517551
 20
-345.48869834215827
 30
0.0
 40
9.9999999999998614
100
AcDbArc
 50
137.80631216212385
 51
180.00000000000063
  0
ARC
  5
234
100
AcDbEntity
  8
ADF70-0603
370
              15
390
0
  6
STYLE_12
 62
               7
100
AcDbCircle
 10
529.84876126401605
 20
-879.6375201050522
 30
0.0
 40
9.9999999999998508
100
AcDbArc
 50
130.02965690734305
 51
180.00000000000131
  0
ARC
  5
235
100
AcDbEntity
  8
ADF70-0603
370
              15
390
0
  6
STYLE_12
 62
               7
100
AcDbCircle
 10
616.82628833158174
 20
-767.39871645556457
 30
0.0
 40
20.000000000000078
100
AcDbArc
 50
310.02965690734129
 51
359.29173620192529
  0
LINE
  5
236
100
AcDbEntity
  8
ADF70-0603
370
              15
390
0
  6
STYLE_12
 62
               7
100
AcDbLine
 10
523.41692090056472
 20
269.80309133468688
 30
0.0
 11
629.68996905848508
 21
180.53563648869101
 31
0.0
  0
LINE
  5
237
100
AcDbEntity
  8
ADF70-0603
370
              15
390
0
  6
STYLE_12
 62
               7
100
AcDbLine
 10
642.04353773517551
 20
-256.68861416038067
 30
0.0
 11
636.82476027550342
 21
165.46862836160619
 31
0.0
  0
ARC
  5
238
100
AcDbEntity
  8
ADF70-0603
370
              15
390
0
  6
STYLE_12
 62
               7
100
AcDbCircle
 10
652.04353773517573
 20
-256.68861416038101
 30
0.0
 40
10.000000000000227
100
AcDbArc
 50
179.99999999999869
 51
222.19368783787527
  0
ARC
  5
239
100
AcDbEntity
  8
ADF70-0603
370
              15
390
0
  6
STYLE_01
 62
               7
100
AcDbCircle
 10
529.84876126401628
 20
277.46020760251713
 30
0.0
 40
10.0
100
AcDbArc
 50
179.99999999999869
 51
229.97034309265783
  0
ARC
  5
23A
100
AcDbEntity
  8
ADF70-0603
370
              15
390
0
  6
STYLE_12
 62
               7
100
AcDbCircle
 10
616.82628833158185
 20
165.22140395302949
 30
0.0
 40
20.000000000000355
100
AcDbArc
 50
0.708263798074383
 51
49.970343092657714
  0
LINE
  5
23B
100
AcDbEntity
  8
ADF70-0603
370
              15
390
0
  6
STYLE_12
 62
               7
100
AcDbLine
 10
559.84876126401628
 20
-529.94859894456613
 30
0.0
 11
559.84876126401628
 21
-569.9485989445667
 31
0.0
  0
CIRCLE
  5
23C
100
AcDbEntity
  8
ADF70-0603
370
              15
390
0
  6
STYLE_12
 62
               7
100
AcDbCircle
 10
559.79999999999973
 20
-549.94859894456636
 30
0.0
 40
10.0
  0
LINE
  5
23D
100
AcDbEntity
  8
ADF70-0603
370
              15
390
0
  6
STYLE_12
 62
               7
100
AcDbLine
 10
579.79999999999995
 20
-439.94859894456636
 30
0.0
 11
539.79999999999927
 21
-439.94859894456636
 31
0.0
  0
LINE
  5
23E
100
AcDbEntity
  8
ADF70-0603
370
              15
390
0
  6
STYLE_12
 62
               7
100
AcDbLine
 10
559.84876126401628
 20
-419.94859894456613
 30
0.0
 11
559.84876126401628
 21
-459.9485989445667
 31
0.0
  0
CIRCLE
  5
23F
100
AcDbEntity
  8
ADF70-0603
370
              15
390
0
  6
STYLE_12
 62
               7
100
AcDbCircle
 10
559.79999999999973
 20
-439.94859894456636
 30
0.0
 40
10.0
  0
LINE
  5
240
100
AcDbEntity
  8
ADF70-0603
370
              15
390
0
  6
STYLE_12
 62
               7
100
AcDbLine
 10
579.79999999999995
 20
-159.94859894456638
 30
0.0
 11
539.79999999999927
 21
-159.94859894456638
 31
0.0
  0
LINE
  5
241
100
AcDbEntity
  8
ADF70-0603
370
              15
390
0
  6
STYLE_12
 62
               7
100
AcDbLine
 10
559.84876126401628
 20
-139.94859894456616
 30
0.0
 11
559.84876126401628
 21
-179.94859894456673
 31
0.0
  0
CIRCLE
  5
242
100
AcDbEntity
  8
ADF70-0603
370
              15
390
0
  6
STYLE_12
 62
               7
100
AcDbCircle
 10
559.79999999999973
 20
-159.94859894456638
 30
0.0
 40
10.0
  0
LINE
  5
243
100
AcDbEntity
  8
ADF70-0603
370
              15
390
0
  6
STYLE_12
 62
               7
100
AcDbLine
 10
579.79999999999995
 20
-49.948598944566385
 30
0.0
 11
539.79999999999927
 21
-49.948598944566385
 31
0.0
  0
LINE
  5
244
100
AcDbEntity
  8
ADF70-0603
370
              15
390
0
  6
STYLE_12
 62
               7
100
AcDbLine
 10
559.84876126401628
 20
-29.948598944566157
 30
0.0
 11
559.84876126401628
 21
-69.948598944566726
 31
0.0
  0
CIRCLE
  5
245
100
AcDbEntity
  8
ADF70-0603
370
              15
390
0
  6
STYLE_12
 62
               7
100
AcDbCircle
 10
559.79999999999973
 20
-49.948598944566385
 30
0.0
 40
10.0
  0
LINE
  5
246
100
AcDbEntity
  8
ADF70-0603
370
              15
390
0
  6
Continuous
 62
               7
100
AcDbLine
 10
519.84876126401673
 20
1055.8412406010782
 30
0.0
 11
534.84876126401673
 21
1055.8412406010782
 31
0.0
  0
LINE
  5
247
100
AcDbEntity
  8
ADF70-0603
370
              15
390
0
  6
Continuous
 62
               7
100
AcDbLine
 10
534.84876126401628
 20
1020.8412406010787
 30
0.0
 11
519.84876126401628
 21
1020.8412406010787
 31
0.0
  0
ENDSEC
  0
SECTION
  2
OBJECTS
  0
DICTIONARY
  5
19
100
AcDbDictionary
280
               0
281
               1
  3
ACAD_GROUP
350
1A
  3
ACAD_MLINESTYLE
350
1B
  3
ACAD_LAYOUT
350
1E
  3
ACAD_PLOTSETTINGS
350
22
  3
ACAD_PLOTSTYLENAME
350
1F
  0
DICTIONARY
  5
1A
102
{ACAD_REACTORS
330
19
102
}
100
AcDbDictionary
280
               0
281
               1
  0
DICTIONARY
  5
1B
102
{ACAD_REACTORS
330
19
102
}
100
AcDbDictionary
280
               0
281
               1
  3
Standard
350
1C
  0
MLINESTYLE
  5
1C
102
{ACAD_REACTORS
330
1B
102
}
100
AcDbMlineStyle
  2
Standard
 70
               0
  3

 62
               0
 51
90.0
 52
90.0
 71
               2
 49
0.5
 62
             256
  6
ByLayer
 49
-0.5
 62
             256
  6
ByLayer
  0
ACDBDICTIONARYWDFLT
  5
1F
102
{ACAD_REACTORS
330
19
102
}
100
AcDbDictionary
281
               1
  3
Normal
350
1D
100
AcDbDictionaryWithDefault
340
1D
  0
ACDBPLACEHOLDER
  5
1D
102
{ACAD_REACTORS
330
1F
102
}
  0
LAYOUT
  5
20
102
{ACAD_REACTORS
330
1E
102
}
100
AcDbPlotSettings
  1

  2

  4

  6

 40
0.0
 41
0.0
 42
0.0
 43
0.0
 44
0.0
 45
0.0
 46
0.0
 47
0.0
 48
0.0
 49
0.0
140
0.0
141
0.0
142
1.0
143
1.0
 70
            1024
 72
               0
 73
               0
 74
               0
  7

 75
               0
147
1.0
148
0.0
149
0.0
100
AcDbLayout
  1
Model
 70
               0
 71
               0
 10
0.0
 20
0.0
 11
0.0
 21
0.0
 12
0.0
 22
0.0
 32
0.0
 14
0.0
 24
0.0
 34
0.0
 15
0.0
 25
0.0
 35
0.0
146
0.0
 13
0.0
 23
0.0
 33
0.0
 16
0.0
 26
0.0
 36
0.0
 17
0.0
 27
0.0
 37
0.0
 76
               0
330
A
331
0
345
0
346
0
  0
LAYOUT
  5
21
102
{ACAD_REACTORS
330
1E
102
}
100
AcDbPlotSettings
  1

  2

  4

  6

 40
0.0
 41
0.0
 42
0.0
 43
0.0
 44
0.0
 45
0.0
 46
0.0
 47
0.0
 48
0.0
 49
0.0
140
0.0
141
0.0
142
1.0
143
1.0
 70
               0
 72
               0
 73
               0
 74
               0
  7

 75
               0
147
1.0
148
0.0
149
0.0
100
AcDbLayout
  1
Layout1
 70
               0
 71
               0
 10
0.0
 20
0.0
 11
0.0
 21
0.0
 12
0.0
 22
0.0
 32
0.0
 14
0.0
 24
0.0
 34
0.0
 15
0.0
 25
0.0
 35
0.0
146
0.0
 13
0.0
 23
0.0
 33
0.0
 16
0.0
 26
0.0
 36
0.0
 17
0.0
 27
0.0
 37
0.0
 76
               0
330
B
331
0
345
0
346
0
  0
DICTIONARY
  5
1E
102
{ACAD_REACTORS
330
19
102
}
100
AcDbDictionary
280
               0
281
               1
  3
Layout1
350
21
  3
Model
350
20
  0
DICTIONARY
  5
22
102
{ACAD_REACTORS
330
19
102
}
100
AcDbDictionary
280
               0
281
               1
  0
ENDSEC
  0
EOF
