  0
SECTION
  2
HEADER
  9
$ACADVER
  1
AC1015
  9
$ACADMAINTVER
 70
               6
  9
$DWGCODEPAGE
  3
ANSI_932
  9
$INSBASE
 10
0.0
 20
0.0
 30
0.0
  9
$EXTMIN
 10
-975.00000000024193
 20
-1431.5255224711136
 30
-14.834305555555556
  9
$EXTMAX
 10
975.00000000024193
 20
1405.9972926412993
 30
14.834305555555556
  9
$LIMMIN
 10
0.0
 20
0.0
  9
$LIMMAX
 10
0.0
 20
0.0
  9
$ORTHOMODE
 70
               0
  9
$REGENMODE
 70
               1
  9
$FILLMODE
 70
               1
  9
$QTEXTMODE
 70
               0
  9
$MIRRTEXT
 70
               1
  9
$LTSCALE
 40
50.799999999999997
  9
$ATTMODE
 70
               1
  9
$TEXTSIZE
 40
0.2
  9
$TRACEWID
 40
1.0
  9
$TEXTSTYLE
  7
Standard
  9
$CLAYER
  8
template
  9
$CELTYPE
  6
Continuous
  9
$CECOLOR
 62
             256
  9
$CELTSCALE
 40
1.0
  9
$DISPSILH
 70
               0
  9
$DIMSCALE
 40
1.0
  9
$DIMASZ
 40
31.75
  9
$DIMEXO
 40
0.0
  9
$DIMDLI
 40
6.9999999999999396
  9
$DIMRND
 40
0.0
  9
$DIMDLE
 40
0.0
  9
$DIMEXE
 40
19.999999999996199
  9
$DIMTP
 40
0.0
  9
$DIMTM
 40
0.0
  9
$DIMTXT
 40
24.432617187500004
  9
$DIMCEN
 40
0.0
  9
$DIMTSZ
 40
0.0
  9
$DIMTOL
 70
               0
  9
$DIMLIM
 70
               0
  9
$DIMTIH
 70
               0
  9
$DIMTOH
 70
               0
  9
$DIMSE1
 70
               0
  9
$DIMSE2
 70
               0
  9
$DIMTAD
 70
               1
  9
$DIMZIN
 70
              11
  9
$DIMBLK
  1
VW_FILLEDARROW
  9
$DIMASO
 70
               1
  9
$DIMSHO
 70
               1
  9
$DIMPOST
  1
<>
  9
$DIMAPOST
  1
[]
  9
$DIMALT
 70
               0
  9
$DIMALTD
 70
               1
  9
$DIMALTF
 40
1.0
  9
$DIMLFAC
 40
1.0
  9
$DIMTOFL
 70
               0
  9
$DIMTVP
 40
0.0
  9
$DIMTIX
 70
               1
  9
$DIMSOXD
 70
               0
  9
$DIMSAH
 70
               0
  9
$DIMBLK1
  1

  9
$DIMBLK2
  1

  9
$DIMSTYLE
  2
JIS
  9
$DIMCLRD
 70
               0
  9
$DIMCLRE
 70
               0
  9
$DIMCLRT
 70
               0
  9
$DIMTFAC
 40
1.0
  9
$DIMGAP
 40
1.00000000000108
  9
$DIMJUST
 70
               0
  9
$DIMSD1
 70
               0
  9
$DIMSD2
 70
               0
  9
$DIMTOLJ
 70
               1
  9
$DIMTZIN
 70
              11
  9
$DIMALTZ
 70
              11
  9
$DIMALTTZ
 70
              11
  9
$DIMUPT
 70
               0
  9
$DIMDEC
 70
               1
  9
$DIMTDEC
 70
               1
  9
$DIMALTU
 70
               2
  9
$DIMALTTD
 70
               2
  9
$DIMTXSTY
  7
ＭＳ ゴシック
  9
$DIMAUNIT
 70
               0
  9
$DIMADEC
 70
               2
  9
$DIMALTRND
 40
0.0
  9
$DIMAZIN
 70
               0
  9
$DIMDSEP
 70
              46
  9
$DIMATFIT
 70
               0
  9
$DIMFRAC
 70
               2
  9
$DIMLDRBLK
  1

  9
$DIMLUNIT
 70
               2
  9
$DIMLWD
 70
              -2
  9
$DIMLWE
 70
              -2
  9
$DIMTMOVE
 70
               0
  9
$LUNITS
 70
               2
  9
$LUPREC
 70
               4
  9
$SKETCHINC
 40
0.1
  9
$FILLETRAD
 40
0.0
  9
$AUNITS
 70
               0
  9
$AUPREC
 70
               0
  9
$MENU
  1
acad
  9
$ELEVATION
 40
0.0
  9
$PELEVATION
 40
0.0
  9
$THICKNESS
 40
0.0
  9
$LIMCHECK
 70
               0
  9
$CHAMFERA
 40
0.0
  9
$CHAMFERB
 40
0.0
  9
$CHAMFERC
 40
0.0
  9
$CHAMFERD
 40
0.0
  9
$SKPOLY
 70
               0
  9
$TDCREATE
 40
2455995.614432870
  9
$TDUCREATE
 40
0.000000000
  9
$TDUPDATE
 40
2455995.614432870
  9
$TDUUPDATE
 40
0.000000000
  9
$TDINDWG
 40
0.0000000000
  9
$TDUSRTIMER
 40
0.0000000000
  9
$USRTIMER
 70
               1
  9
$ANGBASE
 50
0.0
  9
$ANGDIR
 70
               0
  9
$PDMODE
 70
               1
  9
$PDSIZE
 40
-2.0
  9
$PLINEWID
 40
0.0
  9
$SPLFRAME
 70
               0
  9
$SPLINETYPE
 70
               6
  9
$SPLINESEGS
 70
               8
  9
$HANDSEED
  5
1C1
  9
$SURFTAB1
 70
               6
  9
$SURFTAB2
 70
               6
  9
$SURFTYPE
 70
               6
  9
$SURFU
 70
               6
  9
$SURFV
 70
               6
  9
$UCSBASE
  2

  9
$UCSNAME
  2

  9
$UCSORG
 10
0.0
 20
0.0
 30
0.0
  9
$UCSXDIR
 10
1.0
 20
0.0
 30
0.0
  9
$UCSYDIR
 10
0.0
 20
1.0
 30
0.0
  9
$UCSORTHOREF
  2

  9
$UCSORTHOVIEW
 70
               0
  9
$UCSORGTOP
 10
0.0
 20
0.0
 30
0.0
  9
$UCSORGBOTTOM
 10
0.0
 20
0.0
 30
0.0
  9
$UCSORGLEFT
 10
0.0
 20
0.0
 30
0.0
  9
$UCSORGRIGHT
 10
0.0
 20
0.0
 30
0.0
  9
$UCSORGFRONT
 10
0.0
 20
0.0
 30
0.0
  9
$UCSORGBACK
 10
0.0
 20
0.0
 30
0.0
  9
$PUCSBASE
  2

  9
$PUCSNAME
  2

  9
$PUCSORG
 10
0.0
 20
0.0
 30
0.0
  9
$PUCSXDIR
 10
1.0
 20
0.0
 30
0.0
  9
$PUCSYDIR
 10
0.0
 20
1.0
 30
0.0
  9
$PUCSORTHOREF
  2

  9
$PUCSORTHOVIEW
 70
               0
  9
$PUCSORGTOP
 10
0.0
 20
0.0
 30
0.0
  9
$PUCSORGBOTTOM
 10
0.0
 20
0.0
 30
0.0
  9
$PUCSORGLEFT
 10
0.0
 20
0.0
 30
0.0
  9
$PUCSORGRIGHT
 10
0.0
 20
0.0
 30
0.0
  9
$PUCSORGFRONT
 10
0.0
 20
0.0
 30
0.0
  9
$PUCSORGBACK
 10
0.0
 20
0.0
 30
0.0
  9
$USERI1
 70
               0
  9
$USERI2
 70
               0
  9
$USERI3
 70
               0
  9
$USERI4
 70
               0
  9
$USERI5
 70
               0
  9
$USERR1
 40
0.0
  9
$USERR2
 40
0.0
  9
$USERR3
 40
0.0
  9
$USERR4
 40
0.0
  9
$USERR5
 40
0.0
  9
$WORLDVIEW
 70
               1
  9
$SHADEDGE
 70
               3
  9
$SHADEDIF
 70
              70
  9
$TILEMODE
 70
               1
  9
$MAXACTVP
 70
              64
  9
$PINSBASE
 10
0.0
 20
0.0
 30
0.0
  9
$PLIMCHECK
 70
               0
  9
$PEXTMIN
 10
1.0000000000000000E+20
 20
1.0000000000000000E+20
 30
1.0000000000000000E+20
  9
$PEXTMAX
 10
-1.0000000000000000E+20
 20
-1.0000000000000000E+20
 30
-1.0000000000000000E+20
  9
$PLIMMIN
 10
0.0
 20
0.0
  9
$PLIMMAX
 10
12.0
 20
9.0
  9
$UNITMODE
 70
               0
  9
$VISRETAIN
 70
               0
  9
$PLINEGEN
 70
               1
  9
$PSLTSCALE
 70
               0
  9
$TREEDEPTH
 70
            3020
  9
$CMLSTYLE
  2
Standard
  9
$CMLJUST
 70
               0
  9
$CMLSCALE
 40
1.0
  9
$PROXYGRAPHICS
 70
               0
  9
$MEASUREMENT
 70
               1
  9
$CELWEIGHT
370
               0
  9
$ENDCAPS
280
               0
  9
$JOINSTYLE
280
               0
  9
$LWDISPLAY
290
               1
  9
$INSUNITS
 70
               4
  9
$HYPERLINKBASE
  1

  9
$STYLESHEET
  1

  9
$XEDIT
290
               1
  9
$CEPSNTYPE
380
               0
  9
$PSTYLEMODE
290
               1
  9
$FINGERPRINTGUID
  2

  9
$VERSIONGUID
  2

  9
$EXTNAMES
290
               1
  9
$PSVPSCALE
 40
0.0
  0
ENDSEC
  0
SECTION
  2
CLASSES
  0
CLASS
  1
LWPOLYLINE
  2
AcDbPolyline
  3
AutoCAD 2000
 90
        0
280
               0
281
               1
  0
CLASS
  1
IMAGE
  2
AcDbRasterImage
  3
ISM
 90
      127
280
               0
281
               1
  0
CLASS
  1
OLE2FRAME
  2
AcDbOle2Frame
  3
AutoCAD 2000
 90
        0
280
               0
281
               1
  0
CLASS
  1
HATCH
  2
AcDbHatch
  3
AutoCAD 2000
 90
        0
280
               0
281
               1
  0
CLASS
  1
DICTIONARYVAR
  2
AcDbDictionaryVar
  3
AutoCAD 2000
 90
        0
280
               0
281
               0
  0
CLASS
  1
RASTERVARIABLES
  2
AcDbRasterVariables
  3
ISM
 90
        0
280
               0
281
               0
  0
CLASS
  1
IMAGEDEF
  2
AcDbRasterImageDef
  3
ISM
 90
        0
280
               0
281
               0
  0
CLASS
  1
IMAGEDEF_REACTOR
  2
AcDbRasterImageDefReactor
  3
ISM
 90
        1
280
               0
281
               0
  0
CLASS
  1
IDBUFFER
  2
AcDbIdBuffer
  3
AutoCAD 2000
 90
        0
280
               0
281
               0
  0
CLASS
  1
SPATIAL_FILTER
  2
AcDbSpatialFilter
  3
AutoCAD 2000
 90
        0
280
               0
281
               0
  0
CLASS
  1
XRECORD
  2
AcDbXrecord
  3
AutoCAD 2000
 90
        0
280
               0
281
               0
  0
CLASS
  1
SORTENTSTABLE
  2
AcDbSortentsTable
  3
AutoCAD 2000
 90
        0
280
               0
281
               0
  0
CLASS
  1
LAYER_INDEX
  2
AcDbLayerIndex
  3
AutoCAD 2000
 90
        0
280
               0
281
               0
  0
CLASS
  1
SPATIAL_INDEX
  2
AcDbSpatialIndex
  3
AutoCAD 2000
 90
        0
280
               0
281
               0
  0
CLASS
  1
OBJECT_PTR
  2
CAseDLPNTableRecord
  3
"ASE-LPNTableRecord"
 90
        1
280
               0
281
               0
  0
CLASS
  1
LAYOUT
  2
AcDbLayout
  3
AutoCAD 2000
 90
        0
280
               0
281
               0
  0
CLASS
  1
PLOTSETTINGS
  2
AcDbPlotSettings
  3
AutoCAD 2000
 90
        0
280
               0
281
               0
  0
CLASS
  1
ACDBDICTIONARYWDFLT
  2
AcDbDictionaryWithDefault
  3
AutoCAD 2000
 90
        0
280
               0
281
               0
  0
CLASS
  1
ACDBPLACEHOLDER
  2
AcDbPlaceHolder
  3
AutoCAD 2000
 90
        0
280
               0
281
               0
  0
ENDSEC
  0
SECTION
  2
TABLES
  0
TABLE
  2
VPORT
  5
7
100
AcDbSymbolTable
 70
               1
  0
VPORT
  5
15
100
AcDbSymbolTableRecord
100
AcDbViewportTableRecord
  2
*ACTIVE
 70
               0
 10
0.0
 20
0.0
 11
1.0
 21
1.0
 12
0.0
 22
-12.764114914907168
 13
0.0
 23
0.0
 14
1.0
 24
1.0
 15
0.0
 25
0.0
 16
0.0
 26
0.0
 36
1.0
 17
0.0
 27
0.0
 37
0.0
 40
2837.5228151124129
 41
0.688564
 42
50.0
 43
0.0
 44
0.0
 50
0.0
 51
0.0
 71
               0
 72
            2000
 73
               1
 74
               1
 75
               0
 76
               0
 77
               0
 78
               0
281
               0
 65
               0
110
0.0
120
0.0
130
0.0
111
1.0
121
0.0
131
0.0
112
0.0
122
1.0
132
0.0
345
0
346
0
 79
               0
146
0.0
  0
ENDTAB
  0
TABLE
  2
LTYPE
  5
4
100
AcDbSymbolTable
 70
              15
  0
LTYPE
  5
11
100
AcDbSymbolTableRecord
100
AcDbLinetypeTableRecord
  2
ByBlock
 70
              64
  3

 72
              65
 73
               0
 40
0.0
  0
LTYPE
  5
12
100
AcDbSymbolTableRecord
100
AcDbLinetypeTableRecord
  2
ByLayer
 70
              64
  3

 72
              65
 73
               0
 40
0.0
  0
LTYPE
  5
13
100
AcDbSymbolTableRecord
100
AcDbLinetypeTableRecord
  2
Continuous
 70
              64
  3
Solid line
 72
              65
 73
               0
 40
0.0
  0
LTYPE
  5
35
100
AcDbSymbolTableRecord
100
AcDbLinetypeTableRecord
  2
STYLE_01
 70
               0
  3

 72
              65
 73
               2
 40
0.41664
 49
0.20828
 74
               0
 49
-0.20836
 74
               0
  0
LTYPE
  5
36
100
AcDbSymbolTableRecord
100
AcDbLinetypeTableRecord
  2
STYLE_02
 70
               0
  3

 72
              65
 73
               2
 40
0.6944250000000001
 49
0.48607
 74
               0
 49
-0.2083550000000001
 74
               0
  0
LTYPE
  5
37
100
AcDbSymbolTableRecord
100
AcDbLinetypeTableRecord
  2
STYLE_03
 70
               0
  3

 72
              65
 73
               2
 40
1.25
 49
1.0416400000000001
 74
               0
 49
-0.2083599999999999
 74
               0
  0
LTYPE
  5
38
100
AcDbSymbolTableRecord
100
AcDbLinetypeTableRecord
  2
STYLE_04
 70
               0
  3

 72
              65
 73
               2
 40
1.5277099999999999
 49
1.3194249999999998
 74
               0
 49
-0.208285
 74
               0
  0
LTYPE
  5
39
100
AcDbSymbolTableRecord
100
AcDbLinetypeTableRecord
  2
STYLE_05
 70
               0
  3

 72
              65
 73
               2
 40
0.20828
 49
0.069425
 74
               0
 49
-0.138855
 74
               0
  0
LTYPE
  5
3A
100
AcDbSymbolTableRecord
100
AcDbLinetypeTableRecord
  2
STYLE_06
 70
               0
  3

 72
              65
 73
               4
 40
1.0416400000000001
 49
0.625
 74
               0
 49
-0.20828
 74
               0
 49
0.06943
 74
               0
 49
-0.13893
 74
               0
  0
LTYPE
  5
3B
100
AcDbSymbolTableRecord
100
AcDbLinetypeTableRecord
  2
STYLE_07
 70
               0
  3

 72
              65
 73
               6
 40
1.875
 49
0.625
 74
               0
 49
-0.20828
 74
               0
 49
0.6250000000000001
 74
               0
 49
-0.2083599999999999
 74
               0
 49
0.06943
 74
               0
 49
-0.1389299999999999
 74
               0
  0
LTYPE
  5
3C
100
AcDbSymbolTableRecord
100
AcDbLinetypeTableRecord
  2
STYLE_08
 70
               0
  3

 72
              65
 73
               6
 40
1.25
 49
0.625
 74
               0
 49
-0.20828
 74
               0
 49
0.06943
 74
               0
 49
-0.13893
 74
               0
 49
0.0694299999999999
 74
               0
 49
-0.13893
 74
               0
  0
LTYPE
  5
3D
100
AcDbSymbolTableRecord
100
AcDbLinetypeTableRecord
  2
STYLE_09
 70
               0
  3

 72
              65
 73
               4
 40
5.0
 49
3.75
 74
               0
 49
-0.2777849999999998
 74
               0
 49
0.6944300000000003
 74
               0
 49
-0.2777849999999998
 74
               0
  0
LTYPE
  5
3E
100
AcDbSymbolTableRecord
100
AcDbLinetypeTableRecord
  2
STYLE_10
 70
               0
  3

 72
              65
 73
               6
 40
5.9375
 49
3.75
 74
               0
 49
-0.2777849999999998
 74
               0
 49
0.6944300000000003
 74
               0
 49
-0.2777849999999998
 74
               0
 49
0.625
 74
               0
 49
-0.3125
 74
               0
  0
LTYPE
  5
3F
100
AcDbSymbolTableRecord
100
AcDbLinetypeTableRecord
  2
STYLE_11
 70
               0
  3

 72
              65
 73
               2
 40
0.0694444881889764
 49
0.0347222440944882
 74
               0
 49
-0.0347222440944882
 74
               0
  0
LTYPE
  5
40
100
AcDbSymbolTableRecord
100
AcDbLinetypeTableRecord
  2
STYLE_12
 70
               0
  3

 72
              65
 73
               2
 40
0.3937007874015748
 49
0.1968503937007874
 74
               0
 49
-0.1968503937007874
 74
               0
  0
ENDTAB
  0
TABLE
  2
LAYER
  5
2
100
AcDbSymbolTable
 70
               5
  0
LAYER
  5
14
100
AcDbSymbolTableRecord
100
AcDbLayerTableRecord
  2
0
 70
               0
 62
               7
  6
Continuous
290
               1
370
              -3
390
1D
  0
LAYER
  5
41
100
AcDbSymbolTableRecord
100
AcDbLayerTableRecord
  2
Defpoints
 70
               0
 62
               7
  6
Continuous
290
               0
370
              -3
390
1D
  0
LAYER
  5
42
100
AcDbSymbolTableRecord
100
AcDbLayerTableRecord
  2
template
 70
               0
 62
               7
  6
Continuous
290
               1
370
              -3
390
1D
  0
LAYER
  5
43
100
AcDbSymbolTableRecord
100
AcDbLayerTableRecord
  2
notes
 70
               0
 62
               7
  6
Continuous
290
               1
370
              -3
390
1D
  0
LAYER
  5
44
100
AcDbSymbolTableRecord
100
AcDbLayerTableRecord
  2
ADF70-0605
 70
               0
 62
               7
  6
Continuous
290
               1
370
              -3
390
1D
  0
ENDTAB
  0
TABLE
  2
STYLE
  5
3
100
AcDbSymbolTable
 70
               2
  0
STYLE
  5
17
100
AcDbSymbolTableRecord
100
AcDbTextStyleTableRecord
  2
Standard
 70
               0
 40
0.0
 41
1.0
 50
0.0
 71
               0
 42
0.0
  3
txt
  4
BIGFONT.SHX
  0
STYLE
  5
34
100
AcDbSymbolTableRecord
100
AcDbTextStyleTableRecord
  2
ＭＳ ゴシック
 70
               0
 40
0.0
 41
1.0
 50
0.0
 71
               0
 42
0.0
  3

  4
ＭＳ ゴシック
1001
ACAD
1000
ＭＳ ゴシック
1071
        0
  0
ENDTAB
  0
TABLE
  2
VIEW
  5
5
100
AcDbSymbolTable
 70
               0
  0
ENDTAB
  0
TABLE
  2
UCS
  5
6
100
AcDbSymbolTable
 70
               0
  0
ENDTAB
  0
TABLE
  2
APPID
  5
8
100
AcDbSymbolTable
 70
               1
  0
APPID
  5
16
100
AcDbSymbolTableRecord
100
AcDbRegAppTableRecord
  2
ACAD
 70
               0
  0
ENDTAB
  0
TABLE
  2
DIMSTYLE
  5
9
100
AcDbSymbolTable
 70
               3
100
AcDbDimStyleTable
 71
               0
  0
DIMSTYLE
105
18
100
AcDbSymbolTableRecord
100
AcDbDimStyleTableRecord
  2
Standard
 70
               0
  3

  4

 40
1.0
 41
0.18
 42
0.0625
 43
0.38
 44
0.18
 45
0.0
 46
0.0
 47
0.0
 48
0.0
 71
               0
 72
               0
 73
               1
 74
               1
 75
               0
 76
               0
 77
               0
 78
               0
 79
               0
140
0.18
141
0.09
142
0.0
143
25.399999999999999
144
1.0
145
0.0
146
1.0
147
0.09
148
0.0
170
               0
171
               2
172
               0
173
               0
174
               0
175
               0
176
               0
177
               0
178
               0
179
               0
271
               4
272
               4
273
               2
274
               2
275
               0
276
               0
277
               2
278
              46
279
               0
280
               0
281
               0
282
               0
283
               1
284
               0
285
               0
286
               0
288
               0
289
               3
340
17
341
0
342
0
343
0
344
0
371
              -2
372
              -2
  0
DIMSTYLE
105
4D
100
AcDbSymbolTableRecord
100
AcDbDimStyleTableRecord
  2
tform線あり
 70
               0
  3
<>
  4
[]
 40
1.0
 41
3.999755859375
 42
24.999999999999996
 43
0.9999999999999999
 44
0.0
 45
0.0
 46
0.0
 47
0.0
 48
0.0
 71
               0
 72
               0
 73
               0
 74
               0
 75
               0
 76
               0
 77
               1
 78
              11
 79
               0
140
24.432617187500004
141
0.0
142
0.0
143
1.0
144
1.0
145
0.0
146
1.0
147
0.4999999999999999
148
0.0
170
               0
171
               1
172
               0
173
               0
174
               1
175
               0
176
               0
177
               0
178
               0
179
               2
271
               1
272
               1
273
               2
274
               2
275
               0
276
               2
277
               2
278
              46
279
               0
280
               0
281
               0
282
               0
283
               1
284
              11
285
              11
286
              11
288
               0
289
               0
340
34
341
45
342
45
343
0
344
0
371
              -2
372
              -2
  0
DIMSTYLE
105
52
100
AcDbSymbolTableRecord
100
AcDbDimStyleTableRecord
  2
JIS
 70
               0
  3
<>
  4
[]
 40
1.0
 41
31.75
 42
0.0
 43
6.9999999999999396
 44
19.999999999996199
 45
0.0
 46
0.0
 47
0.0
 48
0.0
 71
               0
 72
               0
 73
               0
 74
               0
 75
               0
 76
               0
 77
               1
 78
              11
 79
               0
140
24.432617187500004
141
0.0
142
0.0
143
1.0
144
1.0
145
0.0
146
1.0
147
1.00000000000108
148
0.0
170
               0
171
               1
172
               0
173
               0
174
               1
175
               0
176
               0
177
               0
178
               0
179
               2
271
               1
272
               1
273
               2
274
               2
275
               0
276
               2
277
               2
278
              46
279
               0
280
               0
281
               0
282
               0
283
               1
284
              11
285
              11
286
              11
288
               0
289
               0
340
34
341
4E
342
4E
343
0
344
0
371
              -2
372
              -2
  0
ENDTAB
  0
TABLE
  2
BLOCK_RECORD
  5
1
100
AcDbSymbolTable
 70
              19
  0
BLOCK_RECORD
  5
A
100
AcDbSymbolTableRecord
100
AcDbBlockTableRecord
  2
*MODEL_SPACE
340
20
  0
BLOCK_RECORD
  5
B
100
AcDbSymbolTableRecord
100
AcDbBlockTableRecord
  2
*PAPER_SPACE
340
21
  0
BLOCK_RECORD
  5
45
100
AcDbSymbolTableRecord
100
AcDbBlockTableRecord
  2
_DOT
340
0
  0
BLOCK_RECORD
  5
4E
100
AcDbSymbolTableRecord
100
AcDbBlockTableRecord
  2
VW_FILLEDARROW
340
0
  0
BLOCK_RECORD
  5
23
100
AcDbSymbolTableRecord
100
AcDbBlockTableRecord
  2
グループ
340
0
102
{BLKREFS
331
135
102
}
  0
BLOCK_RECORD
  5
24
100
AcDbSymbolTableRecord
100
AcDbBlockTableRecord
  2
*D3
340
0
  0
BLOCK_RECORD
  5
25
100
AcDbSymbolTableRecord
100
AcDbBlockTableRecord
  2
*D4
340
0
  0
BLOCK_RECORD
  5
26
100
AcDbSymbolTableRecord
100
AcDbBlockTableRecord
  2
*D5
340
0
  0
BLOCK_RECORD
  5
27
100
AcDbSymbolTableRecord
100
AcDbBlockTableRecord
  2
*D6
340
0
  0
BLOCK_RECORD
  5
28
100
AcDbSymbolTableRecord
100
AcDbBlockTableRecord
  2
*D7
340
0
  0
BLOCK_RECORD
  5
29
100
AcDbSymbolTableRecord
100
AcDbBlockTableRecord
  2
*D8
340
0
  0
BLOCK_RECORD
  5
2A
100
AcDbSymbolTableRecord
100
AcDbBlockTableRecord
  2
*D9
340
0
  0
BLOCK_RECORD
  5
2B
100
AcDbSymbolTableRecord
100
AcDbBlockTableRecord
  2
*D10
340
0
  0
BLOCK_RECORD
  5
2C
100
AcDbSymbolTableRecord
100
AcDbBlockTableRecord
  2
*D11
340
0
  0
BLOCK_RECORD
  5
2D
100
AcDbSymbolTableRecord
100
AcDbBlockTableRecord
  2
*D12
340
0
  0
BLOCK_RECORD
  5
2E
100
AcDbSymbolTableRecord
100
AcDbBlockTableRecord
  2
*D13
340
0
  0
BLOCK_RECORD
  5
2F
100
AcDbSymbolTableRecord
100
AcDbBlockTableRecord
  2
*D14
340
0
  0
BLOCK_RECORD
  5
30
100
AcDbSymbolTableRecord
100
AcDbBlockTableRecord
  2
*D15
340
0
  0
BLOCK_RECORD
  5
31
100
AcDbSymbolTableRecord
100
AcDbBlockTableRecord
  2
*D16
340
0
  0
BLOCK_RECORD
  5
32
100
AcDbSymbolTableRecord
100
AcDbBlockTableRecord
  2
*D17
340
0
  0
BLOCK_RECORD
  5
33
100
AcDbSymbolTableRecord
100
AcDbBlockTableRecord
  2
*D18
340
0
  0
ENDTAB
  0
ENDSEC
  0
SECTION
  2
BLOCKS
  0
BLOCK
  5
D
100
AcDbEntity
  8
0
390
0
100
AcDbBlockBegin
  2
*MODEL_SPACE
 70
               0
 10
0.0
 20
0.0
 30
0.0
  3
*MODEL_SPACE
  1

  0
ENDBLK
  5
E
100
AcDbEntity
  8
0
390
0
100
AcDbBlockEnd
  0
BLOCK
  5
F
100
AcDbEntity
 67
               1
  8
0
390
0
100
AcDbBlockBegin
  2
*PAPER_SPACE
 70
               0
 10
0.0
 20
0.0
 30
0.0
  3
*PAPER_SPACE
  1

  0
ENDBLK
  5
10
100
AcDbEntity
 67
               1
  8
0
390
0
100
AcDbBlockEnd
  0
BLOCK
  5
46
100
AcDbEntity
  8
0
390
0
100
AcDbBlockBegin
  2
_DOT
 70
               0
 10
0.0
 20
0.0
 30
0.0
  3
_DOT
  1

  0
POLYLINE
  5
47
100
AcDbEntity
  8
0
370
              -2
390
0
  6
ByBlock
 62
               0
100
AcDb2dPolyline
 66
               1
 10
0.0
 20
0.0
 30
0.0
 70
               1
 40
0.5
 41
0.5
  0
VERTEX
  5
48
100
AcDbEntity
  8
0
370
              -2
390
0
  6
ByBlock
 62
               0
100
AcDbVertex
100
AcDb2dVertex
 10
-0.25
 20
0.0
 30
0.0
 42
1.0
  0
VERTEX
  5
49
100
AcDbEntity
  8
0
370
              -2
390
0
  6
ByBlock
 62
               0
100
AcDbVertex
100
AcDb2dVertex
 10
0.25
 20
0.0
 30
0.0
 42
1.0
  0
SEQEND
  5
4A
100
AcDbEntity
  8
0
390
0
  0
LINE
  5
4B
100
AcDbEntity
  8
0
370
              -2
390
0
  6
ByBlock
 62
               0
100
AcDbLine
 10
-0.5
 20
0.0
 30
0.0
 11
-1.0
 21
0.0
 31
0.0
  0
ENDBLK
  5
4C
100
AcDbEntity
  8
0
390
0
100
AcDbBlockEnd
  0
BLOCK
  5
4F
100
AcDbEntity
  8
0
370
              -2
390
0
  6
ByBlock
 62
               0
100
AcDbBlockBegin
  2
VW_FILLEDARROW
 70
               0
 10
0.0
 20
0.0
 30
0.0
  3
VW_FILLEDARROW
  1

  0
SOLID
  5
50
100
AcDbEntity
  8
0
370
              -2
390
0
 62
               0
100
AcDbTrace
 10
0.0
 20
0.0
 30
0.0
 11
-0.9921874999999999
 21
-0.2658558393652545
 31
0.0
 12
-0.9921874999999999
 22
0.2658558393652548
 32
0.0
 13
-0.9921874999999999
 23
0.2658558393652548
 33
0.0
  0
ENDBLK
  5
51
100
AcDbEntity
  8
0
390
0
100
AcDbBlockEnd
  0
BLOCK
  5
53
100
AcDbEntity
  8
template
390
0
100
AcDbBlockBegin
  2
グループ
 70
               0
 10
0.0
 20
0.0
 30
0.0
  3
グループ
  1

  0
LWPOLYLINE
  5
54
100
AcDbEntity
  8
0
370
              15
390
0
  6
Continuous
 62
               7
100
AcDbPolyline
 90
        8
 70
             129
 10
-11641.080056098002
 20
4359.2917366935444
 10
-11641.080056098002
 20
4353.2943479999685
 10
-11650.581253016006
 20
4353.2943479999685
 10
-11650.581253016006
 20
4328.8433847364595
 10
-11658.936630277789
 20
4328.8433847364595
 10
-11658.936630277789
 20
4353.2943479999685
 10
-11668.269587224098
 20
4353.2943479999685
 10
-11668.269587224098
 20
4359.2917366935444
  0
LWPOLYLINE
  5
55
100
AcDbEntity
  8
0
370
              15
390
0
  6
Continuous
 62
               7
100
AcDbPolyline
 90
      101
 70
             128
 10
-11628.351764267445
 20
4358.5634882006079
 10
-11628.336414238665
 20
4358.567848957292
 42
-0.0222221607824279
 10
-11628.046409661991
 20
4358.6364734225372
 10
-11628.030615897989
 20
4358.6394768456357
 42
-0.0146883565522092
 10
-11627.767913192773
 20
4358.6814800325837
 42
-0.012745884422099
 10
-11627.503274225613
 20
4358.7090170006568
 10
-11627.440819147305
 20
4358.7139104232447
 42
-0.0198099018574422
 10
-11627.04997003784
 20
4358.7289955806418
 10
-11626.998158568385
 20
4358.7289418049768
 42
-0.0147617382778918
 10
-11626.503535107408
 20
4358.713821779731
 10
-11626.430843652541
 20
4358.7094491728431
 42
-0.0162624549018649
 10
-11626.040690023072
 20
4358.6732162975713
 10
-11625.919157631835
 20
4358.6579297385779
 42
-0.0080020874677993
 10
-11625.773578600722
 20
4358.6372468913069
 10
-11625.735259130148
 20
4358.6311756134992
 42
-0.005382192964763
 10
-11625.666775024811
 20
4358.6195680896735
 10
-11626.39318072401
 20
4356.4386396339596
 42
0.0108667757407989
 10
-11626.460497794129
 20
4356.4518267491767
 10
-11626.497965817331
 20
4356.458324491774
 42
0.0170663203340015
 10
-11626.641182604249
 20
4356.4781540890663
 10
-11626.709057936929
 20
4356.485201259653
 42
0.0220162375321903
 10
-11626.989437344782
 20
4356.5018836204235
 10
-11627.067292911841
 20
4356.5030829876896
 42
0.0282606915776922
 10
-11627.402929235413
 20
4356.4892797107213
 10
-11627.446842509198
 20
4356.4849797207162
 42
0.0169677213701682
 10
-11627.692767004146
 20
4356.452442671165
 42
0.0190576269921473
 10
-11627.935674966742
 20
4356.4022957990546
 10
-11627.941934154836
 20
4356.4007528249494
 42
0.0213685642805048
 10
-11628.192318639329
 20
4356.3275525398403
 10
-11628.197808534231
 20
4356.3256895437862
 42
0.023759529754368
 10
-11628.451303419093
 20
4356.2260050219065
 10
-11628.456405493158
 20
4356.2237132464124
 42
0.0261857468785836
 10
-11628.708576269388
 20
4356.0941769090377
 10
-11628.719002458458
 20
4356.0881114345784
 42
0.0272553062029124
 10
-11628.955432233714
 20
4355.932739228625
 10
-11628.99019524721
 20
4355.9070780805423
 42
0.0325996893138292
 10
-11629.140350590875
 20
4355.7803302075608
 10
-11629.164060019981
 20
4355.7575121790642
 42
0.0138050960529442
 10
-11629.255943176209
 20
4355.6640625174969
 42
0.0125280103739484
 10
-11629.342785709039
 20
4355.5658991909022
 10
-11629.366466153951
 20
4355.5377406927091
 42
0.0205218024800221
 10
-11629.491566229508
 20
4355.3759473784175
 10
-11629.51403256995
 20
4355.3442876486533
 42
0.0163110129632472
 10
-11629.669742949229
 20
4355.1089572135397
 10
-11629.672466845253
 20
4355.1045334515984
 42
0.0131897341922447
 10
-11629.819267366165
 20
4354.8514013592212
 10
-11629.820967461525
 20
4354.8482831200981
 42
0.0107895576096842
 10
-11629.95874416375
 20
4354.5820679104318
 10
-11629.95947705326
 20
4354.5805736778166
 42
0.0091371507228659
 10
-11630.087957001917
 20
4354.3060484800453
 10
-11630.117702633321
 20
4354.2393419728978
 42
0.0135418326312932
 10
-11630.289416572374
 20
4353.8244041876751
 10
-11630.323021380847
 20
4353.7365380452875
 42
0.0092834542441527
 10
-11630.494250440748
 20
4353.2626395470425
 10
-11630.519867568462
 20
4353.1873984772592
 42
0.0054261043553764
 10
-11630.627505716759
 20
4352.8596345041842
 10
-11630.645031703021
 20
4352.8042463416841
 42
0.0008225090809506
 10
-11630.713701754765
 20
4352.5859775838044
 10
-11631.698390886699
 20
4349.5610862905478
 10
-11628.465767046624
 20
4349.5610862905478
 10
-11628.969959476479
 20
4347.6566079921959
 10
-11632.226015758461
 20
4347.6566079921959
 10
-11638.055164790814
 20
4328.843384926191
 10
-11639.880262401126
 20
4328.843384926191
 10
-11634.045584365624
 20
4347.6566079921959
 10
-11636.450700734666
 20
4347.6566079921959
 10
-11635.946508304811
 20
4349.5610862905478
 10
-11633.517959493862
 20
4349.5610862905478
 10
-11632.657804575672
 20
4352.1974992912474
 42
-0.0005863560555827
 10
-11632.621069897259
 20
4352.3143257122065
 10
-11632.54498206381
 20
4352.5553180109237
 42
-0.0087522378909301
 10
-11632.345513920325
 20
4353.150594098146
 10
-11632.25324964496
 20
4353.4107342665229
 42
-0.0077400953829764
 10
-11631.995315985807
 20
4354.1037389441317
 10
-11631.979551014188
 20
4354.1441698276167
 42
-0.0082369946322614
 10
-11631.732466543617
 20
4354.748248893713
 42
-0.0085725238347259
 10
-11631.46522044761
 20
4355.3436749330103
 10
-11631.363590846608
 20
4355.5600960349839
 42
-0.0168109410598648
 10
-11631.076646417876
 20
4356.1213035610908
 10
-11630.950803027832
 20
4356.3482675933419
 42
-0.0007817726823766
 10
-11630.89651867736
 20
4356.4458118391185
 10
-11630.896390371363
 20
4356.4460415478179
 42
-0.0036626142209112
 10
-11630.841502507323
 20
4356.5426394278238
 42
-0.0080221150697104
 10
-11630.784378251952
 20
4356.6379186625145
 10
-11630.753678300553
 20
4356.6873096116988
 42
-0.0202139325571124
 10
-11630.626022560726
 20
4356.8752912124091
 10
-11630.571955095558
 20
4356.9483700766214
 42
-0.0249323791794385
 10
-11630.312792301853
 20
4357.2644153187621
 10
-11630.288652487714
 20
4357.2910295916881
 42
-0.0242132121522993
 10
-11629.948971746164
 20
4357.6309130778991
 10
-11629.901060173417
 20
4357.6744222140806
 42
-0.0251017527851346
 10
-11629.61707847278
 20
4357.9074149598428
 10
-11629.615632995954
 20
4357.9084842174316
 42
-0.0130868069026436
 10
-11629.31737234601
 20
4358.1172646859641
 10
-11629.315810526869
 20
4358.1182981262382
 42
-0.0290329526369295
 10
-11629.004699385474
 20
4358.2991236278685
 10
-11628.974853823483
 20
4358.3142260107097
 42
-0.0160250190030264
 10
-11628.708949409724
 20
4358.4382421209211
 42
-0.026760037472978
 10
-11628.433673332258
 20
4358.5389904414687
 10
-11628.406937412732
 20
4358.5471830002953
 42
-0.0049981587641424
 10
-11628.351764267445
 20
4358.5634882006079
 42
-0.0049981587641424
  0
LWPOLYLINE
  5
56
100
AcDbEntity
  8
0
370
              15
390
0
  6
Continuous
 62
               7
100
AcDbPolyline
 90
      118
 70
             128
 10
-11608.537396702999
 20
4349.4871029627211
 10
-11606.6622747785
 20
4349.4871029627211
 10
-11607.500313684099
 20
4346.8055364363208
 42
-0.001058722906448
 10
-11607.468857868143
 20
4346.8424409701265
 10
-11607.410663777897
 20
4346.9104232258514
 42
-0.0071874740407938
 10
-11607.260288559799
 20
4347.0810639178799
 10
-11607.118565786535
 20
4347.2373000591942
 42
-0.0148118053531746
 10
-11606.668436493863
 20
4347.704913905166
 10
-11606.581214158918
 20
4347.7903112260637
 42
-0.0086273358679234
 10
-11606.245665357912
 20
4348.1076868600776
 10
-11606.201831641702
 20
4348.1477365043966
 42
-0.0103138323074851
 10
-11605.943807939453
 20
4348.3738996417487
 10
-11605.898033533114
 20
4348.4123816890196
 42
-0.0060206748544252
 10
-11605.725185469015
 20
4348.5541763397632
 10
-11605.723154338099
 20
4348.5558020454191
 42
-0.006706902721047
 10
-11605.550861523465
 20
4348.6899526791894
 10
-11605.548312757548
 20
4348.6918828490579
 42
-0.007618435204527
 10
-11605.377407491667
 20
4348.8172577243076
 42
-0.0089652861689634
 10
-11605.202446528911
 20
4348.9368909846562
 10
-11605.166094808774
 20
4348.9608021981339
 42
-0.0156916245916294
 10
-11604.970135311629
 20
4349.0810646845985
 42
-0.0023299011042293
 10
-11604.769873267503
 20
4349.1942426242204
 10
-11604.75448913527
 20
4349.2028426192037
 42
-0.0107669341508393
 10
-11604.520252310211
 20
4349.3272427525317
 10
-11604.497987509094
 20
4349.3384595025036
 42
-0.0078058045914865
 10
-11604.214397391206
 20
4349.4758209581114
 10
-11604.204490303431
 20
4349.4804300860105
 42
-0.0181829330475476
 10
-11603.894180898824
 20
4349.6112938271026
 10
-11603.840125456225
 20
4349.6318089470578
 42
-0.0208411536014256
 10
-11603.491040488798
 20
4349.7478994095418
 10
-11603.476684388681
 20
4349.7520178544928
 42
-0.0222799817156022
 10
-11603.147964594753
 20
4349.830659420636
 10
-11603.139075631514
 20
4349.832371431221
 42
-0.021550952392718
 10
-11602.822604663237
 20
4349.8792871197547
 10
-11602.780122702179
 20
4349.8837246465464
 42
-0.0182545924859884
 10
-11602.546013922882
 20
4349.8995684719375
 10
-11602.50661290652
 20
4349.9007930170173
 42
-0.0072962856592777
 10
-11602.350690026844
 20
4349.903362345538
 10
-11602.321590356274
 20
4349.9034171809417
 42
-0.0059227516171494
 10
-11602.223840857128
 20
4349.9024434691519
 10
-11602.194598639537
 20
4349.901805702546
 42
-0.0011833112081292
 10
-11602.155347355923
 20
4349.9008566982384
 10
-11602.950733951531
 20
4347.3621227531394
 42
0.0143932051467479
 10
-11602.977135333897
 20
4347.37232172319
 10
-11602.9844073063
 20
4347.3748929420417
 42
0.0234388603324251
 10
-11603.026238172226
 20
4347.3875121777564
 10
-11603.034919835143
 20
4347.389693139763
 42
0.019916274290343
 10
-11603.095208669223
 20
4347.4023098750986
 10
-11603.11602260703
 20
4347.4058070745268
 42
0.0293643550546165
 10
-11603.219097465793
 20
4347.4169571201801
 10
-11603.24378264651
 20
4347.4181687371984
 42
0.0214606686833236
 10
-11603.396923562452
 20
4347.4191072976155
 10
-11603.40629547328
 20
4347.4187623860707
 42
0.0167564054186675
 10
-11603.577815664399
 20
4347.4066853437016
 10
-11603.586275457146
 20
4347.405804003276
 42
0.013767755324701
 10
-11603.773628770399
 20
4347.3810546947352
 10
-11603.78098050992
 20
4347.3798767747649
 42
0.011849726147353
 10
-11603.981478274
 20
4347.3428594245797
 10
-11603.987628281269
 20
4347.3415725618552
 42
0.0106421143848609
 10
-11604.19850916858
 20
4347.2927401862735
 10
-11604.203417976943
 20
4347.2914928435948
 42
0.0099746379673042
 10
-11604.421876446102
 20
4347.2313183152819
 10
-11604.483424486276
 20
4347.2130364366494
 42
0.019161367585945
 10
-11604.819408948793
 20
4347.0990590563615
 10
-11604.907468721562
 20
4347.0653721460285
 42
0.0205274080178408
 10
-11605.292775493435
 20
4346.8995437382127
 10
-11605.350424775437
 20
4346.8718757736306
 42
0.0181256912180363
 10
-11605.608701716086
 20
4346.736191954662
 10
-11605.661657099388
 20
4346.7058743414536
 42
0.0140709242395386
 10
-11605.806612034028
 20
4346.6173796680132
 10
-11605.832860902707
 20
4346.6003228492582
 42
0.0086667884525816
 10
-11605.92178706419
 20
4346.5403201814152
 42
0.0036408191996544
 10
-11606.009220302176
 20
4346.4781393236553
 10
-11606.044447176691
 20
4346.4526983777096
 42
0.0052260781252496
 10
-11606.200675874117
 20
4346.3373659910503
 10
-11606.216882730343
 20
4346.3251378804571
 42
0.0050024435898316
 10
-11606.402886073345
 20
4346.1818553122393
 10
-11606.418204229916
 20
4346.1698092897495
 42
0.0136138710226549
 10
-11606.628645498222
 20
4345.9948427848549
 10
-11606.662313374036
 20
4345.9652638121224
 42
0.0172815186914742
 10
-11606.926716915706
 20
4345.7162671394881
 10
-11606.92927926154
 20
4345.7136813223515
 42
0.0189403857986216
 10
-11607.179861060138
 20
4345.4408760575261
 10
-11607.212492553675
 20
4345.4025321260269
 42
0.0185044199498945
 10
-11607.404448992635
 20
4345.1592835449264
 42
0.0088565243857092
 10
-11607.582909099216
 20
4344.9057671248484
 10
-11607.592087078912
 20
4344.8922257450167
 42
0.0157195347202387
 10
-11607.775307685233
 20
4344.602703535722
 10
-11607.821390627199
 20
4344.5245513386417
 42
0.0095451879802366
 10
-11607.986476177315
 20
4344.2319566963233
 10
-11607.997624096264
 20
4344.2112860241541
 42
0.010035170630949
 10
-11608.129667845404
 20
4343.9542304637016
 42
0.0086935915423816
 10
-11608.251998997197
 20
4343.6923973182957
 10
-11608.255319738611
 20
4343.6849549953249
 42
0.0072580174839483
 10
-11608.375666190517
 20
4343.4043630038377
 10
-11608.378927823862
 20
4343.3964429777243
 42
0.0060005122641292
 10
-11608.498128492221
 20
4343.0968333070768
 10
-11608.501339470547
 20
4343.0884717792142
 42
0.0049017786958568
 10
-11608.620239629336
 20
4342.7695427988001
 10
-11608.623405435796
 20
4342.7607898613787
 42
0.0039415167586068
 10
-11608.742841713809
 20
4342.4222477990925
 10
-11608.745972816505
 20
4342.4131445980893
 42
0.0031035838770375
 10
-11608.866777602218
 20
4342.0547047362534
 10
-11608.869887646728
 20
4342.0452841149418
 42
0.0025070747174657
 10
-11608.992788998154
 20
4341.6666368976539
 10
-11609.030082894469
 20
4341.5497452327445
 42
0.0029081910275386
 10
-11609.222101192176
 20
4340.9355815747922
 10
-11609.262904360796
 20
4340.8023583321774
 42
0.0009266453744621
 10
-11609.531321735079
 20
4339.9201338723551
 10
-11609.552209207808
 20
4339.8510219928321
 42
-0.0005809993665949
 10
-11609.829545888342
 20
4338.9372138863782
 10
-11609.895827686496
 20
4338.7197289546111
 42
-0.001201870818899
 10
-11610.042811996045
 20
4338.2415662896983
 10
-11610.095131848031
 20
4338.0728071474714
 42
-0.000269105957081
 10
-11610.138701328779
 20
4337.9325395284905
 10
-11612.971657227068
 20
4328.843384926191
 10
-11614.789646119047
 20
4328.843384926191
 10
-11608.537396702999
 20
4349.4871029627211
  0
SPLINE
  5
57
100
AcDbEntity
  8
0
370
              15
390
0
  6
Continuous
 62
               7
100
AcDbSpline
210
0.0
220
0.0
230
1.0
 70
              13
 71
               2
 72
             782
 73
             779
 74
               0
 42
0.000001
 43
0.000001
 40
0.0
 40
0.0
 40
0.0
 40
1.0
 40
1.0
 40
2.0
 40
2.0
 40
3.0
 40
3.0
 40
4.0
 40
4.0
 40
5.0
 40
5.0
 40
6.0
 40
6.0
 40
7.0
 40
7.0
 40
8.0
 40
8.0
 40
9.0
 40
9.0
 40
10.0
 40
10.0
 40
11.0
 40
11.0
 40
12.0
 40
12.0
 40
13.0
 40
13.0
 40
14.0
 40
14.0
 40
15.0
 40
15.0
 40
16.0
 40
16.0
 40
17.0
 40
17.0
 40
18.0
 40
18.0
 40
19.0
 40
19.0
 40
20.0
 40
20.0
 40
21.0
 40
21.0
 40
22.0
 40
22.0
 40
23.0
 40
23.0
 40
24.0
 40
24.0
 40
25.0
 40
25.0
 40
26.0
 40
26.0
 40
27.0
 40
27.0
 40
28.0
 40
28.0
 40
29.0
 40
29.0
 40
30.0
 40
30.0
 40
31.0
 40
31.0
 40
32.0
 40
32.0
 40
33.0
 40
33.0
 40
34.0
 40
34.0
 40
35.0
 40
35.0
 40
36.0
 40
36.0
 40
37.0
 40
37.0
 40
38.0
 40
38.0
 40
39.0
 40
39.0
 40
40.0
 40
40.0
 40
41.0
 40
41.0
 40
42.0
 40
42.0
 40
43.0
 40
43.0
 40
44.0
 40
44.0
 40
45.0
 40
45.0
 40
46.0
 40
46.0
 40
47.0
 40
47.0
 40
48.0
 40
48.0
 40
49.0
 40
49.0
 40
50.0
 40
50.0
 40
51.0
 40
51.0
 40
52.0
 40
52.0
 40
53.0
 40
53.0
 40
54.0
 40
54.0
 40
55.0
 40
55.0
 40
56.0
 40
56.0
 40
57.0
 40
57.0
 40
58.0
 40
58.0
 40
59.0
 40
59.0
 40
60.0
 40
60.0
 40
61.0
 40
61.0
 40
62.0
 40
62.0
 40
63.0
 40
63.0
 40
64.0
 40
64.0
 40
65.0
 40
65.0
 40
66.0
 40
66.0
 40
67.0
 40
67.0
 40
68.0
 40
68.0
 40
69.0
 40
69.0
 40
70.0
 40
70.0
 40
71.0
 40
71.0
 40
72.0
 40
72.0
 40
73.0
 40
73.0
 40
74.0
 40
74.0
 40
75.0
 40
75.0
 40
76.0
 40
76.0
 40
77.0
 40
77.0
 40
78.0
 40
78.0
 40
79.0
 40
79.0
 40
80.0
 40
80.0
 40
81.0
 40
81.0
 40
82.0
 40
82.0
 40
83.0
 40
83.0
 40
84.0
 40
84.0
 40
85.0
 40
85.0
 40
86.0
 40
86.0
 40
87.0
 40
87.0
 40
88.0
 40
88.0
 40
89.0
 40
89.0
 40
90.0
 40
90.0
 40
91.0
 40
91.0
 40
92.0
 40
92.0
 40
93.0
 40
93.0
 40
94.0
 40
94.0
 40
95.0
 40
95.0
 40
96.0
 40
96.0
 40
97.0
 40
97.0
 40
98.0
 40
98.0
 40
99.0
 40
99.0
 40
100.0
 40
100.0
 40
101.0
 40
101.0
 40
102.0
 40
102.0
 40
103.0
 40
103.0
 40
104.0
 40
104.0
 40
105.0
 40
105.0
 40
106.0
 40
106.0
 40
107.0
 40
107.0
 40
108.0
 40
108.0
 40
109.0
 40
109.0
 40
110.0
 40
110.0
 40
111.0
 40
111.0
 40
112.0
 40
112.0
 40
113.0
 40
113.0
 40
114.0
 40
114.0
 40
115.0
 40
115.0
 40
116.0
 40
116.0
 40
117.0
 40
117.0
 40
118.0
 40
118.0
 40
119.0
 40
119.0
 40
120.0
 40
120.0
 40
121.0
 40
121.0
 40
122.0
 40
122.0
 40
123.0
 40
123.0
 40
124.0
 40
124.0
 40
125.0
 40
125.0
 40
126.0
 40
126.0
 40
127.0
 40
127.0
 40
128.0
 40
128.0
 40
129.0
 40
129.0
 40
130.0
 40
130.0
 40
131.0
 40
131.0
 40
132.0
 40
132.0
 40
133.0
 40
133.0
 40
134.0
 40
134.0
 40
135.0
 40
135.0
 40
136.0
 40
136.0
 40
137.0
 40
137.0
 40
138.0
 40
138.0
 40
139.0
 40
139.0
 40
140.0
 40
140.0
 40
141.0
 40
141.0
 40
142.0
 40
142.0
 40
143.0
 40
143.0
 40
144.0
 40
144.0
 40
145.0
 40
145.0
 40
146.0
 40
146.0
 40
147.0
 40
147.0
 40
148.0
 40
148.0
 40
149.0
 40
149.0
 40
150.0
 40
150.0
 40
151.0
 40
151.0
 40
152.0
 40
152.0
 40
153.0
 40
153.0
 40
154.0
 40
154.0
 40
155.0
 40
155.0
 40
156.0
 40
156.0
 40
157.0
 40
157.0
 40
158.0
 40
158.0
 40
159.0
 40
159.0
 40
160.0
 40
160.0
 40
161.0
 40
161.0
 40
162.0
 40
162.0
 40
163.0
 40
163.0
 40
164.0
 40
164.0
 40
165.0
 40
165.0
 40
166.0
 40
166.0
 40
167.0
 40
167.0
 40
168.0
 40
168.0
 40
169.0
 40
169.0
 40
170.0
 40
170.0
 40
171.0
 40
171.0
 40
172.0
 40
172.0
 40
173.0
 40
173.0
 40
174.0
 40
174.0
 40
175.0
 40
175.0
 40
176.0
 40
176.0
 40
177.0
 40
177.0
 40
178.0
 40
178.0
 40
179.0
 40
179.0
 40
180.0
 40
180.0
 40
181.0
 40
181.0
 40
182.0
 40
182.0
 40
183.0
 40
183.0
 40
184.0
 40
184.0
 40
185.0
 40
185.0
 40
186.0
 40
186.0
 40
187.0
 40
187.0
 40
188.0
 40
188.0
 40
189.0
 40
189.0
 40
190.0
 40
190.0
 40
191.0
 40
191.0
 40
192.0
 40
192.0
 40
193.0
 40
193.0
 40
194.0
 40
194.0
 40
195.0
 40
195.0
 40
196.0
 40
196.0
 40
197.0
 40
197.0
 40
198.0
 40
198.0
 40
199.0
 40
199.0
 40
200.0
 40
200.0
 40
201.0
 40
201.0
 40
202.0
 40
202.0
 40
203.0
 40
203.0
 40
204.0
 40
204.0
 40
205.0
 40
205.0
 40
206.0
 40
206.0
 40
207.0
 40
207.0
 40
208.0
 40
208.0
 40
209.0
 40
209.0
 40
210.0
 40
210.0
 40
211.0
 40
211.0
 40
212.0
 40
212.0
 40
213.0
 40
213.0
 40
214.0
 40
214.0
 40
215.0
 40
215.0
 40
216.0
 40
216.0
 40
217.0
 40
217.0
 40
218.0
 40
218.0
 40
219.0
 40
219.0
 40
220.0
 40
220.0
 40
221.0
 40
221.0
 40
222.0
 40
222.0
 40
223.0
 40
223.0
 40
224.0
 40
224.0
 40
225.0
 40
225.0
 40
226.0
 40
226.0
 40
227.0
 40
227.0
 40
228.0
 40
228.0
 40
229.0
 40
229.0
 40
230.0
 40
230.0
 40
231.0
 40
231.0
 40
232.0
 40
232.0
 40
233.0
 40
233.0
 40
234.0
 40
234.0
 40
235.0
 40
235.0
 40
236.0
 40
236.0
 40
237.0
 40
237.0
 40
238.0
 40
238.0
 40
239.0
 40
239.0
 40
240.0
 40
240.0
 40
241.0
 40
241.0
 40
242.0
 40
242.0
 40
243.0
 40
243.0
 40
244.0
 40
244.0
 40
245.0
 40
245.0
 40
246.0
 40
246.0
 40
247.0
 40
247.0
 40
248.0
 40
248.0
 40
249.0
 40
249.0
 40
250.0
 40
250.0
 40
251.0
 40
251.0
 40
252.0
 40
252.0
 40
253.0
 40
253.0
 40
254.0
 40
254.0
 40
255.0
 40
255.0
 40
256.0
 40
256.0
 40
257.0
 40
257.0
 40
258.0
 40
258.0
 40
259.0
 40
259.0
 40
260.0
 40
260.0
 40
261.0
 40
261.0
 40
262.0
 40
262.0
 40
263.0
 40
263.0
 40
264.0
 40
264.0
 40
265.0
 40
265.0
 40
266.0
 40
266.0
 40
267.0
 40
267.0
 40
268.0
 40
268.0
 40
269.0
 40
269.0
 40
270.0
 40
270.0
 40
271.0
 40
271.0
 40
272.0
 40
272.0
 40
273.0
 40
273.0
 40
274.0
 40
274.0
 40
275.0
 40
275.0
 40
276.0
 40
276.0
 40
277.0
 40
277.0
 40
278.0
 40
278.0
 40
279.0
 40
279.0
 40
280.0
 40
280.0
 40
281.0
 40
281.0
 40
282.0
 40
282.0
 40
283.0
 40
283.0
 40
284.0
 40
284.0
 40
285.0
 40
285.0
 40
286.0
 40
286.0
 40
287.0
 40
287.0
 40
288.0
 40
288.0
 40
289.0
 40
289.0
 40
290.0
 40
290.0
 40
291.0
 40
291.0
 40
292.0
 40
292.0
 40
293.0
 40
293.0
 40
294.0
 40
294.0
 40
295.0
 40
295.0
 40
296.0
 40
296.0
 40
297.0
 40
297.0
 40
298.0
 40
298.0
 40
299.0
 40
299.0
 40
300.0
 40
300.0
 40
301.0
 40
301.0
 40
302.0
 40
302.0
 40
303.0
 40
303.0
 40
304.0
 40
304.0
 40
305.0
 40
305.0
 40
306.0
 40
306.0
 40
307.0
 40
307.0
 40
308.0
 40
308.0
 40
309.0
 40
309.0
 40
310.0
 40
310.0
 40
311.0
 40
311.0
 40
312.0
 40
312.0
 40
313.0
 40
313.0
 40
314.0
 40
314.0
 40
315.0
 40
315.0
 40
316.0
 40
316.0
 40
317.0
 40
317.0
 40
318.0
 40
318.0
 40
319.0
 40
319.0
 40
320.0
 40
320.0
 40
321.0
 40
321.0
 40
322.0
 40
322.0
 40
323.0
 40
323.0
 40
324.0
 40
324.0
 40
325.0
 40
325.0
 40
326.0
 40
326.0
 40
327.0
 40
327.0
 40
328.0
 40
328.0
 40
329.0
 40
329.0
 40
330.0
 40
330.0
 40
331.0
 40
331.0
 40
332.0
 40
332.0
 40
333.0
 40
333.0
 40
334.0
 40
334.0
 40
335.0
 40
335.0
 40
336.0
 40
336.0
 40
337.0
 40
337.0
 40
338.0
 40
338.0
 40
339.0
 40
339.0
 40
340.0
 40
340.0
 40
341.0
 40
341.0
 40
342.0
 40
342.0
 40
343.0
 40
343.0
 40
344.0
 40
344.0
 40
345.0
 40
345.0
 40
346.0
 40
346.0
 40
347.0
 40
347.0
 40
348.0
 40
348.0
 40
349.0
 40
349.0
 40
350.0
 40
350.0
 40
351.0
 40
351.0
 40
352.0
 40
352.0
 40
353.0
 40
353.0
 40
354.0
 40
354.0
 40
355.0
 40
355.0
 40
356.0
 40
356.0
 40
357.0
 40
357.0
 40
358.0
 40
358.0
 40
359.0
 40
359.0
 40
360.0
 40
360.0
 40
361.0
 40
361.0
 40
362.0
 40
362.0
 40
363.0
 40
363.0
 40
364.0
 40
364.0
 40
365.0
 40
365.0
 40
366.0
 40
366.0
 40
367.0
 40
367.0
 40
368.0
 40
368.0
 40
369.0
 40
369.0
 40
370.0
 40
370.0
 40
371.0
 40
371.0
 40
372.0
 40
372.0
 40
373.0
 40
373.0
 40
374.0
 40
374.0
 40
375.0
 40
375.0
 40
376.0
 40
376.0
 40
377.0
 40
377.0
 40
378.0
 40
378.0
 40
379.0
 40
379.0
 40
380.0
 40
380.0
 40
381.0
 40
381.0
 40
382.0
 40
382.0
 40
383.0
 40
383.0
 40
384.0
 40
384.0
 40
385.0
 40
385.0
 40
386.0
 40
386.0
 40
387.0
 40
387.0
 40
388.0
 40
388.0
 40
389.0
 40
389.0
 40
389.0
 10
-11598.208692252267
 20
4349.4980293260833
 30
0.0
 41
1.0
 10
-11597.390268143547
 20
4349.4980293260833
 30
0.0
 41
1.0
 10
-11596.571844034825
 20
4349.4980293260833
 30
0.0
 41
1.0
 10
-11596.985597770341
 20
4348.1554030618336
 30
0.0
 41
1.0
 10
-11597.399351505859
 20
4346.8127767975839
 30
0.0
 41
1.0
 10
-11597.381012010585
 20
4346.8414775706597
 30
0.0
 41
0.999995726442059
 10
-11597.362505013647
 20
4346.8700706209747
 30
0.0
 41
1.0
 10
-11597.332075689617
 20
4346.9170834991864
 30
0.0
 41
1.0
 10
-11597.301646365586
 20
4346.9640963773982
 30
0.0
 41
1.0
 10
-11597.222280720485
 20
4347.0867151842931
 30
0.0
 41
0.999539406908318
 10
-11597.13562232894
 20
4347.2042932460263
 30
0.0
 41
1.0
 10
-11597.099865466676
 20
4347.2528081386245
 30
0.0
 41
1.0
 10
-11597.064108604414
 20
4347.3013230312217
 30
0.0
 41
1.0
 10
-11596.930381936594
 20
4347.4827633063533
 30
0.0
 41
0.9994460617142968
 10
-11596.784881455304
 20
4347.6549057040056
 30
0.0
 41
1.0
 10
-11596.780493274317
 20
4347.6600973844015
 30
0.0
 41
1.0
 10
-11596.776105093331
 20
4347.6652890647965
 30
0.0
 41
1.0
 10
-11596.639380974004
 20
4347.8270481016671
 30
0.0
 41
0.999435939493501
 10
-11596.492106743663
 20
4347.9792643028195
 30
0.0
 41
1.0
 10
-11596.489723389715
 20
4347.981727633186
 30
0.0
 41
1.0
 10
-11596.487340035768
 20
4347.9841909635525
 30
0.0
 41
1.0
 10
-11596.344832513318
 20
4348.1314805039783
 30
0.0
 41
0.9995293688566853
 10
-11596.193560832329
 20
4348.2697537161494
 30
0.0
 41
1.0
 10
-11596.174267073071
 20
4348.2873896017973
 30
0.0
 41
1.0
 10
-11596.154973313811
 20
4348.3050254874443
 30
0.0
 41
1.0
 10
-11596.042289151361
 20
4348.4080269283013
 30
0.0
 41
0.9997087614804932
 10
-11595.924766262393
 20
4348.5054712091114
 30
0.0
 41
1.0
 10
-11595.905600189177
 20
4348.5213627876537
 30
0.0
 41
1.0
 10
-11595.886434115959
 20
4348.5372543661961
 30
0.0
 41
1.0
 10
-11595.807243373396
 20
4348.6029154899425
 30
0.0
 41
0.9999595338700215
 10
-11595.726884102583
 20
4348.6671412205633
 30
0.0
 41
1.0
 10
-11595.646524831765
 20
4348.7313669511886
 30
0.0
 41
0.9999749417505112
 10
-11595.565264297458
 20
4348.7944485051066
 30
0.0
 41
1.0
 10
-11595.544278151287
 20
4348.8107397924159
 30
0.0
 41
1.0
 10
-11595.523292005115
 20
4348.8270310797243
 30
0.0
 41
1.0
 10
-11595.438724119738
 20
4348.8926800896215
 30
0.0
 41
0.9999792037119807
 10
-11595.353316519981
 20
4348.9572328712584
 30
0.0
 41
1.0
 10
-11595.332491694273
 20
4348.972972693362
 30
0.0
 41
1.0
 10
-11595.311666868567
 20
4348.9887125154646
 30
0.0
 41
1.0
 10
-11595.267908920669
 20
4349.0217856525551
 30
0.0
 41
0.999999337403999
 10
-11595.224227234068
 20
4349.0549594483255
 30
0.0
 41
1.0
 10
-11595.180545547943
 20
4349.0881332437357
 30
0.0
 41
0.9999160953816617
 10
-11595.13601913704
 20
4349.1201643089225
 30
0.0
 41
1.0
 10
-11595.103197249604
 20
4349.1437754645194
 30
0.0
 41
1.0
 10
-11595.070375362167
 20
4349.1673866201172
 30
0.0
 41
1.0
 10
-11594.960205176405
 20
4349.2466399964869
 30
0.0
 41
0.9980964527232412
 10
-11594.84111618289
 20
4349.3117274693504
 30
0.0
 41
1.0
 10
-11594.804083575964
 20
4349.331967448943
 30
0.0
 41
1.0
 10
-11594.767050969038
 20
4349.3522074285347
 30
0.0
 41
1.0
 10
-11594.587723955763
 20
4349.4502176792339
 30
0.0
 41
0.9984572810575302
 10
-11594.398635389418
 20
4349.527739940575
 30
0.0
 41
1.0
 10
-11594.394989120017
 20
4349.5292348329149
 30
0.0
 41
1.0
 10
-11594.391342850617
 20
4349.5307297252548
 30
0.0
 41
1.0
 10
-11594.209546823055
 20
4349.6052622019233
 30
0.0
 41
0.9987838528033594
 10
-11594.0212941645
 20
4349.6615278420868
 30
0.0
 41
1.0
 10
-11594.017056215314
 20
4349.6627944957736
 30
0.0
 41
1.0
 10
-11594.012818266128
 20
4349.6640611494604
 30
0.0
 41
1.0
 10
-11593.833041505955
 20
4349.7177934822494
 30
0.0
 41
0.9990652816208617
 10
-11593.649295574225
 20
4349.7557971617953
 30
0.0
 41
1.0
 10
-11593.644107173186
 20
4349.7568702649032
 30
0.0
 41
1.0
 10
-11593.638918772147
 20
4349.7579433680112
 30
0.0
 41
1.0
 10
-11593.465549642504
 20
4349.7938008413375
 30
0.0
 41
0.9992909934272539
 10
-11593.289973876052
 20
4349.8165112738043
 30
0.0
 41
1.0
 10
-11593.114398109607
 20
4349.8392217062683
 30
0.0
 41
0.9994553539450595
 10
-11592.937706676501
 20
4349.8503010104769
 30
0.0
 41
1.0
 10
-11592.902272268711
 20
4349.8525228985236
 30
0.0
 41
1.0
 10
-11592.866837860922
 20
4349.8547447865712
 30
0.0
 41
1.0
 10
-11592.700612094346
 20
4349.8651678489841
 30
0.0
 41
0.9990928098291325
 10
-11592.534102302438
 20
4349.8614082077493
 30
0.0
 41
1.0
 10
-11592.495540467156
 20
4349.860537516216
 30
0.0
 41
1.0
 10
-11592.456978631875
 20
4349.8596668246828
 30
0.0
 41
1.0
 10
-11592.367592510525
 20
4349.8576485665135
 30
0.0
 41
0.9998382089204904
 10
-11592.278336827749
 20
4349.852416439986
 30
0.0
 41
1.0
 10
-11592.277906921538
 20
4349.8523912390847
 30
0.0
 41
1.0
 10
-11592.277477015326
 20
4349.8523660381825
 30
0.0
 41
1.0
 10
-11592.18908114499
 20
4349.8471843134621
 30
0.0
 41
0.9997558016753477
 10
-11592.10100056776
 20
4349.8381017980919
 30
0.0
 41
1.0
 10
-11592.100524429326
 20
4349.8380527006084
 30
0.0
 41
1.0
 10
-11592.100048290891
 20
4349.8380036031258
 30
0.0
 41
1.0
 10
-11592.012919990575
 20
4349.829019282728
 30
0.0
 41
0.9996565144177978
 10
-11591.926382137219
 20
4349.8154819760366
 30
0.0
 41
1.0
 10
-11591.925916211843
 20
4349.8154090903054
 30
0.0
 41
1.0
 10
-11591.925450286466
 20
4349.8153362045741
 30
0.0
 41
1.0
 10
-11591.839844283877
 20
4349.8019446693488
 30
0.0
 41
0.9995321806861639
 10
-11591.755217203547
 20
4349.783344180918
 30
0.0
 41
1.0
 10
-11591.754828008976
 20
4349.783258638452
 30
0.0
 41
1.0
 10
-11591.754438814405
 20
4349.783173095987
 30
0.0
 41
1.0
 10
-11591.670590123231
 20
4349.7647436924926
 30
0.0
 41
0.9993819199217829
 10
-11591.588243589023
 20
4349.7404683092282
 30
0.0
 41
1.0
 10
-11591.588005155529
 20
4349.7403980201198
 30
0.0
 41
1.0
 10
-11591.587766722034
 20
4349.7403277310113
 30
0.0
 41
1.0
 10
-11591.505897054829
 20
4349.7161929259682
 30
0.0
 41
0.9992088568504496
 10
-11591.426204535839
 20
4349.6856276901726
 30
0.0
 41
1.0
 10
-11591.346523544951
 20
4349.6550680894361
 30
0.0
 41
0.9990226101773664
 10
-11591.269852875053
 20
4349.6175906578255
 30
0.0
 41
1.0
 10
-11591.193193733265
 20
4349.5801188612795
 30
0.0
 41
0.9988424273967188
 10
-11591.12049010605
 20
4349.5354540860244
 30
0.0
 41
1.0
 10
-11591.120222397667
 20
4349.5352896219501
 30
0.0
 41
1.0
 10
-11591.119954689284
 20
4349.535125157875
 30
0.0
 41
1.0
 10
-11591.046715645307
 20
4349.4901314544732
 30
0.0
 41
0.9986928844490928
 10
-11590.978452778589
 20
4349.437895720187
 30
0.0
 41
1.0
 10
-11590.977871486373
 20
4349.4374509069639
 30
0.0
 41
1.0
 10
-11590.977290194158
 20
4349.4370060937417
 30
0.0
 41
1.0
 10
-11590.907864743007
 20
4349.3838807330094
 30
0.0
 41
0.9986007262282625
 10
-11590.844438573244
 20
4349.3237199633222
 30
0.0
 41
1.0
 10
-11590.843544157782
 20
4349.3228715954829
 30
0.0
 41
1.0
 10
-11590.842649742321
 20
4349.3220232276435
 30
0.0
 41
1.0
 10
-11590.777434741638
 20
4349.2601657222767
 30
0.0
 41
0.9985581491387082
 10
-11590.719227129934
 20
4349.1916732320024
 30
0.0
 41
1.0
 10
-11590.709968676339
 20
4349.1807788743035
 30
0.0
 41
1.0
 10
-11590.700710222747
 20
4349.1698845166047
 30
0.0
 41
1.0
 10
-11590.623985703853
 20
4349.0796033109291
 30
0.0
 41
0.9970460233514256
 10
-11590.561993802694
 20
4348.9786362267459
 30
0.0
 41
1.0
 10
-11590.547524437614
 20
4348.9550697676659
 30
0.0
 41
1.0
 10
-11590.533055072536
 20
4348.9315033085859
 30
0.0
 41
1.0
 10
-11590.493318372522
 20
4348.8667835845545
 30
0.0
 41
0.9988468816630673
 10
-11590.459972001772
 20
4348.7985511321258
 30
0.0
 41
1.0
 10
-11590.452935979272
 20
4348.7841542109691
 30
0.0
 41
1.0
 10
-11590.445899956771
 20
4348.7697572898114
 30
0.0
 41
1.0
 10
-11590.426625631017
 20
4348.7303186796889
 30
0.0
 41
0.9998431189995977
 10
-11590.408760303526
 20
4348.6902221252567
 30
0.0
 41
1.0
 10
-11590.390894976221
 20
4348.6501255712446
 30
0.0
 41
0.9999989990029394
 10
-11590.372916253096
 20
4348.6100797343233
 30
0.0
 41
1.0
 10
-11590.366743941257
 20
4348.5963315169647
 30
0.0
 41
1.0
 10
-11590.360571629419
 20
4348.582583299607
 30
0.0
 41
1.0
 10
-11590.330248282822
 20
4348.5150410284296
 30
0.0
 41
0.9998790356322376
 10
-11590.302040402707
 20
4348.4465882765462
 30
0.0
 41
1.0
 10
-11590.295205221417
 20
4348.4300011751038
 30
0.0
 41
1.0
 10
-11590.288370040125
 20
4348.4134140736624
 30
0.0
 41
1.0
 10
-11590.264812377733
 20
4348.3562461187503
 30
0.0
 41
0.9998227574557494
 10
-11590.243423629334
 20
4348.2982318104441
 30
0.0
 41
1.0
 10
-11590.222034880957
 20
4348.240217502208
 30
0.0
 41
0.9996797971037084
 10
-11590.203608596008
 20
4348.1811953831229
 30
0.0
 41
1.0
 10
-11590.199704793271
 20
4348.1686909249165
 30
0.0
 41
1.0
 10
-11590.195800990534
 20
4348.1561864667101
 30
0.0
 41
1.0
 10
-11590.169567100122
 20
4348.0721554312468
 30
0.0
 41
0.997927493873375
 10
-11590.154342576643
 20
4347.9854510725809
 30
0.0
 41
1.0
 10
-11590.152118889382
 20
4347.9727870717616
 30
0.0
 41
1.0
 10
-11590.149895202121
 20
4347.9601230709422
 30
0.0
 41
1.0
 10
-11590.138965262424
 20
4347.8978765636539
 30
0.0
 41
0.9994985982136194
 10
-11590.131997097247
 20
4347.8350630625191
 30
0.0
 41
1.0
 10
-11590.125028932069
 20
4347.7722495613698
 30
0.0
 41
0.99963726111995
 10
-11590.1214530663
 20
4347.7091519826809
 30
0.0
 41
1.0
 10
-11590.12128448881
 20
4347.706177365606
 30
0.0
 41
1.0
 10
-11590.121115911323
 20
4347.7032027485311
 30
0.0
 41
1.0
 10
-11590.117202890577
 20
4347.634155935637
 30
0.0
 41
0.9997730630741466
 10
-11590.116234577086
 20
4347.5650051115554
 30
0.0
 41
1.0
 10
-11590.116177470669
 20
4347.5609269324614
 30
0.0
 41
1.0
 10
-11590.116120364251
 20
4347.5568487533665
 30
0.0
 41
1.0
 10
-11590.115037837928
 20
4347.4795415709959
 30
0.0
 41
0.999877261407352
 10
-11590.116377924662
 20
4347.402238424379
 30
0.0
 41
1.0
 10
-11590.11646718786
 20
4347.3970892605967
 30
0.0
 41
1.0
 10
-11590.116556451057
 20
4347.3919400968143
 30
0.0
 41
1.0
 10
-11590.118075064185
 20
4347.3043386226045
 30
0.0
 41
0.9999415567322137
 10
-11590.12148737443
 20
4347.216790460956
 30
0.0
 41
1.0
 10
-11590.121728695107
 20
4347.2105990011933
 30
0.0
 41
1.0
 10
-11590.121970015784
 20
4347.2044075414306
 30
0.0
 41
1.0
 10
-11590.125864967385
 20
4347.1044764601666
 30
0.0
 41
0.9999716810417489
 10
-11590.131263550511
 20
4347.0046153218291
 30
0.0
 41
1.0
 10
-11590.1344763493
 20
4346.9451860721892
 30
0.0
 41
1.0
 10
-11590.137689148087
 20
4346.8857568225494
 30
0.0
 41
1.0
 10
-11590.145763057235
 20
4346.7364084213568
 30
0.0
 41
0.9999819129911838
 10
-11590.155632848844
 20
4346.5871679437441
 30
0.0
 41
1.0
 10
-11590.165502640461
 20
4346.4379274660332
 30
0.0
 41
1.0
 10
-11590.167941961025
 20
4346.4007344201837
 30
0.0
 41
1.0
 10
-11590.145243726936
 20
4346.4394754179484
 30
0.0
 41
0.9999982128083266
 10
-11590.122399168042
 20
4346.4781303121445
 30
0.0
 41
1.0
 10
-11590.095489608355
 20
4346.5236635258625
 30
0.0
 41
1.0
 10
-11590.068580048668
 20
4346.5691967395815
 30
0.0
 41
1.0
 10
-11589.991916370174
 20
4346.6989180616038
 30
0.0
 41
0.9998609190055003
 10
-11589.910969057342
 20
4346.8260104434867
 30
0.0
 41
1.0
 10
-11589.881320735793
 20
4346.8725601765518
 30
0.0
 41
1.0
 10
-11589.851672414241
 20
4346.919109909617
 30
0.0
 41
1.0
 10
-11589.76940019404
 20
4347.0482824795508
 30
0.0
 41
0.9999067609734871
 10
-11589.683631184616
 20
4347.1751601689321
 30
0.0
 41
1.0
 10
-11589.681226481398
 20
4347.1787174350129
 30
0.0
 41
1.0
 10
-11589.67882177818
 20
4347.1822747010938
 30
0.0
 41
1.0
 10
-11589.597862175135
 20
4347.3020378583979
 30
0.0
 41
0.999878495215043
 10
-11589.513208565471
 20
4347.4192190750819
 30
0.0
 41
1.0
 10
-11589.428554955801
 20
4347.5364002917768
 30
0.0
 41
0.9998532968283562
 10
-11589.339937334988
 20
4347.6506132002341
 30
0.0
 41
1.0
 10
-11589.319975545983
 20
4347.6763405212696
 30
0.0
 41
1.0
 10
-11589.30001375698
 20
4347.702067842306
 30
0.0
 41
1.0
 10
-11589.181529707223
 20
4347.8547734532722
 30
0.0
 41
0.9991551975795134
 10
-11589.050905257602
 20
4347.9972330153532
 30
0.0
 41
1.0
 10
-11589.047395641637
 20
4348.0010606169617
 30
0.0
 41
1.0
 10
-11589.043886025673
 20
4348.0048882185692
 30
0.0
 41
1.0
 10
-11588.920280807995
 20
4348.1396925774206
 30
0.0
 41
0.9997418144180859
 10
-11588.79067866828
 20
4348.2687419880494
 30
0.0
 41
1.0
 10
-11588.661076528575
 20
4348.3977913986664
 30
0.0
 41
0.9989238204632907
 10
-11588.520073980328
 20
4348.5142763607009
 30
0.0
 41
1.0
 10
-11588.47482630219
 20
4348.551656352307
 30
0.0
 41
1.0
 10
-11588.429578624055
 20
4348.5890363439121
 30
0.0
 41
1.0
 10
-11588.28933856683
 20
4348.7048913972067
 30
0.0
 41
0.9990825084097065
 10
-11588.139698634222
 20
4348.8083203950428
 30
0.0
 41
1.0
 10
-11588.129653270173
 20
4348.8152636081177
 30
0.0
 41
1.0
 10
-11588.119607906123
 20
4348.8222068211917
 30
0.0
 41
1.0
 10
-11587.99005870164
 20
4348.9117493928607
 30
0.0
 41
0.9998164899825026
 10
-11587.857174498242
 20
4348.9962636343917
 30
0.0
 41
1.0
 10
-11587.845328937714
 20
4349.0037974009192
 30
0.0
 41
1.0
 10
-11587.833483377186
 20
4349.0113311674459
 30
0.0
 41
1.0
 10
-11587.724290294864
 20
4349.0807778759099
 30
0.0
 41
0.9997473449129384
 10
-11587.612086337616
 20
4349.1452468337238
 30
0.0
 41
1.0
 10
-11587.499882380394
 20
4349.2097157915241
 30
0.0
 41
0.9999327861146591
 10
-11587.386213769654
 20
4349.2715657831932
 30
0.0
 41
1.0
 10
-11587.385661767068
 20
4349.2718661418858
 30
0.0
 41
1.0
 10
-11587.385109764482
 20
4349.2721665005793
 30
0.0
 41
1.0
 10
-11587.270337148611
 20
4349.3346172096117
 30
0.0
 41
0.9996956420483432
 10
-11587.152623822783
 20
4349.3913306765808
 30
0.0
 41
1.0
 10
-11587.122183417861
 20
4349.405996653325
 30
0.0
 41
1.0
 10
-11587.091743012939
 20
4349.4206626300693
 30
0.0
 41
1.0
 10
-11586.988765906231
 20
4349.4702762884963
 30
0.0
 41
0.9998070570174757
 10
-11586.883919517288
 20
4349.5158068753981
 30
0.0
 41
1.0
 10
-11586.77907312836
 20
4349.5613374622944
 30
0.0
 41
0.9997827436145106
 10
-11586.672420191764
 20
4349.6024586335998
 30
0.0
 41
1.0
 10
-11586.653197342119
 20
4349.6098702072377
 30
0.0
 41
1.0
 10
-11586.633974492473
 20
4349.6172817808756
 30
0.0
 41
1.0
 10
-11586.488875856603
 20
4349.6732260994504
 30
0.0
 41
0.9988031841979522
 10
-11586.339005494001
 20
4349.7147261636192
 30
0.0
 41
1.0
 10
-11586.314088245634
 20
4349.7216259094275
 30
0.0
 41
1.0
 10
-11586.289170997266
 20
4349.728525655235
 30
0.0
 41
1.0
 10
-11586.121900971628
 20
4349.7748437976388
 30
0.0
 41
0.9984748040552252
 10
-11585.950544062973
 20
4349.8024380299057
 30
0.0
 41
1.0
 10
-11585.945804926725
 20
4349.8032011904197
 30
0.0
 41
1.0
 10
-11585.941065790477
 20
4349.8039643509328
 30
0.0
 41
1.0
 10
-11585.779187154327
 20
4349.8300322621708
 30
0.0
 41
0.9984436495478545
 10
-11585.6154124106
 20
4349.8379102159888
 30
0.0
 41
1.0
 10
-11585.593715202467
 20
4349.8389539031887
 30
0.0
 41
1.0
 10
-11585.572017994336
 20
4349.8399975903885
 30
0.0
 41
1.0
 10
-11585.451637666883
 20
4349.8457881698087
 30
0.0
 41
0.9987954789333911
 10
-11585.331269421964
 20
4349.8397516420655
 30
0.0
 41
1.0
 10
-11585.31130462946
 20
4349.8387503977265
 30
0.0
 41
1.0
 10
-11585.291339836955
 20
4349.8377491533874
 30
0.0
 41
1.0
 10
-11585.210901177044
 20
4349.8337151143223
 30
0.0
 41
0.9997941595877896
 10
-11585.130692398961
 20
4349.8264210484022
 30
0.0
 41
1.0
 10
-11585.050483620844
 20
4349.8191269824792
 30
0.0
 41
0.9998589466236056
 10
-11584.970565074016
 20
4349.8091431280318
 30
0.0
 41
1.0
 10
-11584.938158872206
 20
4349.8050947711126
 30
0.0
 41
1.0
 10
-11584.905752670395
 20
4349.8010464141926
 30
0.0
 41
1.0
 10
-11584.761021719922
 20
4349.7829658459041
 30
0.0
 41
0.999349506324995
 10
-11584.617970476154
 20
4349.7545001361623
 30
0.0
 41
1.0
 10
-11584.585036779006
 20
4349.7479466729483
 30
0.0
 41
1.0
 10
-11584.552103081858
 20
4349.7413932097343
 30
0.0
 41
1.0
 10
-11584.442809258635
 20
4349.7196448755931
 30
0.0
 41
0.9996788715564756
 10
-11584.334757686693
 20
4349.6923870762348
 30
0.0
 41
1.0
 10
-11584.332694684157
 20
4349.6918666496622
 30
0.0
 41
1.0
 10
-11584.330631681622
 20
4349.6913462230905
 30
0.0
 41
1.0
 10
-11584.226706114754
 20
4349.6651292768765
 30
0.0
 41
0.9995480654491863
 10
-11584.124543879507
 20
4349.632714320247
 30
0.0
 41
1.0
 10
-11584.122854237376
 20
4349.6321782153327
 30
0.0
 41
1.0
 10
-11584.121164595246
 20
4349.6316421104184
 30
0.0
 41
1.0
 10
-11584.022381644278
 20
4349.600299363623
 30
0.0
 41
0.9993867959455407
 10
-11583.926034485834
 20
4349.5621199943325
 30
0.0
 41
1.0
 10
-11583.924791536749
 20
4349.5616274524364
 30
0.0
 41
1.0
 10
-11583.923548587663
 20
4349.5611349105402
 30
0.0
 41
1.0
 10
-11583.829687327394
 20
4349.523940625043
 30
0.0
 41
0.9992050256527316
 10
-11583.739087652359
 20
4349.4793867258049
 30
0.0
 41
1.0
 10
-11583.738352969653
 20
4349.4790254333466
 30
0.0
 41
1.0
 10
-11583.737618286945
 20
4349.4786641408882
 30
0.0
 41
1.0
 10
-11583.648487977331
 20
4349.4348328265687
 30
0.0
 41
0.9990222350739664
 10
-11583.563577915931
 20
4349.3832995588673
 30
0.0
 41
1.0
 10
-11583.563394030651
 20
4349.3831879559639
 30
0.0
 41
1.0
 10
-11583.56321014537
 20
4349.3830763530605
 30
0.0
 41
1.0
 10
-11583.478667854539
 20
4349.3317662911695
 30
0.0
 41
0.9988642743808673
 10
-11583.39939331992
 20
4349.2726421036441
 30
0.0
 41
1.0
 10
-11583.320118785288
 20
4349.2135179161069
 30
0.0
 41
0.9987681233316729
 10
-11583.24709500101
 20
4349.1468272247048
 30
0.0
 41
1.0
 10
-11583.246766073051
 20
4349.146526823497
 30
0.0
 41
1.0
 10
-11583.246437145093
 20
4349.1462264222901
 30
0.0
 41
1.0
 10
-11583.172755504889
 20
4349.0789349284642
 30
0.0
 41
0.9987496570902121
 10
-11583.106161699558
 20
4349.0046221143739
 30
0.0
 41
1.0
 10
-11583.105389529797
 20
4349.0037604410154
 30
0.0
 41
1.0
 10
-11583.104617360037
 20
4349.0028987676578
 30
0.0
 41
1.0
 10
-11583.036479215187
 20
4348.9268626068533
 30
0.0
 41
0.9988147669825341
 10
-11582.976056960966
 20
4348.8445616000163
 30
0.0
 41
1.0
 10
-11582.974937634888
 20
4348.8430369686621
 30
0.0
 41
1.0
 10
-11582.973818308808
 20
4348.8415123373079
 30
0.0
 41
1.0
 10
-11582.911157402426
 20
4348.7561620677579
 30
0.0
 41
0.9989452636214973
 10
-11582.856590489464
 20
4348.6654233785985
 30
0.0
 41
1.0
 10
-11582.85524176338
 20
4348.663180597574
 30
0.0
 41
1.0
 10
-11582.853893037296
 20
4348.6609378165504
 30
0.0
 41
1.0
 10
-11582.796628672164
 20
4348.5657135653437
 30
0.0
 41
0.9991046436068161
 10
-11582.747619458843
 20
4348.4659891323208
 30
0.0
 41
1.0
 10
-11582.746155597251
 20
4348.4630104522457
 30
0.0
 41
1.0
 10
-11582.744691735661
 20
4348.4600317721697
 30
0.0
 41
1.0
 10
-11582.69275479916
 20
4348.3543499790012
 30
0.0
 41
0.9992763831102214
 10
-11582.64900167061
 20
4348.2450259170582
 30
0.0
 41
1.0
 10
-11582.647522400945
 20
4348.241329729517
 30
0.0
 41
1.0
 10
-11582.646043131277
 20
4348.2376335419758
 30
0.0
 41
1.0
 10
-11582.599331463396
 20
4348.1209171049522
 30
0.0
 41
0.9994163472885318
 10
-11582.560698432204
 20
4348.0012835164807
 30
0.0
 41
1.0
 10
-11582.559460279961
 20
4347.9974493727095
 30
0.0
 41
1.0
 10
-11582.558222127718
 20
4347.9936152289383
 30
0.0
 41
1.0
 10
-11582.518338566697
 20
4347.8701091674529
 30
0.0
 41
0.9997268055889129
 10
-11582.484270510784
 20
4347.7448741354938
 30
0.0
 41
1.0
 10
-11582.483340330513
 20
4347.7414547693825
 30
0.0
 41
1.0
 10
-11582.482410150244
 20
4347.7380354032712
 30
0.0
 41
1.0
 10
-11582.450202454871
 20
4347.619639103541
 30
0.0
 41
0.9996701318999334
 10
-11582.424116838101
 20
4347.4997451502795
 30
0.0
 41
1.0
 10
-11582.398031221323
 20
4347.3798511969653
 30
0.0
 41
0.9995785451113071
 10
-11582.378947643972
 20
4347.2586454358816
 30
0.0
 41
1.0
 10
-11582.37472786181
 20
4347.2318442811829
 30
0.0
 41
1.0
 10
-11582.370508079646
 20
4347.2050431264834
 30
0.0
 41
1.0
 10
-11582.343933103704
 20
4347.0362571527658
 30
0.0
 41
0.99799251012146
 10
-11582.338907517778
 20
4346.8654658246596
 30
0.0
 41
1.0
 10
-11582.338082705355
 20
4346.8374351012071
 30
0.0
 41
1.0
 10
-11582.33725789293
 20
4346.8094043777546
 30
0.0
 41
1.0
 10
-11582.333881931851
 20
4346.6946744965981
 30
0.0
 41
0.9995314902261706
 10
-11582.337532123991
 20
4346.5799530128161
 30
0.0
 41
1.0
 10
-11582.341182316133
 20
4346.4652315290296
 30
0.0
 41
0.9996245486946759
 10
-11582.351111411266
 20
4346.3508822578706
 30
0.0
 41
1.0
 10
-11582.351274459257
 20
4346.3490045017697
 30
0.0
 41
1.0
 10
-11582.351437507248
 20
4346.3471267456698
 30
0.0
 41
1.0
 10
-11582.361692698365
 20
4346.2290219622928
 30
0.0
 41
0.9997286094999653
 10
-11582.377438021933
 20
4346.1115230534224
 30
0.0
 41
1.0
 10
-11582.377831514586
 20
4346.1085866286994
 30
0.0
 41
1.0
 10
-11582.37822500724
 20
4346.1056502039773
 30
0.0
 41
1.0
 10
-11582.394757316117
 20
4345.9822784456483
 30
0.0
 41
0.9998265533969325
 10
-11582.415872774855
 20
4345.8596079708295
 30
0.0
 41
1.0
 10
-11582.416549316986
 20
4345.8556775923525
 30
0.0
 41
1.0
 10
-11582.417225859119
 20
4345.8517472138756
 30
0.0
 41
1.0
 10
-11582.439694402132
 20
4345.7212159820483
 30
0.0
 41
0.9999022530853932
 10
-11582.465803866744
 20
4345.5913640133876
 30
0.0
 41
1.0
 10
-11582.466782507905
 20
4345.586496871023
 30
0.0
 41
1.0
 10
-11582.467761149066
 20
4345.5816297286583
 30
0.0
 41
1.0
 10
-11582.495827896006
 20
4345.4420434752537
 30
0.0
 41
0.9999524761937518
 10
-11582.526610864837
 20
4345.3030309820988
 30
0.0
 41
1.0
 10
-11582.527886972015
 20
4345.2972682227874
 30
0.0
 41
1.0
 10
-11582.529163079193
 20
4345.2915054634759
 30
0.0
 41
1.0
 10
-11582.562498262369
 20
4345.140967451749
 30
0.0
 41
0.9999813588731854
 10
-11582.597669263154
 20
4344.9908477391346
 30
0.0
 41
1.0
 10
-11582.599223188619
 20
4344.98421514867
 30
0.0
 41
1.0
 10
-11582.600777114087
 20
4344.9775825582064
 30
0.0
 41
1.0
 10
-11582.639055965819
 20
4344.8141976646039
 30
0.0
 41
0.999995523770402
 10
-11582.678311843842
 20
4344.6510447608271
 30
0.0
 41
1.0
 10
-11582.690593479445
 20
4344.60000057044
 30
0.0
 41
1.0
 10
-11582.702875115046
 20
4344.5489563800529
 30
0.0
 41
1.0
 10
-11582.766694264275
 20
4344.2837150954801
 30
0.0
 41
0.9999993604259327
 10
-11582.831113211476
 20
4344.0186188446614
 30
0.0
 41
1.0
 10
-11582.835832047016
 20
4343.9991999366484
 30
0.0
 41
1.0
 10
-11582.840550882556
 20
4343.9797810286364
 30
0.0
 41
1.0
 10
-11582.914407500786
 20
4343.6758469619963
 30
0.0
 41
0.9999659914728394
 10
-11582.993267096641
 20
4343.3731724155568
 30
0.0
 41
1.0
 10
-11582.998219785602
 20
4343.3541632782544
 30
0.0
 41
1.0
 10
-11583.003172474564
 20
4343.3351541409529
 30
0.0
 41
1.0
 10
-11583.091937448284
 20
4342.9944613201251
 30
0.0
 41
0.9999441976028491
 10
-11583.187880481228
 20
4342.655719894894
 30
0.0
 41
1.0
 10
-11583.204580999674
 20
4342.5967561822863
 30
0.0
 41
1.0
 10
-11583.221281518123
 20
4342.5377924696786
 30
0.0
 41
1.0
 10
-11583.350625587967
 20
4342.0811236192258
 30
0.0
 41
0.9999625120737514
 10
-11583.487858355315
 20
4341.6267630851571
 30
0.0
 41
1.0
 10
-11583.523648298407
 20
4341.5082670584943
 30
0.0
 41
1.0
 10
-11583.559438241502
 20
4341.3897710318315
 30
0.0
 41
1.0
 10
-11583.6339584455
 20
4341.1430439538735
 30
0.0
 41
0.9999793386317318
 10
-11583.711644468607
 20
4340.8972953147368
 30
0.0
 41
1.0
 10
-11583.789330491743
 20
4340.6515466755009
 30
0.0
 41
1.0
 10
-11583.800110050615
 20
4340.6175287711258
 30
0.0
 41
1.0
 10
-11585.650483103884
 20
4334.7304568486579
 30
0.0
 41
1.0
 10
-11587.500856157152
 20
4328.843384926191
 30
0.0
 41
1.0
 10
-11588.462112847177
 20
4328.843384926191
 30
0.0
 41
1.0
 10
-11589.4233695372
 20
4328.843384926191
 30
0.0
 41
1.0
 10
-11587.804424758522
 20
4333.9914134279807
 30
0.0
 41
1.0
 10
-11586.185479979844
 20
4339.1394419297694
 30
0.0
 41
1.0
 10
-11586.140314156619
 20
4339.283473152198
 30
0.0
 41
1.0
 10
-11586.095148333396
 20
4339.4275043746275
 30
0.0
 41
1.0
 10
-11585.924843916082
 20
4339.9705954036326
 30
0.0
 41
0.9999911657895979
 10
-11585.759111104451
 20
4340.5150989348349
 30
0.0
 41
1.0
 10
-11585.729415160928
 20
4340.6126628749607
 30
0.0
 41
1.0
 10
-11585.699719217404
 20
4340.7102268150875
 30
0.0
 41
1.0
 10
-11585.59337829275
 20
4341.0596024662718
 30
0.0
 41
0.9999952428129519
 10
-11585.489194703445
 20
4341.4096274905487
 30
0.0
 41
1.0
 10
-11585.484135233113
 20
4341.4266257648196
 30
0.0
 41
1.0
 10
-11585.479075762783
 20
4341.4436240390896
 30
0.0
 41
1.0
 10
-11585.38501111412
 20
4341.7596525149002
 30
0.0
 41
0.9999931687558556
 10
-11585.293285276248
 20
4342.0763677281684
 30
0.0
 41
1.0
 10
-11585.288350011786
 20
4342.0934084374512
 30
0.0
 41
1.0
 10
-11585.283414747322
 20
4342.1104491467349
 30
0.0
 41
1.0
 10
-11585.201559438377
 20
4342.3930829414257
 30
0.0
 41
0.9999893840789863
 10
-11585.122312211917
 20
4342.6764590706862
 30
0.0
 41
1.0
 10
-11585.043064985444
 20
4342.9598351999884
 30
0.0
 41
0.9999833980061926
 10
-11584.96708874469
 20
4343.2441057830656
 30
0.0
 41
1.0
 10
-11584.958084807971
 20
4343.2777946615333
 30
0.0
 41
1.0
 10
-11584.949080871253
 20
4343.3114835400002
 30
0.0
 41
1.0
 10
-11584.880116322394
 20
4343.5695193722649
 30
0.0
 41
0.9999233658064647
 10
-11584.817561351187
 20
4343.8291835309392
 30
0.0
 41
1.0
 10
-11584.755006379966
 20
4344.0888476896616
 30
0.0
 41
1.0
 10
-11584.715522961109
 20
4344.252654354088
 30
0.0
 41
1.0
 10
-11584.710544357145
 20
4344.2733093159022
 30
0.0
 41
1.0
 10
-11584.705565753182
 20
4344.2939642777155
 30
0.0
 41
1.0
 10
-11584.676039542264
 20
4344.4164610184598
 30
0.0
 41
0.9999868670858535
 10
-11584.647770458256
 20
4344.5392539641589
 30
0.0
 41
1.0
 10
-11584.643872971084
 20
4344.5561835516373
 30
0.0
 41
1.0
 10
-11584.639975483913
 20
4344.5731131391158
 30
0.0
 41
1.0
 10
-11584.619501374244
 20
4344.6620469098762
 30
0.0
 41
0.9999778173340647
 10
-11584.600213776144
 20
4344.7512455270353
 30
0.0
 41
1.0
 10
-11584.580926178038
 20
4344.8404441442226
 30
0.0
 41
0.9999602692859019
 10
-11584.563231819409
 20
4344.9299724326311
 30
0.0
 41
1.0
 10
-11584.560027987325
 20
4344.9461828875465
 30
0.0
 41
1.0
 10
-11584.556824155243
 20
4344.9623933424627
 30
0.0
 41
1.0
 10
-11584.532722132453
 20
4345.0843425406802
 30
0.0
 41
0.9995617985320326
 10
-11584.515878785232
 20
4345.2075042884017
 30
0.0
 41
1.0
 10
-11584.513414295328
 20
4345.2255251057504
 30
0.0
 41
1.0
 10
-11584.510949805424
 20
4345.2435459230983
 30
0.0
 41
1.0
 10
-11584.490666544378
 20
4345.391860972798
 30
0.0
 41
0.9991121410643312
 10
-11584.482941190789
 20
4345.5413570716055
 30
0.0
 41
1.0
 10
-11584.482022400764
 20
4345.5591369081794
 30
0.0
 41
1.0
 10
-11584.481103610739
 20
4345.5769167447543
 30
0.0
 41
1.0
 10
-11584.475215837199
 20
4345.6908531704103
 30
0.0
 41
0.9989792494905025
 10
-11584.479634929317
 20
4345.8048560063107
 30
0.0
 41
1.0
 10
-11584.480282901186
 20
4345.8215722522255
 30
0.0
 41
1.0
 10
-11584.480930873055
 20
4345.8382884981411
 30
0.0
 41
1.0
 10
-11584.484054021435
 20
4345.9188588421985
 30
0.0
 41
0.9997820295396072
 10
-11584.49053801881
 20
4345.9992285639528
 30
0.0
 41
1.0
 10
-11584.497022016187
 20
4346.0795982856944
 30
0.0
 41
0.9998335105974585
 10
-11584.506434211698
 20
4346.159677902142
 30
0.0
 41
1.0
 10
-11584.508029136374
 20
4346.173247632627
 30
0.0
 41
1.0
 10
-11584.509624061051
 20
4346.1868173631119
 30
0.0
 41
1.0
 10
-11584.522226105913
 20
4346.2940364405113
 30
0.0
 41
0.9996876457880396
 10
-11584.540170018709
 20
4346.4004918682176
 30
0.0
 41
1.0
 10
-11584.542401681858
 20
4346.4137316034748
 30
0.0
 41
1.0
 10
-11584.544633345005
 20
4346.4269713387321
 30
0.0
 41
1.0
 10
-11584.558429166425
 20
4346.5088174826888
 30
0.0
 41
0.9995547496492844
 10
-11584.577082488318
 20
4346.589694979878
 30
0.0
 41
1.0
 10
-11584.577456445186
 20
4346.5913163905716
 30
0.0
 41
1.0
 10
-11584.577830402055
 20
4346.5929378012661
 30
0.0
 41
1.0
 10
-11584.595735810206
 20
4346.6705724770536
 30
0.0
 41
0.9994899427175963
 10
-11584.618560718889
 20
4346.7469057599037
 30
0.0
 41
1.0
 10
-11584.619019245631
 20
4346.7484392096903
 30
0.0
 41
1.0
 10
-11584.61947777237
 20
4346.7499726594779
 30
0.0
 41
1.0
 10
-11584.641385627569
 20
4346.8232390427365
 30
0.0
 41
0.9993784877589085
 10
-11584.668401262676
 20
4346.8947797478977
 30
0.0
 41
1.0
 10
-11584.668932953653
 20
4346.8961877306165
 30
0.0
 41
1.0
 10
-11584.669464644629
 20
4346.8975957133352
 30
0.0
 41
1.0
 10
-11584.695416897783
 20
4346.9663204530561
 30
0.0
 41
0.9992430832259199
 10
-11584.726633432942
 20
4347.032819605125
 30
0.0
 41
1.0
 10
-11584.727215549006
 20
4347.0340596602609
 30
0.0
 41
1.0
 10
-11584.727797665071
 20
4347.0352997153968
 30
0.0
 41
1.0
 10
-11584.757849968111
 20
4347.0993187572167
 30
0.0
 41
0.9990789632793445
 10
-11584.793280594877
 20
4347.1605253689422
 30
0.0
 41
1.0
 10
-11584.793876301064
 20
4347.1615544548131
 30
0.0
 41
1.0
 10
-11584.794472007254
 20
4347.162583540683
 30
0.0
 41
1.0
 10
-11584.82871122166
 20
4347.2217319807023
 30
0.0
 41
0.9988874801122979
 10
-11584.868370497687
 20
4347.2773916931092
 30
0.0
 41
1.0
 10
-11584.868926023744
 20
4347.2781713447739
 30
0.0
 41
1.0
 10
-11584.869481549802
 20
4347.2789509964387
 30
0.0
 41
1.0
 10
-11584.908029773711
 20
4347.3330514055178
 30
0.0
 41
0.9986762060694249
 10
-11584.951932244994
 20
4347.3829051199664
 30
0.0
 41
1.0
 10
-11584.952376205327
 20
4347.3834092617835
 30
0.0
 41
1.0
 10
-11584.952820165659
 20
4347.3839134035998
 30
0.0
 41
1.0
 10
-11584.995834716274
 20
4347.4327588344086
 30
0.0
 41
0.9984621642487863
 10
-11585.043992273047
 20
4347.4765421348766
 30
0.0
 41
1.0
 10
-11585.044238907558
 20
4347.4767663670345
 30
0.0
 41
1.0
 10
-11585.044485542068
 20
4347.4769905991925
 30
0.0
 41
1.0
 10
-11585.092149829821
 20
4347.5203254353419
 30
0.0
 41
0.9982724693865106
 10
-11585.144568461668
 20
4347.5577697858662
 30
0.0
 41
1.0
 10
-11585.196987093505
 20
4347.5952141363796
 30
0.0
 41
0.9981399180166067
 10
-11585.253573156891
 20
4347.6260006558205
 30
0.0
 41
1.0
 10
-11585.253618818977
 20
4347.6260254989811
 30
0.0
 41
1.0
 10
-11585.253664481061
 20
4347.6260503421418
 30
0.0
 41
1.0
 10
-11585.310341868613
 20
4347.6568865479021
 30
0.0
 41
0.9980927086823238
 10
-11585.370387219671
 20
4347.6805033567498
 30
0.0
 41
1.0
 10
-11585.370827389386
 20
4347.6806764826251
 30
0.0
 41
1.0
 10
-11585.3712675591
 20
4347.6808496085014
 30
0.0
 41
1.0
 10
-11585.43219324959
 20
4347.7048126691043
 30
0.0
 41
0.9981411356561069
 10
-11585.495581770992
 20
4347.721185310611
 30
0.0
 41
1.0
 10
-11585.496463887692
 20
4347.7214131528162
 30
0.0
 41
1.0
 10
-11585.497346004391
 20
4347.7216409950206
 30
0.0
 41
1.0
 10
-11585.562498759205
 20
4347.7384693209387
 30
0.0
 41
0.9983031812938472
 10
-11585.629166188193
 20
4347.7476086821134
 30
0.0
 41
1.0
 10
-11585.638037213594
 20
4347.7488248007849
 30
0.0
 41
1.0
 10
-11585.646908238994
 20
4347.7500409194554
 30
0.0
 41
1.0
 10
-11585.701257881499
 20
4347.7574916494477
 30
0.0
 41
0.9983887708257223
 10
-11585.756101730793
 20
4347.7587363230805
 30
0.0
 41
1.0
 10
-11585.764165136028
 20
4347.7589193209551
 30
0.0
 41
1.0
 10
-11585.772228541262
 20
4347.7591023188306
 30
0.0
 41
1.0
 10
-11585.810945580135
 20
4347.7599809967151
 30
0.0
 41
0.9998869563074047
 10
-11585.849671533288
 20
4347.7596951273545
 30
0.0
 41
1.0
 10
-11585.888397486638
 20
4347.7594092579948
 30
0.0
 41
0.9999972320189502
 10
-11585.927121665613
 20
4347.7589411584668
 30
0.0
 41
1.0
 10
-11585.946474682238
 20
4347.7587072183769
 30
0.0
 41
1.0
 10
-11585.965827698863
 20
4347.7584732782871
 30
0.0
 41
1.0
 10
-11586.043257911253
 20
4347.7575372985793
 30
0.0
 41
0.9997304945085094
 10
-11586.120561217505
 20
4347.7530082047906
 30
0.0
 41
1.0
 10
-11586.129610859192
 20
4347.7524779988016
 30
0.0
 41
1.0
 10
-11586.138660500879
 20
4347.7519477928126
 30
0.0
 41
1.0
 10
-11586.234063090546
 20
4347.7463582870469
 30
0.0
 41
0.9997888306412767
 10
-11586.329155426365
 20
4347.736853322559
 30
0.0
 41
1.0
 10
-11586.337876487938
 20
4347.7359816079261
 30
0.0
 41
1.0
 10
-11586.346597549513
 20
4347.7351098932941
 30
0.0
 41
1.0
 10
-11586.459132008498
 20
4347.7238614995404
 30
0.0
 41
0.9984170238192687
 10
-11586.569691155843
 20
4347.7000454176068
 30
0.0
 41
1.0
 10
-11586.606072286835
 20
4347.692208381799
 30
0.0
 41
1.0
 10
-11586.642453417828
 20
4347.6843713459921
 30
0.0
 41
1.0
 10
-11586.757644486239
 20
4347.6595574794837
 30
0.0
 41
0.997659285420555
 10
-11586.868372652651
 20
4347.619258802335
 30
0.0
 41
1.0
 10
-11586.979100819057
 20
4347.5789601251872
 30
0.0
 41
0.9993255074354049
 10
-11587.086572617849
 20
4347.5306432266952
 30
0.0
 41
1.0
 10
-11587.091197796772
 20
4347.5285638504956
 30
0.0
 41
1.0
 10
-11587.095822975694
 20
4347.526484474296
 30
0.0
 41
1.0
 10
-11587.212545132337
 20
4347.4740088234021
 30
0.0
 41
0.9976475078271689
 10
-11587.320992476652
 20
4347.4060608337404
 30
0.0
 41
1.0
 10
-11587.33933487078
 20
4347.39456835493
 30
0.0
 41
1.0
 10
-11587.357677264907
 20
4347.3830758761205
 30
0.0
 41
1.0
 10
-11587.441879456461
 20
4347.330318755352
 30
0.0
 41
0.9995131336405143
 10
-11587.522627171422
 20
4347.2724125433951
 30
0.0
 41
1.0
 10
-11587.603374886381
 20
4347.214506331441
 30
0.0
 41
0.9995810107601129
 10
-11587.680636534111
 20
4347.1520246489717
 30
0.0
 41
1.0
 10
-11587.683606565319
 20
4347.1496227775096
 30
0.0
 41
1.0
 10
-11587.686576596527
 20
4347.1472209060466
 30
0.0
 41
1.0
 10
-11587.769778306674
 20
4347.0799354806541
 30
0.0
 41
0.9996617837951618
 10
-11587.84936899383
 20
4347.0084150250759
 30
0.0
 41
1.0
 10
-11587.861499744695
 20
4346.9975142920957
 30
0.0
 41
1.0
 10
-11587.87363049556
 20
4346.9866135591164
 30
0.0
 41
1.0
 10
-11587.941906022961
 20
4346.9252609436398
 30
0.0
 41
0.9997267750051603
 10
-11588.007239531247
 20
4346.8607844071121
 30
0.0
 41
1.0
 10
-11588.072573039461
 20
4346.7963078706562
 30
0.0
 41
0.9999667288962928
 10
-11588.136845982595
 20
4346.7307740637762
 30
0.0
 41
1.0
 10
-11588.205673430413
 20
4346.6605964049759
 30
0.0
 41
1.0
 10
-11588.274500878229
 20
4346.5904187461765
 30
0.0
 41
1.0
 10
-11588.476428716922
 20
4346.3845296217669
 30
0.0
 41
0.9988205335176549
 10
-11588.657434333893
 20
4346.1600253897186
 30
0.0
 41
1.0
 10
-11588.688074298803
 20
4346.1220221392814
 30
0.0
 41
1.0
 10
-11588.718714263714
 20
4346.0840188888451
 30
0.0
 41
1.0
 10
-11588.960999810499
 20
4345.7835081559288
 30
0.0
 41
0.9997077826754622
 10
-11589.188477761589
 20
4345.4716383617333
 30
0.0
 41
1.0
 10
-11589.190201176729
 20
4345.4692755783417
 30
0.0
 41
1.0
 10
-11589.191924591869
 20
4345.4669127949492
 30
0.0
 41
1.0
 10
-11589.422849373233
 20
4345.1503174339778
 30
0.0
 41
0.9989147567078006
 10
-11589.62331287612
 20
4344.8136079727856
 30
0.0
 41
1.0
 10
-11589.648054021451
 20
4344.772051392194
 30
0.0
 41
1.0
 10
-11589.67279516678
 20
4344.7304948116025
 30
0.0
 41
1.0
 10
-11589.828006465399
 20
4344.4697934271817
 30
0.0
 41
0.999747659818086
 10
-11589.971351452879
 20
4344.2023836786484
 30
0.0
 41
1.0
 10
-11590.114696440394
 20
4343.934973930056
 30
0.0
 41
0.999625896710946
 10
-11590.24320469233
 20
4343.6601259934214
 30
0.0
 41
1.0
 10
-11590.256404601769
 20
4343.631894593349
 30
0.0
 41
1.0
 10
-11590.269604511206
 20
4343.6036631932766
 30
0.0
 41
1.0
 10
-11590.409813232212
 20
4343.3037907953112
 30
0.0
 41
0.9998735413946188
 10
-11590.54041457894
 20
4342.9996111958299
 30
0.0
 41
1.0
 10
-11590.543857406978
 20
4342.991592610415
 30
0.0
 41
1.0
 10
-11590.547300235017
 20
4342.983574025001
 30
0.0
 41
1.0
 10
-11590.671015925645
 20
4342.6954315963985
 30
0.0
 41
0.999937741885947
 10
-11590.788270727835
 20
4342.4046001286879
 30
0.0
 41
1.0
 10
-11590.905525530012
 20
4342.1137686610073
 30
0.0
 41
0.9999508299508724
 10
-11591.016989473377
 20
4341.8206689842164
 30
0.0
 41
1.0
 10
-11591.020070242044
 20
4341.812567958239
 30
0.0
 41
1.0
 10
-11591.023151010711
 20
4341.8044669322626
 30
0.0
 41
1.0
 10
-11591.140776491366
 20
4341.4951652036425
 30
0.0
 41
0.9999609228430033
 10
-11591.252915094195
 20
4341.1838321877549
 30
0.0
 41
1.0
 10
-11591.255871104591
 20
4341.1756253472167
 30
0.0
 41
1.0
 10
-11591.258827114987
 20
4341.1674185066786
 30
0.0
 41
1.0
 10
-11591.376877738534
 20
4340.8396718099211
 30
0.0
 41
0.9999674607404646
 10
-11591.489625264567
 20
4340.5100631900359
 30
0.0
 41
1.0
 10
-11591.541023655158
 20
4340.3598039942572
 30
0.0
 41
1.0
 10
-11591.592422045751
 20
4340.2095447984775
 30
0.0
 41
1.0
 10
-11591.708432652511
 20
4339.8703968159671
 30
0.0
 41
0.9999287532306567
 10
-11591.816314056483
 20
4339.5285760769857
 30
0.0
 41
1.0
 10
-11591.862791312256
 20
4339.3813135337741
 30
0.0
 41
1.0
 10
-11591.90926856803
 20
4339.2340509905625
 30
0.0
 41
1.0
 10
-11591.924195460164
 20
4339.1867553389329
 30
0.0
 41
0.9999998223855138
 10
-11591.939065969185
 20
4339.1394419297694
 30
0.0
 41
1.0
 10
-11593.55972210598
 20
4333.9914134279807
 30
0.0
 41
1.0
 10
-11595.180378242776
 20
4328.843384926191
 30
0.0
 41
1.0
 10
-11596.085686686667
 20
4328.843384926191
 30
0.0
 41
1.0
 10
-11596.990995130558
 20
4328.843384926191
 30
0.0
 41
1.0
 10
-11595.138910719172
 20
4334.7304568486579
 30
0.0
 41
1.0
 10
-11593.286826307785
 20
4340.6175287711258
 30
0.0
 41
1.0
 10
-11593.276704549482
 20
4340.6495719845752
 30
0.0
 41
1.0
 10
-11593.204096880632
 20
4340.8798715264011
 30
0.0
 41
1.0
 10
-11593.131489211799
 20
4341.110171068176
 30
0.0
 41
0.999982568196504
 10
-11593.061606172601
 20
4341.3413119631905
 30
0.0
 41
1.0
 10
-11593.013315110406
 20
4341.5010365468006
 30
0.0
 41
1.0
 10
-11592.965024048211
 20
4341.6607611304107
 30
0.0
 41
1.0
 10
-11592.86787169492
 20
4341.9820963521042
 30
0.0
 41
0.9999672528961668
 10
-11592.775932889312
 20
4342.304961897642
 30
0.0
 41
1.0
 10
-11592.773144005634
 20
4342.3147557430639
 30
0.0
 41
1.0
 10
-11592.770355121955
 20
4342.3245495884858
 30
0.0
 41
1.0
 10
-11592.683994083678
 20
4342.6278274432625
 30
0.0
 41
0.9999899749141401
 10
-11592.600352474154
 20
4342.9318665316805
 30
0.0
 41
1.0
 10
-11592.590246555115
 20
4342.9686017694321
 30
0.0
 41
1.0
 10
-11592.580140636079
 20
4343.0053370071837
 30
0.0
 41
1.0
 10
-11592.5167108646
 20
4343.2359056201958
 30
0.0
 41
0.9999214200502347
 10
-11592.459081436242
 20
4343.4679919623422
 30
0.0
 41
1.0
 10
-11592.446315584024
 20
4343.5194028478854
 30
0.0
 41
1.0
 10
-11592.433549731808
 20
4343.5708137334286
 30
0.0
 41
1.0
 10
-11592.401452007827
 20
4343.7000783046979
 30
0.0
 41
0.9999828681660765
 10
-11592.370869755869
 20
4343.8297097790191
 30
0.0
 41
1.0
 10
-11592.340287503883
 20
4343.9593412534377
 30
0.0
 41
0.9999389844475287
 10
-11592.312576515104
 20
4344.0896167092897
 30
0.0
 41
1.0
 10
-11592.305438771373
 20
4344.1231728131752
 30
0.0
 41
1.0
 10
-11592.298301027642
 20
4344.1567289170616
 30
0.0
 41
1.0
 10
-11592.256314551403
 20
4344.3541165806828
 30
0.0
 41
0.999893369944049
 10
-11592.220110286991
 20
4344.5526461885011
 30
0.0
 41
1.0
 10
-11592.218737461784
 20
4344.5601742091449
 30
0.0
 41
1.0
 10
-11592.217364636577
 20
4344.5677022297887
 30
0.0
 41
1.0
 10
-11592.178414721744
 20
4344.7812878789264
 30
0.0
 41
0.9996850305194492
 10
-11592.150231045487
 20
4344.9965588843488
 30
0.0
 41
1.0
 10
-11592.148236012119
 20
4345.0117972384651
 30
0.0
 41
1.0
 10
-11592.146240978751
 20
4345.0270355925804
 30
0.0
 41
1.0
 10
-11592.118833116288
 20
4345.2363808197561
 30
0.0
 41
0.9994697936707885
 10
-11592.105108557067
 20
4345.4470660151055
 30
0.0
 41
1.0
 10
-11592.104631487817
 20
4345.4543894873214
 30
0.0
 41
1.0
 10
-11592.104154418566
 20
4345.4617129595372
 30
0.0
 41
1.0
 10
-11592.091383997848
 20
4345.6577512104413
 30
0.0
 41
0.9991804893136679
 10
-11592.094512314121
 20
4345.8541800604107
 30
0.0
 41
1.0
 10
-11592.094596192943
 20
4345.8594468618121
 30
0.0
 41
1.0
 10
-11592.094680071765
 20
4345.8647136632135
 30
0.0
 41
1.0
 10
-11592.097640630393
 20
4346.0506089103719
 30
0.0
 41
0.9988448329322534
 10
-11592.118432176016
 20
4346.2353615002176
 30
0.0
 41
1.0
 10
-11592.120026249719
 20
4346.2495263559867
 30
0.0
 41
1.0
 10
-11592.121620323422
 20
4346.263691211755
 30
0.0
 41
1.0
 10
-11592.139223721641
 20
4346.4201140900459
 30
0.0
 41
0.9985503209462386
 10
-11592.173539993939
 20
4346.573738274139
 30
0.0
 41
1.0
 10
-11592.181125986011
 20
4346.6076986015414
 30
0.0
 41
1.0
 10
-11592.188711978082
 20
4346.6416589289438
 30
0.0
 41
1.0
 10
-11592.207856266241
 20
4346.727362458234
 30
0.0
 41
0.9991036781373154
 10
-11592.234181127889
 20
4346.8111395455535
 30
0.0
 41
1.0
 10
-11592.238163353344
 20
4346.823812708064
 30
0.0
 41
1.0
 10
-11592.242145578801
 20
4346.8364858705736
 30
0.0
 41
1.0
 10
-11592.260505989541
 20
4346.8949166328784
 30
0.0
 41
0.9998874504368608
 10
-11592.28061119722
 20
4346.9527702351024
 30
0.0
 41
1.0
 10
-11592.300716404903
 20
4347.0106238373401
 30
0.0
 41
0.9994041637537307
 10
-11592.324765017845
 20
4347.066952541245
 30
0.0
 41
1.0
 10
-11592.328961802057
 20
4347.0767826057017
 30
0.0
 41
1.0
 10
-11592.333158586271
 20
4347.0866126701576
 30
0.0
 41
1.0
 10
-11592.361037417269
 20
4347.1519128361315
 30
0.0
 41
0.9991846840706857
 10
-11592.394093773968
 20
4347.2147508674261
 30
0.0
 41
1.0
 10
-11592.395230380356
 20
4347.2169114838662
 30
0.0
 41
1.0
 10
-11592.396366986743
 20
4347.2190721003062
 30
0.0
 41
1.0
 10
-11592.42715013065
 20
4347.2775888986862
 30
0.0
 41
0.9989253167927941
 10
-11592.463219554716
 20
4347.3330038270969
 30
0.0
 41
1.0
 10
-11592.46427367939
 20
4347.334623321859
 30
0.0
 41
1.0
 10
-11592.465327804064
 20
4347.3362428166211
 30
0.0
 41
1.0
 10
-11592.49928897877
 20
4347.3884187554822
 30
0.0
 41
0.9986467172849893
 10
-11592.538486131409
 20
4347.4367847891172
 30
0.0
 41
1.0
 10
-11592.539360260111
 20
4347.4378633913966
 30
0.0
 41
1.0
 10
-11592.540234388813
 20
4347.438941993677
 30
0.0
 41
1.0
 10
-11592.577683284049
 20
4347.4851508227521
 30
0.0
 41
0.9984001104263455
 10
-11592.620110014563
 20
4347.5268359301153
 30
0.0
 41
1.0
 10
-11592.620697152672
 20
4347.5274128049969
 30
0.0
 41
1.0
 10
-11592.621284290781
 20
4347.5279896798784
 30
0.0
 41
1.0
 10
-11592.66253674508
 20
4347.5685210374832
 30
0.0
 41
0.9982442159092937
 10
-11592.708292846415
 20
4347.603889598744
 30
0.0
 41
1.0
 10
-11592.708507641877
 20
4347.6040556313874
 30
0.0
 41
1.0
 10
-11592.708722437339
 20
4347.6042216640317
 30
0.0
 41
1.0
 10
-11592.754048947756
 20
4347.6392581600085
 30
0.0
 41
0.998245006083324
 10
-11592.803199926824
 20
4347.6686899430388
 30
0.0
 41
1.0
 10
-11592.8523509059
 20
4347.6981217260754
 30
0.0
 41
0.9983922639628793
 10
-11592.90451721206
 20
4347.7218013607262
 30
0.0
 41
1.0
 10
-11592.904744089385
 20
4347.7219043462073
 30
0.0
 41
1.0
 10
-11592.904970966709
 20
4347.7220073316885
 30
0.0
 41
1.0
 10
-11592.957591027518
 20
4347.7458929373024
 30
0.0
 41
0.9986517147158817
 10
-11593.012404000385
 20
4347.7641940564254
 30
0.0
 41
1.0
 10
-11593.013081921816
 20
4347.7644204028584
 30
0.0
 41
1.0
 10
-11593.013759843247
 20
4347.7646467492905
 30
0.0
 41
1.0
 10
-11593.069928658977
 20
4347.7834005612776
 30
0.0
 41
0.9989435598954198
 10
-11593.127582046118
 20
4347.7969182635088
 30
0.0
 41
1.0
 10
-11593.128662165702
 20
4347.7971715137628
 30
0.0
 41
1.0
 10
-11593.129742285284
 20
4347.7974247640159
 30
0.0
 41
1.0
 10
-11593.189555911598
 20
4347.8114489667569
 30
0.0
 41
0.9992249241238733
 10
-11593.250287420495
 20
4347.8207243094712
 30
0.0
 41
1.0
 10
-11593.251701108788
 20
4347.8209402178791
 30
0.0
 41
1.0
 10
-11593.25311479708
 20
4347.821156126287
 30
0.0
 41
1.0
 10
-11593.316673682562
 20
4347.8308632858179
 30
0.0
 41
0.9994396597834131
 10
-11593.380739619102
 20
4347.8362962081628
 30
0.0
 41
1.0
 10
-11593.399880286575
 20
4347.837919375881
 30
0.0
 41
1.0
 10
-11593.41902095405
 20
4347.8395425436001
 30
0.0
 41
1.0
 10
-11593.521368225543
 20
4347.8482218013824
 30
0.0
 41
0.9987693403126434
 10
-11593.624071849132
 20
4347.846718737931
 30
0.0
 41
1.0
 10
-11593.634326183357
 20
4347.8465686661566
 30
0.0
 41
1.0
 10
-11593.644580517581
 20
4347.8464185943822
 30
0.0
 41
1.0
 10
-11593.754136283771
 20
4347.844815250096
 30
0.0
 41
0.9989753644961625
 10
-11593.86309828378
 20
4347.8333122431704
 30
0.0
 41
1.0
 10
-11593.97206028381
 20
4347.8218092362422
 30
0.0
 41
0.9983190067306904
 10
-11594.078959094773
 20
4347.7977742444555
 30
0.0
 41
1.0
 10
-11594.087860046373
 20
4347.7957729658938
 30
0.0
 41
1.0
 10
-11594.096760997974
 20
4347.793771687333
 30
0.0
 41
1.0
 10
-11594.221461712154
 20
4347.7657341384202
 30
0.0
 41
0.998553938830463
 10
-11594.34243146583
 20
4347.7244704623754
 30
0.0
 41
1.0
 10
-11594.344776896791
 20
4347.7236704185598
 30
0.0
 41
1.0
 10
-11594.347122327752
 20
4347.7228703747433
 30
0.0
 41
1.0
 10
-11594.472782943345
 20
4347.6800066110691
 30
0.0
 41
0.9988468746491178
 10
-11594.593753285637
 20
4347.6252885260101
 30
0.0
 41
1.0
 10
-11594.596936107633
 20
4347.6238488514464
 30
0.0
 41
1.0
 10
-11594.600118929629
 20
4347.6224091768836
 30
0.0
 41
1.0
 10
-11594.727454915916
 20
4347.5648117426963
 30
0.0
 41
0.9991322885917749
 10
-11594.849555499963
 20
4347.4968164105185
 30
0.0
 41
1.0
 10
-11594.867157511006
 20
4347.4870142085292
 30
0.0
 41
1.0
 10
-11594.884759522049
 20
4347.4772120065409
 30
0.0
 41
1.0
 10
-11594.986936203106
 20
4347.4203118907599
 30
0.0
 41
0.9993860037850135
 10
-11595.08487720718
 20
4347.3563958751711
 30
0.0
 41
1.0
 10
-11595.090495520035
 20
4347.3527293804746
 30
0.0
 41
1.0
 10
-11595.096113832889
 20
4347.349062885778
 30
0.0
 41
1.0
 10
-11595.182818211259
 20
4347.2924798595814
 30
0.0
 41
0.9998821494951803
 10
-11595.267744587069
 20
4347.2332616295062
 30
0.0
 41
1.0
 10
-11595.352670962884
 20
4347.1740433994264
 30
0.0
 41
0.9997976482743604
 10
-11595.43514659329
 20
4347.1114569913825
 30
0.0
 41
1.0
 10
-11595.449782858093
 20
4347.1003503016054
 30
0.0
 41
1.0
 10
-11595.464419122894
 20
4347.0892436118274
 30
0.0
 41
1.0
 10
-11595.57616728291
 20
4347.0044438242248
 30
0.0
 41
0.9998091630798696
 10
-11595.684517560967
 20
4346.9153434734999
 30
0.0
 41
1.0
 10
-11595.697523313429
 20
4346.9046483730663
 30
0.0
 41
1.0
 10
-11595.710529065891
 20
4346.8939532726326
 30
0.0
 41
1.0
 10
-11595.844890848861
 20
4346.7834627210486
 30
0.0
 41
0.9995035112317969
 10
-11595.972026726613
 20
4346.6647289040448
 30
0.0
 41
1.0
 10
-11595.981674037012
 20
4346.655719157875
 30
0.0
 41
1.0
 10
-11595.991321347412
 20
4346.6467094117052
 30
0.0
 41
1.0
 10
-11596.114744410175
 20
4346.5314430399512
 30
0.0
 41
0.9994630424298403
 10
-11596.230352815959
 20
4346.4083402967171
 30
0.0
 41
1.0
 10
-11596.234035654739
 20
4346.4044187171949
 30
0.0
 41
1.0
 10
-11596.237718493519
 20
4346.4004971376726
 30
0.0
 41
1.0
 10
-11596.345961221752
 20
4346.2852375534721
 30
0.0
 41
0.9995160693748534
 10
-11596.446827251275
 20
4346.1634701356088
 30
0.0
 41
1.0
 10
-11596.448760971385
 20
4346.1611357113652
 30
0.0
 41
1.0
 10
-11596.450694691495
 20
4346.1588012871207
 30
0.0
 41
1.0
 10
-11596.547693280838
 20
4346.0417027176991
 30
0.0
 41
0.9996561470510962
 10
-11596.638419499472
 20
4345.9196799552874
 30
0.0
 41
1.0
 10
-11596.644577165371
 20
4345.9113981662504
 30
0.0
 41
1.0
 10
-11596.650734831268
 20
4345.9031163772133
 30
0.0
 41
1.0
 10
-11596.729145718135
 20
4345.7976571928439
 30
0.0
 41
0.9998349055172381
 10
-11596.803673000071
 20
4345.6894186091749
 30
0.0
 41
1.0
 10
-11596.878200281963
 20
4345.5811800255724
 30
0.0
 41
0.9999728109566685
 10
-11596.951123177871
 20
4345.471854100022
 30
0.0
 41
1.0
 10
-11596.952438393304
 20
4345.4698823304871
 30
0.0
 41
1.0
 10
-11596.953753608737
 20
4345.4679105609521
 30
0.0
 41
1.0
 10
-11597.029306935679
 20
4345.354641096078
 30
0.0
 41
0.9999972147425432
 10
-11597.104324746142
 20
4345.2410162531041
 30
0.0
 41
1.0
 10
-11597.109296288616
 20
4345.2334861648578
 30
0.0
 41
1.0
 10
-11597.11426783109
 20
4345.2259560766106
 30
0.0
 41
1.0
 10
-11597.199228726722
 20
4345.0972710568094
 30
0.0
 41
0.9999371979007057
 10
-11597.281284076138
 20
4344.9667141430145
 30
0.0
 41
1.0
 10
-11597.284792960487
 20
4344.9611312149682
 30
0.0
 41
1.0
 10
-11597.288301844837
 20
4344.9555482869218
 30
0.0
 41
1.0
 10
-11597.377374962985
 20
4344.8138255169824
 30
0.0
 41
0.9998272025610341
 10
-11597.461118353884
 20
4344.6688896402084
 30
0.0
 41
1.0
 10
-11597.47633352589
 20
4344.6425565257832
 30
0.0
 41
1.0
 10
-11597.491548697895
 20
4344.6162234113581
 30
0.0
 41
1.0
 10
-11597.605722432827
 20
4344.4186213056983
 30
0.0
 41
0.999521721483801
 10
-11597.707462122378
 20
4344.2143389778439
 30
0.0
 41
1.0
 10
-11597.715105685005
 20
4344.1989915281556
 30
0.0
 41
1.0
 10
-11597.722749247634
 20
4344.1836440784682
 30
0.0
 41
1.0
 10
-11597.809654540231
 20
4344.0091476203697
 30
0.0
 41
0.9998269762607727
 10
-11597.890009006513
 20
4343.8315393336288
 30
0.0
 41
1.0
 10
-11597.97036347279
 20
4343.6539310468934
 30
0.0
 41
0.9998944747387564
 10
-11598.04552426736
 20
4343.4740633212532
 30
0.0
 41
1.0
 10
-11598.050477936969
 20
4343.462208666293
 30
0.0
 41
1.0
 10
-11598.055431606577
 20
4343.4503540113328
 30
0.0
 41
1.0
 10
-11598.136078667107
 20
4343.2573570713685
 30
0.0
 41
0.9999506734412651
 10
-11598.212876195988
 20
4343.0627962665658
 30
0.0
 41
1.0
 10
-11598.227476161157
 20
4343.0258083450199
 30
0.0
 41
1.0
 10
-11598.242076126326
 20
4342.988820423474
 30
0.0
 41
1.0
 10
-11598.289673724792
 20
4342.8682354619632
 30
0.0
 41
0.9999912393952581
 10
-11598.336260168915
 20
4342.7472562590137
 30
0.0
 41
1.0
 10
-11598.382846612873
 20
4342.6262770564872
 30
0.0
 41
0.9999927113962018
 10
-11598.428507907203
 20
4342.5049456491561
 30
0.0
 41
1.0
 10
-11598.442476338665
 20
4342.4678286669878
 30
0.0
 41
1.0
 10
-11598.456444770127
 20
4342.4307116848186
 30
0.0
 41
1.0
 10
-11598.530042927327
 20
4342.2351463132945
 30
0.0
 41
0.999948755094771
 10
-11598.599666552305
 20
4342.0381309480899
 30
0.0
 41
1.0
 10
-11598.62326016224
 20
4341.9713676378051
 30
0.0
 41
1.0
 10
-11598.646853772174
 20
4341.9046043275212
 30
0.0
 41
1.0
 10
-11598.741539406537
 20
4341.6366704927113
 30
0.0
 41
0.9999808436948632
 10
-11598.832900995174
 20
4341.3675850614618
 30
0.0
 41
1.0
 10
-11598.924262583809
 20
4341.0984996302168
 30
0.0
 41
0.9999873932898332
 10
-11599.012917292503
 20
4340.828510275277
 30
0.0
 41
1.0
 10
-11599.033009649389
 20
4340.7673209424775
 30
0.0
 41
1.0
 10
-11599.053102006274
 20
4340.706131609677
 30
0.0
 41
1.0
 10
-11599.181941428755
 20
4340.3137635890816
 30
0.0
 41
0.9999794883035941
 10
-11599.305744213738
 20
4339.9197773827218
 30
0.0
 41
1.0
 10
-11599.316896473201
 20
4339.8842867724006
 30
0.0
 41
1.0
 10
-11599.328048732665
 20
4339.8487961620795
 30
0.0
 41
1.0
 10
-11599.470606896481
 20
4339.395123410246
 30
0.0
 41
0.999998276182722
 10
-11599.611479336474
 20
4338.9409243881973
 30
0.0
 41
1.0
 10
-11601.199619669047
 20
4333.8921546571946
 30
0.0
 41
1.0
 10
-11602.78776000162
 20
4328.843384926191
 30
0.0
 41
1.0
 10
-11603.736510613096
 20
4328.843384926191
 30
0.0
 41
1.0
 10
-11604.685261224573
 20
4328.843384926191
 30
0.0
 41
1.0
 10
-11601.44697673842
 20
4339.1707071261371
 30
0.0
 41
1.0
 10
-11598.208692252267
 20
4349.4980293260833
 30
0.0
 41
1.0
  0
LWPOLYLINE
  5
58
100
AcDbEntity
  8
0
370
              15
390
0
  6
Continuous
 62
               7
100
AcDbPolyline
 90
      232
 70
             128
 10
-11623.912238026094
 20
4348.4136864945676
 42
0.0004370800792134
 10
-11623.965115200996
 20
4348.3450198542332
 10
-11624.004399431293
 20
4348.2939127424152
 42
0.003048199220802
 10
-11624.134738148423
 20
4348.1221910500544
 10
-11624.173249820162
 20
4348.0708042662827
 42
0.0042058245732239
 10
-11624.377234870841
 20
4347.7937985211984
 10
-11624.429639993334
 20
4347.7213656744279
 42
0.0120948898764506
 10
-11624.72568391009
 20
4347.2906160698849
 10
-11624.821876409205
 20
4347.1431353346698
 42
0.0141601263957979
 10
-11625.125520456138
 20
4346.6474659979185
 10
-11625.165057723603
 20
4346.578622030419
 42
0.007113108133426
 10
-11625.370330046802
 20
4346.2091192316493
 42
0.0068458791009388
 10
-11625.565209573662
 20
4345.8340276681392
 10
-11625.572021436103
 20
4345.8204659544499
 42
0.0064120880291409
 10
-11625.770163686146
 20
4345.4130414795327
 10
-11625.777698371665
 20
4345.397029622809
 42
0.0058857236467314
 10
-11625.98045376349
 20
4344.9526535118785
 10
-11625.988628689831
 20
4344.9341633581407
 42
0.0053189741877434
 10
-11626.197333002525
 20
4344.448199884162
 10
-11626.206080808181
 20
4344.4272180060261
 42
0.0047503650414636
 10
-11626.422054534318
 20
4343.8950185728509
 10
-11626.431322782679
 20
4343.8715421967081
 42
0.0042071762179505
 10
-11626.655870166389
 20
4343.2884486026842
 10
-11626.665619568754
 20
4343.2624824277691
 42
0.0036680086506147
 10
-11626.900074212106
 20
4342.6238470431235
 10
-11626.910281991914
 20
4342.5953985088936
 42
0.0032573142643124
 10
-11627.15591427793
 20
4341.8965458490002
 10
-11627.224564798709
 20
4341.6970827651257
 42
0.0026133366656201
 10
-11627.573009997479
 20
4340.6672194814155
 10
-11627.636266785099
 20
4340.4769886456643
 42
0.0020592950733499
 10
-11627.850129853949
 20
4339.8248849934098
 10
-11627.853181645041
 20
4339.8154485052173
 42
0.0025609928524986
 10
-11628.055002146597
 20
4339.1803032826338
 10
-11628.057593513704
 20
4339.172000941754
 42
0.0031362356229101
 10
-11628.247084299401
 20
4338.5512380855134
 10
-11628.249215342335
 20
4338.5440967792811
 42
0.0037229918013068
 10
-11628.426015729254
 20
4337.935111477329
 10
-11628.427694318467
 20
4337.9291645871299
 42
0.0043077623719751
 10
-11628.591435120525
 20
4337.3293458553853
 42
0.0047654161819277
 10
-11628.744263843046
 20
4336.726659766472
 10
-11628.778728451882
 20
4336.585097989333
 42
0.0112969368442252
 10
-11628.974592810022
 20
4335.6934058287234
 10
-11629.002599199121
 20
4335.5505777826111
 42
0.0130056762579967
 10
-11629.203436442767
 20
4334.3636367109657
 10
-11629.22397619291
 20
4334.2195585975123
 42
0.0138721532146162
 10
-11629.327679197453
 20
4333.3127291116634
 10
-11629.346974685355
 20
4333.0892313898212
 42
0.0071254696994265
 10
-11629.380321331282
 20
4332.6260443808915
 10
-11629.385282305451
 20
4332.540040386225
 42
0.002888179920769
 10
-11629.400420598737
 20
4332.248298676488
 42
0.0060297297097775
 10
-11629.410352798508
 20
4331.9563497405061
 10
-11629.41141508018
 20
4331.907957368383
 42
0.0229523164193879
 10
-11629.403684052393
 20
4331.5852025221566
 10
-11629.399458278869
 20
4331.5247989880991
 42
0.0123673300702353
 10
-11629.380379632355
 20
4331.3236782629656
 42
0.0128577674445475
 10
-11629.351184241956
 20
4331.1237804130906
 10
-11629.344058368561
 20
4331.0824515984423
 42
0.0285717853795711
 10
-11629.279564366858
 20
4330.8043354471083
 10
-11629.265895843198
 20
4330.7576806776533
 42
0.0316283099164715
 10
-11629.150085263285
 20
4330.4386661758253
 10
-11629.147036571525
 20
4330.4316798034906
 42
0.0338984824252151
 10
-11628.99760486056
 20
4330.1441138393111
 10
-11628.995296131192
 20
4330.1403228100362
 42
0.0350228718356845
 10
-11628.812935840517
 20
4329.8832708253576
 10
-11628.812050588738
 20
4329.882191747588
 42
0.0347476747548973
 10
-11628.597625901504
 20
4329.6550067003736
 42
0.0331337701897011
 10
-11628.35438257577
 20
4329.4588780383046
 10
-11628.353282477241
 20
4329.4581053351239
 42
0.0305233319096361
 10
-11628.084737781663
 20
4329.2929771650297
 10
-11628.081507737166
 20
4329.2912531531692
 42
0.0273744481183272
 10
-11627.788954025586
 20
4329.1551150092764
 10
-11627.783849490454
 20
4329.1530714248092
 42
0.0240964406192963
 10
-11627.468372414802
 20
4329.0440876985267
 10
-11627.461789085599
 20
4329.0421629588536
 42
0.0209636179824189
 10
-11627.124388932951
 20
4328.9586948109218
 10
-11627.116756472496
 20
4328.9571428979198
 42
0.0181388704701259
 10
-11626.758434080499
 20
4328.8977268047056
 10
-11626.75015323212
 20
4328.8966606208887
 42
0.0156086547585685
 10
-11626.371965867935
 20
4328.8599244343131
 10
-11626.328770615599
 20
4328.8570859318334
 42
0.0137148329061495
 10
-11626.001097470307
 20
4328.8445656765816
 10
-11625.955161280361
 20
4328.8440712434667
 42
0.0051057823932782
 10
-11625.719015693789
 20
4328.843940989058
 42
0.0052256693322774
 10
-11625.482918410053
 20
4328.8486898135207
 10
-11625.412691626261
 20
4328.8508367795357
 42
0.0161507179028325
 10
-11625.036954548139
 20
4328.8744871498639
 10
-11625.016941587786
 20
4328.8763973451496
 42
0.0101216737849975
 10
-11624.602914366278
 20
4328.9243902755179
 10
-11624.568861076867
 20
4328.9290379723252
 42
0.0245291776381742
 10
-11624.092071421321
 20
4329.0181130504006
 10
-11624.007248105772
 20
4329.038308970752
 42
0.0143509212553196
 10
-11623.650617001853
 20
4329.1341136045266
 42
0.0156557857037389
 10
-11623.300400937133
 20
4329.2511248203427
 10
-11623.292899722632
 20
4329.2538949820992
 42
0.0170137333633314
 10
-11622.936303726949
 20
4329.3995525969704
 10
-11622.929199804543
 20
4329.4027404325334
 42
0.0183105364384161
 10
-11622.569850136384
 20
4329.5800754743541
 10
-11622.562903371738
 20
4329.5838259092307
 42
0.0194899958142786
 10
-11622.204422630786
 20
4329.7958048911005
 10
-11622.197408751417
 20
4329.8003302334164
 42
0.0204869852980741
 10
-11621.843394449295
 20
4330.0498502485234
 10
-11621.836128840736
 20
4330.0554303138506
 42
0.0212516938552907
 10
-11621.490138909619
 20
4330.3453343107512
 10
-11621.443622215533
 20
4330.3878016208546
 42
0.021524891826521
 10
-11621.183596046663
 20
4330.6465658998331
 10
-11621.138566312282
 20
4330.6954100211851
 42
0.0114578554931763
 10
-11620.983774158605
 20
4330.8712329546415
 10
-11620.972579622508
 20
4330.8845517183181
 42
0.0061531305203779
 10
-11620.846104976625
 20
4331.0388412514922
 42
0.0006325587140703
 10
-11620.721726492035
 20
4331.1948446277202
 10
-11620.698686357422
 20
4331.2238181478278
 42
0.0041897761524526
 10
-11620.530230953531
 20
4331.4393375237851
 10
-11620.471768833559
 20
4331.5154388708743
 42
0.0092993880055085
 10
-11620.19515690636
 20
4331.8897176347209
 10
-11620.112762413106
 20
4332.0056546383685
 42
0.0159321727085703
 10
-11619.766155930492
 20
4332.5278288590825
 10
-11619.721799795125
 20
4332.5995084232973
 42
0.0085547317024831
 10
-11619.487288029777
 20
4332.9933833725572
 42
0.008460115689608
 10
-11619.266311852343
 20
4333.3950102215758
 10
-11619.258196378505
 20
4333.4103699038624
 42
0.0081429654281446
 10
-11619.034947108061
 20
4333.8500914164169
 10
-11619.026086943883
 20
4333.8682702584229
 42
0.0076574581328859
 10
-11618.799679433308
 20
4334.351453133695
 10
-11618.790199792593
 20
4334.3725176119788
 42
0.0070682724202721
 10
-11618.55975488478
 20
4334.9045549167731
 10
-11618.549764600804
 20
4334.9285441057718
 42
0.0064559514454853
 10
-11618.314431392613
 20
4335.5148563723169
 10
-11618.304022034457
 20
4335.5417912977337
 42
0.0058311413909826
 10
-11618.062975297669
 20
4336.1878233921861
 10
-11618.052220220306
 20
4336.2177077332772
 42
0.0052312425803337
 10
-11617.804638942318
 20
4336.9289101469594
 10
-11617.793595105886
 20
4336.9617368591807
 42
0.0046680544769964
 10
-11617.538666678225
 20
4337.7435631747039
 10
-11617.49667452814
 20
4337.8765464121279
 42
0.0041666856443025
 10
-11617.293388515714
 20
4338.5395151872335
 10
-11617.255726074854
 20
4338.6660962955457
 42
0.0015170975185953
 10
-11617.134539496637
 20
4339.0779646463816
 42
-0.0004887993127107
 10
-11617.014199723737
 20
4339.4900830576653
 10
-11616.93772246602
 20
4339.7510404443638
 42
0.0002583378928656
 10
-11616.664507896441
 20
4340.6850971458789
 10
-11616.582735046843
 20
4340.965196405532
 42
0.0006636169645907
 10
-11616.388867286367
 20
4341.632549330714
 10
-11616.383770631875
 20
4341.6501809140937
 42
0.001058913133971
 10
-11616.202321931103
 20
4342.2829122566418
 10
-11616.197339860724
 20
4342.3004251633074
 42
0.001565552444535
 10
-11616.029069653439
 20
4342.899041842863
 10
-11616.024239453063
 20
4342.9164340016578
 42
0.0021640440458753
 10
-11615.869949481039
 20
4343.4814610198173
 10
-11615.865315261677
 20
4343.4987257495559
 42
0.0028763871844379
 10
-11615.725799543556
 20
4344.030693700658
 10
-11615.72141367933
 20
4344.0478176790393
 42
0.0037310511945249
 10
-11615.597456987551
 20
4344.5472652728367
 10
-11615.593381767283
 20
4344.5642255439952
 42
0.0047652197758139
 10
-11615.485757866754
 20
4345.0317033123865
 10
-11615.482067267447
 20
4345.0484628674603
 42
0.0060276699283947
 10
-11615.391537168278
 20
4345.4845386626812
 10
-11615.388318477986
 20
4345.5010398770009
 42
0.0075824337750702
 10
-11615.315629168574
 20
4345.9063070414168
 10
-11615.312983791177
 20
4345.9224619889719
 42
0.0095130624656338
 10
-11615.25886855556
 20
4346.2975513419387
 10
-11615.25188233168
 20
4346.3534849000325
 42
0.0121054653188556
 10
-11615.225291001101
 20
4346.6183807285288
 10
-11615.224424511343
 20
4346.6297841714422
 42
0.0069050827391867
 10
-11615.209335693304
 20
4346.8727253983034
 10
-11615.208200393634
 20
4346.8962516553902
 42
0.0169063976762673
 10
-11615.205373114655
 20
4347.092444382648
 10
-11615.206543766189
 20
4347.1527801441471
 42
0.0052007732874686
 10
-11615.208797214778
 20
4347.2283735341498
 42
0.0054038123257286
 10
-11615.228760726615
 20
4347.3483918301527
 10
-11615.233846582487
 20
4347.3770503167407
 42
0.0112050460435836
 10
-11615.269230944554
 20
4347.5533767551169
 10
-11615.287055906587
 20
4347.6329183418002
 42
0.0240764467993065
 10
-11615.377953272728
 20
4347.9631553772861
 10
-11615.396512035544
 20
4348.0197755422878
 42
0.0256812331821592
 10
-11615.539874955735
 20
4348.3914997485526
 10
-11615.54528438156
 20
4348.40363108355
 42
0.0268360501212116
 10
-11615.714711622408
 20
4348.7346242175636
 10
-11615.72024803004
 20
4348.7441438878714
 42
0.0274670231726091
 10
-11615.912449006457
 20
4349.0364312627935
 10
-11615.917830306413
 20
4349.0437104103248
 42
0.0275035967126616
 10
-11616.12940318598
 20
4349.2992263006381
 10
-11616.134472686943
 20
4349.3047053882656
 42
0.0269557673517461
 10
-11616.361876230389
 20
4349.5253476742309
 10
-11616.366619288161
 20
4349.5294776286828
 42
0.025912480223053
 10
-11616.606174119601
 20
4349.7171681558448
 10
-11616.610704964791
 20
4349.7203536581801
 42
0.0245162153000551
 10
-11616.858621317877
 20
4349.8770866672849
 10
-11616.863147864191
 20
4349.8796468644796
 42
0.0229282588832646
 10
-11617.115567421028
 20
4350.0075150569846
 10
-11617.12034791487
 20
4350.0096673567496
 42
0.0212984135652701
 10
-11617.373385867326
 20
4350.1108662739889
 10
-11617.378690152296
 20
4350.1127298367492
 42
0.0197555462391187
 10
-11617.62846849002
 20
4350.1895452547142
 42
0.0183511896792694
 10
-11617.883397215488
 20
4350.2471281616808
 10
-11617.969762412209
 20
4350.2633309520652
 42
0.0338057877205058
 10
-11618.255269761466
 20
4350.2971393572043
 10
-11618.346275166501
 20
4350.3017190124656
 42
0.0091990524537364
 10
-11618.452122275143
 20
4350.3050948683886
 42
0.0028333980692892
 10
-11618.558036191107
 20
4350.3059229759056
 10
-11618.558951644183
 20
4350.3059249457292
 42
-0.0023619827725719
 10
-11618.666697659317
 20
4350.3066657868076
 10
-11618.703102829466
 20
4350.3070880932701
 42
0.0008824598505506
 10
-11618.883658819363
 20
4350.3088638715089
 10
-11618.92752025172
 20
4350.3092178330344
 42
0.0038132665734098
 10
-11619.195803147632
 20
4350.3093367691008
 10
-11619.212336802393
 20
4350.3092180029571
 42
0.0060665569349067
 10
-11619.513617293997
 20
4350.3033977035366
 10
-11619.527867626011
 20
4350.3029493955692
 42
0.0080356953312062
 10
-11619.857326342351
 20
4350.2872816735016
 10
-11619.869396357437
 20
4350.2865130905611
 42
0.0098996399122087
 10
-11620.222159442053
 20
4350.2570278613666
 10
-11620.232205151464
 20
4350.255987565165
 42
0.0117740981389516
 10
-11620.603362009831
 20
4350.2086953176322
 10
-11620.611584706294
 20
4350.2074502010646
 42
0.0137435215169949
 10
-11620.996173525762
 20
4350.1383532275067
 10
-11621.002830564903
 20
4350.1369673312693
 42
0.0158359869426775
 10
-11621.395827658713
 20
4350.0420752427863
 10
-11621.401240845571
 20
4350.0405853019183
 42
0.0180554124004118
 10
-11621.797555890171
 20
4349.9159472856836
 10
-11621.802112678268
 20
4349.9143312494125
 42
0.0203657431282105
 10
-11622.196590196079
 20
4349.7560709078962
 10
-11622.200733735086
 20
4349.7542092864551
 42
0.022681968465463
 10
-11622.588169791296
 20
4349.5585667077803
 10
-11622.592369582308
 20
4349.5562011158645
 42
0.0248634984601538
 10
-11622.967551523483
 20
4349.3195744699233
 10
-11623.015746452274
 20
4349.2857174280925
 42
0.0267044190905101
 10
-11623.290039149189
 20
4349.0702770522239
 42
0.0139303002182486
 10
-11623.546206315146
 20
4348.8330382112954
 10
-11623.551059700851
 20
4348.8282855484513
 42
0.0283460963441416
 10
-11623.79513229509
 20
4348.5605548879921
 10
-11623.834800800234
 20
4348.5117533105331
 42
0.0070695364789215
 10
-11623.912238026094
 20
4348.4136864945676
 42
0.0070695364789215
  0
LWPOLYLINE
  5
59
100
AcDbEntity
  8
0
370
              15
390
0
  6
Continuous
 62
               7
100
AcDbPolyline
 90
      226
 70
             128
 10
-11627.441058463341
 20
4332.6920976883839
 42
-0.0026277636903632
 10
-11627.441136347141
 20
4332.7588696137036
 10
-11627.440918988908
 20
4332.8120248315699
 42
-0.0088680296851269
 10
-11627.437142372621
 20
4332.9850406137975
 10
-11627.434796013502
 20
4333.0443206394266
 42
-0.0077381705634026
 10
-11627.418749902745
 20
4333.3355811351657
 10
-11627.417881991567
 20
4333.3478693689103
 42
-0.0068872530544864
 10
-11627.391249911825
 20
4333.6630911209204
 10
-11627.390045687633
 20
4333.6753320999978
 42
-0.006213002149238
 10
-11627.352451970799
 20
4334.014201791274
 10
-11627.350948067269
 20
4334.0263756631521
 42
-0.0056726929650902
 10
-11627.30202620775
 20
4334.3885708853786
 10
-11627.300252762121
 20
4334.4006646855114
 42
-0.005234188451988
 10
-11627.239642175859
 20
4334.7858579410404
 10
-11627.237624187084
 20
4334.7978628710225
 42
-0.004976845018015
 10
-11627.164885505668
 20
4335.2057074384056
 10
-11627.140636490938
 20
4335.3342554214605
 42
-0.0089029805607248
 10
-11627.003555639139
 20
4335.9960308689033
 10
-11626.970810263825
 20
4336.1410622994063
 42
-0.0080318257098961
 10
-11626.741261649484
 20
4337.08677193126
 10
-11626.729276723036
 20
4337.13290256645
 42
-0.0074265721328805
 10
-11626.445265184206
 20
4338.1629671447572
 10
-11626.42538564106
 20
4338.2311012054461
 42
-0.0069711922705082
 10
-11626.098081062562
 20
4339.2973689457476
 10
-11626.038129115524
 20
4339.4833903039098
 42
-0.0052070422910297
 10
-11625.808703890198
 20
4340.1706623811497
 10
-11625.791422698101
 20
4340.2206896615462
 42
-0.000916700444809
 10
-11625.588330810737
 20
4340.8051455099212
 42
-0.0025162726922118
 10
-11625.381233180327
 20
4341.3881867744876
 10
-11625.344008568683
 20
4341.4913363199457
 42
-0.0028212681452614
 10
-11625.095832649706
 20
4342.1670669521609
 10
-11625.086001886923
 20
4342.1933743969257
 42
-0.0031964916807565
 10
-11624.849709629292
 20
4342.8135791589639
 10
-11624.840075175392
 20
4342.838389148852
 42
-0.0036281836449842
 10
-11624.614969214192
 20
4343.4058298300006
 10
-11624.605530803969
 20
4343.4291272616638
 42
-0.0041269166814252
 10
-11624.390913107374
 20
4343.946568157482
 10
-11624.358280150984
 20
4344.0234466037737
 42
-0.0047472213055614
 10
-11624.201235345401
 20
4344.3838680717254
 10
-11624.19434126409
 20
4344.3992886692849
 42
-0.0025651659966045
 10
-11624.045983230342
 20
4344.7266167248063
 42
-0.0057144634967857
 10
-11623.892233536535
 20
4345.0514263982386
 10
-11623.864202831168
 20
4345.1089347805619
 42
-0.0065388068398113
 10
-11623.680735803429
 20
4345.4731672772277
 10
-11623.672277347636
 20
4345.4894268566268
 42
-0.0074510843009017
 10
-11623.496095101773
 20
4345.8161151377199
 10
-11623.487915431295
 20
4345.8307559148943
 42
-0.0084648979872384
 10
-11623.318281578142
 20
4346.1226649259497
 10
-11623.310425451609
 20
4346.1356719176729
 42
-0.0095638542784583
 10
-11623.14659000406
 20
4346.3955607895796
 10
-11623.139115060381
 20
4346.4069301510472
 42
-0.0107191626824725
 10
-11622.98031348
 20
4346.6375413855794
 10
-11622.973296746251
 20
4346.6472774779677
 42
-0.0118458573906788
 10
-11622.818748647756
 20
4346.8513496732539
 42
-0.012918451819043
 10
-11622.654296024166
 20
4347.0475101894126
 10
-11622.624151251797
 20
4347.0816362683181
 42
-0.0217742579682663
 10
-11622.447538929457
 20
4347.2648430385743
 10
-11622.436793384937
 20
4347.2750598718339
 42
-0.009726656861777
 10
-11622.27073576614
 20
4347.4269074462154
 42
-0.0187720905771088
 10
-11622.096388190264
 20
4347.5689762995944
 10
-11622.065682199569
 20
4347.5921353820077
 42
-0.017942820748261
 10
-11621.83326147958
 20
4347.7546875591124
 10
-11621.829609152679
 20
4347.7570514939907
 42
-0.0170047877755102
 10
-11621.593845515134
 20
4347.8985120081506
 10
-11621.590062526398
 20
4347.9006103131796
 42
-0.0160190788402948
 10
-11621.353153978753
 20
4348.022261615175
 42
-0.0151102861452598
 10
-11621.109122196265
 20
4348.1289443912474
 10
-11621.056735694096
 20
4348.1499845241251
 42
-0.0271945441869058
 10
-11620.698073135036
 20
4348.2718493348311
 10
-11620.629008334545
 20
4348.291198876098
 42
-0.0237596594047024
 10
-11620.213211487524
 20
4348.3866495880784
 10
-11620.145148633785
 20
4348.3989042762068
 42
-0.021371544054663
 10
-11619.85927370235
 20
4348.4378513077154
 10
-11619.799126536127
 20
4348.4434410224167
 42
-0.0101465655882296
 10
-11619.631634004138
 20
4348.4555845656796
 10
-11619.622293617966
 20
4348.4560714806757
 42
-0.0100375910917027
 10
-11619.473139517377
 20
4348.4608472986019
 10
-11619.462880247693
 20
4348.4609697376163
 42
-0.0103625633468019
 10
-11619.334172253042
 20
4348.4598383040902
 10
-11619.311906601775
 20
4348.4591809456251
 42
-0.011568925037694
 10
-11619.227855864247
 20
4348.4547514393798
 42
-0.0072438037501347
 10
-11619.144017584824
 20
4348.4471622396322
 10
-11619.127217075336
 20
4348.4453956969064
 42
-0.0217917313184662
 10
-11619.01064731202
 20
4348.4279758041857
 10
-11618.945047221454
 20
4348.4152291957707
 42
-0.0332943556736119
 10
-11618.740655056426
 20
4348.3611889044641
 10
-11618.710482487877
 20
4348.3510208273465
 42
-0.0184824084839085
 10
-11618.571977431409
 20
4348.2985698119592
 42
-0.0198002050738096
 10
-11618.437903090908
 20
4348.2356857517589
 10
-11618.436016453534
 20
4348.2347079648807
 42
-0.0212242343033283
 10
-11618.30387751114
 20
4348.1589452260914
 10
-11618.302062215589
 20
4348.1577994238787
 42
-0.0226090605822895
 10
-11618.173558314365
 20
4348.0683197803137
 10
-11618.171713872631
 20
4348.0669075273272
 42
-0.023845705231115
 10
-11618.048531791359
 20
4347.9629116314845
 10
-11618.046579062779
 20
4347.9610967536983
 42
-0.0248160564051915
 10
-11617.930377555454
 20
4347.8418221524626
 10
-11617.928273922076
 20
4347.8394368187855
 42
-0.0254109591522883
 10
-11617.820668704206
 20
4347.7041484328156
 10
-11617.818420682295
 20
4347.7010068844202
 42
-0.0255528488197151
 10
-11617.720974003481
 20
4347.548979830156
 10
-11617.718642903583
 20
4347.5448982185781
 42
-0.0252146793232472
 10
-11617.632861877561
 20
4347.3753959725545
 10
-11617.630559638415
 20
4347.3702138906683
 42
-0.0244265635947649
 10
-11617.557904944655
 20
4347.1824673186329
 10
-11617.548658543183
 20
4347.1546019002817
 42
-0.0231319612853978
 10
-11617.502735764192
 20
4346.9913008534822
 42
-0.0112130424302611
 10
-11617.468099741653
 20
4346.8250972532824
 10
-11617.466897216542
 20
4346.8186006664055
 42
-0.0210527881275241
 10
-11617.441210741175
 20
4346.6375450209825
 10
-11617.437700146351
 20
4346.6021394724175
 42
-0.0190029892493889
 10
-11617.422258672806
 20
4346.3486036262093
 10
-11617.421448696361
 20
4346.3131280117759
 42
-0.0137974553645393
 10
-11617.422997549198
 20
4345.9880966050023
 10
-11617.42384300415
 20
4345.9619778605347
 42
-0.0081336634226072
 10
-11617.438702339376
 20
4345.6566303928503
 42
-0.00735269235612
 10
-11617.463010872756
 20
4345.351882148505
 10
-11617.464272296533
 20
4345.3385454739
 42
-0.0066886138681536
 10
-11617.500007882583
 20
4345.0079594303652
 10
-11617.501664972049
 20
4344.9943378114112
 42
-0.0061359187339942
 10
-11617.549515574094
 20
4344.6375738313491
 10
-11617.551553075173
 20
4344.623679028482
 42
-0.0056698610083681
 10
-11617.612203405946
 20
4344.2404004596074
 10
-11617.614608839263
 20
4344.2262413404133
 42
-0.005272107728317
 10
-11617.688741040049
 20
4343.816114000806
 10
-11617.691504188904
 20
4343.8016973653494
 42
-0.0049289272172715
 10
-11617.779798306989
 20
4343.3643888542983
 10
-11617.782910801687
 20
4343.3497200014108
 42
-0.0047415956701019
 10
-11617.886148793245
 20
4342.884923243887
 10
-11617.920917003579
 20
4342.7351161486167
 42
-0.0084404470927457
 10
-11618.110933447138
 20
4341.9748921241362
 10
-11618.117060135137
 20
4341.9520279999324
 42
-0.0039635940256837
 10
-11618.33851381945
 20
4341.1510391355823
 10
-11618.3518906146
 20
4341.1041075190933
 42
-0.0072475040827838
 10
-11618.619337502492
 20
4340.2148878026082
 10
-11618.689549829354
 20
4339.9931474525247
 42
-0.0051345458804839
 10
-11618.976309201349
 20
4339.1188222649198
 10
-11618.997835468186
 20
4339.055395997585
 42
-0.0019150016601671
 10
-11619.253368874983
 20
4338.3118468775638
 10
-11619.259836479361
 20
4338.2932594126914
 42
-0.0021524362742726
 10
-11619.508314530442
 20
4337.5889335909342
 10
-11619.517524951152
 20
4337.5631800125939
 42
-0.002433128682472
 10
-11619.753780210176
 20
4336.9125807045148
 10
-11619.762828162626
 20
4336.8880373984357
 42
-0.0027449721811151
 10
-11619.987442733562
 20
4336.2889075192361
 10
-11619.99633274109
 20
4336.2655849290304
 42
-0.0031083229741544
 10
-11620.209875227563
 20
4335.715660891804
 10
-11620.21861135926
 20
4335.6935711758952
 42
-0.0035311343282306
 10
-11620.421652544832
 20
4335.1905880502163
 10
-11620.430237883964
 20
4335.1697453267461
 42
-0.0040245640970723
 10
-11620.623349687772
 20
4334.7114360041141
 10
-11620.631785801319
 20
4334.6918566361719
 42
-0.0046015135841026
 10
-11620.81554209454
 20
4334.2759516063998
 10
-11620.823828272327
 20
4334.2576544670392
 42
-0.005276863830531
 10
-11620.998805791325
 20
4333.8818815826771
 10
-11621.006938002003
 20
4333.8648882440284
 42
-0.0060672675635339
 10
-11621.173717614718
 20
4333.5269726210199
 10
-11621.181687095232
 20
4333.5113073619605
 42
-0.0069904648892472
 10
-11621.340855489201
 20
4333.2089715553593
 10
-11621.348646888795
 20
4333.1946610061623
 42
-0.0080637022793958
 10
-11621.500798749157
 20
4332.9256257029783
 10
-11621.508387781727
 20
4332.9126978374825
 42
-0.0093006455684044
 10
-11621.65412845832
 20
4332.6746834388741
 10
-11621.661479125107
 20
4332.6631654696321
 42
-0.0107060778012274
 10
-11621.801427668503
 20
4332.4538951523227
 10
-11621.808489436802
 20
4332.4438096097283
 42
-0.0122723111437631
 10
-11621.943283154978
 20
4332.2610162802666
 10
-11621.943609378521
 20
4332.2605958924732
 42
-0.0141836319608857
 10
-11622.087190981507
 20
4332.0860261346279
 10
-11622.09413873718
 20
4332.0780511343382
 42
-0.0175957477163804
 10
-11622.234044905195
 20
4331.9284302459582
 42
-0.0080466359641471
 10
-11622.381508670273
 20
4331.7861077177604
 10
-11622.427543214741
 20
4331.7430872797158
 42
-0.0269600260375386
 10
-11622.680823460736
 20
4331.5307640211977
 10
-11622.747390597024
 20
4331.4808126065809
 42
-0.0178362839765297
 10
-11622.987335086676
 20
4331.3137946803308
 10
-11622.994580057675
 20
4331.3091261681275
 42
-0.0174650732630383
 10
-11623.230916255119
 20
4331.1682652031668
 42
-0.0169240130196514
 10
-11623.476382501005
 20
4331.0439729433756
 10
-11623.522368656533
 20
4331.0226109878222
 42
-0.0318883036878257
 10
-11623.872719512148
 20
4330.8862726783145
 10
-11623.941085047314
 20
4330.8645720578388
 42
-0.0284435909912611
 10
-11624.317135173609
 20
4330.7683546223616
 10
-11624.352293334112
 20
4330.7614610265327
 42
-0.02439093410362
 10
-11624.665736795028
 20
4330.7157399955031
 10
-11624.71601752178
 20
4330.7108944486035
 42
-0.0196639292916033
 10
-11624.931613099325
 20
4330.6986461630877
 10
-11624.983437170491
 20
4330.6977429023509
 42
-0.0100501510543919
 10
-11625.095860452155
 20
4330.6980433007047
 10
-11625.127520313601
 20
4330.6987643725924
 42
-0.0019752031287959
 10
-11625.176612650179
 20
4330.7000765327994
 10
-11625.179372953386
 20
4330.7001612246249
 42
0.0065378752164781
 10
-11625.222949528157
 20
4330.7009281158407
 42
-0.0167974694599104
 10
-11625.266480351092
 20
4330.7025880143665
 10
-11625.270559690351
 20
4330.7028810252614
 42
-0.0081283276417317
 10
-11625.322119488061
 20
4330.7074280188963
 10
-11625.333859061968
 20
4330.708655936478
 42
-0.01267034403189
 10
-11625.408577357748
 20
4330.7183907275466
 10
-11625.431365225439
 20
4330.7219489834642
 42
-0.0117852088498744
 10
-11625.550904211252
 20
4330.7435119786178
 10
-11625.606284663034
 20
4330.7548555188559
 42
-0.0251774592262329
 10
-11625.833128702039
 20
4330.8133535282877
 10
-11625.877847891899
 20
4330.8273203476265
 42
-0.0146525199919474
 10
-11626.06424087943
 20
4330.8915868748227
 42
-0.0166929435839911
 10
-11626.246218535545
 20
4330.967394007871
 10
-11626.25087516683
 20
4330.9695189084905
 42
-0.01916843584284
 10
-11626.436058798083
 20
4331.0627549922829
 10
-11626.439391383836
 20
4331.0645962398339
 42
-0.0221181781844566
 10
-11626.622701687736
 20
4331.1767297382039
 10
-11626.625051491748
 20
4331.1783140361968
 42
-0.0254984685358417
 10
-11626.801341642142
 20
4331.3107251861738
 10
-11626.823823789835
 20
4331.3294774951028
 42
-0.0292492648880642
 10
-11626.948592728677
 20
4331.4465702947455
 42
-0.0159048957519876
 10
-11627.062432726141
 20
4331.57459028636
 10
-11627.063751516707
 20
4331.5761718993645
 42
-0.034381337951207
 10
-11627.166388778342
 20
4331.7180432251453
 10
-11627.197880309704
 20
4331.7685466172434
 42
-0.0369117275682188
 10
-11627.283772811592
 20
4331.9320238581768
 42
-0.0191751379885322
 10
-11627.350966197158
 20
4332.1044284642094
 10
-11627.352729520908
 20
4332.1095218088576
 42
-0.0378178042206301
 10
-11627.402524239693
 20
4332.2984625849485
 10
-11627.408519535422
 20
4332.3310232031426
 42
-0.018484604651684
 10
-11627.429236734717
 20
4332.4727760236801
 42
-0.017986635129034
 10
-11627.439569739792
 20
4332.6156668367767
 10
-11627.439626182237
 20
4332.6172245233738
 42
-0.0085497186018336
 10
-11627.441058463341
 20
4332.6920976883839
 42
-0.0085497186018336
  0
ENDBLK
  5
5A
100
AcDbEntity
  8
template
390
0
100
AcDbBlockEnd
  0
BLOCK
  5
5B
100
AcDbEntity
  8
notes
390
0
100
AcDbBlockBegin
  2
*D3
 70
               1
 10
0.0
 20
0.0
 30
0.0
  3
*D3
  1

  0
LINE
  5
5C
100
AcDbEntity
  8
0
370
              -2
390
0
  6
Continuous
 62
               0
100
AcDbLine
 10
-663.6226623068651
 20
951.78733042680506
 30
0.0
 11
-663.6226623068651
 21
1082.7873304268051
 31
0.0
  0
LINE
  5
5D
100
AcDbEntity
  8
0
370
              -2
390
0
  6
Continuous
 62
               0
100
AcDbLine
 10
-263.62266230686691
 20
951.78733042680506
 30
0.0
 11
-263.62266230686691
 21
1082.7873304268051
 31
0.0
  0
LINE
  5
5E
100
AcDbEntity
  8
0
370
              -2
390
0
  6
Continuous
 62
               0
100
AcDbLine
 10
-663.6226623068651
 20
1082.7873304268051
 30
0.0
 11
-263.62266230686691
 21
1082.7873304268051
 31
0.0
  0
CIRCLE
  5
5F
102
{ACAD_REACTORS
330
60
102
}
100
AcDbEntity
  8
0
370
              -2
390
0
  6
Continuous
 62
               0
100
AcDbCircle
 10
-663.6226623068651
 20
1082.7873304268051
 30
0.0
 40
1.9998779296875
  0
HATCH
  5
60
100
AcDbEntity
  8
0
370
              -2
390
0
  6
Continuous
 62
               0
100
AcDbHatch
 10
0.0
 20
0.0
 30
0.0
210
0.0
220
0.0
230
1.0
  2
SOLID
 70
               1
 71
               1
 91
        1
 92
        1
 93
        1
 72
               2
 10
-663.6226623068651
 20
1082.7873304268051
 40
1.9998779296875
 50
0.0
 51
360.0
 73
               0
 97
        1
330
5F
 75
               0
 76
               1
 98
        1
 10
0.0
 20
0.0
  0
CIRCLE
  5
61
102
{ACAD_REACTORS
330
62
102
}
100
AcDbEntity
  8
0
370
              -2
390
0
  6
Continuous
 62
               0
100
AcDbCircle
 10
-263.62266230686691
 20
1082.7873304268051
 30
0.0
 40
1.9998779296875
  0
HATCH
  5
62
100
AcDbEntity
  8
0
370
              -2
390
0
  6
Continuous
 62
               0
100
AcDbHatch
 10
0.0
 20
0.0
 30
0.0
210
0.0
220
0.0
230
1.0
  2
SOLID
 70
               1
 71
               1
 91
        1
 92
        1
 93
        1
 72
               2
 10
-263.62266230686691
 20
1082.7873304268051
 40
1.9998779296875
 50
0.0
 51
360.0
 73
               0
 97
        1
330
61
 75
               0
 76
               1
 98
        1
 10
0.0
 20
0.0
  0
MTEXT
  5
63
100
AcDbEntity
  8
0
390
0
 62
               0
100
AcDbMText
 10
-487.43516398904285
 20
1116.6649476143048
 30
0.0
 40
24.432617187500004
 41
0.0
 71
               1
 72
               1
  1
400
  7
ＭＳ ゴシック
 73
               1
 44
0.7828267384257843
  0
POINT
  5
64
100
AcDbEntity
  8
Defpoints
370
               0
390
0
 62
               0
100
AcDbPoint
 10
-263.62266230686691
 20
926.78733042680506
 30
0.0
  0
POINT
  5
65
100
AcDbEntity
  8
Defpoints
370
               0
390
0
 62
               0
100
AcDbPoint
 10
-663.6226623068651
 20
926.78733042680506
 30
0.0
  0
POINT
  5
66
100
AcDbEntity
  8
Defpoints
370
               0
390
0
 62
               0
100
AcDbPoint
 10
-663.6226623068651
 20
1082.7873304268051
 30
0.0
  0
ENDBLK
  5
67
100
AcDbEntity
  8
notes
390
0
100
AcDbBlockEnd
  0
BLOCK
  5
68
100
AcDbEntity
  8
notes
390
0
100
AcDbBlockBegin
  2
*D4
 70
               1
 10
0.0
 20
0.0
 30
0.0
  3
*D4
  1

  0
LINE
  5
69
100
AcDbEntity
  8
0
370
              -2
390
0
  6
Continuous
 62
               0
100
AcDbLine
 10
-463.62266230686873
 20
887.06924777645963
 30
0.0
 11
-463.62266230686873
 21
1032.7873304268051
 31
0.0
  0
LINE
  5
6A
100
AcDbEntity
  8
0
370
              -2
390
0
  6
Continuous
 62
               0
100
AcDbLine
 10
-363.62266230686873
 20
884.56924777645963
 30
0.0
 11
-363.62266230686873
 21
1032.7873304268051
 31
0.0
  0
LINE
  5
6B
100
AcDbEntity
  8
0
370
              -2
390
0
  6
Continuous
 62
               0
100
AcDbLine
 10
-463.62266230686873
 20
1032.7873304268051
 30
0.0
 11
-363.62266230686873
 21
1032.7873304268051
 31
0.0
  0
CIRCLE
  5
6C
102
{ACAD_REACTORS
330
6D
102
}
100
AcDbEntity
  8
0
370
              -2
390
0
  6
Continuous
 62
               0
100
AcDbCircle
 10
-463.62266230686873
 20
1032.7873304268051
 30
0.0
 40
1.9998779296875
  0
HATCH
  5
6D
100
AcDbEntity
  8
0
370
              -2
390
0
  6
Continuous
 62
               0
100
AcDbHatch
 10
0.0
 20
0.0
 30
0.0
210
0.0
220
0.0
230
1.0
  2
SOLID
 70
               1
 71
               1
 91
        1
 92
        1
 93
        1
 72
               2
 10
-463.62266230686873
 20
1032.7873304268051
 40
1.9998779296875
 50
0.0
 51
360.0
 73
               0
 97
        1
330
6C
 75
               0
 76
               1
 98
        1
 10
0.0
 20
0.0
  0
CIRCLE
  5
6E
102
{ACAD_REACTORS
330
6F
102
}
100
AcDbEntity
  8
0
370
              -2
390
0
  6
Continuous
 62
               0
100
AcDbCircle
 10
-363.62266230686873
 20
1032.7873304268051
 30
0.0
 40
1.9998779296875
  0
HATCH
  5
6F
100
AcDbEntity
  8
0
370
              -2
390
0
  6
Continuous
 62
               0
100
AcDbHatch
 10
0.0
 20
0.0
 30
0.0
210
0.0
220
0.0
230
1.0
  2
SOLID
 70
               1
 71
               1
 91
        1
 92
        1
 93
        1
 72
               2
 10
-363.62266230686873
 20
1032.7873304268051
 40
1.9998779296875
 50
0.0
 51
360.0
 73
               0
 97
        1
330
6E
 75
               0
 76
               1
 98
        1
 10
0.0
 20
0.0
  0
MTEXT
  5
70
100
AcDbEntity
  8
0
390
0
 62
               0
100
AcDbMText
 10
-437.43516398904467
 20
1066.6649476143048
 30
0.0
 40
24.432617187500004
 41
0.0
 71
               1
 72
               1
  1
100
  7
ＭＳ ゴシック
 73
               1
 44
0.7828267384257843
  0
POINT
  5
71
100
AcDbEntity
  8
Defpoints
370
               0
390
0
 62
               0
100
AcDbPoint
 10
-363.62266230686873
 20
859.56924777645963
 30
0.0
  0
POINT
  5
72
100
AcDbEntity
  8
Defpoints
370
               0
390
0
 62
               0
100
AcDbPoint
 10
-463.62266230686873
 20
862.06924777645963
 30
0.0
  0
POINT
  5
73
100
AcDbEntity
  8
Defpoints
370
               0
390
0
 62
               0
100
AcDbPoint
 10
-463.62266230686873
 20
1032.7873304268051
 30
0.0
  0
ENDBLK
  5
74
100
AcDbEntity
  8
notes
390
0
100
AcDbBlockEnd
  0
BLOCK
  5
75
100
AcDbEntity
  8
notes
390
0
100
AcDbBlockBegin
  2
*D5
 70
               1
 10
0.0
 20
0.0
 30
0.0
  3
*D5
  1

  0
LINE
  5
76
100
AcDbEntity
  8
0
370
              -2
390
0
  6
Continuous
 62
               0
100
AcDbLine
 10
-463.62266230686873
 20
887.06924777645963
 30
0.0
 11
-463.62266230686873
 21
1032.7873304268051
 31
0.0
  0
LINE
  5
77
100
AcDbEntity
  8
0
370
              -2
390
0
  6
Continuous
 62
               0
100
AcDbLine
 10
-563.62266230686873
 20
884.56924777645963
 30
0.0
 11
-563.62266230686873
 21
1032.7873304268051
 31
0.0
  0
LINE
  5
78
100
AcDbEntity
  8
0
370
              -2
390
0
  6
Continuous
 62
               0
100
AcDbLine
 10
-463.62266230686873
 20
1032.7873304268051
 30
0.0
 11
-563.62266230686873
 21
1032.7873304268051
 31
0.0
  0
CIRCLE
  5
79
102
{ACAD_REACTORS
330
7A
102
}
100
AcDbEntity
  8
0
370
              -2
390
0
  6
Continuous
 62
               0
100
AcDbCircle
 10
-463.62266230686873
 20
1032.7873304268051
 30
0.0
 40
1.9998779296875
  0
HATCH
  5
7A
100
AcDbEntity
  8
0
370
              -2
390
0
  6
Continuous
 62
               0
100
AcDbHatch
 10
0.0
 20
0.0
 30
0.0
210
0.0
220
0.0
230
1.0
  2
SOLID
 70
               1
 71
               1
 91
        1
 92
        1
 93
        1
 72
               2
 10
-463.62266230686873
 20
1032.7873304268051
 40
1.9998779296875
 50
0.0
 51
360.0
 73
               0
 97
        1
330
79
 75
               0
 76
               1
 98
        1
 10
0.0
 20
0.0
  0
CIRCLE
  5
7B
102
{ACAD_REACTORS
330
7C
102
}
100
AcDbEntity
  8
0
370
              -2
390
0
  6
Continuous
 62
               0
100
AcDbCircle
 10
-563.62266230686873
 20
1032.7873304268051
 30
0.0
 40
1.9998779296875
  0
HATCH
  5
7C
100
AcDbEntity
  8
0
370
              -2
390
0
  6
Continuous
 62
               0
100
AcDbHatch
 10
0.0
 20
0.0
 30
0.0
210
0.0
220
0.0
230
1.0
  2
SOLID
 70
               1
 71
               1
 91
        1
 92
        1
 93
        1
 72
               2
 10
-563.62266230686873
 20
1032.7873304268051
 40
1.9998779296875
 50
0.0
 51
360.0
 73
               0
 97
        1
330
7B
 75
               0
 76
               1
 98
        1
 10
0.0
 20
0.0
  0
MTEXT
  5
7D
100
AcDbEntity
  8
0
390
0
 62
               0
100
AcDbMText
 10
-537.43516398904467
 20
1066.6649476143048
 30
0.0
 40
24.432617187500004
 41
0.0
 71
               1
 72
               1
  1
100
  7
ＭＳ ゴシック
 73
               1
 44
0.7828267384257843
  0
POINT
  5
7E
100
AcDbEntity
  8
Defpoints
370
               0
390
0
 62
               0
100
AcDbPoint
 10
-563.62266230686873
 20
859.56924777645963
 30
0.0
  0
POINT
  5
7F
100
AcDbEntity
  8
Defpoints
370
               0
390
0
 62
               0
100
AcDbPoint
 10
-463.62266230686873
 20
862.06924777645963
 30
0.0
  0
POINT
  5
80
100
AcDbEntity
  8
Defpoints
370
               0
390
0
 62
               0
100
AcDbPoint
 10
-463.62266230686873
 20
1032.7873304268051
 30
0.0
  0
ENDBLK
  5
81
100
AcDbEntity
  8
notes
390
0
100
AcDbBlockEnd
  0
BLOCK
  5
82
100
AcDbEntity
  8
notes
390
0
100
AcDbBlockBegin
  2
*D6
 70
               1
 10
0.0
 20
0.0
 30
0.0
  3
*D6
  1

  0
LINE
  5
83
100
AcDbEntity
  8
0
370
              -2
390
0
  6
Continuous
 62
               0
100
AcDbLine
 10
-682.62266230686873
 20
932.78733042680506
 30
0.0
 11
-763.62266230686873
 21
932.78733042680506
 31
0.0
  0
LINE
  5
84
100
AcDbEntity
  8
0
370
              -2
390
0
  6
Continuous
 62
               0
100
AcDbLine
 10
-682.62266230686873
 20
282.78733042680869
 30
0.0
 11
-763.62266230686873
 21
282.78733042680869
 31
0.0
  0
LINE
  5
85
100
AcDbEntity
  8
0
370
              -2
390
0
  6
Continuous
 62
               0
100
AcDbLine
 10
-763.62266230686873
 20
932.78733042680506
 30
0.0
 11
-763.62266230686873
 21
282.78733042680869
 31
0.0
  0
CIRCLE
  5
86
102
{ACAD_REACTORS
330
87
102
}
100
AcDbEntity
  8
0
370
              -2
390
0
  6
Continuous
 62
               0
100
AcDbCircle
 10
-763.62266230686873
 20
932.78733042680506
 30
0.0
 40
1.9998779296875
  0
HATCH
  5
87
100
AcDbEntity
  8
0
370
              -2
390
0
  6
Continuous
 62
               0
100
AcDbHatch
 10
0.0
 20
0.0
 30
0.0
210
0.0
220
0.0
230
1.0
  2
SOLID
 70
               1
 71
               1
 91
        1
 92
        1
 93
        1
 72
               2
 10
-763.62266230686873
 20
932.78733042680506
 40
1.9998779296875
 50
0.0
 51
360.0
 73
               0
 97
        1
330
86
 75
               0
 76
               1
 98
        1
 10
0.0
 20
0.0
  0
CIRCLE
  5
88
102
{ACAD_REACTORS
330
89
102
}
100
AcDbEntity
  8
0
370
              -2
390
0
  6
Continuous
 62
               0
100
AcDbCircle
 10
-763.62266230686873
 20
282.78733042680869
 30
0.0
 40
1.9998779296875
  0
HATCH
  5
89
100
AcDbEntity
  8
0
370
              -2
390
0
  6
Continuous
 62
               0
100
AcDbHatch
 10
0.0
 20
0.0
 30
0.0
210
0.0
220
0.0
230
1.0
  2
SOLID
 70
               1
 71
               1
 91
        1
 92
        1
 93
        1
 72
               2
 10
-763.62266230686873
 20
282.78733042680869
 40
1.9998779296875
 50
0.0
 51
360.0
 73
               0
 97
        1
330
88
 75
               0
 76
               1
 98
        1
 10
0.0
 20
0.0
  0
MTEXT
  5
8A
100
AcDbEntity
  8
0
390
0
 62
               0
100
AcDbMText
 10
-797.50027949436844
 20
583.97482874463094
 30
0.0
 40
24.432617187500004
 41
0.0
 71
               1
 72
               1
  1
650
  7
ＭＳ ゴシック
 11
0.0
 21
1.0
 31
0.0
 73
               1
 44
0.7828267384257843
  0
POINT
  5
8B
100
AcDbEntity
  8
Defpoints
370
               0
390
0
 62
               0
100
AcDbPoint
 10
-657.62266230686873
 20
282.78733042680869
 30
0.0
  0
POINT
  5
8C
100
AcDbEntity
  8
Defpoints
370
               0
390
0
 62
               0
100
AcDbPoint
 10
-657.62266230686873
 20
932.78733042680506
 30
0.0
  0
POINT
  5
8D
100
AcDbEntity
  8
Defpoints
370
               0
390
0
 62
               0
100
AcDbPoint
 10
-763.62266230686873
 20
932.78733042680506
 30
0.0
  0
ENDBLK
  5
8E
100
AcDbEntity
  8
notes
390
0
100
AcDbBlockEnd
  0
BLOCK
  5
8F
100
AcDbEntity
  8
notes
390
0
100
AcDbBlockBegin
  2
*D7
 70
               1
 10
0.0
 20
0.0
 30
0.0
  3
*D7
  1

  0
LINE
  5
90
100
AcDbEntity
  8
0
370
              -2
390
0
  6
Continuous
 62
               0
100
AcDbLine
 10
-528.63428103441947
 20
-403.13486745674891
 30
0.0
 11
-528.63428103441947
 21
-283.13486745674891
 31
0.0
  0
LINE
  5
91
100
AcDbEntity
  8
0
370
              -2
390
0
  6
Continuous
 62
               0
100
AcDbLine
 10
-398.63428103441947
 20
-403.13486745674891
 30
0.0
 11
-398.63428103441947
 21
-283.13486745674891
 31
0.0
  0
LINE
  5
92
100
AcDbEntity
  8
0
370
              -2
390
0
  6
Continuous
 62
               0
100
AcDbLine
 10
-528.63428103441947
 20
-283.13486745674891
 30
0.0
 11
-398.63428103441947
 21
-283.13486745674891
 31
0.0
  0
CIRCLE
  5
93
102
{ACAD_REACTORS
330
94
102
}
100
AcDbEntity
  8
0
370
              -2
390
0
  6
Continuous
 62
               0
100
AcDbCircle
 10
-528.63428103441947
 20
-283.13486745674891
 30
0.0
 40
1.9998779296875
  0
HATCH
  5
94
100
AcDbEntity
  8
0
370
              -2
390
0
  6
Continuous
 62
               0
100
AcDbHatch
 10
0.0
 20
0.0
 30
0.0
210
0.0
220
0.0
230
1.0
  2
SOLID
 70
               1
 71
               1
 91
        1
 92
        1
 93
        1
 72
               2
 10
-528.63428103441947
 20
-283.13486745674891
 40
1.9998779296875
 50
0.0
 51
360.0
 73
               0
 97
        1
330
93
 75
               0
 76
               1
 98
        1
 10
0.0
 20
0.0
  0
CIRCLE
  5
95
102
{ACAD_REACTORS
330
96
102
}
100
AcDbEntity
  8
0
370
              -2
390
0
  6
Continuous
 62
               0
100
AcDbCircle
 10
-398.63428103441947
 20
-283.13486745674891
 30
0.0
 40
1.9998779296875
  0
HATCH
  5
96
100
AcDbEntity
  8
0
370
              -2
390
0
  6
Continuous
 62
               0
100
AcDbHatch
 10
0.0
 20
0.0
 30
0.0
210
0.0
220
0.0
230
1.0
  2
SOLID
 70
               1
 71
               1
 91
        1
 92
        1
 93
        1
 72
               2
 10
-398.63428103441947
 20
-283.13486745674891
 40
1.9998779296875
 50
0.0
 51
360.0
 73
               0
 97
        1
330
95
 75
               0
 76
               1
 98
        1
 10
0.0
 20
0.0
  0
MTEXT
  5
97
100
AcDbEntity
  8
0
390
0
 62
               0
100
AcDbMText
 10
-487.44678271659541
 20
-249.2572502692492
 30
0.0
 40
24.432617187500004
 41
0.0
 71
               1
 72
               1
  1
130
  7
ＭＳ ゴシック
 73
               1
 44
0.7828267384257843
  0
POINT
  5
98
100
AcDbEntity
  8
Defpoints
370
               0
390
0
 62
               0
100
AcDbPoint
 10
-398.63428103441947
 20
-428.13486745674891
 30
0.0
  0
POINT
  5
99
100
AcDbEntity
  8
Defpoints
370
               0
390
0
 62
               0
100
AcDbPoint
 10
-528.63428103441947
 20
-428.13486745674891
 30
0.0
  0
POINT
  5
9A
100
AcDbEntity
  8
Defpoints
370
               0
390
0
 62
               0
100
AcDbPoint
 10
-528.63428103441947
 20
-283.13486745674891
 30
0.0
  0
ENDBLK
  5
9B
100
AcDbEntity
  8
notes
390
0
100
AcDbBlockEnd
  0
BLOCK
  5
9C
100
AcDbEntity
  8
notes
390
0
100
AcDbBlockBegin
  2
*D8
 70
               1
 10
0.0
 20
0.0
 30
0.0
  3
*D8
  1

  0
LINE
  5
9D
100
AcDbEntity
  8
0
370
              -2
390
0
  6
Continuous
 62
               0
100
AcDbLine
 10
-603.63428103441947
 20
-448.13486745674891
 30
0.0
 11
-763.62266230686873
 21
-448.13486745674891
 31
0.0
  0
LINE
  5
9E
100
AcDbEntity
  8
0
370
              -2
390
0
  6
Continuous
 62
               0
100
AcDbLine
 10
-683.62266230686873
 20
-383.134867456748
 30
0.0
 11
-763.62266230686873
 21
-383.134867456748
 31
0.0
  0
LINE
  5
9F
100
AcDbEntity
  8
0
370
              -2
390
0
  6
Continuous
 62
               0
100
AcDbLine
 10
-763.62266230686873
 20
-448.13486745674891
 30
0.0
 11
-763.62266230686873
 21
-383.134867456748
 31
0.0
  0
CIRCLE
  5
A0
102
{ACAD_REACTORS
330
A1
102
}
100
AcDbEntity
  8
0
370
              -2
390
0
  6
Continuous
 62
               0
100
AcDbCircle
 10
-763.62266230686873
 20
-448.13486745674891
 30
0.0
 40
1.9998779296875
  0
HATCH
  5
A1
100
AcDbEntity
  8
0
370
              -2
390
0
  6
Continuous
 62
               0
100
AcDbHatch
 10
0.0
 20
0.0
 30
0.0
210
0.0
220
0.0
230
1.0
  2
SOLID
 70
               1
 71
               1
 91
        1
 92
        1
 93
        1
 72
               2
 10
-763.62266230686873
 20
-448.13486745674891
 40
1.9998779296875
 50
0.0
 51
360.0
 73
               0
 97
        1
330
A0
 75
               0
 76
               1
 98
        1
 10
0.0
 20
0.0
  0
CIRCLE
  5
A2
102
{ACAD_REACTORS
330
A3
102
}
100
AcDbEntity
  8
0
370
              -2
390
0
  6
Continuous
 62
               0
100
AcDbCircle
 10
-763.62266230686873
 20
-383.134867456748
 30
0.0
 40
1.9998779296875
  0
HATCH
  5
A3
100
AcDbEntity
  8
0
370
              -2
390
0
  6
Continuous
 62
               0
100
AcDbHatch
 10
0.0
 20
0.0
 30
0.0
210
0.0
220
0.0
230
1.0
  2
SOLID
 70
               1
 71
               1
 91
        1
 92
        1
 93
        1
 72
               2
 10
-763.62266230686873
 20
-383.134867456748
 40
1.9998779296875
 50
0.0
 51
360.0
 73
               0
 97
        1
330
A2
 75
               0
 76
               1
 98
        1
 10
0.0
 20
0.0
  0
MTEXT
  5
A4
100
AcDbEntity
  8
0
390
0
 62
               0
100
AcDbMText
 10
-797.50027949436844
 20
-431.50986745674891
 30
0.0
 40
24.432617187500004
 41
0.0
 71
               1
 72
               1
  1
65
  7
ＭＳ ゴシック
 11
0.0
 21
1.0
 31
0.0
 73
               1
 44
0.7828267384257843
  0
POINT
  5
A5
100
AcDbEntity
  8
Defpoints
370
               0
390
0
 62
               0
100
AcDbPoint
 10
-658.62266230686873
 20
-383.134867456748
 30
0.0
  0
POINT
  5
A6
100
AcDbEntity
  8
Defpoints
370
               0
390
0
 62
               0
100
AcDbPoint
 10
-578.63428103441947
 20
-448.13486745674891
 30
0.0
  0
POINT
  5
A7
100
AcDbEntity
  8
Defpoints
370
               0
390
0
 62
               0
100
AcDbPoint
 10
-763.62266230686873
 20
-448.13486745674891
 30
0.0
  0
ENDBLK
  5
A8
100
AcDbEntity
  8
notes
390
0
100
AcDbBlockEnd
  0
BLOCK
  5
A9
100
AcDbEntity
  8
notes
390
0
100
AcDbBlockBegin
  2
*D9
 70
               1
 10
0.0
 20
0.0
 30
0.0
  3
*D9
  1

  0
LINE
  5
AA
100
AcDbEntity
  8
0
370
              -2
390
0
  6
Continuous
 62
               0
100
AcDbLine
 10
-243.62266230686873
 20
-383.134867456748
 30
0.0
 11
-163.62266230686873
 21
-383.134867456748
 31
0.0
  0
LINE
  5
AB
100
AcDbEntity
  8
0
370
              -2
390
0
  6
Continuous
 62
               0
100
AcDbLine
 10
-243.62266230686873
 20
-783.13486745675073
 30
0.0
 11
-163.62266230686873
 21
-783.13486745675073
 31
0.0
  0
LINE
  5
AC
100
AcDbEntity
  8
0
370
              -2
390
0
  6
Continuous
 62
               0
100
AcDbLine
 10
-163.62266230686873
 20
-383.134867456748
 30
0.0
 11
-163.62266230686873
 21
-783.13486745675073
 31
0.0
  0
CIRCLE
  5
AD
102
{ACAD_REACTORS
330
AE
102
}
100
AcDbEntity
  8
0
370
              -2
390
0
  6
Continuous
 62
               0
100
AcDbCircle
 10
-163.62266230686873
 20
-383.134867456748
 30
0.0
 40
1.9998779296875
  0
HATCH
  5
AE
100
AcDbEntity
  8
0
370
              -2
390
0
  6
Continuous
 62
               0
100
AcDbHatch
 10
0.0
 20
0.0
 30
0.0
210
0.0
220
0.0
230
1.0
  2
SOLID
 70
               1
 71
               1
 91
        1
 92
        1
 93
        1
 72
               2
 10
-163.62266230686873
 20
-383.134867456748
 40
1.9998779296875
 50
0.0
 51
360.0
 73
               0
 97
        1
330
AD
 75
               0
 76
               1
 98
        1
 10
0.0
 20
0.0
  0
CIRCLE
  5
AF
102
{ACAD_REACTORS
330
B0
102
}
100
AcDbEntity
  8
0
370
              -2
390
0
  6
Continuous
 62
               0
100
AcDbCircle
 10
-163.62266230686873
 20
-783.13486745675073
 30
0.0
 40
1.9998779296875
  0
HATCH
  5
B0
100
AcDbEntity
  8
0
370
              -2
390
0
  6
Continuous
 62
               0
100
AcDbHatch
 10
0.0
 20
0.0
 30
0.0
210
0.0
220
0.0
230
1.0
  2
SOLID
 70
               1
 71
               1
 91
        1
 92
        1
 93
        1
 72
               2
 10
-163.62266230686873
 20
-783.13486745675073
 40
1.9998779296875
 50
0.0
 51
360.0
 73
               0
 97
        1
330
AF
 75
               0
 76
               1
 98
        1
 10
0.0
 20
0.0
  0
MTEXT
  5
B1
100
AcDbEntity
  8
0
390
0
 62
               0
100
AcDbMText
 10
-197.50027949436844
 20
-606.94736913892484
 30
0.0
 40
24.432617187500004
 41
0.0
 71
               1
 72
               1
  1
400
  7
ＭＳ ゴシック
 11
0.0
 21
1.0
 31
0.0
 73
               1
 44
0.7828267384257843
  0
POINT
  5
B2
100
AcDbEntity
  8
Defpoints
370
               0
390
0
 62
               0
100
AcDbPoint
 10
-268.62266230686873
 20
-783.13486745675073
 30
0.0
  0
POINT
  5
B3
100
AcDbEntity
  8
Defpoints
370
               0
390
0
 62
               0
100
AcDbPoint
 10
-268.62266230686873
 20
-383.134867456748
 30
0.0
  0
POINT
  5
B4
100
AcDbEntity
  8
Defpoints
370
               0
390
0
 62
               0
100
AcDbPoint
 10
-163.62266230686873
 20
-383.134867456748
 30
0.0
  0
ENDBLK
  5
B5
100
AcDbEntity
  8
notes
390
0
100
AcDbBlockEnd
  0
BLOCK
  5
B6
100
AcDbEntity
  8
notes
390
0
100
AcDbBlockBegin
  2
*D10
 70
               1
 10
0.0
 20
0.0
 30
0.0
  3
*D10
  1

  0
LINE
  5
B7
100
AcDbEntity
  8
0
370
              -2
390
0
  6
Continuous
 62
               0
100
AcDbLine
 10
-244.62266230686873
 20
932.78733042680506
 30
0.0
 11
-163.62266230686873
 21
932.78733042680506
 31
0.0
  0
LINE
  5
B8
100
AcDbEntity
  8
0
370
              -2
390
0
  6
Continuous
 62
               0
100
AcDbLine
 10
-238.62266230686873
 20
782.78733042680688
 30
0.0
 11
-163.62266230686873
 21
782.78733042680688
 31
0.0
  0
LINE
  5
B9
100
AcDbEntity
  8
0
370
              -2
390
0
  6
Continuous
 62
               0
100
AcDbLine
 10
-163.62266230686873
 20
932.78733042680506
 30
0.0
 11
-163.62266230686873
 21
782.78733042680688
 31
0.0
  0
CIRCLE
  5
BA
102
{ACAD_REACTORS
330
BB
102
}
100
AcDbEntity
  8
0
370
              -2
390
0
  6
Continuous
 62
               0
100
AcDbCircle
 10
-163.62266230686873
 20
932.78733042680506
 30
0.0
 40
1.9998779296875
  0
HATCH
  5
BB
100
AcDbEntity
  8
0
370
              -2
390
0
  6
Continuous
 62
               0
100
AcDbHatch
 10
0.0
 20
0.0
 30
0.0
210
0.0
220
0.0
230
1.0
  2
SOLID
 70
               1
 71
               1
 91
        1
 92
        1
 93
        1
 72
               2
 10
-163.62266230686873
 20
932.78733042680506
 40
1.9998779296875
 50
0.0
 51
360.0
 73
               0
 97
        1
330
BA
 75
               0
 76
               1
 98
        1
 10
0.0
 20
0.0
  0
CIRCLE
  5
BC
102
{ACAD_REACTORS
330
BD
102
}
100
AcDbEntity
  8
0
370
              -2
390
0
  6
Continuous
 62
               0
100
AcDbCircle
 10
-163.62266230686873
 20
782.78733042680688
 30
0.0
 40
1.9998779296875
  0
HATCH
  5
BD
100
AcDbEntity
  8
0
370
              -2
390
0
  6
Continuous
 62
               0
100
AcDbHatch
 10
0.0
 20
0.0
 30
0.0
210
0.0
220
0.0
230
1.0
  2
SOLID
 70
               1
 71
               1
 91
        1
 92
        1
 93
        1
 72
               2
 10
-163.62266230686873
 20
782.78733042680688
 40
1.9998779296875
 50
0.0
 51
360.0
 73
               0
 97
        1
330
BC
 75
               0
 76
               1
 98
        1
 10
0.0
 20
0.0
  0
MTEXT
  5
BE
100
AcDbEntity
  8
0
390
0
 62
               0
100
AcDbMText
 10
-197.50027949436844
 20
833.97482874463003
 30
0.0
 40
24.432617187500004
 41
0.0
 71
               1
 72
               1
  1
150
  7
ＭＳ ゴシック
 11
0.0
 21
1.0
 31
0.0
 73
               1
 44
0.7828267384257843
  0
POINT
  5
BF
100
AcDbEntity
  8
Defpoints
370
               0
390
0
 62
               0
100
AcDbPoint
 10
-263.62266230686873
 20
782.78733042680688
 30
0.0
  0
POINT
  5
C0
100
AcDbEntity
  8
Defpoints
370
               0
390
0
 62
               0
100
AcDbPoint
 10
-269.62266230686873
 20
932.78733042680506
 30
0.0
  0
POINT
  5
C1
100
AcDbEntity
  8
Defpoints
370
               0
390
0
 62
               0
100
AcDbPoint
 10
-163.62266230686873
 20
932.78733042680506
 30
0.0
  0
ENDBLK
  5
C2
100
AcDbEntity
  8
notes
390
0
100
AcDbBlockEnd
  0
BLOCK
  5
C3
100
AcDbEntity
  8
notes
390
0
100
AcDbBlockBegin
  2
*D11
 70
               1
 10
0.0
 20
0.0
 30
0.0
  3
*D11
  1

  0
LINE
  5
C4
100
AcDbEntity
  8
0
370
              -2
390
0
  6
Continuous
 62
               0
100
AcDbLine
 10
-238.62266230686873
 20
782.78733042680688
 30
0.0
 11
-163.62266230686873
 21
782.78733042680688
 31
0.0
  0
LINE
  5
C5
100
AcDbEntity
  8
0
370
              -2
390
0
  6
Continuous
 62
               0
100
AcDbLine
 10
-238.62266230686873
 20
322.78733042680869
 30
0.0
 11
-163.62266230686873
 21
322.78733042680869
 31
0.0
  0
LINE
  5
C6
100
AcDbEntity
  8
0
370
              -2
390
0
  6
Continuous
 62
               0
100
AcDbLine
 10
-163.62266230686873
 20
782.78733042680688
 30
0.0
 11
-163.62266230686873
 21
322.78733042680869
 31
0.0
  0
CIRCLE
  5
C7
102
{ACAD_REACTORS
330
C8
102
}
100
AcDbEntity
  8
0
370
              -2
390
0
  6
Continuous
 62
               0
100
AcDbCircle
 10
-163.62266230686873
 20
782.78733042680688
 30
0.0
 40
1.9998779296875
  0
HATCH
  5
C8
100
AcDbEntity
  8
0
370
              -2
390
0
  6
Continuous
 62
               0
100
AcDbHatch
 10
0.0
 20
0.0
 30
0.0
210
0.0
220
0.0
230
1.0
  2
SOLID
 70
               1
 71
               1
 91
        1
 92
        1
 93
        1
 72
               2
 10
-163.62266230686873
 20
782.78733042680688
 40
1.9998779296875
 50
0.0
 51
360.0
 73
               0
 97
        1
330
C7
 75
               0
 76
               1
 98
        1
 10
0.0
 20
0.0
  0
CIRCLE
  5
C9
102
{ACAD_REACTORS
330
CA
102
}
100
AcDbEntity
  8
0
370
              -2
390
0
  6
Continuous
 62
               0
100
AcDbCircle
 10
-163.62266230686873
 20
322.78733042680869
 30
0.0
 40
1.9998779296875
  0
HATCH
  5
CA
100
AcDbEntity
  8
0
370
              -2
390
0
  6
Continuous
 62
               0
100
AcDbHatch
 10
0.0
 20
0.0
 30
0.0
210
0.0
220
0.0
230
1.0
  2
SOLID
 70
               1
 71
               1
 91
        1
 92
        1
 93
        1
 72
               2
 10
-163.62266230686873
 20
322.78733042680869
 40
1.9998779296875
 50
0.0
 51
360.0
 73
               0
 97
        1
330
C9
 75
               0
 76
               1
 98
        1
 10
0.0
 20
0.0
  0
MTEXT
  5
CB
100
AcDbEntity
  8
0
390
0
 62
               0
100
AcDbMText
 10
-197.50027949436844
 20
528.97482874463185
 30
0.0
 40
24.432617187500004
 41
0.0
 71
               1
 72
               1
  1
460
  7
ＭＳ ゴシック
 11
0.0
 21
1.0
 31
0.0
 73
               1
 44
0.7828267384257843
  0
POINT
  5
CC
100
AcDbEntity
  8
Defpoints
370
               0
390
0
 62
               0
100
AcDbPoint
 10
-263.62266230686873
 20
322.78733042680869
 30
0.0
  0
POINT
  5
CD
100
AcDbEntity
  8
Defpoints
370
               0
390
0
 62
               0
100
AcDbPoint
 10
-263.62266230686873
 20
782.78733042680688
 30
0.0
  0
POINT
  5
CE
100
AcDbEntity
  8
Defpoints
370
               0
390
0
 62
               0
100
AcDbPoint
 10
-163.62266230686873
 20
782.78733042680688
 30
0.0
  0
ENDBLK
  5
CF
100
AcDbEntity
  8
notes
390
0
100
AcDbBlockEnd
  0
BLOCK
  5
D0
100
AcDbEntity
  8
notes
390
0
100
AcDbBlockBegin
  2
*D12
 70
               1
 10
0.0
 20
0.0
 30
0.0
  3
*D12
  1

  0
LINE
  5
D1
100
AcDbEntity
  8
0
370
              -2
390
0
  6
Continuous
 62
               0
100
AcDbLine
 10
-623.62266230686873
 20
257.78733042680869
 30
0.0
 11
-623.62266230686873
 21
182.78733042680869
 31
0.0
  0
LINE
  5
D2
100
AcDbEntity
  8
0
370
              -2
390
0
  6
Continuous
 62
               0
100
AcDbLine
 10
-303.62266230686873
 20
257.78733042680869
 30
0.0
 11
-303.62266230686873
 21
182.78733042680869
 31
0.0
  0
LINE
  5
D3
100
AcDbEntity
  8
0
370
              -2
390
0
  6
Continuous
 62
               0
100
AcDbLine
 10
-623.62266230686873
 20
182.78733042680869
 30
0.0
 11
-303.62266230686873
 21
182.78733042680869
 31
0.0
  0
CIRCLE
  5
D4
102
{ACAD_REACTORS
330
D5
102
}
100
AcDbEntity
  8
0
370
              -2
390
0
  6
Continuous
 62
               0
100
AcDbCircle
 10
-623.62266230686873
 20
182.78733042680869
 30
0.0
 40
1.9998779296875
  0
HATCH
  5
D5
100
AcDbEntity
  8
0
370
              -2
390
0
  6
Continuous
 62
               0
100
AcDbHatch
 10
0.0
 20
0.0
 30
0.0
210
0.0
220
0.0
230
1.0
  2
SOLID
 70
               1
 71
               1
 91
        1
 92
        1
 93
        1
 72
               2
 10
-623.62266230686873
 20
182.78733042680869
 40
1.9998779296875
 50
0.0
 51
360.0
 73
               0
 97
        1
330
D4
 75
               0
 76
               1
 98
        1
 10
0.0
 20
0.0
  0
CIRCLE
  5
D6
102
{ACAD_REACTORS
330
D7
102
}
100
AcDbEntity
  8
0
370
              -2
390
0
  6
Continuous
 62
               0
100
AcDbCircle
 10
-303.62266230686873
 20
182.78733042680869
 30
0.0
 40
1.9998779296875
  0
HATCH
  5
D7
100
AcDbEntity
  8
0
370
              -2
390
0
  6
Continuous
 62
               0
100
AcDbHatch
 10
0.0
 20
0.0
 30
0.0
210
0.0
220
0.0
230
1.0
  2
SOLID
 70
               1
 71
               1
 91
        1
 92
        1
 93
        1
 72
               2
 10
-303.62266230686873
 20
182.78733042680869
 40
1.9998779296875
 50
0.0
 51
360.0
 73
               0
 97
        1
330
D6
 75
               0
 76
               1
 98
        1
 10
0.0
 20
0.0
  0
MTEXT
  5
D8
100
AcDbEntity
  8
0
390
0
 62
               0
100
AcDbMText
 10
-487.43516398904467
 20
216.6649476143084
 30
0.0
 40
24.432617187500004
 41
0.0
 71
               1
 72
               1
  1
320
  7
ＭＳ ゴシック
 73
               1
 44
0.7828267384257843
  0
POINT
  5
D9
100
AcDbEntity
  8
Defpoints
370
               0
390
0
 62
               0
100
AcDbPoint
 10
-303.62266230686873
 20
282.78733042680869
 30
0.0
  0
POINT
  5
DA
100
AcDbEntity
  8
Defpoints
370
               0
390
0
 62
               0
100
AcDbPoint
 10
-623.62266230686873
 20
282.78733042680869
 30
0.0
  0
POINT
  5
DB
100
AcDbEntity
  8
Defpoints
370
               0
390
0
 62
               0
100
AcDbPoint
 10
-623.62266230686873
 20
182.78733042680869
 30
0.0
  0
ENDBLK
  5
DC
100
AcDbEntity
  8
notes
390
0
100
AcDbBlockEnd
  0
BLOCK
  5
DD
100
AcDbEntity
  8
notes
390
0
100
AcDbBlockBegin
  2
*D13
 70
               1
 10
0.0
 20
0.0
 30
0.0
  3
*D13
  1

  0
LINE
  5
DE
100
AcDbEntity
  8
0
370
              -2
390
0
  6
Continuous
 62
               0
100
AcDbLine
 10
790.54288084173641
 20
-804.13486745674709
 30
0.0
 11
790.54288084173641
 21
-883.13486745675073
 31
0.0
  0
LINE
  5
DF
100
AcDbEntity
  8
0
370
              -2
390
0
  6
Continuous
 62
               0
100
AcDbLine
 10
410.54288084173459
 20
-728.13486745675073
 30
0.0
 11
410.54288084173459
 21
-883.13486745675073
 31
0.0
  0
LINE
  5
E0
100
AcDbEntity
  8
0
370
              -2
390
0
  6
Continuous
 62
               0
100
AcDbLine
 10
790.54288084173641
 20
-883.13486745675073
 30
0.0
 11
410.54288084173459
 21
-883.13486745675073
 31
0.0
  0
CIRCLE
  5
E1
102
{ACAD_REACTORS
330
E2
102
}
100
AcDbEntity
  8
0
370
              -2
390
0
  6
Continuous
 62
               0
100
AcDbCircle
 10
790.54288084173641
 20
-883.13486745675073
 30
0.0
 40
1.9998779296875
  0
HATCH
  5
E2
100
AcDbEntity
  8
0
370
              -2
390
0
  6
Continuous
 62
               0
100
AcDbHatch
 10
0.0
 20
0.0
 30
0.0
210
0.0
220
0.0
230
1.0
  2
SOLID
 70
               1
 71
               1
 91
        1
 92
        1
 93
        1
 72
               2
 10
790.54288084173641
 20
-883.13486745675073
 40
1.9998779296875
 50
0.0
 51
360.0
 73
               0
 97
        1
330
E1
 75
               0
 76
               1
 98
        1
 10
0.0
 20
0.0
  0
CIRCLE
  5
E3
102
{ACAD_REACTORS
330
E4
102
}
100
AcDbEntity
  8
0
370
              -2
390
0
  6
Continuous
 62
               0
100
AcDbCircle
 10
410.54288084173459
 20
-883.13486745675073
 30
0.0
 40
1.9998779296875
  0
HATCH
  5
E4
100
AcDbEntity
  8
0
370
              -2
390
0
  6
Continuous
 62
               0
100
AcDbHatch
 10
0.0
 20
0.0
 30
0.0
210
0.0
220
0.0
230
1.0
  2
SOLID
 70
               1
 71
               1
 91
        1
 92
        1
 93
        1
 72
               2
 10
410.54288084173459
 20
-883.13486745675073
 40
1.9998779296875
 50
0.0
 51
360.0
 73
               0
 97
        1
330
E3
 75
               0
 76
               1
 98
        1
 10
0.0
 20
0.0
  0
MTEXT
  5
E5
100
AcDbEntity
  8
0
390
0
 62
               0
100
AcDbMText
 10
576.73037915956047
 20
-849.25725026925102
 30
0.0
 40
24.432617187500004
 41
0.0
 71
               1
 72
               1
  1
380
  7
ＭＳ ゴシック
 73
               1
 44
0.7828267384257843
  0
POINT
  5
E6
100
AcDbEntity
  8
Defpoints
370
               0
390
0
 62
               0
100
AcDbPoint
 10
410.54288084173459
 20
-703.13486745675073
 30
0.0
  0
POINT
  5
E7
100
AcDbEntity
  8
Defpoints
370
               0
390
0
 62
               0
100
AcDbPoint
 10
790.54288084173641
 20
-779.13486745674709
 30
0.0
  0
POINT
  5
E8
100
AcDbEntity
  8
Defpoints
370
               0
390
0
 62
               0
100
AcDbPoint
 10
790.54288084173641
 20
-883.13486745675073
 30
0.0
  0
ENDBLK
  5
E9
100
AcDbEntity
  8
notes
390
0
100
AcDbBlockEnd
  0
BLOCK
  5
EA
100
AcDbEntity
  8
notes
390
0
100
AcDbBlockBegin
  2
*D14
 70
               1
 10
0.0
 20
0.0
 30
0.0
  3
*D14
  1

  0
LINE
  5
EB
100
AcDbEntity
  8
0
370
              -2
390
0
  6
Continuous
 62
               0
100
AcDbLine
 10
411.17687255507371
 20
-383.134867456748
 30
0.0
 11
398.21192501705809
 21
-383.134867456748
 31
0.0
  0
LINE
  5
EC
100
AcDbEntity
  8
0
370
              -2
390
0
  6
Continuous
 62
               0
100
AcDbLine
 10
411.17687255507371
 20
-653.13486745675073
 30
0.0
 11
398.21192501705809
 21
-653.13486745675073
 31
0.0
  0
LINE
  5
ED
100
AcDbEntity
  8
0
370
              -2
390
0
  6
Continuous
 62
               0
100
AcDbLine
 10
398.21192501705809
 20
-383.134867456748
 30
0.0
 11
398.21192501705809
 21
-653.13486745675073
 31
0.0
  0
CIRCLE
  5
EE
102
{ACAD_REACTORS
330
EF
102
}
100
AcDbEntity
  8
0
370
              -2
390
0
  6
Continuous
 62
               0
100
AcDbCircle
 10
398.21192501705809
 20
-383.134867456748
 30
0.0
 40
1.9998779296875
  0
HATCH
  5
EF
100
AcDbEntity
  8
0
370
              -2
390
0
  6
Continuous
 62
               0
100
AcDbHatch
 10
0.0
 20
0.0
 30
0.0
210
0.0
220
0.0
230
1.0
  2
SOLID
 70
               1
 71
               1
 91
        1
 92
        1
 93
        1
 72
               2
 10
398.21192501705809
 20
-383.134867456748
 40
1.9998779296875
 50
0.0
 51
360.0
 73
               0
 97
        1
330
EE
 75
               0
 76
               1
 98
        1
 10
0.0
 20
0.0
  0
CIRCLE
  5
F0
102
{ACAD_REACTORS
330
F1
102
}
100
AcDbEntity
  8
0
370
              -2
390
0
  6
Continuous
 62
               0
100
AcDbCircle
 10
398.21192501705809
 20
-653.13486745675073
 30
0.0
 40
1.9998779296875
  0
HATCH
  5
F1
100
AcDbEntity
  8
0
370
              -2
390
0
  6
Continuous
 62
               0
100
AcDbHatch
 10
0.0
 20
0.0
 30
0.0
210
0.0
220
0.0
230
1.0
  2
SOLID
 70
               1
 71
               1
 91
        1
 92
        1
 93
        1
 72
               2
 10
398.21192501705809
 20
-653.13486745675073
 40
1.9998779296875
 50
0.0
 51
360.0
 73
               0
 97
        1
330
F0
 75
               0
 76
               1
 98
        1
 10
0.0
 20
0.0
  0
MTEXT
  5
F2
100
AcDbEntity
  8
0
390
0
 62
               0
100
AcDbMText
 10
364.33430782955838
 20
-589.57236745674982
 30
0.0
 40
24.432617187500004
 41
0.0
 71
               1
 72
               1
  1
270(深さ)
  7
ＭＳ ゴシック
 11
0.0
 21
1.0
 31
0.0
 73
               1
 44
0.7828267384257843
  0
POINT
  5
F3
100
AcDbEntity
  8
Defpoints
370
               0
390
0
 62
               0
100
AcDbPoint
 10
386.17687255507371
 20
-653.13486745675073
 30
0.0
  0
POINT
  5
F4
100
AcDbEntity
  8
Defpoints
370
               0
390
0
 62
               0
100
AcDbPoint
 10
386.17687255507371
 20
-383.134867456748
 30
0.0
  0
POINT
  5
F5
100
AcDbEntity
  8
Defpoints
370
               0
390
0
 62
               0
100
AcDbPoint
 10
398.21192501705809
 20
-383.134867456748
 30
0.0
  0
ENDBLK
  5
F6
100
AcDbEntity
  8
notes
390
0
100
AcDbBlockEnd
  0
BLOCK
  5
F7
100
AcDbEntity
  8
notes
390
0
100
AcDbBlockBegin
  2
*D15
 70
               1
 10
0.0
 20
0.0
 30
0.0
  3
*D15
  1

  0
LINE
  5
F8
100
AcDbEntity
  8
0
370
              -2
390
0
  6
Continuous
 62
               0
100
AcDbLine
 10
790.54288084173641
 20
-364.134867456748
 30
0.0
 11
790.54288084173641
 21
-283.134867456748
 31
0.0
  0
LINE
  5
F9
100
AcDbEntity
  8
0
370
              -2
390
0
  6
Continuous
 62
               0
100
AcDbLine
 10
700.54288084173641
 20
-358.134867456748
 30
0.0
 11
700.54288084173641
 21
-283.134867456748
 31
0.0
  0
LINE
  5
FA
100
AcDbEntity
  8
0
370
              -2
390
0
  6
Continuous
 62
               0
100
AcDbLine
 10
790.54288084173641
 20
-283.134867456748
 30
0.0
 11
700.54288084173641
 21
-283.134867456748
 31
0.0
  0
CIRCLE
  5
FB
102
{ACAD_REACTORS
330
FC
102
}
100
AcDbEntity
  8
0
370
              -2
390
0
  6
Continuous
 62
               0
100
AcDbCircle
 10
790.54288084173641
 20
-283.134867456748
 30
0.0
 40
1.9998779296875
  0
HATCH
  5
FC
100
AcDbEntity
  8
0
370
              -2
390
0
  6
Continuous
 62
               0
100
AcDbHatch
 10
0.0
 20
0.0
 30
0.0
210
0.0
220
0.0
230
1.0
  2
SOLID
 70
               1
 71
               1
 91
        1
 92
        1
 93
        1
 72
               2
 10
790.54288084173641
 20
-283.134867456748
 40
1.9998779296875
 50
0.0
 51
360.0
 73
               0
 97
        1
330
FB
 75
               0
 76
               1
 98
        1
 10
0.0
 20
0.0
  0
CIRCLE
  5
FD
102
{ACAD_REACTORS
330
FE
102
}
100
AcDbEntity
  8
0
370
              -2
390
0
  6
Continuous
 62
               0
100
AcDbCircle
 10
700.54288084173641
 20
-283.134867456748
 30
0.0
 40
1.9998779296875
  0
HATCH
  5
FE
100
AcDbEntity
  8
0
370
              -2
390
0
  6
Continuous
 62
               0
100
AcDbHatch
 10
0.0
 20
0.0
 30
0.0
210
0.0
220
0.0
230
1.0
  2
SOLID
 70
               1
 71
               1
 91
        1
 92
        1
 93
        1
 72
               2
 10
700.54288084173641
 20
-283.134867456748
 40
1.9998779296875
 50
0.0
 51
360.0
 73
               0
 97
        1
330
FD
 75
               0
 76
               1
 98
        1
 10
0.0
 20
0.0
  0
MTEXT
  5
FF
100
AcDbEntity
  8
0
390
0
 62
               0
100
AcDbMText
 10
729.66788084173641
 20
-249.25725026924829
 30
0.0
 40
24.432617187500004
 41
0.0
 71
               1
 72
               1
  1
90
  7
ＭＳ ゴシック
 73
               1
 44
0.7828267384257843
  0
POINT
  5
100
100
AcDbEntity
  8
Defpoints
370
               0
390
0
 62
               0
100
AcDbPoint
 10
700.54288084173641
 20
-383.134867456748
 30
0.0
  0
POINT
  5
101
100
AcDbEntity
  8
Defpoints
370
               0
390
0
 62
               0
100
AcDbPoint
 10
790.54288084173641
 20
-389.134867456748
 30
0.0
  0
POINT
  5
102
100
AcDbEntity
  8
Defpoints
370
               0
390
0
 62
               0
100
AcDbPoint
 10
790.54288084173641
 20
-283.134867456748
 30
0.0
  0
ENDBLK
  5
103
100
AcDbEntity
  8
notes
390
0
100
AcDbBlockEnd
  0
BLOCK
  5
104
100
AcDbEntity
  8
notes
390
0
100
AcDbBlockBegin
  2
*D16
 70
               1
 10
0.0
 20
0.0
 30
0.0
  3
*D16
  1

  0
LINE
  5
105
100
AcDbEntity
  8
0
370
              -2
390
0
  6
Continuous
 62
               0
100
AcDbLine
 10
615.81900435979514
 20
502.78733042680506
 30
0.0
 11
750.81900435979514
 21
502.78733042680506
 31
0.0
  0
LINE
  5
106
100
AcDbEntity
  8
0
370
              -2
390
0
  6
Continuous
 62
               0
100
AcDbLine
 10
615.81900435979514
 20
902.78733042680506
 30
0.0
 11
750.81900435979514
 21
902.78733042680506
 31
0.0
  0
LINE
  5
107
100
AcDbEntity
  8
0
370
              -2
390
0
  6
Continuous
 62
               0
100
AcDbLine
 10
750.81900435979514
 20
502.78733042680506
 30
0.0
 11
750.81900435979514
 21
902.78733042680506
 31
0.0
  0
CIRCLE
  5
108
102
{ACAD_REACTORS
330
109
102
}
100
AcDbEntity
  8
0
370
              -2
390
0
  6
Continuous
 62
               0
100
AcDbCircle
 10
750.81900435979514
 20
502.78733042680506
 30
0.0
 40
1.9998779296875
  0
HATCH
  5
109
100
AcDbEntity
  8
0
370
              -2
390
0
  6
Continuous
 62
               0
100
AcDbHatch
 10
0.0
 20
0.0
 30
0.0
210
0.0
220
0.0
230
1.0
  2
SOLID
 70
               1
 71
               1
 91
        1
 92
        1
 93
        1
 72
               2
 10
750.81900435979514
 20
502.78733042680506
 40
1.9998779296875
 50
0.0
 51
360.0
 73
               0
 97
        1
330
108
 75
               0
 76
               1
 98
        1
 10
0.0
 20
0.0
  0
CIRCLE
  5
10A
102
{ACAD_REACTORS
330
10B
102
}
100
AcDbEntity
  8
0
370
              -2
390
0
  6
Continuous
 62
               0
100
AcDbCircle
 10
750.81900435979514
 20
902.78733042680506
 30
0.0
 40
1.9998779296875
  0
HATCH
  5
10B
100
AcDbEntity
  8
0
370
              -2
390
0
  6
Continuous
 62
               0
100
AcDbHatch
 10
0.0
 20
0.0
 30
0.0
210
0.0
220
0.0
230
1.0
  2
SOLID
 70
               1
 71
               1
 91
        1
 92
        1
 93
        1
 72
               2
 10
750.81900435979514
 20
902.78733042680506
 40
1.9998779296875
 50
0.0
 51
360.0
 73
               0
 97
        1
330
10A
 75
               0
 76
               1
 98
        1
 10
0.0
 20
0.0
  0
MTEXT
  5
10C
100
AcDbEntity
  8
0
390
0
 62
               0
100
AcDbMText
 10
716.94138717229544
 20
678.97482874462912
 30
0.0
 40
24.432617187500004
 41
0.0
 71
               1
 72
               1
  1
400
  7
ＭＳ ゴシック
 11
0.0
 21
1.0
 31
0.0
 73
               1
 44
0.7828267384257843
  0
POINT
  5
10D
100
AcDbEntity
  8
Defpoints
370
               0
390
0
 62
               0
100
AcDbPoint
 10
590.81900435979514
 20
902.78733042680506
 30
0.0
  0
POINT
  5
10E
100
AcDbEntity
  8
Defpoints
370
               0
390
0
 62
               0
100
AcDbPoint
 10
590.81900435979514
 20
502.78733042680506
 30
0.0
  0
POINT
  5
10F
100
AcDbEntity
  8
Defpoints
370
               0
390
0
 62
               0
100
AcDbPoint
 10
750.81900435979514
 20
502.78733042680506
 30
0.0
  0
ENDBLK
  5
110
100
AcDbEntity
  8
notes
390
0
100
AcDbBlockEnd
  0
BLOCK
  5
111
100
AcDbEntity
  8
notes
390
0
100
AcDbBlockBegin
  2
*D17
 70
               1
 10
0.0
 20
0.0
 30
0.0
  3
*D17
  1

  0
LINE
  5
112
100
AcDbEntity
  8
0
370
              -2
390
0
  6
Continuous
 62
               0
100
AcDbLine
 10
615.81900435979514
 20
902.78733042680506
 30
0.0
 11
750.81900435979514
 21
902.78733042680506
 31
0.0
  0
LINE
  5
113
100
AcDbEntity
  8
0
370
              -2
390
0
  6
Continuous
 62
               0
100
AcDbLine
 10
667.78052858685987
 20
932.78733042680506
 30
0.0
 11
750.81900435979514
 21
932.78733042680506
 31
0.0
  0
LINE
  5
114
100
AcDbEntity
  8
0
370
              -2
390
0
  6
Continuous
 62
               0
100
AcDbLine
 10
750.81900435979514
 20
932.78733042680506
 30
0.0
 11
750.81900435979514
 21
972.30205340042085
 31
0.0
  0
LINE
  5
115
100
AcDbEntity
  8
0
370
              -2
390
0
  6
Continuous
 62
               0
100
AcDbLine
 10
750.81900435979514
 20
902.78733042680506
 30
0.0
 11
750.81900435979514
 21
932.78733042680506
 31
0.0
  0
CIRCLE
  5
116
102
{ACAD_REACTORS
330
117
102
}
100
AcDbEntity
  8
0
370
              -2
390
0
  6
Continuous
 62
               0
100
AcDbCircle
 10
750.81900435979514
 20
902.78733042680506
 30
0.0
 40
1.9998779296875
  0
HATCH
  5
117
100
AcDbEntity
  8
0
370
              -2
390
0
  6
Continuous
 62
               0
100
AcDbHatch
 10
0.0
 20
0.0
 30
0.0
210
0.0
220
0.0
230
1.0
  2
SOLID
 70
               1
 71
               1
 91
        1
 92
        1
 93
        1
 72
               2
 10
750.81900435979514
 20
902.78733042680506
 40
1.9998779296875
 50
0.0
 51
360.0
 73
               0
 97
        1
330
116
 75
               0
 76
               1
 98
        1
 10
0.0
 20
0.0
  0
CIRCLE
  5
118
102
{ACAD_REACTORS
330
119
102
}
100
AcDbEntity
  8
0
370
              -2
390
0
  6
Continuous
 62
               0
100
AcDbCircle
 10
750.81900435979514
 20
932.78733042680506
 30
0.0
 40
1.9998779296875
  0
HATCH
  5
119
100
AcDbEntity
  8
0
370
              -2
390
0
  6
Continuous
 62
               0
100
AcDbHatch
 10
0.0
 20
0.0
 30
0.0
210
0.0
220
0.0
230
1.0
  2
SOLID
 70
               1
 71
               1
 91
        1
 92
        1
 93
        1
 72
               2
 10
750.81900435979514
 20
932.78733042680506
 40
1.9998779296875
 50
0.0
 51
360.0
 73
               0
 97
        1
330
118
 75
               0
 76
               1
 98
        1
 10
0.0
 20
0.0
  0
MTEXT
  5
11A
100
AcDbEntity
  8
0
390
0
 62
               0
100
AcDbMText
 10
716.94138717229544
 20
940.55205340042085
 30
0.0
 40
24.432617187500004
 41
0.0
 71
               1
 72
               1
  1
30
  7
ＭＳ ゴシック
 11
0.0
 21
1.0
 31
0.0
 73
               1
 44
0.7828267384257843
  0
POINT
  5
11B
100
AcDbEntity
  8
Defpoints
370
               0
390
0
 62
               0
100
AcDbPoint
 10
642.78052858685987
 20
932.78733042680506
 30
0.0
  0
POINT
  5
11C
100
AcDbEntity
  8
Defpoints
370
               0
390
0
 62
               0
100
AcDbPoint
 10
590.81900435979514
 20
902.78733042680506
 30
0.0
  0
POINT
  5
11D
100
AcDbEntity
  8
Defpoints
370
               0
390
0
 62
               0
100
AcDbPoint
 10
750.81900435979514
 20
902.78733042680506
 30
0.0
  0
ENDBLK
  5
11E
100
AcDbEntity
  8
notes
390
0
100
AcDbBlockEnd
  0
BLOCK
  5
11F
100
AcDbEntity
  8
notes
390
0
100
AcDbBlockBegin
  2
*D18
 70
               1
 10
0.0
 20
0.0
 30
0.0
  3
*D18
  1

  0
LINE
  5
120
100
AcDbEntity
  8
0
370
              -2
390
0
  6
Continuous
 62
               0
100
AcDbLine
 10
310.81900435979514
 20
477.78733042680506
 30
0.0
 11
310.81900435979514
 21
379.55205340042085
 31
0.0
  0
LINE
  5
121
100
AcDbEntity
  8
0
370
              -2
390
0
  6
Continuous
 62
               0
100
AcDbLine
 10
590.81900435979514
 20
477.78733042680506
 30
0.0
 11
590.81900435979514
 21
379.55205340042085
 31
0.0
  0
LINE
  5
122
100
AcDbEntity
  8
0
370
              -2
390
0
  6
Continuous
 62
               0
100
AcDbLine
 10
310.81900435979514
 20
379.55205340042085
 30
0.0
 11
590.81900435979514
 21
379.55205340042085
 31
0.0
  0
CIRCLE
  5
123
102
{ACAD_REACTORS
330
124
102
}
100
AcDbEntity
  8
0
370
              -2
390
0
  6
Continuous
 62
               0
100
AcDbCircle
 10
310.81900435979514
 20
379.55205340042085
 30
0.0
 40
1.9998779296875
  0
HATCH
  5
124
100
AcDbEntity
  8
0
370
              -2
390
0
  6
Continuous
 62
               0
100
AcDbHatch
 10
0.0
 20
0.0
 30
0.0
210
0.0
220
0.0
230
1.0
  2
SOLID
 70
               1
 71
               1
 91
        1
 92
        1
 93
        1
 72
               2
 10
310.81900435979514
 20
379.55205340042085
 40
1.9998779296875
 50
0.0
 51
360.0
 73
               0
 97
        1
330
123
 75
               0
 76
               1
 98
        1
 10
0.0
 20
0.0
  0
CIRCLE
  5
125
102
{ACAD_REACTORS
330
126
102
}
100
AcDbEntity
  8
0
370
              -2
390
0
  6
Continuous
 62
               0
100
AcDbCircle
 10
590.81900435979514
 20
379.55205340042085
 30
0.0
 40
1.9998779296875
  0
HATCH
  5
126
100
AcDbEntity
  8
0
370
              -2
390
0
  6
Continuous
 62
               0
100
AcDbHatch
 10
0.0
 20
0.0
 30
0.0
210
0.0
220
0.0
230
1.0
  2
SOLID
 70
               1
 71
               1
 91
        1
 92
        1
 93
        1
 72
               2
 10
590.81900435979514
 20
379.55205340042085
 40
1.9998779296875
 50
0.0
 51
360.0
 73
               0
 97
        1
330
125
 75
               0
 76
               1
 98
        1
 10
0.0
 20
0.0
  0
MTEXT
  5
127
100
AcDbEntity
  8
0
390
0
 62
               0
100
AcDbMText
 10
427.00650267761921
 20
413.42967058792055
 30
0.0
 40
24.432617187500004
 41
0.0
 71
               1
 72
               1
  1
280
  7
ＭＳ ゴシック
 73
               1
 44
0.7828267384257843
  0
POINT
  5
128
100
AcDbEntity
  8
Defpoints
370
               0
390
0
 62
               0
100
AcDbPoint
 10
590.81900435979514
 20
502.78733042680506
 30
0.0
  0
POINT
  5
129
100
AcDbEntity
  8
Defpoints
370
               0
390
0
 62
               0
100
AcDbPoint
 10
310.81900435979514
 20
502.78733042680506
 30
0.0
  0
POINT
  5
12A
100
AcDbEntity
  8
Defpoints
370
               0
390
0
 62
               0
100
AcDbPoint
 10
310.81900435979514
 20
379.55205340042085
 30
0.0
  0
ENDBLK
  5
12B
100
AcDbEntity
  8
notes
390
0
100
AcDbBlockEnd
  0
ENDSEC
  0
SECTION
  2
ENTITIES
  0
MTEXT
  5
12C
100
AcDbEntity
  8
template
390
0
 62
               7
100
AcDbMText
 10
-967.99999999975989
 20
-1147.4176292337006
 30
0.0
 40
16.288411458333332
 41
0.0
 71
               1
 72
               1
  1
品名
  7
ＭＳ ゴシック
 73
               1
 44
0.7828267384257843
  0
MTEXT
  5
12D
100
AcDbEntity
  8
template
390
0
 62
               7
100
AcDbMText
 10
-967.99999999975989
 20
-1232.4176292337006
 30
0.0
 40
16.288411458333332
 41
0.0
 71
               1
 72
               1
  1
仕様
  7
ＭＳ ゴシック
 73
               1
 44
0.7828267384257843
  0
MTEXT
  5
12E
100
AcDbEntity
  8
template
390
0
 62
               7
100
AcDbMText
 10
-914.99999999975989
 20
-1176.000090171201
 30
0.0
 40
24.432617187500004
 41
0.0
 71
               1
 72
               1
  1
洗面器 -CATALANO,Verso-
  7
ＭＳ ゴシック
 73
               1
 44
0.7828267384257843
  0
LINE
  5
12F
100
AcDbEntity
  8
template
370
               5
390
0
  6
Continuous
 62
               7
100
AcDbLine
 10
974.99999999975807
 20
-1224.0027073587007
 30
0.0
 11
-975.00000000024193
 21
-1224.0027073587007
 31
0.0
  0
LWPOLYLINE
  5
130
100
AcDbEntity
  8
template
370
               5
390
0
  6
Continuous
 62
               7
100
AcDbPolyline
 90
        5
 70
             128
 10
975.00000000024193
 20
1405.9972926412993
 10
-974.99999999975989
 20
1405.9972926412993
 10
-974.99999999975989
 20
-1394.0027073587007
 10
975.00000000024193
 20
-1394.0027073587007
 10
975.00000000024193
 20
1405.9972926412993
  0
LINE
  5
131
100
AcDbEntity
  8
template
370
               5
390
0
  6
Continuous
 62
               7
100
AcDbLine
 10
974.99999999975807
 20
-1139.0027073587007
 30
0.0
 11
-975.00000000024193
 21
-1139.0027073587007
 31
0.0
  0
LINE
  5
132
100
AcDbEntity
  8
template
370
               5
390
0
  6
Continuous
 62
               7
100
AcDbLine
 10
975.00000000024193
 20
-1309.0027073587007
 30
0.0
 11
222.00000000024193
 21
-1309.0027073587007
 31
0.0
  0
MTEXT
  5
133
100
AcDbEntity
  8
template
390
0
 62
               7
100
AcDbMText
 10
-974.99999999955617
 20
-1405.8565294155578
 30
0.0
 40
21.717881944444446
 41
0.0
 71
               1
 72
               1
  1
100707SH
  7
ＭＳ ゴシック
 73
               1
 44
0.7828267384257843
  0
MTEXT
  5
134
100
AcDbEntity
  8
template
390
0
 62
               7
100
AcDbMText
 10
251.8714062525014
 20
-1338.9131018320086
 30
0.0
 40
24.432617187500004
 41
0.0
 71
               1
 72
               1
  1
大洋金物株式会社 ティーフォルム事業部
  7
ＭＳ ゴシック
 73
               1
 44
0.7828267384257843
  0
INSERT
  5
135
100
AcDbEntity
  8
template
390
0
 62
               7
100
AcDbBlockReference
  2
グループ
 10
12528.508563901078
 20
-5693.7814577172303
 30
0.0
  0
MTEXT
  5
136
100
AcDbEntity
  8
template
390
0
 62
               7
100
AcDbMText
 10
784.00000000050022
 20
-1261.000090171201
 30
0.0
 40
24.432617187500004
 41
0.0
 71
               1
 72
               1
  1
1:10
  7
ＭＳ ゴシック
 73
               1
 44
0.7828267384257843
  0
MTEXT
  5
137
100
AcDbEntity
  8
template
390
0
 62
               7
100
AcDbMText
 10
731.00000000050022
 20
-1232.4176292337006
 30
0.0
 40
16.288411458333332
 41
0.0
 71
               1
 72
               1
  1
縮尺
  7
ＭＳ ゴシック
 73
               1
 44
0.7828267384257843
  0
LINE
  5
138
100
AcDbEntity
  8
template
370
               5
390
0
  6
Continuous
 62
               7
100
AcDbLine
 10
724.00000000050022
 20
-1309.0027073587007
 30
0.0
 11
724.00000000050022
 21
-1224.0027073587007
 31
0.0
  0
MTEXT
  5
139
100
AcDbEntity
  8
template
390
0
 62
               7
100
AcDbMText
 10
480.00000000050022
 20
-1232.4176292337006
 30
0.0
 40
16.288411458333332
 41
0.0
 71
               1
 72
               1
  1
容量
  7
ＭＳ ゴシック
 73
               1
 44
0.7828267384257843
  0
MTEXT
  5
13A
100
AcDbEntity
  8
template
390
0
 62
               7
100
AcDbMText
 10
533.00000000050022
 20
-1261.000090171201
 30
0.0
 40
24.432617187500004
 41
0.0
 71
               1
 72
               1
  1
29L
  7
ＭＳ ゴシック
 73
               1
 44
0.7828267384257843
  0
LINE
  5
13B
100
AcDbEntity
  8
template
370
               5
390
0
  6
Continuous
 62
               7
100
AcDbLine
 10
473.00000000050022
 20
-1309.0027073587007
 30
0.0
 11
473.00000000050022
 21
-1224.0027073587007
 31
0.0
  0
MTEXT
  5
13C
100
AcDbEntity
  8
template
390
0
 62
               7
100
AcDbMText
 10
229.00000000050022
 20
-1147.4176292337006
 30
0.0
 40
16.288411458333332
 41
0.0
 71
               1
 72
               1
  1
品番
  7
ＭＳ ゴシック
 73
               1
 44
0.7828267384257843
  0
MTEXT
  5
13D
100
AcDbEntity
  8
template
390
0
 62
               7
100
AcDbMText
 10
229.00000000050022
 20
-1232.4176292337006
 30
0.0
 40
16.288411458333332
 41
0.0
 71
               1
 72
               1
  1
重量
  7
ＭＳ ゴシック
 73
               1
 44
0.7828267384257843
  0
MTEXT
  5
13E
100
AcDbEntity
  8
template
390
0
 62
               7
100
AcDbMText
 10
282.00000000050022
 20
-1176.000090171201
 30
0.0
 40
24.432617187500004
 41
0.0
 71
               1
 72
               1
  1
ADF70-0605
  7
ＭＳ ゴシック
 73
               1
 44
0.7828267384257843
  0
MTEXT
  5
13F
100
AcDbEntity
  8
template
390
0
 62
               7
100
AcDbMText
 10
282.00000000050022
 20
-1261.000090171201
 30
0.0
 40
24.432617187500004
 41
0.0
 71
               1
 72
               1
  1
37kg
  7
ＭＳ ゴシック
 73
               1
 44
0.7828267384257843
  0
LINE
  5
140
100
AcDbEntity
  8
template
370
               5
390
0
  6
Continuous
 62
               7
100
AcDbLine
 10
222.00000000050022
 20
-1394.0027073587007
 30
0.0
 11
222.00000000050022
 21
-1139.0027073587007
 31
0.0
  0
MTEXT
  5
141
100
AcDbEntity
  8
template
390
0
 62
               7
100
AcDbMText
 10
-914.99999999975807
 20
-1261.000090171201
 30
0.0
 40
24.432617187500004
 41
0.0
 71
               1
 72
               1
  1
壁掛け,カウンタ ー置き/オーバーフローあり/壁取付ボルト付属/\P陶器,背面釉薬あり/ホワイト
  7
ＭＳ ゴシック
 73
               1
 44
1.3047112307096407
  0
LINE
  5
142
100
AcDbEntity
  8
template
370
               5
390
0
  6
Continuous
 62
               7
100
AcDbLine
 10
974.99999999975807
 20
-1139.0027073587007
 30
0.0
 11
-975.00000000024193
 21
-1139.0027073587007
 31
0.0
  0
MTEXT
  5
143
100
AcDbEntity
  8
notes
390
0
 62
               7
100
AcDbMText
 10
-834.11380203921908
 20
153.03127564130773
 30
0.0
 40
24.432617187500004
 41
831.26376222369095
 71
               1
 72
               1
  1
＝φ30もしくはφ35の水栓取付用穴あけ加工を承ります。\P   必要な場合、ご注文の際にご指示ください。
  7
ＭＳ ゴシック
 73
               1
 44
1.0437689845677123
  0
MTEXT
  5
144
100
AcDbEntity
  8
notes
390
0
 62
               7
100
AcDbMText
 10
-265.10488109583275
 20
-294.3765753448115
 30
0.0
 40
24.432617187500004
 41
0.0
 71
               1
 72
               1
  1
壁取付ボルト位置(2ヶ所)
  7
ＭＳ ゴシック
 73
               1
 44
0.7828267384257843
  0
MTEXT
  5
145
100
AcDbEntity
  8
notes
390
0
 62
               7
100
AcDbMText
 10
316.15412685113915
 20
1111.5927375614165
 30
0.0
 40
24.432617187500004
 41
0.0
 71
               1
 72
               1
  1
カウンター切込寸法
  7
ＭＳ ゴシック
 73
               1
 44
0.7828267384257843
  0
LINE
  5
146
100
AcDbEntity
  8
notes
370
               5
390
0
  6
Continuous
 62
               7
100
AcDbLine
 10
-398.63428103441947
 20
-448.13486745674891
 30
0.0
 11
-233.38184521946278
 21
-337.68881045062517
 31
0.0
  0
CIRCLE
  5
147
100
AcDbEntity
  8
notes
370
              15
390
0
  6
STYLE_12
 62
               7
100
AcDbCircle
 10
-855.85003981552836
 20
139.84628250862625
 30
0.0
 40
17.5
  0
MTEXT
  5
148
100
AcDbEntity
  8
notes
390
0
 62
               7
100
AcDbMText
 10
79.580419358617291
 20
153.03127564130773
 30
0.0
 40
24.432617187500004
 41
764.7717154610109
 71
               1
 72
               1
  1
※陶器製品には寸法公差があります。\P  洗面器の収め方をご確認の上、必ず現物を合わせて\P  カウンターに切込を行ってください。
  7
ＭＳ ゴシック
 73
               1
 44
1.0437689845677123
  0
DIMENSION
  5
149
100
AcDbEntity
  8
notes
370
               5
390
0
  6
Continuous
 62
               7
100
AcDbDimension
  2
*D3
 10
-663.6226623068651
 20
1082.7873304268051
 30
0.0
 11
-463.62266230686691
 21
1082.7873304268051
 31
0.0
 71
               5
 72
               1
 41
1.0
 42
0.0
  3
tform線あり
100
AcDbAlignedDimension
 13
-263.62266230686691
 23
926.78733042680506
 33
0.0
 14
-663.6226623068651
 24
926.78733042680506
 34
0.0
100
AcDbRotatedDimension
1001
ACAD
1000
DSTYLE
1002
{
1070
             279
1070
               2
1070
             340
1005
34
1070
             147
1040
5.0
1002
}
  0
DIMENSION
  5
14A
100
AcDbEntity
  8
notes
370
               5
390
0
  6
Continuous
 62
               7
100
AcDbDimension
  2
*D4
 10
-463.62266230686873
 20
1032.7873304268051
 30
0.0
 11
-413.62266230686873
 21
1032.7873304268051
 31
0.0
 71
               5
 72
               1
 41
1.0
 42
0.0
  3
tform線あり
100
AcDbAlignedDimension
 13
-363.62266230686873
 23
859.56924777645963
 33
0.0
 14
-463.62266230686873
 24
862.06924777645963
 34
0.0
100
AcDbRotatedDimension
1001
ACAD
1000
DSTYLE
1002
{
1070
             279
1070
               2
1070
             340
1005
34
1070
             147
1040
5.0
1002
}
  0
DIMENSION
  5
14B
100
AcDbEntity
  8
notes
370
               5
390
0
  6
Continuous
 62
               7
100
AcDbDimension
  2
*D5
 10
-463.62266230686873
 20
1032.7873304268051
 30
0.0
 11
-513.62266230686873
 21
1032.7873304268051
 31
0.0
 71
               5
 72
               1
 41
1.0
 42
0.0
  3
tform線あり
100
AcDbAlignedDimension
 13
-563.62266230686873
 23
859.56924777645963
 33
0.0
 14
-463.62266230686873
 24
862.06924777645963
 34
0.0
100
AcDbRotatedDimension
1001
ACAD
1000
DSTYLE
1002
{
1070
             279
1070
               2
1070
             340
1005
34
1070
             147
1040
5.0
1002
}
  0
DIMENSION
  5
14C
100
AcDbEntity
  8
notes
370
               5
390
0
  6
Continuous
 62
               7
100
AcDbDimension
  2
*D6
 10
-763.62266230686873
 20
932.78733042680506
 30
0.0
 11
-763.62266230686873
 21
607.78733042680688
 31
0.0
 71
               5
 72
               1
 41
1.0
 42
0.0
  3
tform線あり
100
AcDbAlignedDimension
 13
-657.62266230686873
 23
282.78733042680869
 33
0.0
 14
-657.62266230686873
 24
932.78733042680506
 34
0.0
 50
90.0
100
AcDbRotatedDimension
1001
ACAD
1000
DSTYLE
1002
{
1070
             279
1070
               2
1070
             340
1005
34
1070
             147
1040
5.0
1002
}
  0
DIMENSION
  5
14D
100
AcDbEntity
  8
notes
370
               5
390
0
  6
Continuous
 62
               7
100
AcDbDimension
  2
*D7
 10
-528.63428103441947
 20
-283.13486745674891
 30
0.0
 11
-463.63428103441947
 21
-283.13486745674891
 31
0.0
 71
               5
 72
               1
 41
1.0
 42
0.0
  3
tform線あり
100
AcDbAlignedDimension
 13
-398.63428103441947
 23
-428.13486745674891
 33
0.0
 14
-528.63428103441947
 24
-428.13486745674891
 34
0.0
100
AcDbRotatedDimension
1001
ACAD
1000
DSTYLE
1002
{
1070
             279
1070
               2
1070
             340
1005
34
1070
             147
1040
5.0
1002
}
  0
DIMENSION
  5
14E
100
AcDbEntity
  8
notes
370
               5
390
0
  6
Continuous
 62
               7
100
AcDbDimension
  2
*D8
 10
-763.62266230686873
 20
-448.13486745674891
 30
0.0
 11
-763.62266230686873
 21
-415.63486745674891
 31
0.0
 71
               5
 72
               1
 41
1.0
 42
0.0
  3
tform線あり
100
AcDbAlignedDimension
 13
-658.62266230686873
 23
-383.134867456748
 33
0.0
 14
-578.63428103441947
 24
-448.13486745674891
 34
0.0
 50
90.0
100
AcDbRotatedDimension
1001
ACAD
1000
DSTYLE
1002
{
1070
             279
1070
               2
1070
             340
1005
34
1070
             147
1040
5.0
1002
}
  0
DIMENSION
  5
14F
100
AcDbEntity
  8
notes
370
               5
390
0
  6
Continuous
 62
               7
100
AcDbDimension
  2
*D9
 10
-163.62266230686873
 20
-383.134867456748
 30
0.0
 11
-163.62266230686873
 21
-583.13486745674891
 31
0.0
 71
               5
 72
               1
 41
1.0
 42
0.0
  3
tform線あり
100
AcDbAlignedDimension
 13
-268.62266230686873
 23
-783.13486745675073
 33
0.0
 14
-268.62266230686873
 24
-383.134867456748
 34
0.0
 50
90.0
100
AcDbRotatedDimension
1001
ACAD
1000
DSTYLE
1002
{
1070
             279
1070
               2
1070
             340
1005
34
1070
             147
1040
5.0
1002
}
  0
DIMENSION
  5
150
100
AcDbEntity
  8
notes
370
               5
390
0
  6
Continuous
 62
               7
100
AcDbDimension
  2
*D10
 10
-163.62266230686873
 20
932.78733042680506
 30
0.0
 11
-163.62266230686873
 21
857.78733042680597
 31
0.0
 71
               5
 72
               1
 41
1.0
 42
0.0
  3
tform線あり
100
AcDbAlignedDimension
 13
-263.62266230686873
 23
782.78733042680688
 33
0.0
 14
-269.62266230686873
 24
932.78733042680506
 34
0.0
 50
90.0
100
AcDbRotatedDimension
1001
ACAD
1000
DSTYLE
1002
{
1070
             279
1070
               2
1070
             340
1005
34
1070
             147
1040
5.0
1002
}
  0
DIMENSION
  5
151
100
AcDbEntity
  8
notes
370
               5
390
0
  6
Continuous
 62
               7
100
AcDbDimension
  2
*D11
 10
-163.62266230686873
 20
782.78733042680688
 30
0.0
 11
-163.62266230686873
 21
552.78733042680778
 31
0.0
 71
               5
 72
               1
 41
1.0
 42
0.0
  3
tform線あり
100
AcDbAlignedDimension
 13
-263.62266230686873
 23
322.78733042680869
 33
0.0
 14
-263.62266230686873
 24
782.78733042680688
 34
0.0
 50
90.0
100
AcDbRotatedDimension
1001
ACAD
1000
DSTYLE
1002
{
1070
             279
1070
               2
1070
             340
1005
34
1070
             147
1040
5.0
1002
}
  0
DIMENSION
  5
152
100
AcDbEntity
  8
notes
370
               5
390
0
  6
Continuous
 62
               7
100
AcDbDimension
  2
*D12
 10
-623.62266230686873
 20
182.78733042680869
 30
0.0
 11
-463.62266230686873
 21
182.78733042680869
 31
0.0
 71
               5
 72
               1
 41
1.0
 42
0.0
  3
tform線あり
100
AcDbAlignedDimension
 13
-303.62266230686873
 23
282.78733042680869
 33
0.0
 14
-623.62266230686873
 24
282.78733042680869
 34
0.0
100
AcDbRotatedDimension
1001
ACAD
1000
DSTYLE
1002
{
1070
             279
1070
               2
1070
             340
1005
34
1070
             147
1040
5.0
1002
}
  0
DIMENSION
  5
153
100
AcDbEntity
  8
notes
370
               5
390
0
  6
Continuous
 62
               7
100
AcDbDimension
  2
*D13
 10
790.54288084173641
 20
-883.13486745675073
 30
0.0
 11
600.54288084173641
 21
-883.13486745675073
 31
0.0
 71
               5
 72
               1
 41
1.0
 42
0.0
  3
tform線あり
100
AcDbAlignedDimension
 13
410.54288084173459
 23
-703.13486745675073
 33
0.0
 14
790.54288084173641
 24
-779.13486745674709
 34
0.0
100
AcDbRotatedDimension
1001
ACAD
1000
DSTYLE
1002
{
1070
             279
1070
               2
1070
             340
1005
34
1070
             147
1040
5.0
1002
}
  0
DIMENSION
  5
154
100
AcDbEntity
  8
notes
370
               5
390
0
  6
Continuous
 62
               7
100
AcDbDimension
  2
*D14
 10
398.21192501705809
 20
-383.134867456748
 30
0.0
 11
403.21192501705809
 21
-518.13486745674982
 31
0.0
 70
             128
 71
               5
 72
               1
 41
1.0
 42
0.0
  3
tform線あり
100
AcDbAlignedDimension
 13
386.17687255507371
 23
-653.13486745675073
 33
0.0
 14
386.17687255507371
 24
-383.134867456748
 34
0.0
 50
90.0
100
AcDbRotatedDimension
1001
ACAD
1000
DSTYLE
1002
{
1070
             279
1070
               2
1070
             340
1005
34
1070
               3
1000
<>(深さ)
1070
             147
1040
5.0
1002
}
  0
DIMENSION
  5
155
100
AcDbEntity
  8
notes
370
               5
390
0
  6
Continuous
 62
               7
100
AcDbDimension
  2
*D15
 10
790.54288084173641
 20
-283.134867456748
 30
0.0
 11
745.54288084173641
 21
-283.134867456748
 31
0.0
 71
               5
 72
               1
 41
1.0
 42
0.0
  3
tform線あり
100
AcDbAlignedDimension
 13
700.54288084173641
 23
-383.134867456748
 33
0.0
 14
790.54288084173641
 24
-389.134867456748
 34
0.0
100
AcDbRotatedDimension
1001
ACAD
1000
DSTYLE
1002
{
1070
             279
1070
               2
1070
             340
1005
34
1070
             147
1040
5.0
1002
}
  0
DIMENSION
  5
156
100
AcDbEntity
  8
notes
370
               5
390
0
  6
Continuous
 62
               7
100
AcDbDimension
  2
*D16
 10
750.81900435979514
 20
502.78733042680506
 30
0.0
 11
750.81900435979514
 21
702.78733042680506
 31
0.0
 71
               5
 72
               1
 41
1.0
 42
0.0
  3
tform線あり
100
AcDbAlignedDimension
 13
590.81900435979514
 23
902.78733042680506
 33
0.0
 14
590.81900435979514
 24
502.78733042680506
 34
0.0
 50
90.0
100
AcDbRotatedDimension
1001
ACAD
1000
DSTYLE
1002
{
1070
             279
1070
               2
1070
             340
1005
34
1070
             147
1040
5.0
1002
}
  0
DIMENSION
  5
157
100
AcDbEntity
  8
notes
370
               5
390
0
  6
Continuous
 62
               7
100
AcDbDimension
  2
*D17
 10
750.81900435979514
 20
902.78733042680506
 30
0.0
 11
755.81900435979514
 21
940.55205340042085
 31
0.0
 70
             128
 71
               5
 72
               1
 41
1.0
 42
0.0
  3
tform線あり
100
AcDbAlignedDimension
 13
642.78052858685987
 23
932.78733042680506
 33
0.0
 14
590.81900435979514
 24
902.78733042680506
 34
0.0
 50
90.0
100
AcDbRotatedDimension
1001
ACAD
1000
DSTYLE
1002
{
1070
             279
1070
               2
1070
             340
1005
34
1070
             174
1070
               0
1070
             147
1040
5.0
1002
}
  0
DIMENSION
  5
158
100
AcDbEntity
  8
notes
370
               5
390
0
  6
Continuous
 62
               7
100
AcDbDimension
  2
*D18
 10
310.81900435979514
 20
379.55205340042085
 30
0.0
 11
450.81900435979514
 21
379.55205340042085
 31
0.0
 71
               5
 72
               1
 41
1.0
 42
0.0
  3
tform線あり
100
AcDbAlignedDimension
 13
590.81900435979514
 23
502.78733042680506
 33
0.0
 14
310.81900435979514
 24
502.78733042680506
 34
0.0
100
AcDbRotatedDimension
1001
ACAD
1000
DSTYLE
1002
{
1070
             279
1070
               2
1070
             340
1005
34
1070
             147
1040
5.0
1002
}
  0
MTEXT
  5
159
100
AcDbEntity
  8
notes
390
0
 62
               7
100
AcDbMText
 10
79.580419358617291
 20
153.03127564130773
 30
0.0
 40
24.432617187500004
 41
764.7717154610109
 71
               1
 72
               1
  1
※陶器製品には寸法公差があります。\P  洗面器の収め方をご確認の上、必ず現物を合わせて\P  カウンターに切込を行ってください。
  7
ＭＳ ゴシック
 73
               1
 44
1.0437689845677123
  0
CIRCLE
  5
15A
100
AcDbEntity
  8
ADF70-0605
370
              15
390
0
  6
Continuous
 62
               7
100
AcDbCircle
 10
-463.62266230686873
 20
552.78733042680869
 30
0.0
 40
37.5
  0
CIRCLE
  5
15B
100
AcDbEntity
  8
ADF70-0605
370
              15
390
0
  6
Continuous
 62
               7
100
AcDbCircle
 10
-463.62266230686873
 20
552.78733042680869
 30
0.0
 40
22.5
  0
LINE
  5
15C
100
AcDbEntity
  8
ADF70-0605
370
              15
390
0
  6
Continuous
 62
               7
100
AcDbLine
 10
-303.62266230686873
 20
774.78733042680688
 30
0.0
 11
-303.62266230686873
 21
330.78733042680869
 31
0.0
  0
LINE
  5
15D
100
AcDbEntity
  8
ADF70-0605
370
              15
390
0
  6
Continuous
 62
               7
100
AcDbLine
 10
-263.62266230686873
 20
292.78733042680869
 30
0.0
 11
-263.62266230686873
 21
660.85125768229955
 31
0.0
  0
LINE
  5
15E
100
AcDbEntity
  8
ADF70-0605
370
              15
390
0
  6
Continuous
 62
               7
100
AcDbLine
 10
-342.62266230686873
 20
369.10512750698581
 30
0.0
 11
-342.62266230686873
 21
737.10913911552143
 31
0.0
  0
LINE
  5
15F
100
AcDbEntity
  8
ADF70-0605
370
              15
390
0
  6
Continuous
 62
               7
100
AcDbLine
 10
-584.62266230687055
 20
369.10512750698581
 30
0.0
 11
-584.62266230686873
 21
737.10913911552325
 31
0.0
  0
LINE
  5
160
100
AcDbEntity
  8
ADF70-0605
370
              15
390
0
  6
Continuous
 62
               7
100
AcDbLine
 10
-263.62266230686873
 20
926.78733042680506
 30
0.0
 11
-263.62266230686873
 21
288.78733042680869
 31
0.0
  0
LINE
  5
161
100
AcDbEntity
  8
ADF70-0605
370
              15
390
0
  6
Continuous
 62
               7
100
AcDbLine
 10
-623.62266230686873
 20
330.78733042680869
 30
0.0
 11
-623.62266230686873
 21
774.78733042680688
 31
0.0
  0
LINE
  5
162
100
AcDbEntity
  8
ADF70-0605
370
              15
390
0
  6
Continuous
 62
               7
100
AcDbLine
 10
-663.62266230686873
 20
288.78733042680869
 30
0.0
 11
-663.62266230686873
 21
926.78733042680506
 31
0.0
  0
LINE
  5
163
100
AcDbEntity
  8
ADF70-0605
370
              15
390
0
  6
Continuous
 62
               7
100
AcDbLine
 10
790.54288084173641
 20
-779.13486745674709
 30
0.0
 11
790.54288084173641
 21
-389.134867456748
 31
0.0
  0
LINE
  5
164
100
AcDbEntity
  8
ADF70-0605
370
              15
390
0
  6
Continuous
 62
               7
100
AcDbLine
 10
786.54288084173641
 20
-783.13486745674891
 30
0.0
 11
144.54288084173459
 21
-783.13486745674891
 31
0.0
  0
ARC
  5
165
100
AcDbEntity
  8
ADF70-0605
370
              15
390
0
  6
Continuous
 62
               7
100
AcDbCircle
 10
786.54288084173641
 20
-779.13486745674891
 30
0.0
 40
4.0
100
AcDbArc
 50
270.0
 51
0.0
  0
ARC
  5
166
100
AcDbEntity
  8
ADF70-0605
370
              15
390
0
  6
Continuous
 62
               7
100
AcDbCircle
 10
786.54288084173641
 20
-779.13486745674891
 30
0.0
 40
4.0
100
AcDbArc
 50
270.0
 51
0.0
  0
LINE
  5
167
100
AcDbEntity
  8
ADF70-0605
370
              15
390
0
  6
STYLE_12
 62
               7
100
AcDbLine
 10
449.54288084173459
 20
-654.93486745675182
 30
0.0
 11
371.54288084173459
 21
-654.93486745675182
 31
0.0
  0
LINE
  5
168
100
AcDbEntity
  8
ADF70-0605
370
              15
390
0
  6
STYLE_12
 62
               7
100
AcDbLine
 10
433.04288084173459
 20
-662.93486745675182
 30
0.0
 11
388.04288084173459
 21
-662.93486745675182
 31
0.0
  0
ARC
  5
169
100
AcDbEntity
  8
ADF70-0605
370
              15
390
0
  6
Continuous
 62
               7
100
AcDbCircle
 10
784.54288084173641
 20
-389.134867456748
 30
0.0
 40
6.0
100
AcDbArc
 50
0.0
 51
90.0
  0
LINE
  5
16A
100
AcDbEntity
  8
ADF70-0605
370
              15
390
0
  6
Continuous
 62
               7
100
AcDbLine
 10
718.04288084173641
 20
-398.134867456748
 30
0.0
 11
718.04288084173641
 21
-383.134867456748
 31
0.0
  0
LINE
  5
16B
100
AcDbEntity
  8
ADF70-0605
370
              15
390
0
  6
Continuous
 62
               7
100
AcDbLine
 10
176.01308107734258
 20
-383.134867456748
 30
0.0
 11
642.4742583913503
 21
-383.134867456748
 31
0.0
  0
LINE
  5
16C
100
AcDbEntity
  8
ADF70-0605
370
              15
390
0
  6
Continuous
 62
               7
100
AcDbLine
 10
-350.62266230686873
 20
745.10913911552143
 30
0.0
 11
-576.62266230686873
 21
745.10913911552325
 31
0.0
  0
LINE
  5
16D
100
AcDbEntity
  8
ADF70-0605
370
              15
390
0
  6
Continuous
 62
               7
100
AcDbLine
 10
-615.62266230686873
 20
782.78733042680688
 30
0.0
 11
-311.62266230686873
 21
782.78733042680688
 31
0.0
  0
LINE
  5
16E
100
AcDbEntity
  8
ADF70-0605
370
              15
390
0
  6
Continuous
 62
               7
100
AcDbLine
 10
-657.62266230686873
 20
932.78733042680506
 30
0.0
 11
-269.62266230686873
 21
932.78733042680506
 31
0.0
  0
ARC
  5
16F
100
AcDbEntity
  8
ADF70-0605
370
              15
390
0
  6
Continuous
 62
               7
100
AcDbCircle
 10
-657.6226623068651
 20
926.78733042680506
 30
0.0
 40
6.0
100
AcDbArc
 50
90.0
 51
180.0
  0
CIRCLE
  5
170
100
AcDbEntity
  8
ADF70-0605
370
              15
390
0
  6
STYLE_12
 62
               7
100
AcDbCircle
 10
-563.62266230686873
 20
844.56924777645963
 30
0.0
 40
15.0
  0
ARC
  5
171
100
AcDbEntity
  8
ADF70-0605
370
              15
390
0
  6
Continuous
 62
               7
100
AcDbCircle
 10
-615.62266230686691
 20
774.78733042680688
 30
0.0
 40
8.0
100
AcDbArc
 50
90.0
 51
180.0
  0
ARC
  5
172
100
AcDbEntity
  8
ADF70-0605
370
              15
390
0
  6
Continuous
 62
               7
100
AcDbCircle
 10
-576.62266230686873
 20
737.10913911552325
 30
0.0
 40
8.0
100
AcDbArc
 50
90.0
 51
180.0
  0
LINE
  5
173
100
AcDbEntity
  8
ADF70-0605
370
              15
390
0
  6
Continuous
 62
               7
100
AcDbLine
 10
-617.06434679689846
 20
776.22901491684024
 30
0.0
 11
-588.01012799018645
 21
747.17479611012823
 31
0.0
  0
ARC
  5
174
100
AcDbEntity
  8
ADF70-0605
370
              15
390
0
  6
Continuous
 62
               7
100
AcDbCircle
 10
-311.62266230686873
 20
774.78733042680688
 30
0.0
 40
8.0
100
AcDbArc
 50
0.0
 51
90.0
  0
CIRCLE
  5
175
100
AcDbEntity
  8
ADF70-0605
370
              15
390
0
  6
STYLE_12
 62
               7
100
AcDbCircle
 10
-463.62266230686873
 20
844.56924777645963
 30
0.0
 40
17.5
  0
CIRCLE
  5
176
100
AcDbEntity
  8
ADF70-0605
370
              15
390
0
  6
STYLE_12
 62
               7
100
AcDbCircle
 10
-363.62266230686873
 20
844.56924777645963
 30
0.0
 40
15.0
  0
ARC
  5
177
100
AcDbEntity
  8
ADF70-0605
370
              15
390
0
  6
Continuous
 62
               7
100
AcDbCircle
 10
-350.62266230686691
 20
737.10913911552143
 30
0.0
 40
8.0
100
AcDbArc
 50
0.0
 51
90.0
  0
LINE
  5
178
100
AcDbEntity
  8
ADF70-0605
370
              15
390
0
  6
Continuous
 62
               7
100
AcDbLine
 10
-310.180977816839
 20
776.22901491684024
 30
0.0
 11
-339.23519662355102
 21
747.17479611012823
 31
0.0
  0
ARC
  5
179
100
AcDbEntity
  8
ADF70-0605
370
              15
390
0
  6
Continuous
 62
               7
100
AcDbCircle
 10
-269.62266230686691
 20
926.78733042680506
 30
0.0
 40
6.0
100
AcDbArc
 50
0.0
 51
90.0
  0
LINE
  5
17A
100
AcDbEntity
  8
ADF70-0605
370
              15
390
0
  6
Continuous
 62
               7
100
AcDbLine
 10
-350.62266230686873
 20
361.10512750698581
 30
0.0
 11
-576.62266230687055
 21
361.10512750698581
 31
0.0
  0
LINE
  5
17B
100
AcDbEntity
  8
ADF70-0605
370
              15
390
0
  6
Continuous
 62
               7
100
AcDbLine
 10
-311.62266230686873
 20
322.78733042680869
 30
0.0
 11
-615.62266230686873
 21
322.78733042680869
 31
0.0
  0
LINE
  5
17C
100
AcDbEntity
  8
ADF70-0605
370
              15
390
0
  6
Continuous
 62
               7
100
AcDbLine
 10
-269.62266230686873
 20
282.78733042680869
 30
0.0
 11
-657.62266230686873
 21
282.78733042680869
 31
0.0
  0
LINE
  5
17D
100
AcDbEntity
  8
ADF70-0605
370
              15
390
0
  6
Continuous
 62
               7
100
AcDbLine
 10
-617.06434679689846
 20
329.34564593677896
 30
0.0
 11
-588.01012799018645
 21
358.39986474348734
 31
0.0
  0
ARC
  5
17E
100
AcDbEntity
  8
ADF70-0605
370
              15
390
0
  6
Continuous
 62
               7
100
AcDbCircle
 10
-576.62266230687055
 20
369.10512750698581
 30
0.0
 40
8.0
100
AcDbArc
 50
180.0
 51
270.0
  0
ARC
  5
17F
100
AcDbEntity
  8
ADF70-0605
370
              15
390
0
  6
Continuous
 62
               7
100
AcDbCircle
 10
-615.62266230686873
 20
330.78733042680869
 30
0.0
 40
8.0
100
AcDbArc
 50
180.0
 51
270.0
  0
ARC
  5
180
100
AcDbEntity
  8
ADF70-0605
370
              15
390
0
  6
Continuous
 62
               7
100
AcDbCircle
 10
-657.62266230686873
 20
288.78733042680869
 30
0.0
 40
6.0
100
AcDbArc
 50
180.0
 51
270.0
  0
ARC
  5
181
100
AcDbEntity
  8
ADF70-0605
370
              15
390
0
  6
Continuous
 62
               7
100
AcDbCircle
 10
-311.62266230686873
 20
330.78733042680869
 30
0.0
 40
8.0
100
AcDbArc
 50
270.0
 51
0.0
  0
LINE
  5
182
100
AcDbEntity
  8
ADF70-0605
370
              15
390
0
  6
Continuous
 62
               7
100
AcDbLine
 10
-310.180977816839
 20
329.34564593677896
 30
0.0
 11
-339.23519662355284
 21
358.39986474348734
 31
0.0
  0
ARC
  5
183
100
AcDbEntity
  8
ADF70-0605
370
              15
390
0
  6
Continuous
 62
               7
100
AcDbCircle
 10
-350.62266230686873
 20
369.10512750698581
 30
0.0
 40
8.0
100
AcDbArc
 50
270.0
 51
0.0
  0
ARC
  5
184
100
AcDbEntity
  8
ADF70-0605
370
              15
390
0
  6
Continuous
 62
               7
100
AcDbCircle
 10
-269.62266230686873
 20
288.78733042680869
 30
0.0
 40
6.0
100
AcDbArc
 50
270.0
 51
0.0
  0
LINE
  5
185
100
AcDbEntity
  8
ADF70-0605
370
              15
390
0
  6
STYLE_12
 62
               7
100
AcDbLine
 10
433.10360245127958
 20
-703.13486745675073
 30
0.0
 11
388.04288084173459
 21
-703.13486745675073
 31
0.0
  0
LWPOLYLINE
  5
186
100
AcDbEntity
  8
ADF70-0605
370
              15
390
0
  6
STYLE_12
 62
               7
100
AcDbPolyline
 90
        5
 70
             128
 10
449.54288084173459
 20
-654.93486745675182
 10
603.30792639946776
 20
-649.56527374493817
 42
0.3868639340896013
 10
627.39139913565305
 20
-626.06376056719364
 10
640.47547673731242
 20
-385.06506846334287
 42
-0.4040262258351368
 10
642.4742583913503
 20
-383.134867456748
 42
-0.4040262258351368
  0
LINE
  5
187
100
AcDbEntity
  8
ADF70-0605
370
              15
390
0
  6
Continuous
 62
               7
100
AcDbLine
 10
784.54288084173641
 20
-383.134867456748
 30
0.0
 11
642.4742583913503
 21
-383.134867456748
 31
0.0
  0
POLYLINE
  5
188
100
AcDbEntity
  8
ADF70-0605
370
              15
390
0
  6
Continuous
 62
               7
100
AcDb2dPolyline
 66
               1
 10
0.0
 20
0.0
 30
0.0
 75
               5
  0
VERTEX
  5
189
100
AcDbEntity
  8
ADF70-0605
370
              15
390
0
  6
Continuous
 62
               7
100
AcDbVertex
100
AcDb2dVertex
 10
683.17687255507553
 20
-398.134867456748
 30
0.0
  0
VERTEX
  5
18A
100
AcDbEntity
  8
ADF70-0605
370
              15
390
0
  6
Continuous
 62
               7
100
AcDbVertex
100
AcDb2dVertex
 10
683.17687255507553
 20
-393.75823678976758
 30
0.0
  0
VERTEX
  5
18B
100
AcDbEntity
  8
ADF70-0605
370
              15
390
0
  6
Continuous
 62
               7
100
AcDbVertex
100
AcDb2dVertex
 10
683.17687255507553
 20
-383.134867456748
 30
0.0
  0
SEQEND
  5
18C
100
AcDbEntity
  8
ADF70-0605
370
              15
390
0
  6
Continuous
 62
               7
  0
LINE
  5
18D
100
AcDbEntity
  8
ADF70-0605
370
              15
390
0
  6
STYLE_12
 62
               7
100
AcDbLine
 10
433.10360245127958
 20
-662.90542667636601
 30
0.0
 11
433.10360245127958
 21
-703.13486745675073
 31
0.0
  0
LINE
  5
18E
100
AcDbEntity
  8
ADF70-0605
370
              15
390
0
  6
STYLE_12
 62
               7
100
AcDbLine
 10
433.04288084173459
 20
-662.93486745675182
 30
0.0
 11
449.54288084173459
 21
-654.93486745675182
 31
0.0
  0
LINE
  5
18F
100
AcDbEntity
  8
ADF70-0605
370
              15
390
0
  6
STYLE_12
 62
               7
100
AcDbLine
 10
388.04288084173459
 20
-703.13486745675073
 30
0.0
 11
386.76532316829616
 21
-703.13486745675073
 31
0.0
  0
LINE
  5
190
100
AcDbEntity
  8
ADF70-0605
370
              15
390
0
  6
STYLE_12
 62
               7
100
AcDbLine
 10
388.04288084173459
 20
-662.93486745675182
 30
0.0
 11
388.04288084173459
 21
-703.13486745675073
 31
0.0
  0
LINE
  5
191
100
AcDbEntity
  8
ADF70-0605
370
              15
390
0
  6
STYLE_12
 62
               7
100
AcDbLine
 10
371.54288084173459
 20
-654.93486745675182
 30
0.0
 11
388.04288084173459
 21
-662.93486745675182
 31
0.0
  0
LWPOLYLINE
  5
192
100
AcDbEntity
  8
ADF70-0605
370
              15
390
0
  6
STYLE_12
 62
               7
100
AcDbPolyline
 90
        5
 70
             128
 10
371.54288084173459
 20
-654.93486745675182
 10
218.43053241892812
 20
-649.58806643113348
 42
-0.3867144843137514
 10
194.34783435591089
 20
-626.09953023921662
 10
180.00591075423654
 20
-386.89546993937893
 42
0.3967804090801071
 10
176.01308107734258
 20
-383.134867456748
 42
0.3967804090801071
  0
LINE
  5
193
100
AcDbEntity
  8
ADF70-0605
370
              15
390
0
  6
Continuous
 62
               7
100
AcDbLine
 10
146.54288084173459
 20
-383.13486745674982
 30
0.0
 11
176.01308107734258
 21
-383.134867456748
 31
0.0
  0
ARC
  5
194
100
AcDbEntity
  8
ADF70-0605
370
              15
390
0
  6
Continuous
 62
               7
100
AcDbCircle
 10
146.54288084173459
 20
-389.13486745674982
 30
0.0
 40
6.0
100
AcDbArc
 50
90.0
 51
180.0
  0
LINE
  5
195
100
AcDbEntity
  8
ADF70-0605
370
              15
390
0
  6
Continuous
 62
               7
100
AcDbLine
 10
140.54288084173459
 20
-779.13486745674891
 30
0.0
 11
140.54288084173459
 21
-389.13486745674982
 31
0.0
  0
ARC
  5
196
100
AcDbEntity
  8
ADF70-0605
370
              15
390
0
  6
Continuous
 62
               7
100
AcDbCircle
 10
144.54288084173459
 20
-779.13486745674891
 30
0.0
 40
4.0
100
AcDbArc
 50
180.0
 51
270.0
  0
LWPOLYLINE
  5
197
100
AcDbEntity
  8
ADF70-0605
370
              15
390
0
  6
Continuous
 62
               7
100
AcDbPolyline
 90
        8
 70
             129
 10
-663.62266230686873
 20
-388.134867456748
 42
-0.414213562373095
 10
-658.62266230686873
 20
-383.134867456748
 10
-268.62266230686873
 20
-383.134867456748
 42
-0.4142135623732016
 10
-263.62266230686873
 20
-388.134867456748
 10
-263.62266230686873
 20
-778.13486745675073
 42
-0.414213562373095
 10
-268.62266230686873
 20
-783.13486745675073
 10
-658.62266230686873
 20
-783.13486745675073
 42
-0.4142135623732016
 10
-663.62266230686873
 20
-778.13486745675073
  0
LINE
  5
198
100
AcDbEntity
  8
ADF70-0605
370
              15
390
0
  6
STYLE_12
 62
               7
100
AcDbLine
 10
-502.59230150209623
 20
-654.93486745675182
 30
0.0
 11
-424.59230150209623
 21
-654.93486745675182
 31
0.0
  0
LINE
  5
199
100
AcDbEntity
  8
ADF70-0605
370
              15
390
0
  6
STYLE_12
 62
               7
100
AcDbLine
 10
-486.09230150209623
 20
-662.93486745675182
 30
0.0
 11
-441.09230150209623
 21
-662.93486745675182
 31
0.0
  0
LINE
  5
19A
100
AcDbEntity
  8
ADF70-0605
370
              15
390
0
  6
STYLE_12
 62
               7
100
AcDbLine
 10
-486.15302311164123
 20
-703.13486745675073
 30
0.0
 11
-441.09230150209623
 21
-703.13486745675073
 31
0.0
  0
LINE
  5
19B
100
AcDbEntity
  8
ADF70-0605
370
              15
390
0
  6
STYLE_12
 62
               7
100
AcDbLine
 10
-441.09230150209623
 20
-662.93486745675182
 30
0.0
 11
-441.09230150209623
 21
-703.13486745675073
 31
0.0
  0
LINE
  5
19C
100
AcDbEntity
  8
ADF70-0605
370
              15
390
0
  6
STYLE_12
 62
               7
100
AcDbLine
 10
-424.59230150209623
 20
-654.93486745675182
 30
0.0
 11
-441.09230150209623
 21
-662.93486745675182
 31
0.0
  0
LINE
  5
19D
100
AcDbEntity
  8
ADF70-0605
370
              15
390
0
  6
STYLE_12
 62
               7
100
AcDbLine
 10
-423.8742188517499
 20
-654.90979145804249
 30
0.0
 11
-424.59230150209623
 21
-654.93486745675182
 31
0.0
  0
LINE
  5
19E
100
AcDbEntity
  8
ADF70-0605
370
              15
390
0
  6
STYLE_12
 62
               7
100
AcDbLine
 10
-486.15302311164123
 20
-662.93486745675182
 30
0.0
 11
-486.15302311164123
 21
-703.13486745675073
 31
0.0
  0
LINE
  5
19F
100
AcDbEntity
  8
ADF70-0605
370
              15
390
0
  6
STYLE_12
 62
               7
100
AcDbLine
 10
-502.65302311164123
 20
-654.93486745675182
 30
0.0
 11
-486.15302311164123
 21
-662.93486745675182
 31
0.0
  0
LINE
  5
1A0
100
AcDbEntity
  8
ADF70-0605
370
              15
390
0
  6
STYLE_12
 62
               7
100
AcDbLine
 10
-503.37110576198756
 20
-654.90979145804249
 30
0.0
 11
-502.65302311164123
 21
-654.93486745675182
 31
0.0
  0
LINE
  5
1A1
100
AcDbEntity
  8
ADF70-0605
370
              15
390
0
  6
STYLE_12
 62
               7
100
AcDbLine
 10
-528.63428103441947
 20
-468.13486745674891
 30
0.0
 11
-528.63428103441947
 21
-428.13486745674891
 31
0.0
  0
LINE
  5
1A2
100
AcDbEntity
  8
ADF70-0605
370
              15
390
0
  6
STYLE_12
 62
               7
100
AcDbLine
 10
-624.154853471362
 20
-385.06506846334287
 30
0.0
 11
-611.07077586970263
 21
-626.06376056719455
 31
0.0
  0
LINE
  5
1A3
100
AcDbEntity
  8
ADF70-0605
370
              15
390
0
  6
STYLE_12
 62
               7
100
AcDbLine
 10
-503.37110576198756
 20
-654.90979145804249
 30
0.0
 11
-586.98730313351916
 21
-649.56527374493817
 31
0.0
  0
ARC
  5
1A4
100
AcDbEntity
  8
ADF70-0605
370
              15
390
0
  6
STYLE_12
 62
               7
100
AcDbCircle
 10
-586.37932514761815
 20
-624.85156245349754
 30
0.0
 40
24.721188543999599
100
AcDbArc
 50
182.81061318976023
 51
268.59076010637523
  0
ARC
  5
1A5
100
AcDbEntity
  8
ADF70-0605
370
              15
390
0
  6
STYLE_12
 62
               7
100
AcDbCircle
 10
-625.91967292144545
 20
-384.89259250227133
 30
0.0
 40
1.7732274666664751
100
AcDbArc
 50
354.41820425328928
 51
97.581795746697082
  0
LINE
  5
1A6
100
AcDbEntity
  8
ADF70-0605
370
              15
390
0
  6
STYLE_12
 62
               7
100
AcDbLine
 10
-303.09067957898333
 20
-384.9557172907007
 30
0.0
 11
-316.1747571806427
 21
-625.95440939455239
 31
0.0
  0
LINE
  5
1A7
100
AcDbEntity
  8
ADF70-0605
370
              15
390
0
  6
STYLE_12
 62
               7
100
AcDbLine
 10
-423.8742188517499
 20
-654.90979145804249
 30
0.0
 11
-340.25822991682617
 21
-649.455922572296
 31
0.0
  0
ARC
  5
1A8
100
AcDbEntity
  8
ADF70-0605
370
              15
390
0
  6
STYLE_12
 62
               7
100
AcDbCircle
 10
-340.86620790272718
 20
-624.74221128085537
 30
0.0
 40
24.721188544000476
100
AcDbArc
 50
271.40923989362472
 51
357.18938681023997
  0
ARC
  5
1A9
100
AcDbEntity
  8
ADF70-0605
370
              15
390
0
  6
STYLE_12
 62
               7
100
AcDbCircle
 10
-301.32586012889988
 20
-384.78324132962916
 30
0.0
 40
1.7732274666661376
100
AcDbArc
 50
82.418204253302946
 51
185.58179574671075
  0
CIRCLE
  5
1AA
100
AcDbEntity
  8
ADF70-0605
370
               5
390
0
  6
STYLE_12
 62
               7
100
AcDbCircle
 10
450.81900435979514
 20
552.78733042680869
 30
0.0
 40
22.5
  0
LINE
  5
1AB
100
AcDbEntity
  8
ADF70-0605
370
               5
390
0
  6
STYLE_12
 62
               7
100
AcDbLine
 10
650.81900435979514
 20
926.78733042680506
 30
0.0
 11
650.81900435979514
 21
288.78733042680869
 31
0.0
  0
LINE
  5
1AC
100
AcDbEntity
  8
ADF70-0605
370
               5
390
0
  6
STYLE_12
 62
               7
100
AcDbLine
 10
250.81900435979696
 20
288.78733042680869
 30
0.0
 11
250.81900435979696
 21
926.78733042680506
 31
0.0
  0
LINE
  5
1AD
100
AcDbEntity
  8
ADF70-0605
370
               5
390
0
  6
STYLE_01
 62
               7
100
AcDbLine
 10
256.81900435979696
 20
932.78733042680506
 30
0.0
 11
644.81900435979514
 21
932.78733042680506
 31
0.0
  0
ARC
  5
1AE
100
AcDbEntity
  8
ADF70-0605
370
               5
390
0
  6
STYLE_12
 62
               7
100
AcDbCircle
 10
256.81900435979878
 20
926.78733042680506
 30
0.0
 40
6.0
100
AcDbArc
 50
90.0
 51
180.0
  0
CIRCLE
  5
1AF
100
AcDbEntity
  8
ADF70-0605
370
               5
390
0
  6
STYLE_12
 62
               7
100
AcDbCircle
 10
350.81900435979514
 20
844.56924777645963
 30
0.0
 40
15.0
  0
CIRCLE
  5
1B0
100
AcDbEntity
  8
ADF70-0605
370
               5
390
0
  6
STYLE_12
 62
               7
100
AcDbCircle
 10
450.81900435979514
 20
844.56924777645963
 30
0.0
 40
17.5
  0
CIRCLE
  5
1B1
100
AcDbEntity
  8
ADF70-0605
370
               5
390
0
  6
STYLE_12
 62
               7
100
AcDbCircle
 10
550.81900435979514
 20
844.56924777645963
 30
0.0
 40
15.0
  0
ARC
  5
1B2
100
AcDbEntity
  8
ADF70-0605
370
               5
390
0
  6
STYLE_12
 62
               7
100
AcDbCircle
 10
644.81900435979696
 20
926.78733042680506
 30
0.0
 40
6.0
100
AcDbArc
 50
0.0
 51
90.0
  0
LINE
  5
1B3
100
AcDbEntity
  8
ADF70-0605
370
               5
390
0
  6
STYLE_12
 62
               7
100
AcDbLine
 10
644.81900435979514
 20
282.78733042680869
 30
0.0
 11
256.81900435979696
 21
282.78733042680869
 31
0.0
  0
ARC
  5
1B4
100
AcDbEntity
  8
ADF70-0605
370
               5
390
0
  6
STYLE_12
 62
               7
100
AcDbCircle
 10
256.81900435979696
 20
288.78733042680869
 30
0.0
 40
6.0
100
AcDbArc
 50
180.0
 51
270.0
  0
ARC
  5
1B5
100
AcDbEntity
  8
ADF70-0605
370
               5
390
0
  6
STYLE_12
 62
               7
100
AcDbCircle
 10
644.81900435979514
 20
288.78733042680869
 30
0.0
 40
6.0
100
AcDbArc
 50
270.0
 51
0.0
  0
POLYLINE
  5
1B6
100
AcDbEntity
  8
ADF70-0605
370
              15
390
0
  6
Continuous
 62
               7
100
AcDb2dPolyline
 66
               1
 10
0.0
 20
0.0
 30
0.0
 70
               1
 75
               5
  0
VERTEX
  5
1B7
100
AcDbEntity
  8
ADF70-0605
370
              15
390
0
  6
Continuous
 62
               7
100
AcDbVertex
100
AcDb2dVertex
 10
310.81900435979514
 20
902.78733042680506
 30
0.0
  0
VERTEX
  5
1B8
100
AcDbEntity
  8
ADF70-0605
370
              15
390
0
  6
Continuous
 62
               7
100
AcDbVertex
100
AcDb2dVertex
 10
590.81900435979514
 20
902.78733042680506
 30
0.0
  0
VERTEX
  5
1B9
100
AcDbEntity
  8
ADF70-0605
370
              15
390
0
  6
Continuous
 62
               7
100
AcDbVertex
100
AcDb2dVertex
 10
590.81900435979514
 20
502.78733042680506
 30
0.0
  0
VERTEX
  5
1BA
100
AcDbEntity
  8
ADF70-0605
370
              15
390
0
  6
Continuous
 62
               7
100
AcDbVertex
100
AcDb2dVertex
 10
310.81900435979514
 20
502.78733042680506
 30
0.0
  0
SEQEND
  5
1BB
100
AcDbEntity
  8
ADF70-0605
370
              15
390
0
  6
Continuous
 62
               7
  0
LINE
  5
1BC
100
AcDbEntity
  8
ADF70-0605
370
              15
390
0
  6
STYLE_12
 62
               7
100
AcDbLine
 10
-508.63428103441947
 20
-448.13486745674891
 30
0.0
 11
-548.63428103441947
 21
-448.13486745674891
 31
0.0
  0
LINE
  5
1BD
100
AcDbEntity
  8
ADF70-0605
370
              15
390
0
  6
STYLE_12
 62
               7
100
AcDbLine
 10
-398.63428103441947
 20
-468.13486745674891
 30
0.0
 11
-398.63428103441947
 21
-428.13486745674891
 31
0.0
  0
LINE
  5
1BE
100
AcDbEntity
  8
ADF70-0605
370
              15
390
0
  6
STYLE_12
 62
               7
100
AcDbLine
 10
-378.63428103441947
 20
-448.13486745674891
 30
0.0
 11
-418.63428103441947
 21
-448.13486745674891
 31
0.0
  0
CIRCLE
  5
1BF
100
AcDbEntity
  8
ADF70-0605
370
              15
390
0
  6
STYLE_12
 62
               7
100
AcDbCircle
 10
-398.63428103441947
 20
-448.13486745674891
 30
0.0
 40
10.0
  0
CIRCLE
  5
1C0
100
AcDbEntity
  8
ADF70-0605
370
              15
390
0
  6
STYLE_12
 62
               7
100
AcDbCircle
 10
-528.63428103441947
 20
-448.13486745674891
 30
0.0
 40
10.0
  0
ENDSEC
  0
SECTION
  2
OBJECTS
  0
DICTIONARY
  5
19
100
AcDbDictionary
280
               0
281
               1
  3
ACAD_GROUP
350
1A
  3
ACAD_MLINESTYLE
350
1B
  3
ACAD_LAYOUT
350
1E
  3
ACAD_PLOTSETTINGS
350
22
  3
ACAD_PLOTSTYLENAME
350
1F
  0
DICTIONARY
  5
1A
102
{ACAD_REACTORS
330
19
102
}
100
AcDbDictionary
280
               0
281
               1
  0
DICTIONARY
  5
1B
102
{ACAD_REACTORS
330
19
102
}
100
AcDbDictionary
280
               0
281
               1
  3
Standard
350
1C
  0
MLINESTYLE
  5
1C
102
{ACAD_REACTORS
330
1B
102
}
100
AcDbMlineStyle
  2
Standard
 70
               0
  3

 62
               0
 51
90.0
 52
90.0
 71
               2
 49
0.5
 62
             256
  6
ByLayer
 49
-0.5
 62
             256
  6
ByLayer
  0
ACDBDICTIONARYWDFLT
  5
1F
102
{ACAD_REACTORS
330
19
102
}
100
AcDbDictionary
281
               1
  3
Normal
350
1D
100
AcDbDictionaryWithDefault
340
1D
  0
ACDBPLACEHOLDER
  5
1D
102
{ACAD_REACTORS
330
1F
102
}
  0
LAYOUT
  5
20
102
{ACAD_REACTORS
330
1E
102
}
100
AcDbPlotSettings
  1

  2

  4

  6

 40
0.0
 41
0.0
 42
0.0
 43
0.0
 44
0.0
 45
0.0
 46
0.0
 47
0.0
 48
0.0
 49
0.0
140
0.0
141
0.0
142
1.0
143
1.0
 70
            1024
 72
               0
 73
               0
 74
               0
  7

 75
               0
147
1.0
148
0.0
149
0.0
100
AcDbLayout
  1
Model
 70
               0
 71
               0
 10
0.0
 20
0.0
 11
0.0
 21
0.0
 12
0.0
 22
0.0
 32
0.0
 14
0.0
 24
0.0
 34
0.0
 15
0.0
 25
0.0
 35
0.0
146
0.0
 13
0.0
 23
0.0
 33
0.0
 16
0.0
 26
0.0
 36
0.0
 17
0.0
 27
0.0
 37
0.0
 76
               0
330
A
331
0
345
0
346
0
  0
LAYOUT
  5
21
102
{ACAD_REACTORS
330
1E
102
}
100
AcDbPlotSettings
  1

  2

  4

  6

 40
0.0
 41
0.0
 42
0.0
 43
0.0
 44
0.0
 45
0.0
 46
0.0
 47
0.0
 48
0.0
 49
0.0
140
0.0
141
0.0
142
1.0
143
1.0
 70
               0
 72
               0
 73
               0
 74
               0
  7

 75
               0
147
1.0
148
0.0
149
0.0
100
AcDbLayout
  1
Layout1
 70
               0
 71
               0
 10
0.0
 20
0.0
 11
0.0
 21
0.0
 12
0.0
 22
0.0
 32
0.0
 14
0.0
 24
0.0
 34
0.0
 15
0.0
 25
0.0
 35
0.0
146
0.0
 13
0.0
 23
0.0
 33
0.0
 16
0.0
 26
0.0
 36
0.0
 17
0.0
 27
0.0
 37
0.0
 76
               0
330
B
331
0
345
0
346
0
  0
DICTIONARY
  5
1E
102
{ACAD_REACTORS
330
19
102
}
100
AcDbDictionary
280
               0
281
               1
  3
Layout1
350
21
  3
Model
350
20
  0
DICTIONARY
  5
22
102
{ACAD_REACTORS
330
19
102
}
100
AcDbDictionary
280
               0
281
               1
  0
ENDSEC
  0
EOF
