  0
SECTION
  2
HEADER
  9
$ACADVER
  1
AC1015
  9
$ACADMAINTVER
 70
               6
  9
$DWGCODEPAGE
  3
ANSI_932
  9
$INSBASE
 10
0.0
 20
0.0
 30
0.0
  9
$EXTMIN
 10
-975.00000000024136
 20
-1431.5255224711129
 30
-14.834305555555554
  9
$EXTMAX
 10
975.00000000024124
 20
1405.9972926412995
 30
14.834305555555554
  9
$LIMMIN
 10
0.0
 20
0.0
  9
$LIMMAX
 10
0.0
 20
0.0
  9
$ORTHOMODE
 70
               0
  9
$REGENMODE
 70
               1
  9
$FILLMODE
 70
               1
  9
$QTEXTMODE
 70
               0
  9
$MIRRTEXT
 70
               1
  9
$LTSCALE
 40
5.0800000000000001
  9
$ATTMODE
 70
               1
  9
$TEXTSIZE
 40
0.2
  9
$TRACEWID
 40
1.0
  9
$TEXTSTYLE
  7
Standard
  9
$CLAYER
  8
notes
  9
$CELTYPE
  6
Continuous
  9
$CECOLOR
 62
             256
  9
$CELTSCALE
 40
1.0
  9
$DISPSILH
 70
               0
  9
$DIMSCALE
 40
1.0
  9
$DIMASZ
 40
22.4482421875
  9
$DIMEXO
 40
15.875
  9
$DIMDLI
 40
10.16
  9
$DIMRND
 40
0.0
  9
$DIMDLE
 40
1.5874999999999999
  9
$DIMEXE
 40
31.75
  9
$DIMTP
 40
0.0
  9
$DIMTM
 40
0.0
  9
$DIMTXT
 40
24.432617187500004
  9
$DIMCEN
 40
0.0
  9
$DIMTSZ
 40
0.0
  9
$DIMTOL
 70
               0
  9
$DIMLIM
 70
               0
  9
$DIMTIH
 70
               0
  9
$DIMTOH
 70
               0
  9
$DIMSE1
 70
               0
  9
$DIMSE2
 70
               0
  9
$DIMTAD
 70
               1
  9
$DIMZIN
 70
              11
  9
$DIMBLK
  1
VW_SLASH
  9
$DIMASO
 70
               1
  9
$DIMSHO
 70
               1
  9
$DIMPOST
  1
<>
  9
$DIMAPOST
  1
[]
  9
$DIMALT
 70
               0
  9
$DIMALTD
 70
               1
  9
$DIMALTF
 40
1.0
  9
$DIMLFAC
 40
1.0
  9
$DIMTOFL
 70
               1
  9
$DIMTVP
 40
0.0
  9
$DIMTIX
 70
               1
  9
$DIMSOXD
 70
               0
  9
$DIMSAH
 70
               0
  9
$DIMBLK1
  1

  9
$DIMBLK2
  1

  9
$DIMSTYLE
  2
Arch
  9
$DIMCLRD
 70
               0
  9
$DIMCLRE
 70
               0
  9
$DIMCLRT
 70
               0
  9
$DIMTFAC
 40
1.0
  9
$DIMGAP
 40
1.5874999999999999
  9
$DIMJUST
 70
               0
  9
$DIMSD1
 70
               0
  9
$DIMSD2
 70
               0
  9
$DIMTOLJ
 70
               1
  9
$DIMTZIN
 70
              11
  9
$DIMALTZ
 70
              11
  9
$DIMALTTZ
 70
              11
  9
$DIMUPT
 70
               0
  9
$DIMDEC
 70
               1
  9
$DIMTDEC
 70
               1
  9
$DIMALTU
 70
               2
  9
$DIMALTTD
 70
               2
  9
$DIMTXSTY
  7
ＭＳ ゴシック
  9
$DIMAUNIT
 70
               0
  9
$DIMADEC
 70
               2
  9
$DIMALTRND
 40
0.0
  9
$DIMAZIN
 70
               0
  9
$DIMDSEP
 70
              46
  9
$DIMATFIT
 70
               0
  9
$DIMFRAC
 70
               2
  9
$DIMLDRBLK
  1

  9
$DIMLUNIT
 70
               2
  9
$DIMLWD
 70
              -2
  9
$DIMLWE
 70
              -2
  9
$DIMTMOVE
 70
               0
  9
$LUNITS
 70
               2
  9
$LUPREC
 70
               4
  9
$SKETCHINC
 40
0.1
  9
$FILLETRAD
 40
0.0
  9
$AUNITS
 70
               0
  9
$AUPREC
 70
               0
  9
$MENU
  1
acad
  9
$ELEVATION
 40
0.0
  9
$PELEVATION
 40
0.0
  9
$THICKNESS
 40
0.0
  9
$LIMCHECK
 70
               0
  9
$CHAMFERA
 40
0.0
  9
$CHAMFERB
 40
0.0
  9
$CHAMFERC
 40
0.0
  9
$CHAMFERD
 40
0.0
  9
$SKPOLY
 70
               0
  9
$TDCREATE
 40
2455995.615324074
  9
$TDUCREATE
 40
0.000000000
  9
$TDUPDATE
 40
2455995.615324074
  9
$TDUUPDATE
 40
0.000000000
  9
$TDINDWG
 40
0.0000000000
  9
$TDUSRTIMER
 40
0.0000000000
  9
$USRTIMER
 70
               1
  9
$ANGBASE
 50
0.0
  9
$ANGDIR
 70
               0
  9
$PDMODE
 70
               1
  9
$PDSIZE
 40
-2.0
  9
$PLINEWID
 40
0.0
  9
$SPLFRAME
 70
               0
  9
$SPLINETYPE
 70
               6
  9
$SPLINESEGS
 70
               8
  9
$HANDSEED
  5
242
  9
$SURFTAB1
 70
               6
  9
$SURFTAB2
 70
               6
  9
$SURFTYPE
 70
               6
  9
$SURFU
 70
               6
  9
$SURFV
 70
               6
  9
$UCSBASE
  2

  9
$UCSNAME
  2

  9
$UCSORG
 10
0.0
 20
0.0
 30
0.0
  9
$UCSXDIR
 10
1.0
 20
0.0
 30
0.0
  9
$UCSYDIR
 10
0.0
 20
1.0
 30
0.0
  9
$UCSORTHOREF
  2

  9
$UCSORTHOVIEW
 70
               0
  9
$UCSORGTOP
 10
0.0
 20
0.0
 30
0.0
  9
$UCSORGBOTTOM
 10
0.0
 20
0.0
 30
0.0
  9
$UCSORGLEFT
 10
0.0
 20
0.0
 30
0.0
  9
$UCSORGRIGHT
 10
0.0
 20
0.0
 30
0.0
  9
$UCSORGFRONT
 10
0.0
 20
0.0
 30
0.0
  9
$UCSORGBACK
 10
0.0
 20
0.0
 30
0.0
  9
$PUCSBASE
  2

  9
$PUCSNAME
  2

  9
$PUCSORG
 10
0.0
 20
0.0
 30
0.0
  9
$PUCSXDIR
 10
1.0
 20
0.0
 30
0.0
  9
$PUCSYDIR
 10
0.0
 20
1.0
 30
0.0
  9
$PUCSORTHOREF
  2

  9
$PUCSORTHOVIEW
 70
               0
  9
$PUCSORGTOP
 10
0.0
 20
0.0
 30
0.0
  9
$PUCSORGBOTTOM
 10
0.0
 20
0.0
 30
0.0
  9
$PUCSORGLEFT
 10
0.0
 20
0.0
 30
0.0
  9
$PUCSORGRIGHT
 10
0.0
 20
0.0
 30
0.0
  9
$PUCSORGFRONT
 10
0.0
 20
0.0
 30
0.0
  9
$PUCSORGBACK
 10
0.0
 20
0.0
 30
0.0
  9
$USERI1
 70
               0
  9
$USERI2
 70
               0
  9
$USERI3
 70
               0
  9
$USERI4
 70
               0
  9
$USERI5
 70
               0
  9
$USERR1
 40
0.0
  9
$USERR2
 40
0.0
  9
$USERR3
 40
0.0
  9
$USERR4
 40
0.0
  9
$USERR5
 40
0.0
  9
$WORLDVIEW
 70
               1
  9
$SHADEDGE
 70
               3
  9
$SHADEDIF
 70
              70
  9
$TILEMODE
 70
               1
  9
$MAXACTVP
 70
              64
  9
$PINSBASE
 10
0.0
 20
0.0
 30
0.0
  9
$PLIMCHECK
 70
               0
  9
$PEXTMIN
 10
1.0000000000000000E+20
 20
1.0000000000000000E+20
 30
1.0000000000000000E+20
  9
$PEXTMAX
 10
-1.0000000000000000E+20
 20
-1.0000000000000000E+20
 30
-1.0000000000000000E+20
  9
$PLIMMIN
 10
0.0
 20
0.0
  9
$PLIMMAX
 10
12.0
 20
9.0
  9
$UNITMODE
 70
               0
  9
$VISRETAIN
 70
               0
  9
$PLINEGEN
 70
               1
  9
$PSLTSCALE
 70
               0
  9
$TREEDEPTH
 70
            3020
  9
$CMLSTYLE
  2
Standard
  9
$CMLJUST
 70
               0
  9
$CMLSCALE
 40
1.0
  9
$PROXYGRAPHICS
 70
               0
  9
$MEASUREMENT
 70
               1
  9
$CELWEIGHT
370
               0
  9
$ENDCAPS
280
               0
  9
$JOINSTYLE
280
               0
  9
$LWDISPLAY
290
               1
  9
$INSUNITS
 70
               4
  9
$HYPERLINKBASE
  1

  9
$STYLESHEET
  1

  9
$XEDIT
290
               1
  9
$CEPSNTYPE
380
               0
  9
$PSTYLEMODE
290
               1
  9
$FINGERPRINTGUID
  2

  9
$VERSIONGUID
  2

  9
$EXTNAMES
290
               1
  9
$PSVPSCALE
 40
0.0
  0
ENDSEC
  0
SECTION
  2
CLASSES
  0
CLASS
  1
LWPOLYLINE
  2
AcDbPolyline
  3
AutoCAD 2000
 90
        0
280
               0
281
               1
  0
CLASS
  1
IMAGE
  2
AcDbRasterImage
  3
ISM
 90
      127
280
               0
281
               1
  0
CLASS
  1
OLE2FRAME
  2
AcDbOle2Frame
  3
AutoCAD 2000
 90
        0
280
               0
281
               1
  0
CLASS
  1
HATCH
  2
AcDbHatch
  3
AutoCAD 2000
 90
        0
280
               0
281
               1
  0
CLASS
  1
DICTIONARYVAR
  2
AcDbDictionaryVar
  3
AutoCAD 2000
 90
        0
280
               0
281
               0
  0
CLASS
  1
RASTERVARIABLES
  2
AcDbRasterVariables
  3
ISM
 90
        0
280
               0
281
               0
  0
CLASS
  1
IMAGEDEF
  2
AcDbRasterImageDef
  3
ISM
 90
        0
280
               0
281
               0
  0
CLASS
  1
IMAGEDEF_REACTOR
  2
AcDbRasterImageDefReactor
  3
ISM
 90
        1
280
               0
281
               0
  0
CLASS
  1
IDBUFFER
  2
AcDbIdBuffer
  3
AutoCAD 2000
 90
        0
280
               0
281
               0
  0
CLASS
  1
SPATIAL_FILTER
  2
AcDbSpatialFilter
  3
AutoCAD 2000
 90
        0
280
               0
281
               0
  0
CLASS
  1
XRECORD
  2
AcDbXrecord
  3
AutoCAD 2000
 90
        0
280
               0
281
               0
  0
CLASS
  1
SORTENTSTABLE
  2
AcDbSortentsTable
  3
AutoCAD 2000
 90
        0
280
               0
281
               0
  0
CLASS
  1
LAYER_INDEX
  2
AcDbLayerIndex
  3
AutoCAD 2000
 90
        0
280
               0
281
               0
  0
CLASS
  1
SPATIAL_INDEX
  2
AcDbSpatialIndex
  3
AutoCAD 2000
 90
        0
280
               0
281
               0
  0
CLASS
  1
OBJECT_PTR
  2
CAseDLPNTableRecord
  3
"ASE-LPNTableRecord"
 90
        1
280
               0
281
               0
  0
CLASS
  1
LAYOUT
  2
AcDbLayout
  3
AutoCAD 2000
 90
        0
280
               0
281
               0
  0
CLASS
  1
PLOTSETTINGS
  2
AcDbPlotSettings
  3
AutoCAD 2000
 90
        0
280
               0
281
               0
  0
CLASS
  1
ACDBDICTIONARYWDFLT
  2
AcDbDictionaryWithDefault
  3
AutoCAD 2000
 90
        0
280
               0
281
               0
  0
CLASS
  1
ACDBPLACEHOLDER
  2
AcDbPlaceHolder
  3
AutoCAD 2000
 90
        0
280
               0
281
               0
  0
ENDSEC
  0
SECTION
  2
TABLES
  0
TABLE
  2
VPORT
  5
7
100
AcDbSymbolTable
 70
               1
  0
VPORT
  5
15
100
AcDbSymbolTableRecord
100
AcDbViewportTableRecord
  2
*ACTIVE
 70
               0
 10
0.0
 20
0.0
 11
1.0
 21
1.0
 12
-0.0000000000001137
 22
-12.764114914906713
 13
0.0
 23
0.0
 14
1.0
 24
1.0
 15
0.0
 25
0.0
 16
0.0
 26
0.0
 36
1.0
 17
0.0
 27
0.0
 37
0.0
 40
2837.5228151124124
 41
0.688564
 42
50.0
 43
0.0
 44
0.0
 50
0.0
 51
0.0
 71
               0
 72
            2000
 73
               1
 74
               1
 75
               0
 76
               0
 77
               0
 78
               0
281
               0
 65
               0
110
0.0
120
0.0
130
0.0
111
1.0
121
0.0
131
0.0
112
0.0
122
1.0
132
0.0
345
0
346
0
 79
               0
146
0.0
  0
ENDTAB
  0
TABLE
  2
LTYPE
  5
4
100
AcDbSymbolTable
 70
              27
  0
LTYPE
  5
11
100
AcDbSymbolTableRecord
100
AcDbLinetypeTableRecord
  2
ByBlock
 70
              64
  3

 72
              65
 73
               0
 40
0.0
  0
LTYPE
  5
12
100
AcDbSymbolTableRecord
100
AcDbLinetypeTableRecord
  2
ByLayer
 70
              64
  3

 72
              65
 73
               0
 40
0.0
  0
LTYPE
  5
13
100
AcDbSymbolTableRecord
100
AcDbLinetypeTableRecord
  2
Continuous
 70
              64
  3
Solid line
 72
              65
 73
               0
 40
0.0
  0
LTYPE
  5
3B
100
AcDbSymbolTableRecord
100
AcDbLinetypeTableRecord
  2
STYLE_01
 70
               0
  3

 72
              65
 73
               2
 40
1.875
 49
1.25
 74
               0
 49
-0.625
 74
               0
  0
LTYPE
  5
3C
100
AcDbSymbolTableRecord
100
AcDbLinetypeTableRecord
  2
STYLE_02
 70
               0
  3

 72
              65
 73
               4
 40
5.0
 49
2.5
 74
               0
 49
-1.25
 74
               0
 49
0.0050000000000001
 74
               0
 49
-1.2449999999999997
 74
               0
  0
LTYPE
  5
3D
100
AcDbSymbolTableRecord
100
AcDbLinetypeTableRecord
  2
STYLE_03
 70
               0
  3

 72
              65
 73
               4
 40
1.128472933070866
 49
0.3472224409448819
 74
               0
 49
-0.3472224409448819
 74
               0
 49
0.0868056102362205
 74
               0
 49
-0.3472224409448818
 74
               0
  0
LTYPE
  5
3E
100
AcDbSymbolTableRecord
100
AcDbLinetypeTableRecord
  2
STYLE_04
 70
               0
  3

 72
              65
 73
               4
 40
0.749496062992126
 49
0.6192883858267717
 74
               0
 49
-0.0434025590551181
 74
               0
 49
0.0434025590551181
 74
               0
 49
-0.0434025590551181
 74
               0
  0
LTYPE
  5
3F
100
AcDbSymbolTableRecord
100
AcDbLinetypeTableRecord
  2
STYLE_05
 70
               0
  3

 72
              65
 73
               4
 40
0.749496062992126
 49
0.6192883858267717
 74
               0
 49
-0.0434025590551181
 74
               0
 49
0.0434025590551181
 74
               0
 49
-0.0434025590551181
 74
               0
  0
LTYPE
  5
40
100
AcDbSymbolTableRecord
100
AcDbLinetypeTableRecord
  2
STYLE_06
 70
               0
  3

 72
              65
 73
               4
 40
0.6591845472440944
 49
0.5024827755905512
 74
               0
 49
-0.0364758858267716
 74
               0
 49
0.08375
 74
               0
 49
-0.0364758858267716
 74
               0
  0
LTYPE
  5
41
100
AcDbSymbolTableRecord
100
AcDbLinetypeTableRecord
  2
STYLE_07
 70
               0
  3

 72
              65
 73
               4
 40
0.6591845472440944
 49
0.5024827755905512
 74
               0
 49
-0.0364758858267716
 74
               0
 49
0.08375
 74
               0
 49
-0.0364758858267716
 74
               0
  0
LTYPE
  5
42
100
AcDbSymbolTableRecord
100
AcDbLinetypeTableRecord
  2
STYLE_08
 70
               0
  3

 72
              65
 73
               6
 40
6.25
 49
3.125
 74
               0
 49
-1.0413999999999999
 74
               0
 49
0.3471500000000002
 74
               0
 49
-0.6946500000000001
 74
               0
 49
0.3471499999999995
 74
               0
 49
-0.6946500000000001
 74
               0
  0
LTYPE
  5
43
100
AcDbSymbolTableRecord
100
AcDbLinetypeTableRecord
  2
STYLE_09
 70
               0
  3

 72
              65
 73
               4
 40
25.0
 49
18.75
 74
               0
 49
-1.3889249999999991
 74
               0
 49
3.4721500000000018
 74
               0
 49
-1.3889249999999991
 74
               0
  0
LTYPE
  5
44
100
AcDbSymbolTableRecord
100
AcDbLinetypeTableRecord
  2
STYLE_10
 70
               0
  3

 72
              65
 73
               6
 40
29.6875
 49
18.75
 74
               0
 49
-1.3889249999999991
 74
               0
 49
3.4721500000000018
 74
               0
 49
-1.3889249999999991
 74
               0
 49
3.125
 74
               0
 49
-1.5625
 74
               0
  0
LTYPE
  5
45
100
AcDbSymbolTableRecord
100
AcDbLinetypeTableRecord
  2
STYLE_11
 70
               0
  3

 72
              65
 73
               8
 40
0.3149606299212597
 49
0.1771653543307086
 74
               0
 49
-0.0196850393700787
 74
               0
 49
0.0196850393700787
 74
               0
 49
-0.0196850393700787
 74
               0
 49
0.0196850393700787
 74
               0
 49
-0.0196850393700787
 74
               0
 49
0.0196850393700787
 74
               0
 49
-0.0196850393700787
 74
               0
  0
LTYPE
  5
46
100
AcDbSymbolTableRecord
100
AcDbLinetypeTableRecord
  2
STYLE_12
 70
               0
  3

 72
              65
 73
              10
 40
0.3149606299212597
 49
0.1377952755905512
 74
               0
 49
-0.0196850393700787
 74
               0
 49
0.0196850393700787
 74
               0
 49
-0.0196850393700787
 74
               0
 49
0.0196850393700787
 74
               0
 49
-0.0196850393700787
 74
               0
 49
0.0196850393700787
 74
               0
 49
-0.0196850393700787
 74
               0
 49
0.0196850393700787
 74
               0
 49
-0.0196850393700787
 74
               0
  0
LTYPE
  5
47
100
AcDbSymbolTableRecord
100
AcDbLinetypeTableRecord
  2
STYLE_13
 70
               0
  3

 72
              65
 73
              10
 40
0.3149606299212597
 49
0.1377952755905512
 74
               0
 49
-0.0196850393700787
 74
               0
 49
0.0196850393700787
 74
               0
 49
-0.0196850393700787
 74
               0
 49
0.0196850393700787
 74
               0
 49
-0.0196850393700787
 74
               0
 49
0.0196850393700787
 74
               0
 49
-0.0196850393700787
 74
               0
 49
0.0196850393700787
 74
               0
 49
-0.0196850393700787
 74
               0
  0
LTYPE
  5
48
100
AcDbSymbolTableRecord
100
AcDbLinetypeTableRecord
  2
STYLE_14
 70
               0
  3

 72
              65
 73
              10
 40
0.2755905511811023
 49
0.0984251968503937
 74
               0
 49
-0.0196850393700787
 74
               0
 49
0.0196850393700787
 74
               0
 49
-0.0196850393700787
 74
               0
 49
0.0196850393700787
 74
               0
 49
-0.0196850393700787
 74
               0
 49
0.0196850393700787
 74
               0
 49
-0.0196850393700787
 74
               0
 49
0.0196850393700787
 74
               0
 49
-0.0196850393700787
 74
               0
  0
LTYPE
  5
49
100
AcDbSymbolTableRecord
100
AcDbLinetypeTableRecord
  2
STYLE_15
 70
               0
  3

 72
              65
 73
              10
 40
0.2755905511811023
 49
0.0984251968503937
 74
               0
 49
-0.0196850393700787
 74
               0
 49
0.0196850393700787
 74
               0
 49
-0.0196850393700787
 74
               0
 49
0.0196850393700787
 74
               0
 49
-0.0196850393700787
 74
               0
 49
0.0196850393700787
 74
               0
 49
-0.0196850393700787
 74
               0
 49
0.0196850393700787
 74
               0
 49
-0.0196850393700787
 74
               0
  0
LTYPE
  5
4A
100
AcDbSymbolTableRecord
100
AcDbLinetypeTableRecord
  2
STYLE_16
 70
               0
  3

 72
              65
 73
               2
 40
0.3169606299212598
 49
0.3149606299212598
 74
               0
 49
-0.005
 74
               0
  0
LTYPE
  5
4B
100
AcDbSymbolTableRecord
100
AcDbLinetypeTableRecord
  2
STYLE_17
 70
               0
  3

 72
              65
 73
               2
 40
0.3169606299212598
 49
0.3149606299212598
 74
               0
 49
-0.005
 74
               0
  0
LTYPE
  5
4C
100
AcDbSymbolTableRecord
100
AcDbLinetypeTableRecord
  2
STYLE_18
 70
               0
  3

 72
              65
 73
               4
 40
0.2559055118110236
 49
0.1838582677165354
 74
               0
 49
-0.024015748031496
 74
               0
 49
0.0240157480314961
 74
               0
 49
-0.0240157480314961
 74
               0
  0
LTYPE
  5
4D
100
AcDbSymbolTableRecord
100
AcDbLinetypeTableRecord
  2
STYLE_19
 70
               0
  3

 72
              65
 73
               2
 40
0.3169606299212598
 49
0.3149606299212598
 74
               0
 49
-0.005
 74
               0
  0
LTYPE
  5
4E
100
AcDbSymbolTableRecord
100
AcDbLinetypeTableRecord
  2
STYLE_20
 70
               0
  3

 72
              65
 73
               4
 40
0.2559055118110236
 49
0.1838582677165354
 74
               0
 49
-0.024015748031496
 74
               0
 49
0.0240157480314961
 74
               0
 49
-0.0240157480314961
 74
               0
  0
LTYPE
  5
4F
100
AcDbSymbolTableRecord
100
AcDbLinetypeTableRecord
  2
STYLE_21
 70
               0
  3

 72
              65
 73
               2
 40
1.3888897637795274
 49
0.6944448818897637
 74
               0
 49
-0.6944448818897637
 74
               0
  0
LTYPE
  5
50
100
AcDbSymbolTableRecord
100
AcDbLinetypeTableRecord
  2
STYLE_22
 70
               0
  3

 72
              65
 73
               6
 40
59.375
 49
37.5
 74
               0
 49
-2.7778499999999982
 74
               0
 49
6.9443000000000037
 74
               0
 49
-2.7778499999999982
 74
               0
 49
6.25
 74
               0
 49
-3.125
 74
               0
  0
LTYPE
  5
51
100
AcDbSymbolTableRecord
100
AcDbLinetypeTableRecord
  2
STYLE_23
 70
               0
  3

 72
              65
 73
               2
 40
0.6944448818897638
 49
0.3472224409448819
 74
               0
 49
-0.3472224409448819
 74
               0
  0
LTYPE
  5
52
100
AcDbSymbolTableRecord
100
AcDbLinetypeTableRecord
  2
STYLE_24
 70
               0
  3

 72
              65
 73
               2
 40
3.9370078740157481
 49
1.9685039370078741
 74
               0
 49
-1.9685039370078741
 74
               0
  0
ENDTAB
  0
TABLE
  2
LAYER
  5
2
100
AcDbSymbolTable
 70
               5
  0
LAYER
  5
14
100
AcDbSymbolTableRecord
100
AcDbLayerTableRecord
  2
0
 70
               0
 62
               7
  6
Continuous
290
               1
370
              -3
390
1D
  0
LAYER
  5
53
100
AcDbSymbolTableRecord
100
AcDbLayerTableRecord
  2
Defpoints
 70
               0
 62
               7
  6
Continuous
290
               0
370
              -3
390
1D
  0
LAYER
  5
54
100
AcDbSymbolTableRecord
100
AcDbLayerTableRecord
  2
template
 70
               0
 62
               7
  6
Continuous
290
               1
370
              -3
390
1D
  0
LAYER
  5
55
100
AcDbSymbolTableRecord
100
AcDbLayerTableRecord
  2
notes
 70
               0
 62
               7
  6
Continuous
290
               1
370
              -3
390
1D
  0
LAYER
  5
56
100
AcDbSymbolTableRecord
100
AcDbLayerTableRecord
  2
ADF70-0606
 70
               0
 62
               7
  6
Continuous
290
               1
370
              -3
390
1D
  0
ENDTAB
  0
TABLE
  2
STYLE
  5
3
100
AcDbSymbolTable
 70
               2
  0
STYLE
  5
17
100
AcDbSymbolTableRecord
100
AcDbTextStyleTableRecord
  2
Standard
 70
               0
 40
0.0
 41
1.0
 50
0.0
 71
               0
 42
0.0
  3
txt
  4
BIGFONT.SHX
  0
STYLE
  5
3A
100
AcDbSymbolTableRecord
100
AcDbTextStyleTableRecord
  2
ＭＳ ゴシック
 70
               0
 40
0.0
 41
1.0
 50
0.0
 71
               0
 42
0.0
  3

  4
ＭＳ ゴシック
1001
ACAD
1000
ＭＳ ゴシック
1071
        0
  0
ENDTAB
  0
TABLE
  2
VIEW
  5
5
100
AcDbSymbolTable
 70
               0
  0
ENDTAB
  0
TABLE
  2
UCS
  5
6
100
AcDbSymbolTable
 70
               0
  0
ENDTAB
  0
TABLE
  2
APPID
  5
8
100
AcDbSymbolTable
 70
               1
  0
APPID
  5
16
100
AcDbSymbolTableRecord
100
AcDbRegAppTableRecord
  2
ACAD
 70
               0
  0
ENDTAB
  0
TABLE
  2
DIMSTYLE
  5
9
100
AcDbSymbolTable
 70
               3
100
AcDbDimStyleTable
 71
               0
  0
DIMSTYLE
105
18
100
AcDbSymbolTableRecord
100
AcDbDimStyleTableRecord
  2
Standard
 70
               0
  3

  4

 40
1.0
 41
0.18
 42
0.0625
 43
0.38
 44
0.18
 45
0.0
 46
0.0
 47
0.0
 48
0.0
 71
               0
 72
               0
 73
               1
 74
               1
 75
               0
 76
               0
 77
               0
 78
               0
 79
               0
140
0.18
141
0.09
142
0.0
143
25.399999999999999
144
1.0
145
0.0
146
1.0
147
0.09
148
0.0
170
               0
171
               2
172
               0
173
               0
174
               0
175
               0
176
               0
177
               0
178
               0
179
               0
271
               4
272
               4
273
               2
274
               2
275
               0
276
               0
277
               2
278
              46
279
               0
280
               0
281
               0
282
               0
283
               1
284
               0
285
               0
286
               0
288
               0
289
               3
340
17
341
0
342
0
343
0
344
0
371
              -2
372
              -2
  0
DIMSTYLE
105
5F
100
AcDbSymbolTableRecord
100
AcDbDimStyleTableRecord
  2
TformSENN
 70
               0
  3
<>
  4
[]
 40
1.0
 41
3.999755859375
 42
24.999999999999996
 43
0.9999999999999999
 44
0.0
 45
0.0
 46
0.0
 47
0.0
 48
0.0
 71
               0
 72
               0
 73
               0
 74
               0
 75
               0
 76
               0
 77
               1
 78
              11
 79
               0
140
24.432617187500004
141
0.0
142
0.0
143
1.0
144
1.0
145
0.0
146
0.8
147
0.4999999999999999
148
0.0
170
               0
171
               1
172
               1
173
               0
174
               1
175
               0
176
               0
177
               0
178
               0
179
               2
271
               1
272
               1
273
               2
274
               2
275
               0
276
               2
277
               2
278
              46
279
               0
280
               0
281
               0
282
               0
283
               1
284
              11
285
              11
286
              11
288
               0
289
               0
340
3A
341
57
342
57
343
0
344
0
371
              -2
372
              -2
  0
DIMSTYLE
105
69
100
AcDbSymbolTableRecord
100
AcDbDimStyleTableRecord
  2
Arch
 70
               0
  3
<>
  4
[]
 40
1.0
 41
22.4482421875
 42
15.875
 43
10.16
 44
31.75
 45
0.0
 46
1.5874999999999999
 47
0.0
 48
0.0
 71
               0
 72
               0
 73
               0
 74
               0
 75
               0
 76
               0
 77
               1
 78
              11
 79
               0
140
24.432617187500004
141
0.0
142
0.0
143
1.0
144
1.0
145
0.0
146
1.0
147
1.5874999999999999
148
0.0
170
               0
171
               1
172
               1
173
               0
174
               1
175
               0
176
               0
177
               0
178
               0
179
               2
271
               1
272
               1
273
               2
274
               2
275
               0
276
               2
277
               2
278
              46
279
               0
280
               0
281
               0
282
               0
283
               1
284
              11
285
              11
286
              11
288
               0
289
               0
340
3A
341
65
342
60
343
0
344
0
371
              -2
372
              -2
  0
ENDTAB
  0
TABLE
  2
BLOCK_RECORD
  5
1
100
AcDbSymbolTable
 70
              26
  0
BLOCK_RECORD
  5
A
100
AcDbSymbolTableRecord
100
AcDbBlockTableRecord
  2
*MODEL_SPACE
340
20
  0
BLOCK_RECORD
  5
B
100
AcDbSymbolTableRecord
100
AcDbBlockTableRecord
  2
*PAPER_SPACE
340
21
  0
BLOCK_RECORD
  5
57
100
AcDbSymbolTableRecord
100
AcDbBlockTableRecord
  2
_DOT
340
0
  0
BLOCK_RECORD
  5
60
100
AcDbSymbolTableRecord
100
AcDbBlockTableRecord
  2
VW_SLASH
340
0
  0
BLOCK_RECORD
  5
65
100
AcDbSymbolTableRecord
100
AcDbBlockTableRecord
  2
VW_FILLEDARROW
340
0
  0
BLOCK_RECORD
  5
23
100
AcDbSymbolTableRecord
100
AcDbBlockTableRecord
  2
グループ
340
0
102
{BLKREFS
331
19C
102
}
  0
BLOCK_RECORD
  5
24
100
AcDbSymbolTableRecord
100
AcDbBlockTableRecord
  2
*D4
340
0
  0
BLOCK_RECORD
  5
25
100
AcDbSymbolTableRecord
100
AcDbBlockTableRecord
  2
*D5
340
0
  0
BLOCK_RECORD
  5
26
100
AcDbSymbolTableRecord
100
AcDbBlockTableRecord
  2
*D6
340
0
  0
BLOCK_RECORD
  5
27
100
AcDbSymbolTableRecord
100
AcDbBlockTableRecord
  2
*D7
340
0
  0
BLOCK_RECORD
  5
28
100
AcDbSymbolTableRecord
100
AcDbBlockTableRecord
  2
*D8
340
0
  0
BLOCK_RECORD
  5
29
100
AcDbSymbolTableRecord
100
AcDbBlockTableRecord
  2
*D9
340
0
  0
BLOCK_RECORD
  5
2A
100
AcDbSymbolTableRecord
100
AcDbBlockTableRecord
  2
*D10
340
0
  0
BLOCK_RECORD
  5
2B
100
AcDbSymbolTableRecord
100
AcDbBlockTableRecord
  2
*D11
340
0
  0
BLOCK_RECORD
  5
2C
100
AcDbSymbolTableRecord
100
AcDbBlockTableRecord
  2
*D12
340
0
  0
BLOCK_RECORD
  5
2D
100
AcDbSymbolTableRecord
100
AcDbBlockTableRecord
  2
*D13
340
0
  0
BLOCK_RECORD
  5
2E
100
AcDbSymbolTableRecord
100
AcDbBlockTableRecord
  2
*D14
340
0
  0
BLOCK_RECORD
  5
2F
100
AcDbSymbolTableRecord
100
AcDbBlockTableRecord
  2
*D15
340
0
  0
BLOCK_RECORD
  5
30
100
AcDbSymbolTableRecord
100
AcDbBlockTableRecord
  2
*D16
340
0
  0
BLOCK_RECORD
  5
31
100
AcDbSymbolTableRecord
100
AcDbBlockTableRecord
  2
*D17
340
0
  0
BLOCK_RECORD
  5
32
100
AcDbSymbolTableRecord
100
AcDbBlockTableRecord
  2
*D18
340
0
  0
BLOCK_RECORD
  5
33
100
AcDbSymbolTableRecord
100
AcDbBlockTableRecord
  2
*D19
340
0
  0
BLOCK_RECORD
  5
34
100
AcDbSymbolTableRecord
100
AcDbBlockTableRecord
  2
*D20
340
0
  0
BLOCK_RECORD
  5
35
100
AcDbSymbolTableRecord
100
AcDbBlockTableRecord
  2
*D21
340
0
  0
BLOCK_RECORD
  5
36
100
AcDbSymbolTableRecord
100
AcDbBlockTableRecord
  2
*D22
340
0
  0
BLOCK_RECORD
  5
37
100
AcDbSymbolTableRecord
100
AcDbBlockTableRecord
  2
*D23
340
0
  0
BLOCK_RECORD
  5
38
100
AcDbSymbolTableRecord
100
AcDbBlockTableRecord
  2
*D24
340
0
  0
BLOCK_RECORD
  5
39
100
AcDbSymbolTableRecord
100
AcDbBlockTableRecord
  2
*D25
340
0
  0
ENDTAB
  0
ENDSEC
  0
SECTION
  2
BLOCKS
  0
BLOCK
  5
D
100
AcDbEntity
  8
0
390
0
100
AcDbBlockBegin
  2
*MODEL_SPACE
 70
               0
 10
0.0
 20
0.0
 30
0.0
  3
*MODEL_SPACE
  1

  0
ENDBLK
  5
E
100
AcDbEntity
  8
0
390
0
100
AcDbBlockEnd
  0
BLOCK
  5
F
100
AcDbEntity
 67
               1
  8
0
390
0
100
AcDbBlockBegin
  2
*PAPER_SPACE
 70
               0
 10
0.0
 20
0.0
 30
0.0
  3
*PAPER_SPACE
  1

  0
ENDBLK
  5
10
100
AcDbEntity
 67
               1
  8
0
390
0
100
AcDbBlockEnd
  0
BLOCK
  5
58
100
AcDbEntity
  8
0
390
0
100
AcDbBlockBegin
  2
_DOT
 70
               0
 10
0.0
 20
0.0
 30
0.0
  3
_DOT
  1

  0
POLYLINE
  5
59
100
AcDbEntity
  8
0
370
              -2
390
0
  6
ByBlock
 62
               0
100
AcDb2dPolyline
 66
               1
 10
0.0
 20
0.0
 30
0.0
 70
               1
 40
0.5
 41
0.5
  0
VERTEX
  5
5A
100
AcDbEntity
  8
0
370
              -2
390
0
  6
ByBlock
 62
               0
100
AcDbVertex
100
AcDb2dVertex
 10
-0.25
 20
0.0
 30
0.0
 42
1.0
  0
VERTEX
  5
5B
100
AcDbEntity
  8
0
370
              -2
390
0
  6
ByBlock
 62
               0
100
AcDbVertex
100
AcDb2dVertex
 10
0.25
 20
0.0
 30
0.0
 42
1.0
  0
SEQEND
  5
5C
100
AcDbEntity
  8
0
390
0
  0
LINE
  5
5D
100
AcDbEntity
  8
0
370
              -2
390
0
  6
ByBlock
 62
               0
100
AcDbLine
 10
-0.5
 20
0.0
 30
0.0
 11
-1.0
 21
0.0
 31
0.0
  0
ENDBLK
  5
5E
100
AcDbEntity
  8
0
390
0
100
AcDbBlockEnd
  0
BLOCK
  5
61
100
AcDbEntity
  8
0
370
              -2
390
0
  6
ByBlock
 62
               0
100
AcDbBlockBegin
  2
VW_SLASH
 70
               0
 10
0.0
 20
0.0
 30
0.0
  3
VW_SLASH
  1

  0
LINE
  5
62
100
AcDbEntity
  8
0
370
              -2
390
0
  6
ByBlock
 62
               0
100
AcDbLine
 10
0.0
 20
0.0
 30
0.0
 11
-1.0
 21
0.0
 31
0.0
  0
LINE
  5
63
100
AcDbEntity
  8
0
370
              20
390
0
  6
ByBlock
 62
               0
100
AcDbLine
 10
-0.4987813153181721
 20
-0.4987813153181719
 30
0.0
 11
0.4987813153181721
 21
0.4987813153181719
 31
0.0
  0
ENDBLK
  5
64
100
AcDbEntity
  8
0
390
0
100
AcDbBlockEnd
  0
BLOCK
  5
66
100
AcDbEntity
  8
0
370
              -2
390
0
  6
ByBlock
 62
               0
100
AcDbBlockBegin
  2
VW_FILLEDARROW
 70
               0
 10
0.0
 20
0.0
 30
0.0
  3
VW_FILLEDARROW
  1

  0
SOLID
  5
67
100
AcDbEntity
  8
0
370
              -2
390
0
 62
               0
100
AcDbTrace
 10
0.0
 20
0.0
 30
0.0
 11
-1.4107666015625
 21
-0.3780137715974714
 31
0.0
 12
-1.4107666015625
 22
0.3780137715974717
 32
0.0
 13
-1.4107666015625
 23
0.3780137715974717
 33
0.0
  0
ENDBLK
  5
68
100
AcDbEntity
  8
0
390
0
100
AcDbBlockEnd
  0
BLOCK
  5
6A
100
AcDbEntity
  8
template
390
0
100
AcDbBlockBegin
  2
グループ
 70
               0
 10
0.0
 20
0.0
 30
0.0
  3
グループ
  1

  0
LWPOLYLINE
  5
6B
100
AcDbEntity
  8
0
370
              15
390
0
  6
Continuous
 62
               7
100
AcDbPolyline
 90
        8
 70
             129
 10
151.44778461004069
 20
-1380.5073599411071
 10
151.44778461004069
 20
-1386.504748634683
 10
141.94658769203738
 20
-1386.504748634683
 10
141.94658769203738
 20
-1410.9557118981918
 10
133.59121043025459
 20
-1410.9557118981918
 10
133.59121043025459
 20
-1386.504748634683
 10
124.25825348394517
 20
-1386.504748634683
 10
124.25825348394517
 20
-1380.5073599411071
  0
LWPOLYLINE
  5
6C
100
AcDbEntity
  8
0
370
              15
390
0
  6
Continuous
 62
               7
100
AcDbPolyline
 90
      101
 70
             128
 10
164.17607644059763
 20
-1381.2356084340436
 10
164.19142646938559
 20
-1381.2312476773577
 42
-0.0222221607812693
 10
164.48143104605373
 20
-1381.1626232121139
 10
164.49722481004042
 20
-1381.1596197890183
 42
-0.0146883565592173
 10
164.7599275152715
 20
-1381.1176166020675
 42
-0.0127458844184993
 10
165.0245664824252
 20
-1381.0900796339949
 10
165.0870215607373
 20
-1381.0851862114068
 42
-0.0198099018564164
 10
165.47787067021389
 20
-1381.0701010540101
 10
165.52968213965795
 20
-1381.0701548296752
 42
-0.0147617382760348
 10
166.02430560063465
 20
-1381.0852748549203
 10
166.09699705551125
 20
-1381.0896474618082
 42
-0.01626245490029
 10
166.48715068497165
 20
-1381.1258803370802
 10
166.60868307622562
 20
-1381.1411668960761
 42
-0.0080020874671254
 10
166.7542621073224
 20
-1381.1618497433451
 10
166.79258157791534
 20
-1381.167921021156
 42
-0.0053821929683436
 10
166.86106568323225
 20
-1381.1795285449778
 10
166.13465998403365
 20
-1383.3604570006917
 42
0.0108667757397244
 10
166.06734291389827
 20
-1383.347269885471
 10
166.0298748907133
 20
-1383.3407721428773
 42
0.0170663203306274
 10
165.88665810379783
 20
-1383.3209425455855
 10
165.8187827711148
 20
-1383.3138953749981
 42
0.0220162375274093
 10
165.53840336326067
 20
-1383.297213014228
 10
165.46054779620647
 20
-1383.2960136469615
 42
0.0282606915788223
 10
165.12491147262949
 20
-1383.3098169239306
 10
165.08099819885572
 20
-1383.3141169139344
 42
0.0169677213688417
 10
164.83507370389822
 20
-1383.346653963486
 42
0.0190576269863154
 10
164.59216574131665
 20
-1383.3968008355928
 10
164.58590655320734
 20
-1383.3983438097018
 42
0.0213685642848592
 10
164.33552206872753
 20
-1383.4715440948073
 10
164.33003217381338
 20
-1383.4734070908657
 42
0.0237595297598698
 10
164.07653728891407
 20
-1383.5730916127616
 10
164.07143521488501
 20
-1383.5753833882395
 42
0.0261857468816808
 10
163.81926443865575
 20
-1383.7049197256135
 10
163.80883824956794
 20
-1383.7109852000824
 42
0.0272553062019134
 10
163.57240847432962
 20
-1383.8663574060265
 10
163.53764546081985
 20
-1383.892018554119
 42
0.0325996893176621
 10
163.38749011716862
 20
-1384.0187664270902
 10
163.36378068804308
 20
-1384.0415844556053
 42
0.0138050960632389
 10
163.27189753183541
 20
-1384.1350341171546
 42
0.0125280103800836
 10
163.18505499900198
 20
-1384.2331974437548
 10
163.16137455409353
 20
-1384.2613559419422
 42
0.0205218024741109
 10
163.0362744785794
 20
-1384.4231492561719
 10
163.01380813809271
 20
-1384.4548089859982
 42
0.0163110129584388
 10
162.85809775884195
 20
-1384.6901394210672
 10
162.85537386279043
 20
-1384.6945631830536
 42
0.0131897341894924
 10
162.70857334188449
 20
-1384.9476952754183
 10
162.70687324651806
 20
-1384.9508135145538
 42
0.010789557606527
 10
162.56909654430751
 20
-1385.2170287241884
 10
162.56836365478222
 20
-1385.2185229568354
 42
0.0091371507217181
 10
162.43988370613232
 20
-1385.4930481545957
 10
162.41013807472353
 20
-1385.5597546617537
 42
0.0135418326350734
 10
162.23842413565112
 20
-1385.9746924470244
 10
162.20481932721725
 20
-1386.0625585893044
 42
0.0092834542411036
 10
162.03359026729669
 20
-1386.5364570876091
 10
162.0079731395781
 20
-1386.6116981574053
 42
0.005426104358419
 10
161.90033499128612
 20
-1386.9394621304677
 10
161.88280900508934
 20
-1386.9948502927589
 42
0.0008225090822498
 10
161.81413895327864
 20
-1387.2131190508469
 10
160.82944982134518
 20
-1390.2380103441035
 10
164.06207366141905
 20
-1390.2380103441035
 10
163.5578812315656
 20
-1392.1424886424559
 10
160.30182494958228
 20
-1392.1424886424559
 10
154.47267591722846
 20
-1410.9557117084607
 10
152.64757830691815
 20
-1410.9557117084607
 10
158.48225634241908
 20
-1392.1424886424559
 10
156.07713997337873
 20
-1392.1424886424559
 10
156.58133240323218
 20
-1390.2380103441035
 10
159.0098812141822
 20
-1390.2380103441035
 10
159.87003613237084
 20
-1387.6015973434046
 42
-0.000586356063547
 10
159.90677081055696
 20
-1387.4847709231681
 10
159.98285864423474
 20
-1387.2437786237274
 42
-0.0087522378928636
 10
160.18232678769147
 20
-1386.6485025365812
 10
160.27459106310522
 20
-1386.3883623680674
 42
-0.0077400953831083
 10
160.53252472223619
 20
-1385.6953576905198
 10
160.54828969381506
 20
-1385.6549268071337
 42
-0.0082369946330905
 10
160.79537416442702
 20
-1385.050847740938
 42
-0.0085725238365177
 10
161.06262026043041
 20
-1384.4554217016498
 10
161.1642498614377
 20
-1384.2390005996649
 42
-0.0168109410596123
 10
161.45119429016728
 20
-1383.6777930735614
 10
161.57703768060927
 20
-1383.4508290405945
 42
-0.0007817726866281
 10
161.63132203068295
 20
-1383.353284795533
 10
161.63145033670014
 20
-1383.3530550867968
 42
-0.0036626142158241
 10
161.68633820072148
 20
-1383.2564572068279
 42
-0.008022115067338
 10
161.74346245612907
 20
-1383.1611779720736
 10
161.77416240748937
 20
-1383.1117870229527
 42
-0.0202139325571471
 10
161.90181814729561
 20
-1382.9238054222722
 10
161.95588561248371
 20
-1382.8507265580306
 42
-0.024932379180035
 10
162.21504840620304
 20
-1382.5346813158762
 10
162.23918822032988
 20
-1382.5080670429638
 42
-0.0242132121542819
 10
162.57886896187006
 20
-1382.1681835567615
 10
162.62678053462247
 20
-1382.1246744205737
 42
-0.0251017527858083
 10
162.91076223526323
 20
-1381.8916816748088
 10
162.91220771207583
 20
-1381.8906124172306
 42
-0.0130868069036645
 10
163.21046836203431
 20
-1381.6818319486874
 10
163.21203018117814
 20
-1381.6807985084117
 42
-0.0290329526386566
 10
163.52314132257032
 20
-1381.499973006783
 10
163.55298688455932
 20
-1381.4848706239418
 42
-0.0160250190044823
 10
163.81889129832103
 20
-1381.3608545137304
 42
-0.0267600374786951
 10
164.09416737578789
 20
-1381.2601061931823
 10
164.12090329531065
 20
-1381.251913634356
 42
-0.0049981587669887
 10
164.17607644059763
 20
-1381.2356084340436
 42
-0.0049981587669887
  0
LWPOLYLINE
  5
6D
100
AcDbEntity
  8
0
370
              15
390
0
  6
Continuous
 62
               7
100
AcDbPolyline
 90
      118
 70
             128
 10
183.99044400504454
 20
-1390.3119936719308
 10
185.865565929544
 20
-1390.3119936719308
 10
185.02752702394412
 20
-1392.9935601983309
 42
-0.0010587229219746
 10
185.0589828395178
 20
-1392.9566556649734
 10
185.11717693014799
 20
-1392.8886734087998
 42
-0.0071874740407571
 10
185.26755214824783
 20
-1392.7180327167689
 10
185.40927492150831
 20
-1392.5617965754577
 42
-0.0148118053513507
 10
185.85940421422075
 20
-1392.094182729445
 10
185.94662654911983
 20
-1392.0087854085941
 42
-0.0086273358695839
 10
186.28217535013124
 20
-1391.6914097745746
 10
186.32600906635602
 20
-1391.6513601302427
 42
-0.0103138323117193
 10
186.58403276859065
 20
-1391.4251969929032
 10
186.62980717492829
 20
-1391.3867149456341
 42
-0.0060206748565807
 10
186.80265523902995
 20
-1391.2449202948887
 10
186.80468636992111
 20
-1391.2432945892533
 42
-0.0067069027293562
 10
186.9769791845784
 20
-1391.1091439554625
 10
186.97952795050679
 20
-1391.1072137855854
 42
-0.0076184352052021
 10
187.15043321637575
 20
-1390.9818389103434
 42
-0.0089652861677316
 10
187.32539417910883
 20
-1390.8622056500117
 10
187.36174589925449
 20
-1390.838294436528
 42
-0.0156916245937518
 10
187.55770539641532
 20
-1390.7180319500535
 42
-0.002329901106457
 10
187.75796744039715
 20
-1390.6048540105114
 10
187.77335157277503
 20
-1390.5962540154478
 42
-0.0107669341487193
 10
188.00758839787699
 20
-1390.471853882098
 10
188.02985319895123
 20
-1390.4606371321483
 42
-0.0078058045899491
 10
188.31344331689832
 20
-1390.3232756765126
 10
188.32335040461311
 20
-1390.3186665486414
 42
-0.0181829330471991
 10
188.63365980922813
 20
-1390.1878028075459
 10
188.68771525179432
 20
-1390.1672876876028
 42
-0.0208411536031672
 10
189.03680021924572
 20
-1390.0511972251093
 10
189.05115631937531
 20
-1390.0470787801551
 42
-0.0222799817139168
 10
189.37987611329044
 20
-1389.9684372140155
 10
189.38876507652481
 20
-1389.966725203431
 42
-0.0215509523887032
 10
189.70523604480724
 20
-1389.9198095148959
 10
189.74771800585259
 20
-1389.9153719881053
 42
-0.0182545924871562
 10
189.98182678516145
 20
-1389.8995281627142
 10
190.02122780151342
 20
-1389.8983036176348
 42
-0.0072962856530091
 10
190.17715068119838
 20
-1389.8957342891129
 10
190.20625035177198
 20
-1389.8956794537091
 42
-0.005922751632014
 10
190.30399985091537
 20
-1389.8966531654996
 10
190.33324206841615
 20
-1389.8972909321035
 42
-0.00118331119042
 10
190.3724933521197
 20
-1389.8982399364129
 10
189.57710675651253
 20
-1392.4369738815119
 42
0.0143932051592556
 10
189.55070537416091
 20
-1392.4267749114663
 10
189.54343340174466
 20
-1392.4242036926094
 42
0.0234388603513236
 10
189.50160253581342
 20
-1392.4115844568942
 10
189.49292087289984
 20
-1392.4094034948889
 42
0.0199162742991374
 10
189.43263203881645
 20
-1392.3967867595532
 10
189.41181810101364
 20
-1392.3932895601254
 42
0.0293643550664495
 10
189.30874324225601
 20
-1392.3821395144723
 10
189.28405806153415
 20
-1392.3809278974536
 42
0.0214606686862904
 10
189.13091714558072
 20
-1392.379989337036
 10
189.12154523476374
 20
-1392.3803342485803
 42
0.0167564054181111
 10
188.95002504364976
 20
-1392.392411290949
 10
188.9415652508963
 20
-1392.3932926313755
 42
0.0137677553243318
 10
188.75421193763103
 20
-1392.4180419399192
 10
188.74686019812378
 20
-1392.4192198598871
 42
0.0118497261481732
 10
188.54636243402609
 20
-1392.4562372100754
 10
188.54021242677521
 20
-1392.4575240727963
 42
0.0106421143895608
 10
188.32933153947923
 20
-1392.5063564483739
 10
188.32442273110109
 20
-1392.5076037910562
 42
0.0099746379701443
 10
188.10596426194314
 20
-1392.5677783193696
 10
188.04441622176836
 20
-1392.5860601980016
 42
0.0191613675860606
 10
187.70843175924961
 20
-1392.7000375782898
 10
187.62037198650981
 20
-1392.7337244886116
 42
0.0205274080142442
 10
187.23506521460666
 20
-1392.8995528964392
 10
187.17741593262343
 20
-1392.9272208610121
 42
0.018125691219501
 10
186.91913899195765
 20
-1393.0629046799895
 10
186.86618360864225
 20
-1393.0932222932051
 42
0.0140709242416267
 10
186.72122867401532
 20
-1393.1817169666385
 10
186.69497980539987
 20
-1393.1987737853519
 42
0.0086667884399359
 10
186.6060536438543
 20
-1393.2587764532368
 42
0.0036408192023113
 10
186.51862040580784
 20
-1393.3209573110385
 10
186.48339353135231
 20
-1393.3463982569419
 42
0.0052260781278616
 10
186.3271648339624
 20
-1393.4617306435755
 10
186.31095797770166
 20
-1393.4739587541944
 42
0.0050024435891671
 10
186.12495463465734
 20
-1393.6172413224451
 10
186.10963647812764
 20
-1393.6292873449024
 42
0.0136138710278846
 10
185.89919520980209
 20
-1393.804253849816
 10
185.86552733400873
 20
-1393.83383282253
 42
0.0172815186913652
 10
185.6011237923496
 20
-1394.08282949515
 10
185.59856144650365
 20
-1394.0854153123005
 42
0.018940385799147
 10
185.34797964792529
 20
-1394.3582205771038
 10
185.31534815438826
 20
-1394.3965645086021
 42
0.0185044199503774
 10
185.1233917154085
 20
-1394.6398130897246
 42
0.008856524390055
 10
184.94493160877767
 20
-1394.8933295098784
 10
184.93575362913157
 20
-1394.9068708896348
 42
0.0157195347231293
 10
184.75253302279663
 20
-1395.1963930989518
 10
184.70645008086831
 20
-1395.2745452959682
 42
0.0095451879776201
 10
184.54136453072897
 20
-1395.5671399383277
 10
184.53021661179827
 20
-1395.5878106104617
 42
0.0100351706252401
 10
184.39817286264002
 20
-1395.8448661709506
 42
0.0086935915420902
 10
184.27584171084533
 20
-1396.1066993163565
 10
184.27252096943153
 20
-1396.1141416393268
 42
0.007258017486664
 10
184.15217451748609
 20
-1396.3947336309109
 10
184.14891288418022
 20
-1396.4026536569277
 42
0.0060005122616241
 10
184.02971221583479
 20
-1396.7022633275403
 10
184.02650123749595
 20
-1396.7106248554378
 42
0.0049017786977652
 10
183.90760107863841
 20
-1397.0295538360422
 10
183.90443527224807
 20
-1397.0383067732723
 42
0.0039415167601103
 10
183.78499899419054
 20
-1397.3768488356882
 10
183.78186789153921
 20
-1397.3859520365618
 42
0.0031035838760828
 10
183.66106310585033
 20
-1397.7443918983226
 10
183.65795306131577
 20
-1397.7538125197102
 42
0.0025070747151684
 10
183.53505171000648
 20
-1398.1324597366349
 10
183.49775781357499
 20
-1398.249351401907
 42
0.0029081910284429
 10
183.3057395157586
 20
-1398.8635150602165
 10
183.26493634724716
 20
-1398.9967383024746
 42
0.000926645373234
 10
182.9965189729335
 20
-1399.8789627623946
 10
182.97563150028415
 20
-1399.9480746416593
 42
-0.0005809993666188
 10
182.69829481970066
 20
-1400.8618827482728
 10
182.63201302142599
 20
-1401.0793676804381
 42
-0.0012018708170226
 10
182.4850287119985
 20
-1401.5575303449532
 10
182.43270886043038
 20
-1401.7262894858275
 42
-0.0002691059596079
 10
182.38913937926441
 20
-1401.8665571061611
 10
179.55618348097516
 20
-1410.9557117084607
 10
177.73819458899663
 20
-1410.9557117084607
 10
183.99044400504454
 20
-1390.3119936719308
  0
SPLINE
  5
6E
100
AcDbEntity
  8
0
370
              15
390
0
  6
Continuous
 62
               7
100
AcDbSpline
210
0.0
220
0.0
230
1.0
 70
              13
 71
               2
 72
             782
 73
             779
 74
               0
 42
0.000001
 43
0.000001
 40
0.0
 40
0.0
 40
0.0
 40
1.0
 40
1.0
 40
2.0
 40
2.0
 40
3.0
 40
3.0
 40
4.0
 40
4.0
 40
5.0
 40
5.0
 40
6.0
 40
6.0
 40
7.0
 40
7.0
 40
8.0
 40
8.0
 40
9.0
 40
9.0
 40
10.0
 40
10.0
 40
11.0
 40
11.0
 40
12.0
 40
12.0
 40
13.0
 40
13.0
 40
14.0
 40
14.0
 40
15.0
 40
15.0
 40
16.0
 40
16.0
 40
17.0
 40
17.0
 40
18.0
 40
18.0
 40
19.0
 40
19.0
 40
20.0
 40
20.0
 40
21.0
 40
21.0
 40
22.0
 40
22.0
 40
23.0
 40
23.0
 40
24.0
 40
24.0
 40
25.0
 40
25.0
 40
26.0
 40
26.0
 40
27.0
 40
27.0
 40
28.0
 40
28.0
 40
29.0
 40
29.0
 40
30.0
 40
30.0
 40
31.0
 40
31.0
 40
32.0
 40
32.0
 40
33.0
 40
33.0
 40
34.0
 40
34.0
 40
35.0
 40
35.0
 40
36.0
 40
36.0
 40
37.0
 40
37.0
 40
38.0
 40
38.0
 40
39.0
 40
39.0
 40
40.0
 40
40.0
 40
41.0
 40
41.0
 40
42.0
 40
42.0
 40
43.0
 40
43.0
 40
44.0
 40
44.0
 40
45.0
 40
45.0
 40
46.0
 40
46.0
 40
47.0
 40
47.0
 40
48.0
 40
48.0
 40
49.0
 40
49.0
 40
50.0
 40
50.0
 40
51.0
 40
51.0
 40
52.0
 40
52.0
 40
53.0
 40
53.0
 40
54.0
 40
54.0
 40
55.0
 40
55.0
 40
56.0
 40
56.0
 40
57.0
 40
57.0
 40
58.0
 40
58.0
 40
59.0
 40
59.0
 40
60.0
 40
60.0
 40
61.0
 40
61.0
 40
62.0
 40
62.0
 40
63.0
 40
63.0
 40
64.0
 40
64.0
 40
65.0
 40
65.0
 40
66.0
 40
66.0
 40
67.0
 40
67.0
 40
68.0
 40
68.0
 40
69.0
 40
69.0
 40
70.0
 40
70.0
 40
71.0
 40
71.0
 40
72.0
 40
72.0
 40
73.0
 40
73.0
 40
74.0
 40
74.0
 40
75.0
 40
75.0
 40
76.0
 40
76.0
 40
77.0
 40
77.0
 40
78.0
 40
78.0
 40
79.0
 40
79.0
 40
80.0
 40
80.0
 40
81.0
 40
81.0
 40
82.0
 40
82.0
 40
83.0
 40
83.0
 40
84.0
 40
84.0
 40
85.0
 40
85.0
 40
86.0
 40
86.0
 40
87.0
 40
87.0
 40
88.0
 40
88.0
 40
89.0
 40
89.0
 40
90.0
 40
90.0
 40
91.0
 40
91.0
 40
92.0
 40
92.0
 40
93.0
 40
93.0
 40
94.0
 40
94.0
 40
95.0
 40
95.0
 40
96.0
 40
96.0
 40
97.0
 40
97.0
 40
98.0
 40
98.0
 40
99.0
 40
99.0
 40
100.0
 40
100.0
 40
101.0
 40
101.0
 40
102.0
 40
102.0
 40
103.0
 40
103.0
 40
104.0
 40
104.0
 40
105.0
 40
105.0
 40
106.0
 40
106.0
 40
107.0
 40
107.0
 40
108.0
 40
108.0
 40
109.0
 40
109.0
 40
110.0
 40
110.0
 40
111.0
 40
111.0
 40
112.0
 40
112.0
 40
113.0
 40
113.0
 40
114.0
 40
114.0
 40
115.0
 40
115.0
 40
116.0
 40
116.0
 40
117.0
 40
117.0
 40
118.0
 40
118.0
 40
119.0
 40
119.0
 40
120.0
 40
120.0
 40
121.0
 40
121.0
 40
122.0
 40
122.0
 40
123.0
 40
123.0
 40
124.0
 40
124.0
 40
125.0
 40
125.0
 40
126.0
 40
126.0
 40
127.0
 40
127.0
 40
128.0
 40
128.0
 40
129.0
 40
129.0
 40
130.0
 40
130.0
 40
131.0
 40
131.0
 40
132.0
 40
132.0
 40
133.0
 40
133.0
 40
134.0
 40
134.0
 40
135.0
 40
135.0
 40
136.0
 40
136.0
 40
137.0
 40
137.0
 40
138.0
 40
138.0
 40
139.0
 40
139.0
 40
140.0
 40
140.0
 40
141.0
 40
141.0
 40
142.0
 40
142.0
 40
143.0
 40
143.0
 40
144.0
 40
144.0
 40
145.0
 40
145.0
 40
146.0
 40
146.0
 40
147.0
 40
147.0
 40
148.0
 40
148.0
 40
149.0
 40
149.0
 40
150.0
 40
150.0
 40
151.0
 40
151.0
 40
152.0
 40
152.0
 40
153.0
 40
153.0
 40
154.0
 40
154.0
 40
155.0
 40
155.0
 40
156.0
 40
156.0
 40
157.0
 40
157.0
 40
158.0
 40
158.0
 40
159.0
 40
159.0
 40
160.0
 40
160.0
 40
161.0
 40
161.0
 40
162.0
 40
162.0
 40
163.0
 40
163.0
 40
164.0
 40
164.0
 40
165.0
 40
165.0
 40
166.0
 40
166.0
 40
167.0
 40
167.0
 40
168.0
 40
168.0
 40
169.0
 40
169.0
 40
170.0
 40
170.0
 40
171.0
 40
171.0
 40
172.0
 40
172.0
 40
173.0
 40
173.0
 40
174.0
 40
174.0
 40
175.0
 40
175.0
 40
176.0
 40
176.0
 40
177.0
 40
177.0
 40
178.0
 40
178.0
 40
179.0
 40
179.0
 40
180.0
 40
180.0
 40
181.0
 40
181.0
 40
182.0
 40
182.0
 40
183.0
 40
183.0
 40
184.0
 40
184.0
 40
185.0
 40
185.0
 40
186.0
 40
186.0
 40
187.0
 40
187.0
 40
188.0
 40
188.0
 40
189.0
 40
189.0
 40
190.0
 40
190.0
 40
191.0
 40
191.0
 40
192.0
 40
192.0
 40
193.0
 40
193.0
 40
194.0
 40
194.0
 40
195.0
 40
195.0
 40
196.0
 40
196.0
 40
197.0
 40
197.0
 40
198.0
 40
198.0
 40
199.0
 40
199.0
 40
200.0
 40
200.0
 40
201.0
 40
201.0
 40
202.0
 40
202.0
 40
203.0
 40
203.0
 40
204.0
 40
204.0
 40
205.0
 40
205.0
 40
206.0
 40
206.0
 40
207.0
 40
207.0
 40
208.0
 40
208.0
 40
209.0
 40
209.0
 40
210.0
 40
210.0
 40
211.0
 40
211.0
 40
212.0
 40
212.0
 40
213.0
 40
213.0
 40
214.0
 40
214.0
 40
215.0
 40
215.0
 40
216.0
 40
216.0
 40
217.0
 40
217.0
 40
218.0
 40
218.0
 40
219.0
 40
219.0
 40
220.0
 40
220.0
 40
221.0
 40
221.0
 40
222.0
 40
222.0
 40
223.0
 40
223.0
 40
224.0
 40
224.0
 40
225.0
 40
225.0
 40
226.0
 40
226.0
 40
227.0
 40
227.0
 40
228.0
 40
228.0
 40
229.0
 40
229.0
 40
230.0
 40
230.0
 40
231.0
 40
231.0
 40
232.0
 40
232.0
 40
233.0
 40
233.0
 40
234.0
 40
234.0
 40
235.0
 40
235.0
 40
236.0
 40
236.0
 40
237.0
 40
237.0
 40
238.0
 40
238.0
 40
239.0
 40
239.0
 40
240.0
 40
240.0
 40
241.0
 40
241.0
 40
242.0
 40
242.0
 40
243.0
 40
243.0
 40
244.0
 40
244.0
 40
245.0
 40
245.0
 40
246.0
 40
246.0
 40
247.0
 40
247.0
 40
248.0
 40
248.0
 40
249.0
 40
249.0
 40
250.0
 40
250.0
 40
251.0
 40
251.0
 40
252.0
 40
252.0
 40
253.0
 40
253.0
 40
254.0
 40
254.0
 40
255.0
 40
255.0
 40
256.0
 40
256.0
 40
257.0
 40
257.0
 40
258.0
 40
258.0
 40
259.0
 40
259.0
 40
260.0
 40
260.0
 40
261.0
 40
261.0
 40
262.0
 40
262.0
 40
263.0
 40
263.0
 40
264.0
 40
264.0
 40
265.0
 40
265.0
 40
266.0
 40
266.0
 40
267.0
 40
267.0
 40
268.0
 40
268.0
 40
269.0
 40
269.0
 40
270.0
 40
270.0
 40
271.0
 40
271.0
 40
272.0
 40
272.0
 40
273.0
 40
273.0
 40
274.0
 40
274.0
 40
275.0
 40
275.0
 40
276.0
 40
276.0
 40
277.0
 40
277.0
 40
278.0
 40
278.0
 40
279.0
 40
279.0
 40
280.0
 40
280.0
 40
281.0
 40
281.0
 40
282.0
 40
282.0
 40
283.0
 40
283.0
 40
284.0
 40
284.0
 40
285.0
 40
285.0
 40
286.0
 40
286.0
 40
287.0
 40
287.0
 40
288.0
 40
288.0
 40
289.0
 40
289.0
 40
290.0
 40
290.0
 40
291.0
 40
291.0
 40
292.0
 40
292.0
 40
293.0
 40
293.0
 40
294.0
 40
294.0
 40
295.0
 40
295.0
 40
296.0
 40
296.0
 40
297.0
 40
297.0
 40
298.0
 40
298.0
 40
299.0
 40
299.0
 40
300.0
 40
300.0
 40
301.0
 40
301.0
 40
302.0
 40
302.0
 40
303.0
 40
303.0
 40
304.0
 40
304.0
 40
305.0
 40
305.0
 40
306.0
 40
306.0
 40
307.0
 40
307.0
 40
308.0
 40
308.0
 40
309.0
 40
309.0
 40
310.0
 40
310.0
 40
311.0
 40
311.0
 40
312.0
 40
312.0
 40
313.0
 40
313.0
 40
314.0
 40
314.0
 40
315.0
 40
315.0
 40
316.0
 40
316.0
 40
317.0
 40
317.0
 40
318.0
 40
318.0
 40
319.0
 40
319.0
 40
320.0
 40
320.0
 40
321.0
 40
321.0
 40
322.0
 40
322.0
 40
323.0
 40
323.0
 40
324.0
 40
324.0
 40
325.0
 40
325.0
 40
326.0
 40
326.0
 40
327.0
 40
327.0
 40
328.0
 40
328.0
 40
329.0
 40
329.0
 40
330.0
 40
330.0
 40
331.0
 40
331.0
 40
332.0
 40
332.0
 40
333.0
 40
333.0
 40
334.0
 40
334.0
 40
335.0
 40
335.0
 40
336.0
 40
336.0
 40
337.0
 40
337.0
 40
338.0
 40
338.0
 40
339.0
 40
339.0
 40
340.0
 40
340.0
 40
341.0
 40
341.0
 40
342.0
 40
342.0
 40
343.0
 40
343.0
 40
344.0
 40
344.0
 40
345.0
 40
345.0
 40
346.0
 40
346.0
 40
347.0
 40
347.0
 40
348.0
 40
348.0
 40
349.0
 40
349.0
 40
350.0
 40
350.0
 40
351.0
 40
351.0
 40
352.0
 40
352.0
 40
353.0
 40
353.0
 40
354.0
 40
354.0
 40
355.0
 40
355.0
 40
356.0
 40
356.0
 40
357.0
 40
357.0
 40
358.0
 40
358.0
 40
359.0
 40
359.0
 40
360.0
 40
360.0
 40
361.0
 40
361.0
 40
362.0
 40
362.0
 40
363.0
 40
363.0
 40
364.0
 40
364.0
 40
365.0
 40
365.0
 40
366.0
 40
366.0
 40
367.0
 40
367.0
 40
368.0
 40
368.0
 40
369.0
 40
369.0
 40
370.0
 40
370.0
 40
371.0
 40
371.0
 40
372.0
 40
372.0
 40
373.0
 40
373.0
 40
374.0
 40
374.0
 40
375.0
 40
375.0
 40
376.0
 40
376.0
 40
377.0
 40
377.0
 40
378.0
 40
378.0
 40
379.0
 40
379.0
 40
380.0
 40
380.0
 40
381.0
 40
381.0
 40
382.0
 40
382.0
 40
383.0
 40
383.0
 40
384.0
 40
384.0
 40
385.0
 40
385.0
 40
386.0
 40
386.0
 40
387.0
 40
387.0
 40
388.0
 40
388.0
 40
389.0
 40
389.0
 40
389.0
 10
194.31914845577717
 20
-1390.3010673085685
 30
0.0
 41
1.0
 10
195.13757256449765
 20
-1390.3010673085685
 30
0.0
 41
1.0
 10
195.95599667321812
 20
-1390.3010673085685
 30
0.0
 41
1.0
 10
195.54224293770136
 20
-1391.6436935728182
 30
0.0
 41
1.0
 10
195.1284892021846
 20
-1392.9863198370679
 30
0.0
 41
1.0
 10
195.14682869736069
 20
-1392.9576190641437
 30
0.0
 41
0.9999957264344427
 10
195.16533569418792
 20
-1392.9290260139985
 30
0.0
 41
1.0
 10
195.1957650183229
 20
-1392.8820131356263
 30
0.0
 41
1.0
 10
195.22619434245786
 20
-1392.835000257254
 30
0.0
 41
1.0
 10
195.30555998756418
 20
-1392.7123814503502
 30
0.0
 41
0.9995394069080789
 10
195.39221837911529
 20
-1392.5948033886098
 30
0.0
 41
1.0
 10
195.42797524137632
 20
-1392.5462884960145
 30
0.0
 41
1.0
 10
195.46373210363734
 20
-1392.4977736034193
 30
0.0
 41
1.0
 10
195.59745877145394
 20
-1392.3163333282948
 30
0.0
 41
0.9994460617143305
 10
195.74295925274157
 20
-1392.1441909306454
 30
0.0
 41
1.0
 10
195.74734743371681
 20
-1392.1389992502627
 30
0.0
 41
1.0
 10
195.75173561469202
 20
-1392.1338075698798
 30
0.0
 41
1.0
 10
195.88845973402908
 20
-1391.9720485329963
 30
0.0
 41
0.9994359394934244
 10
196.03573396438088
 20
-1391.8198323318313
 30
0.0
 41
1.0
 10
196.03811731833503
 20
-1391.8173690014573
 30
0.0
 41
1.0
 10
196.04050067228914
 20
-1391.8149056710834
 30
0.0
 41
1.0
 10
196.18300819473276
 20
-1391.6676161306664
 30
0.0
 41
0.9995293688568134
 10
196.33427987571451
 20
-1391.5293429185026
 30
0.0
 41
1.0
 10
196.35357363497732
 20
-1391.511707032852
 30
0.0
 41
1.0
 10
196.37286739424013
 20
-1391.4940711472011
 30
0.0
 41
1.0
 10
196.485551556697
 20
-1391.3910697063382
 30
0.0
 41
0.9997087614803931
 10
196.60307444565166
 20
-1391.2936254255405
 30
0.0
 41
1.0
 10
196.62224051882427
 20
-1391.2777338470351
 30
0.0
 41
1.0
 10
196.64140659199688
 20
-1391.2618422685296
 30
0.0
 41
1.0
 10
196.72059733460216
 20
-1391.1961811447463
 30
0.0
 41
0.999959533870003
 10
196.80095660546186
 20
-1391.1319554140878
 30
0.0
 41
1.0
 10
196.88131587631977
 20
-1391.0677296834306
 30
0.0
 41
0.9999749417497815
 10
196.96257641066981
 20
-1391.0046481294792
 30
0.0
 41
1.0
 10
196.98356255683149
 20
-1390.9883568421781
 30
0.0
 41
1.0
 10
197.00454870299316
 20
-1390.972065554877
 30
0.0
 41
1.0
 10
197.08911658829095
 20
-1390.9064165450391
 30
0.0
 41
0.999979203713702
 10
197.17452418806289
 20
-1390.8418637633936
 30
0.0
 41
1.0
 10
197.19534901398646
 20
-1390.8261239411268
 30
0.0
 41
1.0
 10
197.21617383991003
 20
-1390.8103841188599
 30
0.0
 41
1.0
 10
197.25993178785393
 20
-1390.7773109817338
 30
0.0
 41
0.9999993373802142
 10
197.30361347397559
 20
-1390.744137186326
 30
0.0
 41
1.0
 10
197.34729516011521
 20
-1390.7109633909047
 30
0.0
 41
0.9999160953815675
 10
197.39182157103363
 20
-1390.6789323257071
 30
0.0
 41
1.0
 10
197.42464345845551
 20
-1390.6553211701205
 30
0.0
 41
1.0
 10
197.45746534587738
 20
-1390.6317100145338
 30
0.0
 41
1.0
 10
197.56763553163668
 20
-1390.5524566381657
 30
0.0
 41
0.9980964527232669
 10
197.68672452513781
 20
-1390.4873691653092
 30
0.0
 41
1.0
 10
197.72375713206506
 20
-1390.4671291857167
 30
0.0
 41
1.0
 10
197.76078973899232
 20
-1390.4468892061238
 30
0.0
 41
1.0
 10
197.94011675226525
 20
-1390.3488789554228
 30
0.0
 41
0.9984572810572906
 10
198.12920531862466
 20
-1390.2713566940761
 30
0.0
 41
1.0
 10
198.13285158802148
 20
-1390.2698618017378
 30
0.0
 41
1.0
 10
198.13649785741833
 20
-1390.2683669093994
 30
0.0
 41
1.0
 10
198.31829388498437
 20
-1390.1938344327295
 30
0.0
 41
0.9987838528034206
 10
198.50654654354281
 20
-1390.137568792564
 30
0.0
 41
1.0
 10
198.51078449274064
 20
-1390.136302138874
 30
0.0
 41
1.0
 10
198.51502244193847
 20
-1390.1350354851841
 30
0.0
 41
1.0
 10
198.69479920210154
 20
-1390.0813031523983
 30
0.0
 41
0.9990652816207274
 10
198.87854513381791
 20
-1390.0432994728562
 30
0.0
 41
1.0
 10
198.88373353485071
 20
-1390.0422263697494
 30
0.0
 41
1.0
 10
198.8889219358835
 20
-1390.0411532666426
 30
0.0
 41
1.0
 10
199.06229106553528
 20
-1390.005295793314
 30
0.0
 41
0.999290993427073
 10
199.23786683199211
 20
-1389.9825853608477
 30
0.0
 41
1.0
 10
199.41344259844917
 20
-1389.9598749283812
 30
0.0
 41
0.9994553539448373
 10
199.59013403154117
 20
-1389.9487956241751
 30
0.0
 41
1.0
 10
199.62556843933834
 20
-1389.9465737361272
 30
0.0
 41
1.0
 10
199.66100284713553
 20
-1389.9443518480794
 30
0.0
 41
1.0
 10
199.82722861370468
 20
-1389.9339287856676
 30
0.0
 41
0.9990928098292882
 10
199.99373840560685
 20
-1389.9376884269022
 30
0.0
 41
1.0
 10
200.0323002408781
 20
-1389.938559118435
 30
0.0
 41
1.0
 10
200.07086207614933
 20
-1389.939429809968
 30
0.0
 41
1.0
 10
200.16024819750908
 20
-1389.9414480681367
 30
0.0
 41
0.9998382089206349
 10
200.24950388029572
 20
-1389.9466801946646
 30
0.0
 41
1.0
 10
200.2499337865172
 20
-1389.9467053955668
 30
0.0
 41
1.0
 10
200.25036369273869
 20
-1389.9467305964693
 30
0.0
 41
1.0
 10
200.33875956308347
 20
-1389.951912321193
 30
0.0
 41
0.9997558016758722
 10
200.42684014028271
 20
-1389.9609948365592
 30
0.0
 41
1.0
 10
200.42731627871058
 20
-1389.9610439340415
 30
0.0
 41
1.0
 10
200.42779241713845
 20
-1389.9610930315239
 30
0.0
 41
1.0
 10
200.51492071748149
 20
-1389.9700773519255
 30
0.0
 41
0.9996565144181531
 10
200.60145857082563
 20
-1389.9836146586149
 30
0.0
 41
1.0
 10
200.60192449620385
 20
-1389.9836875443464
 30
0.0
 41
1.0
 10
200.60239042158207
 20
-1389.9837604300778
 30
0.0
 41
1.0
 10
200.6879964241688
 20
-1389.9971519653041
 30
0.0
 41
0.999532180686733
 10
200.77262350449564
 20
-1390.0157524537331
 30
0.0
 41
1.0
 10
200.77301269906573
 20
-1390.0158379961986
 30
0.0
 41
1.0
 10
200.77340189363582
 20
-1390.0159235386641
 30
0.0
 41
1.0
 10
200.85725058482197
 20
-1390.0343529421618
 30
0.0
 41
0.9993819199219319
 10
200.93959711901982
 20
-1390.0586283254229
 30
0.0
 41
1.0
 10
200.93983555251657
 20
-1390.0586986145317
 30
0.0
 41
1.0
 10
200.94007398601335
 20
-1390.0587689036408
 30
0.0
 41
1.0
 10
201.02194365321503
 20
-1390.0829037086833
 30
0.0
 41
0.9992088568505771
 10
201.10163617220428
 20
-1390.113468944478
 30
0.0
 41
1.0
 10
201.18131716308335
 20
-1390.1440285452113
 30
0.0
 41
0.9990226101773354
 10
201.25798783299047
 20
-1390.181505976826
 30
0.0
 41
1.0
 10
201.33464697478928
 20
-1390.2189777733797
 30
0.0
 41
0.9988424273972775
 10
201.40735060200097
 20
-1390.2636425486321
 30
0.0
 41
1.0
 10
201.40761831038026
 20
-1390.2638070127043
 30
0.0
 41
1.0
 10
201.40788601875954
 20
-1390.2639714767765
 30
0.0
 41
1.0
 10
201.48112506273054
 20
-1390.308965180174
 30
0.0
 41
0.9986928844492249
 10
201.54938792944156
 20
-1390.3612009144545
 30
0.0
 41
1.0
 10
201.54996922166367
 20
-1390.3616457276819
 30
0.0
 41
1.0
 10
201.55055051388575
 20
-1390.3620905409093
 30
0.0
 41
1.0
 10
201.61997596504159
 20
-1390.4152159016453
 30
0.0
 41
0.9986007262279052
 10
201.68340213480838
 20
-1390.4753766713388
 30
0.0
 41
1.0
 10
201.68429655026529
 20
-1390.4762250391736
 30
0.0
 41
1.0
 10
201.6851909657222
 20
-1390.4770734070084
 30
0.0
 41
1.0
 10
201.75040596640392
 20
-1390.538930912373
 30
0.0
 41
0.9985581491382291
 10
201.80861357810605
 20
-1390.6074234026451
 30
0.0
 41
1.0
 10
201.81787203170137
 20
-1390.6183177603461
 30
0.0
 41
1.0
 10
201.82713048529666
 20
-1390.6292121180472
 30
0.0
 41
1.0
 10
201.90385500419006
 20
-1390.7194933237224
 30
0.0
 41
0.99704602335202
 10
201.96584690534945
 20
-1390.8204604079044
 30
0.0
 41
1.0
 10
201.98031627042928
 20
-1390.844026866986
 30
0.0
 41
1.0
 10
201.99478563550909
 20
-1390.8675933260679
 30
0.0
 41
1.0
 10
202.03452233552125
 20
-1390.9323130500995
 30
0.0
 41
0.9988468816636766
 10
202.06786870627218
 20
-1391.0005455025259
 30
0.0
 41
1.0
 10
202.07490472876361
 20
-1391.0149424236633
 30
0.0
 41
1.0
 10
202.08194075125505
 20
-1391.0293393448005
 30
0.0
 41
1.0
 10
202.10121507702274
 20
-1391.0687779549517
 30
0.0
 41
0.9998431189999746
 10
202.11908040451868
 20
-1391.1088745093944
 30
0.0
 41
1.0
 10
202.13694573200547
 20
-1391.1489710638166
 30
0.0
 41
0.9999989990117852
 10
202.15492445544501
 20
-1391.1890169014398
 30
0.0
 41
1.0
 10
202.16109676703456
 20
-1391.202765118242
 30
0.0
 41
1.0
 10
202.16726907862414
 20
-1391.2165133350441
 30
0.0
 41
1.0
 10
202.19759242523537
 20
-1391.2840556062552
 30
0.0
 41
0.9998790356320279
 10
202.22580030537253
 20
-1391.3525083581903
 30
0.0
 41
1.0
 10
202.2326354866571
 20
-1391.3690954596184
 30
0.0
 41
1.0
 10
202.23947066794167
 20
-1391.3856825610465
 30
0.0
 41
1.0
 10
202.2630283303215
 20
-1391.4428505159306
 30
0.0
 41
0.9998227574561646
 10
202.28441707871082
 20
-1391.5008648242083
 30
0.0
 41
1.0
 10
202.30580582710024
 20
-1391.5588791324856
 30
0.0
 41
0.9996797971040756
 10
202.32423211205935
 20
-1391.6179012516038
 30
0.0
 41
1.0
 10
202.32813591478489
 20
-1391.6304057097727
 30
0.0
 41
1.0
 10
202.33203971751044
 20
-1391.6429101679416
 30
0.0
 41
1.0
 10
202.35827360792092
 20
-1391.7269412033982
 30
0.0
 41
0.9979274938734157
 10
202.37349813140005
 20
-1391.8136455620586
 30
0.0
 41
1.0
 10
202.37572181866113
 20
-1391.8263095628793
 30
0.0
 41
1.0
 10
202.37794550592224
 20
-1391.8389735636999
 30
0.0
 41
1.0
 10
202.38887544562058
 20
-1391.9012200709901
 30
0.0
 41
0.9994985982136802
 10
202.3958436107975
 20
-1391.9640335721324
 30
0.0
 41
1.0
 10
202.40281177597444
 20
-1392.0268470732731
 30
0.0
 41
0.9996372611201004
 10
202.40638764174227
 20
-1392.0899446519584
 30
0.0
 41
1.0
 10
202.40655621923156
 20
-1392.0929192690396
 30
0.0
 41
1.0
 10
202.40672479672082
 20
-1392.0958938861211
 30
0.0
 41
1.0
 10
202.41063781746718
 20
-1392.1649406989652
 30
0.0
 41
0.999773063073643
 10
202.41160613095531
 20
-1392.234091523002
 30
0.0
 41
1.0
 10
202.4116632373734
 20
-1392.2381697021435
 30
0.0
 41
1.0
 10
202.4117203437915
 20
-1392.242247881285
 30
0.0
 41
1.0
 10
202.41280287011583
 20
-1392.3195550636001
 30
0.0
 41
0.9998772614069353
 10
202.41146278338405
 20
-1392.396858210167
 30
0.0
 41
1.0
 10
202.41137352018529
 20
-1392.4020073740021
 30
0.0
 41
1.0
 10
202.41128425698656
 20
-1392.4071565378372
 30
0.0
 41
1.0
 10
202.40976564385724
 20
-1392.4947580120725
 30
0.0
 41
0.9999415567330502
 10
202.40635333361132
 20
-1392.5823061737483
 30
0.0
 41
1.0
 10
202.40611201293603
 20
-1392.5884976334846
 30
0.0
 41
1.0
 10
202.40587069226075
 20
-1392.5946890932212
 30
0.0
 41
1.0
 10
202.40197574066366
 20
-1392.6946201743788
 30
0.0
 41
0.9999716810428702
 10
202.39657715754566
 20
-1392.7944813125987
 30
0.0
 41
1.0
 10
202.3933643587568
 20
-1392.8539105622579
 30
0.0
 41
1.0
 10
202.3901515599679
 20
-1392.913339811917
 30
0.0
 41
1.0
 10
202.38207765081518
 20
-1393.0626882131992
 30
0.0
 41
0.9999819129908365
 10
202.3722078591988
 20
-1393.2119286909067
 30
0.0
 41
1.0
 10
202.36233806758219
 20
-1393.3611691686181
 30
0.0
 41
1.0
 10
202.35989874701829
 20
-1393.3983622144674
 30
0.0
 41
1.0
 10
202.38259698086006
 20
-1393.3596212171196
 30
0.0
 41
0.9999982128198001
 10
202.40544153961449
 20
-1393.3209663231632
 30
0.0
 41
1.0
 10
202.43235109949444
 20
-1393.2754331091164
 30
0.0
 41
1.0
 10
202.45926065937442
 20
-1393.2298998950694
 30
0.0
 41
1.0
 10
202.53592433790055
 20
-1393.1001785729991
 30
0.0
 41
0.9998609190058398
 10
202.61687165076364
 20
-1392.973086191068
 30
0.0
 41
1.0
 10
202.64651997224524
 20
-1392.9265364581111
 30
0.0
 41
1.0
 10
202.67616829372685
 20
-1392.8799867251539
 30
0.0
 41
1.0
 10
202.75844051396456
 20
-1392.750814155158
 30
0.0
 41
0.9999067609736454
 10
202.84420952342663
 20
-1392.6239364657195
 30
0.0
 41
1.0
 10
202.84661422662879
 20
-1392.6203791996627
 30
0.0
 41
1.0
 10
202.84901892983095
 20
-1392.6168219336062
 30
0.0
 41
1.0
 10
202.92997853289214
 20
-1392.4970587762764
 30
0.0
 41
0.9998784952151395
 10
203.01463214257205
 20
-1392.3798775595696
 30
0.0
 41
1.0
 10
203.09928575225274
 20
-1392.2626963428618
 30
0.0
 41
0.9998532968282453
 10
203.18790337307544
 20
-1392.1484834343912
 30
0.0
 41
1.0
 10
203.20786516206596
 20
-1392.1227561133719
 30
0.0
 41
1.0
 10
203.2278269510565
 20
-1392.0970287923524
 30
0.0
 41
1.0
 10
203.34631100081637
 20
-1391.9443231813823
 30
0.0
 41
0.9991551975795222
 10
203.47693545044064
 20
-1391.801863619298
 30
0.0
 41
1.0
 10
203.48044506642091
 20
-1391.798036017673
 30
0.0
 41
1.0
 10
203.48395468240119
 20
-1391.7942084160481
 30
0.0
 41
1.0
 10
203.60755990006501
 20
-1391.6594040572136
 30
0.0
 41
0.9997418144180714
 10
203.73716203976477
 20
-1391.5303546466021
 30
0.0
 41
1.0
 10
203.86676417946578
 20
-1391.4013052359894
 30
0.0
 41
0.9989238204633487
 10
204.00776672771732
 20
-1391.2848202739499
 30
0.0
 41
1.0
 10
204.05301440585487
 20
-1391.2474402823427
 30
0.0
 41
1.0
 10
204.09826208399241
 20
-1391.2100602907356
 30
0.0
 41
1.0
 10
204.23850214121541
 20
-1391.0942052374432
 30
0.0
 41
0.9990825084096874
 10
204.38814207382086
 20
-1390.9907762396092
 30
0.0
 41
1.0
 10
204.3981874378776
 20
-1390.9838330265297
 30
0.0
 41
1.0
 10
204.40823280193436
 20
-1390.9768898134505
 30
0.0
 41
1.0
 10
204.5377820064237
 20
-1390.887347241777
 30
0.0
 41
0.9998164899824948
 10
204.67066620980108
 20
-1390.8028330002599
 30
0.0
 41
1.0
 10
204.68251177032732
 20
-1390.7952992337341
 30
0.0
 41
1.0
 10
204.69435733085359
 20
-1390.7877654672081
 30
0.0
 41
1.0
 10
204.8035504131787
 20
-1390.718318758743
 30
0.0
 41
0.9997473449131565
 10
204.91575437042678
 20
-1390.6538498009279
 30
0.0
 41
1.0
 10
205.02795832766816
 20
-1390.5893808431165
 30
0.0
 41
0.9999327861142364
 10
205.14162693842695
 20
-1390.5275308514376
 30
0.0
 41
1.0
 10
205.14217894099403
 20
-1390.5272304927551
 30
0.0
 41
1.0
 10
205.14273094356111
 20
-1390.5269301340725
 30
0.0
 41
1.0
 10
205.25750355944686
 20
-1390.4644794250323
 30
0.0
 41
0.9996956420483858
 10
205.37521688528906
 20
-1390.4077659580564
 30
0.0
 41
1.0
 10
205.40565729018186
 20
-1390.3930999813265
 30
0.0
 41
1.0
 10
205.43609769507464
 20
-1390.3784340045966
 30
0.0
 41
1.0
 10
205.53907480181601
 20
-1390.3288203461543
 30
0.0
 41
0.9998070570176585
 10
205.64392119075637
 20
-1390.2832897592534
 30
0.0
 41
1.0
 10
205.74876757969918
 20
-1390.2377591723518
 30
0.0
 41
0.9997827436147494
 10
205.8554205163102
 20
-1390.1966380010394
 30
0.0
 41
1.0
 10
205.87464336594007
 20
-1390.1892264274077
 30
0.0
 41
1.0
 10
205.89386621556997
 20
-1390.1818148537759
 30
0.0
 41
1.0
 10
206.03896485144242
 20
-1390.1258705351993
 30
0.0
 41
0.998803184197675
 10
206.18883521404686
 20
-1390.0843704710317
 30
0.0
 41
1.0
 10
206.21375246241121
 20
-1390.0774707252244
 30
0.0
 41
1.0
 10
206.23866971077555
 20
-1390.0705709794174
 30
0.0
 41
1.0
 10
206.40593973642169
 20
-1390.0242528370109
 30
0.0
 41
0.9984748040549696
 10
206.57729664506996
 20
-1389.996658604746
 30
0.0
 41
1.0
 10
206.58203578131767
 20
-1389.9958954442327
 30
0.0
 41
1.0
 10
206.58677491756538
 20
-1389.9951322837194
 30
0.0
 41
1.0
 10
206.74865355371776
 20
-1389.9690643724812
 30
0.0
 41
0.9984436495480024
 10
206.91242829744368
 20
-1389.9611864186625
 30
0.0
 41
1.0
 10
206.93412550557662
 20
-1389.9601427314628
 30
0.0
 41
1.0
 10
206.95582271370952
 20
-1389.959099044263
 30
0.0
 41
1.0
 10
207.07620304116992
 20
-1389.9533084648438
 30
0.0
 41
0.9987954789335629
 10
207.19657128607821
 20
-1389.959344992586
 30
0.0
 41
1.0
 10
207.21653607856803
 20
-1389.9603462369244
 30
0.0
 41
1.0
 10
207.23650087105784
 20
-1389.9613474812627
 30
0.0
 41
1.0
 10
207.31693953098346
 20
-1389.9653815203278
 30
0.0
 41
0.9997941595875953
 10
207.39714830908247
 20
-1389.9726755862494
 30
0.0
 41
1.0
 10
207.47735708717778
 20
-1389.9799696521704
 30
0.0
 41
0.9998589466235611
 10
207.55727563403286
 20
-1389.9899535066206
 30
0.0
 41
1.0
 10
207.58968183584062
 20
-1389.9940018635398
 30
0.0
 41
1.0
 10
207.62208803764838
 20
-1389.9980502204589
 30
0.0
 41
1.0
 10
207.76681898812168
 20
-1390.0161307887479
 30
0.0
 41
0.9993495063249326
 10
207.90987023188947
 20
-1390.0445964984899
 30
0.0
 41
1.0
 10
207.94280392903667
 20
-1390.0511499617037
 30
0.0
 41
1.0
 10
207.97573762618387
 20
-1390.0577034249175
 30
0.0
 41
1.0
 10
208.08503144939141
 20
-1390.0794517590534
 30
0.0
 41
0.9996788715560606
 10
208.1930830213505
 20
-1390.1067095584172
 30
0.0
 41
1.0
 10
208.19514602388892
 20
-1390.1072299849898
 30
0.0
 41
1.0
 10
208.19720902642732
 20
-1390.1077504115626
 30
0.0
 41
1.0
 10
208.30113459330599
 20
-1390.13396735778
 30
0.0
 41
0.9995480654492788
 10
208.40329682853633
 20
-1390.1663823144045
 30
0.0
 41
1.0
 10
208.40498647066585
 20
-1390.1669184193186
 30
0.0
 41
1.0
 10
208.40667611279537
 20
-1390.1674545242327
 30
0.0
 41
1.0
 10
208.50545906376621
 20
-1390.1987972710292
 30
0.0
 41
0.9993867959456463
 10
208.60180622220832
 20
-1390.2369766403187
 30
0.0
 41
1.0
 10
208.60304917129383
 20
-1390.2374691822151
 30
0.0
 41
1.0
 10
208.60429212037934
 20
-1390.2379617241118
 30
0.0
 41
1.0
 10
208.6981533806518
 20
-1390.275156009609
 30
0.0
 41
0.9992050256521791
 10
208.7887530556842
 20
-1390.3197099088472
 30
0.0
 41
1.0
 10
208.78948773839639
 20
-1390.3200712013081
 30
0.0
 41
1.0
 10
208.79022242110858
 20
-1390.3204324937687
 30
0.0
 41
1.0
 10
208.87935273071645
 20
-1390.3642638080853
 30
0.0
 41
0.9990222350741417
 10
208.96426279211124
 20
-1390.4157970757842
 30
0.0
 41
1.0
 10
208.96444667739414
 20
-1390.415908678689
 30
0.0
 41
1.0
 10
208.96463056267703
 20
-1390.416020281594
 30
0.0
 41
1.0
 10
209.04917285350484
 20
-1390.4673303434824
 30
0.0
 41
0.9988642743805335
 10
209.1284473881239
 20
-1390.5264545310079
 30
0.0
 41
1.0
 10
209.20772192274336
 20
-1390.5855787185335
 30
0.0
 41
0.9987681233310451
 10
209.28074570701938
 20
-1390.6522694099344
 30
0.0
 41
1.0
 10
209.281074634985
 20
-1390.6525698111484
 30
0.0
 41
1.0
 10
209.28140356295063
 20
-1390.6528702123624
 30
0.0
 41
1.0
 10
209.35508520315764
 20
-1390.7201617061905
 30
0.0
 41
0.9987496570897535
 10
209.42167900848492
 20
-1390.7944745202774
 30
0.0
 41
1.0
 10
209.42245117824569
 20
-1390.7953361936356
 30
0.0
 41
1.0
 10
209.4232233480065
 20
-1390.7961978669939
 30
0.0
 41
1.0
 10
209.49136149285471
 20
-1390.8722340277964
 30
0.0
 41
0.9988147669826765
 10
209.55178374708029
 20
-1390.9545350346398
 30
0.0
 41
1.0
 10
209.55290307315767
 20
-1390.9560596659917
 30
0.0
 41
1.0
 10
209.55402239923501
 20
-1390.9575842973438
 30
0.0
 41
1.0
 10
209.61668330561506
 20
-1391.0429345668908
 30
0.0
 41
0.9989452636215903
 10
209.67125021857683
 20
-1391.1336732560494
 30
0.0
 41
1.0
 10
209.67259894466247
 20
-1391.1359160370755
 30
0.0
 41
1.0
 10
209.67394767074813
 20
-1391.1381588181016
 30
0.0
 41
1.0
 10
209.73121203588087
 20
-1391.2333830693115
 30
0.0
 41
0.9991046436070159
 10
209.78022124920253
 20
-1391.3331075023373
 30
0.0
 41
1.0
 10
209.78168511079252
 20
-1391.3360861824099
 30
0.0
 41
1.0
 10
209.78314897238249
 20
-1391.3390648624822
 30
0.0
 41
1.0
 10
209.83508590888363
 20
-1391.4447466556512
 30
0.0
 41
0.999276383110085
 10
209.87883903743869
 20
-1391.5540707176069
 30
0.0
 41
1.0
 10
209.8803183071023
 20
-1391.5577669051413
 30
0.0
 41
1.0
 10
209.8817975767659
 20
-1391.5614630926757
 30
0.0
 41
1.0
 10
209.92850924464747
 20
-1391.6781795296979
 30
0.0
 41
0.9994163472883079
 10
209.9671422758374
 20
-1391.7978131181628
 30
0.0
 41
1.0
 10
209.96838042808432
 20
-1391.8016472619461
 30
0.0
 41
1.0
 10
209.96961858033123
 20
-1391.8054814057293
 30
0.0
 41
1.0
 10
210.00950214134843
 20
-1391.9289874672077
 30
0.0
 41
0.9997268055890011
 10
210.04357019726024
 20
-1392.0542224991575
 30
0.0
 41
1.0
 10
210.04450037752986
 20
-1392.0576418652665
 30
0.0
 41
1.0
 10
210.04543055779948
 20
-1392.0610612313756
 30
0.0
 41
1.0
 10
210.07763825317247
 20
-1392.1794575311089
 30
0.0
 41
0.9996701319000954
 10
210.10372386994271
 20
-1392.2993514843715
 30
0.0
 41
1.0
 10
210.12980948671299
 20
-1392.4192454376346
 30
0.0
 41
0.999578545110934
 10
210.14889306405294
 20
-1392.5404511986667
 30
0.0
 41
1.0
 10
210.15311284622663
 20
-1392.5672523534315
 30
0.0
 41
1.0
 10
210.15733262840033
 20
-1392.5940535081963
 30
0.0
 41
1.0
 10
210.18390760433888
 20
-1392.7628394819001
 30
0.0
 41
0.9979925101217076
 10
210.18893319026529
 20
-1392.9336308099914
 30
0.0
 41
1.0
 10
210.18975800268996
 20
-1392.9616615334735
 30
0.0
 41
1.0
 10
210.19058281511462
 20
-1392.9896922569555
 30
0.0
 41
1.0
 10
210.19395877619175
 20
-1393.1044221380823
 30
0.0
 41
0.9995314902263116
 10
210.19030858405313
 20
-1393.219143621835
 30
0.0
 41
1.0
 10
210.18665839191485
 20
-1393.3338651055856
 30
0.0
 41
0.9996245486943785
 10
210.17672929678378
 20
-1393.4482143767109
 30
0.0
 41
1.0
 10
210.17656624878953
 20
-1393.4500921328463
 30
0.0
 41
1.0
 10
210.17640320079528
 20
-1393.4519698889815
 30
0.0
 41
1.0
 10
210.16614800967602
 20
-1393.5700746723755
 30
0.0
 41
0.9997286095000675
 10
210.15040268610463
 20
-1393.6875735812696
 30
0.0
 41
1.0
 10
210.1500091934542
 20
-1393.6905100059721
 30
0.0
 41
1.0
 10
210.14961570080379
 20
-1393.6934464306744
 30
0.0
 41
1.0
 10
210.13308339193148
 20
-1393.8168181889735
 30
0.0
 41
0.9998265533968647
 10
210.11196793319931
 20
-1393.9394886637597
 30
0.0
 41
1.0
 10
210.11129139106203
 20
-1393.943419042268
 30
0.0
 41
1.0
 10
210.11061484892474
 20
-1393.9473494207764
 30
0.0
 41
1.0
 10
210.08814630591755
 20
-1394.0778806525805
 30
0.0
 41
0.9999022530853771
 10
210.06203684130904
 20
-1394.2077326212122
 30
0.0
 41
1.0
 10
210.06105820014307
 20
-1394.2125997636026
 30
0.0
 41
1.0
 10
210.06007955897712
 20
-1394.2174669059928
 30
0.0
 41
1.0
 10
210.03201281203613
 20
-1394.3570531594069
 30
0.0
 41
0.9999524761936962
 10
210.00122984320208
 20
-1394.4960656525684
 30
0.0
 41
1.0
 10
209.99995373602638
 20
-1394.5018284118719
 30
0.0
 41
1.0
 10
209.99867762885071
 20
-1394.5075911711751
 30
0.0
 41
1.0
 10
209.96534244566288
 20
-1394.6581291829541
 30
0.0
 41
0.9999813588720774
 10
209.93017144486768
 20
-1394.808248895607
 30
0.0
 41
1.0
 10
209.92861751941194
 20
-1394.814881486026
 30
0.0
 41
1.0
 10
209.92706359395618
 20
-1394.8215140764451
 30
0.0
 41
1.0
 10
209.88878474225015
 20
-1394.9848989699335
 30
0.0
 41
0.9999955237700062
 10
209.84952886426967
 20
-1395.1480518735402
 30
0.0
 41
1.0
 10
209.83724722863383
 20
-1395.1990960640692
 30
0.0
 41
1.0
 10
209.82496559299796
 20
-1395.2501402545984
 30
0.0
 41
1.0
 10
209.7611464437577
 20
-1395.5153815392134
 30
0.0
 41
0.9999993604283914
 10
209.69672749658258
 20
-1395.7804777899273
 30
0.0
 41
1.0
 10
209.69200866103463
 20
-1395.7998966979715
 30
0.0
 41
1.0
 10
209.68728982548669
 20
-1395.8193156060156
 30
0.0
 41
1.0
 10
209.61343320722682
 20
-1396.1232496727725
 30
0.0
 41
0.999965991473453
 10
209.53457361133965
 20
-1396.4259242193389
 30
0.0
 41
1.0
 10
209.52962092240966
 20
-1396.444933356519
 30
0.0
 41
1.0
 10
209.52466823347964
 20
-1396.4639424936988
 30
0.0
 41
1.0
 10
209.43590325973352
 20
-1396.8046353146206
 30
0.0
 41
0.9999441976026124
 10
209.33996022677061
 20
-1397.1433767399176
 30
0.0
 41
1.0
 10
209.32325970834518
 20
-1397.202340452445
 30
0.0
 41
1.0
 10
209.30655918991971
 20
-1397.2613041649724
 30
0.0
 41
1.0
 10
209.17721512010431
 20
-1397.7179730153293
 30
0.0
 41
0.9999625120735494
 10
209.03998235278314
 20
-1398.1723335493177
 30
0.0
 41
1.0
 10
209.00419240969637
 20
-1398.2908295759573
 30
0.0
 41
1.0
 10
208.96840246660963
 20
-1398.4093256025969
 30
0.0
 41
1.0
 10
208.89388226257341
 20
-1398.6560526806829
 30
0.0
 41
0.9999793386305866
 10
208.81619623943715
 20
-1398.901801319915
 30
0.0
 41
1.0
 10
208.73851021629957
 20
-1399.1475499591511
 30
0.0
 41
1.0
 10
208.72773065742888
 20
-1399.1815678635257
 30
0.0
 41
1.0
 10
206.87735760415973
 20
-1405.0686397859931
 30
0.0
 41
1.0
 10
205.02698455089057
 20
-1410.9557117084607
 30
0.0
 41
1.0
 10
204.06572786086701
 20
-1410.9557117084607
 30
0.0
 41
1.0
 10
203.10447117084345
 20
-1410.9557117084607
 30
0.0
 41
1.0
 10
204.72341594952189
 20
-1405.8076832066713
 30
0.0
 41
1.0
 10
206.34236072820033
 20
-1400.6596547048819
 30
0.0
 41
1.0
 10
206.38752655137262
 20
-1400.5156234826184
 30
0.0
 41
1.0
 10
206.43269237454493
 20
-1400.3715922603549
 30
0.0
 41
1.0
 10
206.60299679191164
 20
-1399.8285012311794
 30
0.0
 41
0.9999911657879068
 10
206.76872960359191
 20
-1399.2839976998159
 30
0.0
 41
1.0
 10
206.79842554709575
 20
-1399.1864337597542
 30
0.0
 41
1.0
 10
206.82812149059959
 20
-1399.0888698196925
 30
0.0
 41
1.0
 10
206.93446241528
 20
-1398.7394941684265
 30
0.0
 41
0.9999952428156292
 10
207.03864600459707
 20
-1398.3894691441028
 30
0.0
 41
1.0
 10
207.04370547493306
 20
-1398.3724708698157
 30
0.0
 41
1.0
 10
207.04876494526908
 20
-1398.3554725955287
 30
0.0
 41
1.0
 10
207.14282959392386
 20
-1398.0394441197468
 30
0.0
 41
0.9999931687499837
 10
207.23455543179568
 20
-1397.7227289064826
 30
0.0
 41
1.0
 10
207.23949069625007
 20
-1397.7056881972294
 30
0.0
 41
1.0
 10
207.24442596070443
 20
-1397.6886474879761
 30
0.0
 41
1.0
 10
207.32628126966216
 20
-1397.4060136932371
 30
0.0
 41
0.9999893840828962
 10
207.40552849612618
 20
-1397.1226375639656
 30
0.0
 41
1.0
 10
207.48477572258463
 20
-1396.8392614347135
 30
0.0
 41
0.999983398006256
 10
207.56075196332608
 20
-1396.5549908516855
 30
0.0
 41
1.0
 10
207.56975590004788
 20
-1396.5213019732087
 30
0.0
 41
1.0
 10
207.57875983676971
 20
-1396.4876130947321
 30
0.0
 41
1.0
 10
207.6477243856358
 20
-1396.2295772624361
 30
0.0
 41
0.999923365806359
 10
207.71027935685652
 20
-1395.9699131037125
 30
0.0
 41
1.0
 10
207.77283432807678
 20
-1395.7102489449901
 30
0.0
 41
1.0
 10
207.81231774693435
 20
-1395.546442280564
 30
0.0
 41
1.0
 10
207.81729635091085
 20
-1395.5257873186968
 30
0.0
 41
1.0
 10
207.82227495488735
 20
-1395.5051323568296
 30
0.0
 41
1.0
 10
207.85180116579437
 20
-1395.3826356161278
 30
0.0
 41
0.9999868670854568
 10
207.8800702497881
 20
-1395.2598426704924
 30
0.0
 41
1.0
 10
207.88396773694762
 20
-1395.2429130830676
 30
0.0
 41
1.0
 10
207.88786522410714
 20
-1395.2259834956428
 30
0.0
 41
1.0
 10
207.9083393337844
 20
-1395.1370497248461
 30
0.0
 41
0.9999778173354698
 10
207.92762693189974
 20
-1395.0478511076165
 30
0.0
 41
1.0
 10
207.94691453001371
 20
-1394.9586524903925
 30
0.0
 41
0.9999602692863655
 10
207.96460888864621
 20
-1394.8691242019584
 30
0.0
 41
1.0
 10
207.96781272072371
 20
-1394.8529137470732
 30
0.0
 41
1.0
 10
207.97101655280119
 20
-1394.8367032921883
 30
0.0
 41
1.0
 10
207.99511857558684
 20
-1394.7147540939918
 30
0.0
 41
0.9995617985320672
 10
208.01196192280582
 20
-1394.5915923462856
 30
0.0
 41
1.0
 10
208.0144264127122
 20
-1394.5735715289188
 30
0.0
 41
1.0
 10
208.01689090261857
 20
-1394.5555507115523
 30
0.0
 41
1.0
 10
208.03717416366678
 20
-1394.4072356618508
 30
0.0
 41
0.9991121410639913
 10
208.04489951725498
 20
-1394.257739563046
 30
0.0
 41
1.0
 10
208.04581830727952
 20
-1394.23995972647
 30
0.0
 41
1.0
 10
208.04673709730406
 20
-1394.2221798898941
 30
0.0
 41
1.0
 10
208.05262487084323
 20
-1394.1082434642392
 30
0.0
 41
0.9989792494905448
 10
208.0482057787259
 20
-1393.9942406283412
 30
0.0
 41
1.0
 10
208.04755780685727
 20
-1393.9775243824147
 30
0.0
 41
1.0
 10
208.04690983498864
 20
-1393.9608081364881
 30
0.0
 41
1.0
 10
208.04378668660846
 20
-1393.8802377924421
 30
0.0
 41
0.99978202953933
 10
208.03730268923289
 20
-1393.7998680706989
 30
0.0
 41
1.0
 10
208.03081869185741
 20
-1393.7194983489569
 30
0.0
 41
0.9998335105974827
 10
208.02140649634546
 20
-1393.6394187325045
 30
0.0
 41
1.0
 10
208.01981157166915
 20
-1393.6258490020216
 30
0.0
 41
1.0
 10
208.01821664699281
 20
-1393.6122792715387
 30
0.0
 41
1.0
 10
208.00561460212802
 20
-1393.50506019412
 30
0.0
 41
0.9996876457878805
 10
207.98767068932995
 20
-1393.3986047664059
 30
0.0
 41
1.0
 10
207.98543902618474
 20
-1393.3853650311646
 30
0.0
 41
1.0
 10
207.9832073630395
 20
-1393.3721252959233
 30
0.0
 41
1.0
 10
207.96941154161846
 20
-1393.2902791519655
 30
0.0
 41
0.9995547496495402
 10
207.9507582197258
 20
-1393.2094016547735
 30
0.0
 41
1.0
 10
207.95038426285447
 20
-1393.2077802440679
 30
0.0
 41
1.0
 10
207.95001030598311
 20
-1393.2061588333622
 30
0.0
 41
1.0
 10
207.93210489783323
 20
-1393.1285241575827
 30
0.0
 41
0.9994899427175461
 10
207.90927998915384
 20
-1393.0521908747478
 30
0.0
 41
1.0
 10
207.90882146241319
 20
-1393.0506574249594
 30
0.0
 41
1.0
 10
207.9083629356725
 20
-1393.0491239751711
 30
0.0
 41
1.0
 10
207.8864550804748
 20
-1392.9758575919143
 30
0.0
 41
0.9993784877590963
 10
207.85943944536791
 20
-1392.9043168867545
 30
0.0
 41
1.0
 10
207.85890775439117
 20
-1392.9029089040343
 30
0.0
 41
1.0
 10
207.8583760634144
 20
-1392.9015009213142
 30
0.0
 41
1.0
 10
207.83242381026102
 20
-1392.8327761815945
 30
0.0
 41
0.9992430832253886
 10
207.80120727510194
 20
-1392.7662770295271
 30
0.0
 41
1.0
 10
207.80062515904521
 20
-1392.7650369744097
 30
0.0
 41
1.0
 10
207.80004304298848
 20
-1392.763796919292
 30
0.0
 41
1.0
 10
207.76999073994244
 20
-1392.6997778774587
 30
0.0
 41
0.999078963279899
 10
207.73456011316591
 20
-1392.6385712657093
 30
0.0
 41
1.0
 10
207.73396440698383
 20
-1392.6375421798498
 30
0.0
 41
1.0
 10
207.73336870080175
 20
-1392.6365130939905
 30
0.0
 41
1.0
 10
207.69912948638861
 20
-1392.5773646539587
 30
0.0
 41
0.9988874801120075
 10
207.65947021035714
 20
-1392.5217049415419
 30
0.0
 41
1.0
 10
207.65891468429317
 20
-1392.5209252898676
 30
0.0
 41
1.0
 10
207.65835915822922
 20
-1392.5201456381933
 30
0.0
 41
1.0
 10
207.61981093432496
 20
-1392.4660452291237
 30
0.0
 41
0.9986762060692996
 10
207.57590846304896
 20
-1392.4161915146847
 30
0.0
 41
1.0
 10
207.57546450271647
 20
-1392.4156873728678
 30
0.0
 41
1.0
 10
207.57502054238398
 20
-1392.4151832310508
 30
0.0
 41
1.0
 10
207.53200599177273
 20
-1392.3663378002454
 30
0.0
 41
0.9984621642488195
 10
207.48384843499497
 20
-1392.3225544997745
 30
0.0
 41
1.0
 10
207.48360180047837
 20
-1392.3223302676111
 30
0.0
 41
1.0
 10
207.48335516596177
 20
-1392.3221060354474
 30
0.0
 41
1.0
 10
207.43569087821766
 20
-1392.2787711993037
 30
0.0
 41
0.9982724693851821
 10
207.38327224637572
 20
-1392.2413268487858
 30
0.0
 41
1.0
 10
207.33085361453359
 20
-1392.2038824982676
 30
0.0
 41
0.9981399180158721
 10
207.2742675511397
 20
-1392.1730959788238
 30
0.0
 41
1.0
 10
207.27422188906186
 20
-1392.173071135667
 30
0.0
 41
1.0
 10
207.27417622698403
 20
-1392.1730462925102
 30
0.0
 41
1.0
 10
207.21749883943403
 20
-1392.1422100867526
 30
0.0
 41
0.9980927086837284
 10
207.15745348836873
 20
-1392.1185932779003
 30
0.0
 41
1.0
 10
207.15701331865637
 20
-1392.118420152025
 30
0.0
 41
1.0
 10
207.15657314894401
 20
-1392.1182470261499
 30
0.0
 41
1.0
 10
207.09564745845407
 20
-1392.0942839655474
 30
0.0
 41
0.9981411356561355
 10
207.03225893705377
 20
-1392.0779113240417
 30
0.0
 41
1.0
 10
207.03137682035288
 20
-1392.0776834818362
 30
0.0
 41
1.0
 10
207.03049470365198
 20
-1392.0774556396309
 30
0.0
 41
1.0
 10
206.96534194885081
 20
-1392.0606273137146
 30
0.0
 41
0.9983031812935296
 10
206.89867451985745
 20
-1392.0514879525385
 30
0.0
 41
1.0
 10
206.88980349445239
 20
-1392.0502718338671
 30
0.0
 41
1.0
 10
206.88093246904737
 20
-1392.0490557151957
 30
0.0
 41
1.0
 10
206.82658282654324
 20
-1392.0416049852045
 30
0.0
 41
0.9983887708263247
 10
206.77173897725015
 20
-1392.040360311571
 30
0.0
 41
1.0
 10
206.76367557202798
 20
-1392.0401773136959
 30
0.0
 41
1.0
 10
206.7556121668058
 20
-1392.0399943158211
 30
0.0
 41
1.0
 10
206.7168951279526
 20
-1392.0391156379378
 30
0.0
 41
0.9998869563078695
 10
206.67816917475466
 20
-1392.0394015072975
 30
0.0
 41
1.0
 10
206.63944322158085
 20
-1392.039687376657
 30
0.0
 41
0.9999972320178537
 10
206.60071904239919
 20
-1392.0401554761854
 30
0.0
 41
1.0
 10
206.5813660257902
 20
-1392.040389416275
 30
0.0
 41
1.0
 10
206.56201300918121
 20
-1392.0406233563649
 30
0.0
 41
1.0
 10
206.48458279680966
 20
-1392.0415593360729
 30
0.0
 41
0.9997304945087706
 10
206.407279490571
 20
-1392.0460884298591
 30
0.0
 41
1.0
 10
206.39822984886769
 20
-1392.046618635849
 30
0.0
 41
1.0
 10
206.38918020716437
 20
-1392.0471488418389
 30
0.0
 41
1.0
 10
206.29377761751783
 20
-1392.0527383476046
 30
0.0
 41
0.9997888306415077
 10
206.1986852816753
 20
-1392.0622433120936
 30
0.0
 41
1.0
 10
206.18996422010272
 20
-1392.0631150267259
 30
0.0
 41
1.0
 10
206.18124315853015
 20
-1392.0639867413579
 30
0.0
 41
1.0
 10
206.06870869954014
 20
-1392.0752351351116
 30
0.0
 41
0.9984170238190414
 10
205.95814955218725
 20
-1392.0990512170479
 30
0.0
 41
1.0
 10
205.9217684212029
 20
-1392.1068882528534
 30
0.0
 41
1.0
 10
205.88538729021855
 20
-1392.1147252886592
 30
0.0
 41
1.0
 10
205.77019622179674
 20
-1392.1395391551689
 30
0.0
 41
0.9976592854199501
 10
205.65946805539136
 20
-1392.179837832316
 30
0.0
 41
1.0
 10
205.54873988898524
 20
-1392.2201365094636
 30
0.0
 41
0.9993255074352271
 10
205.4412680901942
 20
-1392.2684534079563
 30
0.0
 41
1.0
 10
205.43664291127158
 20
-1392.2705327841556
 30
0.0
 41
1.0
 10
205.43201773234898
 20
-1392.272612160355
 30
0.0
 41
1.0
 10
205.31529557571179
 20
-1392.3250878112469
 30
0.0
 41
0.9976475078275545
 10
205.20684823140093
 20
-1392.3930358009056
 30
0.0
 41
1.0
 10
205.18850583726569
 20
-1392.4045282797206
 30
0.0
 41
1.0
 10
205.17016344313046
 20
-1392.4160207585353
 30
0.0
 41
1.0
 10
205.08596125157894
 20
-1392.4687778793032
 30
0.0
 41
0.9995131336406502
 10
205.00521353662202
 20
-1392.5266840912561
 30
0.0
 41
1.0
 10
204.92446582166195
 20
-1392.5845903032114
 30
0.0
 41
0.9995810107606191
 10
204.84720417393098
 20
-1392.6470719856793
 30
0.0
 41
1.0
 10
204.84423414272334
 20
-1392.6494738571419
 30
0.0
 41
1.0
 10
204.84126411151567
 20
-1392.6518757286044
 30
0.0
 41
1.0
 10
204.75806240136916
 20
-1392.7191611539974
 30
0.0
 41
0.9996617837954199
 10
204.67847171423406
 20
-1392.7906816095569
 30
0.0
 41
1.0
 10
204.66634096335559
 20
-1392.801582342549
 30
0.0
 41
1.0
 10
204.65421021247712
 20
-1392.812483075541
 30
0.0
 41
1.0
 10
204.58593468507848
 20
-1392.8738356910151
 30
0.0
 41
0.9997267750052257
 10
204.52060117679622
 20
-1392.938312227539
 30
0.0
 41
1.0
 10
204.45526766851623
 20
-1393.0027887640606
 30
0.0
 41
0.999966728895957
 10
204.39099472537444
 20
-1393.0683225709502
 30
0.0
 41
1.0
 10
204.32216727759504
 20
-1393.1385002297129
 30
0.0
 41
1.0
 10
204.25333982981562
 20
-1393.2086778884754
 30
0.0
 41
1.0
 10
204.05141199111878
 20
-1393.4145670128862
 30
0.0
 41
0.9988205335175302
 10
203.87040637413909
 20
-1393.639071244947
 30
0.0
 41
1.0
 10
203.83976640923453
 20
-1393.6770744953769
 30
0.0
 41
1.0
 10
203.80912644432993
 20
-1393.7150777458066
 30
0.0
 41
1.0
 10
203.56684089754265
 20
-1394.015588478725
 30
0.0
 41
0.9997077826755223
 10
203.3393629464382
 20
-1394.3274582729402
 30
0.0
 41
1.0
 10
203.33763953130654
 20
-1394.3298210563214
 30
0.0
 41
1.0
 10
203.33591611617487
 20
-1394.3321838397026
 30
0.0
 41
1.0
 10
203.10499133480829
 20
-1394.6487792006785
 30
0.0
 41
0.9989147567079002
 10
202.90452783192455
 20
-1394.9854886618639
 30
0.0
 41
1.0
 10
202.87978668661782
 20
-1395.0270452424161
 30
0.0
 41
1.0
 10
202.85504554131109
 20
-1395.068601822968
 30
0.0
 41
1.0
 10
202.69983424267406
 20
-1395.3293032074203
 30
0.0
 41
0.9997476598181981
 10
202.55648925516437
 20
-1395.5967129560029
 30
0.0
 41
1.0
 10
202.41314426765442
 20
-1395.864122704586
 30
0.0
 41
0.9996258967109807
 10
202.28463601572369
 20
-1396.1389706412081
 30
0.0
 41
1.0
 10
202.27143610627277
 20
-1396.1672020413062
 30
0.0
 41
1.0
 10
202.25823619682185
 20
-1396.1954334414045
 30
0.0
 41
1.0
 10
202.11802747582419
 20
-1396.4953058393528
 30
0.0
 41
0.9998735413944956
 10
201.98742612910326
 20
-1396.7994854388216
 30
0.0
 41
1.0
 10
201.98398330104331
 20
-1396.807504024285
 30
0.0
 41
1.0
 10
201.98054047298336
 20
-1396.8155226097483
 30
0.0
 41
1.0
 10
201.85682478238408
 20
-1397.1036650382866
 30
0.0
 41
0.9999377418858426
 10
201.73956998020816
 20
-1397.3944965059645
 30
0.0
 41
1.0
 10
201.62231517803241
 20
-1397.6853279736417
 30
0.0
 41
0.9999508299506954
 10
201.51085123465595
 20
-1397.9784276504608
 30
0.0
 41
1.0
 10
201.5077704659933
 20
-1397.9865286764252
 30
0.0
 41
1.0
 10
201.50468969733066
 20
-1397.9946297023894
 30
0.0
 41
1.0
 10
201.3870642166259
 20
-1398.3039314311447
 30
0.0
 41
0.9999609228430459
 10
201.27492561375172
 20
-1398.6152644471613
 30
0.0
 41
1.0
 10
201.27196960340342
 20
-1398.6234712875671
 30
0.0
 41
1.0
 10
201.26901359305509
 20
-1398.6316781279729
 30
0.0
 41
1.0
 10
201.15096296948349
 20
-1398.9594248248031
 30
0.0
 41
0.9999674607408782
 10
201.0382154434121
 20
-1399.289033444807
 30
0.0
 41
1.0
 10
200.98681705285128
 20
-1399.4392926404939
 30
0.0
 41
1.0
 10
200.93541866229049
 20
-1399.589551836181
 30
0.0
 41
1.0
 10
200.81940805553154
 20
-1399.9286998186872
 30
0.0
 41
0.9999287532306546
 10
200.71152665156006
 20
-1400.2705205576653
 30
0.0
 41
1.0
 10
200.66504939542625
 20
-1400.4177831020193
 30
0.0
 41
1.0
 10
200.61857213929247
 20
-1400.5650456463734
 30
0.0
 41
1.0
 10
200.60364524759808
 20
-1400.6123412966135
 30
0.0
 41
0.9999998224627686
 10
200.58877473885889
 20
-1400.6596547048819
 30
0.0
 41
1.0
 10
198.96811860206344
 20
-1405.8076832066713
 30
0.0
 41
1.0
 10
197.34746246526799
 20
-1410.9557117084607
 30
0.0
 41
1.0
 10
196.44215402137706
 20
-1410.9557117084607
 30
0.0
 41
1.0
 10
195.53684557748613
 20
-1410.9557117084607
 30
0.0
 41
1.0
 10
197.38892998887218
 20
-1405.0686397859931
 30
0.0
 41
1.0
 10
199.24101440025822
 20
-1399.1815678635257
 30
0.0
 41
1.0
 10
199.25113615856094
 20
-1399.149524650076
 30
0.0
 41
1.0
 10
199.32374382741068
 20
-1398.9192251082502
 30
0.0
 41
1.0
 10
199.39635149626218
 20
-1398.6889255664187
 30
0.0
 41
0.9999825681968581
 10
199.46623453547144
 20
-1398.457784671361
 30
0.0
 41
1.0
 10
199.51452559763237
 20
-1398.2980600878645
 30
0.0
 41
1.0
 10
199.56281665979333
 20
-1398.1383355043681
 30
0.0
 41
1.0
 10
199.65996901311053
 20
-1397.8170002825923
 30
0.0
 41
0.9999672528957841
 10
199.75190781873278
 20
-1397.4941347370095
 30
0.0
 41
1.0
 10
199.7546967024017
 20
-1397.4843408916224
 30
0.0
 41
1.0
 10
199.75748558607066
 20
-1397.4745470462353
 30
0.0
 41
1.0
 10
199.84384662435531
 20
-1397.1712691914254
 30
0.0
 41
0.9999899749149875
 10
199.92748823389081
 20
-1396.8672301029706
 30
0.0
 41
1.0
 10
199.93759415290771
 20
-1396.8304948652944
 30
0.0
 41
1.0
 10
199.94770007192463
 20
-1396.7937596276183
 30
0.0
 41
1.0
 10
200.01112984342464
 20
-1396.5631910145214
 30
0.0
 41
0.9999214200504044
 10
200.06875927180323
 20
-1396.3311046723088
 30
0.0
 41
1.0
 10
200.08152512398286
 20
-1396.2796937869166
 30
0.0
 41
1.0
 10
200.09429097616248
 20
-1396.2282829015242
 30
0.0
 41
1.0
 10
200.12638870017938
 20
-1396.0990183301055
 30
0.0
 41
0.9999828681652142
 10
200.15697095217638
 20
-1395.9693868556321
 30
0.0
 41
1.0
 10
200.18755320417267
 20
-1395.8397553811615
 30
0.0
 41
0.9999389844475238
 10
200.215264192962
 20
-1395.7094799252602
 30
0.0
 41
1.0
 10
200.22240193668171
 20
-1395.6759238214249
 30
0.0
 41
1.0
 10
200.22953968040144
 20
-1395.6423677175899
 30
0.0
 41
1.0
 10
200.27152615663204
 20
-1395.4449800540103
 30
0.0
 41
0.9998933699440292
 10
200.30773042103394
 20
-1395.246450446253
 30
0.0
 41
1.0
 10
200.30910324625
 20
-1395.238922425558
 30
0.0
 41
1.0
 10
200.31047607146604
 20
-1395.2313944048631
 30
0.0
 41
1.0
 10
200.34942598630093
 20
-1395.0178087557119
 30
0.0
 41
0.9996850305193918
 10
200.37760966255962
 20
-1394.8025377502754
 30
0.0
 41
1.0
 10
200.37960469592889
 20
-1394.7872993961537
 30
0.0
 41
1.0
 10
200.38159972929816
 20
-1394.7720610420317
 30
0.0
 41
1.0
 10
200.40900759175713
 20
-1394.562715814877
 30
0.0
 41
0.9994697936706869
 10
200.42273215097697
 20
-1394.3520306195455
 30
0.0
 41
1.0
 10
200.42320922022668
 20
-1394.3447071473338
 30
0.0
 41
1.0
 10
200.42368628947639
 20
-1394.3373836751223
 30
0.0
 41
1.0
 10
200.43645671019675
 20
-1394.1413454242131
 30
0.0
 41
0.9991804893136778
 10
200.43332839392377
 20
-1393.9449165742412
 30
0.0
 41
1.0
 10
200.43324451510165
 20
-1393.9396497728285
 30
0.0
 41
1.0
 10
200.43316063627955
 20
-1393.934382971416
 30
0.0
 41
1.0
 10
200.43020007765108
 20
-1393.7484877242689
 30
0.0
 41
0.9988448329321387
 10
200.40940853202721
 20
-1393.5637351344344
 30
0.0
 41
1.0
 10
200.4078144583242
 20
-1393.5495702786632
 30
0.0
 41
1.0
 10
200.40622038462115
 20
-1393.5354054228919
 30
0.0
 41
1.0
 10
200.38861698640349
 20
-1393.3789825446015
 30
0.0
 41
0.9985503209458579
 10
200.35430071410389
 20
-1393.2253583605118
 30
0.0
 41
1.0
 10
200.34671472203266
 20
-1393.1913980331115
 30
0.0
 41
1.0
 10
200.33912872996143
 20
-1393.1574377057113
 30
0.0
 41
1.0
 10
200.31998444180442
 20
-1393.071734176423
 30
0.0
 41
0.9991036781370372
 10
200.29365958015313
 20
-1392.9879570890976
 30
0.0
 41
1.0
 10
200.28967735469755
 20
-1392.9752839265884
 30
0.0
 41
1.0
 10
200.28569512924196
 20
-1392.962610764079
 30
0.0
 41
1.0
 10
200.26733471850181
 20
-1392.9041800017717
 30
0.0
 41
0.9998874504368583
 10
200.2472295108235
 20
-1392.8463263995493
 30
0.0
 41
1.0
 10
200.22712430314496
 20
-1392.7884727973255
 30
0.0
 41
0.9994041637543466
 10
200.20307569021026
 20
-1392.732144093435
 30
0.0
 41
1.0
 10
200.19887890598656
 20
-1392.7223140289539
 30
0.0
 41
1.0
 10
200.19468212176287
 20
-1392.7124839644728
 30
0.0
 41
1.0
 10
200.16680329076792
 20
-1392.6471837985041
 30
0.0
 41
0.9991846840701129
 10
200.13374693407513
 20
-1392.5843457672249
 30
0.0
 41
1.0
 10
200.13261032768042
 20
-1392.5821851507708
 30
0.0
 41
1.0
 10
200.13147372128574
 20
-1392.5800245343169
 30
0.0
 41
1.0
 10
200.10069057738212
 20
-1392.5215077359451
 30
0.0
 41
0.9989253167923599
 10
200.0646211533271
 20
-1392.4660928075546
 30
0.0
 41
1.0
 10
200.06356702865276
 20
-1392.4644733127921
 30
0.0
 41
1.0
 10
200.06251290397844
 20
-1392.4628538180295
 30
0.0
 41
1.0
 10
200.02855172927215
 20
-1392.4106778791643
 30
0.0
 41
0.9986467172836253
 10
199.98935457663475
 20
-1392.3623118455348
 30
0.0
 41
1.0
 10
199.98848044793368
 20
-1392.3612332432563
 30
0.0
 41
1.0
 10
199.98760631923264
 20
-1392.3601546409775
 30
0.0
 41
1.0
 10
199.9501574239969
 20
-1392.3139458119044
 30
0.0
 41
0.9984001104266821
 10
199.90773069348018
 20
-1392.2722607045362
 30
0.0
 41
1.0
 10
199.90714355537128
 20
-1392.2716838296553
 30
0.0
 41
1.0
 10
199.90655641726238
 20
-1392.2711069547745
 30
0.0
 41
1.0
 10
199.86530396296402
 20
-1392.2305755971686
 30
0.0
 41
0.9982442159084217
 10
199.81954786162743
 20
-1392.1952070359073
 30
0.0
 41
1.0
 10
199.81933306616531
 20
-1392.1950410032637
 30
0.0
 41
1.0
 10
199.8191182707032
 20
-1392.1948749706203
 30
0.0
 41
1.0
 10
199.77379176029177
 20
-1392.1598384746471
 30
0.0
 41
0.9982450060835618
 10
199.72464078122005
 20
-1392.1304066916136
 30
0.0
 41
1.0
 10
199.67548980214815
 20
-1392.1009749085799
 30
0.0
 41
0.9983922639634051
 10
199.62332349598358
 20
-1392.077295273926
 30
0.0
 41
1.0
 10
199.62309661865905
 20
-1392.0771922884446
 30
0.0
 41
1.0
 10
199.62286974133451
 20
-1392.077089302963
 30
0.0
 41
1.0
 10
199.57024968052193
 20
-1392.0532036973466
 30
0.0
 41
0.9986517147150471
 10
199.51543670765508
 20
-1392.0349025782252
 30
0.0
 41
1.0
 10
199.51475878622608
 20
-1392.0346762317934
 30
0.0
 41
1.0
 10
199.51408086479711
 20
-1392.0344498853615
 30
0.0
 41
1.0
 10
199.45791204907266
 20
-1392.0156960733766
 30
0.0
 41
0.9989435598955958
 10
199.40025866192073
 20
-1392.002178371142
 30
0.0
 41
1.0
 10
199.39917854233971
 20
-1392.0019251208892
 30
0.0
 41
1.0
 10
199.39809842275866
 20
-1392.0016718706363
 30
0.0
 41
1.0
 10
199.33828479644461
 20
-1391.987647667896
 30
0.0
 41
0.9992249241239799
 10
199.27755328754824
 20
-1391.978372325181
 30
0.0
 41
1.0
 10
199.27613959925634
 20
-1391.9781564167729
 30
0.0
 41
1.0
 10
199.27472591096443
 20
-1391.977940508365
 30
0.0
 41
1.0
 10
199.21116702548588
 20
-1391.9682333488342
 30
0.0
 41
0.999439659783359
 10
199.14710108894997
 20
-1391.9628004264885
 30
0.0
 41
1.0
 10
199.12796042147119
 20
-1391.9611772587696
 30
0.0
 41
1.0
 10
199.10881975399241
 20
-1391.9595540910509
 30
0.0
 41
1.0
 10
199.0064724824993
 20
-1391.950874833268
 30
0.0
 41
0.9987693403121396
 10
198.90376885891175
 20
-1391.9523778967207
 30
0.0
 41
1.0
 10
198.89351452468421
 20
-1391.9525279684949
 30
0.0
 41
1.0
 10
198.88326019045667
 20
-1391.9526780402691
 30
0.0
 41
1.0
 10
198.77370442427861
 20
-1391.9542813845565
 30
0.0
 41
0.9989753644966148
 10
198.66474242426295
 20
-1391.9657843914815
 30
0.0
 41
1.0
 10
198.55578042424781
 20
-1391.9772873984068
 30
0.0
 41
0.9983190067306385
 10
198.44888161328421
 20
-1392.0013223901931
 30
0.0
 41
1.0
 10
198.43998066167615
 20
-1392.0033236687559
 30
0.0
 41
1.0
 10
198.43107971006805
 20
-1392.005324947319
 30
0.0
 41
1.0
 10
198.30637899588828
 20
-1392.0333624962313
 30
0.0
 41
0.9985539388302622
 10
198.18540924220997
 20
-1392.0746261722772
 30
0.0
 41
1.0
 10
198.18306381125049
 20
-1392.0754262160926
 30
0.0
 41
1.0
 10
198.18071838029101
 20
-1392.0762262599083
 30
0.0
 41
1.0
 10
198.05505776469244
 20
-1392.1190900235856
 30
0.0
 41
0.9988468746494017
 10
197.9340874223912
 20
-1392.1738081086485
 30
0.0
 41
1.0
 10
197.93090460040301
 20
-1392.1752477832083
 30
0.0
 41
1.0
 10
197.92772177841482
 20
-1392.1766874577679
 30
0.0
 41
1.0
 10
197.8003857921384
 20
-1392.2342848919495
 30
0.0
 41
0.9991322885919469
 10
197.67828520808325
 20
-1392.3022802241303
 30
0.0
 41
1.0
 10
197.66068319703882
 20
-1392.3120824261205
 30
0.0
 41
1.0
 10
197.64308118599439
 20
-1392.3218846281104
 30
0.0
 41
1.0
 10
197.54090450493609
 20
-1392.3787847438919
 30
0.0
 41
0.9993860037849691
 10
197.44296350086188
 20
-1392.4427007594809
 30
0.0
 41
1.0
 10
197.43734518800653
 20
-1392.4463672541779
 30
0.0
 41
1.0
 10
197.43172687515118
 20
-1392.4500337488746
 30
0.0
 41
1.0
 10
197.34502249678627
 20
-1392.5066167750708
 30
0.0
 41
0.9998821494954141
 10
197.26009612097567
 20
-1392.5658350051463
 30
0.0
 41
1.0
 10
197.17516974516172
 20
-1392.6250532352237
 30
0.0
 41
0.999797648274388
 10
197.09269411475739
 20
-1392.687639643266
 30
0.0
 41
1.0
 10
197.07805784995338
 20
-1392.6987463330452
 30
0.0
 41
1.0
 10
197.0634215851494
 20
-1392.7098530228243
 30
0.0
 41
1.0
 10
196.95167342513787
 20
-1392.7946528104242
 30
0.0
 41
0.9998091630798871
 10
196.84332314711068
 20
-1392.8837531611252
 30
0.0
 41
1.0
 10
196.83031739463217
 20
-1392.8944482615723
 30
0.0
 41
1.0
 10
196.81731164215364
 20
-1392.9051433620193
 30
0.0
 41
1.0
 10
196.68294985917063
 20
-1393.0156339136133
 30
0.0
 41
0.9995035112316867
 10
196.55581398140561
 20
-1393.1343677306299
 30
0.0
 41
1.0
 10
196.54616667101814
 20
-1393.1433774767879
 30
0.0
 41
1.0
 10
196.53651936063068
 20
-1393.1523872229459
 30
0.0
 41
1.0
 10
196.41309629786639
 20
-1393.2676535947007
 30
0.0
 41
0.9994630424298924
 10
196.29748789208412
 20
-1393.3907563379344
 30
0.0
 41
1.0
 10
196.29380505331304
 20
-1393.3946779174471
 30
0.0
 41
1.0
 10
196.29012221454195
 20
-1393.3985994969596
 30
0.0
 41
1.0
 10
196.18187948630077
 20
-1393.5138590811689
 30
0.0
 41
0.9995160693749752
 10
196.08101345676823
 20
-1393.6356264990422
 30
0.0
 41
1.0
 10
196.07907973668813
 20
-1393.6379609232497
 30
0.0
 41
1.0
 10
196.077146016608
 20
-1393.6402953474571
 30
0.0
 41
1.0
 10
195.98014742723541
 20
-1393.7573939169158
 30
0.0
 41
0.9996561470515032
 10
195.88942120857041
 20
-1393.8794166793639
 30
0.0
 41
1.0
 10
195.88326354266917
 20
-1393.8876984684052
 30
0.0
 41
1.0
 10
195.87710587676793
 20
-1393.8959802574466
 30
0.0
 41
1.0
 10
195.79869498990411
 20
-1394.0014394418138
 30
0.0
 41
0.9998349055172559
 10
195.7241677079723
 20
-1394.1096780254766
 30
0.0
 41
1.0
 10
195.64964042603714
 20
-1394.2179166091441
 30
0.0
 41
0.9999728109555163
 10
195.57671753012389
 20
-1394.3272425347041
 30
0.0
 41
1.0
 10
195.57540231471518
 20
-1394.3292143042022
 30
0.0
 41
1.0
 10
195.57408709930644
 20
-1394.3311860737001
 30
0.0
 41
1.0
 10
195.49853377259143
 20
-1394.4444555382324
 30
0.0
 41
0.9999972147379576
 10
195.42351596222596
 20
-1394.5580803810551
 30
0.0
 41
1.0
 10
195.41854441959001
 20
-1394.5656104695481
 30
0.0
 41
1.0
 10
195.41357287695405
 20
-1394.5731405580409
 30
0.0
 41
1.0
 10
195.32861198133503
 20
-1394.7018255778216
 30
0.0
 41
0.9999371979008018
 10
195.24655663193286
 20
-1394.8323824915956
 30
0.0
 41
1.0
 10
195.2430477475699
 20
-1394.8379654196624
 30
0.0
 41
1.0
 10
195.23953886320697
 20
-1394.8435483477294
 30
0.0
 41
1.0
 10
195.1504657450771
 20
-1394.98527111764
 30
0.0
 41
0.999827202560914
 10
195.06672235419501
 20
-1395.1302069943829
 30
0.0
 41
1.0
 10
195.05150718217166
 20
-1395.1565401088383
 30
0.0
 41
1.0
 10
195.03629201014832
 20
-1395.1828732232939
 30
0.0
 41
1.0
 10
194.92211827521763
 20
-1395.3804753289503
 30
0.0
 41
0.9995217214838056
 10
194.8203785856619
 20
-1395.5847576568128
 30
0.0
 41
1.0
 10
194.81273502302679
 20
-1395.6001051065159
 30
0.0
 41
1.0
 10
194.80509146039171
 20
-1395.615452556219
 30
0.0
 41
1.0
 10
194.718186167803
 20
-1395.7899490142986
 30
0.0
 41
0.9998269762608549
 10
194.63783170153067
 20
-1395.9675573010225
 30
0.0
 41
1.0
 10
194.55747723526054
 20
-1396.1451655877418
 30
0.0
 41
0.9998944747388332
 10
194.48231644069526
 20
-1396.3250333133722
 30
0.0
 41
1.0
 10
194.47736277110363
 20
-1396.3368879682907
 30
0.0
 41
1.0
 10
194.47240910151197
 20
-1396.3487426232091
 30
0.0
 41
1.0
 10
194.39176204095889
 20
-1396.541739563228
 30
0.0
 41
0.9999506734409795
 10
194.31496451205487
 20
-1396.7363003680853
 30
0.0
 41
1.0
 10
194.30036454678736
 20
-1396.7732882898827
 30
0.0
 41
1.0
 10
194.28576458151989
 20
-1396.81027621168
 30
0.0
 41
1.0
 10
194.23816698315323
 20
-1396.9308611729366
 30
0.0
 41
0.9999912393935415
 10
194.19158053912878
 20
-1397.0518403756373
 30
0.0
 41
1.0
 10
194.14499409510159
 20
-1397.1728195783451
 30
0.0
 41
0.9999927113977389
 10
194.09933280070879
 20
-1397.2941509858438
 30
0.0
 41
1.0
 10
194.08536436931271
 20
-1397.3312679678384
 30
0.0
 41
1.0
 10
194.07139593791663
 20
-1397.3683849498329
 30
0.0
 41
1.0
 10
193.99779778072821
 20
-1397.5639503213292
 30
0.0
 41
0.9999487550951898
 10
193.92817415575556
 20
-1397.7609656865145
 30
0.0
 41
1.0
 10
193.90458054581774
 20
-1397.82772899681
 30
0.0
 41
1.0
 10
193.88098693587995
 20
-1397.8944923071053
 30
0.0
 41
1.0
 10
193.78630130151356
 20
-1398.1624261419188
 30
0.0
 41
0.9999808436940685
 10
193.69493971286954
 20
-1398.4315115731902
 30
0.0
 41
1.0
 10
193.60357812422967
 20
-1398.7005970044502
 30
0.0
 41
0.999987393290357
 10
193.51492341550849
 20
-1398.9705863594727
 30
0.0
 41
1.0
 10
193.49483105863987
 20
-1399.0317756922232
 30
0.0
 41
1.0
 10
193.47473870177129
 20
-1399.0929650249739
 30
0.0
 41
1.0
 10
193.34589927931245
 20
-1399.4853330454994
 30
0.0
 41
0.9999794883025981
 10
193.22209649435442
 20
-1399.8793192517771
 30
0.0
 41
1.0
 10
193.21094423492002
 20
-1399.9148098620042
 30
0.0
 41
1.0
 10
193.19979197548565
 20
-1399.9503004722312
 30
0.0
 41
1.0
 10
193.05723381159504
 20
-1400.4039732242959
 30
0.0
 41
0.9999982761760088
 10
192.91636137156877
 20
-1400.8581722464542
 30
0.0
 41
1.0
 10
191.32822103899616
 20
-1405.9069419774573
 30
0.0
 41
1.0
 10
189.74008070642356
 20
-1410.9557117084607
 30
0.0
 41
1.0
 10
188.79133009494717
 20
-1410.9557117084607
 30
0.0
 41
1.0
 10
187.84257948347079
 20
-1410.9557117084607
 30
0.0
 41
1.0
 10
191.08086396962398
 20
-1400.6283895085146
 30
0.0
 41
1.0
 10
194.31914845577717
 20
-1390.3010673085685
 30
0.0
 41
1.0
  0
LWPOLYLINE
  5
6F
100
AcDbEntity
  8
0
370
              15
390
0
  6
Continuous
 62
               7
100
AcDbPolyline
 90
      232
 70
             128
 10
168.61560268195012
 20
-1391.3854101400836
 42
0.000437080069434
 10
168.56272550789814
 20
-1391.4540767793137
 10
168.52344127675065
 20
-1391.5051838922363
 42
0.0030481992172825
 10
168.39310255963463
 20
-1391.6769055845766
 10
168.35459088788105
 20
-1391.7282923683688
 42
0.0042058245754579
 10
168.15060583720938
 20
-1392.005298113445
 10
168.09820071471052
 20
-1392.0777309602231
 42
0.012094889874271
 10
167.80215679794804
 20
-1392.5084805647739
 10
167.7059642988244
 20
-1392.6559613000015
 42
0.0141601263950672
 10
167.40232025190517
 20
-1393.1516306367325
 10
167.3627829844809
 20
-1393.2204746041614
 42
0.0071131081302228
 10
167.15751066124079
 20
-1393.5899774030024
 42
0.0068458791003174
 10
166.9626311343969
 20
-1393.96506896648
 10
166.95581927193996
 20
-1393.9786306802021
 42
0.0064120880289808
 10
166.7576770218943
 20
-1394.386055155124
 10
166.75014233637864
 20
-1394.4020670118423
 42
0.0058857236449498
 10
166.54738694450865
 20
-1394.8464431228736
 10
166.53921201821299
 20
-1394.8649332765112
 42
0.0053189741893965
 10
166.33050770554939
 20
-1395.3508967504199
 10
166.32175989986411
 20
-1395.3718786286254
 42
0.0047503650418478
 10
166.10578617371536
 20
-1395.90407806183
 10
166.09651792536528
 20
-1395.9275544379429
 42
0.0042071762174392
 10
165.87197054163425
 20
-1396.5106480320214
 10
165.86222113928886
 20
-1396.5366142068824
 42
0.0036680086485242
 10
165.62776649597478
 20
-1397.1752495914191
 10
165.617558716129
 20
-1397.2036981257579
 42
0.0032573142627083
 10
165.37192643016263
 20
-1397.9025507855104
 10
165.30327590931873
 20
-1398.1020138695726
 42
0.002613336664943
 10
164.95483071056361
 20
-1399.1318771532362
 10
164.89157392306268
 20
-1399.32210798863
 42
0.0020592950739935
 10
164.67771085409584
 20
-1399.9742116412424
 10
164.67465906293492
 20
-1399.9836481296454
 42
0.0025609928535228
 10
164.47283856144691
 20
-1400.618793352018
 10
164.47024719431553
 20
-1400.6270956929734
 42
0.0031362356243018
 10
164.2807564086433
 20
-1401.2478585491381
 10
164.27862536571635
 20
-1401.2549998553475
 42
0.0037229918028203
 10
164.10182497878952
 20
-1401.8639851573234
 10
164.10014638958435
 20
-1401.8699320474934
 42
0.004307762370899
 10
163.93640558751804
 20
-1402.4697507792666
 42
0.00476541618227
 10
163.78357686500254
 20
-1403.0724368681672
 10
163.74911225616296
 20
-1403.213998645319
 42
0.0112969368446468
 10
163.55324789801961
 20
-1404.1056908059418
 10
163.5252415089227
 20
-1404.2485188520409
 42
0.0130056762572017
 10
163.32440426527609
 20
-1405.4354599236858
 10
163.30386451512888
 20
-1405.5795380371635
 42
0.013872153214439
 10
163.2001615105911
 20
-1406.4863675229885
 10
163.18086602268315
 20
-1406.7098652449145
 42
0.0071254697005778
 10
163.14751937676061
 20
-1407.1730522537609
 10
163.14255840259767
 20
-1407.2590562483156
 42
0.0028881799198056
 10
163.12742010930748
 20
-1407.5507979581635
 42
0.0060297297138162
 10
163.11748790953192
 20
-1407.8427468942807
 10
163.11642562786483
 20
-1407.8911392662123
 42
0.0229523164157245
 10
163.12415665565061
 20
-1408.2138941124949
 10
163.12838242917101
 20
-1408.2742976465117
 42
0.0123673300666529
 10
163.14746107568931
 20
-1408.4754183716859
 42
0.0128577674468016
 10
163.17665646609549
 20
-1408.6753162216121
 10
163.1837823394826
 20
-1408.7166450362097
 42
0.0285717853763953
 10
163.24827634117833
 20
-1408.9947611875232
 10
163.26194486484485
 20
-1409.0414159570007
 42
0.0316283099158114
 10
163.37775544475898
 20
-1409.3604304588262
 10
163.38080413651414
 20
-1409.3674168311509
 42
0.0338984824236379
 10
163.53023584748166
 20
-1409.6549827953409
 10
163.53254457685091
 20
-1409.6587738246158
 42
0.0350228718352011
 10
163.71490486752509
 20
-1409.9158258092937
 10
163.71579011930194
 20
-1409.9169048870599
 42
0.0347476747533496
 10
163.93021480654022
 20
-1410.1440899342779
 42
0.0331337701909987
 10
164.17345813228624
 20
-1410.3402185963548
 10
164.17455823080275
 20
-1410.3409912995276
 42
0.0305233319078933
 10
164.44310292637473
 20
-1410.5061194696184
 10
164.44633297087734
 20
-1410.5078434814818
 42
0.0273744481151518
 10
164.73888668244965
 20
-1410.6439816253712
 10
164.74399121758915
 20
-1410.6460252098418
 42
0.0240964406199284
 10
165.05946829323733
 20
-1410.7550089361239
 10
165.06605162244483
 20
-1410.7569336757983
 42
0.0209636179811721
 10
165.4034517751021
 20
-1410.8404018237313
 10
165.41108423554613
 20
-1410.8419537367317
 42
0.0181388704689687
 10
165.76940662754086
 20
-1410.9013698299452
 10
165.77768747592273
 20
-1410.9024360137628
 42
0.015608654758637
 10
166.15587484011181
 20
-1410.9391722003395
 10
166.19907009243988
 20
-1410.9420107028184
 42
0.0137148329022909
 10
166.52674323773749
 20
-1410.9545309580699
 10
166.57267942767339
 20
-1410.955025391185
 42
0.0051057823884518
 10
166.80882501425572
 20
-1410.955155645594
 42
0.0052256693316758
 10
167.04492229803986
 20
-1410.9504068211297
 10
167.11514908178378
 20
-1410.9482598551158
 42
0.0161507179051274
 10
167.49088615988882
 20
-1410.9246094847888
 10
167.5108991202581
 20
-1410.9226992895017
 42
0.0101216737832027
 10
167.92492634174999
 20
-1410.8747063591361
 10
167.95897963117557
 20
-1410.8700586623265
 42
0.024529177639797
 10
168.43576928672624
 20
-1410.7809835842504
 10
168.52059260224922
 20
-1410.7607876639049
 42
0.0143509212554754
 10
168.87722370619031
 20
-1410.6649830301258
 42
0.0156557857037993
 10
169.22743977091986
 20
-1410.547971814306
 10
169.23494098541221
 20
-1410.5452016525528
 42
0.0170137333629897
 10
169.59153698109705
 20
-1410.39954403768
 10
169.59864090350106
 20
-1410.3963562021179
 42
0.0183105364411669
 10
169.95799057166408
 20
-1410.2190211602951
 10
169.96493733630609
 20
-1410.2152707254213
 42
0.0194899958154581
 10
170.32341807729031
 20
-1410.0032917435303
 10
170.3304319566268
 20
-1409.9987664012356
 42
0.0204869852952592
 10
170.68444625872101
 20
-1409.7492463861495
 10
170.69171186730773
 20
-1409.7436663208014
 42
0.021251693855766
 10
171.03770179841578
 20
-1409.4537623239069
 10
171.08421849249365
 20
-1409.411295013811
 42
0.0215248918254979
 10
171.34424466137904
 20
-1409.1525307348188
 10
171.38927439576494
 20
-1409.1036866134632
 42
0.011457855495726
 10
171.54406654943699
 20
-1408.9278636800104
 10
171.55526108541878
 20
-1408.9145449164707
 42
0.0061531305135464
 10
171.68173573141803
 20
-1408.7602553831593
 42
0.0006325587126114
 10
171.80611421559868
 20
-1408.6042520074473
 10
171.82915435062131
 20
-1408.5752784868243
 42
0.0041897761559341
 10
171.99760975460202
 20
-1408.3597591107521
 10
172.05607187448618
 20
-1408.2836577637772
 42
0.0092993880040679
 10
172.3326838017135
 20
-1407.9093789998883
 10
172.41507829490658
 20
-1407.7934419963281
 42
0.0159321727084561
 10
172.76168477755118
 20
-1407.2712677755687
 10
172.8060409129435
 20
-1407.1995882113133
 42
0.008554731702363
 10
173.04055267826601
 20
-1406.8057132620941
 42
0.0084601156890863
 10
173.26152885570946
 20
-1406.4040864130595
 10
173.26964432953844
 20
-1406.3887267307889
 42
0.0081429654284805
 10
173.49289359997363
 20
-1405.9490052182528
 10
173.50175376415996
 20
-1405.9308263762287
 42
0.0076574581326883
 10
173.72816127472694
 20
-1405.4476435009753
 10
173.73764091545036
 20
-1405.4265790226727
 42
0.0070682724200787
 10
173.96808582325957
 20
-1404.8945417178854
 10
173.97807610723885
 20
-1404.8705525288797
 42
0.0064559514447683
 10
174.21340931542017
 20
-1404.2842402623619
 10
174.22381867358553
 20
-1404.2573053369188
 42
0.0058311413904732
 10
174.46486541034832
 20
-1403.6112732425347
 10
174.4756204877358
 20
-1403.5813889013743
 42
0.0052312425818699
 10
174.7232017657777
 20
-1402.870186487537
 10
174.73424560215648
 20
-1402.8373597754703
 42
0.0046680544796767
 10
174.98917402989076
 20
-1402.0555334597159
 10
175.03116617993626
 20
-1401.9225502224178
 42
0.0041666856443825
 10
175.23445219232946
 20
-1401.2595814474178
 10
175.27211463298764
 20
-1401.1330003397832
 42
0.0015170975152518
 10
175.39330121140631
 20
-1400.7211319882704
 42
-0.0004887993112059
 10
175.51364098453664
 20
-1400.3090135762041
 10
175.59011824202452
 20
-1400.0480561902873
 42
0.0002583378929462
 10
175.863332812138
 20
-1399.1139994869395
 10
175.94510566168029
 20
-1398.833900227474
 42
0.0006636169673302
 10
176.13897342167672
 20
-1398.1665473039382
 10
176.14407007603103
 20
-1398.1489157210331
 42
0.0010589131323655
 10
176.32551877694038
 20
-1397.5161843780093
 10
176.33050084741745
 20
-1397.4986714710012
 42
0.0015655524460552
 10
176.49877105460365
 20
-1396.9000547917883
 10
176.50360125501427
 20
-1396.8826626328682
 42
0.0021640440476998
 10
176.65789122700465
 20
-1396.3176356148342
 10
176.66252544643453
 20
-1396.3003708848407
 42
0.0028763871854752
 10
176.80204116448755
 20
-1395.7684029339935
 10
176.80642702865441
 20
-1395.7512789558405
 42
0.0037310511947221
 10
176.93038372049165
 20
-1395.2518313618152
 10
176.93445894078087
 20
-1395.234871090569
 42
0.0047652197768595
 10
177.04208284128913
 20
-1394.7673933222645
 10
177.04577344061059
 20
-1394.750633767123
 42
0.0060276699301562
 10
177.13630353976617
 20
-1394.3145579719703
 10
177.13952223005569
 20
-1394.2980567576592
 42
0.0075824337756038
 10
177.21221153947079
 20
-1393.892789593235
 10
177.21485691685132
 20
-1393.8766346457828
 42
0.009513062461158
 10
177.26897215248226
 20
-1393.5015452927128
 10
177.27595837636471
 20
-1393.4456117345972
 42
0.0121054653230252
 10
177.30254970694273
 20
-1393.1807159061223
 10
177.30341619670224
 20
-1393.1693124631934
 42
0.0069050827391012
 10
177.31850501473997
 20
-1392.926371236349
 10
177.31964031440859
 20
-1392.9028449793025
 42
0.0169063976697858
 10
177.32246759338881
 20
-1392.7066522520036
 10
177.3212969418575
 20
-1392.6463164906518
 42
0.0052007732904602
 10
177.31904349326453
 20
-1392.5707231005022
 42
0.0054038123297264
 10
177.29907998142477
 20
-1392.450704804487
 10
177.29399412555523
 20
-1392.4220463179111
 42
0.011205046046596
 10
177.25860976349668
 20
-1392.2457198795719
 10
177.24078480145607
 20
-1392.1661782928513
 42
0.0240764468011677
 10
177.14988743530978
 20
-1391.83594125735
 10
177.13132867249615
 20
-1391.7793210923553
 42
0.0256812331836771
 10
176.98796575230693
 20
-1391.4075968860989
 10
176.98255632648559
 20
-1391.3954655511093
 42
0.0268360501216477
 10
176.81312908563564
 20
-1391.0644724170882
 10
176.80759267800076
 20
-1391.0549527467761
 42
0.0274670231729405
 10
176.61539170158727
 20
-1390.7626653718585
 10
176.61001040162449
 20
-1390.7553862243169
 42
0.0275035967101085
 10
176.39843752206281
 20
-1390.4998703340132
 10
176.39336802109548
 20
-1390.4943912463818
 42
0.0269557673528387
 10
176.1659644776567
 20
-1390.2737489604206
 10
176.16122141987375
 20
-1390.2696190059596
 42
0.0259124802209412
 10
175.92166658844332
 20
-1390.0819284788072
 10
175.91713574325834
 20
-1390.0787429764748
 42
0.0245162153009108
 10
175.66921939016663
 20
-1389.9220099673666
 10
175.66469284384331
 20
-1389.9194497701662
 42
0.0229282588840307
 10
175.41227328701507
 20
-1389.7915815776669
 10
175.40749279318112
 20
-1389.789429277906
 42
0.0212984135695582
 10
175.1544548407166
 20
-1389.6882303606626
 10
175.14915055574801
 20
-1389.686366797903
 42
0.0197555462348801
 10
174.8993722180241
 20
-1389.6095513799378
 42
0.0183511896790463
 10
174.64444349256175
 20
-1389.5519684729725
 10
174.55807829583568
 20
-1389.5357656825868
 42
0.0338057877149859
 10
174.27257094657762
 20
-1389.5019572774468
 10
174.18156554152802
 20
-1389.497377622185
 42
0.0091990524500715
 10
174.07571843290168
 20
-1389.4940017662634
 42
0.0028333980792005
 10
173.96980451689896
 20
-1389.4931736587469
 10
173.96888906385942
 20
-1389.4931716889228
 42
-0.0023619827806332
 10
173.86114304874962
 20
-1389.4924308478439
 10
173.82473787857765
 20
-1389.492008541381
 42
0.0008824598476649
 10
173.64418188864622
 20
-1389.4902327631421
 10
173.60032045632181
 20
-1389.4898788016171
 42
0.0038132665768219
 10
173.3320375604458
 20
-1389.4897598655507
 10
173.31550390564951
 20
-1389.4898786316942
 42
0.0060665569335831
 10
173.01422341405251
 20
-1389.4956989311152
 10
172.99997308203285
 20
-1389.4961472390826
 42
0.0080356953338363
 10
172.67051436568235
 20
-1389.5118149611501
 10
172.65844435060637
 20
-1389.5125835440899
 42
0.0098996399105714
 10
172.30568126596384
 20
-1389.5420687732874
 10
172.29563555658081
 20
-1389.5431090694863
 42
0.0117740981368966
 10
171.92447869822942
 20
-1389.5904013170166
 10
171.9162560017495
 20
-1389.5916464335869
 42
0.0137435215135005
 10
171.53166718226646
 20
-1389.6607434071482
 10
171.52501014314106
 20
-1389.6621293033822
 42
0.0158359869388506
 10
171.13201304933585
 20
-1389.7570213918636
 10
171.12659986247144
 20
-1389.7585113327334
 42
0.0180554124029062
 10
170.73028481785855
 20
-1389.8831493489724
 10
170.72572802977561
 20
-1389.8847653852386
 42
0.0203657431283911
 10
170.33125051196293
 20
-1390.0430257267546
 10
170.32710697295693
 20
-1390.044887348196
 42
0.022681968465612
 10
169.93967091675404
 20
-1390.2405299268669
 10
169.93547112573515
 20
-1390.242895518787
 42
0.0248634984606036
 10
169.56028918455539
 20
-1390.479522164733
 10
169.51209425576999
 20
-1390.5133792065596
 42
0.026704419088507
 10
169.23780155885345
 20
-1390.7288195824281
 42
0.0139303002202466
 10
168.98163439291039
 20
-1390.9660584233441
 10
168.97678100719372
 20
-1390.9708110862
 42
0.028346096344578
 10
168.73270841296673
 20
-1391.2385417466448
 10
168.69303990780998
 20
-1391.2873433241182
 42
0.0070695364819148
 10
168.61560268195012
 20
-1391.3854101400836
 42
0.0070695364819148
  0
LWPOLYLINE
  5
70
100
AcDbEntity
  8
0
370
              15
390
0
  6
Continuous
 62
               7
100
AcDbPolyline
 90
      226
 70
             128
 10
165.08678224470373
 20
-1407.1069989462676
 42
-0.0026277636624829
 10
165.08670436090367
 20
-1407.0402270205261
 10
165.08692171913572
 20
-1406.9870718030816
 42
-0.0088680296730826
 10
165.09069833542881
 20
-1406.8140560206773
 10
165.09304469454122
 20
-1406.7547759952249
 42
-0.0077381705613665
 10
165.10909080530428
 20
-1406.4635154994278
 10
165.10995871647742
 20
-1406.4512272657416
 42
-0.0068872530529204
 10
165.13659079622536
 20
-1406.1360055136745
 10
165.13779502041166
 20
-1406.1237645346537
 42
-0.0062130021484237
 10
165.17538873723964
 20
-1405.7848948434139
 10
165.17689264077461
 20
-1405.7727209714988
 42
-0.0056726929665509
 10
165.22581450027664
 20
-1405.410525749387
 10
165.2275879459213
 20
-1405.3984319491401
 42
-0.0052341884495948
 10
165.28819853218252
 20
-1405.0132386936148
 10
165.29021652095793
 20
-1405.0012337636297
 42
-0.0049768450168131
 10
165.36295520238411
 20
-1404.5933891961979
 10
165.38720421710605
 20
-1404.464841213191
 42
-0.008902980562394
 10
165.5242850689007
 20
-1403.8030657657691
 10
165.55703044421932
 20
-1403.6580343352452
 42
-0.008031825709999
 10
165.78657905855957
 20
-1402.7123247033935
 10
165.79856398500829
 20
-1402.6661940682015
 42
-0.0074265721319076
 10
166.08257552385916
 20
-1401.6361294898177
 10
166.10245506697484
 20
-1401.5679954292316
 42
-0.0069711922701638
 10
166.42975964548157
 20
-1400.5017276889034
 10
166.489711592585
 20
-1400.3157063305393
 42
-0.005207042289537
 10
166.71913681784639
 20
-1399.6284342535016
 10
166.73641801002756
 20
-1399.5784069728586
 42
-0.0009167004449377
 10
166.93950989730803
 20
-1398.9939511247303
 42
-0.0025162726942855
 10
167.14660752757462
 20
-1398.4109098605568
 10
167.1838321393769
 20
-1398.3077603146601
 42
-0.0028212681457558
 10
167.43200805833914
 20
-1397.6320296824915
 10
167.44183882109238
 20
-1397.6057222378079
 42
-0.003196491682402
 10
167.67813107875213
 20
-1396.9855174756876
 10
167.68776553275202
 20
-1396.9607074855419
 42
-0.0036281836451563
 10
167.91287149385232
 20
-1396.3932668046514
 10
167.92230990401194
 20
-1396.3699693731432
 42
-0.0041269166830109
 10
168.13692760066897
 20
-1395.8525284771702
 10
168.16956055708948
 20
-1395.7756500308096
 42
-0.0047472213057222
 10
168.32660536264336
 20
-1395.4152285629257
 10
168.33349944384835
 20
-1395.399807965601
 42
-0.0025651659997722
 10
168.48185747770174
 20
-1395.0724799098452
 42
-0.0057144634992
 10
168.63560717147604
 20
-1394.7476702364766
 10
168.66363787687351
 20
-1394.6901618540901
 42
-0.0065388068374104
 10
168.84710490461407
 20
-1394.3259293574235
 10
168.85556336039087
 20
-1394.3096697780572
 42
-0.0074510843021434
 10
169.03174560627042
 20
-1393.9829814969312
 10
169.03992527680265
 20
-1393.9683407196603
 42
-0.0084648979859067
 10
169.20955912990149
 20
-1393.6764317087013
 10
169.21741525638984
 20
-1393.66342471705
 42
-0.0095638542801276
 10
169.38125070398382
 20
-1393.4035358450719
 10
169.38872564765668
 20
-1393.3921664836148
 42
-0.0107191626807465
 10
169.54752722804312
 20
-1393.1615552490725
 10
169.55454396177592
 20
-1393.1518191567054
 42
-0.0118458573902914
 10
169.70909206028671
 20
-1392.9477469613971
 42
-0.0129184518188796
 10
169.87354468388926
 20
-1392.7515864452255
 10
169.90368945625329
 20
-1392.7174603663248
 42
-0.0217742579633162
 10
170.08030177858672
 20
-1392.5342535960772
 10
170.09104732304587
 20
-1392.5240367628753
 42
-0.009726656865224
 10
170.25710494190281
 20
-1392.3721891884368
 42
-0.0187720905713921
 10
170.43145251779478
 20
-1392.2301203350457
 10
170.46215850846423
 20
-1392.2069612526532
 42
-0.0179428207522219
 10
170.69457922846266
 20
-1392.0444090755398
 10
170.69823155537753
 20
-1392.0420451406526
 42
-0.0170047877695845
 10
170.93399519290881
 20
-1391.9005846265004
 10
170.93777818165276
 20
-1391.8984863214655
 42
-0.0160190788362813
 10
171.17468672929067
 20
-1391.776835019476
 42
-0.0151102861487645
 10
171.4187185117386
 20
-1391.6701522434209
 10
171.47110501394911
 20
-1391.6491121105269
 42
-0.027194544188741
 10
171.82976757300872
 20
-1391.5272472998206
 10
171.89883237349574
 20
-1391.5078977585545
 42
-0.0237596594023379
 10
172.31462922051793
 20
-1391.4124470465731
 10
172.38269207424636
 20
-1391.4001923584467
 42
-0.0213715440557035
 10
172.66856700569366
 20
-1391.3612453269363
 10
172.72871417190794
 20
-1391.3556556122358
 42
-0.0101465655823945
 10
172.89620670390582
 20
-1391.3435120689714
 10
172.90554709010317
 20
-1391.3430251539742
 42
-0.0100375910881909
 10
173.05470119066661
 20
-1391.3382493360489
 10
173.06496046034471
 20
-1391.3381268970345
 42
-0.0103625633383692
 10
173.19366845500184
 20
-1391.3392583305611
 10
173.21593410626988
 20
-1391.3399156890259
 42
-0.0115689250235746
 10
173.29998484379666
 20
-1391.3443451952712
 42
-0.0072438037442442
 10
173.38382312323338
 20
-1391.3519343950202
 10
173.40062363270863
 20
-1391.3537009377446
 42
-0.0217917313131832
 10
173.51719339602198
 20
-1391.3711208304655
 10
173.5827934865917
 20
-1391.3838674388805
 42
-0.0332943556753274
 10
173.78718565161734
 20
-1391.4379077301874
 10
173.81735822016742
 20
-1391.4480758073057
 42
-0.0184824084806934
 10
173.95586327663278
 20
-1391.5005268226923
 42
-0.0198002050703593
 10
174.08993761713188
 20
-1391.5634108828915
 10
174.09182425450905
 20
-1391.5643886697715
 42
-0.0212242342975027
 10
174.22396319690935
 20
-1391.6401514085633
 10
174.22577849245448
 20
-1391.6412972107728
 42
-0.0226090605778229
 10
174.35428239367729
 20
-1391.730776854338
 10
174.35612683541359
 20
-1391.7321891073248
 42
-0.0238457052230452
 10
174.47930891670748
 20
-1391.8361850031879
 10
174.48126164526559
 20
-1391.8379998809532
 42
-0.0248160564153785
 10
174.59746315256581
 20
-1391.9572744821614
 10
174.59956678596831
 20
-1391.9596598158664
 42
-0.0254109591443147
 10
174.70717200383345
 20
-1392.0949482018295
 10
174.70942002574833
 20
-1392.0980897502313
 42
-0.0255528488285484
 10
174.80686670454557
 20
-1392.2501168044662
 10
174.80919780446158
 20
-1392.2541984160735
 42
-0.0252146793221356
 10
174.89497883047065
 20
-1392.4237006620701
 10
174.89728106962832
 20
-1392.4288827439832
 42
-0.0244265635953182
 10
174.96993576338963
 20
-1392.6166293160293
 10
174.97918216485809
 20
-1392.6444947343673
 42
-0.0231319612898339
 10
175.02510494385024
 20
-1392.8077957811693
 42
-0.0112130424360401
 10
175.05974096638863
 20
-1392.9739993813582
 10
175.06094349150095
 20
-1392.9804959682451
 42
-0.0210527881228266
 10
175.08662996687184
 20
-1393.1615516136867
 10
175.09014056169366
 20
-1393.1969571622337
 42
-0.0190029892425036
 10
175.1055820352382
 20
-1393.4504930085045
 10
175.10639201168226
 20
-1393.4859686228751
 42
-0.0137974553661105
 10
175.10484315884679
 20
-1393.811000029606
 10
175.10399770389117
 20
-1393.8371187742014
 42
-0.0081336634214552
 10
175.08913836866861
 20
-1394.1424662418005
 42
-0.0073526923577728
 10
175.0648298352944
 20
-1394.4472144860817
 10
175.06356841151126
 20
-1394.4605511607517
 42
-0.0066886138693655
 10
175.02783282546483
 20
-1394.7911372042483
 10
175.02617573599485
 20
-1394.8047588232403
 42
-0.0061359187353979
 10
174.97832513394468
 20
-1395.1615228033354
 10
174.97628763287111
 20
-1395.1754176061695
 42
-0.0056698610067488
 10
174.91563730210459
 20
-1395.5586961750043
 10
174.913231868781
 20
-1395.5728552942383
 42
-0.0052721077276576
 10
174.83909966798103
 20
-1395.9829826339178
 10
174.83633651913965
 20
-1395.9973992693022
 42
-0.0049289272177699
 10
174.74804240103956
 20
-1396.434707780425
 10
174.74492990635707
 20
-1396.4493766332405
 42
-0.0047415956711835
 10
174.64169191482648
 20
-1396.9141733906436
 10
174.60692370446498
 20
-1397.0639804860343
 42
-0.0084404470902269
 10
174.41690726089271
 20
-1397.8242045105669
 10
174.41078057290747
 20
-1397.8470686347189
 42
-0.0039635940258938
 10
174.18932688862125
 20
-1398.6480574989741
 10
174.17595009344393
 20
-1398.6949891155582
 42
-0.0072475040837433
 10
173.90850320558201
 20
-1399.5842088319446
 10
173.83829087875293
 20
-1399.805949181922
 42
-0.0051345458826423
 10
173.55153150669457
 20
-1400.6802743697315
 10
173.53000523993376
 20
-1400.7437006368418
 42
-0.0019150016602287
 10
173.27447183306037
 20
-1401.4872497570875
 10
173.26800422866566
 20
-1401.5058372220044
 42
-0.0021524362752139
 10
173.01952617760031
 20
-1402.2101630437169
 10
173.01031575690507
 20
-1402.2359166220149
 42
-0.0024331286822809
 10
172.77406049786788
 20
-1402.8865159301367
 10
172.7650125453203
 20
-1402.911059236483
 42
-0.0027449721786529
 10
172.54039797448195
 20
-1403.5101891154154
 10
172.53150796709028
 20
-1403.5335117052662
 42
-0.0031083229768356
 10
172.31796548047976
 20
-1404.0834357428473
 10
172.30922934880294
 20
-1404.1055254587084
 42
-0.0035311343282031
 10
172.10618816321238
 20
-1404.6085085844352
 10
172.09760282406927
 20
-1404.6293513079345
 42
-0.0040245640951774
 10
171.90449102027026
 20
-1405.0876606305378
 10
171.89605490666219
 20
-1405.1072399986215
 42
-0.0046015135851779
 10
171.71229861350344
 20
-1405.5231450282522
 10
171.70401243568
 20
-1405.5414421676937
 42
-0.0052768638268408
 10
171.52903491671958
 20
-1405.9172150519746
 10
171.5209027060927
 20
-1405.9342083905178
 42
-0.0060672675642546
 10
171.35412309332668
 20
-1406.272124013632
 10
171.34615361284625
 20
-1406.2877892726272
 42
-0.0069904648871693
 10
171.18698521884363
 20
-1406.5901250792931
 10
171.17919381923059
 20
-1406.6044356285245
 42
-0.0080637022764341
 10
171.02704195888697
 20
-1406.8734709316734
 10
171.01945292625649
 20
-1406.8863987972729
 42
-0.0093006455661647
 10
170.87371224972424
 20
-1407.1244131957774
 10
170.86636158297992
 20
-1407.1359311649514
 42
-0.01070607780483
 10
170.72641303954214
 20
-1407.3452014823295
 10
170.71935127126406
 20
-1407.3552870248932
 42
-0.0122723111409559
 10
170.58455755306437
 20
-1407.5380803543844
 10
170.5842313295104
 20
-1407.5385007421939
 42
-0.0141836319621166
 10
170.44064972653626
 20
-1407.7130705000236
 10
170.43370197088763
 20
-1407.7210455002846
 42
-0.0175957477206708
 10
170.29379580284962
 20
-1407.8706663886931
 42
-0.0080466359673868
 10
170.14633203782222
 20
-1408.0129889168416
 10
170.10029749330192
 20
-1408.0560093549354
 42
-0.0269600260391989
 10
169.84701724731772
 20
-1408.2683326134456
 10
169.78045011102526
 20
-1408.318284028066
 42
-0.0178362839756123
 10
169.54050562136615
 20
-1408.4853019543209
 10
169.53326065036589
 20
-1408.4899704665256
 42
-0.0174650732652046
 10
169.29692445292443
 20
-1408.6308314314849
 42
-0.0169240130166427
 10
169.05145820706602
 20
-1408.7551236912627
 10
169.00547205150889
 20
-1408.7764856468295
 42
-0.0318883036841385
 10
168.655121195889
 20
-1408.9128239563397
 10
168.58675566072438
 20
-1408.934524576815
 42
-0.0284435909901641
 10
168.21070553443315
 20
-1409.0307420122899
 10
168.17554737393547
 20
-1409.0376356081183
 42
-0.0243909341010886
 10
167.86210391301563
 20
-1409.0833566391484
 10
167.81182318624792
 20
-1409.0882021860498
 42
-0.0196639292932729
 10
167.59622760871724
 20
-1409.1004504715636
 10
167.54440353755157
 20
-1409.1013537323004
 42
-0.0100501510681708
 10
167.43198025588953
 20
-1409.1010533339472
 10
167.40032039451933
 20
-1409.1003322620613
 42
-0.001975203112288
 10
167.35122805786409
 20
-1409.0990201018521
 10
167.34846775465152
 20
-1409.0989354100261
 42
0.006537875196339
 10
167.30489117988719
 20
-1409.098168518811
 42
-0.0167974694639629
 10
167.26136035695984
 20
-1409.0965086202855
 10
167.25728101769329
 20
-1409.0962156093901
 42
-0.0081283276270865
 10
167.20572121995232
 20
-1409.0916686157518
 10
167.19398164607622
 20
-1409.0904406981738
 42
-0.0126703440164161
 10
167.11926335028068
 20
-1409.0807059071021
 10
167.09647548260597
 20
-1409.077147651187
 42
-0.0117852088436517
 10
166.97693649677248
 20
-1409.0555846560296
 10
166.92155604501056
 20
-1409.0442411157953
 42
-0.0251774592301448
 10
166.69471200600498
 20
-1408.9857431063629
 10
166.64999281614575
 20
-1408.971776287025
 42
-0.0146525199890941
 10
166.46359982861316
 20
-1408.9075097598288
 42
-0.0166929435857243
 10
166.28162217248479
 20
-1408.8317026267737
 10
166.27696554121331
 20
-1408.8295777261603
 42
-0.0191684358433701
 10
166.09178190996619
 20
-1408.7363416423716
 10
166.08844932420715
 20
-1408.7345003948171
 42
-0.0221181781811029
 10
165.90513902030668
 20
-1408.6223668964474
 10
165.90278921629647
 20
-1408.6207825984552
 42
-0.0254984685376708
 10
165.72649906591067
 20
-1408.4883714484854
 10
165.70401691820925
 20
-1408.4696191395494
 42
-0.0292492648805496
 10
165.57924797936619
 20
-1408.3525263399063
 42
-0.0159048957510002
 10
165.46540798191745
 20
-1408.2245063483088
 10
165.46408919133677
 20
-1408.2229247352871
 42
-0.0343813379564395
 10
165.36145192971028
 20
-1408.0810534095174
 10
165.32996039834919
 20
-1408.0305500174227
 42
-0.0369117275701337
 10
165.24406789645241
 20
-1407.8670727764752
 42
-0.0191751379911731
 10
165.17687451089608
 20
-1407.6946681704712
 10
165.17511118713588
 20
-1407.6895748257944
 42
-0.037817804222841
 10
165.12531646835157
 20
-1407.5006340497125
 10
165.11932117262126
 20
-1407.4680734315152
 42
-0.0184846046477378
 10
165.09860397332699
 20
-1407.3263206109712
 42
-0.0179866351324661
 10
165.08827096825328
 20
-1407.1834297978899
 10
165.08821452580753
 20
-1407.1818721112775
 42
-0.0085497186139226
 10
165.08678224470373
 20
-1407.1069989462676
 42
-0.0085497186139226
  0
ENDBLK
  5
71
100
AcDbEntity
  8
template
390
0
100
AcDbBlockEnd
  0
BLOCK
  5
72
100
AcDbEntity
  8
notes
390
0
100
AcDbBlockBegin
  2
*D4
 70
               1
 10
0.0
 20
0.0
 30
0.0
  3
*D4
  1

  0
LINE
  5
73
100
AcDbEntity
  8
0
370
              -2
390
0
  6
Continuous
 62
               0
100
AcDbLine
 10
-284.99999999999989
 20
274.62773475157354
 30
0.0
 11
-174.99999999999989
 21
274.62773475157354
 31
0.0
  0
LINE
  5
74
100
AcDbEntity
  8
0
370
              -2
390
0
  6
Continuous
 62
               0
100
AcDbLine
 10
-284.99999999999989
 20
1204.6277347515734
 30
0.0
 11
-174.99999999999989
 21
1204.6277347515734
 31
0.0
  0
LINE
  5
75
100
AcDbEntity
  8
0
370
              -2
390
0
  6
Continuous
 62
               0
100
AcDbLine
 10
-174.99999999999989
 20
274.62773475157354
 30
0.0
 11
-174.99999999999989
 21
1204.6277347515734
 31
0.0
  0
CIRCLE
  5
76
102
{ACAD_REACTORS
330
77
102
}
100
AcDbEntity
  8
0
370
              -2
390
0
  6
Continuous
 62
               0
100
AcDbCircle
 10
-174.99999999999989
 20
274.62773475157354
 30
0.0
 40
1.9998779296875
  0
HATCH
  5
77
100
AcDbEntity
  8
0
370
              -2
390
0
  6
Continuous
 62
               0
100
AcDbHatch
 10
0.0
 20
0.0
 30
0.0
210
0.0
220
0.0
230
1.0
  2
SOLID
 70
               1
 71
               1
 91
        1
 92
        1
 93
        1
 72
               2
 10
-174.99999999999989
 20
274.62773475157354
 40
1.9998779296875
 50
0.0
 51
360.0
 73
               0
 97
        1
330
76
 75
               0
 76
               1
 98
        1
 10
0.0
 20
0.0
  0
CIRCLE
  5
78
102
{ACAD_REACTORS
330
79
102
}
100
AcDbEntity
  8
0
370
              -2
390
0
  6
Continuous
 62
               0
100
AcDbCircle
 10
-174.99999999999989
 20
1204.6277347515734
 30
0.0
 40
1.9998779296875
  0
HATCH
  5
79
100
AcDbEntity
  8
0
370
              -2
390
0
  6
Continuous
 62
               0
100
AcDbHatch
 10
0.0
 20
0.0
 30
0.0
210
0.0
220
0.0
230
1.0
  2
SOLID
 70
               1
 71
               1
 91
        1
 92
        1
 93
        1
 72
               2
 10
-174.99999999999989
 20
1204.6277347515734
 40
1.9998779296875
 50
0.0
 51
360.0
 73
               0
 97
        1
330
78
 75
               0
 76
               1
 98
        1
 10
0.0
 20
0.0
  0
MTEXT
  5
7A
100
AcDbEntity
  8
0
390
0
 62
               0
100
AcDbMText
 10
-208.87761718749994
 20
715.81523306939789
 30
0.0
 40
24.432617187500004
 41
0.0
 71
               1
 72
               1
  1
930
  7
ＭＳ ゴシック
 11
0.0
 21
1.0
 31
0.0
 73
               1
 44
0.7828267384257843
  0
POINT
  5
7B
100
AcDbEntity
  8
Defpoints
370
               0
390
0
 62
               0
100
AcDbPoint
 10
-309.99999999999989
 20
1204.6277347515734
 30
0.0
  0
POINT
  5
7C
100
AcDbEntity
  8
Defpoints
370
               0
390
0
 62
               0
100
AcDbPoint
 10
-309.99999999999989
 20
274.62773475157354
 30
0.0
  0
POINT
  5
7D
100
AcDbEntity
  8
Defpoints
370
               0
390
0
 62
               0
100
AcDbPoint
 10
-174.99999999999989
 20
274.62773475157354
 30
0.0
  0
ENDBLK
  5
7E
100
AcDbEntity
  8
notes
390
0
100
AcDbBlockEnd
  0
BLOCK
  5
7F
100
AcDbEntity
  8
notes
390
0
100
AcDbBlockBegin
  2
*D5
 70
               1
 10
0.0
 20
0.0
 30
0.0
  3
*D5
  1

  0
LINE
  5
80
100
AcDbEntity
  8
0
370
              -2
390
0
  6
Continuous
 62
               0
100
AcDbLine
 10
-309.99999999999989
 20
1229.6277347515734
 30
0.0
 11
-309.99999999999989
 21
1304.6277347515734
 31
0.0
  0
LINE
  5
81
100
AcDbEntity
  8
0
370
              -2
390
0
  6
Continuous
 62
               0
100
AcDbLine
 10
-609.99999999999989
 20
1229.6277347515734
 30
0.0
 11
-609.99999999999989
 21
1304.6277347515734
 31
0.0
  0
LINE
  5
82
100
AcDbEntity
  8
0
370
              -2
390
0
  6
Continuous
 62
               0
100
AcDbLine
 10
-309.99999999999989
 20
1304.6277347515734
 30
0.0
 11
-609.99999999999989
 21
1304.6277347515734
 31
0.0
  0
CIRCLE
  5
83
102
{ACAD_REACTORS
330
84
102
}
100
AcDbEntity
  8
0
370
              -2
390
0
  6
Continuous
 62
               0
100
AcDbCircle
 10
-309.99999999999989
 20
1304.6277347515734
 30
0.0
 40
1.9998779296875
  0
HATCH
  5
84
100
AcDbEntity
  8
0
370
              -2
390
0
  6
Continuous
 62
               0
100
AcDbHatch
 10
0.0
 20
0.0
 30
0.0
210
0.0
220
0.0
230
1.0
  2
SOLID
 70
               1
 71
               1
 91
        1
 92
        1
 93
        1
 72
               2
 10
-309.99999999999989
 20
1304.6277347515734
 40
1.9998779296875
 50
0.0
 51
360.0
 73
               0
 97
        1
330
83
 75
               0
 76
               1
 98
        1
 10
0.0
 20
0.0
  0
CIRCLE
  5
85
102
{ACAD_REACTORS
330
86
102
}
100
AcDbEntity
  8
0
370
              -2
390
0
  6
Continuous
 62
               0
100
AcDbCircle
 10
-609.99999999999989
 20
1304.6277347515734
 30
0.0
 40
1.9998779296875
  0
HATCH
  5
86
100
AcDbEntity
  8
0
370
              -2
390
0
  6
Continuous
 62
               0
100
AcDbHatch
 10
0.0
 20
0.0
 30
0.0
210
0.0
220
0.0
230
1.0
  2
SOLID
 70
               1
 71
               1
 91
        1
 92
        1
 93
        1
 72
               2
 10
-609.99999999999989
 20
1304.6277347515734
 40
1.9998779296875
 50
0.0
 51
360.0
 73
               0
 97
        1
330
85
 75
               0
 76
               1
 98
        1
 10
0.0
 20
0.0
  0
MTEXT
  5
87
100
AcDbEntity
  8
0
390
0
 62
               0
100
AcDbMText
 10
-483.81250168217537
 20
1338.5053519390733
 30
0.0
 40
24.432617187500004
 41
0.0
 71
               1
 72
               1
  1
300
  7
ＭＳ ゴシック
 73
               1
 44
0.7828267384257843
  0
POINT
  5
88
100
AcDbEntity
  8
Defpoints
370
               0
390
0
 62
               0
100
AcDbPoint
 10
-609.99999999999989
 20
1204.6277347515734
 30
0.0
  0
POINT
  5
89
100
AcDbEntity
  8
Defpoints
370
               0
390
0
 62
               0
100
AcDbPoint
 10
-309.99999999999989
 20
1204.6277347515734
 30
0.0
  0
POINT
  5
8A
100
AcDbEntity
  8
Defpoints
370
               0
390
0
 62
               0
100
AcDbPoint
 10
-309.99999999999989
 20
1304.6277347515734
 30
0.0
  0
ENDBLK
  5
8B
100
AcDbEntity
  8
notes
390
0
100
AcDbBlockEnd
  0
BLOCK
  5
8C
100
AcDbEntity
  8
notes
390
0
100
AcDbBlockBegin
  2
*D6
 70
               1
 10
0.0
 20
0.0
 30
0.0
  3
*D6
  1

  0
LINE
  5
8D
100
AcDbEntity
  8
0
370
              -2
390
0
  6
Continuous
 62
               0
100
AcDbLine
 10
-609.99999999999989
 20
1229.6277347515734
 30
0.0
 11
-609.99999999999989
 21
1304.6277347515734
 31
0.0
  0
LINE
  5
8E
100
AcDbEntity
  8
0
370
              -2
390
0
  6
Continuous
 62
               0
100
AcDbLine
 10
-645.00000000000057
 20
1259.6277347515734
 30
0.0
 11
-645.00000000000057
 21
1304.6277347515734
 31
0.0
  0
LINE
  5
8F
100
AcDbEntity
  8
0
370
              -2
390
0
  6
Continuous
 62
               0
100
AcDbLine
 10
-609.99999999999989
 20
1304.6277347515734
 30
0.0
 11
-645.00000000000057
 21
1304.6277347515734
 31
0.0
  0
CIRCLE
  5
90
102
{ACAD_REACTORS
330
91
102
}
100
AcDbEntity
  8
0
370
              -2
390
0
  6
Continuous
 62
               0
100
AcDbCircle
 10
-609.99999999999989
 20
1304.6277347515734
 30
0.0
 40
1.9998779296875
  0
HATCH
  5
91
100
AcDbEntity
  8
0
370
              -2
390
0
  6
Continuous
 62
               0
100
AcDbHatch
 10
0.0
 20
0.0
 30
0.0
210
0.0
220
0.0
230
1.0
  2
SOLID
 70
               1
 71
               1
 91
        1
 92
        1
 93
        1
 72
               2
 10
-609.99999999999989
 20
1304.6277347515734
 40
1.9998779296875
 50
0.0
 51
360.0
 73
               0
 97
        1
330
90
 75
               0
 76
               1
 98
        1
 10
0.0
 20
0.0
  0
CIRCLE
  5
92
102
{ACAD_REACTORS
330
93
102
}
100
AcDbEntity
  8
0
370
              -2
390
0
  6
Continuous
 62
               0
100
AcDbCircle
 10
-645.00000000000057
 20
1304.6277347515734
 30
0.0
 40
1.9998779296875
  0
HATCH
  5
93
100
AcDbEntity
  8
0
370
              -2
390
0
  6
Continuous
 62
               0
100
AcDbHatch
 10
0.0
 20
0.0
 30
0.0
210
0.0
220
0.0
230
1.0
  2
SOLID
 70
               1
 71
               1
 91
        1
 92
        1
 93
        1
 72
               2
 10
-645.00000000000057
 20
1304.6277347515734
 40
1.9998779296875
 50
0.0
 51
360.0
 73
               0
 97
        1
330
92
 75
               0
 76
               1
 98
        1
 10
0.0
 20
0.0
  0
MTEXT
  5
94
100
AcDbEntity
  8
0
390
0
 62
               0
100
AcDbMText
 10
-643.37500000000034
 20
1338.5053519390733
 30
0.0
 40
24.432617187500004
 41
0.0
 71
               1
 72
               1
  1
35
  7
ＭＳ ゴシック
 73
               1
 44
0.7828267384257843
  0
POINT
  5
95
100
AcDbEntity
  8
Defpoints
370
               0
390
0
 62
               0
100
AcDbPoint
 10
-645.00000000000057
 20
1234.6277347515734
 30
0.0
  0
POINT
  5
96
100
AcDbEntity
  8
Defpoints
370
               0
390
0
 62
               0
100
AcDbPoint
 10
-609.99999999999989
 20
1204.6277347515734
 30
0.0
  0
POINT
  5
97
100
AcDbEntity
  8
Defpoints
370
               0
390
0
 62
               0
100
AcDbPoint
 10
-609.99999999999989
 20
1304.6277347515734
 30
0.0
  0
ENDBLK
  5
98
100
AcDbEntity
  8
notes
390
0
100
AcDbBlockEnd
  0
BLOCK
  5
99
100
AcDbEntity
  8
notes
390
0
100
AcDbBlockBegin
  2
*D7
 70
               1
 10
0.0
 20
0.0
 30
0.0
  3
*D7
  1

  0
LINE
  5
9A
100
AcDbEntity
  8
0
370
              -2
390
0
  6
Continuous
 62
               0
100
AcDbLine
 10
-249.99999999999989
 20
53.593653593193523
 30
0.0
 11
-174.99999999999989
 21
53.593653593193523
 31
0.0
  0
LINE
  5
9B
100
AcDbEntity
  8
0
370
              -2
390
0
  6
Continuous
 62
               0
100
AcDbLine
 10
-249.99999999999989
 20
-766.40634640680696
 30
0.0
 11
-174.99999999999989
 21
-766.40634640680696
 31
0.0
  0
LINE
  5
9C
100
AcDbEntity
  8
0
370
              -2
390
0
  6
Continuous
 62
               0
100
AcDbLine
 10
-174.99999999999989
 20
53.593653593193523
 30
0.0
 11
-174.99999999999989
 21
-766.40634640680696
 31
0.0
  0
CIRCLE
  5
9D
102
{ACAD_REACTORS
330
9E
102
}
100
AcDbEntity
  8
0
370
              -2
390
0
  6
Continuous
 62
               0
100
AcDbCircle
 10
-174.99999999999989
 20
53.593653593193523
 30
0.0
 40
1.9998779296875
  0
HATCH
  5
9E
100
AcDbEntity
  8
0
370
              -2
390
0
  6
Continuous
 62
               0
100
AcDbHatch
 10
0.0
 20
0.0
 30
0.0
210
0.0
220
0.0
230
1.0
  2
SOLID
 70
               1
 71
               1
 91
        1
 92
        1
 93
        1
 72
               2
 10
-174.99999999999989
 20
53.593653593193523
 40
1.9998779296875
 50
0.0
 51
360.0
 73
               0
 97
        1
330
9D
 75
               0
 76
               1
 98
        1
 10
0.0
 20
0.0
  0
CIRCLE
  5
9F
102
{ACAD_REACTORS
330
A0
102
}
100
AcDbEntity
  8
0
370
              -2
390
0
  6
Continuous
 62
               0
100
AcDbCircle
 10
-174.99999999999989
 20
-766.40634640680696
 30
0.0
 40
1.9998779296875
  0
HATCH
  5
A0
100
AcDbEntity
  8
0
370
              -2
390
0
  6
Continuous
 62
               0
100
AcDbHatch
 10
0.0
 20
0.0
 30
0.0
210
0.0
220
0.0
230
1.0
  2
SOLID
 70
               1
 71
               1
 91
        1
 92
        1
 93
        1
 72
               2
 10
-174.99999999999989
 20
-766.40634640680696
 40
1.9998779296875
 50
0.0
 51
360.0
 73
               0
 97
        1
330
9F
 75
               0
 76
               1
 98
        1
 10
0.0
 20
0.0
  0
MTEXT
  5
A1
100
AcDbEntity
  8
0
390
0
 62
               0
100
AcDbMText
 10
-208.87761718749994
 20
-380.21884808898221
 30
0.0
 40
24.432617187500004
 41
0.0
 71
               1
 72
               1
  1
820
  7
ＭＳ ゴシック
 11
0.0
 21
1.0
 31
0.0
 73
               1
 44
0.7828267384257843
  0
POINT
  5
A2
100
AcDbEntity
  8
Defpoints
370
               0
390
0
 62
               0
100
AcDbPoint
 10
-274.99999999999989
 20
-766.40634640680696
 30
0.0
  0
POINT
  5
A3
100
AcDbEntity
  8
Defpoints
370
               0
390
0
 62
               0
100
AcDbPoint
 10
-274.99999999999989
 20
53.593653593193523
 30
0.0
  0
POINT
  5
A4
100
AcDbEntity
  8
Defpoints
370
               0
390
0
 62
               0
100
AcDbPoint
 10
-174.99999999999989
 20
53.593653593193523
 30
0.0
  0
ENDBLK
  5
A5
100
AcDbEntity
  8
notes
390
0
100
AcDbBlockEnd
  0
BLOCK
  5
A6
100
AcDbEntity
  8
notes
390
0
100
AcDbBlockBegin
  2
*D8
 70
               1
 10
0.0
 20
0.0
 30
0.0
  3
*D8
  1

  0
LINE
  5
A7
100
AcDbEntity
  8
0
370
              -2
390
0
  6
Continuous
 62
               0
100
AcDbLine
 10
-249.99999999999989
 20
-766.40634640680696
 30
0.0
 11
-174.99999999999989
 21
-766.40634640680696
 31
0.0
  0
LINE
  5
A8
100
AcDbEntity
  8
0
370
              -2
390
0
  6
Continuous
 62
               0
100
AcDbLine
 10
-255.0
 20
-921.40634640680651
 30
0.0
 11
-174.99999999999989
 21
-921.40634640680651
 31
0.0
  0
LINE
  5
A9
100
AcDbEntity
  8
0
370
              -2
390
0
  6
Continuous
 62
               0
100
AcDbLine
 10
-174.99999999999989
 20
-766.40634640680696
 30
0.0
 11
-174.99999999999989
 21
-921.40634640680651
 31
0.0
  0
CIRCLE
  5
AA
102
{ACAD_REACTORS
330
AB
102
}
100
AcDbEntity
  8
0
370
              -2
390
0
  6
Continuous
 62
               0
100
AcDbCircle
 10
-174.99999999999989
 20
-766.40634640680696
 30
0.0
 40
1.9998779296875
  0
HATCH
  5
AB
100
AcDbEntity
  8
0
370
              -2
390
0
  6
Continuous
 62
               0
100
AcDbHatch
 10
0.0
 20
0.0
 30
0.0
210
0.0
220
0.0
230
1.0
  2
SOLID
 70
               1
 71
               1
 91
        1
 92
        1
 93
        1
 72
               2
 10
-174.99999999999989
 20
-766.40634640680696
 40
1.9998779296875
 50
0.0
 51
360.0
 73
               0
 97
        1
330
AA
 75
               0
 76
               1
 98
        1
 10
0.0
 20
0.0
  0
CIRCLE
  5
AC
102
{ACAD_REACTORS
330
AD
102
}
100
AcDbEntity
  8
0
370
              -2
390
0
  6
Continuous
 62
               0
100
AcDbCircle
 10
-174.99999999999989
 20
-921.40634640680651
 30
0.0
 40
1.9998779296875
  0
HATCH
  5
AD
100
AcDbEntity
  8
0
370
              -2
390
0
  6
Continuous
 62
               0
100
AcDbHatch
 10
0.0
 20
0.0
 30
0.0
210
0.0
220
0.0
230
1.0
  2
SOLID
 70
               1
 71
               1
 91
        1
 92
        1
 93
        1
 72
               2
 10
-174.99999999999989
 20
-921.40634640680651
 40
1.9998779296875
 50
0.0
 51
360.0
 73
               0
 97
        1
330
AC
 75
               0
 76
               1
 98
        1
 10
0.0
 20
0.0
  0
MTEXT
  5
AE
100
AcDbEntity
  8
0
390
0
 62
               0
100
AcDbMText
 10
-208.87761718749994
 20
-867.71884808898221
 30
0.0
 40
24.432617187500004
 41
0.0
 71
               1
 72
               1
  1
155
  7
ＭＳ ゴシック
 11
0.0
 21
1.0
 31
0.0
 73
               1
 44
0.7828267384257843
  0
POINT
  5
AF
100
AcDbEntity
  8
Defpoints
370
               0
390
0
 62
               0
100
AcDbPoint
 10
-280.0
 20
-921.40634640680651
 30
0.0
  0
POINT
  5
B0
100
AcDbEntity
  8
Defpoints
370
               0
390
0
 62
               0
100
AcDbPoint
 10
-274.99999999999989
 20
-766.40634640680696
 30
0.0
  0
POINT
  5
B1
100
AcDbEntity
  8
Defpoints
370
               0
390
0
 62
               0
100
AcDbPoint
 10
-174.99999999999989
 20
-766.40634640680696
 30
0.0
  0
ENDBLK
  5
B2
100
AcDbEntity
  8
notes
390
0
100
AcDbBlockEnd
  0
BLOCK
  5
B3
100
AcDbEntity
  8
notes
390
0
100
AcDbBlockBegin
  2
*D9
 70
               1
 10
0.0
 20
0.0
 30
0.0
  3
*D9
  1

  0
LINE
  5
B4
100
AcDbEntity
  8
0
370
              -2
390
0
  6
Continuous
 62
               0
100
AcDbLine
 10
-509.99999999999989
 20
874.58434521110757
 30
0.0
 11
-509.99999999999989
 21
950.08434521110757
 31
0.0
  0
LINE
  5
B5
100
AcDbEntity
  8
0
370
              -2
390
0
  6
Continuous
 62
               0
100
AcDbLine
 10
-409.99999999999989
 20
874.58434521110757
 30
0.0
 11
-409.99999999999989
 21
950.08434521110757
 31
0.0
  0
LINE
  5
B6
100
AcDbEntity
  8
0
370
              -2
390
0
  6
Continuous
 62
               0
100
AcDbLine
 10
-509.99999999999989
 20
950.08434521110757
 30
0.0
 11
-409.99999999999989
 21
950.08434521110757
 31
0.0
  0
CIRCLE
  5
B7
102
{ACAD_REACTORS
330
B8
102
}
100
AcDbEntity
  8
0
370
              -2
390
0
  6
Continuous
 62
               0
100
AcDbCircle
 10
-509.99999999999989
 20
950.08434521110757
 30
0.0
 40
1.9998779296875
  0
HATCH
  5
B8
100
AcDbEntity
  8
0
370
              -2
390
0
  6
Continuous
 62
               0
100
AcDbHatch
 10
0.0
 20
0.0
 30
0.0
210
0.0
220
0.0
230
1.0
  2
SOLID
 70
               1
 71
               1
 91
        1
 92
        1
 93
        1
 72
               2
 10
-509.99999999999989
 20
950.08434521110757
 40
1.9998779296875
 50
0.0
 51
360.0
 73
               0
 97
        1
330
B7
 75
               0
 76
               1
 98
        1
 10
0.0
 20
0.0
  0
CIRCLE
  5
B9
102
{ACAD_REACTORS
330
BA
102
}
100
AcDbEntity
  8
0
370
              -2
390
0
  6
Continuous
 62
               0
100
AcDbCircle
 10
-409.99999999999989
 20
950.08434521110757
 30
0.0
 40
1.9998779296875
  0
HATCH
  5
BA
100
AcDbEntity
  8
0
370
              -2
390
0
  6
Continuous
 62
               0
100
AcDbHatch
 10
0.0
 20
0.0
 30
0.0
210
0.0
220
0.0
230
1.0
  2
SOLID
 70
               1
 71
               1
 91
        1
 92
        1
 93
        1
 72
               2
 10
-409.99999999999989
 20
950.08434521110757
 40
1.9998779296875
 50
0.0
 51
360.0
 73
               0
 97
        1
330
B9
 75
               0
 76
               1
 98
        1
 10
0.0
 20
0.0
  0
MTEXT
  5
BB
100
AcDbEntity
  8
0
390
0
 62
               0
100
AcDbMText
 10
-483.81250168217537
 20
983.96196239860774
 30
0.0
 40
24.432617187500004
 41
0.0
 71
               1
 72
               1
  1
100
  7
ＭＳ ゴシック
 73
               1
 44
0.7828267384257843
  0
POINT
  5
BC
100
AcDbEntity
  8
Defpoints
370
               0
390
0
 62
               0
100
AcDbPoint
 10
-409.99999999999989
 20
849.58434521110757
 30
0.0
  0
POINT
  5
BD
100
AcDbEntity
  8
Defpoints
370
               0
390
0
 62
               0
100
AcDbPoint
 10
-509.99999999999989
 20
849.58434521110757
 30
0.0
  0
POINT
  5
BE
100
AcDbEntity
  8
Defpoints
370
               0
390
0
 62
               0
100
AcDbPoint
 10
-509.99999999999989
 20
950.08434521110757
 30
0.0
  0
ENDBLK
  5
BF
100
AcDbEntity
  8
notes
390
0
100
AcDbBlockEnd
  0
BLOCK
  5
C0
100
AcDbEntity
  8
notes
390
0
100
AcDbBlockBegin
  2
*D10
 70
               1
 10
0.0
 20
0.0
 30
0.0
  3
*D10
  1

  0
LINE
  5
C1
100
AcDbEntity
  8
0
370
              -2
390
0
  6
Continuous
 62
               0
100
AcDbLine
 10
-384.99999999999989
 20
849.58434521110757
 30
0.0
 11
-329.99999999999989
 21
849.58434521110757
 31
0.0
  0
LINE
  5
C2
100
AcDbEntity
  8
0
370
              -2
390
0
  6
Continuous
 62
               0
100
AcDbLine
 10
-384.99999999999989
 20
299.58434521110752
 30
0.0
 11
-329.99999999999989
 21
299.58434521110752
 31
0.0
  0
LINE
  5
C3
100
AcDbEntity
  8
0
370
              -2
390
0
  6
Continuous
 62
               0
100
AcDbLine
 10
-329.99999999999989
 20
849.58434521110757
 30
0.0
 11
-329.99999999999989
 21
299.58434521110752
 31
0.0
  0
CIRCLE
  5
C4
102
{ACAD_REACTORS
330
C5
102
}
100
AcDbEntity
  8
0
370
              -2
390
0
  6
Continuous
 62
               0
100
AcDbCircle
 10
-329.99999999999989
 20
849.58434521110757
 30
0.0
 40
1.9998779296875
  0
HATCH
  5
C5
100
AcDbEntity
  8
0
370
              -2
390
0
  6
Continuous
 62
               0
100
AcDbHatch
 10
0.0
 20
0.0
 30
0.0
210
0.0
220
0.0
230
1.0
  2
SOLID
 70
               1
 71
               1
 91
        1
 92
        1
 93
        1
 72
               2
 10
-329.99999999999989
 20
849.58434521110757
 40
1.9998779296875
 50
0.0
 51
360.0
 73
               0
 97
        1
330
C4
 75
               0
 76
               1
 98
        1
 10
0.0
 20
0.0
  0
CIRCLE
  5
C6
102
{ACAD_REACTORS
330
C7
102
}
100
AcDbEntity
  8
0
370
              -2
390
0
  6
Continuous
 62
               0
100
AcDbCircle
 10
-329.99999999999989
 20
299.58434521110752
 30
0.0
 40
1.9998779296875
  0
HATCH
  5
C7
100
AcDbEntity
  8
0
370
              -2
390
0
  6
Continuous
 62
               0
100
AcDbHatch
 10
0.0
 20
0.0
 30
0.0
210
0.0
220
0.0
230
1.0
  2
SOLID
 70
               1
 71
               1
 91
        1
 92
        1
 93
        1
 72
               2
 10
-329.99999999999989
 20
299.58434521110752
 40
1.9998779296875
 50
0.0
 51
360.0
 73
               0
 97
        1
330
C6
 75
               0
 76
               1
 98
        1
 10
0.0
 20
0.0
  0
MTEXT
  5
C8
100
AcDbEntity
  8
0
390
0
 62
               0
100
AcDbMText
 10
-363.87761718749982
 20
550.7718435289321
 30
0.0
 40
24.432617187500004
 41
0.0
 71
               1
 72
               1
  1
550
  7
ＭＳ ゴシック
 11
0.0
 21
1.0
 31
0.0
 73
               1
 44
0.7828267384257843
  0
POINT
  5
C9
100
AcDbEntity
  8
Defpoints
370
               0
390
0
 62
               0
100
AcDbPoint
 10
-409.99999999999989
 20
299.58434521110752
 30
0.0
  0
POINT
  5
CA
100
AcDbEntity
  8
Defpoints
370
               0
390
0
 62
               0
100
AcDbPoint
 10
-409.99999999999989
 20
849.58434521110757
 30
0.0
  0
POINT
  5
CB
100
AcDbEntity
  8
Defpoints
370
               0
390
0
 62
               0
100
AcDbPoint
 10
-329.99999999999989
 20
849.58434521110757
 30
0.0
  0
ENDBLK
  5
CC
100
AcDbEntity
  8
notes
390
0
100
AcDbBlockEnd
  0
BLOCK
  5
CD
100
AcDbEntity
  8
notes
390
0
100
AcDbBlockBegin
  2
*D11
 70
               1
 10
0.0
 20
0.0
 30
0.0
  3
*D11
  1

  0
LINE
  5
CE
100
AcDbEntity
  8
0
370
              -2
390
0
  6
Continuous
 62
               0
100
AcDbLine
 10
-509.99999999999989
 20
875.08434521110757
 30
0.0
 11
-509.99999999999989
 21
950.08434521110757
 31
0.0
  0
LINE
  5
CF
100
AcDbEntity
  8
0
370
              -2
390
0
  6
Continuous
 62
               0
100
AcDbLine
 10
-645.00000000000057
 20
875.08434521110757
 30
0.0
 11
-645.00000000000057
 21
950.08434521110757
 31
0.0
  0
LINE
  5
D0
100
AcDbEntity
  8
0
370
              -2
390
0
  6
Continuous
 62
               0
100
AcDbLine
 10
-509.99999999999989
 20
950.08434521110757
 30
0.0
 11
-645.00000000000057
 21
950.08434521110757
 31
0.0
  0
CIRCLE
  5
D1
102
{ACAD_REACTORS
330
D2
102
}
100
AcDbEntity
  8
0
370
              -2
390
0
  6
Continuous
 62
               0
100
AcDbCircle
 10
-509.99999999999989
 20
950.08434521110757
 30
0.0
 40
1.9998779296875
  0
HATCH
  5
D2
100
AcDbEntity
  8
0
370
              -2
390
0
  6
Continuous
 62
               0
100
AcDbHatch
 10
0.0
 20
0.0
 30
0.0
210
0.0
220
0.0
230
1.0
  2
SOLID
 70
               1
 71
               1
 91
        1
 92
        1
 93
        1
 72
               2
 10
-509.99999999999989
 20
950.08434521110757
 40
1.9998779296875
 50
0.0
 51
360.0
 73
               0
 97
        1
330
D1
 75
               0
 76
               1
 98
        1
 10
0.0
 20
0.0
  0
CIRCLE
  5
D3
102
{ACAD_REACTORS
330
D4
102
}
100
AcDbEntity
  8
0
370
              -2
390
0
  6
Continuous
 62
               0
100
AcDbCircle
 10
-645.00000000000057
 20
950.08434521110757
 30
0.0
 40
1.9998779296875
  0
HATCH
  5
D4
100
AcDbEntity
  8
0
370
              -2
390
0
  6
Continuous
 62
               0
100
AcDbHatch
 10
0.0
 20
0.0
 30
0.0
210
0.0
220
0.0
230
1.0
  2
SOLID
 70
               1
 71
               1
 91
        1
 92
        1
 93
        1
 72
               2
 10
-645.00000000000057
 20
950.08434521110757
 40
1.9998779296875
 50
0.0
 51
360.0
 73
               0
 97
        1
330
D3
 75
               0
 76
               1
 98
        1
 10
0.0
 20
0.0
  0
MTEXT
  5
D5
100
AcDbEntity
  8
0
390
0
 62
               0
100
AcDbMText
 10
-601.31250168217582
 20
983.96196239860774
 30
0.0
 40
24.432617187500004
 41
0.0
 71
               1
 72
               1
  1
135
  7
ＭＳ ゴシック
 73
               1
 44
0.7828267384257843
  0
POINT
  5
D6
100
AcDbEntity
  8
Defpoints
370
               0
390
0
 62
               0
100
AcDbPoint
 10
-645.00000000000057
 20
850.08434521110757
 30
0.0
  0
POINT
  5
D7
100
AcDbEntity
  8
Defpoints
370
               0
390
0
 62
               0
100
AcDbPoint
 10
-509.99999999999989
 20
850.08434521110757
 30
0.0
  0
POINT
  5
D8
100
AcDbEntity
  8
Defpoints
370
               0
390
0
 62
               0
100
AcDbPoint
 10
-509.99999999999989
 20
950.08434521110757
 30
0.0
  0
ENDBLK
  5
D9
100
AcDbEntity
  8
notes
390
0
100
AcDbBlockEnd
  0
BLOCK
  5
DA
100
AcDbEntity
  8
notes
390
0
100
AcDbBlockBegin
  2
*D12
 70
               1
 10
0.0
 20
0.0
 30
0.0
  3
*D12
  1

  0
LINE
  5
DB
100
AcDbEntity
  8
0
370
              -2
390
0
  6
Continuous
 62
               0
100
AcDbLine
 10
-284.99999999999989
 20
274.62773475157354
 30
0.0
 11
-174.97312257493309
 21
274.62773475157354
 31
0.0
  0
LINE
  5
DC
100
AcDbEntity
  8
0
370
              -2
390
0
  6
Continuous
 62
               0
100
AcDbLine
 10
-254.99999999999989
 20
239.62773475157334
 30
0.0
 11
-174.97312257493309
 21
239.62773475157334
 31
0.0
  0
LINE
  5
DD
100
AcDbEntity
  8
0
370
              -2
390
0
  6
Continuous
 62
               0
100
AcDbLine
 10
-174.97312257493309
 20
239.62773475157334
 30
0.0
 11
-174.97312257493309
 21
199.53434521110756
 31
0.0
  0
LINE
  5
DE
100
AcDbEntity
  8
0
370
              -2
390
0
  6
Continuous
 62
               0
100
AcDbLine
 10
-174.97312257493309
 20
274.62773475157354
 30
0.0
 11
-174.97312257493309
 21
239.62773475157334
 31
0.0
  0
CIRCLE
  5
DF
102
{ACAD_REACTORS
330
E0
102
}
100
AcDbEntity
  8
0
370
              -2
390
0
  6
Continuous
 62
               0
100
AcDbCircle
 10
-174.97312257493309
 20
274.62773475157354
 30
0.0
 40
1.9998779296875
  0
HATCH
  5
E0
100
AcDbEntity
  8
0
370
              -2
390
0
  6
Continuous
 62
               0
100
AcDbHatch
 10
0.0
 20
0.0
 30
0.0
210
0.0
220
0.0
230
1.0
  2
SOLID
 70
               1
 71
               1
 91
        1
 92
        1
 93
        1
 72
               2
 10
-174.97312257493309
 20
274.62773475157354
 40
1.9998779296875
 50
0.0
 51
360.0
 73
               0
 97
        1
330
DF
 75
               0
 76
               1
 98
        1
 10
0.0
 20
0.0
  0
CIRCLE
  5
E1
102
{ACAD_REACTORS
330
E2
102
}
100
AcDbEntity
  8
0
370
              -2
390
0
  6
Continuous
 62
               0
100
AcDbCircle
 10
-174.97312257493309
 20
239.62773475157334
 30
0.0
 40
1.9998779296875
  0
HATCH
  5
E2
100
AcDbEntity
  8
0
370
              -2
390
0
  6
Continuous
 62
               0
100
AcDbHatch
 10
0.0
 20
0.0
 30
0.0
210
0.0
220
0.0
230
1.0
  2
SOLID
 70
               1
 71
               1
 91
        1
 92
        1
 93
        1
 72
               2
 10
-174.97312257493309
 20
239.62773475157334
 40
1.9998779296875
 50
0.0
 51
360.0
 73
               0
 97
        1
330
E1
 75
               0
 76
               1
 98
        1
 10
0.0
 20
0.0
  0
MTEXT
  5
E3
100
AcDbEntity
  8
0
390
0
 62
               0
100
AcDbMText
 10
-208.85073976243314
 20
199.53434521110756
 30
0.0
 40
24.432617187500004
 41
0.0
 71
               1
 72
               1
  1
35
  7
ＭＳ ゴシック
 11
0.0
 21
1.0
 31
0.0
 73
               1
 44
0.7828267384257843
  0
POINT
  5
E4
100
AcDbEntity
  8
Defpoints
370
               0
390
0
 62
               0
100
AcDbPoint
 10
-279.99999999999989
 20
239.62773475157334
 30
0.0
  0
POINT
  5
E5
100
AcDbEntity
  8
Defpoints
370
               0
390
0
 62
               0
100
AcDbPoint
 10
-309.99999999999989
 20
274.62773475157354
 30
0.0
  0
POINT
  5
E6
100
AcDbEntity
  8
Defpoints
370
               0
390
0
 62
               0
100
AcDbPoint
 10
-174.97312257493309
 20
274.62773475157354
 30
0.0
  0
ENDBLK
  5
E7
100
AcDbEntity
  8
notes
390
0
100
AcDbBlockEnd
  0
BLOCK
  5
E8
100
AcDbEntity
  8
notes
390
0
100
AcDbBlockBegin
  2
*D13
 70
               1
 10
0.0
 20
0.0
 30
0.0
  3
*D13
  1

  0
LINE
  5
E9
100
AcDbEntity
  8
0
370
              -2
390
0
  6
Continuous
 62
               0
100
AcDbLine
 10
619.58283713001867
 20
-356.4348012447021
 30
0.0
 11
699.58283713001845
 21
-356.4348012447021
 31
0.0
  0
LINE
  5
EA
100
AcDbEntity
  8
0
370
              -2
390
0
  6
Continuous
 62
               0
100
AcDbLine
 10
574.58283713001822
 20
-916.40634640680651
 30
0.0
 11
699.58283713001845
 21
-916.40634640680651
 31
0.0
  0
LINE
  5
EB
100
AcDbEntity
  8
0
370
              -2
390
0
  6
Continuous
 62
               0
100
AcDbLine
 10
699.58283713001845
 20
-356.4348012447021
 30
0.0
 11
699.58283713001845
 21
-916.40634640680651
 31
0.0
  0
CIRCLE
  5
EC
102
{ACAD_REACTORS
330
ED
102
}
100
AcDbEntity
  8
0
370
              -2
390
0
  6
Continuous
 62
               0
100
AcDbCircle
 10
699.58283713001845
 20
-356.4348012447021
 30
0.0
 40
1.9998779296875
  0
HATCH
  5
ED
100
AcDbEntity
  8
0
370
              -2
390
0
  6
Continuous
 62
               0
100
AcDbHatch
 10
0.0
 20
0.0
 30
0.0
210
0.0
220
0.0
230
1.0
  2
SOLID
 70
               1
 71
               1
 91
        1
 92
        1
 93
        1
 72
               2
 10
699.58283713001845
 20
-356.4348012447021
 40
1.9998779296875
 50
0.0
 51
360.0
 73
               0
 97
        1
330
EC
 75
               0
 76
               1
 98
        1
 10
0.0
 20
0.0
  0
CIRCLE
  5
EE
102
{ACAD_REACTORS
330
EF
102
}
100
AcDbEntity
  8
0
370
              -2
390
0
  6
Continuous
 62
               0
100
AcDbCircle
 10
699.58283713001845
 20
-916.40634640680651
 30
0.0
 40
1.9998779296875
  0
HATCH
  5
EF
100
AcDbEntity
  8
0
370
              -2
390
0
  6
Continuous
 62
               0
100
AcDbHatch
 10
0.0
 20
0.0
 30
0.0
210
0.0
220
0.0
230
1.0
  2
SOLID
 70
               1
 71
               1
 91
        1
 92
        1
 93
        1
 72
               2
 10
699.58283713001845
 20
-916.40634640680651
 40
1.9998779296875
 50
0.0
 51
360.0
 73
               0
 97
        1
330
EE
 75
               0
 76
               1
 98
        1
 10
0.0
 20
0.0
  0
MTEXT
  5
F0
100
AcDbEntity
  8
0
390
0
 62
               0
100
AcDbMText
 10
665.7052199425184
 20
-660.2330755079297
 30
0.0
 40
24.432617187500004
 41
0.0
 71
               1
 72
               1
  1
560
  7
ＭＳ ゴシック
 11
0.0
 21
1.0
 31
0.0
 73
               1
 44
0.7828267384257843
  0
POINT
  5
F1
100
AcDbEntity
  8
Defpoints
370
               0
390
0
 62
               0
100
AcDbPoint
 10
549.58283713001822
 20
-916.40634640680651
 30
0.0
  0
POINT
  5
F2
100
AcDbEntity
  8
Defpoints
370
               0
390
0
 62
               0
100
AcDbPoint
 10
594.58283713001867
 20
-356.4348012447021
 30
0.0
  0
POINT
  5
F3
100
AcDbEntity
  8
Defpoints
370
               0
390
0
 62
               0
100
AcDbPoint
 10
699.58283713001845
 20
-356.4348012447021
 30
0.0
  0
ENDBLK
  5
F4
100
AcDbEntity
  8
notes
390
0
100
AcDbBlockEnd
  0
BLOCK
  5
F5
100
AcDbEntity
  8
notes
390
0
100
AcDbBlockBegin
  2
*D14
 70
               1
 10
0.0
 20
0.0
 30
0.0
  3
*D14
  1

  0
LINE
  5
F6
100
AcDbEntity
  8
0
370
              -2
390
0
  6
Continuous
 62
               0
100
AcDbLine
 10
621.44339572816943
 20
25.579486829129081
 30
0.0
 11
749.58283713001845
 21
25.579486829129081
 31
0.0
  0
LINE
  5
F7
100
AcDbEntity
  8
0
370
              -2
390
0
  6
Continuous
 62
               0
100
AcDbLine
 10
621.44339572816943
 20
-869.42051317087089
 30
0.0
 11
749.58283713001845
 21
-869.42051317087089
 31
0.0
  0
LINE
  5
F8
100
AcDbEntity
  8
0
370
              -2
390
0
  6
Continuous
 62
               0
100
AcDbLine
 10
749.58283713001845
 20
25.579486829129081
 30
0.0
 11
749.58283713001845
 21
-869.42051317087089
 31
0.0
  0
CIRCLE
  5
F9
102
{ACAD_REACTORS
330
FA
102
}
100
AcDbEntity
  8
0
370
              -2
390
0
  6
Continuous
 62
               0
100
AcDbCircle
 10
749.58283713001845
 20
25.579486829129081
 30
0.0
 40
1.9998779296875
  0
HATCH
  5
FA
100
AcDbEntity
  8
0
370
              -2
390
0
  6
Continuous
 62
               0
100
AcDbHatch
 10
0.0
 20
0.0
 30
0.0
210
0.0
220
0.0
230
1.0
  2
SOLID
 70
               1
 71
               1
 91
        1
 92
        1
 93
        1
 72
               2
 10
749.58283713001845
 20
25.579486829129081
 40
1.9998779296875
 50
0.0
 51
360.0
 73
               0
 97
        1
330
F9
 75
               0
 76
               1
 98
        1
 10
0.0
 20
0.0
  0
CIRCLE
  5
FB
102
{ACAD_REACTORS
330
FC
102
}
100
AcDbEntity
  8
0
370
              -2
390
0
  6
Continuous
 62
               0
100
AcDbCircle
 10
749.58283713001845
 20
-869.42051317087089
 30
0.0
 40
1.9998779296875
  0
HATCH
  5
FC
100
AcDbEntity
  8
0
370
              -2
390
0
  6
Continuous
 62
               0
100
AcDbHatch
 10
0.0
 20
0.0
 30
0.0
210
0.0
220
0.0
230
1.0
  2
SOLID
 70
               1
 71
               1
 91
        1
 92
        1
 93
        1
 72
               2
 10
749.58283713001845
 20
-869.42051317087089
 40
1.9998779296875
 50
0.0
 51
360.0
 73
               0
 97
        1
330
FB
 75
               0
 76
               1
 98
        1
 10
0.0
 20
0.0
  0
MTEXT
  5
FD
100
AcDbEntity
  8
0
390
0
 62
               0
100
AcDbMText
 10
715.7052199425184
 20
-445.73301485304643
 30
0.0
 40
24.432617187500004
 41
0.0
 71
               1
 72
               1
  1
895
  7
ＭＳ ゴシック
 11
0.0
 21
1.0
 31
0.0
 73
               1
 44
0.7828267384257843
  0
POINT
  5
FE
100
AcDbEntity
  8
Defpoints
370
               0
390
0
 62
               0
100
AcDbPoint
 10
596.44339572816943
 20
-869.42051317087089
 30
0.0
  0
POINT
  5
FF
100
AcDbEntity
  8
Defpoints
370
               0
390
0
 62
               0
100
AcDbPoint
 10
596.44339572816943
 20
25.579486829129081
 30
0.0
  0
POINT
  5
100
100
AcDbEntity
  8
Defpoints
370
               0
390
0
 62
               0
100
AcDbPoint
 10
749.58283713001845
 20
25.579486829129081
 30
0.0
  0
ENDBLK
  5
101
100
AcDbEntity
  8
notes
390
0
100
AcDbBlockEnd
  0
BLOCK
  5
102
100
AcDbEntity
  8
notes
390
0
100
AcDbBlockBegin
  2
*D15
 70
               1
 10
0.0
 20
0.0
 30
0.0
  3
*D15
  1

  0
LINE
  5
103
100
AcDbEntity
  8
0
370
              -2
390
0
  6
Continuous
 62
               0
100
AcDbLine
 10
-664.99999999999989
 20
-921.40634640680651
 30
0.0
 11
-744.99999999999989
 21
-921.40634640680651
 31
0.0
  0
LINE
  5
104
100
AcDbEntity
  8
0
370
              -2
390
0
  6
Continuous
 62
               0
100
AcDbLine
 10
-664.99999999999989
 20
78.593653593193721
 30
0.0
 11
-744.99999999999989
 21
78.593653593193721
 31
0.0
  0
LINE
  5
105
100
AcDbEntity
  8
0
370
              -2
390
0
  6
Continuous
 62
               0
100
AcDbLine
 10
-744.99999999999989
 20
-921.40634640680651
 30
0.0
 11
-744.99999999999989
 21
78.593653593193721
 31
0.0
  0
CIRCLE
  5
106
102
{ACAD_REACTORS
330
107
102
}
100
AcDbEntity
  8
0
370
              -2
390
0
  6
Continuous
 62
               0
100
AcDbCircle
 10
-744.99999999999989
 20
-921.40634640680651
 30
0.0
 40
1.9998779296875
  0
HATCH
  5
107
100
AcDbEntity
  8
0
370
              -2
390
0
  6
Continuous
 62
               0
100
AcDbHatch
 10
0.0
 20
0.0
 30
0.0
210
0.0
220
0.0
230
1.0
  2
SOLID
 70
               1
 71
               1
 91
        1
 92
        1
 93
        1
 72
               2
 10
-744.99999999999989
 20
-921.40634640680651
 40
1.9998779296875
 50
0.0
 51
360.0
 73
               0
 97
        1
330
106
 75
               0
 76
               1
 98
        1
 10
0.0
 20
0.0
  0
CIRCLE
  5
108
102
{ACAD_REACTORS
330
109
102
}
100
AcDbEntity
  8
0
370
              -2
390
0
  6
Continuous
 62
               0
100
AcDbCircle
 10
-744.99999999999989
 20
78.593653593193721
 30
0.0
 40
1.9998779296875
  0
HATCH
  5
109
100
AcDbEntity
  8
0
370
              -2
390
0
  6
Continuous
 62
               0
100
AcDbHatch
 10
0.0
 20
0.0
 30
0.0
210
0.0
220
0.0
230
1.0
  2
SOLID
 70
               1
 71
               1
 91
        1
 92
        1
 93
        1
 72
               2
 10
-744.99999999999989
 20
78.593653593193721
 40
1.9998779296875
 50
0.0
 51
360.0
 73
               0
 97
        1
330
108
 75
               0
 76
               1
 98
        1
 10
0.0
 20
0.0
  0
MTEXT
  5
10A
100
AcDbEntity
  8
0
390
0
 62
               0
100
AcDbMText
 10
-778.87761718749982
 20
-453.15634640680634
 30
0.0
 40
24.432617187500004
 41
0.0
 71
               1
 72
               1
  1
1000
  7
ＭＳ ゴシック
 11
0.0
 21
1.0
 31
0.0
 73
               1
 44
0.7828267384257843
  0
POINT
  5
10B
100
AcDbEntity
  8
Defpoints
370
               0
390
0
 62
               0
100
AcDbPoint
 10
-639.99999999999989
 20
78.593653593193721
 30
0.0
  0
POINT
  5
10C
100
AcDbEntity
  8
Defpoints
370
               0
390
0
 62
               0
100
AcDbPoint
 10
-639.99999999999989
 20
-921.40634640680651
 30
0.0
  0
POINT
  5
10D
100
AcDbEntity
  8
Defpoints
370
               0
390
0
 62
               0
100
AcDbPoint
 10
-744.99999999999989
 20
-921.40634640680651
 30
0.0
  0
ENDBLK
  5
10E
100
AcDbEntity
  8
notes
390
0
100
AcDbBlockEnd
  0
BLOCK
  5
10F
100
AcDbEntity
  8
notes
390
0
100
AcDbBlockBegin
  2
*D16
 70
               1
 10
0.0
 20
0.0
 30
0.0
  3
*D16
  1

  0
LINE
  5
110
100
AcDbEntity
  8
0
370
              -2
390
0
  6
Continuous
 62
               0
100
AcDbLine
 10
-614.99999999999989
 20
103.59365359319352
 30
0.0
 11
-614.99999999999989
 21
178.59365359319352
 31
0.0
  0
LINE
  5
111
100
AcDbEntity
  8
0
370
              -2
390
0
  6
Continuous
 62
               0
100
AcDbLine
 10
-304.99999999999989
 20
103.59365359319352
 30
0.0
 11
-304.99999999999989
 21
178.59365359319352
 31
0.0
  0
LINE
  5
112
100
AcDbEntity
  8
0
370
              -2
390
0
  6
Continuous
 62
               0
100
AcDbLine
 10
-614.99999999999989
 20
178.59365359319352
 30
0.0
 11
-304.99999999999989
 21
178.59365359319352
 31
0.0
  0
CIRCLE
  5
113
102
{ACAD_REACTORS
330
114
102
}
100
AcDbEntity
  8
0
370
              -2
390
0
  6
Continuous
 62
               0
100
AcDbCircle
 10
-614.99999999999989
 20
178.59365359319352
 30
0.0
 40
1.9998779296875
  0
HATCH
  5
114
100
AcDbEntity
  8
0
370
              -2
390
0
  6
Continuous
 62
               0
100
AcDbHatch
 10
0.0
 20
0.0
 30
0.0
210
0.0
220
0.0
230
1.0
  2
SOLID
 70
               1
 71
               1
 91
        1
 92
        1
 93
        1
 72
               2
 10
-614.99999999999989
 20
178.59365359319352
 40
1.9998779296875
 50
0.0
 51
360.0
 73
               0
 97
        1
330
113
 75
               0
 76
               1
 98
        1
 10
0.0
 20
0.0
  0
CIRCLE
  5
115
102
{ACAD_REACTORS
330
116
102
}
100
AcDbEntity
  8
0
370
              -2
390
0
  6
Continuous
 62
               0
100
AcDbCircle
 10
-304.99999999999989
 20
178.59365359319352
 30
0.0
 40
1.9998779296875
  0
HATCH
  5
116
100
AcDbEntity
  8
0
370
              -2
390
0
  6
Continuous
 62
               0
100
AcDbHatch
 10
0.0
 20
0.0
 30
0.0
210
0.0
220
0.0
230
1.0
  2
SOLID
 70
               1
 71
               1
 91
        1
 92
        1
 93
        1
 72
               2
 10
-304.99999999999989
 20
178.59365359319352
 40
1.9998779296875
 50
0.0
 51
360.0
 73
               0
 97
        1
330
115
 75
               0
 76
               1
 98
        1
 10
0.0
 20
0.0
  0
MTEXT
  5
117
100
AcDbEntity
  8
0
390
0
 62
               0
100
AcDbMText
 10
-483.81250168217537
 20
212.47127078069354
 30
0.0
 40
24.432617187500004
 41
0.0
 71
               1
 72
               1
  1
310
  7
ＭＳ ゴシック
 73
               1
 44
0.7828267384257843
  0
POINT
  5
118
100
AcDbEntity
  8
Defpoints
370
               0
390
0
 62
               0
100
AcDbPoint
 10
-304.99999999999989
 20
78.593653593193523
 30
0.0
  0
POINT
  5
119
100
AcDbEntity
  8
Defpoints
370
               0
390
0
 62
               0
100
AcDbPoint
 10
-614.99999999999989
 20
78.593653593193523
 30
0.0
  0
POINT
  5
11A
100
AcDbEntity
  8
Defpoints
370
               0
390
0
 62
               0
100
AcDbPoint
 10
-614.99999999999989
 20
178.59365359319352
 30
0.0
  0
ENDBLK
  5
11B
100
AcDbEntity
  8
notes
390
0
100
AcDbBlockEnd
  0
BLOCK
  5
11C
100
AcDbEntity
  8
notes
390
0
100
AcDbBlockBegin
  2
*D17
 70
               1
 10
0.0
 20
0.0
 30
0.0
  3
*D17
  1

  0
LINE
  5
11D
100
AcDbEntity
  8
0
370
              -2
390
0
  6
Continuous
 62
               0
100
AcDbLine
 10
-645.00000000000034
 20
-941.40634640680651
 30
0.0
 11
-645.00000000000034
 21
-1071.4063464068065
 31
0.0
  0
LINE
  5
11E
100
AcDbEntity
  8
0
370
              -2
390
0
  6
Continuous
 62
               0
100
AcDbLine
 10
-275.0
 20
-941.40634640680651
 30
0.0
 11
-275.0
 21
-1071.4063464068065
 31
0.0
  0
LINE
  5
11F
100
AcDbEntity
  8
0
370
              -2
390
0
  6
Continuous
 62
               0
100
AcDbLine
 10
-645.00000000000034
 20
-1071.4063464068065
 30
0.0
 11
-275.0
 21
-1071.4063464068065
 31
0.0
  0
CIRCLE
  5
120
102
{ACAD_REACTORS
330
121
102
}
100
AcDbEntity
  8
0
370
              -2
390
0
  6
Continuous
 62
               0
100
AcDbCircle
 10
-645.00000000000034
 20
-1071.4063464068065
 30
0.0
 40
1.9998779296875
  0
HATCH
  5
121
100
AcDbEntity
  8
0
370
              -2
390
0
  6
Continuous
 62
               0
100
AcDbHatch
 10
0.0
 20
0.0
 30
0.0
210
0.0
220
0.0
230
1.0
  2
SOLID
 70
               1
 71
               1
 91
        1
 92
        1
 93
        1
 72
               2
 10
-645.00000000000034
 20
-1071.4063464068065
 40
1.9998779296875
 50
0.0
 51
360.0
 73
               0
 97
        1
330
120
 75
               0
 76
               1
 98
        1
 10
0.0
 20
0.0
  0
CIRCLE
  5
122
102
{ACAD_REACTORS
330
123
102
}
100
AcDbEntity
  8
0
370
              -2
390
0
  6
Continuous
 62
               0
100
AcDbCircle
 10
-275.0
 20
-1071.4063464068065
 30
0.0
 40
1.9998779296875
  0
HATCH
  5
123
100
AcDbEntity
  8
0
370
              -2
390
0
  6
Continuous
 62
               0
100
AcDbHatch
 10
0.0
 20
0.0
 30
0.0
210
0.0
220
0.0
230
1.0
  2
SOLID
 70
               1
 71
               1
 91
        1
 92
        1
 93
        1
 72
               2
 10
-275.0
 20
-1071.4063464068065
 40
1.9998779296875
 50
0.0
 51
360.0
 73
               0
 97
        1
330
122
 75
               0
 76
               1
 98
        1
 10
0.0
 20
0.0
  0
MTEXT
  5
124
100
AcDbEntity
  8
0
390
0
 62
               0
100
AcDbMText
 10
-483.81250168217559
 20
-1037.5287292193066
 30
0.0
 40
24.432617187500004
 41
0.0
 71
               1
 72
               1
  1
370
  7
ＭＳ ゴシック
 73
               1
 44
0.7828267384257843
  0
POINT
  5
125
100
AcDbEntity
  8
Defpoints
370
               0
390
0
 62
               0
100
AcDbPoint
 10
-275.0
 20
-916.40634640680651
 30
0.0
  0
POINT
  5
126
100
AcDbEntity
  8
Defpoints
370
               0
390
0
 62
               0
100
AcDbPoint
 10
-645.00000000000034
 20
-916.40634640680651
 30
0.0
  0
POINT
  5
127
100
AcDbEntity
  8
Defpoints
370
               0
390
0
 62
               0
100
AcDbPoint
 10
-645.00000000000034
 20
-1071.4063464068065
 30
0.0
  0
ENDBLK
  5
128
100
AcDbEntity
  8
notes
390
0
100
AcDbBlockEnd
  0
BLOCK
  5
129
100
AcDbEntity
  8
notes
390
0
100
AcDbBlockBegin
  2
*D18
 70
               1
 10
0.0
 20
0.0
 30
0.0
  3
*D18
  1

  0
LINE
  5
12A
100
AcDbEntity
  8
0
370
              -2
390
0
  6
Continuous
 62
               0
100
AcDbLine
 10
-644.99999999999989
 20
-941.40634640680651
 30
0.0
 11
-644.99999999999989
 21
-1021.4063464068065
 31
0.0
  0
LINE
  5
12B
100
AcDbEntity
  8
0
370
              -2
390
0
  6
Continuous
 62
               0
100
AcDbLine
 10
-460.00064782091988
 20
-845.53543820205982
 30
0.0
 11
-460.00064782091988
 21
-1021.4063464068065
 31
0.0
  0
LINE
  5
12C
100
AcDbEntity
  8
0
370
              -2
390
0
  6
Continuous
 62
               0
100
AcDbLine
 10
-644.99999999999989
 20
-1021.4063464068065
 30
0.0
 11
-460.00064782091988
 21
-1021.4063464068065
 31
0.0
  0
CIRCLE
  5
12D
102
{ACAD_REACTORS
330
12E
102
}
100
AcDbEntity
  8
0
370
              -2
390
0
  6
Continuous
 62
               0
100
AcDbCircle
 10
-644.99999999999989
 20
-1021.4063464068065
 30
0.0
 40
1.9998779296875
  0
HATCH
  5
12E
100
AcDbEntity
  8
0
370
              -2
390
0
  6
Continuous
 62
               0
100
AcDbHatch
 10
0.0
 20
0.0
 30
0.0
210
0.0
220
0.0
230
1.0
  2
SOLID
 70
               1
 71
               1
 91
        1
 92
        1
 93
        1
 72
               2
 10
-644.99999999999989
 20
-1021.4063464068065
 40
1.9998779296875
 50
0.0
 51
360.0
 73
               0
 97
        1
330
12D
 75
               0
 76
               1
 98
        1
 10
0.0
 20
0.0
  0
CIRCLE
  5
12F
102
{ACAD_REACTORS
330
130
102
}
100
AcDbEntity
  8
0
370
              -2
390
0
  6
Continuous
 62
               0
100
AcDbCircle
 10
-460.00064782091988
 20
-1021.4063464068065
 30
0.0
 40
1.9998779296875
  0
HATCH
  5
130
100
AcDbEntity
  8
0
370
              -2
390
0
  6
Continuous
 62
               0
100
AcDbHatch
 10
0.0
 20
0.0
 30
0.0
210
0.0
220
0.0
230
1.0
  2
SOLID
 70
               1
 71
               1
 91
        1
 92
        1
 93
        1
 72
               2
 10
-460.00064782091988
 20
-1021.4063464068065
 40
1.9998779296875
 50
0.0
 51
360.0
 73
               0
 97
        1
330
12F
 75
               0
 76
               1
 98
        1
 10
0.0
 20
0.0
  0
MTEXT
  5
131
100
AcDbEntity
  8
0
390
0
 62
               0
100
AcDbMText
 10
-576.31282559263525
 20
-987.52872921930657
 30
0.0
 40
24.432617187500004
 41
0.0
 71
               1
 72
               1
  1
185
  7
ＭＳ ゴシック
 73
               1
 44
0.7828267384257843
  0
POINT
  5
132
100
AcDbEntity
  8
Defpoints
370
               0
390
0
 62
               0
100
AcDbPoint
 10
-460.00064782091988
 20
-820.53543820205982
 30
0.0
  0
POINT
  5
133
100
AcDbEntity
  8
Defpoints
370
               0
390
0
 62
               0
100
AcDbPoint
 10
-644.99999999999989
 20
-916.40634640680651
 30
0.0
  0
POINT
  5
134
100
AcDbEntity
  8
Defpoints
370
               0
390
0
 62
               0
100
AcDbPoint
 10
-644.99999999999989
 20
-1021.4063464068065
 30
0.0
  0
ENDBLK
  5
135
100
AcDbEntity
  8
notes
390
0
100
AcDbBlockEnd
  0
BLOCK
  5
136
100
AcDbEntity
  8
notes
390
0
100
AcDbBlockBegin
  2
*D19
 70
               1
 10
0.0
 20
0.0
 30
0.0
  3
*D19
  1

  0
LINE
  5
137
100
AcDbEntity
  8
0
370
              -2
390
0
  6
Continuous
 62
               0
100
AcDbLine
 10
454.5828371300185
 20
97.728928122387231
 30
0.0
 11
454.5828371300185
 21
177.72892812238749
 31
0.0
  0
LINE
  5
138
100
AcDbEntity
  8
0
370
              -2
390
0
  6
Continuous
 62
               0
100
AcDbLine
 10
604.58283713001845
 20
50.830998990859968
 30
0.0
 11
604.58283713001845
 21
177.72892812238749
 31
0.0
  0
LINE
  5
139
100
AcDbEntity
  8
0
370
              -2
390
0
  6
Continuous
 62
               0
100
AcDbLine
 10
454.5828371300185
 20
177.72892812238749
 30
0.0
 11
604.58283713001845
 21
177.72892812238749
 31
0.0
  0
CIRCLE
  5
13A
102
{ACAD_REACTORS
330
13B
102
}
100
AcDbEntity
  8
0
370
              -2
390
0
  6
Continuous
 62
               0
100
AcDbCircle
 10
454.5828371300185
 20
177.72892812238749
 30
0.0
 40
1.9998779296875
  0
HATCH
  5
13B
100
AcDbEntity
  8
0
370
              -2
390
0
  6
Continuous
 62
               0
100
AcDbHatch
 10
0.0
 20
0.0
 30
0.0
210
0.0
220
0.0
230
1.0
  2
SOLID
 70
               1
 71
               1
 91
        1
 92
        1
 93
        1
 72
               2
 10
454.5828371300185
 20
177.72892812238749
 40
1.9998779296875
 50
0.0
 51
360.0
 73
               0
 97
        1
330
13A
 75
               0
 76
               1
 98
        1
 10
0.0
 20
0.0
  0
CIRCLE
  5
13C
102
{ACAD_REACTORS
330
13D
102
}
100
AcDbEntity
  8
0
370
              -2
390
0
  6
Continuous
 62
               0
100
AcDbCircle
 10
604.58283713001845
 20
177.72892812238749
 30
0.0
 40
1.9998779296875
  0
HATCH
  5
13D
100
AcDbEntity
  8
0
370
              -2
390
0
  6
Continuous
 62
               0
100
AcDbHatch
 10
0.0
 20
0.0
 30
0.0
210
0.0
220
0.0
230
1.0
  2
SOLID
 70
               1
 71
               1
 91
        1
 92
        1
 93
        1
 72
               2
 10
604.58283713001845
 20
177.72892812238749
 40
1.9998779296875
 50
0.0
 51
360.0
 73
               0
 97
        1
330
13C
 75
               0
 76
               1
 98
        1
 10
0.0
 20
0.0
  0
MTEXT
  5
13E
100
AcDbEntity
  8
0
390
0
 62
               0
100
AcDbMText
 10
505.77033544784297
 20
211.60654530988751
 30
0.0
 40
24.432617187500004
 41
0.0
 71
               1
 72
               1
  1
150
  7
ＭＳ ゴシック
 73
               1
 44
0.7828267384257843
  0
POINT
  5
13F
100
AcDbEntity
  8
Defpoints
370
               0
390
0
 62
               0
100
AcDbPoint
 10
604.58283713001845
 20
25.830998990859968
 30
0.0
  0
POINT
  5
140
100
AcDbEntity
  8
Defpoints
370
               0
390
0
 62
               0
100
AcDbPoint
 10
454.5828371300185
 20
72.728928122387231
 30
0.0
  0
POINT
  5
141
100
AcDbEntity
  8
Defpoints
370
               0
390
0
 62
               0
100
AcDbPoint
 10
454.5828371300185
 20
177.72892812238749
 30
0.0
  0
ENDBLK
  5
142
100
AcDbEntity
  8
notes
390
0
100
AcDbBlockEnd
  0
BLOCK
  5
143
100
AcDbEntity
  8
notes
390
0
100
AcDbBlockBegin
  2
*D20
 70
               1
 10
0.0
 20
0.0
 30
0.0
  3
*D20
  1

  0
LINE
  5
144
100
AcDbEntity
  8
0
370
              -2
390
0
  6
Continuous
 62
               0
100
AcDbLine
 10
429.5828371300185
 20
-816.40634640680651
 30
0.0
 11
360.5828371300185
 21
-816.40634640680651
 31
0.0
  0
LINE
  5
145
100
AcDbEntity
  8
0
370
              -2
390
0
  6
Continuous
 62
               0
100
AcDbLine
 10
434.5828371300185
 20
-921.40634640680651
 30
0.0
 11
360.5828371300185
 21
-921.40634640680651
 31
0.0
  0
LINE
  5
146
100
AcDbEntity
  8
0
370
              -2
390
0
  6
Continuous
 62
               0
100
AcDbLine
 10
360.5828371300185
 20
-816.40634640680651
 30
0.0
 11
360.5828371300185
 21
-921.40634640680651
 31
0.0
  0
CIRCLE
  5
147
102
{ACAD_REACTORS
330
148
102
}
100
AcDbEntity
  8
0
370
              -2
390
0
  6
Continuous
 62
               0
100
AcDbCircle
 10
360.5828371300185
 20
-816.40634640680651
 30
0.0
 40
1.9998779296875
  0
HATCH
  5
148
100
AcDbEntity
  8
0
370
              -2
390
0
  6
Continuous
 62
               0
100
AcDbHatch
 10
0.0
 20
0.0
 30
0.0
210
0.0
220
0.0
230
1.0
  2
SOLID
 70
               1
 71
               1
 91
        1
 92
        1
 93
        1
 72
               2
 10
360.5828371300185
 20
-816.40634640680651
 40
1.9998779296875
 50
0.0
 51
360.0
 73
               0
 97
        1
330
147
 75
               0
 76
               1
 98
        1
 10
0.0
 20
0.0
  0
CIRCLE
  5
149
102
{ACAD_REACTORS
330
14A
102
}
100
AcDbEntity
  8
0
370
              -2
390
0
  6
Continuous
 62
               0
100
AcDbCircle
 10
360.5828371300185
 20
-921.40634640680651
 30
0.0
 40
1.9998779296875
  0
HATCH
  5
14A
100
AcDbEntity
  8
0
370
              -2
390
0
  6
Continuous
 62
               0
100
AcDbHatch
 10
0.0
 20
0.0
 30
0.0
210
0.0
220
0.0
230
1.0
  2
SOLID
 70
               1
 71
               1
 91
        1
 92
        1
 93
        1
 72
               2
 10
360.5828371300185
 20
-921.40634640680651
 40
1.9998779296875
 50
0.0
 51
360.0
 73
               0
 97
        1
330
149
 75
               0
 76
               1
 98
        1
 10
0.0
 20
0.0
  0
MTEXT
  5
14B
100
AcDbEntity
  8
0
390
0
 62
               0
100
AcDbMText
 10
326.70521994251851
 20
-892.71884808898199
 30
0.0
 40
24.432617187500004
 41
0.0
 71
               1
 72
               1
  1
105
  7
ＭＳ ゴシック
 11
0.0
 21
1.0
 31
0.0
 73
               1
 44
0.7828267384257843
  0
POINT
  5
14C
100
AcDbEntity
  8
Defpoints
370
               0
390
0
 62
               0
100
AcDbPoint
 10
459.5828371300185
 20
-921.40634640680651
 30
0.0
  0
POINT
  5
14D
100
AcDbEntity
  8
Defpoints
370
               0
390
0
 62
               0
100
AcDbPoint
 10
454.5828371300185
 20
-816.40634640680651
 30
0.0
  0
POINT
  5
14E
100
AcDbEntity
  8
Defpoints
370
               0
390
0
 62
               0
100
AcDbPoint
 10
360.5828371300185
 20
-816.40634640680651
 30
0.0
  0
ENDBLK
  5
14F
100
AcDbEntity
  8
notes
390
0
100
AcDbBlockEnd
  0
BLOCK
  5
150
100
AcDbEntity
  8
notes
390
0
100
AcDbBlockBegin
  2
*D21
 70
               1
 10
0.0
 20
0.0
 30
0.0
  3
*D21
  1

  0
LINE
  5
151
100
AcDbEntity
  8
0
370
              -2
390
0
  6
Continuous
 62
               0
100
AcDbLine
 10
454.5828371300185
 20
829.65760395210714
 30
0.0
 11
454.5828371300185
 21
809.91062638462927
 31
0.0
  0
LINE
  5
152
100
AcDbEntity
  8
0
370
              -2
390
0
  6
Continuous
 62
               0
100
AcDbLine
 10
569.58283713001845
 20
829.65695613119033
 30
0.0
 11
569.58283713001845
 21
809.91062638462927
 31
0.0
  0
LINE
  5
153
100
AcDbEntity
  8
0
370
              -2
390
0
  6
Continuous
 62
               0
100
AcDbLine
 10
454.5828371300185
 20
809.91062638462927
 30
0.0
 11
306.90187742506691
 21
809.91062638462927
 31
0.0
  0
LINE
  5
154
100
AcDbEntity
  8
0
370
              -2
390
0
  6
Continuous
 62
               0
100
AcDbLine
 10
454.5828371300185
 20
809.91062638462927
 30
0.0
 11
569.58283713001845
 21
809.91062638462927
 31
0.0
  0
CIRCLE
  5
155
102
{ACAD_REACTORS
330
156
102
}
100
AcDbEntity
  8
0
370
              -2
390
0
  6
Continuous
 62
               0
100
AcDbCircle
 10
454.5828371300185
 20
809.91062638462927
 30
0.0
 40
1.9998779296875
  0
HATCH
  5
156
100
AcDbEntity
  8
0
370
              -2
390
0
  6
Continuous
 62
               0
100
AcDbHatch
 10
0.0
 20
0.0
 30
0.0
210
0.0
220
0.0
230
1.0
  2
SOLID
 70
               1
 71
               1
 91
        1
 92
        1
 93
        1
 72
               2
 10
454.5828371300185
 20
809.91062638462927
 40
1.9998779296875
 50
0.0
 51
360.0
 73
               0
 97
        1
330
155
 75
               0
 76
               1
 98
        1
 10
0.0
 20
0.0
  0
CIRCLE
  5
157
102
{ACAD_REACTORS
330
158
102
}
100
AcDbEntity
  8
0
370
              -2
390
0
  6
Continuous
 62
               0
100
AcDbCircle
 10
569.58283713001845
 20
809.91062638462927
 30
0.0
 40
1.9998779296875
  0
HATCH
  5
158
100
AcDbEntity
  8
0
370
              -2
390
0
  6
Continuous
 62
               0
100
AcDbHatch
 10
0.0
 20
0.0
 30
0.0
210
0.0
220
0.0
230
1.0
  2
SOLID
 70
               1
 71
               1
 91
        1
 92
        1
 93
        1
 72
               2
 10
569.58283713001845
 20
809.91062638462927
 40
1.9998779296875
 50
0.0
 51
360.0
 73
               0
 97
        1
330
157
 75
               0
 76
               1
 98
        1
 10
0.0
 20
0.0
  0
MTEXT
  5
159
100
AcDbEntity
  8
0
390
0
 62
               0
100
AcDbMText
 10
306.90187742506691
 20
843.78824357212943
 30
0.0
 40
24.432617187500004
 41
0.0
 71
               1
 72
               1
  1
115(深さ)
  7
ＭＳ ゴシック
 73
               1
 44
0.7828267384257843
  0
POINT
  5
15A
100
AcDbEntity
  8
Defpoints
370
               0
390
0
 62
               0
100
AcDbPoint
 10
569.58283713001845
 20
804.65695613119033
 30
0.0
  0
POINT
  5
15B
100
AcDbEntity
  8
Defpoints
370
               0
390
0
 62
               0
100
AcDbPoint
 10
454.5828371300185
 20
804.65760395210714
 30
0.0
  0
POINT
  5
15C
100
AcDbEntity
  8
Defpoints
370
               0
390
0
 62
               0
100
AcDbPoint
 10
454.5828371300185
 20
809.91062638462927
 30
0.0
  0
ENDBLK
  5
15D
100
AcDbEntity
  8
notes
390
0
100
AcDbBlockEnd
  0
BLOCK
  5
15E
100
AcDbEntity
  8
notes
390
0
100
AcDbBlockBegin
  2
*D22
 70
               1
 10
0.0
 20
0.0
 30
0.0
  3
*D22
  1

  0
LINE
  5
15F
100
AcDbEntity
  8
0
370
              -2
390
0
  6
Continuous
 62
               0
100
AcDbLine
 10
454.5828371300185
 20
1009.6569561311901
 30
0.0
 11
454.5828371300185
 21
1089.6569561311903
 31
0.0
  0
LINE
  5
160
100
AcDbEntity
  8
0
370
              -2
390
0
  6
Continuous
 62
               0
100
AcDbLine
 10
549.58283713001867
 20
1009.6569561311901
 30
0.0
 11
549.58283713001867
 21
1089.6569561311903
 31
0.0
  0
LINE
  5
161
100
AcDbEntity
  8
0
370
              -2
390
0
  6
Continuous
 62
               0
100
AcDbLine
 10
454.5828371300185
 20
1089.6569561311903
 30
0.0
 11
549.58283713001867
 21
1089.6569561311903
 31
0.0
  0
CIRCLE
  5
162
102
{ACAD_REACTORS
330
163
102
}
100
AcDbEntity
  8
0
370
              -2
390
0
  6
Continuous
 62
               0
100
AcDbCircle
 10
454.5828371300185
 20
1089.6569561311903
 30
0.0
 40
1.9998779296875
  0
HATCH
  5
163
100
AcDbEntity
  8
0
370
              -2
390
0
  6
Continuous
 62
               0
100
AcDbHatch
 10
0.0
 20
0.0
 30
0.0
210
0.0
220
0.0
230
1.0
  2
SOLID
 70
               1
 71
               1
 91
        1
 92
        1
 93
        1
 72
               2
 10
454.5828371300185
 20
1089.6569561311903
 40
1.9998779296875
 50
0.0
 51
360.0
 73
               0
 97
        1
330
162
 75
               0
 76
               1
 98
        1
 10
0.0
 20
0.0
  0
CIRCLE
  5
164
102
{ACAD_REACTORS
330
165
102
}
100
AcDbEntity
  8
0
370
              -2
390
0
  6
Continuous
 62
               0
100
AcDbCircle
 10
549.58283713001867
 20
1089.6569561311903
 30
0.0
 40
1.9998779296875
  0
HATCH
  5
165
100
AcDbEntity
  8
0
370
              -2
390
0
  6
Continuous
 62
               0
100
AcDbHatch
 10
0.0
 20
0.0
 30
0.0
210
0.0
220
0.0
230
1.0
  2
SOLID
 70
               1
 71
               1
 91
        1
 92
        1
 93
        1
 72
               2
 10
549.58283713001867
 20
1089.6569561311903
 40
1.9998779296875
 50
0.0
 51
360.0
 73
               0
 97
        1
330
164
 75
               0
 76
               1
 98
        1
 10
0.0
 20
0.0
  0
MTEXT
  5
166
100
AcDbEntity
  8
0
390
0
 62
               0
100
AcDbMText
 10
486.20783713001856
 20
1123.5345733186903
 30
0.0
 40
24.432617187500004
 41
0.0
 71
               1
 72
               1
  1
95
  7
ＭＳ ゴシック
 73
               1
 44
0.7828267384257843
  0
POINT
  5
167
100
AcDbEntity
  8
Defpoints
370
               0
390
0
 62
               0
100
AcDbPoint
 10
549.58283713001867
 20
984.6569561311901
 30
0.0
  0
POINT
  5
168
100
AcDbEntity
  8
Defpoints
370
               0
390
0
 62
               0
100
AcDbPoint
 10
454.5828371300185
 20
984.6569561311901
 30
0.0
  0
POINT
  5
169
100
AcDbEntity
  8
Defpoints
370
               0
390
0
 62
               0
100
AcDbPoint
 10
454.5828371300185
 20
1089.6569561311903
 30
0.0
  0
ENDBLK
  5
16A
100
AcDbEntity
  8
notes
390
0
100
AcDbBlockEnd
  0
BLOCK
  5
16B
100
AcDbEntity
  8
notes
390
0
100
AcDbBlockBegin
  2
*D23
 70
               1
 10
0.0
 20
0.0
 30
0.0
  3
*D23
  1

  0
LINE
  5
16C
100
AcDbEntity
  8
0
370
              -2
390
0
  6
Continuous
 62
               0
100
AcDbLine
 10
549.58283713001867
 20
1009.6569561311901
 30
0.0
 11
549.58283713001867
 21
1089.6569561311903
 31
0.0
  0
LINE
  5
16D
100
AcDbEntity
  8
0
370
              -2
390
0
  6
Continuous
 62
               0
100
AcDbLine
 10
604.58283713001856
 20
959.6513900430341
 30
0.0
 11
604.58283713001856
 21
1089.6569561311903
 31
0.0
  0
LINE
  5
16E
100
AcDbEntity
  8
0
370
              -2
390
0
  6
Continuous
 62
               0
100
AcDbLine
 10
549.58283713001867
 20
1089.6569561311903
 30
0.0
 11
604.58283713001856
 21
1089.6569561311903
 31
0.0
  0
CIRCLE
  5
16F
102
{ACAD_REACTORS
330
170
102
}
100
AcDbEntity
  8
0
370
              -2
390
0
  6
Continuous
 62
               0
100
AcDbCircle
 10
549.58283713001867
 20
1089.6569561311903
 30
0.0
 40
1.9998779296875
  0
HATCH
  5
170
100
AcDbEntity
  8
0
370
              -2
390
0
  6
Continuous
 62
               0
100
AcDbHatch
 10
0.0
 20
0.0
 30
0.0
210
0.0
220
0.0
230
1.0
  2
SOLID
 70
               1
 71
               1
 91
        1
 92
        1
 93
        1
 72
               2
 10
549.58283713001867
 20
1089.6569561311903
 40
1.9998779296875
 50
0.0
 51
360.0
 73
               0
 97
        1
330
16F
 75
               0
 76
               1
 98
        1
 10
0.0
 20
0.0
  0
CIRCLE
  5
171
102
{ACAD_REACTORS
330
172
102
}
100
AcDbEntity
  8
0
370
              -2
390
0
  6
Continuous
 62
               0
100
AcDbCircle
 10
604.58283713001856
 20
1089.6569561311903
 30
0.0
 40
1.9998779296875
  0
HATCH
  5
172
100
AcDbEntity
  8
0
370
              -2
390
0
  6
Continuous
 62
               0
100
AcDbHatch
 10
0.0
 20
0.0
 30
0.0
210
0.0
220
0.0
230
1.0
  2
SOLID
 70
               1
 71
               1
 91
        1
 92
        1
 93
        1
 72
               2
 10
604.58283713001856
 20
1089.6569561311903
 40
1.9998779296875
 50
0.0
 51
360.0
 73
               0
 97
        1
330
171
 75
               0
 76
               1
 98
        1
 10
0.0
 20
0.0
  0
MTEXT
  5
173
100
AcDbEntity
  8
0
390
0
 62
               0
100
AcDbMText
 10
561.20783713001856
 20
1123.5345733186903
 30
0.0
 40
24.432617187500004
 41
0.0
 71
               1
 72
               1
  1
55
  7
ＭＳ ゴシック
 73
               1
 44
0.7828267384257843
  0
POINT
  5
174
100
AcDbEntity
  8
Defpoints
370
               0
390
0
 62
               0
100
AcDbPoint
 10
604.58283713001856
 20
934.6513900430341
 30
0.0
  0
POINT
  5
175
100
AcDbEntity
  8
Defpoints
370
               0
390
0
 62
               0
100
AcDbPoint
 10
549.58283713001867
 20
984.6569561311901
 30
0.0
  0
POINT
  5
176
100
AcDbEntity
  8
Defpoints
370
               0
390
0
 62
               0
100
AcDbPoint
 10
549.58283713001867
 20
1089.6569561311903
 30
0.0
  0
ENDBLK
  5
177
100
AcDbEntity
  8
notes
390
0
100
AcDbBlockEnd
  0
BLOCK
  5
178
100
AcDbEntity
  8
notes
390
0
100
AcDbBlockBegin
  2
*D24
 70
               1
 10
0.0
 20
0.0
 30
0.0
  3
*D24
  1

  0
LINE
  5
179
100
AcDbEntity
  8
0
370
              -2
390
0
  6
Continuous
 62
               0
100
AcDbLine
 10
624.84451691123297
 20
669.67067018740681
 30
0.0
 11
719.77687742506691
 21
669.67067018740681
 31
0.0
  0
LINE
  5
17A
100
AcDbEntity
  8
0
370
              -2
390
0
  6
Continuous
 62
               0
100
AcDbLine
 10
624.84451691123331
 20
939.64453771680701
 30
0.0
 11
719.77687742506691
 21
939.64453771680701
 31
0.0
  0
LINE
  5
17B
100
AcDbEntity
  8
0
370
              -2
390
0
  6
Continuous
 62
               0
100
AcDbLine
 10
719.77687742506691
 20
669.67067018740681
 30
0.0
 11
719.77687742506691
 21
939.64453771680701
 31
0.0
  0
CIRCLE
  5
17C
102
{ACAD_REACTORS
330
17D
102
}
100
AcDbEntity
  8
0
370
              -2
390
0
  6
Continuous
 62
               0
100
AcDbCircle
 10
719.77687742506691
 20
669.67067018740681
 30
0.0
 40
1.9998779296875
  0
HATCH
  5
17D
100
AcDbEntity
  8
0
370
              -2
390
0
  6
Continuous
 62
               0
100
AcDbHatch
 10
0.0
 20
0.0
 30
0.0
210
0.0
220
0.0
230
1.0
  2
SOLID
 70
               1
 71
               1
 91
        1
 92
        1
 93
        1
 72
               2
 10
719.77687742506691
 20
669.67067018740681
 40
1.9998779296875
 50
0.0
 51
360.0
 73
               0
 97
        1
330
17C
 75
               0
 76
               1
 98
        1
 10
0.0
 20
0.0
  0
CIRCLE
  5
17E
102
{ACAD_REACTORS
330
17F
102
}
100
AcDbEntity
  8
0
370
              -2
390
0
  6
Continuous
 62
               0
100
AcDbCircle
 10
719.77687742506691
 20
939.64453771680701
 30
0.0
 40
1.9998779296875
  0
HATCH
  5
17F
100
AcDbEntity
  8
0
370
              -2
390
0
  6
Continuous
 62
               0
100
AcDbHatch
 10
0.0
 20
0.0
 30
0.0
210
0.0
220
0.0
230
1.0
  2
SOLID
 70
               1
 71
               1
 91
        1
 92
        1
 93
        1
 72
               2
 10
719.77687742506691
 20
939.64453771680701
 40
1.9998779296875
 50
0.0
 51
360.0
 73
               0
 97
        1
330
17E
 75
               0
 76
               1
 98
        1
 10
0.0
 20
0.0
  0
MTEXT
  5
180
100
AcDbEntity
  8
0
390
0
 62
               0
100
AcDbMText
 10
685.89926023756686
 20
780.84510226993143
 30
0.0
 40
24.432617187500004
 41
0.0
 71
               1
 72
               1
  1
270
  7
ＭＳ ゴシック
 11
0.0
 21
1.0
 31
0.0
 73
               1
 44
0.7828267384257843
  0
POINT
  5
181
100
AcDbEntity
  8
Defpoints
370
               0
390
0
 62
               0
100
AcDbPoint
 10
599.84451691123331
 20
939.64453771680701
 30
0.0
  0
POINT
  5
182
100
AcDbEntity
  8
Defpoints
370
               0
390
0
 62
               0
100
AcDbPoint
 10
599.84451691123297
 20
669.67067018740681
 30
0.0
  0
POINT
  5
183
100
AcDbEntity
  8
Defpoints
370
               0
390
0
 62
               0
100
AcDbPoint
 10
719.77687742506691
 20
669.67067018740681
 30
0.0
  0
ENDBLK
  5
184
100
AcDbEntity
  8
notes
390
0
100
AcDbBlockEnd
  0
BLOCK
  5
185
100
AcDbEntity
  8
notes
390
0
100
AcDbBlockBegin
  2
*D25
 70
               1
 10
0.0
 20
0.0
 30
0.0
  3
*D25
  1

  0
LINE
  5
186
100
AcDbEntity
  8
0
370
              -2
390
0
  6
Continuous
 62
               0
100
AcDbLine
 10
-384.99999999999989
 20
299.58434521110752
 30
0.0
 11
-329.87499999999989
 21
299.58434521110752
 31
0.0
  0
LINE
  5
187
100
AcDbEntity
  8
0
370
              -2
390
0
  6
Continuous
 62
               0
100
AcDbLine
 10
-384.99999999999989
 20
239.62773475157334
 30
0.0
 11
-329.87499999999989
 21
239.62773475157334
 31
0.0
  0
LINE
  5
188
100
AcDbEntity
  8
0
370
              -2
390
0
  6
Continuous
 62
               0
100
AcDbLine
 10
-329.87499999999989
 20
239.62773475157334
 30
0.0
 11
-329.87499999999989
 21
200.53434521110756
 31
0.0
  0
LINE
  5
189
100
AcDbEntity
  8
0
370
              -2
390
0
  6
Continuous
 62
               0
100
AcDbLine
 10
-329.87499999999989
 20
299.58434521110752
 30
0.0
 11
-329.87499999999989
 21
239.62773475157334
 31
0.0
  0
CIRCLE
  5
18A
102
{ACAD_REACTORS
330
18B
102
}
100
AcDbEntity
  8
0
370
              -2
390
0
  6
Continuous
 62
               0
100
AcDbCircle
 10
-329.87499999999989
 20
299.58434521110752
 30
0.0
 40
1.9998779296875
  0
HATCH
  5
18B
100
AcDbEntity
  8
0
370
              -2
390
0
  6
Continuous
 62
               0
100
AcDbHatch
 10
0.0
 20
0.0
 30
0.0
210
0.0
220
0.0
230
1.0
  2
SOLID
 70
               1
 71
               1
 91
        1
 92
        1
 93
        1
 72
               2
 10
-329.87499999999989
 20
299.58434521110752
 40
1.9998779296875
 50
0.0
 51
360.0
 73
               0
 97
        1
330
18A
 75
               0
 76
               1
 98
        1
 10
0.0
 20
0.0
  0
CIRCLE
  5
18C
102
{ACAD_REACTORS
330
18D
102
}
100
AcDbEntity
  8
0
370
              -2
390
0
  6
Continuous
 62
               0
100
AcDbCircle
 10
-329.87499999999989
 20
239.62773475157334
 30
0.0
 40
1.9998779296875
  0
HATCH
  5
18D
100
AcDbEntity
  8
0
370
              -2
390
0
  6
Continuous
 62
               0
100
AcDbHatch
 10
0.0
 20
0.0
 30
0.0
210
0.0
220
0.0
230
1.0
  2
SOLID
 70
               1
 71
               1
 91
        1
 92
        1
 93
        1
 72
               2
 10
-329.87499999999989
 20
239.62773475157334
 40
1.9998779296875
 50
0.0
 51
360.0
 73
               0
 97
        1
330
18C
 75
               0
 76
               1
 98
        1
 10
0.0
 20
0.0
  0
MTEXT
  5
18E
100
AcDbEntity
  8
0
390
0
 62
               0
100
AcDbMText
 10
-363.75261718749982
 20
200.53434521110756
 30
0.0
 40
24.432617187500004
 41
0.0
 71
               1
 72
               1
  1
60
  7
ＭＳ ゴシック
 11
0.0
 21
1.0
 31
0.0
 73
               1
 44
0.7828267384257843
  0
POINT
  5
18F
100
AcDbEntity
  8
Defpoints
370
               0
390
0
 62
               0
100
AcDbPoint
 10
-409.99999999999989
 20
239.62773475157334
 30
0.0
  0
POINT
  5
190
100
AcDbEntity
  8
Defpoints
370
               0
390
0
 62
               0
100
AcDbPoint
 10
-409.99999999999989
 20
299.58434521110752
 30
0.0
  0
POINT
  5
191
100
AcDbEntity
  8
Defpoints
370
               0
390
0
 62
               0
100
AcDbPoint
 10
-329.87499999999989
 20
299.58434521110752
 30
0.0
  0
ENDBLK
  5
192
100
AcDbEntity
  8
notes
390
0
100
AcDbBlockEnd
  0
ENDSEC
  0
SECTION
  2
ENTITIES
  0
MTEXT
  5
193
100
AcDbEntity
  8
template
390
0
 62
               7
100
AcDbMText
 10
-967.99999999975932
 20
-1147.4176292337004
 30
0.0
 40
16.288411458333332
 41
0.0
 71
               1
 72
               1
  1
品名
  7
ＭＳ ゴシック
 73
               1
 44
0.7828267384257843
  0
MTEXT
  5
194
100
AcDbEntity
  8
template
390
0
 62
               7
100
AcDbMText
 10
-967.99999999975932
 20
-1232.4176292337004
 30
0.0
 40
16.288411458333332
 41
0.0
 71
               1
 72
               1
  1
仕様
  7
ＭＳ ゴシック
 73
               1
 44
0.7828267384257843
  0
MTEXT
  5
195
100
AcDbEntity
  8
template
390
0
 62
               7
100
AcDbMText
 10
-914.99999999975932
 20
-1176.0000901712006
 30
0.0
 40
24.432617187500004
 41
0.0
 71
               1
 72
               1
  1
洗面器･手洗器 -CATALANO,Verso-
  7
ＭＳ ゴシック
 73
               1
 44
0.7828267384257843
  0
LINE
  5
196
100
AcDbEntity
  8
template
370
               5
390
0
  6
Continuous
 62
               7
100
AcDbLine
 10
974.99999999975876
 20
-1224.0027073587005
 30
0.0
 11
-975.00000000024136
 21
-1224.0027073587005
 31
0.0
  0
LWPOLYLINE
  5
197
100
AcDbEntity
  8
template
370
               5
390
0
  6
Continuous
 62
               7
100
AcDbPolyline
 90
        5
 70
             128
 10
975.00000000024124
 20
1405.9972926412995
 10
-974.99999999975932
 20
1405.9972926412995
 10
-974.99999999975932
 20
-1394.0027073587005
 10
975.00000000024124
 20
-1394.0027073587005
 10
975.00000000024124
 20
1405.9972926412995
  0
LINE
  5
198
100
AcDbEntity
  8
template
370
               5
390
0
  6
Continuous
 62
               7
100
AcDbLine
 10
974.99999999975876
 20
-1139.0027073587005
 30
0.0
 11
-975.00000000024136
 21
-1139.0027073587005
 31
0.0
  0
LINE
  5
199
100
AcDbEntity
  8
template
370
               5
390
0
  6
Continuous
 62
               7
100
AcDbLine
 10
975.00000000024124
 20
-1309.0027073587005
 30
0.0
 11
222.00000000024124
 21
-1309.0027073587005
 31
0.0
  0
MTEXT
  5
19A
100
AcDbEntity
  8
template
390
0
 62
               7
100
AcDbMText
 10
-974.99999999955605
 20
-1405.8565294155574
 30
0.0
 40
21.717881944444446
 41
0.0
 71
               1
 72
               1
  1
100707SH
  7
ＭＳ ゴシック
 73
               1
 44
0.7828267384257843
  0
MTEXT
  5
19B
100
AcDbEntity
  8
template
390
0
 62
               7
100
AcDbMText
 10
251.87140625250089
 20
-1338.9131018320081
 30
0.0
 40
24.432617187500004
 41
0.0
 71
               1
 72
               1
  1
大洋金物株式会社 ティーフォルム事業部
  7
ＭＳ ゴシック
 73
               1
 44
0.7828267384257843
  0
INSERT
  5
19C
100
AcDbEntity
  8
template
390
0
 62
               7
100
AcDbBlockReference
  2
グループ
 10
735.98072319303412
 20
46.017638917421266
 30
0.0
  0
MTEXT
  5
19D
100
AcDbEntity
  8
template
390
0
 62
               7
100
AcDbMText
 10
784.00000000049999
 20
-1261.0000901712006
 30
0.0
 40
24.432617187500004
 41
0.0
 71
               1
 72
               1
  1
1:10
  7
ＭＳ ゴシック
 73
               1
 44
0.7828267384257843
  0
MTEXT
  5
19E
100
AcDbEntity
  8
template
390
0
 62
               7
100
AcDbMText
 10
731.00000000049999
 20
-1232.4176292337004
 30
0.0
 40
16.288411458333332
 41
0.0
 71
               1
 72
               1
  1
縮尺
  7
ＭＳ ゴシック
 73
               1
 44
0.7828267384257843
  0
LINE
  5
19F
100
AcDbEntity
  8
template
370
               5
390
0
  6
Continuous
 62
               7
100
AcDbLine
 10
724.00000000049999
 20
-1309.0027073587005
 30
0.0
 11
724.00000000049999
 21
-1224.0027073587005
 31
0.0
  0
MTEXT
  5
1A0
100
AcDbEntity
  8
template
390
0
 62
               7
100
AcDbMText
 10
480.00000000049999
 20
-1232.4176292337004
 30
0.0
 40
16.288411458333332
 41
0.0
 71
               1
 72
               1
  1
容量
  7
ＭＳ ゴシック
 73
               1
 44
0.7828267384257843
  0
MTEXT
  5
1A1
100
AcDbEntity
  8
template
390
0
 62
               7
100
AcDbMText
 10
533.00000000049999
 20
-1261.0000901712006
 30
0.0
 40
24.432617187500004
 41
0.0
 71
               1
 72
               1
  1
21.5L
  7
ＭＳ ゴシック
 73
               1
 44
0.7828267384257843
  0
LINE
  5
1A2
100
AcDbEntity
  8
template
370
               5
390
0
  6
Continuous
 62
               7
100
AcDbLine
 10
473.00000000049999
 20
-1309.0027073587005
 30
0.0
 11
473.00000000049999
 21
-1224.0027073587005
 31
0.0
  0
MTEXT
  5
1A3
100
AcDbEntity
  8
template
390
0
 62
               7
100
AcDbMText
 10
229.00000000049999
 20
-1147.4176292337004
 30
0.0
 40
16.288411458333332
 41
0.0
 71
               1
 72
               1
  1
品番
  7
ＭＳ ゴシック
 73
               1
 44
0.7828267384257843
  0
MTEXT
  5
1A4
100
AcDbEntity
  8
template
390
0
 62
               7
100
AcDbMText
 10
229.00000000049999
 20
-1232.4176292337004
 30
0.0
 40
16.288411458333332
 41
0.0
 71
               1
 72
               1
  1
重量
  7
ＭＳ ゴシック
 73
               1
 44
0.7828267384257843
  0
MTEXT
  5
1A5
100
AcDbEntity
  8
template
390
0
 62
               7
100
AcDbMText
 10
282.00000000049999
 20
-1176.0000901712006
 30
0.0
 40
24.432617187500004
 41
0.0
 71
               1
 72
               1
  1
ADF70-0606
  7
ＭＳ ゴシック
 73
               1
 44
0.7828267384257843
  0
MTEXT
  5
1A6
100
AcDbEntity
  8
template
390
0
 62
               7
100
AcDbMText
 10
282.00000000049999
 20
-1261.0000901712006
 30
0.0
 40
24.432617187500004
 41
0.0
 71
               1
 72
               1
  1
26.5kg
  7
ＭＳ ゴシック
 73
               1
 44
0.7828267384257843
  0
LINE
  5
1A7
100
AcDbEntity
  8
template
370
               5
390
0
  6
Continuous
 62
               7
100
AcDbLine
 10
222.00000000049999
 20
-1394.0027073587005
 30
0.0
 11
222.00000000049999
 21
-1139.0027073587005
 31
0.0
  0
MTEXT
  5
1A8
100
AcDbEntity
  8
template
390
0
 62
               7
100
AcDbMText
 10
-914.99999999975887
 20
-1261.0000901712003
 30
0.0
 40
24.432617187500004
 41
0.0
 71
               1
 72
               1
  1
カウンター置き,半埋め込み/オーバーフローなし/\P陶器,背面釉薬あり/ホワイト\P
  7
ＭＳ ゴシック
 73
               1
 44
1.3047112307096407
  0
MTEXT
  5
1A9
100
AcDbEntity
  8
notes
390
0
 62
               7
100
AcDbMText
 10
-19.969593048184606
 20
-844.80272862481365
 30
0.0
 40
24.432617187500004
 41
832.45698205561939
 71
               1
 72
               1
  1
＝φ30もしくはφ35の水栓取付用穴あけ加工を承ります。\P   必要な場合、ご注文の際にご指示ください。
  7
ＭＳ ゴシック
 11
0.0
 21
1.0
 31
0.0
 73
               1
 44
1.0437689845677123
  0
MTEXT
  5
1AA
100
AcDbEntity
  8
notes
390
0
 62
               7
100
AcDbMText
 10
-857.16224993134063
 20
603.6319014182402
 30
0.0
 40
24.432617187500004
 41
0.0
 71
               1
 72
               1
  1
カウンター切込寸法
  7
ＭＳ ゴシック
 11
0.0
 21
1.0
 31
0.0
 73
               1
 44
0.7828267384257843
  0
MTEXT
  5
1AB
100
AcDbEntity
  8
notes
390
0
 62
               7
100
AcDbMText
 10
-779.64940023537054
 20
259.49962298888533
 30
0.0
 40
24.432617187500004
 41
0.0
 71
               1
 72
               1
  1
半埋め込み
  7
ＭＳ ゴシック
 11
0.0
 21
1.0
 31
0.0
 73
               1
 44
0.7828267384257843
  0
MTEXT
  5
1AC
100
AcDbEntity
  8
notes
390
0
 62
               7
100
AcDbMText
 10
-714.64940023537054
 20
289.85232735815708
 30
0.0
 40
24.432617187500004
 41
0.0
 71
               1
 72
               1
  1
カウンター置き
  7
ＭＳ ゴシック
 11
0.0
 21
1.0
 31
0.0
 73
               1
 44
0.7828267384257843
  0
MTEXT
  5
1AD
100
AcDbEntity
  8
notes
390
0
 62
               7
100
AcDbMText
 10
841.28119281027398
 20
-1015.031146947264
 30
0.0
 40
24.432617187500004
 41
0.0
 71
               1
 72
               1
  1
半埋め込み
  7
ＭＳ ゴシック
 11
0.0
 21
1.0
 31
0.0
 73
               1
 44
0.7828267384257843
  0
LINE
  5
1AE
100
AcDbEntity
  8
notes
370
               5
390
0
  6
Continuous
 62
               7
100
AcDbLine
 10
549.58283713001845
 20
-936.53017189851084
 30
0.0
 11
549.58283713001845
 21
-1013.2301718985113
 31
0.0
  0
LINE
  5
1AF
100
AcDbEntity
  8
notes
370
               5
390
0
  6
Continuous
 62
               7
100
AcDbLine
 10
549.58283713001845
 20
-996.98017189851134
 30
0.0
 11
830.77687742506691
 21
-996.98017189851134
 31
0.0
  0
DIMENSION
  5
1B0
100
AcDbEntity
  8
notes
370
               5
390
0
  6
Continuous
 62
               7
100
AcDbDimension
  2
*D4
 10
-174.99999999999989
 20
274.62773475157354
 30
0.0
 11
-174.99999999999989
 21
739.62773475157337
 31
0.0
 71
               5
 72
               1
 41
1.0
 42
0.0
  3
TformSENN
100
AcDbAlignedDimension
 13
-309.99999999999989
 23
1204.6277347515734
 33
0.0
 14
-309.99999999999989
 24
274.62773475157354
 34
0.0
 50
90.0
100
AcDbRotatedDimension
1001
ACAD
1000
DSTYLE
1002
{
1070
             279
1070
               2
1070
             340
1005
3A
1070
             147
1040
5.0
1002
}
  0
DIMENSION
  5
1B1
100
AcDbEntity
  8
notes
370
               5
390
0
  6
Continuous
 62
               7
100
AcDbDimension
  2
*D5
 10
-309.99999999999989
 20
1304.6277347515734
 30
0.0
 11
-459.99999999999989
 21
1304.6277347515734
 31
0.0
 71
               5
 72
               1
 41
1.0
 42
0.0
  3
TformSENN
100
AcDbAlignedDimension
 13
-609.99999999999989
 23
1204.6277347515734
 33
0.0
 14
-309.99999999999989
 24
1204.6277347515734
 34
0.0
100
AcDbRotatedDimension
1001
ACAD
1000
DSTYLE
1002
{
1070
             279
1070
               2
1070
             340
1005
3A
1070
             147
1040
5.0
1002
}
  0
DIMENSION
  5
1B2
100
AcDbEntity
  8
notes
370
               5
390
0
  6
Continuous
 62
               7
100
AcDbDimension
  2
*D6
 10
-609.99999999999989
 20
1304.6277347515734
 30
0.0
 11
-627.50000000000034
 21
1304.6277347515734
 31
0.0
 71
               5
 72
               1
 41
1.0
 42
0.0
  3
TformSENN
100
AcDbAlignedDimension
 13
-645.00000000000057
 23
1234.6277347515734
 33
0.0
 14
-609.99999999999989
 24
1204.6277347515734
 34
0.0
100
AcDbRotatedDimension
1001
ACAD
1000
DSTYLE
1002
{
1070
             279
1070
               2
1070
             340
1005
3A
1070
             147
1040
5.0
1002
}
  0
DIMENSION
  5
1B3
100
AcDbEntity
  8
notes
370
               5
390
0
  6
Continuous
 62
               7
100
AcDbDimension
  2
*D7
 10
-174.99999999999989
 20
53.593653593193523
 30
0.0
 11
-174.99999999999989
 21
-356.40634640680668
 31
0.0
 71
               5
 72
               1
 41
1.0
 42
0.0
  3
TformSENN
100
AcDbAlignedDimension
 13
-274.99999999999989
 23
-766.40634640680696
 33
0.0
 14
-274.99999999999989
 24
53.593653593193523
 34
0.0
 50
90.0
100
AcDbRotatedDimension
1001
ACAD
1000
DSTYLE
1002
{
1070
             279
1070
               2
1070
             340
1005
3A
1070
             147
1040
5.0
1002
}
  0
DIMENSION
  5
1B4
100
AcDbEntity
  8
notes
370
               5
390
0
  6
Continuous
 62
               7
100
AcDbDimension
  2
*D8
 10
-174.99999999999989
 20
-766.40634640680696
 30
0.0
 11
-174.99999999999989
 21
-843.90634640680673
 31
0.0
 71
               5
 72
               1
 41
1.0
 42
0.0
  3
TformSENN
100
AcDbAlignedDimension
 13
-280.0
 23
-921.40634640680651
 33
0.0
 14
-274.99999999999989
 24
-766.40634640680696
 34
0.0
 50
90.0
100
AcDbRotatedDimension
1001
ACAD
1000
DSTYLE
1002
{
1070
             279
1070
               2
1070
             340
1005
3A
1070
             147
1040
5.0
1002
}
  0
DIMENSION
  5
1B5
100
AcDbEntity
  8
notes
370
               5
390
0
  6
Continuous
 62
               7
100
AcDbDimension
  2
*D9
 10
-509.99999999999989
 20
950.08434521110757
 30
0.0
 11
-459.99999999999989
 21
955.08434521110757
 31
0.0
 70
             128
 71
               5
 72
               1
 41
1.0
 42
0.0
  3
TformSENN
100
AcDbAlignedDimension
 13
-409.99999999999989
 23
849.58434521110757
 33
0.0
 14
-509.99999999999989
 24
849.58434521110757
 34
0.0
100
AcDbRotatedDimension
1001
ACAD
1000
DSTYLE
1002
{
1070
             279
1070
               2
1070
             340
1005
3A
1070
             147
1040
5.0
1002
}
  0
DIMENSION
  5
1B6
100
AcDbEntity
  8
notes
370
               5
390
0
  6
Continuous
 62
               7
100
AcDbDimension
  2
*D10
 10
-329.99999999999989
 20
849.58434521110757
 30
0.0
 11
-329.99999999999989
 21
574.58434521110757
 31
0.0
 71
               5
 72
               1
 41
1.0
 42
0.0
  3
TformSENN
100
AcDbAlignedDimension
 13
-409.99999999999989
 23
299.58434521110752
 33
0.0
 14
-409.99999999999989
 24
849.58434521110757
 34
0.0
 50
90.0
100
AcDbRotatedDimension
1001
ACAD
1000
DSTYLE
1002
{
1070
             279
1070
               2
1070
             340
1005
3A
1070
             147
1040
5.0
1002
}
  0
DIMENSION
  5
1B7
100
AcDbEntity
  8
notes
370
               5
390
0
  6
Continuous
 62
               7
100
AcDbDimension
  2
*D11
 10
-509.99999999999989
 20
950.08434521110757
 30
0.0
 11
-577.50000000000034
 21
950.08434521110757
 31
0.0
 71
               5
 72
               1
 41
1.0
 42
0.0
  3
TformSENN
100
AcDbAlignedDimension
 13
-645.00000000000057
 23
850.08434521110757
 33
0.0
 14
-509.99999999999989
 24
850.08434521110757
 34
0.0
100
AcDbRotatedDimension
1001
ACAD
1000
DSTYLE
1002
{
1070
             279
1070
               2
1070
             340
1005
3A
1070
             147
1040
5.0
1002
}
  0
DIMENSION
  5
1B8
100
AcDbEntity
  8
notes
370
               5
390
0
  6
Continuous
 62
               7
100
AcDbDimension
  2
*D12
 10
-174.97312257493309
 20
274.62773475157354
 30
0.0
 11
-169.97312257493309
 21
231.28434521110756
 31
0.0
 70
             128
 71
               5
 72
               1
 41
1.0
 42
0.0
  3
TformSENN
100
AcDbAlignedDimension
 13
-279.99999999999989
 23
239.62773475157334
 33
0.0
 14
-309.99999999999989
 24
274.62773475157354
 34
0.0
 50
90.0
100
AcDbRotatedDimension
1001
ACAD
1000
DSTYLE
1002
{
1070
             279
1070
               2
1070
             340
1005
3A
1070
             174
1070
               0
1070
             147
1040
5.0
1002
}
  0
DIMENSION
  5
1B9
100
AcDbEntity
  8
notes
370
               5
390
0
  6
Continuous
 62
               7
100
AcDbDimension
  2
*D13
 10
699.58283713001845
 20
-356.4348012447021
 30
0.0
 11
699.58283713001845
 21
-636.42057382575422
 31
0.0
 71
               5
 72
               1
 41
1.0
 42
0.0
  3
TformSENN
100
AcDbAlignedDimension
 13
549.58283713001822
 23
-916.40634640680651
 33
0.0
 14
594.58283713001867
 24
-356.4348012447021
 34
0.0
 50
90.0
100
AcDbRotatedDimension
1001
ACAD
1000
DSTYLE
1002
{
1070
             279
1070
               2
1070
             340
1005
3A
1070
             147
1040
5.0
1002
}
  0
LINE
  5
1BA
100
AcDbEntity
  8
notes
370
               5
390
0
  6
Continuous
 62
               7
100
AcDbLine
 10
599.58283713001845
 20
-947.30599027979792
 30
0.0
 11
783.77687742506691
 21
-947.30599027979792
 31
0.0
  0
DIMENSION
  5
1BB
100
AcDbEntity
  8
notes
370
               5
390
0
  6
Continuous
 62
               7
100
AcDbDimension
  2
*D14
 10
749.58283713001845
 20
25.579486829129081
 30
0.0
 11
749.58283713001845
 21
-421.92051317087083
 31
0.0
 71
               5
 72
               1
 41
1.0
 42
0.0
  3
TformSENN
100
AcDbAlignedDimension
 13
596.44339572816943
 23
-869.42051317087089
 33
0.0
 14
596.44339572816943
 24
25.579486829129081
 34
0.0
 50
90.0
100
AcDbRotatedDimension
1001
ACAD
1000
DSTYLE
1002
{
1070
             279
1070
               2
1070
             340
1005
3A
1070
             147
1040
5.0
1002
}
  0
DIMENSION
  5
1BC
100
AcDbEntity
  8
notes
370
               5
390
0
  6
Continuous
 62
               7
100
AcDbDimension
  2
*D15
 10
-744.99999999999989
 20
-921.40634640680651
 30
0.0
 11
-744.99999999999989
 21
-421.40634640680634
 31
0.0
 71
               5
 72
               1
 41
1.0
 42
0.0
  3
TformSENN
100
AcDbAlignedDimension
 13
-639.99999999999989
 23
78.593653593193721
 33
0.0
 14
-639.99999999999989
 24
-921.40634640680651
 34
0.0
 50
90.0
100
AcDbRotatedDimension
1001
ACAD
1000
DSTYLE
1002
{
1070
             279
1070
               2
1070
             340
1005
3A
1070
             147
1040
5.0
1002
}
  0
DIMENSION
  5
1BD
100
AcDbEntity
  8
notes
370
               5
390
0
  6
Continuous
 62
               7
100
AcDbDimension
  2
*D16
 10
-614.99999999999989
 20
178.59365359319352
 30
0.0
 11
-459.99999999999989
 21
178.59365359319352
 31
0.0
 71
               5
 72
               1
 41
1.0
 42
0.0
  3
TformSENN
100
AcDbAlignedDimension
 13
-304.99999999999989
 23
78.593653593193523
 33
0.0
 14
-614.99999999999989
 24
78.593653593193523
 34
0.0
100
AcDbRotatedDimension
1001
ACAD
1000
DSTYLE
1002
{
1070
             279
1070
               2
1070
             340
1005
3A
1070
             147
1040
5.0
1002
}
  0
DIMENSION
  5
1BE
100
AcDbEntity
  8
notes
370
               5
390
0
  6
Continuous
 62
               7
100
AcDbDimension
  2
*D17
 10
-645.00000000000034
 20
-1071.4063464068065
 30
0.0
 11
-460.00000000000011
 21
-1071.4063464068065
 31
0.0
 71
               5
 72
               1
 41
1.0
 42
0.0
  3
TformSENN
100
AcDbAlignedDimension
 13
-275.0
 23
-916.40634640680651
 33
0.0
 14
-645.00000000000034
 24
-916.40634640680651
 34
0.0
100
AcDbRotatedDimension
1001
ACAD
1000
DSTYLE
1002
{
1070
             279
1070
               2
1070
             340
1005
3A
1070
             147
1040
5.0
1002
}
  0
DIMENSION
  5
1BF
100
AcDbEntity
  8
notes
370
               5
390
0
  6
Continuous
 62
               7
100
AcDbDimension
  2
*D18
 10
-644.99999999999989
 20
-1021.4063464068065
 30
0.0
 11
-552.50032391045977
 21
-1021.4063464068065
 31
0.0
 71
               5
 72
               1
 41
1.0
 42
0.0
  3
TformSENN
100
AcDbAlignedDimension
 13
-460.00064782091988
 23
-820.53543820205982
 33
0.0
 14
-644.99999999999989
 24
-916.40634640680651
 34
0.0
100
AcDbRotatedDimension
1001
ACAD
1000
DSTYLE
1002
{
1070
             279
1070
               2
1070
             340
1005
3A
1070
             147
1040
5.0
1002
}
  0
DIMENSION
  5
1C0
100
AcDbEntity
  8
notes
370
               5
390
0
  6
Continuous
 62
               7
100
AcDbDimension
  2
*D19
 10
454.5828371300185
 20
177.72892812238749
 30
0.0
 11
529.58283713001845
 21
177.72892812238749
 31
0.0
 71
               5
 72
               1
 41
1.0
 42
0.0
  3
TformSENN
100
AcDbAlignedDimension
 13
604.58283713001845
 23
25.830998990859968
 33
0.0
 14
454.5828371300185
 24
72.728928122387231
 34
0.0
100
AcDbRotatedDimension
1001
ACAD
1000
DSTYLE
1002
{
1070
             279
1070
               2
1070
             340
1005
3A
1070
             147
1040
5.0
1002
}
  0
DIMENSION
  5
1C1
100
AcDbEntity
  8
notes
370
               5
390
0
  6
Continuous
 62
               7
100
AcDbDimension
  2
*D20
 10
360.5828371300185
 20
-816.40634640680651
 30
0.0
 11
360.5828371300185
 21
-868.90634640680651
 31
0.0
 71
               5
 72
               1
 41
1.0
 42
0.0
  3
TformSENN
100
AcDbAlignedDimension
 13
459.5828371300185
 23
-921.40634640680651
 33
0.0
 14
454.5828371300185
 24
-816.40634640680651
 34
0.0
 50
90.0
100
AcDbRotatedDimension
1001
ACAD
1000
DSTYLE
1002
{
1070
             279
1070
               2
1070
             340
1005
3A
1070
             147
1040
5.0
1002
}
  0
LINE
  5
1C2
100
AcDbEntity
  8
notes
370
               5
390
0
  6
Continuous
 62
               7
100
AcDbLine
 10
599.58283713001845
 20
-886.85599027979765
 30
0.0
 11
599.58283713001845
 21
-963.55599027979792
 31
0.0
  0
CIRCLE
  5
1C3
100
AcDbEntity
  8
notes
370
              15
390
0
  6
STYLE_24
 62
               7
100
AcDbCircle
 10
-8.2945018764818315
 20
-869.34574656919426
 30
0.0
 40
17.5
  0
DIMENSION
  5
1C4
100
AcDbEntity
  8
notes
370
               5
390
0
  6
Continuous
 62
               7
100
AcDbDimension
  2
*D21
 10
454.5828371300185
 20
809.91062638462927
 30
0.0
 11
449.77687742506691
 21
814.91062638462927
 31
0.0
 70
             128
 71
               5
 72
               1
 41
1.0
 42
0.0
  3
TformSENN
100
AcDbAlignedDimension
 13
569.58283713001845
 23
804.65695613119033
 33
0.0
 14
454.5828371300185
 24
804.65760395210714
 34
0.0
100
AcDbRotatedDimension
1001
ACAD
1000
DSTYLE
1002
{
1070
             279
1070
               2
1070
             340
1005
3A
1070
               3
1000
<>(深さ)
1070
             174
1070
               0
1070
             147
1040
5.0
1002
}
  0
DIMENSION
  5
1C5
100
AcDbEntity
  8
notes
370
               5
390
0
  6
Continuous
 62
               7
100
AcDbDimension
  2
*D22
 10
454.5828371300185
 20
1089.6569561311903
 30
0.0
 11
502.08283713001856
 21
1089.6569561311903
 31
0.0
 71
               5
 72
               1
 41
1.0
 42
0.0
  3
TformSENN
100
AcDbAlignedDimension
 13
549.58283713001867
 23
984.6569561311901
 33
0.0
 14
454.5828371300185
 24
984.6569561311901
 34
0.0
100
AcDbRotatedDimension
1001
ACAD
1000
DSTYLE
1002
{
1070
             279
1070
               2
1070
             340
1005
3A
1070
             147
1040
5.0
1002
}
  0
DIMENSION
  5
1C6
100
AcDbEntity
  8
notes
370
               5
390
0
  6
Continuous
 62
               7
100
AcDbDimension
  2
*D23
 10
549.58283713001867
 20
1089.6569561311903
 30
0.0
 11
577.08283713001856
 21
1089.6569561311903
 31
0.0
 71
               5
 72
               1
 41
1.0
 42
0.0
  3
TformSENN
100
AcDbAlignedDimension
 13
604.58283713001856
 23
934.6513900430341
 33
0.0
 14
549.58283713001867
 24
984.6569561311901
 34
0.0
100
AcDbRotatedDimension
1001
ACAD
1000
DSTYLE
1002
{
1070
             279
1070
               2
1070
             340
1005
3A
1070
             147
1040
5.0
1002
}
  0
DIMENSION
  5
1C7
100
AcDbEntity
  8
notes
370
               5
390
0
  6
Continuous
 62
               7
100
AcDbDimension
  2
*D24
 10
719.77687742506691
 20
669.67067018740681
 30
0.0
 11
719.77687742506691
 21
804.65760395210691
 31
0.0
 71
               5
 72
               1
 41
1.0
 42
0.0
  3
TformSENN
100
AcDbAlignedDimension
 13
599.84451691123331
 23
939.64453771680701
 33
0.0
 14
599.84451691123297
 24
669.67067018740681
 34
0.0
 50
90.0
100
AcDbRotatedDimension
1001
ACAD
1000
DSTYLE
1002
{
1070
             279
1070
               2
1070
             340
1005
3A
1070
             147
1040
5.0
1002
}
  0
DIMENSION
  5
1C8
100
AcDbEntity
  8
notes
370
               5
390
0
  6
Continuous
 62
               7
100
AcDbDimension
  2
*D25
 10
-329.87499999999989
 20
299.58434521110752
 30
0.0
 11
-324.87499999999989
 21
232.28434521110756
 31
0.0
 70
             128
 71
               5
 72
               1
 41
1.0
 42
0.0
  3
TformSENN
100
AcDbAlignedDimension
 13
-409.99999999999989
 23
239.62773475157334
 33
0.0
 14
-409.99999999999989
 24
299.58434521110752
 34
0.0
 50
90.0
100
AcDbRotatedDimension
1001
ACAD
1000
DSTYLE
1002
{
1070
             279
1070
               2
1070
             340
1005
3A
1070
             174
1070
               0
1070
             147
1040
5.0
1002
}
  0
LINE
  5
1C9
100
AcDbEntity
  8
notes
370
               5
390
0
  6
Continuous
 62
               7
100
AcDbLine
 10
-609.99999999999989
 20
274.62773475157354
 30
0.0
 11
-742.2231225749332
 21
274.62773475157354
 31
0.0
  0
MTEXT
  5
1CA
100
AcDbEntity
  8
notes
390
0
 62
               7
100
AcDbMText
 10
-113.27180995916672
 20
355.6111831805714
 30
0.0
 40
24.432617187500004
 41
776.43003979881837
 71
               1
 72
               1
  1
※陶器製品には寸法公差があります。\P  洗面器の収め方をご確認の上、必ず現物を合わせて\P  カウンターに切込を行ってください。
  7
ＭＳ ゴシック
 11
0.0
 21
1.0
 31
0.0
 73
               1
 44
1.0437689845677123
  0
LINE
  5
1CB
100
AcDbEntity
  8
notes
370
               5
390
0
  6
Continuous
 62
               7
100
AcDbLine
 10
-509.99999999999989
 20
300.08434521110752
 30
0.0
 11
-680.2231225749332
 21
300.08434521110752
 31
0.0
  0
MTEXT
  5
1CC
100
AcDbEntity
  8
notes
390
0
 62
               7
100
AcDbMText
 10
56.430042399592821
 20
355.6111831805714
 30
0.0
 40
24.432617187500004
 41
0.0
 71
               1
 72
               1
  1
※別売品のブラケットで壁掛け・アンダーカウンター\P  設置することができます\P　壁付用ブラケット:ADF75-0630\P　アンダーカウンタ ー用ブラケット:ADF75-0650
  7
ＭＳ ゴシック
 11
0.0
 21
1.0
 31
0.0
 73
               1
 44
1.1742401076386764
  0
LINE
  5
1CD
100
AcDbEntity
  8
notes
370
              15
390
0
  6
Continuous
 62
               7
100
AcDbLine
 10
549.57548372648091
 20
73.0
 30
0.0
 11
549.5825298143734
 21
-916.82855432539691
 31
0.0
  0
MTEXT
  5
1CE
100
AcDbEntity
  8
notes
390
0
 62
               7
100
AcDbMText
 10
794.66338415978908
 20
-961.03114694726378
 30
0.0
 40
24.432617187500004
 41
0.0
 71
               1
 72
               1
  1
カウンター置き
  7
ＭＳ ゴシック
 11
0.0
 21
1.0
 31
0.0
 73
               1
 44
0.7828267384257843
  0
LINE
  5
1CF
100
AcDbEntity
  8
ADF70-0606
370
              15
390
0
  6
Continuous
 62
               7
100
AcDbLine
 10
459.5828371300185
 20
989.6569561311901
 30
0.0
 11
544.58283713001845
 21
989.6569561311901
 31
0.0
  0
LINE
  5
1D0
100
AcDbEntity
  8
ADF70-0606
370
              15
390
0
  6
Continuous
 62
               7
100
AcDbLine
 10
549.58283713001845
 20
984.6569561311901
 30
0.0
 11
549.58283713001799
 21
624.65695613119033
 31
0.0
  0
LINE
  5
1D1
100
AcDbEntity
  8
ADF70-0606
370
              15
390
0
  6
Continuous
 62
               7
100
AcDbLine
 10
544.58283713001799
 20
619.65695613119033
 30
0.0
 11
459.5828371300185
 21
619.65695613119033
 31
0.0
  0
LINE
  5
1D2
100
AcDbEntity
  8
ADF70-0606
370
              15
390
0
  6
STYLE_24
 62
               7
100
AcDbLine
 10
457.08283713001805
 20
646.26898674073186
 30
0.0
 11
550.05772637484449
 21
699.94806407410761
 31
0.0
  0
LINE
  5
1D3
100
AcDbEntity
  8
ADF70-0606
370
              15
390
0
  6
STYLE_24
 62
               7
100
AcDbLine
 10
457.08283713001822
 20
963.04622116348219
 30
0.0
 11
550.05772637484495
 21
909.36714383010599
 31
0.0
  0
LINE
  5
1D4
100
AcDbEntity
  8
ADF70-0606
370
              15
390
0
  6
STYLE_24
 62
               7
100
AcDbLine
 10
583.58283713001822
 20
782.15760395210714
 30
0.0
 11
594.58283713001845
 21
782.15760395210714
 31
0.0
  0
LINE
  5
1D5
100
AcDbEntity
  8
ADF70-0606
370
              15
390
0
  6
STYLE_24
 62
               7
100
AcDbLine
 10
583.58283713001822
 20
827.15760395210691
 30
0.0
 11
594.58283713001845
 21
827.15760395210691
 31
0.0
  0
LINE
  5
1D6
100
AcDbEntity
  8
ADF70-0606
370
              15
390
0
  6
STYLE_24
 62
               7
100
AcDbLine
 10
583.58283713001822
 20
804.65760395210714
 30
0.0
 11
583.58283713001822
 21
782.15760395210714
 31
0.0
  0
LINE
  5
1D7
100
AcDbEntity
  8
ADF70-0606
370
              15
390
0
  6
STYLE_24
 62
               7
100
AcDbLine
 10
569.58283713001822
 20
843.65760395210691
 30
0.0
 11
569.58283713001822
 21
765.65760395210691
 31
0.0
  0
LINE
  5
1D8
100
AcDbEntity
  8
ADF70-0606
370
              15
390
0
  6
STYLE_24
 62
               7
100
AcDbLine
 10
583.58283713001822
 20
782.15760395210714
 30
0.0
 11
569.58283713001822
 21
765.65760395210714
 31
0.0
  0
LINE
  5
1D9
100
AcDbEntity
  8
ADF70-0606
370
              15
390
0
  6
STYLE_24
 62
               7
100
AcDbLine
 10
583.58283713001822
 20
827.15760395210691
 30
0.0
 11
569.58283713001822
 21
843.65760395210737
 31
0.0
  0
LINE
  5
1DA
100
AcDbEntity
  8
ADF70-0606
370
              15
390
0
  6
STYLE_24
 62
               7
100
AcDbLine
 10
583.58283713001822
 20
804.65760395210714
 30
0.0
 11
583.58283713001822
 21
827.15760395210691
 31
0.0
  0
LINE
  5
1DB
100
AcDbEntity
  8
ADF70-0606
370
              15
390
0
  6
STYLE_24
 62
               7
100
AcDbLine
 10
569.58283713001799
 20
765.65760395210714
 30
0.0
 11
562.27067958457963
 21
717.82114127327281
 31
0.0
  0
LINE
  5
1DC
100
AcDbEntity
  8
ADF70-0606
370
              15
390
0
  6
STYLE_24
 62
               7
100
AcDbLine
 10
569.58283713001867
 20
843.65760395210691
 30
0.0
 11
562.27067958458008
 21
891.49406663094101
 31
0.0
  0
LINE
  5
1DD
100
AcDbEntity
  8
ADF70-0606
370
              15
390
0
  6
Continuous
 62
               7
100
AcDbLine
 10
549.58283713001845
 20
667.29860606345346
 30
0.0
 11
599.84451691123297
 21
669.67067018740681
 31
0.0
  0
LINE
  5
1DE
100
AcDbEntity
  8
ADF70-0606
370
              15
390
0
  6
Continuous
 62
               7
100
AcDbLine
 10
604.58283713001845
 20
804.65760395210714
 30
0.0
 11
604.58283713001822
 21
674.66381786117995
 31
0.0
  0
ARC
  5
1DF
100
AcDbEntity
  8
ADF70-0606
370
              15
390
0
  6
Continuous
 62
               7
100
AcDbCircle
 10
544.58283713001879
 20
984.6569561311901
 30
0.0
 40
5.0
100
AcDbArc
 50
0.0
 51
90.0
  0
LINE
  5
1E0
100
AcDbEntity
  8
ADF70-0606
370
              15
390
0
  6
Continuous
 62
               7
100
AcDbLine
 10
454.5828371300185
 20
984.6569561311901
 30
0.0
 11
454.5828371300185
 21
624.65695613119033
 31
0.0
  0
ARC
  5
1E1
100
AcDbEntity
  8
ADF70-0606
370
              15
390
0
  6
STYLE_24
 62
               7
100
AcDbCircle
 10
459.5828371300185
 20
967.3763481824044
 30
0.0
 40
5.0
100
AcDbArc
 50
180.0
 51
240.00000000000011
  0
ARC
  5
1E2
100
AcDbEntity
  8
ADF70-0606
370
              15
390
0
  6
Continuous
 62
               7
100
AcDbCircle
 10
459.58283713001873
 20
984.6569561311901
 30
0.0
 40
5.0
100
AcDbArc
 50
90.0
 51
180.0
  0
ARC
  5
1E3
100
AcDbEntity
  8
ADF70-0606
370
              15
390
0
  6
STYLE_24
 62
               7
100
AcDbCircle
 10
459.58283713001805
 20
641.93885972180942
 30
0.0
 40
5.000000000000016
100
AcDbArc
 50
119.99999999999989
 51
180.0
  0
ARC
  5
1E4
100
AcDbEntity
  8
ADF70-0606
370
              15
390
0
  6
Continuous
 62
               7
100
AcDbCircle
 10
459.5828371300185
 20
624.65695613119033
 30
0.0
 40
5.0
100
AcDbArc
 50
180.0
 51
270.0
  0
ARC
  5
1E5
100
AcDbEntity
  8
ADF70-0606
370
              15
390
0
  6
Continuous
 62
               7
100
AcDbCircle
 10
599.58283713001833
 20
674.66381786117972
 30
0.0
 40
5.0000000000000364
100
AcDbArc
 50
272.99999999999903
 51
0.0
  0
ARC
  5
1E6
100
AcDbEntity
  8
ADF70-0606
370
              15
390
0
  6
Continuous
 62
               7
100
AcDbCircle
 10
544.58283713001799
 20
624.65695613119033
 30
0.0
 40
5.0
100
AcDbArc
 50
270.0
 51
0.0
  0
LINE
  5
1E7
100
AcDbEntity
  8
ADF70-0606
370
              15
390
0
  6
Continuous
 62
               7
100
AcDbLine
 10
549.58283713001845
 20
942.01660184076059
 30
0.0
 11
599.84451691123331
 21
939.64453771680701
 31
0.0
  0
LINE
  5
1E8
100
AcDbEntity
  8
ADF70-0606
370
              15
390
0
  6
Continuous
 62
               7
100
AcDbLine
 10
604.58283713001845
 20
804.65760395210714
 30
0.0
 11
604.58283713001822
 21
934.6513900430341
 31
0.0
  0
ARC
  5
1E9
100
AcDbEntity
  8
ADF70-0606
370
              15
390
0
  6
Continuous
 62
               7
100
AcDbCircle
 10
599.58283713001856
 20
934.6513900430341
 30
0.0
 40
5.0
100
AcDbArc
 50
0.0
 51
86.999999999999673
  0
ARC
  5
1EA
100
AcDbEntity
  8
ADF70-0606
370
              15
390
0
  6
STYLE_24
 62
               7
100
AcDbCircle
 10
537.55772637484483
 20
721.59869916871867
 30
0.0
 40
25.000000000000082
100
AcDbArc
 50
299.99999999999994
 51
351.30918723280195
  0
ARC
  5
1EB
100
AcDbEntity
  8
ADF70-0606
370
              15
390
0
  6
STYLE_24
 62
               7
100
AcDbCircle
 10
537.55772637484529
 20
887.71650873549493
 30
0.0
 40
25.000000000000103
100
AcDbArc
 50
8.690812767198036
 51
60.000000000000114
  0
LINE
  5
1EC
100
AcDbEntity
  8
ADF70-0606
370
              15
390
0
  6
Continuous
 62
               7
100
AcDbLine
 10
-274.99999999999989
 20
-546.40634640680673
 30
0.0
 11
-274.99999999999932
 21
73.593653593193523
 31
0.0
  0
LINE
  5
1ED
100
AcDbEntity
  8
ADF70-0606
370
              15
390
0
  6
Continuous
 62
               7
100
AcDbLine
 10
-645.00000000000057
 20
73.593653593193523
 30
0.0
 11
-644.99999999999989
 21
-546.40634640680651
 31
0.0
  0
LINE
  5
1EE
100
AcDbEntity
  8
ADF70-0606
370
              15
390
0
  6
Continuous
 62
               7
100
AcDbLine
 10
-274.99999999999989
 20
-546.40634640680651
 30
0.0
 11
-274.99999999999989
 21
-916.40634640680651
 31
0.0
  0
ARC
  5
1EF
100
AcDbEntity
  8
ADF70-0606
370
              15
390
0
  6
Continuous
 62
               7
100
AcDbCircle
 10
-280.00000000000011
 20
-916.40634640680651
 30
0.0
 40
5.0
100
AcDbArc
 50
270.0
 51
0.0
  0
LINE
  5
1F0
100
AcDbEntity
  8
ADF70-0606
370
              15
390
0
  6
Continuous
 62
               7
100
AcDbLine
 10
-279.99999999999989
 20
-921.40634640680651
 30
0.0
 11
-639.99999999999989
 21
-921.40634640680651
 31
0.0
  0
ARC
  5
1F1
100
AcDbEntity
  8
ADF70-0606
370
              15
390
0
  6
Continuous
 62
               7
100
AcDbCircle
 10
-640.00000000000034
 20
-916.40634640680651
 30
0.0
 40
5.0
100
AcDbArc
 50
180.0
 51
270.0
  0
LINE
  5
1F2
100
AcDbEntity
  8
ADF70-0606
370
              15
390
0
  6
Continuous
 62
               7
100
AcDbLine
 10
-644.99999999999989
 20
-916.40634640680651
 30
0.0
 11
-644.99999999999989
 21
-546.40634640680651
 31
0.0
  0
LINE
  5
1F3
100
AcDbEntity
  8
ADF70-0606
370
              15
390
0
  6
Continuous
 62
               7
100
AcDbLine
 10
-279.99999999999932
 20
78.593653593193523
 30
0.0
 11
-640.00000000000034
 21
78.593653593193523
 31
0.0
  0
ARC
  5
1F4
100
AcDbEntity
  8
ADF70-0606
370
              15
390
0
  6
Continuous
 62
               7
100
AcDbCircle
 10
-279.9999999999992
 20
73.593653593193636
 30
0.0
 40
5.0
100
AcDbArc
 50
0.0
 51
90.0
  0
ARC
  5
1F5
100
AcDbEntity
  8
ADF70-0606
370
              15
390
0
  6
Continuous
 62
               7
100
AcDbCircle
 10
-640.00000000000034
 20
73.59365359319375
 30
0.0
 40
5.0
100
AcDbArc
 50
90.0
 51
180.0
  0
LINE
  5
1F6
100
AcDbEntity
  8
ADF70-0606
370
              15
390
0
  6
STYLE_24
 62
               7
100
AcDbLine
 10
583.58283713001867
 20
-334.0
 30
0.0
 11
583.58283713001867
 21
-378.93480124470187
 31
0.0
  0
LINE
  5
1F7
100
AcDbEntity
  8
ADF70-0606
370
              15
390
0
  6
STYLE_24
 62
               7
100
AcDbLine
 10
569.58283713001867
 20
-395.43480124470187
 30
0.0
 11
569.58283713001867
 21
-317.43480124470165
 31
0.0
  0
LINE
  5
1F8
100
AcDbEntity
  8
ADF70-0606
370
              15
390
0
  6
STYLE_24
 62
               7
100
AcDbLine
 10
583.58283713001867
 20
-378.93480124470187
 30
0.0
 11
569.58283713001867
 21
-395.43480124470233
 31
0.0
  0
LINE
  5
1F9
100
AcDbEntity
  8
ADF70-0606
370
              15
390
0
  6
STYLE_24
 62
               7
100
AcDbLine
 10
583.58283713001867
 20
-378.93480124470187
 30
0.0
 11
594.58283713001867
 21
-378.93480124470187
 31
0.0
  0
LINE
  5
1FA
100
AcDbEntity
  8
ADF70-0606
370
              15
390
0
  6
Continuous
 62
               7
100
AcDbLine
 10
459.5828371300185
 20
-921.40634640680651
 30
0.0
 11
544.58283713001845
 21
-921.40634640680651
 31
0.0
  0
LINE
  5
1FB
100
AcDbEntity
  8
ADF70-0606
370
              15
390
0
  6
Continuous
 62
               7
100
AcDbLine
 10
552.87562679569885
 20
-873.85416757883672
 30
0.0
 11
602.68750904250408
 21
-871.50567634478853
 31
0.0
  0
LWPOLYLINE
  5
1FC
100
AcDbEntity
  8
ADF70-0606
370
              15
390
0
  6
STYLE_24
 62
               7
100
AcDbPolyline
 90
        5
 70
             128
 10
569.58283713001867
 20
-395.43480124470187
 10
553.83004714638616
 20
-696.01594013548242
 42
-0.2539676464749424
 10
541.36430877752184
 20
-716.35817632402018
 10
457.0828371300185
 20
-765.01810666740425
 42
0.2679491924311114
 10
454.58283713001822
 20
-769.34823368632647
 42
0.2679491924311114
  0
LINE
  5
1FD
100
AcDbEntity
  8
ADF70-0606
370
              15
390
0
  6
Continuous
 62
               7
100
AcDbLine
 10
604.58283713001845
 20
25.830998990859968
 30
0.0
 11
604.58283713001845
 21
-869.50841727527927
 31
0.0
  0
ARC
  5
1FE
100
AcDbEntity
  8
ADF70-0606
370
              15
390
0
  6
Continuous
 62
               7
100
AcDbCircle
 10
459.58283713001822
 20
-916.40634640680651
 30
0.0
 40
5.0
100
AcDbArc
 50
180.0
 51
270.0
  0
LINE
  5
1FF
100
AcDbEntity
  8
ADF70-0606
370
              15
390
0
  6
Continuous
 62
               7
100
AcDbLine
 10
454.5828371300185
 20
55.755166194963778
 30
0.0
 11
454.5828371300185
 21
-769.34823368632647
 31
0.0
  0
LINE
  5
200
100
AcDbEntity
  8
ADF70-0606
370
              15
390
0
  6
Continuous
 62
               7
100
AcDbLine
 10
454.5828371300185
 20
-769.34823368632647
 30
0.0
 11
454.58283713001822
 21
-916.40634640680651
 31
0.0
  0
LINE
  5
201
100
AcDbEntity
  8
ADF70-0606
370
              15
390
0
  6
STYLE_24
 62
               7
100
AcDbLine
 10
594.58283713001867
 20
-378.93480124470187
 30
0.0
 11
594.58283713001867
 21
-333.93480124470233
 31
0.0
  0
ARC
  5
202
100
AcDbEntity
  8
ADF70-0606
370
              15
390
0
  6
Continuous
 62
               7
100
AcDbCircle
 10
544.58283713001822
 20
-916.40634640680651
 30
0.0
 40
5.0
100
AcDbArc
 50
270.0
 51
0.0
  0
ARC
  5
203
100
AcDbEntity
  8
ADF70-0606
370
              15
390
0
  6
Continuous
 62
               7
100
AcDbCircle
 10
553.08497062067033
 20
-877.84868571785478
 30
0.0
 40
3.9999999999997682
100
AcDbArc
 50
93.00000000000253
 51
150.5311001977324
  0
ARC
  5
204
100
AcDbEntity
  8
ADF70-0606
370
              15
390
0
  6
Continuous
 62
               7
100
AcDbCircle
 10
602.58283713001822
 20
-869.50841727527927
 30
0.0
 40
2.0000000000001052
100
AcDbArc
 50
272.99999999999898
 51
0.0
  0
LINE
  5
205
100
AcDbEntity
  8
ADF70-0606
370
              15
390
0
  6
STYLE_24
 62
               7
100
AcDbLine
 10
583.58283713001867
 20
-333.93480124470233
 30
0.0
 11
569.58283713001867
 21
-317.43480124470187
 31
0.0
  0
LINE
  5
206
100
AcDbEntity
  8
ADF70-0606
370
              15
390
0
  6
STYLE_24
 62
               7
100
AcDbLine
 10
583.58283713001867
 20
-333.93480124470233
 30
0.0
 11
594.58283713001867
 21
-333.93480124470233
 31
0.0
  0
LWPOLYLINE
  5
207
100
AcDbEntity
  8
ADF70-0606
370
              15
390
0
  6
STYLE_24
 62
               7
100
AcDbPolyline
 90
        5
 70
             128
 10
569.58283713001867
 20
-317.43480124470187
 10
553.86914536042707
 20
-17.599700720281533
 42
0.2539676464749442
 10
541.40340699156275
 20
2.7425354682558662
 10
457.0828371300185
 20
51.425039176041466
 42
-0.2679491924311229
 10
454.5828371300185
 20
55.755166194963664
 42
-0.2679491924311229
  0
LINE
  5
208
100
AcDbEntity
  8
ADF70-0606
370
              15
390
0
  6
Continuous
 62
               7
100
AcDbLine
 10
459.5828371300185
 20
77.728928122387316
 30
0.0
 11
544.58283713001845
 21
77.728928122387316
 31
0.0
  0
LINE
  5
209
100
AcDbEntity
  8
ADF70-0606
370
              15
390
0
  6
Continuous
 62
               7
100
AcDbLine
 10
552.87562679569885
 20
30.176749294417533
 30
0.0
 11
602.68750904250453
 21
27.828258060369105
 31
0.0
  0
ARC
  5
20A
100
AcDbEntity
  8
ADF70-0606
370
              15
390
0
  6
Continuous
 62
               7
100
AcDbCircle
 10
459.5828371300185
 20
72.728928122387202
 30
0.0
 40
5.0
100
AcDbArc
 50
90.0
 51
180.0
  0
ARC
  5
20B
100
AcDbEntity
  8
ADF70-0606
370
              15
390
0
  6
Continuous
 62
               7
100
AcDbCircle
 10
544.58283713001845
 20
72.728928122387202
 30
0.0
 40
5.0
100
AcDbArc
 50
0.0
 51
90.0
  0
ARC
  5
20C
100
AcDbEntity
  8
ADF70-0606
370
              15
390
0
  6
Continuous
 62
               7
100
AcDbCircle
 10
553.08497062067056
 20
34.171267433435702
 30
0.0
 40
4.0000000000000391
100
AcDbArc
 50
208.49751504412279
 51
267.00000000000097
  0
ARC
  5
20D
100
AcDbEntity
  8
ADF70-0606
370
              15
390
0
  6
Continuous
 62
               7
100
AcDbCircle
 10
602.58283713001845
 20
25.830998990859968
 30
0.0
 40
2.0
100
AcDbArc
 50
0.0
 51
86.999999999994373
  0
LINE
  5
20E
100
AcDbEntity
  8
ADF70-0606
370
              15
390
0
  6
Continuous
 62
               7
100
AcDbLine
 10
454.5828371300185
 20
55.755166194963778
 30
0.0
 11
454.5828371300185
 21
72.728928122387316
 31
0.0
  0
ARC
  5
20F
100
AcDbEntity
  8
ADF70-0606
370
               5
390
0
  6
STYLE_24
 62
               7
100
AcDbCircle
 10
-459.99999999999989
 20
804.59927991367795
 30
0.0
 40
22.5
100
AcDbArc
 50
180.0
 51
0.0
  0
LINE
  5
210
100
AcDbEntity
  8
ADF70-0606
370
               5
390
0
  6
STYLE_24
 62
               7
100
AcDbLine
 10
-274.99999999999989
 20
614.62773475157337
 30
0.0
 11
-274.99999999999932
 21
1234.6277347515734
 31
0.0
  0
LINE
  5
211
100
AcDbEntity
  8
ADF70-0606
370
               5
390
0
  6
STYLE_24
 62
               7
100
AcDbLine
 10
-645.00000000000057
 20
1234.6277347515734
 30
0.0
 11
-644.99999999999989
 21
614.6277347515736
 31
0.0
  0
LINE
  5
212
100
AcDbEntity
  8
ADF70-0606
370
               5
390
0
  6
STYLE_24
 62
               7
100
AcDbLine
 10
-274.99999999999989
 20
614.6277347515736
 30
0.0
 11
-274.99999999999989
 21
244.62773475157331
 31
0.0
  0
ARC
  5
213
100
AcDbEntity
  8
ADF70-0606
370
               5
390
0
  6
STYLE_24
 62
               7
100
AcDbCircle
 10
-279.99999999999989
 20
244.62773475157343
 30
0.0
 40
4.9999999999999716
100
AcDbArc
 50
270.0
 51
0.0
  0
LINE
  5
214
100
AcDbEntity
  8
ADF70-0606
370
               5
390
0
  6
STYLE_24
 62
               7
100
AcDbLine
 10
-279.99999999999989
 20
239.62773475157334
 30
0.0
 11
-639.99999999999989
 21
239.62773475157357
 31
0.0
  0
ARC
  5
215
100
AcDbEntity
  8
ADF70-0606
370
               5
390
0
  6
STYLE_24
 62
               7
100
AcDbCircle
 10
-639.99999999999989
 20
244.62773475157371
 30
0.0
 40
5.0
100
AcDbArc
 50
180.0
 51
270.0
  0
LINE
  5
216
100
AcDbEntity
  8
ADF70-0606
370
               5
390
0
  6
STYLE_24
 62
               7
100
AcDbLine
 10
-644.99999999999989
 20
244.62773475157354
 30
0.0
 11
-644.99999999999989
 21
614.6277347515736
 31
0.0
  0
LINE
  5
217
100
AcDbEntity
  8
ADF70-0606
370
               5
390
0
  6
STYLE_24
 62
               7
100
AcDbLine
 10
-279.99999999999932
 20
1239.6277347515734
 30
0.0
 11
-640.00000000000034
 21
1239.6277347515734
 31
0.0
  0
ARC
  5
218
100
AcDbEntity
  8
ADF70-0606
370
               5
390
0
  6
STYLE_24
 62
               7
100
AcDbCircle
 10
-279.99999999999898
 20
1234.6277347515734
 30
0.0
 40
5.0
100
AcDbArc
 50
0.0
 51
90.0
  0
ARC
  5
219
100
AcDbEntity
  8
ADF70-0606
370
               5
390
0
  6
STYLE_24
 62
               7
100
AcDbCircle
 10
-639.99999999999989
 20
1234.6277347515734
 30
0.0
 40
5.0
100
AcDbArc
 50
90.0
 51
180.0
  0
LINE
  5
21A
100
AcDbEntity
  8
ADF70-0606
370
              15
390
0
  6
Continuous
 62
               7
100
AcDbLine
 10
-309.99999999999989
 20
274.62773475157354
 30
0.0
 11
-309.99999999999989
 21
1204.6277347515734
 31
0.0
  0
LINE
  5
21B
100
AcDbEntity
  8
ADF70-0606
370
              15
390
0
  6
Continuous
 62
               7
100
AcDbLine
 10
-309.99999999999989
 20
1204.6277347515734
 30
0.0
 11
-609.99999999999989
 21
1204.6277347515734
 31
0.0
  0
LINE
  5
21C
100
AcDbEntity
  8
ADF70-0606
370
              15
390
0
  6
Continuous
 62
               7
100
AcDbLine
 10
-609.99999999999989
 20
1204.6277347515734
 30
0.0
 11
-609.99999999999989
 21
274.62773475157354
 31
0.0
  0
LINE
  5
21D
100
AcDbEntity
  8
ADF70-0606
370
              15
390
0
  6
Continuous
 62
               7
100
AcDbLine
 10
-609.99999999999989
 20
274.62773475157354
 30
0.0
 11
-309.99999999999989
 21
274.62773475157354
 31
0.0
  0
ARC
  5
21E
100
AcDbEntity
  8
ADF70-0606
370
              15
390
0
  6
Continuous
 62
               7
100
AcDbCircle
 10
-459.99999999999989
 20
-356.4348012447021
 30
0.0
 40
22.5
100
AcDbArc
 50
0.0
 51
180.0
  0
ARC
  5
21F
100
AcDbEntity
  8
ADF70-0606
370
              15
390
0
  6
Continuous
 62
               7
100
AcDbCircle
 10
-459.99999999999989
 20
-356.4348012447021
 30
0.0
 40
39.0
100
AcDbArc
 50
0.0
 51
180.0
  0
LINE
  5
220
100
AcDbEntity
  8
ADF70-0606
370
              15
390
0
  6
Continuous
 62
               7
100
AcDbLine
 10
-385.14088525904242
 20
-26.866679231756564
 30
0.0
 11
-534.86041038279643
 21
-26.866679231756564
 31
0.0
  0
ARC
  5
221
100
AcDbEntity
  8
ADF70-0606
370
              15
390
0
  6
Continuous
 62
               7
100
AcDbCircle
 10
-534.86041038279643
 20
-31.866679231756507
 30
0.0
 40
5.0
100
AcDbArc
 50
90.0
 51
180.0
  0
ARC
  5
222
100
AcDbEntity
  8
ADF70-0606
370
              15
390
0
  6
Continuous
 62
               7
100
AcDbCircle
 10
-385.14088525904242
 20
-31.866679231756507
 30
0.0
 40
5.0
100
AcDbArc
 50
0.0
 51
90.0
  0
ARC
  5
223
100
AcDbEntity
  8
ADF70-0606
370
              15
390
0
  6
Continuous
 62
               7
100
AcDbCircle
 10
-459.99999999999989
 20
-356.4348012447021
 30
0.0
 40
39.0
100
AcDbArc
 50
180.0
 51
0.0
  0
ARC
  5
224
100
AcDbEntity
  8
ADF70-0606
370
              15
390
0
  6
Continuous
 62
               7
100
AcDbCircle
 10
-459.99999999999989
 20
-356.4348012447021
 30
0.0
 40
22.5
100
AcDbArc
 50
180.0
 51
0.0
  0
LINE
  5
225
100
AcDbEntity
  8
ADF70-0606
370
              15
390
0
  6
Continuous
 62
               7
100
AcDbLine
 10
-380.14088525904242
 20
-681.0598324717887
 30
0.0
 11
-380.14088525904242
 21
-31.866679231756564
 31
0.0
  0
LINE
  5
226
100
AcDbEntity
  8
ADF70-0606
370
              15
390
0
  6
Continuous
 62
               7
100
AcDbLine
 10
-539.85911474095735
 20
-680.9460135818565
 30
0.0
 11
-539.86041038279643
 21
-31.866679231756564
 31
0.0
  0
ARC
  5
227
100
AcDbEntity
  8
ADF70-0606
370
              15
390
0
  6
Continuous
 62
               7
100
AcDbCircle
 10
-304.99999999999989
 20
48.593653593193551
 30
0.0
 40
5.0
100
AcDbArc
 50
0.0
 51
90.0
  0
LINE
  5
228
100
AcDbEntity
  8
ADF70-0606
370
              15
390
0
  6
Continuous
 62
               7
100
AcDbLine
 10
-304.99999999999989
 20
53.593653593193523
 30
0.0
 11
-614.99999999999989
 21
53.593653593193523
 31
0.0
  0
ARC
  5
229
100
AcDbEntity
  8
ADF70-0606
370
              15
390
0
  6
Continuous
 62
               7
100
AcDbCircle
 10
-614.99999999999989
 20
48.593653593193579
 30
0.0
 40
5.0
100
AcDbArc
 50
90.0
 51
180.0
  0
LINE
  5
22A
100
AcDbEntity
  8
ADF70-0606
370
              15
390
0
  6
Continuous
 62
               7
100
AcDbLine
 10
-299.99999999999989
 20
48.593653593193523
 30
0.0
 11
-299.99999999999989
 21
-761.40634640680696
 31
0.0
  0
LINE
  5
22B
100
AcDbEntity
  8
ADF70-0606
370
              15
390
0
  6
Continuous
 62
               7
100
AcDbLine
 10
-619.99999999999989
 20
-761.40634640680651
 30
0.0
 11
-619.99999999999989
 21
48.593653593193523
 31
0.0
  0
LINE
  5
22C
100
AcDbEntity
  8
ADF70-0606
370
              15
390
0
  6
Continuous
 62
               7
100
AcDbLine
 10
-304.99999999999989
 20
-766.40634640680696
 30
0.0
 11
-614.99999999999989
 21
-766.40634640680651
 31
0.0
  0
LINE
  5
22D
100
AcDbEntity
  8
ADF70-0606
370
              15
390
0
  6
Continuous
 62
               7
100
AcDbLine
 10
-385.13958961720311
 20
-685.9460135818565
 30
0.0
 11
-534.85911474095735
 21
-685.9460135818565
 31
0.0
  0
ARC
  5
22E
100
AcDbEntity
  8
ADF70-0606
370
              15
390
0
  6
Continuous
 62
               7
100
AcDbCircle
 10
-385.13958961720311
 20
-680.9460135818565
 30
0.0
 40
5.0
100
AcDbArc
 50
270.0
 51
0.0
  0
ARC
  5
22F
100
AcDbEntity
  8
ADF70-0606
370
              15
390
0
  6
Continuous
 62
               7
100
AcDbCircle
 10
-534.85911474095735
 20
-680.9460135818565
 30
0.0
 40
5.0
100
AcDbArc
 50
180.0
 51
270.0
  0
ARC
  5
230
100
AcDbEntity
  8
ADF70-0606
370
              15
390
0
  6
Continuous
 62
               7
100
AcDbCircle
 10
-614.99999999999989
 20
-761.40634640680651
 30
0.0
 40
5.0
100
AcDbArc
 50
180.0
 51
270.0
  0
ARC
  5
231
100
AcDbEntity
  8
ADF70-0606
370
              15
390
0
  6
Continuous
 62
               7
100
AcDbCircle
 10
-304.99999999999989
 20
-761.40634640680696
 30
0.0
 40
5.0
100
AcDbArc
 50
270.0
 51
0.0
  0
LINE
  5
232
100
AcDbEntity
  8
ADF70-0606
370
              15
390
0
  6
Continuous
 62
               7
100
AcDbLine
 10
-304.99999999999989
 20
-761.40634640680696
 30
0.0
 11
-378.07723925247512
 21
-688.02313082039586
 31
0.0
  0
LINE
  5
233
100
AcDbEntity
  8
ADF70-0606
370
              15
390
0
  6
Continuous
 62
               7
100
AcDbLine
 10
-614.99999999999989
 20
-761.39225350407901
 30
0.0
 11
-541.92323827672283
 21
-688.0242023399453
 31
0.0
  0
LINE
  5
234
100
AcDbEntity
  8
ADF70-0606
370
              15
390
0
  6
Continuous
 62
               7
100
AcDbLine
 10
-304.99999999999989
 20
48.593653593193523
 30
0.0
 11
-378.07723925247512
 21
-24.789561993217205
 31
0.0
  0
LINE
  5
235
100
AcDbEntity
  8
ADF70-0606
370
              15
390
0
  6
Continuous
 62
               7
100
AcDbLine
 10
-614.99999999999989
 20
48.579560690466025
 30
0.0
 11
-541.9232382767226
 21
-24.788490473667764
 31
0.0
  0
CIRCLE
  5
236
100
AcDbEntity
  8
ADF70-0606
370
              15
390
0
  6
STYLE_24
 62
               7
100
AcDbCircle
 10
-460.00064782091965
 20
-816.40634640680651
 30
0.0
 40
17.5
  0
POLYLINE
  5
237
100
AcDbEntity
  8
ADF70-0606
370
              15
390
0
  6
Continuous
 62
               7
100
AcDb2dPolyline
 66
               1
 10
0.0
 20
0.0
 30
0.0
 70
               1
 75
               5
  0
VERTEX
  5
238
100
AcDbEntity
  8
ADF70-0606
370
              15
390
0
  6
Continuous
 62
               7
100
AcDbVertex
100
AcDb2dVertex
 10
-509.99999999999989
 20
849.58434521110757
 30
0.0
  0
VERTEX
  5
239
100
AcDbEntity
  8
ADF70-0606
370
              15
390
0
  6
Continuous
 62
               7
100
AcDbVertex
100
AcDb2dVertex
 10
-409.99999999999989
 20
849.58434521110757
 30
0.0
  0
VERTEX
  5
23A
100
AcDbEntity
  8
ADF70-0606
370
              15
390
0
  6
Continuous
 62
               7
100
AcDbVertex
100
AcDb2dVertex
 10
-409.99999999999989
 20
299.58434521110752
 30
0.0
  0
VERTEX
  5
23B
100
AcDbEntity
  8
ADF70-0606
370
              15
390
0
  6
Continuous
 62
               7
100
AcDbVertex
100
AcDb2dVertex
 10
-509.99999999999989
 20
299.58434521110752
 30
0.0
  0
SEQEND
  5
23C
100
AcDbEntity
  8
ADF70-0606
370
              15
390
0
  6
Continuous
 62
               7
  0
ARC
  5
23D
100
AcDbEntity
  8
ADF70-0606
370
               5
390
0
  6
STYLE_24
 62
               7
100
AcDbCircle
 10
-459.99999999999989
 20
804.59927991367795
 30
0.0
 40
22.5
100
AcDbArc
 50
0.0
 51
180.0
  0
CIRCLE
  5
23E
100
AcDbEntity
  8
ADF70-0606
370
               5
390
0
  6
STYLE_24
 62
               7
100
AcDbCircle
 10
-460.00064782091943
 20
344.62773475157343
 30
0.0
 40
17.499999999999886
  0
LINE
  5
23F
100
AcDbEntity
  8
ADF70-0606
370
               5
390
0
  6
Continuous
 62
               7
100
AcDbLine
 10
454.5828371300185
 20
-798.90634640680651
 30
0.0
 11
469.5828371300185
 21
-798.90634640680651
 31
0.0
  0
LINE
  5
240
100
AcDbEntity
  8
ADF70-0606
370
               5
390
0
  6
Continuous
 62
               7
100
AcDbLine
 10
454.5828371300185
 20
-833.90634640680651
 30
0.0
 11
469.5828371300185
 21
-833.90634640680651
 31
0.0
  0
LINE
  5
241
100
AcDbEntity
  8
ADF70-0606
370
              15
390
0
  6
STYLE_24
 62
               7
100
AcDbLine
 10
594.58283713001867
 20
782.50000000000023
 30
0.0
 11
594.58283713001867
 21
827.49999999999977
 31
0.0
  0
ENDSEC
  0
SECTION
  2
OBJECTS
  0
DICTIONARY
  5
19
100
AcDbDictionary
280
               0
281
               1
  3
ACAD_GROUP
350
1A
  3
ACAD_MLINESTYLE
350
1B
  3
ACAD_LAYOUT
350
1E
  3
ACAD_PLOTSETTINGS
350
22
  3
ACAD_PLOTSTYLENAME
350
1F
  0
DICTIONARY
  5
1A
102
{ACAD_REACTORS
330
19
102
}
100
AcDbDictionary
280
               0
281
               1
  0
DICTIONARY
  5
1B
102
{ACAD_REACTORS
330
19
102
}
100
AcDbDictionary
280
               0
281
               1
  3
Standard
350
1C
  0
MLINESTYLE
  5
1C
102
{ACAD_REACTORS
330
1B
102
}
100
AcDbMlineStyle
  2
Standard
 70
               0
  3

 62
               0
 51
90.0
 52
90.0
 71
               2
 49
0.5
 62
             256
  6
ByLayer
 49
-0.5
 62
             256
  6
ByLayer
  0
ACDBDICTIONARYWDFLT
  5
1F
102
{ACAD_REACTORS
330
19
102
}
100
AcDbDictionary
281
               1
  3
Normal
350
1D
100
AcDbDictionaryWithDefault
340
1D
  0
ACDBPLACEHOLDER
  5
1D
102
{ACAD_REACTORS
330
1F
102
}
  0
LAYOUT
  5
20
102
{ACAD_REACTORS
330
1E
102
}
100
AcDbPlotSettings
  1

  2

  4

  6

 40
0.0
 41
0.0
 42
0.0
 43
0.0
 44
0.0
 45
0.0
 46
0.0
 47
0.0
 48
0.0
 49
0.0
140
0.0
141
0.0
142
1.0
143
1.0
 70
            1024
 72
               0
 73
               0
 74
               0
  7

 75
               0
147
1.0
148
0.0
149
0.0
100
AcDbLayout
  1
Model
 70
               0
 71
               0
 10
0.0
 20
0.0
 11
0.0
 21
0.0
 12
0.0
 22
0.0
 32
0.0
 14
0.0
 24
0.0
 34
0.0
 15
0.0
 25
0.0
 35
0.0
146
0.0
 13
0.0
 23
0.0
 33
0.0
 16
0.0
 26
0.0
 36
0.0
 17
0.0
 27
0.0
 37
0.0
 76
               0
330
A
331
0
345
0
346
0
  0
LAYOUT
  5
21
102
{ACAD_REACTORS
330
1E
102
}
100
AcDbPlotSettings
  1

  2

  4

  6

 40
0.0
 41
0.0
 42
0.0
 43
0.0
 44
0.0
 45
0.0
 46
0.0
 47
0.0
 48
0.0
 49
0.0
140
0.0
141
0.0
142
1.0
143
1.0
 70
               0
 72
               0
 73
               0
 74
               0
  7

 75
               0
147
1.0
148
0.0
149
0.0
100
AcDbLayout
  1
Layout1
 70
               0
 71
               0
 10
0.0
 20
0.0
 11
0.0
 21
0.0
 12
0.0
 22
0.0
 32
0.0
 14
0.0
 24
0.0
 34
0.0
 15
0.0
 25
0.0
 35
0.0
146
0.0
 13
0.0
 23
0.0
 33
0.0
 16
0.0
 26
0.0
 36
0.0
 17
0.0
 27
0.0
 37
0.0
 76
               0
330
B
331
0
345
0
346
0
  0
DICTIONARY
  5
1E
102
{ACAD_REACTORS
330
19
102
}
100
AcDbDictionary
280
               0
281
               1
  3
Layout1
350
21
  3
Model
350
20
  0
DICTIONARY
  5
22
102
{ACAD_REACTORS
330
19
102
}
100
AcDbDictionary
280
               0
281
               1
  0
ENDSEC
  0
EOF
