  0
SECTION
  2
HEADER
  9
$ACADVER
  1
AC1015
  9
$ACADMAINTVER
 70
               6
  9
$DWGCODEPAGE
  3
ANSI_932
  9
$INSBASE
 10
0.0
 20
0.0
 30
0.0
  9
$EXTMIN
 10
-975.00000000024113
 20
-1431.5255224711132
 30
-14.834305555555554
  9
$EXTMAX
 10
975.00000000024124
 20
1405.9972926412993
 30
14.834305555555554
  9
$LIMMIN
 10
0.0
 20
0.0
  9
$LIMMAX
 10
0.0
 20
0.0
  9
$ORTHOMODE
 70
               0
  9
$REGENMODE
 70
               1
  9
$FILLMODE
 70
               1
  9
$QTEXTMODE
 70
               0
  9
$MIRRTEXT
 70
               1
  9
$LTSCALE
 40
50.799999999999997
  9
$ATTMODE
 70
               1
  9
$TEXTSIZE
 40
0.2
  9
$TRACEWID
 40
1.0
  9
$TEXTSTYLE
  7
Standard
  9
$CLAYER
  8
notes
  9
$CELTYPE
  6
Continuous
  9
$CECOLOR
 62
             256
  9
$CELTSCALE
 40
1.0
  9
$DISPSILH
 70
               0
  9
$DIMSCALE
 40
1.0
  9
$DIMASZ
 40
31.75
  9
$DIMEXO
 40
0.0
  9
$DIMDLI
 40
6.9999999999999396
  9
$DIMRND
 40
0.0
  9
$DIMDLE
 40
0.0
  9
$DIMEXE
 40
19.999999999996199
  9
$DIMTP
 40
0.0
  9
$DIMTM
 40
0.0
  9
$DIMTXT
 40
24.432617187500004
  9
$DIMCEN
 40
0.0
  9
$DIMTSZ
 40
0.0
  9
$DIMTOL
 70
               0
  9
$DIMLIM
 70
               0
  9
$DIMTIH
 70
               0
  9
$DIMTOH
 70
               0
  9
$DIMSE1
 70
               0
  9
$DIMSE2
 70
               0
  9
$DIMTAD
 70
               1
  9
$DIMZIN
 70
              11
  9
$DIMBLK
  1
VW_FILLEDARROW
  9
$DIMASO
 70
               1
  9
$DIMSHO
 70
               1
  9
$DIMPOST
  1
<>
  9
$DIMAPOST
  1
[]
  9
$DIMALT
 70
               0
  9
$DIMALTD
 70
               1
  9
$DIMALTF
 40
1.0
  9
$DIMLFAC
 40
1.0
  9
$DIMTOFL
 70
               0
  9
$DIMTVP
 40
0.0
  9
$DIMTIX
 70
               1
  9
$DIMSOXD
 70
               0
  9
$DIMSAH
 70
               0
  9
$DIMBLK1
  1

  9
$DIMBLK2
  1

  9
$DIMSTYLE
  2
JIS
  9
$DIMCLRD
 70
               0
  9
$DIMCLRE
 70
               0
  9
$DIMCLRT
 70
               0
  9
$DIMTFAC
 40
1.0
  9
$DIMGAP
 40
1.00000000000108
  9
$DIMJUST
 70
               0
  9
$DIMSD1
 70
               0
  9
$DIMSD2
 70
               0
  9
$DIMTOLJ
 70
               1
  9
$DIMTZIN
 70
              11
  9
$DIMALTZ
 70
              11
  9
$DIMALTTZ
 70
              11
  9
$DIMUPT
 70
               0
  9
$DIMDEC
 70
               1
  9
$DIMTDEC
 70
               1
  9
$DIMALTU
 70
               2
  9
$DIMALTTD
 70
               2
  9
$DIMTXSTY
  7
ＭＳ ゴシック
  9
$DIMAUNIT
 70
               0
  9
$DIMADEC
 70
               2
  9
$DIMALTRND
 40
0.0
  9
$DIMAZIN
 70
               0
  9
$DIMDSEP
 70
              46
  9
$DIMATFIT
 70
               0
  9
$DIMFRAC
 70
               2
  9
$DIMLDRBLK
  1

  9
$DIMLUNIT
 70
               2
  9
$DIMLWD
 70
              -2
  9
$DIMLWE
 70
              -2
  9
$DIMTMOVE
 70
               0
  9
$LUNITS
 70
               2
  9
$LUPREC
 70
               4
  9
$SKETCHINC
 40
0.1
  9
$FILLETRAD
 40
0.0
  9
$AUNITS
 70
               0
  9
$AUPREC
 70
               0
  9
$MENU
  1
acad
  9
$ELEVATION
 40
0.0
  9
$PELEVATION
 40
0.0
  9
$THICKNESS
 40
0.0
  9
$LIMCHECK
 70
               0
  9
$CHAMFERA
 40
0.0
  9
$CHAMFERB
 40
0.0
  9
$CHAMFERC
 40
0.0
  9
$CHAMFERD
 40
0.0
  9
$SKPOLY
 70
               0
  9
$TDCREATE
 40
2455995.570196759
  9
$TDUCREATE
 40
0.000000000
  9
$TDUPDATE
 40
2455995.570196759
  9
$TDUUPDATE
 40
0.000000000
  9
$TDINDWG
 40
0.0000000000
  9
$TDUSRTIMER
 40
0.0000000000
  9
$USRTIMER
 70
               1
  9
$ANGBASE
 50
0.0
  9
$ANGDIR
 70
               0
  9
$PDMODE
 70
               1
  9
$PDSIZE
 40
-2.0
  9
$PLINEWID
 40
0.0
  9
$SPLFRAME
 70
               0
  9
$SPLINETYPE
 70
               6
  9
$SPLINESEGS
 70
               8
  9
$HANDSEED
  5
22C
  9
$SURFTAB1
 70
               6
  9
$SURFTAB2
 70
               6
  9
$SURFTYPE
 70
               6
  9
$SURFU
 70
               6
  9
$SURFV
 70
               6
  9
$UCSBASE
  2

  9
$UCSNAME
  2

  9
$UCSORG
 10
0.0
 20
0.0
 30
0.0
  9
$UCSXDIR
 10
1.0
 20
0.0
 30
0.0
  9
$UCSYDIR
 10
0.0
 20
1.0
 30
0.0
  9
$UCSORTHOREF
  2

  9
$UCSORTHOVIEW
 70
               0
  9
$UCSORGTOP
 10
0.0
 20
0.0
 30
0.0
  9
$UCSORGBOTTOM
 10
0.0
 20
0.0
 30
0.0
  9
$UCSORGLEFT
 10
0.0
 20
0.0
 30
0.0
  9
$UCSORGRIGHT
 10
0.0
 20
0.0
 30
0.0
  9
$UCSORGFRONT
 10
0.0
 20
0.0
 30
0.0
  9
$UCSORGBACK
 10
0.0
 20
0.0
 30
0.0
  9
$PUCSBASE
  2

  9
$PUCSNAME
  2

  9
$PUCSORG
 10
0.0
 20
0.0
 30
0.0
  9
$PUCSXDIR
 10
1.0
 20
0.0
 30
0.0
  9
$PUCSYDIR
 10
0.0
 20
1.0
 30
0.0
  9
$PUCSORTHOREF
  2

  9
$PUCSORTHOVIEW
 70
               0
  9
$PUCSORGTOP
 10
0.0
 20
0.0
 30
0.0
  9
$PUCSORGBOTTOM
 10
0.0
 20
0.0
 30
0.0
  9
$PUCSORGLEFT
 10
0.0
 20
0.0
 30
0.0
  9
$PUCSORGRIGHT
 10
0.0
 20
0.0
 30
0.0
  9
$PUCSORGFRONT
 10
0.0
 20
0.0
 30
0.0
  9
$PUCSORGBACK
 10
0.0
 20
0.0
 30
0.0
  9
$USERI1
 70
               0
  9
$USERI2
 70
               0
  9
$USERI3
 70
               0
  9
$USERI4
 70
               0
  9
$USERI5
 70
               0
  9
$USERR1
 40
0.0
  9
$USERR2
 40
0.0
  9
$USERR3
 40
0.0
  9
$USERR4
 40
0.0
  9
$USERR5
 40
0.0
  9
$WORLDVIEW
 70
               1
  9
$SHADEDGE
 70
               3
  9
$SHADEDIF
 70
              70
  9
$TILEMODE
 70
               1
  9
$MAXACTVP
 70
              64
  9
$PINSBASE
 10
0.0
 20
0.0
 30
0.0
  9
$PLIMCHECK
 70
               0
  9
$PEXTMIN
 10
1.0000000000000000E+20
 20
1.0000000000000000E+20
 30
1.0000000000000000E+20
  9
$PEXTMAX
 10
-1.0000000000000000E+20
 20
-1.0000000000000000E+20
 30
-1.0000000000000000E+20
  9
$PLIMMIN
 10
0.0
 20
0.0
  9
$PLIMMAX
 10
12.0
 20
9.0
  9
$UNITMODE
 70
               0
  9
$VISRETAIN
 70
               0
  9
$PLINEGEN
 70
               1
  9
$PSLTSCALE
 70
               0
  9
$TREEDEPTH
 70
            3020
  9
$CMLSTYLE
  2
Standard
  9
$CMLJUST
 70
               0
  9
$CMLSCALE
 40
1.0
  9
$PROXYGRAPHICS
 70
               0
  9
$MEASUREMENT
 70
               1
  9
$CELWEIGHT
370
               0
  9
$ENDCAPS
280
               0
  9
$JOINSTYLE
280
               0
  9
$LWDISPLAY
290
               1
  9
$INSUNITS
 70
               4
  9
$HYPERLINKBASE
  1

  9
$STYLESHEET
  1

  9
$XEDIT
290
               1
  9
$CEPSNTYPE
380
               0
  9
$PSTYLEMODE
290
               1
  9
$FINGERPRINTGUID
  2

  9
$VERSIONGUID
  2

  9
$EXTNAMES
290
               1
  9
$PSVPSCALE
 40
0.0
  0
ENDSEC
  0
SECTION
  2
CLASSES
  0
CLASS
  1
LWPOLYLINE
  2
AcDbPolyline
  3
AutoCAD 2000
 90
        0
280
               0
281
               1
  0
CLASS
  1
IMAGE
  2
AcDbRasterImage
  3
ISM
 90
      127
280
               0
281
               1
  0
CLASS
  1
OLE2FRAME
  2
AcDbOle2Frame
  3
AutoCAD 2000
 90
        0
280
               0
281
               1
  0
CLASS
  1
HATCH
  2
AcDbHatch
  3
AutoCAD 2000
 90
        0
280
               0
281
               1
  0
CLASS
  1
DICTIONARYVAR
  2
AcDbDictionaryVar
  3
AutoCAD 2000
 90
        0
280
               0
281
               0
  0
CLASS
  1
RASTERVARIABLES
  2
AcDbRasterVariables
  3
ISM
 90
        0
280
               0
281
               0
  0
CLASS
  1
IMAGEDEF
  2
AcDbRasterImageDef
  3
ISM
 90
        0
280
               0
281
               0
  0
CLASS
  1
IMAGEDEF_REACTOR
  2
AcDbRasterImageDefReactor
  3
ISM
 90
        1
280
               0
281
               0
  0
CLASS
  1
IDBUFFER
  2
AcDbIdBuffer
  3
AutoCAD 2000
 90
        0
280
               0
281
               0
  0
CLASS
  1
SPATIAL_FILTER
  2
AcDbSpatialFilter
  3
AutoCAD 2000
 90
        0
280
               0
281
               0
  0
CLASS
  1
XRECORD
  2
AcDbXrecord
  3
AutoCAD 2000
 90
        0
280
               0
281
               0
  0
CLASS
  1
SORTENTSTABLE
  2
AcDbSortentsTable
  3
AutoCAD 2000
 90
        0
280
               0
281
               0
  0
CLASS
  1
LAYER_INDEX
  2
AcDbLayerIndex
  3
AutoCAD 2000
 90
        0
280
               0
281
               0
  0
CLASS
  1
SPATIAL_INDEX
  2
AcDbSpatialIndex
  3
AutoCAD 2000
 90
        0
280
               0
281
               0
  0
CLASS
  1
OBJECT_PTR
  2
CAseDLPNTableRecord
  3
"ASE-LPNTableRecord"
 90
        1
280
               0
281
               0
  0
CLASS
  1
LAYOUT
  2
AcDbLayout
  3
AutoCAD 2000
 90
        0
280
               0
281
               0
  0
CLASS
  1
PLOTSETTINGS
  2
AcDbPlotSettings
  3
AutoCAD 2000
 90
        0
280
               0
281
               0
  0
CLASS
  1
ACDBDICTIONARYWDFLT
  2
AcDbDictionaryWithDefault
  3
AutoCAD 2000
 90
        0
280
               0
281
               0
  0
CLASS
  1
ACDBPLACEHOLDER
  2
AcDbPlaceHolder
  3
AutoCAD 2000
 90
        0
280
               0
281
               0
  0
ENDSEC
  0
SECTION
  2
TABLES
  0
TABLE
  2
VPORT
  5
7
100
AcDbSymbolTable
 70
               1
  0
VPORT
  5
15
100
AcDbSymbolTableRecord
100
AcDbViewportTableRecord
  2
*ACTIVE
 70
               0
 10
0.0
 20
0.0
 11
1.0
 21
1.0
 12
0.0000000000001137
 22
-12.764114914906941
 13
0.0
 23
0.0
 14
1.0
 24
1.0
 15
0.0
 25
0.0
 16
0.0
 26
0.0
 36
1.0
 17
0.0
 27
0.0
 37
0.0
 40
2837.5228151124124
 41
0.688564
 42
50.0
 43
0.0
 44
0.0
 50
0.0
 51
0.0
 71
               0
 72
            2000
 73
               1
 74
               1
 75
               0
 76
               0
 77
               0
 78
               0
281
               0
 65
               0
110
0.0
120
0.0
130
0.0
111
1.0
121
0.0
131
0.0
112
0.0
122
1.0
132
0.0
345
0
346
0
 79
               0
146
0.0
  0
ENDTAB
  0
TABLE
  2
LTYPE
  5
4
100
AcDbSymbolTable
 70
              15
  0
LTYPE
  5
11
100
AcDbSymbolTableRecord
100
AcDbLinetypeTableRecord
  2
ByBlock
 70
              64
  3

 72
              65
 73
               0
 40
0.0
  0
LTYPE
  5
12
100
AcDbSymbolTableRecord
100
AcDbLinetypeTableRecord
  2
ByLayer
 70
              64
  3

 72
              65
 73
               0
 40
0.0
  0
LTYPE
  5
13
100
AcDbSymbolTableRecord
100
AcDbLinetypeTableRecord
  2
Continuous
 70
              64
  3
Solid line
 72
              65
 73
               0
 40
0.0
  0
LTYPE
  5
3A
100
AcDbSymbolTableRecord
100
AcDbLinetypeTableRecord
  2
STYLE_01
 70
               0
  3

 72
              65
 73
               2
 40
0.1875
 49
0.125
 74
               0
 49
-0.0625
 74
               0
  0
LTYPE
  5
3B
100
AcDbSymbolTableRecord
100
AcDbLinetypeTableRecord
  2
STYLE_02
 70
               0
  3

 72
              65
 73
               4
 40
0.3937007874015748
 49
0.1968503937007874
 74
               0
 49
-0.0984251968503937
 74
               0
 49
0.0005
 74
               0
 49
-0.0979251968503937
 74
               0
  0
LTYPE
  5
3C
100
AcDbSymbolTableRecord
100
AcDbLinetypeTableRecord
  2
STYLE_03
 70
               0
  3

 72
              65
 73
               2
 40
1.25
 49
1.0416400000000001
 74
               0
 49
-0.2083599999999999
 74
               0
  0
LTYPE
  5
3D
100
AcDbSymbolTableRecord
100
AcDbLinetypeTableRecord
  2
STYLE_04
 70
               0
  3

 72
              65
 73
               2
 40
1.5277099999999999
 49
1.3194249999999998
 74
               0
 49
-0.208285
 74
               0
  0
LTYPE
  5
3E
100
AcDbSymbolTableRecord
100
AcDbLinetypeTableRecord
  2
STYLE_05
 70
               0
  3

 72
              65
 73
               2
 40
0.20828
 49
0.069425
 74
               0
 49
-0.138855
 74
               0
  0
LTYPE
  5
3F
100
AcDbSymbolTableRecord
100
AcDbLinetypeTableRecord
  2
STYLE_06
 70
               0
  3

 72
              65
 73
               4
 40
1.0416400000000001
 49
0.625
 74
               0
 49
-0.20828
 74
               0
 49
0.06943
 74
               0
 49
-0.13893
 74
               0
  0
LTYPE
  5
40
100
AcDbSymbolTableRecord
100
AcDbLinetypeTableRecord
  2
STYLE_07
 70
               0
  3

 72
              65
 73
               6
 40
1.875
 49
0.625
 74
               0
 49
-0.20828
 74
               0
 49
0.6250000000000001
 74
               0
 49
-0.2083599999999999
 74
               0
 49
0.06943
 74
               0
 49
-0.1389299999999999
 74
               0
  0
LTYPE
  5
41
100
AcDbSymbolTableRecord
100
AcDbLinetypeTableRecord
  2
STYLE_08
 70
               0
  3

 72
              65
 73
               6
 40
1.25
 49
0.625
 74
               0
 49
-0.20828
 74
               0
 49
0.06943
 74
               0
 49
-0.13893
 74
               0
 49
0.0694299999999999
 74
               0
 49
-0.13893
 74
               0
  0
LTYPE
  5
42
100
AcDbSymbolTableRecord
100
AcDbLinetypeTableRecord
  2
STYLE_09
 70
               0
  3

 72
              65
 73
               4
 40
5.0
 49
3.75
 74
               0
 49
-0.2777849999999998
 74
               0
 49
0.6944300000000003
 74
               0
 49
-0.2777849999999998
 74
               0
  0
LTYPE
  5
43
100
AcDbSymbolTableRecord
100
AcDbLinetypeTableRecord
  2
STYLE_10
 70
               0
  3

 72
              65
 73
               6
 40
5.9375
 49
3.75
 74
               0
 49
-0.2777849999999998
 74
               0
 49
0.6944300000000003
 74
               0
 49
-0.2777849999999998
 74
               0
 49
0.625
 74
               0
 49
-0.3125
 74
               0
  0
LTYPE
  5
44
100
AcDbSymbolTableRecord
100
AcDbLinetypeTableRecord
  2
STYLE_11
 70
               0
  3

 72
              65
 73
               2
 40
0.0694444881889764
 49
0.0347222440944882
 74
               0
 49
-0.0347222440944882
 74
               0
  0
LTYPE
  5
45
100
AcDbSymbolTableRecord
100
AcDbLinetypeTableRecord
  2
STYLE_12
 70
               0
  3

 72
              65
 73
               2
 40
0.3937007874015748
 49
0.1968503937007874
 74
               0
 49
-0.1968503937007874
 74
               0
  0
ENDTAB
  0
TABLE
  2
LAYER
  5
2
100
AcDbSymbolTable
 70
               5
  0
LAYER
  5
14
100
AcDbSymbolTableRecord
100
AcDbLayerTableRecord
  2
0
 70
               0
 62
               7
  6
Continuous
290
               1
370
              -3
390
1D
  0
LAYER
  5
46
100
AcDbSymbolTableRecord
100
AcDbLayerTableRecord
  2
Defpoints
 70
               0
 62
               7
  6
Continuous
290
               0
370
              -3
390
1D
  0
LAYER
  5
47
100
AcDbSymbolTableRecord
100
AcDbLayerTableRecord
  2
template
 70
               0
 62
               7
  6
Continuous
290
               1
370
              -3
390
1D
  0
LAYER
  5
48
100
AcDbSymbolTableRecord
100
AcDbLayerTableRecord
  2
notes
 70
               0
 62
               7
  6
Continuous
290
               1
370
              -3
390
1D
  0
LAYER
  5
49
100
AcDbSymbolTableRecord
100
AcDbLayerTableRecord
  2
ADF70-0607
 70
               0
 62
               7
  6
Continuous
290
               1
370
              -3
390
1D
  0
ENDTAB
  0
TABLE
  2
STYLE
  5
3
100
AcDbSymbolTable
 70
               2
  0
STYLE
  5
17
100
AcDbSymbolTableRecord
100
AcDbTextStyleTableRecord
  2
Standard
 70
               0
 40
0.0
 41
1.0
 50
0.0
 71
               0
 42
0.0
  3
txt
  4
BIGFONT.SHX
  0
STYLE
  5
39
100
AcDbSymbolTableRecord
100
AcDbTextStyleTableRecord
  2
ＭＳ ゴシック
 70
               0
 40
0.0
 41
1.0
 50
0.0
 71
               0
 42
0.0
  3

  4
ＭＳ ゴシック
1001
ACAD
1000
ＭＳ ゴシック
1071
        0
  0
ENDTAB
  0
TABLE
  2
VIEW
  5
5
100
AcDbSymbolTable
 70
               0
  0
ENDTAB
  0
TABLE
  2
UCS
  5
6
100
AcDbSymbolTable
 70
               0
  0
ENDTAB
  0
TABLE
  2
APPID
  5
8
100
AcDbSymbolTable
 70
               1
  0
APPID
  5
16
100
AcDbSymbolTableRecord
100
AcDbRegAppTableRecord
  2
ACAD
 70
               0
  0
ENDTAB
  0
TABLE
  2
DIMSTYLE
  5
9
100
AcDbSymbolTable
 70
               3
100
AcDbDimStyleTable
 71
               0
  0
DIMSTYLE
105
18
100
AcDbSymbolTableRecord
100
AcDbDimStyleTableRecord
  2
Standard
 70
               0
  3

  4

 40
1.0
 41
0.18
 42
0.0625
 43
0.38
 44
0.18
 45
0.0
 46
0.0
 47
0.0
 48
0.0
 71
               0
 72
               0
 73
               1
 74
               1
 75
               0
 76
               0
 77
               0
 78
               0
 79
               0
140
0.18
141
0.09
142
0.0
143
25.399999999999999
144
1.0
145
0.0
146
1.0
147
0.09
148
0.0
170
               0
171
               2
172
               0
173
               0
174
               0
175
               0
176
               0
177
               0
178
               0
179
               0
271
               4
272
               4
273
               2
274
               2
275
               0
276
               0
277
               2
278
              46
279
               0
280
               0
281
               0
282
               0
283
               1
284
               0
285
               0
286
               0
288
               0
289
               3
340
17
341
0
342
0
343
0
344
0
371
              -2
372
              -2
  0
DIMSTYLE
105
52
100
AcDbSymbolTableRecord
100
AcDbDimStyleTableRecord
  2
tform線あり
 70
               0
  3
<>
  4
[]
 40
1.0
 41
3.999755859375
 42
24.999999999999996
 43
0.9999999999999999
 44
0.0
 45
0.0
 46
0.0
 47
0.0
 48
0.0
 71
               0
 72
               0
 73
               0
 74
               0
 75
               0
 76
               0
 77
               1
 78
              11
 79
               0
140
24.432617187500004
141
0.0
142
0.0
143
1.0
144
1.0
145
0.0
146
1.0
147
0.4999999999999999
148
0.0
170
               0
171
               1
172
               0
173
               0
174
               1
175
               0
176
               0
177
               0
178
               0
179
               2
271
               1
272
               1
273
               2
274
               2
275
               0
276
               2
277
               2
278
              46
279
               0
280
               0
281
               0
282
               0
283
               1
284
              11
285
              11
286
              11
288
               0
289
               0
340
39
341
4A
342
4A
343
0
344
0
371
              -2
372
              -2
  0
DIMSTYLE
105
57
100
AcDbSymbolTableRecord
100
AcDbDimStyleTableRecord
  2
JIS
 70
               0
  3
<>
  4
[]
 40
1.0
 41
31.75
 42
0.0
 43
6.9999999999999396
 44
19.999999999996199
 45
0.0
 46
0.0
 47
0.0
 48
0.0
 71
               0
 72
               0
 73
               0
 74
               0
 75
               0
 76
               0
 77
               1
 78
              11
 79
               0
140
24.432617187500004
141
0.0
142
0.0
143
1.0
144
1.0
145
0.0
146
1.0
147
1.00000000000108
148
0.0
170
               0
171
               1
172
               0
173
               0
174
               1
175
               0
176
               0
177
               0
178
               0
179
               2
271
               1
272
               1
273
               2
274
               2
275
               0
276
               2
277
               2
278
              46
279
               0
280
               0
281
               0
282
               0
283
               1
284
              11
285
              11
286
              11
288
               0
289
               0
340
39
341
53
342
53
343
0
344
0
371
              -2
372
              -2
  0
ENDTAB
  0
TABLE
  2
BLOCK_RECORD
  5
1
100
AcDbSymbolTable
 70
              24
  0
BLOCK_RECORD
  5
A
100
AcDbSymbolTableRecord
100
AcDbBlockTableRecord
  2
*MODEL_SPACE
340
20
  0
BLOCK_RECORD
  5
B
100
AcDbSymbolTableRecord
100
AcDbBlockTableRecord
  2
*PAPER_SPACE
340
21
  0
BLOCK_RECORD
  5
4A
100
AcDbSymbolTableRecord
100
AcDbBlockTableRecord
  2
_DOT
340
0
  0
BLOCK_RECORD
  5
53
100
AcDbSymbolTableRecord
100
AcDbBlockTableRecord
  2
VW_FILLEDARROW
340
0
  0
BLOCK_RECORD
  5
23
100
AcDbSymbolTableRecord
100
AcDbBlockTableRecord
  2
グループ
340
0
102
{BLKREFS
331
17F
102
}
  0
BLOCK_RECORD
  5
24
100
AcDbSymbolTableRecord
100
AcDbBlockTableRecord
  2
*D3
340
0
  0
BLOCK_RECORD
  5
25
100
AcDbSymbolTableRecord
100
AcDbBlockTableRecord
  2
*D4
340
0
  0
BLOCK_RECORD
  5
26
100
AcDbSymbolTableRecord
100
AcDbBlockTableRecord
  2
*D5
340
0
  0
BLOCK_RECORD
  5
27
100
AcDbSymbolTableRecord
100
AcDbBlockTableRecord
  2
*D6
340
0
  0
BLOCK_RECORD
  5
28
100
AcDbSymbolTableRecord
100
AcDbBlockTableRecord
  2
*D7
340
0
  0
BLOCK_RECORD
  5
29
100
AcDbSymbolTableRecord
100
AcDbBlockTableRecord
  2
*D8
340
0
  0
BLOCK_RECORD
  5
2A
100
AcDbSymbolTableRecord
100
AcDbBlockTableRecord
  2
*D9
340
0
  0
BLOCK_RECORD
  5
2B
100
AcDbSymbolTableRecord
100
AcDbBlockTableRecord
  2
*D10
340
0
  0
BLOCK_RECORD
  5
2C
100
AcDbSymbolTableRecord
100
AcDbBlockTableRecord
  2
*D11
340
0
  0
BLOCK_RECORD
  5
2D
100
AcDbSymbolTableRecord
100
AcDbBlockTableRecord
  2
*D12
340
0
  0
BLOCK_RECORD
  5
2E
100
AcDbSymbolTableRecord
100
AcDbBlockTableRecord
  2
*D13
340
0
  0
BLOCK_RECORD
  5
2F
100
AcDbSymbolTableRecord
100
AcDbBlockTableRecord
  2
*D14
340
0
  0
BLOCK_RECORD
  5
30
100
AcDbSymbolTableRecord
100
AcDbBlockTableRecord
  2
*D15
340
0
  0
BLOCK_RECORD
  5
31
100
AcDbSymbolTableRecord
100
AcDbBlockTableRecord
  2
*D16
340
0
  0
BLOCK_RECORD
  5
32
100
AcDbSymbolTableRecord
100
AcDbBlockTableRecord
  2
*D17
340
0
  0
BLOCK_RECORD
  5
33
100
AcDbSymbolTableRecord
100
AcDbBlockTableRecord
  2
*D18
340
0
  0
BLOCK_RECORD
  5
34
100
AcDbSymbolTableRecord
100
AcDbBlockTableRecord
  2
*D19
340
0
  0
BLOCK_RECORD
  5
35
100
AcDbSymbolTableRecord
100
AcDbBlockTableRecord
  2
*D20
340
0
  0
BLOCK_RECORD
  5
36
100
AcDbSymbolTableRecord
100
AcDbBlockTableRecord
  2
*D21
340
0
  0
BLOCK_RECORD
  5
37
100
AcDbSymbolTableRecord
100
AcDbBlockTableRecord
  2
*D22
340
0
  0
BLOCK_RECORD
  5
38
100
AcDbSymbolTableRecord
100
AcDbBlockTableRecord
  2
*D23
340
0
  0
ENDTAB
  0
ENDSEC
  0
SECTION
  2
BLOCKS
  0
BLOCK
  5
D
100
AcDbEntity
  8
0
390
0
100
AcDbBlockBegin
  2
*MODEL_SPACE
 70
               0
 10
0.0
 20
0.0
 30
0.0
  3
*MODEL_SPACE
  1

  0
ENDBLK
  5
E
100
AcDbEntity
  8
0
390
0
100
AcDbBlockEnd
  0
BLOCK
  5
F
100
AcDbEntity
 67
               1
  8
0
390
0
100
AcDbBlockBegin
  2
*PAPER_SPACE
 70
               0
 10
0.0
 20
0.0
 30
0.0
  3
*PAPER_SPACE
  1

  0
ENDBLK
  5
10
100
AcDbEntity
 67
               1
  8
0
390
0
100
AcDbBlockEnd
  0
BLOCK
  5
4B
100
AcDbEntity
  8
0
390
0
100
AcDbBlockBegin
  2
_DOT
 70
               0
 10
0.0
 20
0.0
 30
0.0
  3
_DOT
  1

  0
POLYLINE
  5
4C
100
AcDbEntity
  8
0
370
              -2
390
0
  6
ByBlock
 62
               0
100
AcDb2dPolyline
 66
               1
 10
0.0
 20
0.0
 30
0.0
 70
               1
 40
0.5
 41
0.5
  0
VERTEX
  5
4D
100
AcDbEntity
  8
0
370
              -2
390
0
  6
ByBlock
 62
               0
100
AcDbVertex
100
AcDb2dVertex
 10
-0.25
 20
0.0
 30
0.0
 42
1.0
  0
VERTEX
  5
4E
100
AcDbEntity
  8
0
370
              -2
390
0
  6
ByBlock
 62
               0
100
AcDbVertex
100
AcDb2dVertex
 10
0.25
 20
0.0
 30
0.0
 42
1.0
  0
SEQEND
  5
4F
100
AcDbEntity
  8
0
390
0
  0
LINE
  5
50
100
AcDbEntity
  8
0
370
              -2
390
0
  6
ByBlock
 62
               0
100
AcDbLine
 10
-0.5
 20
0.0
 30
0.0
 11
-1.0
 21
0.0
 31
0.0
  0
ENDBLK
  5
51
100
AcDbEntity
  8
0
390
0
100
AcDbBlockEnd
  0
BLOCK
  5
54
100
AcDbEntity
  8
0
370
              -2
390
0
  6
ByBlock
 62
               0
100
AcDbBlockBegin
  2
VW_FILLEDARROW
 70
               0
 10
0.0
 20
0.0
 30
0.0
  3
VW_FILLEDARROW
  1

  0
SOLID
  5
55
100
AcDbEntity
  8
0
370
              -2
390
0
 62
               0
100
AcDbTrace
 10
0.0
 20
0.0
 30
0.0
 11
-0.9921874999999999
 21
-0.2658558393652545
 31
0.0
 12
-0.9921874999999999
 22
0.2658558393652548
 32
0.0
 13
-0.9921874999999999
 23
0.2658558393652548
 33
0.0
  0
ENDBLK
  5
56
100
AcDbEntity
  8
0
390
0
100
AcDbBlockEnd
  0
BLOCK
  5
58
100
AcDbEntity
  8
template
390
0
100
AcDbBlockBegin
  2
グループ
 70
               0
 10
0.0
 20
0.0
 30
0.0
  3
グループ
  1

  0
LWPOLYLINE
  5
59
100
AcDbEntity
  8
0
370
              15
390
0
  6
Continuous
 62
               7
100
AcDbPolyline
 90
        8
 70
             129
 10
295.18831659228556
 20
-1410.0123422374622
 10
295.18831659228556
 20
-1416.0097309310381
 10
285.68711967428226
 20
-1416.0097309310381
 10
285.68711967428226
 20
-1440.4606941945472
 10
277.33174241249947
 20
-1440.4606941945472
 10
277.33174241249947
 20
-1416.0097309310381
 10
267.99878546619004
 20
-1416.0097309310381
 10
267.99878546619004
 20
-1410.0123422374622
  0
LWPOLYLINE
  5
5A
100
AcDbEntity
  8
0
370
              15
390
0
  6
Continuous
 62
               7
100
AcDbPolyline
 90
      101
 70
             128
 10
307.9166084228425
 20
-1410.7405907303987
 10
307.93195845162739
 20
-1410.7362299737138
 42
-0.0222221607815243
 10
308.2219630282986
 20
-1410.667605508469
 10
308.23775679228464
 20
-1410.6646020853734
 42
-0.0146883565590135
 10
308.50045949751637
 20
-1410.6225988984227
 42
-0.0127458844179409
 10
308.76509846467786
 20
-1410.5950619303494
 10
308.82755354298217
 20
-1410.590168507762
 42
-0.0198099018571707
 10
309.21840265244998
 20
-1410.5750833503655
 10
309.27021412190282
 20
-1410.5751371260305
 42
-0.0147617382758481
 10
309.7648375828839
 20
-1410.5902571512759
 10
309.83752903774763
 20
-1410.5946297581629
 42
-0.016262454900425
 10
310.22768266721653
 20
-1410.6308626334355
 10
310.34921505848826
 20
-1410.6461491924338
 42
-0.0080020874662962
 10
310.49479408956728
 20
-1410.6668320397005
 10
310.53311356014808
 20
-1410.6729033175093
 42
-0.0053821929683153
 10
310.60159766547713
 20
-1410.6845108413331
 10
309.87519196627852
 20
-1412.865439297047
 42
0.0108667757403255
 10
309.80787489613959
 20
-1412.8522521818256
 10
309.77040687295818
 20
-1412.8457544392327
 42
0.0170663203310817
 10
309.62719008604341
 20
-1412.8259248419411
 10
309.55931475335967
 20
-1412.8188776713534
 42
0.0220162375272167
 10
309.27893534550736
 20
-1412.8021953105833
 10
309.20107977845305
 20
-1412.8009959433168
 42
0.0282606915783181
 10
308.86544345487437
 20
-1412.8147992202857
 10
308.82153018109767
 20
-1412.8190992102898
 42
0.016967721369374
 10
308.57560568614309
 20
-1412.8516362598414
 42
0.0190576269863511
 10
308.33269772356493
 20
-1412.9017831319475
 10
308.32643853545221
 20
-1412.9033261060572
 42
0.021368564284285
 10
308.07605405097166
 20
-1412.9765263911627
 10
308.07056415605825
 20
-1412.9783893872209
 42
0.0237595297597849
 10
307.81706927115948
 20
-1413.0780739091165
 10
307.81196719712989
 20
-1413.0803656845947
 42
0.0261857468812881
 10
307.5597964209
 20
-1413.2099020219691
 10
307.54937023181299
 20
-1413.2159674964375
 42
0.0272553062024216
 10
307.31294045657449
 20
-1413.3713397023819
 10
307.27817744306554
 20
-1413.3970008504737
 42
0.0325996893171253
 10
307.1280220994135
 20
-1413.5237487234456
 10
307.10431267028895
 20
-1413.5465667519597
 42
0.0138050960636498
 10
307.01242951408028
 20
-1413.64001641351
 42
0.0125280103808684
 10
306.92558698124901
 20
-1413.7381797401074
 10
306.9019065363384
 20
-1413.7663382382973
 42
0.0205218024741607
 10
306.77680646082354
 20
-1413.9281315525279
 10
306.75434012033759
 20
-1413.9597912823533
 42
0.0163110129583046
 10
306.59862974108631
 20
-1414.1951217174233
 10
306.5959058450353
 20
-1414.1995454794087
 42
0.0131897341895177
 10
306.44910532413087
 20
-1414.4526775717707
 10
306.44740522876293
 20
-1414.455795810909
 42
0.0107895576062091
 10
306.30962852655159
 20
-1414.7220110205453
 10
306.30889563702709
 20
-1414.7235052531908
 42
0.009137150721475
 10
306.18041568837799
 20
-1414.9980304509493
 10
306.15067005696841
 20
-1415.0647369581091
 42
0.0135418326349175
 10
305.97895611789733
 20
-1415.4796747433761
 10
305.94535130946144
 20
-1415.5675408856616
 42
0.0092834542411626
 10
305.77412224954156
 20
-1416.0414393839644
 10
305.74850512182485
 20
-1416.116680453755
 42
0.0054261043579676
 10
305.64086697353099
 20
-1416.4444444268229
 10
305.62334098733402
 20
-1416.4998325891147
 42
0.0008225090815918
 10
305.55467093552352
 20
-1416.7181013472023
 10
304.56998180359005
 20
-1419.7429926404589
 10
307.80260564366392
 20
-1419.7429926404589
 10
307.29841321381048
 20
-1421.6474709388112
 10
304.04235693182716
 20
-1421.6474709388112
 10
298.21320789947333
 20
-1440.4606940048161
 10
296.38811028916302
 20
-1440.4606940048161
 10
302.22278832466395
 20
-1421.6474709388112
 10
299.81767195562361
 20
-1421.6474709388112
 10
300.32186438547706
 20
-1419.7429926404589
 10
302.75041319642708
 20
-1419.7429926404589
 10
303.61056811461572
 20
-1417.1065796397597
 42
-0.0005863560638428
 10
303.64730279280633
 20
-1416.9897532195091
 10
303.72339062647961
 20
-1416.7487609200825
 42
-0.0087522378926058
 10
303.922858769936
 20
-1416.1534848329372
 10
304.01512304535254
 20
-1415.8933446644157
 42
-0.0077400953830894
 10
304.27305670448106
 20
-1415.200339986875
 10
304.2888216760573
 20
-1415.1599091034957
 42
-0.0082369946331579
 10
304.53590614667189
 20
-1414.5558300372932
 42
-0.0085725238364343
 10
304.80315224267491
 20
-1413.9604039980056
 10
304.90478184368328
 20
-1413.7439828960187
 42
-0.0168109410596073
 10
305.19172627241215
 20
-1413.1827753699165
 10
305.31756966284513
 20
-1412.955811336966
 42
-0.0007817726866903
 10
305.37185401292783
 20
-1412.8582670918881
 10
305.37198231894257
 20
-1412.8580373831562
 42
-0.0036626142151307
 10
305.42687018296635
 20
-1412.7614395031833
 42
-0.008022115067614
 10
305.48399443837371
 20
-1412.6661602684294
 10
305.51469438973425
 20
-1412.6167693193081
 42
-0.0202139325575776
 10
305.64235012953998
 20
-1412.428787718628
 10
305.69641759472859
 20
-1412.3557088543857
 42
-0.0249323791798349
 10
305.95558038844905
 20
-1412.03966361223
 10
305.97972020257475
 20
-1412.013049339319
 42
-0.0242132121537833
 10
306.31940094411613
 20
-1411.6731658531155
 10
306.36731251686575
 20
-1411.6296567169304
 42
-0.0251017527861769
 10
306.65129421750811
 20
-1411.3966639711641
 10
306.65273969432536
 20
-1411.3955947135826
 42
-0.0130868069035902
 10
306.95100034427918
 20
-1411.1868142450428
 10
306.9525621634217
 20
-1411.185780804768
 42
-0.0290329526389293
 10
307.2636733048152
 20
-1411.0049553031383
 10
307.29351886680087
 20
-1410.989852920299
 42
-0.0160250190053657
 10
307.55942328056591
 20
-1410.8658368100855
 42
-0.026760037477961
 10
307.83469935803453
 20
-1410.765088489537
 10
307.86143527755553
 20
-1410.7568959307114
 42
-0.0049981587650851
 10
307.9166084228425
 20
-1410.7405907303987
 42
-0.0049981587650851
  0
LWPOLYLINE
  5
5B
100
AcDbEntity
  8
0
370
              15
390
0
  6
Continuous
 62
               7
100
AcDbPolyline
 90
      118
 70
             128
 10
327.73097598728941
 20
-1419.816975968286
 10
329.60609791178888
 20
-1419.816975968286
 10
328.76805900618899
 20
-1422.4985424946863
 42
-0.0010587229265755
 10
328.79951482176097
 20
-1422.4616379613306
 10
328.85770891239287
 20
-1422.393655705155
 42
-0.0071874740407146
 10
329.00808413049225
 20
-1422.2230150131245
 10
329.14980690375319
 20
-1422.0667788718129
 42
-0.0148118053510169
 10
329.59993619646457
 20
-1421.5991650258011
 10
329.68715853136587
 20
-1421.5137677049481
 42
-0.0086273358695373
 10
330.02270733237611
 20
-1421.1963920709297
 10
330.06654104860235
 20
-1421.1563424265964
 42
-0.0103138323115349
 10
330.32456475083552
 20
-1420.9301792892584
 10
330.37033915716665
 20
-1420.8916972419947
 42
-0.0060206748566625
 10
330.54318722127482
 20
-1420.7499025912439
 10
330.54521835215513
 20
-1420.7482768856171
 42
-0.006706902728785
 10
330.71751116682327
 20
-1420.6141262518177
 10
330.72005993274962
 20
-1420.6121960819421
 42
-0.0076184352053825
 10
330.89096519862062
 20
-1420.4868212066986
 42
-0.0089652861666136
 10
331.06592616136146
 20
-1420.3671879463618
 10
331.10227788149564
 20
-1420.3432767328859
 42
-0.0156916245946659
 10
331.29823737866019
 20
-1420.2230142464086
 42
-0.0023299011059954
 10
331.49849942262023
 20
-1420.1098363068788
 10
331.5138835550199
 20
-1420.1012363118032
 42
-0.0107669341487051
 10
331.74812038012237
 20
-1419.9768361784531
 10
331.7703851811961
 20
-1419.9656194285037
 42
-0.0078058045895356
 10
332.05397529915473
 20
-1419.8282579728625
 10
332.06388238685798
 20
-1419.8236488449968
 42
-0.0181829330472087
 10
332.3741917914744
 20
-1419.6927851039009
 10
332.42824723403652
 20
-1419.672269983959
 42
-0.0208411536029648
 10
332.77733220149059
 20
-1419.5561795214644
 10
332.79168830161677
 20
-1419.5520610765113
 42
-0.022279981714378
 10
333.12040809553531
 20
-1419.4734195103706
 10
333.12929705877337
 20
-1419.4717074997852
 42
-0.0215509523877762
 10
333.44576802705211
 20
-1419.4247918112512
 10
333.48824998810585
 20
-1419.4203542844598
 42
-0.0182545924869103
 10
333.72235876740632
 20
-1419.4045104590693
 10
333.76175978374971
 20
-1419.4032859139902
 42
-0.0072962856532812
 10
333.91768266344326
 20
-1419.400716585468
 10
333.94678233401783
 20
-1419.4006617500643
 42
-0.0059227516319765
 10
334.04453183316025
 20
-1419.4016354618548
 10
334.07377405060475
 20
-1419.4022732284575
 42
-0.0011833111905021
 10
334.11302533436458
 20
-1419.4032222327683
 10
333.31763873875741
 20
-1421.9419561778673
 42
0.0143932051624879
 10
333.29123735640417
 20
-1421.931757207821
 10
333.28396538398954
 20
-1421.9291859889645
 42
0.0234388603493055
 10
333.24213451805673
 20
-1421.9165667532491
 10
333.23345285514472
 20
-1421.9143857912443
 42
0.01991627429755
 10
333.17316402106599
 20
-1421.9017690559094
 10
333.15235008325851
 20
-1421.8982718564807
 42
0.0293643550675021
 10
333.0492752244993
 20
-1421.8871218108277
 10
333.02459004377903
 20
-1421.885910193809
 42
0.0214606686870448
 10
332.87144912782333
 20
-1421.8849716333916
 10
332.86207721700862
 20
-1421.8853165449357
 42
0.0167564054181422
 10
332.69055702590413
 20
-1421.8973935873032
 10
332.68209723314118
 20
-1421.8982749277309
 42
0.0137677553242596
 10
332.49474391987218
 20
-1421.9230242362751
 10
332.48739218036866
 20
-1421.9242021562425
 42
0.0118497261483185
 10
332.28689441627017
 20
-1421.961219506431
 10
332.28074440902009
 20
-1421.9625063691517
 42
0.0106421143893286
 10
332.06986352172652
 20
-1422.0113387447286
 10
332.06495471334597
 20
-1422.0125860874116
 42
0.0099746379700942
 10
331.84649624418716
 20
-1422.0727606157252
 10
331.78494820401323
 20
-1422.091042494357
 42
0.0191613675858681
 10
331.44896374149602
 20
-1422.2050198746444
 10
331.36090396875079
 20
-1422.2387067849684
 42
0.0205274080145723
 10
330.97559719685154
 20
-1422.4045351927944
 10
330.91794791487359
 20
-1422.4322031573647
 42
0.0181256912191491
 10
330.65967097420253
 20
-1422.5678869763447
 10
330.60671559088735
 20
-1422.5982045895603
 42
0.0140709242413474
 10
330.4617606562602
 20
-1422.6866992629939
 10
330.43551178763767
 20
-1422.7037560817118
 42
0.0086667884393577
 10
330.34658562609917
 20
-1422.7637587495922
 42
0.0036408192021246
 10
330.25915238806863
 20
-1422.8259396073825
 10
330.22392551359718
 20
-1422.8513805532973
 42
0.0052260781275588
 10
330.06769681620096
 20
-1422.9667129399354
 10
330.05148995994654
 20
-1422.9789410505496
 42
0.0050024435895084
 10
329.86548661689528
 20
-1423.1222236188057
 10
329.85016846037252
 20
-1423.1342696412576
 42
0.0136138710273991
 10
329.63972719204622
 20
-1423.3092361461718
 10
329.60605931625361
 20
-1423.3388151188851
 42
0.0172815186915747
 10
329.34165577459453
 20
-1423.5878117915051
 10
329.33909342874853
 20
-1423.5903976086556
 42
0.0189403857988938
 10
329.08851163016971
 20
-1423.8632028734596
 10
329.05588013663242
 20
-1423.9015468049583
 42
0.0185044199505929
 10
328.86392369765338
 20
-1424.14479538608
 42
0.0088565243900166
 10
328.68546359102731
 20
-1424.3983118062265
 10
328.67628561137644
 20
-1424.4118531859899
 42
0.0157195347236198
 10
328.49306500503934
 20
-1424.7013753953108
 10
328.4469820631129
 20
-1424.779527592324
 42
0.0095451879776797
 10
328.28189651297384
 20
-1425.0721222346831
 10
328.27074859404371
 20
-1425.0927929068159
 42
0.0100351706258343
 10
328.1387048448849
 20
-1425.3498484673057
 42
0.008693591542154
 10
328.01637369308935
 20
-1425.6116816127137
 10
328.0130529516764
 20
-1425.619123935682
 42
0.0072580174866679
 10
327.89270649972968
 20
-1425.8997159272692
 10
327.88944486642509
 20
-1425.907635953283
 42
0.0060005122612563
 10
327.77024419808293
 20
-1426.207245623887
 10
327.76703321974082
 20
-1426.2156071517929
 42
0.004901778697836
 10
327.64813306088286
 20
-1426.5345361323987
 10
327.64496725449294
 20
-1426.5432890696277
 42
0.0039415167607283
 10
327.52553097643386
 20
-1426.8818311320481
 10
327.52239987378408
 20
-1426.8909343329171
 42
0.0031035838760671
 10
327.40159508809603
 20
-1427.2493741946753
 10
327.39848504356064
 20
-1427.2587948160653
 42
0.0025070747153898
 10
327.2755836922471
 20
-1427.6374420330033
 10
327.23828979581987
 20
-1427.7543336982621
 42
0.0029081910284835
 10
327.04627149800996
 20
-1428.3684973565507
 10
327.00546832949203
 20
-1428.5017205988297
 42
0.0009266453732939
 10
326.73705095517221
 20
-1429.3839450587702
 10
326.7161634825552
 20
-1429.4530569379278
 42
-0.0005809993664039
 10
326.43882680194554
 20
-1430.3668650446282
 10
326.3725450036639
 20
-1430.5843499768162
 42
-0.0012018708169476
 10
326.22556069424337
 20
-1431.0625126413086
 10
326.17324084273844
 20
-1431.2312717819789
 42
-0.0002691059610519
 10
326.12967136150928
 20
-1431.3715394025162
 10
323.29671546322004
 20
-1440.4606940048161
 10
321.47872657124151
 20
-1440.4606940048161
 10
327.73097598728941
 20
-1419.816975968286
  0
SPLINE
  5
5C
100
AcDbEntity
  8
0
370
              15
390
0
  6
Continuous
 62
               7
100
AcDbSpline
210
0.0
220
0.0
230
1.0
 70
              13
 71
               2
 72
             782
 73
             779
 74
               0
 42
0.000001
 43
0.000001
 40
0.0
 40
0.0
 40
0.0
 40
1.0
 40
1.0
 40
2.0
 40
2.0
 40
3.0
 40
3.0
 40
4.0
 40
4.0
 40
5.0
 40
5.0
 40
6.0
 40
6.0
 40
7.0
 40
7.0
 40
8.0
 40
8.0
 40
9.0
 40
9.0
 40
10.0
 40
10.0
 40
11.0
 40
11.0
 40
12.0
 40
12.0
 40
13.0
 40
13.0
 40
14.0
 40
14.0
 40
15.0
 40
15.0
 40
16.0
 40
16.0
 40
17.0
 40
17.0
 40
18.0
 40
18.0
 40
19.0
 40
19.0
 40
20.0
 40
20.0
 40
21.0
 40
21.0
 40
22.0
 40
22.0
 40
23.0
 40
23.0
 40
24.0
 40
24.0
 40
25.0
 40
25.0
 40
26.0
 40
26.0
 40
27.0
 40
27.0
 40
28.0
 40
28.0
 40
29.0
 40
29.0
 40
30.0
 40
30.0
 40
31.0
 40
31.0
 40
32.0
 40
32.0
 40
33.0
 40
33.0
 40
34.0
 40
34.0
 40
35.0
 40
35.0
 40
36.0
 40
36.0
 40
37.0
 40
37.0
 40
38.0
 40
38.0
 40
39.0
 40
39.0
 40
40.0
 40
40.0
 40
41.0
 40
41.0
 40
42.0
 40
42.0
 40
43.0
 40
43.0
 40
44.0
 40
44.0
 40
45.0
 40
45.0
 40
46.0
 40
46.0
 40
47.0
 40
47.0
 40
48.0
 40
48.0
 40
49.0
 40
49.0
 40
50.0
 40
50.0
 40
51.0
 40
51.0
 40
52.0
 40
52.0
 40
53.0
 40
53.0
 40
54.0
 40
54.0
 40
55.0
 40
55.0
 40
56.0
 40
56.0
 40
57.0
 40
57.0
 40
58.0
 40
58.0
 40
59.0
 40
59.0
 40
60.0
 40
60.0
 40
61.0
 40
61.0
 40
62.0
 40
62.0
 40
63.0
 40
63.0
 40
64.0
 40
64.0
 40
65.0
 40
65.0
 40
66.0
 40
66.0
 40
67.0
 40
67.0
 40
68.0
 40
68.0
 40
69.0
 40
69.0
 40
70.0
 40
70.0
 40
71.0
 40
71.0
 40
72.0
 40
72.0
 40
73.0
 40
73.0
 40
74.0
 40
74.0
 40
75.0
 40
75.0
 40
76.0
 40
76.0
 40
77.0
 40
77.0
 40
78.0
 40
78.0
 40
79.0
 40
79.0
 40
80.0
 40
80.0
 40
81.0
 40
81.0
 40
82.0
 40
82.0
 40
83.0
 40
83.0
 40
84.0
 40
84.0
 40
85.0
 40
85.0
 40
86.0
 40
86.0
 40
87.0
 40
87.0
 40
88.0
 40
88.0
 40
89.0
 40
89.0
 40
90.0
 40
90.0
 40
91.0
 40
91.0
 40
92.0
 40
92.0
 40
93.0
 40
93.0
 40
94.0
 40
94.0
 40
95.0
 40
95.0
 40
96.0
 40
96.0
 40
97.0
 40
97.0
 40
98.0
 40
98.0
 40
99.0
 40
99.0
 40
100.0
 40
100.0
 40
101.0
 40
101.0
 40
102.0
 40
102.0
 40
103.0
 40
103.0
 40
104.0
 40
104.0
 40
105.0
 40
105.0
 40
106.0
 40
106.0
 40
107.0
 40
107.0
 40
108.0
 40
108.0
 40
109.0
 40
109.0
 40
110.0
 40
110.0
 40
111.0
 40
111.0
 40
112.0
 40
112.0
 40
113.0
 40
113.0
 40
114.0
 40
114.0
 40
115.0
 40
115.0
 40
116.0
 40
116.0
 40
117.0
 40
117.0
 40
118.0
 40
118.0
 40
119.0
 40
119.0
 40
120.0
 40
120.0
 40
121.0
 40
121.0
 40
122.0
 40
122.0
 40
123.0
 40
123.0
 40
124.0
 40
124.0
 40
125.0
 40
125.0
 40
126.0
 40
126.0
 40
127.0
 40
127.0
 40
128.0
 40
128.0
 40
129.0
 40
129.0
 40
130.0
 40
130.0
 40
131.0
 40
131.0
 40
132.0
 40
132.0
 40
133.0
 40
133.0
 40
134.0
 40
134.0
 40
135.0
 40
135.0
 40
136.0
 40
136.0
 40
137.0
 40
137.0
 40
138.0
 40
138.0
 40
139.0
 40
139.0
 40
140.0
 40
140.0
 40
141.0
 40
141.0
 40
142.0
 40
142.0
 40
143.0
 40
143.0
 40
144.0
 40
144.0
 40
145.0
 40
145.0
 40
146.0
 40
146.0
 40
147.0
 40
147.0
 40
148.0
 40
148.0
 40
149.0
 40
149.0
 40
150.0
 40
150.0
 40
151.0
 40
151.0
 40
152.0
 40
152.0
 40
153.0
 40
153.0
 40
154.0
 40
154.0
 40
155.0
 40
155.0
 40
156.0
 40
156.0
 40
157.0
 40
157.0
 40
158.0
 40
158.0
 40
159.0
 40
159.0
 40
160.0
 40
160.0
 40
161.0
 40
161.0
 40
162.0
 40
162.0
 40
163.0
 40
163.0
 40
164.0
 40
164.0
 40
165.0
 40
165.0
 40
166.0
 40
166.0
 40
167.0
 40
167.0
 40
168.0
 40
168.0
 40
169.0
 40
169.0
 40
170.0
 40
170.0
 40
171.0
 40
171.0
 40
172.0
 40
172.0
 40
173.0
 40
173.0
 40
174.0
 40
174.0
 40
175.0
 40
175.0
 40
176.0
 40
176.0
 40
177.0
 40
177.0
 40
178.0
 40
178.0
 40
179.0
 40
179.0
 40
180.0
 40
180.0
 40
181.0
 40
181.0
 40
182.0
 40
182.0
 40
183.0
 40
183.0
 40
184.0
 40
184.0
 40
185.0
 40
185.0
 40
186.0
 40
186.0
 40
187.0
 40
187.0
 40
188.0
 40
188.0
 40
189.0
 40
189.0
 40
190.0
 40
190.0
 40
191.0
 40
191.0
 40
192.0
 40
192.0
 40
193.0
 40
193.0
 40
194.0
 40
194.0
 40
195.0
 40
195.0
 40
196.0
 40
196.0
 40
197.0
 40
197.0
 40
198.0
 40
198.0
 40
199.0
 40
199.0
 40
200.0
 40
200.0
 40
201.0
 40
201.0
 40
202.0
 40
202.0
 40
203.0
 40
203.0
 40
204.0
 40
204.0
 40
205.0
 40
205.0
 40
206.0
 40
206.0
 40
207.0
 40
207.0
 40
208.0
 40
208.0
 40
209.0
 40
209.0
 40
210.0
 40
210.0
 40
211.0
 40
211.0
 40
212.0
 40
212.0
 40
213.0
 40
213.0
 40
214.0
 40
214.0
 40
215.0
 40
215.0
 40
216.0
 40
216.0
 40
217.0
 40
217.0
 40
218.0
 40
218.0
 40
219.0
 40
219.0
 40
220.0
 40
220.0
 40
221.0
 40
221.0
 40
222.0
 40
222.0
 40
223.0
 40
223.0
 40
224.0
 40
224.0
 40
225.0
 40
225.0
 40
226.0
 40
226.0
 40
227.0
 40
227.0
 40
228.0
 40
228.0
 40
229.0
 40
229.0
 40
230.0
 40
230.0
 40
231.0
 40
231.0
 40
232.0
 40
232.0
 40
233.0
 40
233.0
 40
234.0
 40
234.0
 40
235.0
 40
235.0
 40
236.0
 40
236.0
 40
237.0
 40
237.0
 40
238.0
 40
238.0
 40
239.0
 40
239.0
 40
240.0
 40
240.0
 40
241.0
 40
241.0
 40
242.0
 40
242.0
 40
243.0
 40
243.0
 40
244.0
 40
244.0
 40
245.0
 40
245.0
 40
246.0
 40
246.0
 40
247.0
 40
247.0
 40
248.0
 40
248.0
 40
249.0
 40
249.0
 40
250.0
 40
250.0
 40
251.0
 40
251.0
 40
252.0
 40
252.0
 40
253.0
 40
253.0
 40
254.0
 40
254.0
 40
255.0
 40
255.0
 40
256.0
 40
256.0
 40
257.0
 40
257.0
 40
258.0
 40
258.0
 40
259.0
 40
259.0
 40
260.0
 40
260.0
 40
261.0
 40
261.0
 40
262.0
 40
262.0
 40
263.0
 40
263.0
 40
264.0
 40
264.0
 40
265.0
 40
265.0
 40
266.0
 40
266.0
 40
267.0
 40
267.0
 40
268.0
 40
268.0
 40
269.0
 40
269.0
 40
270.0
 40
270.0
 40
271.0
 40
271.0
 40
272.0
 40
272.0
 40
273.0
 40
273.0
 40
274.0
 40
274.0
 40
275.0
 40
275.0
 40
276.0
 40
276.0
 40
277.0
 40
277.0
 40
278.0
 40
278.0
 40
279.0
 40
279.0
 40
280.0
 40
280.0
 40
281.0
 40
281.0
 40
282.0
 40
282.0
 40
283.0
 40
283.0
 40
284.0
 40
284.0
 40
285.0
 40
285.0
 40
286.0
 40
286.0
 40
287.0
 40
287.0
 40
288.0
 40
288.0
 40
289.0
 40
289.0
 40
290.0
 40
290.0
 40
291.0
 40
291.0
 40
292.0
 40
292.0
 40
293.0
 40
293.0
 40
294.0
 40
294.0
 40
295.0
 40
295.0
 40
296.0
 40
296.0
 40
297.0
 40
297.0
 40
298.0
 40
298.0
 40
299.0
 40
299.0
 40
300.0
 40
300.0
 40
301.0
 40
301.0
 40
302.0
 40
302.0
 40
303.0
 40
303.0
 40
304.0
 40
304.0
 40
305.0
 40
305.0
 40
306.0
 40
306.0
 40
307.0
 40
307.0
 40
308.0
 40
308.0
 40
309.0
 40
309.0
 40
310.0
 40
310.0
 40
311.0
 40
311.0
 40
312.0
 40
312.0
 40
313.0
 40
313.0
 40
314.0
 40
314.0
 40
315.0
 40
315.0
 40
316.0
 40
316.0
 40
317.0
 40
317.0
 40
318.0
 40
318.0
 40
319.0
 40
319.0
 40
320.0
 40
320.0
 40
321.0
 40
321.0
 40
322.0
 40
322.0
 40
323.0
 40
323.0
 40
324.0
 40
324.0
 40
325.0
 40
325.0
 40
326.0
 40
326.0
 40
327.0
 40
327.0
 40
328.0
 40
328.0
 40
329.0
 40
329.0
 40
330.0
 40
330.0
 40
331.0
 40
331.0
 40
332.0
 40
332.0
 40
333.0
 40
333.0
 40
334.0
 40
334.0
 40
335.0
 40
335.0
 40
336.0
 40
336.0
 40
337.0
 40
337.0
 40
338.0
 40
338.0
 40
339.0
 40
339.0
 40
340.0
 40
340.0
 40
341.0
 40
341.0
 40
342.0
 40
342.0
 40
343.0
 40
343.0
 40
344.0
 40
344.0
 40
345.0
 40
345.0
 40
346.0
 40
346.0
 40
347.0
 40
347.0
 40
348.0
 40
348.0
 40
349.0
 40
349.0
 40
350.0
 40
350.0
 40
351.0
 40
351.0
 40
352.0
 40
352.0
 40
353.0
 40
353.0
 40
354.0
 40
354.0
 40
355.0
 40
355.0
 40
356.0
 40
356.0
 40
357.0
 40
357.0
 40
358.0
 40
358.0
 40
359.0
 40
359.0
 40
360.0
 40
360.0
 40
361.0
 40
361.0
 40
362.0
 40
362.0
 40
363.0
 40
363.0
 40
364.0
 40
364.0
 40
365.0
 40
365.0
 40
366.0
 40
366.0
 40
367.0
 40
367.0
 40
368.0
 40
368.0
 40
369.0
 40
369.0
 40
370.0
 40
370.0
 40
371.0
 40
371.0
 40
372.0
 40
372.0
 40
373.0
 40
373.0
 40
374.0
 40
374.0
 40
375.0
 40
375.0
 40
376.0
 40
376.0
 40
377.0
 40
377.0
 40
378.0
 40
378.0
 40
379.0
 40
379.0
 40
380.0
 40
380.0
 40
381.0
 40
381.0
 40
382.0
 40
382.0
 40
383.0
 40
383.0
 40
384.0
 40
384.0
 40
385.0
 40
385.0
 40
386.0
 40
386.0
 40
387.0
 40
387.0
 40
388.0
 40
388.0
 40
389.0
 40
389.0
 40
389.0
 10
338.05968043802204
 20
-1419.8060496049238
 30
0.0
 41
1.0
 10
338.87810454674252
 20
-1419.8060496049238
 30
0.0
 41
1.0
 10
339.696528655463
 20
-1419.8060496049238
 30
0.0
 41
1.0
 10
339.28277491994623
 20
-1421.1486758691735
 30
0.0
 41
1.0
 10
338.86902118442947
 20
-1422.4913021334232
 30
0.0
 41
1.0
 10
338.8873606795969
 20
-1422.4626013605121
 30
0.0
 41
0.9999957264431535
 10
338.90586767642856
 20
-1422.4340083103602
 30
0.0
 41
1.0
 10
338.93629700056567
 20
-1422.3869954319848
 30
0.0
 41
1.0
 10
338.96672632470273
 20
-1422.3399825536092
 30
0.0
 41
1.0
 10
339.0460919698092
 20
-1422.2173637467054
 30
0.0
 41
0.9995394069081417
 10
339.13275036136184
 20
-1422.0997856849626
 30
0.0
 41
1.0
 10
339.16850722362085
 20
-1422.0512707923704
 30
0.0
 41
1.0
 10
339.20426408587986
 20
-1422.0027558997779
 30
0.0
 41
1.0
 10
339.33799075369842
 20
-1421.8213156246504
 30
0.0
 41
0.9994460617143123
 10
339.48349123498645
 20
-1421.6491732270008
 30
0.0
 41
1.0
 10
339.48787941596129
 20
-1421.6439815466183
 30
0.0
 41
1.0
 10
339.49226759693619
 20
-1421.638789866236
 30
0.0
 41
1.0
 10
339.62899171627521
 20
-1421.4770308293505
 30
0.0
 41
0.9994359394934267
 10
339.77626594662576
 20
-1421.3248146281867
 30
0.0
 41
1.0
 10
339.77864930057945
 20
-1421.3223512978132
 30
0.0
 41
1.0
 10
339.78103265453308
 20
-1421.3198879674396
 30
0.0
 41
1.0
 10
339.92354017697704
 20
-1421.1725984270222
 30
0.0
 41
0.9995293688567809
 10
340.07481185795939
 20
-1421.0343252148577
 30
0.0
 41
1.0
 10
340.09410561722189
 20
-1421.0166893292073
 30
0.0
 41
1.0
 10
340.11339937648444
 20
-1420.9990534435569
 30
0.0
 41
1.0
 10
340.22608353894276
 20
-1420.8960520026926
 30
0.0
 41
0.9997087614803371
 10
340.34360642789653
 20
-1420.7986077218957
 30
0.0
 41
1.0
 10
340.36277250107315
 20
-1420.782716143387
 30
0.0
 41
1.0
 10
340.38193857424977
 20
-1420.7668245648781
 30
0.0
 41
1.0
 10
340.46112931685275
 20
-1420.7011634410967
 30
0.0
 41
0.9999595338694874
 10
340.54148858770674
 20
-1420.6369377104429
 30
0.0
 41
1.0
 10
340.62184785856221
 20
-1420.572711979788
 30
0.0
 41
0.9999749417502314
 10
340.70310839290738
 20
-1420.5096304258402
 30
0.0
 41
1.0
 10
340.72409453907397
 20
-1420.4933391385352
 30
0.0
 41
1.0
 10
340.74508068524057
 20
-1420.4770478512305
 30
0.0
 41
1.0
 10
340.8296485705381
 20
-1420.4113988413928
 30
0.0
 41
0.9999792037115431
 10
340.91505617030776
 20
-1420.3468460597489
 30
0.0
 41
1.0
 10
340.93588099623287
 20
-1420.331106237481
 30
0.0
 41
1.0
 10
340.95670582215803
 20
-1420.3153664152128
 30
0.0
 41
1.0
 10
341.00046377011506
 20
-1420.2822932780768
 30
0.0
 41
0.9999993373890017
 10
341.04414545622046
 20
-1420.2491194826812
 30
0.0
 41
1.0
 10
341.08782714236156
 20
-1420.2159456872587
 30
0.0
 41
0.9999160953816675
 10
341.13235355328146
 20
-1420.1839146220605
 30
0.0
 41
1.0
 10
341.16517544070189
 20
-1420.1603034664749
 30
0.0
 41
1.0
 10
341.19799732812226
 20
-1420.1366923108892
 30
0.0
 41
1.0
 10
341.30816751388056
 20
-1420.0574389345215
 30
0.0
 41
0.9980964527232543
 10
341.42725650738089
 20
-1419.9923514616655
 30
0.0
 41
1.0
 10
341.46428911431047
 20
-1419.9721114820716
 30
0.0
 41
1.0
 10
341.50132172124006
 20
-1419.9518715024776
 30
0.0
 41
1.0
 10
341.68064873451198
 20
-1419.8538612517771
 30
0.0
 41
0.9984572810572731
 10
341.86973730086953
 20
-1419.7763389904314
 30
0.0
 41
1.0
 10
341.87338357026539
 20
-1419.7748440980936
 30
0.0
 41
1.0
 10
341.87702983966125
 20
-1419.7733492057555
 30
0.0
 41
1.0
 10
342.05882586722851
 20
-1419.6988167290851
 30
0.0
 41
0.9987838528034064
 10
342.24707852578769
 20
-1419.6425510889194
 30
0.0
 41
1.0
 10
342.25131647498438
 20
-1419.6412844352299
 30
0.0
 41
1.0
 10
342.25555442418113
 20
-1419.6400177815401
 30
0.0
 41
1.0
 10
342.43533118434482
 20
-1419.5862854487541
 30
0.0
 41
0.9990652816207284
 10
342.61907711606278
 20
-1419.5482817692116
 30
0.0
 41
1.0
 10
342.62426551709666
 20
-1419.5472086661046
 30
0.0
 41
1.0
 10
342.62945391813054
 20
-1419.5461355629975
 30
0.0
 41
1.0
 10
342.80282304778098
 20
-1419.5102780896693
 30
0.0
 41
0.9992909934270529
 10
342.97839881423698
 20
-1419.487567657203
 30
0.0
 41
1.0
 10
343.15397458069253
 20
-1419.4648572247368
 30
0.0
 41
0.9994553539448324
 10
343.33066601378334
 20
-1419.4537779205307
 30
0.0
 41
1.0
 10
343.36610042158168
 20
-1419.4515560324826
 30
0.0
 41
1.0
 10
343.40153482938001
 20
-1419.4493341444347
 30
0.0
 41
1.0
 10
343.56776059594921
 20
-1419.438911082023
 30
0.0
 41
0.9990928098292988
 10
343.73427038785172
 20
-1419.4426707232574
 30
0.0
 41
1.0
 10
343.77283222312781
 20
-1419.4435414147906
 30
0.0
 41
1.0
 10
343.81139405840395
 20
-1419.4444121063236
 30
0.0
 41
1.0
 10
343.90078017975878
 20
-1419.446430364492
 30
0.0
 41
0.9998382089204654
 10
343.99003586254059
 20
-1419.45166249102
 30
0.0
 41
1.0
 10
343.99046576875941
 20
-1419.4516876919222
 30
0.0
 41
1.0
 10
343.99089567497822
 20
-1419.4517128928244
 30
0.0
 41
1.0
 10
344.07929154532587
 20
-1419.456894617548
 30
0.0
 41
0.9997558016758554
 10
344.16737212252758
 20
-1419.4659771329145
 30
0.0
 41
1.0
 10
344.1678482609542
 20
-1419.4660262303969
 30
0.0
 41
1.0
 10
344.16832439938077
 20
-1419.466075327879
 30
0.0
 41
1.0
 10
344.25545269972531
 20
-1419.4750596482804
 30
0.0
 41
0.9996565144181413
 10
344.3419905530705
 20
-1419.48859695497
 30
0.0
 41
1.0
 10
344.34245647844796
 20
-1419.4886698407013
 30
0.0
 41
1.0
 10
344.34292240382541
 20
-1419.4887427264327
 30
0.0
 41
1.0
 10
344.42852840641257
 20
-1419.5021342616592
 30
0.0
 41
0.9995321806867564
 10
344.51315548674052
 20
-1419.5207347500884
 30
0.0
 41
1.0
 10
344.51354468131416
 20
-1419.5208202925546
 30
0.0
 41
1.0
 10
344.5139338758878
 20
-1419.520905835021
 30
0.0
 41
1.0
 10
344.59778256707023
 20
-1419.5393352385183
 30
0.0
 41
0.9993819199219609
 10
344.6801291012647
 20
-1419.5636106217783
 30
0.0
 41
1.0
 10
344.68036753476349
 20
-1419.5636809108878
 30
0.0
 41
1.0
 10
344.68060596826223
 20
-1419.5637511999973
 30
0.0
 41
1.0
 10
344.76247563546133
 20
-1419.5878860050391
 30
0.0
 41
0.9992088568505263
 10
344.84216815444915
 20
-1419.6184512408333
 30
0.0
 41
1.0
 10
344.92184914532822
 20
-1419.6490108415667
 30
0.0
 41
0.9990226101773901
 10
344.99851981523534
 20
-1419.6864882731811
 30
0.0
 41
1.0
 10
345.07517895703455
 20
-1419.7239600697351
 30
0.0
 41
0.9988424273972413
 10
345.14788258424755
 20
-1419.7686248449886
 30
0.0
 41
1.0
 10
345.14815029262599
 20
-1419.7687893090601
 30
0.0
 41
1.0
 10
345.14841800100442
 20
-1419.7689537731319
 30
0.0
 41
1.0
 10
345.22165704497417
 20
-1419.8139474765285
 30
0.0
 41
0.9986928844491374
 10
345.28991991168289
 20
-1419.8661832108071
 30
0.0
 41
1.0
 10
345.29050120390673
 20
-1419.8666280240359
 30
0.0
 41
1.0
 10
345.29108249613063
 20
-1419.8670728372647
 30
0.0
 41
1.0
 10
345.36050794728664
 20
-1419.9201981980007
 30
0.0
 41
0.9986007262277263
 10
345.42393411705427
 20
-1419.9803589676953
 30
0.0
 41
1.0
 10
345.42482853251067
 20
-1419.9812073355297
 30
0.0
 41
1.0
 10
345.42572294796707
 20
-1419.9820557033638
 30
0.0
 41
1.0
 10
345.49093794864831
 20
-1420.0439132087276
 30
0.0
 41
0.998558149138181
 10
345.54914556034942
 20
-1420.1124056989986
 30
0.0
 41
1.0
 10
345.55840401394551
 20
-1420.1233000567006
 30
0.0
 41
1.0
 10
345.56766246754154
 20
-1420.1341944144026
 30
0.0
 41
1.0
 10
345.64438698643471
 20
-1420.2244756200773
 30
0.0
 41
0.9970460233519934
 10
345.7063788875945
 20
-1420.3254427042598
 30
0.0
 41
1.0
 10
345.72084825267399
 20
-1420.349009163341
 30
0.0
 41
1.0
 10
345.73531761775348
 20
-1420.3725756224221
 30
0.0
 41
1.0
 10
345.77505431776603
 20
-1420.4372953464547
 30
0.0
 41
0.9988468816637028
 10
345.80840068851705
 20
-1420.5055277988813
 30
0.0
 41
1.0
 10
345.8154367110086
 20
-1420.5199247200189
 30
0.0
 41
1.0
 10
345.82247273350015
 20
-1420.5343216411563
 30
0.0
 41
1.0
 10
345.84174705926779
 20
-1420.5737602513072
 30
0.0
 41
0.9998431190000414
 10
345.85961238676356
 20
-1420.6138568057497
 30
0.0
 41
1.0
 10
345.87747771426382
 20
-1420.6539533602022
 30
0.0
 41
0.9999989989722395
 10
345.89545643768156
 20
-1420.6939991977765
 30
0.0
 41
1.0
 10
345.90162874927529
 20
-1420.7077474145881
 30
0.0
 41
1.0
 10
345.90780106086902
 20
-1420.7214956313994
 30
0.0
 41
1.0
 10
345.93812440747894
 20
-1420.7890379026069
 30
0.0
 41
0.9998790356322362
 10
345.96633228761772
 20
-1420.8574906545462
 30
0.0
 41
1.0
 10
345.97316746890192
 20
-1420.8740777559733
 30
0.0
 41
1.0
 10
345.98000265018618
 20
-1420.8906648574007
 30
0.0
 41
1.0
 10
346.00356031256553
 20
-1420.9478328122832
 30
0.0
 41
0.9998227574561177
 10
346.02494906095569
 20
-1421.0058471205634
 30
0.0
 41
1.0
 10
346.04633780934495
 20
-1421.0638614288409
 30
0.0
 41
0.9996797971041738
 10
346.0647640943036
 20
-1421.1228835479571
 30
0.0
 41
1.0
 10
346.06866789702946
 20
-1421.135388006127
 30
0.0
 41
1.0
 10
346.07257169975531
 20
-1421.147892464297
 30
0.0
 41
1.0
 10
346.09880559016568
 20
-1421.2319234997533
 30
0.0
 41
0.9979274938734144
 10
346.1140301136449
 20
-1421.3186278584139
 30
0.0
 41
1.0
 10
346.11625380090589
 20
-1421.3312918592339
 30
0.0
 41
1.0
 10
346.11847748816689
 20
-1421.3439558600539
 30
0.0
 41
1.0
 10
346.12940742786543
 20
-1421.4062023673448
 30
0.0
 41
0.9994985982136516
 10
346.13637559304237
 20
-1421.4690158684878
 30
0.0
 41
1.0
 10
346.14334375821926
 20
-1421.5318293696278
 30
0.0
 41
0.9996372611201175
 10
346.14691962398712
 20
-1421.5949269483128
 30
0.0
 41
1.0
 10
346.14708820147644
 20
-1421.5979015653947
 30
0.0
 41
1.0
 10
346.1472567789657
 20
-1421.6008761824764
 30
0.0
 41
1.0
 10
346.15116979971202
 20
-1421.6699229953233
 30
0.0
 41
0.9997730630736358
 10
346.15213811320012
 20
-1421.7390738193551
 30
0.0
 41
1.0
 10
346.15219521961825
 20
-1421.7431519984978
 30
0.0
 41
1.0
 10
346.15225232603638
 20
-1421.7472301776404
 30
0.0
 41
1.0
 10
346.15333485236073
 20
-1421.824537359955
 30
0.0
 41
0.9998772614069553
 10
346.15199476562896
 20
-1421.9018405065192
 30
0.0
 41
1.0
 10
346.15190550243017
 20
-1421.9069896703559
 30
0.0
 41
1.0
 10
346.15181623923144
 20
-1421.9121388341925
 30
0.0
 41
1.0
 10
346.15029762610237
 20
-1421.9997403084262
 30
0.0
 41
0.9999415567327852
 10
346.14688531585614
 20
-1422.0872884701059
 30
0.0
 41
1.0
 10
346.14664399518085
 20
-1422.0934799298411
 30
0.0
 41
1.0
 10
346.14640267450562
 20
-1422.0996713895765
 30
0.0
 41
1.0
 10
346.14250772290933
 20
-1422.1996024707205
 30
0.0
 41
0.9999716810421069
 10
346.13710913979082
 20
-1422.2994636089491
 30
0.0
 41
1.0
 10
346.13389634100213
 20
-1422.3588928586046
 30
0.0
 41
1.0
 10
346.13068354221343
 20
-1422.4183221082601
 30
0.0
 41
1.0
 10
346.12260963306034
 20
-1422.5676705095505
 30
0.0
 41
0.9999819129912243
 10
346.11273984144367
 20
-1422.7169109872621
 30
0.0
 41
1.0
 10
346.10287004982706
 20
-1422.8661514649734
 30
0.0
 41
1.0
 10
346.10043072926317
 20
-1422.9033445108225
 30
0.0
 41
1.0
 10
346.12312896310004
 20
-1422.8646035134832
 30
0.0
 41
0.9999982128145933
 10
346.14597352188406
 20
-1422.8259486194768
 30
0.0
 41
1.0
 10
346.17288308175171
 20
-1422.7804154054506
 30
0.0
 41
1.0
 10
346.1997926416193
 20
-1422.7348821914247
 30
0.0
 41
1.0
 10
346.27645632014566
 20
-1422.6051608693542
 30
0.0
 41
0.9998609190058824
 10
346.35740363300755
 20
-1422.4780684874247
 30
0.0
 41
1.0
 10
346.38705195448762
 20
-1422.4315187544701
 30
0.0
 41
1.0
 10
346.41670027596768
 20
-1422.3849690215154
 30
0.0
 41
1.0
 10
346.49897249620841
 20
-1422.2557964515145
 30
0.0
 41
0.9999067609732759
 10
346.5847415056715
 20
-1422.1289187620748
 30
0.0
 41
1.0
 10
346.58714620887332
 20
-1422.1253614960187
 30
0.0
 41
1.0
 10
346.58955091207514
 20
-1422.1218042299624
 30
0.0
 41
1.0
 10
346.67051051513687
 20
-1422.0020410726318
 30
0.0
 41
0.9998784952149015
 10
346.75516412481693
 20
-1421.8848598559248
 30
0.0
 41
1.0
 10
346.8398177344983
 20
-1421.7676786392158
 30
0.0
 41
0.9998532968284096
 10
346.92843535532074
 20
-1421.6534657307459
 30
0.0
 41
1.0
 10
346.94839714431214
 20
-1421.6277384097252
 30
0.0
 41
1.0
 10
346.96835893330353
 20
-1421.6020110887048
 30
0.0
 41
1.0
 10
347.08684298306162
 20
-1421.449305477737
 30
0.0
 41
0.9991551975795088
 10
347.21746743268551
 20
-1421.3068459156532
 30
0.0
 41
1.0
 10
347.22097704866547
 20
-1421.3030183140286
 30
0.0
 41
1.0
 10
347.22448666464544
 20
-1421.299190712404
 30
0.0
 41
1.0
 10
347.34809188231014
 20
-1421.1643863535685
 30
0.0
 41
0.9997418144181828
 10
347.47769402200964
 20
-1421.0353369429572
 30
0.0
 41
1.0
 10
347.60729616171051
 20
-1420.9062875323445
 30
0.0
 41
0.9989238204633171
 10
347.7482987099612
 20
-1420.7898025703059
 30
0.0
 41
1.0
 10
347.79354638810128
 20
-1420.752422578697
 30
0.0
 41
1.0
 10
347.83879406624135
 20
-1420.7150425870877
 30
0.0
 41
1.0
 10
347.97903412346221
 20
-1420.5991875337972
 30
0.0
 41
0.9990825084096638
 10
348.12867405606573
 20
-1420.4957585359646
 30
0.0
 41
1.0
 10
348.13871942012076
 20
-1420.4888153228862
 30
0.0
 41
1.0
 10
348.14876478417574
 20
-1420.4818721098081
 30
0.0
 41
1.0
 10
348.27831398866846
 20
-1420.3923295381323
 30
0.0
 41
0.9998164899825295
 10
348.41119819204596
 20
-1420.3078152966152
 30
0.0
 41
1.0
 10
348.42304375257345
 20
-1420.3002815300886
 30
0.0
 41
1.0
 10
348.43488931310088
 20
-1420.2927477635619
 30
0.0
 41
1.0
 10
348.54408239542408
 20
-1420.2233010550979
 30
0.0
 41
0.9997473449130194
 10
348.65628635267166
 20
-1420.1588320972833
 30
0.0
 41
1.0
 10
348.76849030991661
 20
-1420.09436313947
 30
0.0
 41
0.9999327861146121
 10
348.88215892068098
 20
-1420.032513147788
 30
0.0
 41
1.0
 10
348.88271092324351
 20
-1420.0322127891079
 30
0.0
 41
1.0
 10
348.88326292580598
 20
-1420.0319124304278
 30
0.0
 41
1.0
 10
348.99803554169023
 20
-1419.9694617213884
 30
0.0
 41
0.9996956420483814
 10
349.11574886752976
 20
-1419.9127482544138
 30
0.0
 41
1.0
 10
349.14618927242157
 20
-1419.8980822776844
 30
0.0
 41
1.0
 10
349.17662967731331
 20
-1419.8834163009547
 30
0.0
 41
1.0
 10
349.2796067840593
 20
-1419.8338026425101
 30
0.0
 41
0.9998070570177637
 10
349.38445317300125
 20
-1419.7882720556088
 30
0.0
 41
1.0
 10
349.48929956194115
 20
-1419.7427414687083
 30
0.0
 41
0.9997827436147897
 10
349.59595249855062
 20
-1419.7016202973966
 30
0.0
 41
1.0
 10
349.61517534818273
 20
-1419.6942087237639
 30
0.0
 41
1.0
 10
349.63439819781485
 20
-1419.6867971501313
 30
0.0
 41
1.0
 10
349.77949683368763
 20
-1419.6308528315546
 30
0.0
 41
0.9988031841976626
 10
349.92936719629267
 20
-1419.5893527673868
 30
0.0
 41
1.0
 10
349.95428444465762
 20
-1419.5824530215793
 30
0.0
 41
1.0
 10
349.97920169302256
 20
-1419.5755532757719
 30
0.0
 41
1.0
 10
350.14647171866784
 20
-1419.5292351333658
 30
0.0
 41
0.9984748040549999
 10
350.31782862731484
 20
-1419.5016409011012
 30
0.0
 41
1.0
 10
350.32256776356218
 20
-1419.5008777405878
 30
0.0
 41
1.0
 10
350.32730689980951
 20
-1419.5001145800748
 30
0.0
 41
1.0
 10
350.48918553596224
 20
-1419.4740466688363
 30
0.0
 41
0.9984436495479705
 10
350.65296027968856
 20
-1419.4661687150176
 30
0.0
 41
1.0
 10
350.67465748782178
 20
-1419.465125027818
 30
0.0
 41
1.0
 10
350.69635469595499
 20
-1419.4640813406181
 30
0.0
 41
1.0
 10
350.81673502341511
 20
-1419.4582907611989
 30
0.0
 41
0.9987954789335607
 10
350.93710326832309
 20
-1419.4643272889411
 30
0.0
 41
1.0
 10
350.95706806081546
 20
-1419.4653285332797
 30
0.0
 41
1.0
 10
350.97703285330778
 20
-1419.4663297776181
 30
0.0
 41
1.0
 10
351.05747151323078
 20
-1419.4703638166832
 30
0.0
 41
0.9997941595878016
 10
351.13768029132734
 20
-1419.4776578826045
 30
0.0
 41
1.0
 10
351.21788906941845
 20
-1419.4849519485251
 30
0.0
 41
0.9998589466235281
 10
351.29780761626949
 20
-1419.4949358029749
 30
0.0
 41
1.0
 10
351.33021381808135
 20
-1419.4989841598945
 30
0.0
 41
1.0
 10
351.36262001989326
 20
-1419.5030325168141
 30
0.0
 41
1.0
 10
351.50735097036608
 20
-1419.5211130851028
 30
0.0
 41
0.9993495063249522
 10
351.65040221413341
 20
-1419.549578794845
 30
0.0
 41
1.0
 10
351.68333591128271
 20
-1419.5561322580593
 30
0.0
 41
1.0
 10
351.71626960843196
 20
-1419.5626857212735
 30
0.0
 41
1.0
 10
351.82556343163782
 20
-1419.5844340554092
 30
0.0
 41
0.9996788715560937
 10
351.93361500359538
 20
-1419.6116918547725
 30
0.0
 41
1.0
 10
351.93567800613619
 20
-1419.6122122813458
 30
0.0
 41
1.0
 10
351.93774100867705
 20
-1419.6127327079193
 30
0.0
 41
1.0
 10
352.0416665755539
 20
-1419.6389496541362
 30
0.0
 41
0.9995480654492635
 10
352.1438288107812
 20
-1419.6713646107598
 30
0.0
 41
1.0
 10
352.14551845291032
 20
-1419.6719007156739
 30
0.0
 41
1.0
 10
352.14720809503939
 20
-1419.6724368205878
 30
0.0
 41
1.0
 10
352.24599104601037
 20
-1419.7037795673841
 30
0.0
 41
0.9993867959455801
 10
352.3423382044532
 20
-1419.7419589366739
 30
0.0
 41
1.0
 10
352.34358115353774
 20
-1419.74245147857
 30
0.0
 41
1.0
 10
352.34482410262228
 20
-1419.7429440204662
 30
0.0
 41
1.0
 10
352.43868536289517
 20
-1419.7801383059634
 30
0.0
 41
0.9992050256521557
 10
352.52928503792907
 20
-1419.8246922052024
 30
0.0
 41
1.0
 10
352.53001972064072
 20
-1419.8250534976628
 30
0.0
 41
1.0
 10
352.53075440335238
 20
-1419.8254147901232
 30
0.0
 41
1.0
 10
352.61988471296183
 20
-1419.8692461044407
 30
0.0
 41
0.9990222350741472
 10
352.70479477435612
 20
-1419.9207793721396
 30
0.0
 41
1.0
 10
352.70497865964012
 20
-1419.920890975045
 30
0.0
 41
1.0
 10
352.70516254492418
 20
-1419.9210025779507
 30
0.0
 41
1.0
 10
352.78970483575091
 20
-1419.9723126398387
 30
0.0
 41
0.998864274380564
 10
352.86897937036878
 20
-1420.0314368273632
 30
0.0
 41
1.0
 10
352.9482539049875
 20
-1420.0905610148882
 30
0.0
 41
0.99876812333109
 10
353.02127768926312
 20
-1420.1572517062884
 30
0.0
 41
1.0
 10
353.02160661722928
 20
-1420.1575521075029
 30
0.0
 41
1.0
 10
353.0219355451955
 20
-1420.1578525087175
 30
0.0
 41
1.0
 10
353.09561718540277
 20
-1420.2251440025461
 30
0.0
 41
0.998749657089854
 10
353.16221099072965
 20
-1420.2994568166323
 30
0.0
 41
1.0
 10
353.16298316049051
 20
-1420.3003184899908
 30
0.0
 41
1.0
 10
353.16375533025138
 20
-1420.301180163349
 30
0.0
 41
1.0
 10
353.23189347510043
 20
-1420.3772163241529
 30
0.0
 41
0.9988147669827304
 10
353.29231572932576
 20
-1420.4595173309958
 30
0.0
 41
1.0
 10
353.29343505540282
 20
-1420.4610419623473
 30
0.0
 41
1.0
 10
353.29455438147988
 20
-1420.462566593699
 30
0.0
 41
1.0
 10
353.35721528786001
 20
-1420.547916863246
 30
0.0
 41
0.9989452636215735
 10
353.41178220082111
 20
-1420.6386555524034
 30
0.0
 41
1.0
 10
353.41313092690706
 20
-1420.64089833343
 30
0.0
 41
1.0
 10
353.41447965299301
 20
-1420.6431411144567
 30
0.0
 41
1.0
 10
353.47174401812623
 20
-1420.7383653656682
 30
0.0
 41
0.9991046436071142
 10
353.52075323144732
 20
-1420.8380897986922
 30
0.0
 41
1.0
 10
353.52221709303734
 20
-1420.8410684787648
 30
0.0
 41
1.0
 10
353.52368095462737
 20
-1420.8440471588374
 30
0.0
 41
1.0
 10
353.5756178911289
 20
-1420.9497289520077
 30
0.0
 41
0.9992763831101374
 10
353.61937101968408
 20
-1421.0590530139634
 30
0.0
 41
1.0
 10
353.62085028934746
 20
-1421.0627492014971
 30
0.0
 41
1.0
 10
353.62232955901078
 20
-1421.0664453890308
 30
0.0
 41
1.0
 10
353.66904122689306
 20
-1421.1831618260555
 30
0.0
 41
0.9994163472883355
 10
353.70767425808225
 20
-1421.302795414518
 30
0.0
 41
1.0
 10
353.70891241032916
 20
-1421.3066295583012
 30
0.0
 41
1.0
 10
353.71015056257613
 20
-1421.3104637020845
 30
0.0
 41
1.0
 10
353.7500341235932
 20
-1421.4339697635623
 30
0.0
 41
0.9997268055891098
 10
353.78410217950511
 20
-1421.5592047955126
 30
0.0
 41
1.0
 10
353.78503235977473
 20
-1421.5626241616219
 30
0.0
 41
1.0
 10
353.78596254004441
 20
-1421.5660435277309
 30
0.0
 41
1.0
 10
353.81817023541709
 20
-1421.6844398274629
 30
0.0
 41
0.9996701319000719
 10
353.84425585218759
 20
-1421.8043337807269
 30
0.0
 41
1.0
 10
353.8703414689582
 20
-1421.9242277339915
 30
0.0
 41
0.9995785451109348
 10
353.8894250462979
 20
-1422.0454334950225
 30
0.0
 41
1.0
 10
353.89364482847157
 20
-1422.0722346497871
 30
0.0
 41
1.0
 10
353.89786461064523
 20
-1422.0990358045517
 30
0.0
 41
1.0
 10
353.92443958658396
 20
-1422.2678217782552
 30
0.0
 41
0.9979925101216119
 10
353.92946517251016
 20
-1422.4386131063468
 30
0.0
 41
1.0
 10
353.9302899849348
 20
-1422.4666438298291
 30
0.0
 41
1.0
 10
353.9311147973595
 20
-1422.4946745533114
 30
0.0
 41
1.0
 10
353.93449075843637
 20
-1422.6094044344379
 30
0.0
 41
0.9995314902263709
 10
353.930840566298
 20
-1422.7241259181903
 30
0.0
 41
1.0
 10
353.92719037415935
 20
-1422.8388474019425
 30
0.0
 41
0.9996245486943988
 10
353.91726127902848
 20
-1422.9531966730676
 30
0.0
 41
1.0
 10
353.91709823103429
 20
-1422.9550744292021
 30
0.0
 41
1.0
 10
353.91693518304015
 20
-1422.9569521853366
 30
0.0
 41
1.0
 10
353.90667999192095
 20
-1423.0750569687302
 30
0.0
 41
0.9997286095001341
 10
353.89093466834976
 20
-1423.1925558776229
 30
0.0
 41
1.0
 10
353.89054117569924
 20
-1423.1954923023263
 30
0.0
 41
1.0
 10
353.89014768304867
 20
-1423.1984287270295
 30
0.0
 41
1.0
 10
353.87361537417621
 20
-1423.3218004853295
 30
0.0
 41
0.9998265533968661
 10
353.85249991544396
 20
-1423.4444709601162
 30
0.0
 41
1.0
 10
353.85182337330679
 20
-1423.4484013386239
 30
0.0
 41
1.0
 10
353.85114683116961
 20
-1423.4523317171315
 30
0.0
 41
1.0
 10
353.8286782881641
 20
-1423.5828629489276
 30
0.0
 41
0.9999022530851592
 10
353.8025688235544
 20
-1423.7127149175651
 30
0.0
 41
1.0
 10
353.80159018238817
 20
-1423.7175820599566
 30
0.0
 41
1.0
 10
353.800611541222
 20
-1423.7224492023481
 30
0.0
 41
1.0
 10
353.77254479427972
 20
-1423.8620354557684
 30
0.0
 41
0.9999524761940516
 10
353.74176182544613
 20
-1424.0010479489274
 30
0.0
 41
1.0
 10
353.74048571827086
 20
-1424.0068107082288
 30
0.0
 41
1.0
 10
353.73920961109559
 20
-1424.0125734675305
 30
0.0
 41
1.0
 10
353.7058744279089
 20
-1424.163111479304
 30
0.0
 41
0.9999813588722331
 10
353.67070342711156
 20
-1424.3132311919665
 30
0.0
 41
1.0
 10
353.66914950165631
 20
-1424.3198637823834
 30
0.0
 41
1.0
 10
353.66759557620105
 20
-1424.3264963728002
 30
0.0
 41
1.0
 10
353.62931672449065
 20
-1424.4898812663073
 30
0.0
 41
0.9999955237706814
 10
353.59006084651213
 20
-1424.6530341699054
 30
0.0
 41
1.0
 10
353.57777921087745
 20
-1424.7040783604293
 30
0.0
 41
1.0
 10
353.56549757524283
 20
-1424.7551225509535
 30
0.0
 41
1.0
 10
353.50167842600518
 20
-1425.0203638355574
 30
0.0
 41
0.9999993604516627
 10
353.43725947881239
 20
-1425.2854600863448
 30
0.0
 41
1.0
 10
353.43254064327198
 20
-1425.3048789943578
 30
0.0
 41
1.0
 10
353.42782180773156
 20
-1425.324297902371
 30
0.0
 41
1.0
 10
353.3539651894684
 20
-1425.6282319691404
 30
0.0
 41
0.9999659914734398
 10
353.27510559358404
 20
-1425.9309065156961
 30
0.0
 41
1.0
 10
353.27015290465431
 20
-1425.949915652875
 30
0.0
 41
1.0
 10
353.26520021572452
 20
-1425.9689247900542
 30
0.0
 41
1.0
 10
353.17643524197888
 20
-1426.3096176109748
 30
0.0
 41
0.9999441976027623
 10
353.08049220901404
 20
-1426.648359036278
 30
0.0
 41
1.0
 10
353.06379169058931
 20
-1426.7073227488027
 30
0.0
 41
1.0
 10
353.04709117216458
 20
-1426.7662864613276
 30
0.0
 41
1.0
 10
352.91774710235063
 20
-1427.2229553116792
 30
0.0
 41
0.9999625120736664
 10
352.78051433502816
 20
-1427.6773158456724
 30
0.0
 41
1.0
 10
352.74472439194165
 20
-1427.7958118723113
 30
0.0
 41
1.0
 10
352.70893444885508
 20
-1427.9143078989503
 30
0.0
 41
1.0
 10
352.6344142448163
 20
-1428.1610349770447
 30
0.0
 41
0.9999793386322272
 10
352.55672822168202
 20
-1428.4067836162701
 30
0.0
 41
1.0
 10
352.47904219854445
 20
-1428.6525322555062
 30
0.0
 41
1.0
 10
352.46826263967375
 20
-1428.6865501598809
 30
0.0
 41
1.0
 10
350.6178895864046
 20
-1434.5736220823485
 30
0.0
 41
1.0
 10
348.76751653313545
 20
-1440.4606940048161
 30
0.0
 41
1.0
 10
347.80625984311189
 20
-1440.4606940048161
 30
0.0
 41
1.0
 10
346.84500315308833
 20
-1440.4606940048161
 30
0.0
 41
1.0
 10
348.46394793176677
 20
-1435.3126655030267
 30
0.0
 41
1.0
 10
350.08289271044521
 20
-1430.1646370012372
 30
0.0
 41
1.0
 10
350.12805853361863
 20
-1430.0206057789701
 30
0.0
 41
1.0
 10
350.17322435679199
 20
-1429.8765745567032
 30
0.0
 41
1.0
 10
350.34352877416006
 20
-1429.3334835275236
 30
0.0
 41
0.9999911657901336
 10
350.50926158583678
 20
-1428.7889799961711
 30
0.0
 41
1.0
 10
350.53895752933482
 20
-1428.6914160561284
 30
0.0
 41
1.0
 10
350.56865347283286
 20
-1428.5938521160858
 30
0.0
 41
1.0
 10
350.67499439750839
 20
-1428.2444764648358
 30
0.0
 41
0.9999952428191402
 10
350.77917798684194
 20
-1427.8944514404579
 30
0.0
 41
1.0
 10
350.78423745717464
 20
-1427.877453166182
 30
0.0
 41
1.0
 10
350.78929692750728
 20
-1427.8604548919063
 30
0.0
 41
1.0
 10
350.8833615761688
 20
-1427.5444264161017
 30
0.0
 41
0.9999931687514543
 10
350.97508741404056
 20
-1427.227711202838
 30
0.0
 41
1.0
 10
350.98002267849768
 20
-1427.2106704935752
 30
0.0
 41
1.0
 10
350.98495794295485
 20
-1427.1936297843124
 30
0.0
 41
1.0
 10
351.06681325191335
 20
-1426.9109959895704
 30
0.0
 41
0.999989384080183
 10
351.14606047837106
 20
-1426.6276198603209
 30
0.0
 41
1.0
 10
351.2253077048324
 20
-1426.3442437310584
 30
0.0
 41
0.9999833980053688
 10
351.30128394557352
 20
-1426.0599731480313
 30
0.0
 41
1.0
 10
351.31028788229412
 20
-1426.0262842695593
 30
0.0
 41
1.0
 10
351.31929181901472
 20
-1425.992595391087
 30
0.0
 41
1.0
 10
351.38825636788175
 20
-1425.7345595587881
 30
0.0
 41
0.9999233658066734
 10
351.45081133910139
 20
-1425.4748954000679
 30
0.0
 41
1.0
 10
351.51336631032166
 20
-1425.2152312413455
 30
0.0
 41
1.0
 10
351.55284972917923
 20
-1425.0514245769193
 30
0.0
 41
1.0
 10
351.55782833315743
 20
-1425.0307696150451
 30
0.0
 41
1.0
 10
351.56280693713558
 20
-1425.0101146531708
 30
0.0
 41
1.0
 10
351.59233314803703
 20
-1424.8876179124918
 30
0.0
 41
0.9999868670847063
 10
351.62060223203298
 20
-1424.7648249668478
 30
0.0
 41
1.0
 10
351.6244997191917
 20
-1424.7478953794264
 30
0.0
 41
1.0
 10
351.62839720635043
 20
-1424.730965792005
 30
0.0
 41
1.0
 10
351.64887131602848
 20
-1424.6420320212048
 30
0.0
 41
0.9999778173341978
 10
351.66815891414461
 20
-1424.5528334039718
 30
0.0
 41
1.0
 10
351.68744651226052
 20
-1424.463634786739
 30
0.0
 41
0.9999602692863848
 10
351.70514087089038
 20
-1424.3741064983174
 30
0.0
 41
1.0
 10
351.70834470296825
 20
-1424.3578960434306
 30
0.0
 41
1.0
 10
351.71154853504606
 20
-1424.3416855885437
 30
0.0
 41
1.0
 10
351.73565055783286
 20
-1424.2197363903426
 30
0.0
 41
0.9995617985320046
 10
351.7524939050511
 20
-1424.0965746426377
 30
0.0
 41
1.0
 10
351.75495839495721
 20
-1424.078553825273
 30
0.0
 41
1.0
 10
351.75742288486333
 20
-1424.0605330079084
 30
0.0
 41
1.0
 10
351.77770614591151
 20
-1423.9122179582077
 30
0.0
 41
0.9991121410639686
 10
351.78543149949985
 20
-1423.7627218594012
 30
0.0
 41
1.0
 10
351.78635028952442
 20
-1423.7449420228249
 30
0.0
 41
1.0
 10
351.78726907954893
 20
-1423.727162186249
 30
0.0
 41
1.0
 10
351.79315685308813
 20
-1423.6132257605943
 30
0.0
 41
0.9989792494905286
 10
351.78873776097078
 20
-1423.4992229246966
 30
0.0
 41
1.0
 10
351.78808978910206
 20
-1423.4825066787675
 30
0.0
 41
1.0
 10
351.78744181723334
 20
-1423.4657904328387
 30
0.0
 41
1.0
 10
351.78431866885336
 20
-1423.3852200887964
 30
0.0
 41
0.9997820295392906
 10
351.77783467147776
 20
-1423.3048503670541
 30
0.0
 41
1.0
 10
351.77135067410234
 20
-1423.224480645313
 30
0.0
 41
0.9998335105973994
 10
351.76193847859031
 20
-1423.1444010288596
 30
0.0
 41
1.0
 10
351.76034355391403
 20
-1423.130831298377
 30
0.0
 41
1.0
 10
351.75874862923769
 20
-1423.117261567894
 30
0.0
 41
1.0
 10
351.74614658437338
 20
-1423.0100424904797
 30
0.0
 41
0.9996876457879899
 10
351.7282026715751
 20
-1422.9035870627631
 30
0.0
 41
1.0
 10
351.72597100842984
 20
-1422.8903473275213
 30
0.0
 41
1.0
 10
351.72373934528451
 20
-1422.8771075922796
 30
0.0
 41
1.0
 10
351.70994352386327
 20
-1422.7952614483195
 30
0.0
 41
0.9995547496495025
 10
351.69129020197067
 20
-1422.7143839511289
 30
0.0
 41
1.0
 10
351.6909162450994
 20
-1422.7127625404235
 30
0.0
 41
1.0
 10
351.69054228822807
 20
-1422.711141129718
 30
0.0
 41
1.0
 10
351.67263688007847
 20
-1422.6335064539394
 30
0.0
 41
0.9994899427175716
 10
351.64981197139872
 20
-1422.5571731711032
 30
0.0
 41
1.0
 10
351.64935344465795
 20
-1422.5556397213145
 30
0.0
 41
1.0
 10
351.64889491791718
 20
-1422.5541062715258
 30
0.0
 41
1.0
 10
351.62698706271976
 20
-1422.4808398882697
 30
0.0
 41
0.9993784877590435
 10
351.59997142761279
 20
-1422.4092991831096
 30
0.0
 41
1.0
 10
351.59943973663587
 20
-1422.407891200389
 30
0.0
 41
1.0
 10
351.59890804565896
 20
-1422.4064832176684
 30
0.0
 41
1.0
 10
351.57295579250615
 20
-1422.3377584779505
 30
0.0
 41
0.9992430832254646
 10
351.54173925734682
 20
-1422.2712593258823
 30
0.0
 41
1.0
 10
351.54115714129034
 20
-1422.2700192707653
 30
0.0
 41
1.0
 10
351.54057502523381
 20
-1422.268779215648
 30
0.0
 41
1.0
 10
351.51052272218749
 20
-1422.2047601738143
 30
0.0
 41
0.9990789632799058
 10
351.47509209541079
 20
-1422.1435535620644
 30
0.0
 41
1.0
 10
351.4744963892287
 20
-1422.1425244762049
 30
0.0
 41
1.0
 10
351.47390068304662
 20
-1422.1414953903457
 30
0.0
 41
1.0
 10
351.43966146863346
 20
-1422.0823469503136
 30
0.0
 41
0.998887480112018
 10
351.40000219260202
 20
-1422.026687237897
 30
0.0
 41
1.0
 10
351.39944666653821
 20
-1422.025907586223
 30
0.0
 41
1.0
 10
351.3988911404744
 20
-1422.0251279345489
 30
0.0
 41
1.0
 10
351.36034291657029
 20
-1421.9710275254797
 30
0.0
 41
0.9986762060693327
 10
351.31644044529384
 20
-1421.92117381104
 30
0.0
 41
1.0
 10
351.31599648496228
 20
-1421.920669669224
 30
0.0
 41
1.0
 10
351.31555252463068
 20
-1421.9201655274082
 30
0.0
 41
1.0
 10
351.27253797401858
 20
-1421.8713200966017
 30
0.0
 41
0.9984621642488166
 10
351.22438041723984
 20
-1421.8275367961296
 30
0.0
 41
1.0
 10
351.22413378272256
 20
-1421.8273125639653
 30
0.0
 41
1.0
 10
351.22388714820522
 20
-1421.8270883318012
 30
0.0
 41
1.0
 10
351.17622286046168
 20
-1421.7837534956579
 30
0.0
 41
0.9982724693850498
 10
351.1238042286206
 20
-1421.7463091451409
 30
0.0
 41
1.0
 10
351.07138559678003
 20
-1421.7088647946241
 30
0.0
 41
0.9981399180160097
 10
351.01479953338719
 20
-1421.6780782751807
 30
0.0
 41
1.0
 10
351.01475387130802
 20
-1421.6780534320233
 30
0.0
 41
1.0
 10
351.0147082092289
 20
-1421.6780285888656
 30
0.0
 41
1.0
 10
350.95803082167811
 20
-1421.6471923831075
 30
0.0
 41
0.9980927086835975
 10
350.89798547061019
 20
-1421.6235755742546
 30
0.0
 41
1.0
 10
350.89754530089954
 20
-1421.6234024483799
 30
0.0
 41
1.0
 10
350.89710513118888
 20
-1421.6232293225053
 30
0.0
 41
1.0
 10
350.83617944069914
 20
-1421.5992662619028
 30
0.0
 41
0.9981411356562372
 10
350.77279091930023
 20
-1421.5828936203973
 30
0.0
 41
1.0
 10
350.77190880259855
 20
-1421.5826657781918
 30
0.0
 41
1.0
 10
350.77102668589686
 20
-1421.5824379359863
 30
0.0
 41
1.0
 10
350.70587393109486
 20
-1421.5656096100697
 30
0.0
 41
0.9983031812934647
 10
350.63920650210014
 20
-1421.5564702488937
 30
0.0
 41
1.0
 10
350.63033547669608
 20
-1421.5552541302222
 30
0.0
 41
1.0
 10
350.62146445129201
 20
-1421.5540380115508
 30
0.0
 41
1.0
 10
350.56711480878789
 20
-1421.5465872815598
 30
0.0
 41
0.9983887708264464
 10
350.51227095949503
 20
-1421.5453426079264
 30
0.0
 41
1.0
 10
350.50420755427638
 20
-1421.5451596100515
 30
0.0
 41
1.0
 10
350.49614414905773
 20
-1421.5449766121767
 30
0.0
 41
1.0
 10
350.45742711020102
 20
-1421.5440979342929
 30
0.0
 41
0.9998869563078489
 10
350.41870115699953
 20
-1421.5443838036526
 30
0.0
 41
1.0
 10
350.37997520381816
 20
-1421.5446696730121
 30
0.0
 41
0.9999972320156346
 10
350.3412510246265
 20
-1421.545137772541
 30
0.0
 41
1.0
 10
350.32189800802632
 20
-1421.5453717126306
 30
0.0
 41
1.0
 10
350.30254499142609
 20
-1421.5456056527203
 30
0.0
 41
1.0
 10
350.22511477905221
 20
-1421.5465416324282
 30
0.0
 41
0.9997304945087123
 10
350.14781147281144
 20
-1421.5510707262144
 30
0.0
 41
1.0
 10
350.13876183111034
 20
-1421.5516009322041
 30
0.0
 41
1.0
 10
350.12971218940925
 20
-1421.552131138194
 30
0.0
 41
1.0
 10
350.03430959976635
 20
-1421.5577206439596
 30
0.0
 41
0.9997888306416283
 10
349.93921726392688
 20
-1421.5672256084483
 30
0.0
 41
1.0
 10
349.93049620235092
 20
-1421.5680973230808
 30
0.0
 41
1.0
 10
349.92177514077503
 20
-1421.5689690377133
 30
0.0
 41
1.0
 10
349.80924068178689
 20
-1421.5802174314667
 30
0.0
 41
0.9984170238191348
 10
349.69868153443593
 20
-1421.6040335134023
 30
0.0
 41
1.0
 10
349.66230040344834
 20
-1421.6118705492088
 30
0.0
 41
1.0
 10
349.62591927246075
 20
-1421.6197075850152
 30
0.0
 41
1.0
 10
349.51072820404022
 20
-1421.6445214515245
 30
0.0
 41
0.9976592854198517
 10
349.40000003763623
 20
-1421.6848201286714
 30
0.0
 41
1.0
 10
349.28927187123014
 20
-1421.725118805819
 30
0.0
 41
0.9993255074351843
 10
349.1818000724395
 20
-1421.7734357043114
 30
0.0
 41
1.0
 10
349.17717489351668
 20
-1421.775515080511
 30
0.0
 41
1.0
 10
349.17254971459386
 20
-1421.7775944567104
 30
0.0
 41
1.0
 10
349.05582755795689
 20
-1421.8300701076021
 30
0.0
 41
0.9976475078275141
 10
348.94738021364645
 20
-1421.8980180972605
 30
0.0
 41
1.0
 10
348.929037819511
 20
-1421.9095105760753
 30
0.0
 41
1.0
 10
348.91069542537554
 20
-1421.9210030548902
 30
0.0
 41
1.0
 10
348.82649323382407
 20
-1421.9737601756581
 30
0.0
 41
0.9995131336406771
 10
348.7457455188669
 20
-1422.0316663876113
 30
0.0
 41
1.0
 10
348.66499780390996
 20
-1422.0895725995642
 30
0.0
 41
0.9995810107605681
 10
348.58773615618156
 20
-1422.1520542820299
 30
0.0
 41
1.0
 10
348.58476612497105
 20
-1422.1544561534947
 30
0.0
 41
1.0
 10
348.58179609376054
 20
-1422.1568580249595
 30
0.0
 41
1.0
 10
348.49859438361256
 20
-1422.2241434503539
 30
0.0
 41
0.999661783795425
 10
348.41900369647641
 20
-1422.2956639059146
 30
0.0
 41
1.0
 10
348.40687294559899
 20
-1422.3065646389055
 30
0.0
 41
1.0
 10
348.39474219472157
 20
-1422.3174653718966
 30
0.0
 41
1.0
 10
348.32646666732302
 20
-1422.3788179873707
 30
0.0
 41
0.999726775005276
 10
348.26113315904109
 20
-1422.4432945238943
 30
0.0
 41
1.0
 10
348.19579965076173
 20
-1422.5077710604153
 30
0.0
 41
0.9999667288956954
 10
348.13152670761173
 20
-1422.5733048673128
 30
0.0
 41
1.0
 10
348.06269925983611
 20
-1422.6434825260717
 30
0.0
 41
1.0
 10
347.99387181206049
 20
-1422.7136601848306
 30
0.0
 41
1.0
 10
347.7919439733646
 20
-1422.9195493092407
 30
0.0
 41
0.9988205335175364
 10
347.61093835638457
 20
-1423.1440535413017
 30
0.0
 41
1.0
 10
347.58029839147969
 20
-1423.1820567917318
 30
0.0
 41
1.0
 10
347.54965842657481
 20
-1423.220060042162
 30
0.0
 41
1.0
 10
347.30737287978582
 20
-1423.5205707750824
 30
0.0
 41
0.9997077826755664
 10
347.07989492868205
 20
-1423.832440569297
 30
0.0
 41
1.0
 10
347.0781715135509
 20
-1423.8348033526775
 30
0.0
 41
1.0
 10
347.07644809841975
 20
-1423.8371661360579
 30
0.0
 41
1.0
 10
346.84552331705288
 20
-1424.1537614970343
 30
0.0
 41
0.9989147567078823
 10
346.64505981416858
 20
-1424.4904709582208
 30
0.0
 41
1.0
 10
346.620318668864
 20
-1424.5320275387692
 30
0.0
 41
1.0
 10
346.59557752355948
 20
-1424.5735841193175
 30
0.0
 41
1.0
 10
346.44036622491967
 20
-1424.8342855037745
 30
0.0
 41
0.9997476598181815
 10
346.29702123740924
 20
-1425.1016952523582
 30
0.0
 41
1.0
 10
346.15367624989864
 20
-1425.3691050009425
 30
0.0
 41
0.999625896711
 10
346.0251679979653
 20
-1425.6439529375702
 30
0.0
 41
1.0
 10
346.01196808851768
 20
-1425.6721843376615
 30
0.0
 41
1.0
 10
345.99876817907005
 20
-1425.7004157377528
 30
0.0
 41
1.0
 10
345.85855945806912
 20
-1426.0002881357082
 30
0.0
 41
0.9998735413944649
 10
345.72795811134813
 20
-1426.304467735177
 30
0.0
 41
1.0
 10
345.72451528328645
 20
-1426.3124863206444
 30
0.0
 41
1.0
 10
345.72107245522483
 20
-1426.3205049061116
 30
0.0
 41
1.0
 10
345.59735676462702
 20
-1426.6086473346463
 30
0.0
 41
0.9999377418864672
 10
345.48010196245303
 20
-1426.8994788023197
 30
0.0
 41
1.0
 10
345.3628471602803
 20
-1427.1903102699896
 30
0.0
 41
0.9999508299507258
 10
345.25138321690451
 20
-1427.4834099468064
 30
0.0
 41
1.0
 10
345.24830244824
 20
-1427.4915109727756
 30
0.0
 41
1.0
 10
345.24522167957554
 20
-1427.4996119987447
 30
0.0
 41
1.0
 10
345.12759619887447
 20
-1427.8089137274901
 30
0.0
 41
0.9999609228433258
 10
345.01545759599901
 20
-1428.1202467435101
 30
0.0
 41
1.0
 10
345.01250158564949
 20
-1428.1284535839191
 30
0.0
 41
1.0
 10
345.00954557529997
 20
-1428.1366604243283
 30
0.0
 41
1.0
 10
344.89149495172649
 20
-1428.4644071211635
 30
0.0
 41
0.9999674607395974
 10
344.77874742565888
 20
-1428.794015741157
 30
0.0
 41
1.0
 10
344.72734903509649
 20
-1428.9442749368486
 30
0.0
 41
1.0
 10
344.67595064453405
 20
-1429.0945341325403
 30
0.0
 41
1.0
 10
344.55994003777522
 20
-1429.4336821150462
 30
0.0
 41
0.9999287532306623
 10
344.45205863380494
 20
-1429.7755028540205
 30
0.0
 41
1.0
 10
344.40558137765612
 20
-1429.9227653984221
 30
0.0
 41
1.0
 10
344.3591041215073
 20
-1430.0700279428238
 30
0.0
 41
1.0
 10
344.34417722983227
 20
-1430.1173235930023
 30
0.0
 41
0.9999998224151938
 10
344.32930672110376
 20
-1430.1646370012372
 30
0.0
 41
1.0
 10
342.70865058430832
 20
-1435.3126655030267
 30
0.0
 41
1.0
 10
341.08799444751287
 20
-1440.4606940048161
 30
0.0
 41
1.0
 10
340.18268600362194
 20
-1440.4606940048161
 30
0.0
 41
1.0
 10
339.27737755973101
 20
-1440.4606940048161
 30
0.0
 41
1.0
 10
341.12946197111705
 20
-1434.5736220823485
 30
0.0
 41
1.0
 10
342.9815463825031
 20
-1428.6865501598809
 30
0.0
 41
1.0
 10
342.99166814080581
 20
-1428.6545069464314
 30
0.0
 41
1.0
 10
343.06427580965556
 20
-1428.4242074046056
 30
0.0
 41
1.0
 10
343.13688347850228
 20
-1428.1939078627893
 30
0.0
 41
0.9999825681967399
 10
343.206766517711
 20
-1427.9627669677336
 30
0.0
 41
1.0
 10
343.25505757987617
 20
-1427.8030423842233
 30
0.0
 41
1.0
 10
343.30334864204133
 20
-1427.6433178007128
 30
0.0
 41
1.0
 10
343.40050099535381
 20
-1427.3219825789524
 30
0.0
 41
0.9999672528961739
 10
343.49243980097765
 20
-1426.9991170333647
 30
0.0
 41
1.0
 10
343.49522868464692
 20
-1426.9893231879764
 30
0.0
 41
1.0
 10
343.49801756831613
 20
-1426.9795293425884
 30
0.0
 41
1.0
 10
343.58437860660297
 20
-1426.6762514877719
 30
0.0
 41
0.9999899749149962
 10
343.66802021613569
 20
-1426.3722123993259
 30
0.0
 41
1.0
 10
343.67812613515423
 20
-1426.3354771616437
 30
0.0
 41
1.0
 10
343.68823205417283
 20
-1426.2987419239614
 30
0.0
 41
1.0
 10
343.75166182567193
 20
-1426.0681733108677
 30
0.0
 41
0.9999214200503984
 10
343.80929125404811
 20
-1425.8360869686642
 30
0.0
 41
1.0
 10
343.82205710622873
 20
-1425.7846760832681
 30
0.0
 41
1.0
 10
343.83482295840929
 20
-1425.7332651978718
 30
0.0
 41
1.0
 10
343.86692068242314
 20
-1425.6040006264657
 30
0.0
 41
0.9999828681649046
 10
343.89750293442125
 20
-1425.4743691519875
 30
0.0
 41
1.0
 10
343.92808518641624
 20
-1425.3447376775214
 30
0.0
 41
0.9999389844479094
 10
343.95579617520633
 20
-1425.2144622216179
 30
0.0
 41
1.0
 10
343.9629339189263
 20
-1425.1809061177814
 30
0.0
 41
1.0
 10
343.97007166264632
 20
-1425.147350013945
 30
0.0
 41
1.0
 10
344.01205813887645
 20
-1424.9499623503677
 30
0.0
 41
0.9998933699441071
 10
344.0482624032777
 20
-1424.751432742614
 30
0.0
 41
1.0
 10
344.04963522849431
 20
-1424.7439047219161
 30
0.0
 41
1.0
 10
344.05100805371092
 20
-1424.7363767012182
 30
0.0
 41
1.0
 10
344.0899579685464
 20
-1424.5227910520637
 30
0.0
 41
0.9996850305193595
 10
344.11814164480484
 20
-1424.3075200466283
 30
0.0
 41
1.0
 10
344.12013667817394
 20
-1424.2922816925075
 30
0.0
 41
1.0
 10
344.12213171154309
 20
-1424.2770433383869
 30
0.0
 41
1.0
 10
344.14953957400195
 20
-1424.0676981112331
 30
0.0
 41
0.999469793670682
 10
344.16326413322184
 20
-1423.8570129159007
 30
0.0
 41
1.0
 10
344.1637412024715
 20
-1423.8496894436898
 30
0.0
 41
1.0
 10
344.16421827172115
 20
-1423.8423659714792
 30
0.0
 41
1.0
 10
344.17698869244134
 20
-1423.6463277205705
 30
0.0
 41
0.9991804893137216
 10
344.17386037616865
 20
-1423.4498988705964
 30
0.0
 41
1.0
 10
344.17377649734652
 20
-1423.4446320691836
 30
0.0
 41
1.0
 10
344.1736926185244
 20
-1423.4393652677707
 30
0.0
 41
1.0
 10
344.1707320598959
 20
-1423.2534700206234
 30
0.0
 41
0.9988448329321575
 10
344.14994051427209
 20
-1423.0687174307895
 30
0.0
 41
1.0
 10
344.14834644056907
 20
-1423.0545525750183
 30
0.0
 41
1.0
 10
344.146752366866
 20
-1423.0403877192471
 30
0.0
 41
1.0
 10
344.12914896864828
 20
-1422.8839648409562
 30
0.0
 41
0.9985503209458689
 10
344.09483269634876
 20
-1422.7303406568669
 30
0.0
 41
1.0
 10
344.08724670427745
 20
-1422.6963803294661
 30
0.0
 41
1.0
 10
344.07966071220613
 20
-1422.6624200020656
 30
0.0
 41
1.0
 10
344.06051642404884
 20
-1422.5767164727758
 30
0.0
 41
0.9991036781370034
 10
344.03419156239801
 20
-1422.4929393854527
 30
0.0
 41
1.0
 10
344.03020933694233
 20
-1422.4802662229431
 30
0.0
 41
1.0
 10
344.02622711148666
 20
-1422.4675930604337
 30
0.0
 41
1.0
 10
344.00786670074694
 20
-1422.4091622981284
 30
0.0
 41
0.9998874504368986
 10
343.98776149306838
 20
-1422.3513086959044
 30
0.0
 41
1.0
 10
343.96765628538952
 20
-1422.2934550936798
 30
0.0
 41
0.9994041637543286
 10
343.94360767245519
 20
-1422.2371263897901
 30
0.0
 41
1.0
 10
343.93941088823152
 20
-1422.227296325309
 30
0.0
 41
1.0
 10
343.93521410400785
 20
-1422.2174662608281
 30
0.0
 41
1.0
 10
343.90733527301313
 20
-1422.1521660948606
 30
0.0
 41
0.999184684070189
 10
343.87427891632001
 20
-1422.0893280635803
 30
0.0
 41
1.0
 10
343.87314230992502
 20
-1422.0871674471257
 30
0.0
 41
1.0
 10
343.87200570353002
 20
-1422.0850068306711
 30
0.0
 41
1.0
 10
343.84122255962717
 20
-1422.0264900323004
 30
0.0
 41
0.9989253167923645
 10
343.80515313557197
 20
-1421.9710751039097
 30
0.0
 41
1.0
 10
343.80409901089786
 20
-1421.9694556091476
 30
0.0
 41
1.0
 10
343.80304488622374
 20
-1421.9678361143854
 30
0.0
 41
1.0
 10
343.76908371151723
 20
-1421.9156601755199
 30
0.0
 41
0.9986467172836632
 10
343.72988655887963
 20
-1421.8672941418899
 30
0.0
 41
1.0
 10
343.72901243017901
 20
-1421.8662155396119
 30
0.0
 41
1.0
 10
343.7281383014784
 20
-1421.8651369373338
 30
0.0
 41
1.0
 10
343.69068940624197
 20
-1421.81892810826
 30
0.0
 41
0.9984001104267817
 10
343.64826267572505
 20
-1421.7772430008915
 30
0.0
 41
1.0
 10
343.64767553761584
 20
-1421.7766661260105
 30
0.0
 41
1.0
 10
343.64708839950663
 20
-1421.7760892511294
 30
0.0
 41
1.0
 10
343.60583594520796
 20
-1421.7355578935226
 30
0.0
 41
0.9982442159081615
 10
343.5600798438723
 20
-1421.7001893322624
 30
0.0
 41
1.0
 10
343.55986504841053
 20
-1421.7000232996193
 30
0.0
 41
1.0
 10
343.55965025294881
 20
-1421.6998572669761
 30
0.0
 41
1.0
 10
343.51432374253727
 20
-1421.6648207710027
 30
0.0
 41
0.9982450060836758
 10
343.46517276346492
 20
-1421.6353889879688
 30
0.0
 41
1.0
 10
343.41602178439274
 20
-1421.6059572049351
 30
0.0
 41
0.9983922639634935
 10
343.363855478228
 20
-1421.5822775702811
 30
0.0
 41
1.0
 10
343.36362860090367
 20
-1421.5821745847998
 30
0.0
 41
1.0
 10
343.36340172357939
 20
-1421.5820715993184
 30
0.0
 41
1.0
 10
343.31078166276438
 20
-1421.5581859937008
 30
0.0
 41
0.9986517147149574
 10
343.2559686898955
 20
-1421.539884874579
 30
0.0
 41
1.0
 10
343.25529076846874
 20
-1421.5396585281478
 30
0.0
 41
1.0
 10
343.25461284704198
 20
-1421.5394321817168
 30
0.0
 41
1.0
 10
343.19844403131822
 20
-1421.5206783697322
 30
0.0
 41
0.998943559895648
 10
343.14079064416694
 20
-1421.5071606674976
 30
0.0
 41
1.0
 10
343.13971052458521
 20
-1421.5069074172447
 30
0.0
 41
1.0
 10
343.13863040500354
 20
-1421.5066541669917
 30
0.0
 41
1.0
 10
343.07881677868846
 20
-1421.4926299642511
 30
0.0
 41
0.999224924124041
 10
343.01808526979079
 20
-1421.4833546215357
 30
0.0
 41
1.0
 10
343.01667158150008
 20
-1421.483138713128
 30
0.0
 41
1.0
 10
343.01525789320931
 20
-1421.4829228047201
 30
0.0
 41
1.0
 10
342.95169900773203
 20
-1421.4732156451894
 30
0.0
 41
0.9994396597833594
 10
342.88763307119729
 20
-1421.4677827228438
 30
0.0
 41
1.0
 10
342.86849240371726
 20
-1421.4661595551252
 30
0.0
 41
1.0
 10
342.84935173623728
 20
-1421.4645363874063
 30
0.0
 41
1.0
 10
342.74700446474429
 20
-1421.4558571296234
 30
0.0
 41
0.9987693403121436
 10
342.64430084115691
 20
-1421.4573601930761
 30
0.0
 41
1.0
 10
342.6340465069286
 20
-1421.45751026485
 30
0.0
 41
1.0
 10
342.62379217270029
 20
-1421.4576603366243
 30
0.0
 41
1.0
 10
342.51423640652291
 20
-1421.4592636809116
 30
0.0
 41
0.9989753644965509
 10
342.40527440650783
 20
-1421.4707666878369
 30
0.0
 41
1.0
 10
342.29631240649303
 20
-1421.482269694762
 30
0.0
 41
0.9983190067306499
 10
342.18941359552991
 20
-1421.5063046865482
 30
0.0
 41
1.0
 10
342.18051264392142
 20
-1421.5083059651113
 30
0.0
 41
1.0
 10
342.17161169231292
 20
-1421.5103072436743
 30
0.0
 41
1.0
 10
342.04691097813344
 20
-1421.5383447925867
 30
0.0
 41
0.998553938830307
 10
341.92594122445456
 20
-1421.5796084686326
 30
0.0
 41
1.0
 10
341.92359579349522
 20
-1421.5804085124482
 30
0.0
 41
1.0
 10
341.92125036253589
 20
-1421.5812085562636
 30
0.0
 41
1.0
 10
341.79558974693794
 20
-1421.6240723199405
 30
0.0
 41
0.9988468746493407
 10
341.67461940463824
 20
-1421.6787904050027
 30
0.0
 41
1.0
 10
341.67143658264899
 20
-1421.680230079563
 30
0.0
 41
1.0
 10
341.6682537606597
 20
-1421.681669754123
 30
0.0
 41
1.0
 10
341.5409177743814
 20
-1421.7392671883056
 30
0.0
 41
0.9991322885919243
 10
341.41881719032307
 20
-1421.8072625204884
 30
0.0
 41
1.0
 10
341.40121517927935
 20
-1421.8170647224781
 30
0.0
 41
1.0
 10
341.38361316823563
 20
-1421.8268669244678
 30
0.0
 41
1.0
 10
341.28143648717923
 20
-1421.8837670402481
 30
0.0
 41
0.9993860037849454
 10
341.18349548310675
 20
-1421.9476830558363
 30
0.0
 41
1.0
 10
341.17787717025595
 20
-1421.9513495505303
 30
0.0
 41
1.0
 10
341.17225885740515
 20
-1421.9550160452241
 30
0.0
 41
1.0
 10
341.08555447903575
 20
-1422.0115990714232
 30
0.0
 41
0.999882149495454
 10
341.00062810322055
 20
-1422.0708173015014
 30
0.0
 41
1.0
 10
340.9157017274095
 20
-1422.1300355315768
 30
0.0
 41
0.9997976482743509
 10
340.83322609700468
 20
-1422.1926219396194
 30
0.0
 41
1.0
 10
340.81858983219945
 20
-1422.2037286293994
 30
0.0
 41
1.0
 10
340.80395356739427
 20
-1422.2148353191794
 30
0.0
 41
1.0
 10
340.69220540737825
 20
-1422.2996351067827
 30
0.0
 41
0.9998091630799929
 10
340.58385512935126
 20
-1422.3887354574838
 30
0.0
 41
1.0
 10
340.57084937687489
 20
-1422.399430557929
 30
0.0
 41
1.0
 10
340.55784362439852
 20
-1422.4101256583745
 30
0.0
 41
1.0
 10
340.42348184141565
 20
-1422.5206162099687
 30
0.0
 41
0.9995035112317636
 10
340.29634596365327
 20
-1422.6393500269824
 30
0.0
 41
1.0
 10
340.28669865326611
 20
-1422.6483597731401
 30
0.0
 41
1.0
 10
340.27705134287896
 20
-1422.6573695192978
 30
0.0
 41
1.0
 10
340.15362828011303
 20
-1422.7726358910545
 30
0.0
 41
0.9994630424299296
 10
340.038019874329
 20
-1422.8957386342895
 30
0.0
 41
1.0
 10
340.03433703555731
 20
-1422.8996602138027
 30
0.0
 41
1.0
 10
340.03065419678569
 20
-1422.9035817933161
 30
0.0
 41
1.0
 10
339.92241146854496
 20
-1423.0188413775245
 30
0.0
 41
0.9995160693749979
 10
339.82154543901311
 20
-1423.1406087953974
 30
0.0
 41
1.0
 10
339.81961171893283
 20
-1423.1429432196051
 30
0.0
 41
1.0
 10
339.8176779988525
 20
-1423.1452776438127
 30
0.0
 41
1.0
 10
339.72067940948159
 20
-1423.2623762132696
 30
0.0
 41
0.9996561470514709
 10
339.62995319081529
 20
-1423.3843989757193
 30
0.0
 41
1.0
 10
339.62379552491313
 20
-1423.3926807647617
 30
0.0
 41
1.0
 10
339.61763785901104
 20
-1423.4009625538042
 30
0.0
 41
1.0
 10
339.53922697214733
 20
-1423.5064217381712
 30
0.0
 41
0.9998349055173255
 10
339.46469969021717
 20
-1423.6146603218317
 30
0.0
 41
1.0
 10
339.3901724082873
 20
-1423.7228989054915
 30
0.0
 41
0.999972810957066
 10
339.31724951237743
 20
-1423.8322248310462
 30
0.0
 41
1.0
 10
339.31593429696437
 20
-1423.8341966005507
 30
0.0
 41
1.0
 10
339.31461908155131
 20
-1423.8361683700552
 30
0.0
 41
1.0
 10
339.23906575481629
 20
-1423.9494378346176
 30
0.0
 41
0.9999972147444841
 10
339.16404794443105
 20
-1424.0630626774705
 30
0.0
 41
1.0
 10
339.15907640181501
 20
-1424.0705927659333
 30
0.0
 41
1.0
 10
339.15410485919892
 20
-1424.078122854396
 30
0.0
 41
1.0
 10
339.06914396357882
 20
-1424.2068078741786
 30
0.0
 41
0.9999371979005135
 10
338.98708861417902
 20
-1424.3373647879489
 30
0.0
 41
1.0
 10
338.98357972981546
 20
-1424.3429477160169
 30
0.0
 41
1.0
 10
338.98007084545185
 20
-1424.3485306440848
 30
0.0
 41
1.0
 10
338.89099772732374
 20
-1424.4902534139926
 30
0.0
 41
0.9998272025610268
 10
338.80725433644153
 20
-1424.6351892907351
 30
0.0
 41
1.0
 10
338.79203916441736
 20
-1424.661522405192
 30
0.0
 41
1.0
 10
338.77682399239319
 20
-1424.687855519649
 30
0.0
 41
1.0
 10
338.66265025746247
 20
-1424.8854576253054
 30
0.0
 41
0.9995217214837842
 10
338.56091056790677
 20
-1425.089739953168
 30
0.0
 41
1.0
 10
338.55326700527189
 20
-1425.1050874028706
 30
0.0
 41
1.0
 10
338.54562344263707
 20
-1425.1204348525732
 30
0.0
 41
1.0
 10
338.45871815004779
 20
-1425.294931310654
 30
0.0
 41
0.9998269762608492
 10
338.37836368377555
 20
-1425.4725395973776
 30
0.0
 41
1.0
 10
338.29800921750331
 20
-1425.6501478841017
 30
0.0
 41
0.9998944747388067
 10
338.22284842294107
 20
-1425.8300156097248
 30
0.0
 41
1.0
 10
338.21789475334822
 20
-1425.8418702646463
 30
0.0
 41
1.0
 10
338.21294108375542
 20
-1425.8537249195679
 30
0.0
 41
1.0
 10
338.132294023204
 20
-1426.0467218595827
 30
0.0
 41
0.9999506734410744
 10
338.05549649429975
 20
-1426.2412826644406
 30
0.0
 41
1.0
 10
338.04089652903326
 20
-1426.2782705862355
 30
0.0
 41
1.0
 10
338.02629656376678
 20
-1426.3152585080302
 30
0.0
 41
1.0
 10
337.97869896540072
 20
-1426.4358434692854
 30
0.0
 41
0.9999912393942239
 10
337.93211252137365
 20
-1426.5568226719927
 30
0.0
 41
1.0
 10
337.88552607734562
 20
-1426.6778018747027
 30
0.0
 41
0.9999927113970275
 10
337.83986478294668
 20
-1426.7991332822178
 30
0.0
 41
1.0
 10
337.82589635155409
 20
-1426.836250264203
 30
0.0
 41
1.0
 10
337.81192792016151
 20
-1426.8733672461883
 30
0.0
 41
1.0
 10
337.73832976297069
 20
-1427.068932617691
 30
0.0
 41
0.999948755094858
 10
337.66870613800006
 20
-1427.2659479828708
 30
0.0
 41
1.0
 10
337.64511252806324
 20
-1427.3327112931634
 30
0.0
 41
1.0
 10
337.62151891812641
 20
-1427.3994746034562
 30
0.0
 41
1.0
 10
337.52683328375923
 20
-1427.6674084382717
 30
0.0
 41
0.9999808436939622
 10
337.43547169511442
 20
-1427.9364938695455
 30
0.0
 41
1.0
 10
337.3441101064742
 20
-1428.2055793008064
 30
0.0
 41
0.9999873932897797
 10
337.25545539775379
 20
-1428.4755686558267
 30
0.0
 41
1.0
 10
337.23536304088498
 20
-1428.5367579885778
 30
0.0
 41
1.0
 10
337.21527068401616
 20
-1428.5979473213292
 30
0.0
 41
1.0
 10
337.08643126155766
 20
-1428.9903153418536
 30
0.0
 41
0.9999794883037206
 10
336.96262847659841
 20
-1429.3843015481352
 30
0.0
 41
1.0
 10
336.95147621716387
 20
-1429.419792158363
 30
0.0
 41
1.0
 10
336.94032395772928
 20
-1429.4552827685907
 30
0.0
 41
1.0
 10
336.7977657938273
 20
-1429.9089555206915
 30
0.0
 41
0.9999982761721094
 10
336.65689335381364
 20
-1430.3631545428093
 30
0.0
 41
1.0
 10
335.06875302124104
 20
-1435.4119242738127
 30
0.0
 41
1.0
 10
333.48061268866843
 20
-1440.4606940048161
 30
0.0
 41
1.0
 10
332.53186207719205
 20
-1440.4606940048161
 30
0.0
 41
1.0
 10
331.58311146571566
 20
-1440.4606940048161
 30
0.0
 41
1.0
 10
334.82139595186885
 20
-1430.13337180487
 30
0.0
 41
1.0
 10
338.05968043802204
 20
-1419.8060496049238
 30
0.0
 41
1.0
  0
LWPOLYLINE
  5
5D
100
AcDbEntity
  8
0
370
              15
390
0
  6
Continuous
 62
               7
100
AcDbPolyline
 90
      232
 70
             128
 10
312.356134664195
 20
-1420.890392436439
 42
0.0004370800689577
 10
312.30325749020579
 20
-1420.9590590755874
 10
312.26397325899552
 20
-1421.0101661885917
 42
0.0030481992178471
 10
312.13363454186424
 20
-1421.181887880952
 10
312.09512287012592
 20
-1421.2332746647239
 42
0.0042058245755173
 10
311.89113781945701
 20
-1421.5102804097965
 10
311.83873269695539
 20
-1421.5827132565785
 42
0.012094889873899
 10
311.54268878019388
 20
-1422.0134628611279
 10
311.44649628106953
 20
-1422.1609435963562
 42
0.014160126394999
 10
311.14285223415004
 20
-1422.6566129330877
 10
311.10331496672256
 20
-1422.725456900522
 42
0.0071131081302745
 10
310.89804264348567
 20
-1423.0949596993576
 42
0.0068458791001623
 10
310.70316311664573
 20
-1423.4700512628274
 10
310.69635125418483
 20
-1423.4836129765574
 42
0.0064120880289981
 10
310.49820900413982
 20
-1423.891037451478
 10
310.49067431862352
 20
-1423.9070493081977
 42
0.0058857236448248
 10
310.28791892675213
 20
-1424.3514254192321
 10
310.27974400045787
 20
-1424.3699155728666
 42
0.005318974189677
 10
310.07103968779074
 20
-1424.8558790467835
 10
310.06229188210898
 20
-1424.8768609249805
 42
0.0047503650420274
 10
309.84631815596077
 20
-1425.409060358184
 10
309.83704990761015
 20
-1425.4325367342981
 42
0.0042071762173683
 10
309.61250252387674
 20
-1426.0156303283827
 10
309.60275312153374
 20
-1426.0415965032375
 42
0.0036680086486434
 10
309.36829847822264
 20
-1426.680231887766
 10
309.35809069837387
 20
-1426.7086804221133
 42
0.0032573142627722
 10
309.11245841240719
 20
-1427.4075330818666
 10
309.04380789156869
 20
-1427.6069961659132
 42
0.0026133366649032
 10
308.69536269280849
 20
-1428.6368594495914
 10
308.63210590530798
 20
-1428.8270902849838
 42
0.0020592950741452
 10
308.41824283634071
 20
-1429.4791939375975
 10
308.41519104518113
 20
-1429.4886304259965
 42
0.0025609928536935
 10
308.21337054369178
 20
-1430.1237756483731
 10
308.21077917656385
 20
-1430.1320779893176
 42
0.0031362356242442
 10
308.02128839088817
 20
-1430.7528408454932
 10
308.01915734796057
 20
-1430.7599821517049
 42
0.0037229918031726
 10
307.8423569610344
 20
-1431.3689674536786
 10
307.84067837182829
 20
-1431.374914343852
 42
0.0043077623709119
 10
307.67693756976291
 20
-1431.974733075622
 42
0.0047654161827855
 10
307.52410884724907
 20
-1432.5774191645157
 10
307.48964423840783
 20
-1432.7189809416741
 42
0.011296936844766
 10
307.293779880263
 20
-1433.6106731023046
 10
307.26577349116758
 20
-1433.7535011483963
 42
0.0130056762570122
 10
307.06493624752096
 20
-1434.9404422200412
 10
307.0443964973739
 20
-1435.084520333518
 42
0.013872153214467
 10
306.94069349283598
 20
-1435.9913498193439
 10
306.92139800492777
 20
-1436.2148475412728
 42
0.0071254697006304
 10
306.88805135900549
 20
-1436.6780345501161
 10
306.88309038484181
 20
-1436.7640385446841
 42
0.0028881799201155
 10
306.86795209155235
 20
-1437.0557802545188
 42
0.0060297297136884
 10
306.85801989177685
 20
-1437.3477291906338
 10
306.85695761010976
 20
-1437.3961215625663
 42
0.0229523164155976
 10
306.86468863789548
 20
-1437.7188764088503
 10
306.8689144114158
 20
-1437.7792799428662
 42
0.0123673300672873
 10
306.88799305793418
 20
-1437.9804006680413
 42
0.0128577674477607
 10
306.91718844834037
 20
-1438.1802985179675
 10
306.92431432172748
 20
-1438.221627332565
 42
0.0285717853771177
 10
306.98880832342326
 20
-1438.4997434838785
 10
307.00247684708972
 20
-1438.5463982533558
 42
0.0316283099158689
 10
307.11828742700385
 20
-1438.8654127551813
 10
307.12133611875942
 20
-1438.8723991275069
 42
0.0338984824238217
 10
307.27076782972654
 20
-1439.159965091696
 10
307.27307655909601
 20
-1439.1637561209711
 42
0.0350228718353028
 10
307.45543684976997
 20
-1439.4208081056488
 10
307.45632210154497
 20
-1439.4218871834128
 42
0.034747674752509
 10
307.6707467887851
 20
-1439.649072230633
 42
0.033133770191306
 10
307.91399011453211
 20
-1439.8452008927109
 10
307.91509021304762
 20
-1439.8459735958829
 42
0.0305233319080313
 10
308.18363490861969
 20
-1440.0111017659735
 10
308.18686495312221
 20
-1440.012825777837
 42
0.0273744481157243
 10
308.47941866469881
 20
-1440.1489639217284
 10
308.48452319983403
 20
-1440.1510075061972
 42
0.0240964406194625
 10
308.80000027547658
 20
-1440.2599912324774
 10
308.80658360468971
 20
-1440.2619159721535
 42
0.0209636179810985
 10
309.14398375734396
 20
-1440.3453841200858
 10
309.151616217791
 20
-1440.3469360330869
 42
0.0181388704694237
 10
309.50993860979463
 20
-1440.4063521263015
 10
309.51821945816761
 20
-1440.4074183101179
 42
0.0156086547587639
 10
309.89640682235523
 20
-1440.4441544966944
 10
309.93960207468689
 20
-1440.4469929991737
 42
0.0137148329022235
 10
310.26727521998237
 20
-1440.459513254425
 10
310.31321140990826
 20
-1440.4600076875402
 42
0.0051057823884925
 10
310.54935699650059
 20
-1440.4601379419494
 42
0.0052256693310291
 10
310.78545428028832
 20
-1440.4553891174849
 10
310.85568106402866
 20
-1440.4532421514709
 42
0.0161507179049631
 10
311.23141814213216
 20
-1440.4295917811442
 10
311.25143110250298
 20
-1440.4276815858568
 42
0.0101216737834811
 10
311.66545832399896
 20
-1440.3796886554906
 10
311.69951161342044
 20
-1440.3750409586817
 42
0.02452917763949
 10
312.17630126896904
 20
-1440.2859658806062
 10
312.26112458449813
 20
-1440.2657699602591
 42
0.0143509212560754
 10
312.61775568843518
 20
-1440.1699653264809
 42
0.0156557857034124
 10
312.9679717531622
 20
-1440.0529541106623
 10
312.97547296765708
 20
-1440.0501839489079
 42
0.0170137333631501
 10
313.33206896333826
 20
-1439.904526334037
 10
313.33917288574594
 20
-1439.9013384984733
 42
0.0183105364409464
 10
313.69852255390998
 20
-1439.7240034566501
 10
313.70546931855097
 20
-1439.7202530217767
 42
0.0194899958148462
 10
314.06395005953897
 20
-1439.5082740398834
 10
314.07096393887167
 20
-1439.5037486975909
 42
0.0204869852950808
 10
314.42497824096284
 20
-1439.2542286825071
 10
314.43224384955261
 20
-1439.2486486171567
 42
0.0212516938557549
 10
314.77823378066239
 20
-1438.9587446202604
 10
314.82475047473622
 20
-1438.9162773101684
 42
0.0215248918251129
 10
315.08477664362391
 20
-1438.6575130311739
 10
315.1298063780078
 20
-1438.6086689098206
 42
0.0114578554962168
 10
315.28459853168187
 20
-1438.4328459763658
 10
315.29579306765874
 20
-1438.419527212832
 42
0.0061531305126576
 10
315.4222677136629
 20
-1438.2652376795147
 42
0.0006325587125236
 10
315.54664619787241
 20
-1438.1092343037665
 10
315.56968633286618
 20
-1438.0802607831797
 42
0.0041897761558016
 10
315.7381417368432
 20
-1437.8647414071122
 10
315.79660385673105
 20
-1437.7886400601326
 42
0.0092993880035394
 10
316.07321578395778
 20
-1437.4143612962444
 10
316.15561027715307
 20
-1437.2984242926809
 42
0.0159321727085537
 10
316.50221675979606
 20
-1436.7762500719239
 10
316.54657289518565
 20
-1436.704570507673
 42
0.0085547317021845
 10
316.78108466051088
 20
-1436.3106955584492
 42
0.0084601156890009
 10
317.00206083795337
 20
-1435.9090687094165
 10
317.01017631178331
 20
-1435.893709027144
 42
0.0081429654282708
 10
317.23342558221839
 20
-1435.4539875146083
 10
317.24228574640483
 20
-1435.435808672584
 42
0.0076574581333173
 10
317.46869325697725
 20
-1434.9526257973184
 10
317.47817289769523
 20
-1434.9315613190279
 42
0.0070682724197979
 10
317.70861780550189
 20
-1434.3995240142472
 10
317.71860808948372
 20
-1434.375534825235
 42
0.0064559514445716
 10
317.95394129766601
 20
-1433.7892225587145
 10
317.9643506558304
 20
-1433.7622876332739
 42
0.005831141390472
 10
318.20539739259328
 20
-1433.1162555388898
 10
318.21615246998067
 20
-1433.0863711977297
 42
0.0052312425819428
 10
318.4637337480217
 20
-1432.3751687838947
 10
318.47477758440135
 20
-1432.3423420718254
 42
0.0046680544797079
 10
318.72970601213638
 20
-1431.5605157560688
 10
318.77169816217867
 20
-1431.4275325187809
 42
0.0041666856443741
 10
318.97498417457433
 20
-1430.7645637437731
 10
319.01264661524425
 20
-1430.637982636099
 42
0.001517097515851
 10
319.13383319365118
 20
-1430.2261142846257
 42
-0.000488799311575
 10
319.25417296679814
 20
-1429.8139958725026
 10
319.33065022426939
 20
-1429.5530384866427
 42
0.0002583378929999
 10
319.60386479441451
 20
-1428.6189817831867
 10
319.68563764388529
 20
-1428.338882523966
 42
0.0006636169670688
 10
319.8795054039216
 20
-1427.6715296002933
 10
319.88460205828102
 20
-1427.6538980173705
 42
0.0010589131323065
 10
320.06605075918526
 20
-1427.0211666743644
 10
320.07103282966051
 20
-1427.0036537673627
 42
0.0015655524460464
 10
320.23930303684853
 20
-1426.4050370881434
 10
320.24413323725861
 20
-1426.3876449292254
 42
0.0021640440475491
 10
320.39842320924953
 20
-1425.8226179111896
 10
320.40305742868048
 20
-1425.805353181192
 42
0.0028763871854632
 10
320.54257314673242
 20
-1425.2733852303488
 10
320.54695901090122
 20
-1425.2562612521883
 42
0.0037310511947128
 10
320.67091570273652
 20
-1424.7568136581704
 10
320.67499092302683
 20
-1424.7398533869195
 42
0.0047652197773182
 10
320.782614823534
 20
-1424.2723756186197
 10
320.78630542285589
 20
-1424.2556160634763
 42
0.0060276699301228
 10
320.87683552201105
 20
-1423.8195402683255
 10
320.88005421230054
 20
-1423.8030390540143
 42
0.0075824337756047
 10
320.95274352171566
 20
-1423.3977718895901
 10
320.95538889909648
 20
-1423.3816169421361
 42
0.0095130624606969
 10
321.00950413472714
 20
-1423.0065275890679
 10
321.01649035860976
 20
-1422.9505940309512
 42
0.0121054653229816
 10
321.0430816891876
 20
-1422.6856982024776
 10
321.04394817894729
 20
-1422.6742947595467
 42
0.0069050827385776
 10
321.05903699698484
 20
-1422.4313535327042
 10
321.06017229665338
 20
-1422.4078272756594
 42
0.0169063976693782
 10
321.06299957563368
 20
-1422.2116345483587
 10
321.06182892410237
 20
-1422.1512987870078
 42
0.0052007732904402
 10
321.0595754755094
 20
-1422.0757053968573
 42
0.0054038123297007
 10
321.03961196367038
 20
-1421.9556871008463
 10
321.0345261078001
 20
-1421.9270286142662
 42
0.011205046046855
 10
320.99914174574144
 20
-1421.7507021759263
 10
320.98131678370095
 20
-1421.6711605892065
 42
0.0240764468009262
 10
320.8904194175546
 20
-1421.3409235537049
 10
320.87186065474117
 20
-1421.2843033887111
 42
0.0256812331832661
 10
320.72849773455181
 20
-1420.9125791824542
 10
320.72308830873033
 20
-1420.9004478474642
 42
0.0268360501219688
 10
320.55366106788051
 20
-1420.5694547134435
 10
320.54812466024504
 20
-1420.5599350431305
 42
0.027467023172658
 10
320.35592368383215
 20
-1420.2676476682138
 10
320.35054238387033
 20
-1420.2603685206736
 42
0.0275035967105531
 10
320.13896950430768
 20
-1420.0048526303683
 10
320.13390000333999
 20
-1419.9993735427365
 42
0.0269557673529223
 10
319.90649645990158
 20
-1419.7787312567757
 10
319.90175340211948
 20
-1419.7746013023154
 42
0.0259124802209232
 10
319.66219857068819
 20
-1419.5869107751626
 10
319.65766772550705
 20
-1419.5837252728329
 42
0.0245162153008483
 10
319.40975137241151
 20
-1419.4269922637218
 10
319.40522482608537
 20
-1419.4244320665198
 42
0.0229282588837283
 10
319.15280526925994
 20
-1419.296563874022
 10
319.14802477542645
 20
-1419.2944115742614
 42
0.0212984135697224
 10
318.89498682296147
 20
-1419.1932126570177
 10
318.88968253799231
 20
-1419.1913490942579
 42
0.0197555462339728
 10
318.63990420026897
 20
-1419.1145336762929
 42
0.0183511896791789
 10
318.38497547480029
 20
-1419.0569507693262
 10
318.29861027808573
 20
-1419.0407479789428
 42
0.0338057877146422
 10
318.01310292882249
 20
-1419.0069395738021
 10
317.92209752377607
 20
-1419.0023599185406
 42
0.0091990524500806
 10
317.81625041514656
 20
-1418.9989840626188
 42
0.0028333980777482
 10
317.7103364991541
 20
-1418.998155955102
 10
317.7094210461043
 20
-1418.9981539852779
 42
-0.0023619827796285
 10
317.60167503100911
 20
-1418.9974131441995
 10
317.56526986082253
 20
-1418.9969908377363
 42
0.0008824598469414
 10
317.38471387110258
 20
-1418.9952150594993
 10
317.34085243856669
 20
-1418.9948610979725
 42
0.0038132665772623
 10
317.07256954267075
 20
-1418.9947421619058
 10
317.05603588789438
 20
-1418.9948609280493
 42
0.0060665569337032
 10
316.75475539630116
 20
-1419.0006812274703
 10
316.74050506427773
 20
-1419.0011295354377
 42
0.0080356953338026
 10
316.41104634793641
 20
-1419.0167972575048
 10
316.39897633285125
 20
-1419.0175658404451
 42
0.0098996399107053
 10
316.04621324819897
 20
-1419.0470510696434
 10
316.03616753882568
 20
-1419.0480913658414
 42
0.0117740981366914
 10
315.665010680482
 20
-1419.0953836133706
 10
315.65678798399438
 20
-1419.096628729942
 42
0.0137435215137485
 10
315.27219916450599
 20
-1419.1657257035044
 10
315.26554212538593
 20
-1419.1671115997374
 42
0.0158359869383379
 10
314.87254503158374
 20
-1419.2620036882181
 10
314.86713184471631
 20
-1419.2634936290888
 42
0.0180554124023921
 10
314.47081680010706
 20
-1419.3881316453262
 10
314.46626001202048
 20
-1419.3897476815937
 42
0.0203657431287375
 10
314.07178249420474
 20
-1419.5480080231114
 10
314.0676389552018
 20
-1419.5498696445513
 42
0.0226819684650553
 10
313.68020289899926
 20
-1419.7455122232218
 10
313.67600310798002
 20
-1419.7478778151421
 42
0.0248634984609217
 10
313.30082116679864
 20
-1419.9845044610895
 10
313.25262623801422
 20
-1420.0183615029155
 42
0.0267044190882663
 10
312.97833354109832
 20
-1420.2338018787832
 42
0.0139303002199764
 10
312.72216637516192
 20
-1420.4710407196928
 10
312.7173129894386
 20
-1420.4757933825551
 42
0.0283460963446927
 10
312.47324039521078
 20
-1420.7435240430011
 10
312.43357189005485
 20
-1420.7923256204735
 42
0.0070695364826167
 10
312.356134664195
 20
-1420.890392436439
 42
0.0070695364826167
  0
LWPOLYLINE
  5
5E
100
AcDbEntity
  8
0
370
              15
390
0
  6
Continuous
 62
               7
100
AcDbPolyline
 90
      226
 70
             128
 10
308.8273142269486
 20
-1436.6119812426227
 42
-0.0026277636630374
 10
308.82723634314851
 20
-1436.5452093168894
 10
308.82745370138059
 20
-1436.4920540994367
 42
-0.0088680296732164
 10
308.83123031767366
 20
-1436.3190383170333
 10
308.83357667678609
 20
-1436.2597582915801
 42
-0.0077381705614455
 10
308.84962278754909
 20
-1435.9684977957838
 10
308.8504906987223
 20
-1435.9562095620968
 42
-0.0068872530529385
 10
308.87712277847083
 20
-1435.6409878100237
 10
308.87832700265653
 20
-1435.628746831009
 42
-0.0062130021483935
 10
308.91592071948412
 20
-1435.2898771397724
 10
308.91742462301949
 20
-1435.2777032678541
 42
-0.0056726929670635
 10
308.96634648252137
 20
-1434.9155080457433
 10
308.96811992816617
 20
-1434.9034142454952
 42
-0.0052341884490804
 10
309.02873051442776
 20
-1434.5182209899676
 10
309.0307485032028
 20
-1434.5062160599848
 42
-0.0049768450167099
 10
309.1034871846291
 20
-1434.0983714925526
 10
309.12773619935092
 20
-1433.9698235095464
 42
-0.0089029805626389
 10
309.26481705114566
 20
-1433.308048062124
 10
309.2975624264642
 20
-1433.1630166316006
 42
-0.0080318257099731
 10
309.52711104080379
 20
-1432.2173069997511
 10
309.53909596725316
 20
-1432.1711763645567
 42
-0.007426572131817
 10
309.82310750610338
 20
-1431.1411117861751
 10
309.8429870492194
 20
-1431.0729777255881
 42
-0.0069711922704714
 10
310.17029162772644
 20
-1430.0067099852588
 10
310.23024357483183
 20
-1429.8206886268888
 42
-0.0052070422894331
 10
310.45966880009126
 20
-1429.133416549857
 10
310.47694999228014
 20
-1429.0833892691917
 42
-0.0009167004447485
 10
310.6800418795529
 20
-1428.4989334210857
 42
-0.0025162726944262
 10
310.88713950980843
 20
-1427.9158921569426
 10
310.92436412162129
 20
-1427.8127426110166
 42
-0.0028212681456746
 10
311.17254004058401
 20
-1427.1370119788467
 10
311.1823708033366
 20
-1427.1107045341648
 42
-0.0031964916824063
 10
311.41866306099701
 20
-1426.4904997720428
 10
311.42829751499835
 20
-1426.4656897818934
 42
-0.0036281836450951
 10
311.6534034760972
 20
-1425.8982491010065
 10
311.66284188625559
 20
-1425.8749516695013
 42
-0.0041269166833808
 10
311.87745958291384
 20
-1425.3575107735255
 10
311.9100925393326
 20
-1425.2806323271691
 42
-0.0047472213056769
 10
312.06713734488824
 20
-1424.920210859281
 10
312.0740314261048
 20
-1424.9047902619304
 42
-0.0025651659995747
 10
312.22238945994661
 20
-1424.5774622062006
 42
-0.0057144634995011
 10
312.37613915371668
 20
-1424.2526525328406
 10
312.40416985911594
 20
-1424.1951441504505
 42
-0.0065388068374338
 10
312.58763688685895
 20
-1423.8309116537789
 10
312.59609534263842
 20
-1423.8146520744076
 42
-0.0074510843027144
 10
312.77227758851529
 20
-1423.4879637932866
 10
312.78045725904781
 20
-1423.473323016015
 42
-0.00846489798586
 10
312.95009111214637
 20
-1423.1814140050565
 10
312.9579472386331
 20
-1423.1684070134079
 42
-0.0095638542803061
 10
313.1217826862287
 20
-1422.9085181414271
 10
313.12925762989954
 20
-1422.8971487799731
 42
-0.0107191626809609
 10
313.288059210288
 20
-1422.6665375454277
 10
313.29507594401821
 20
-1422.6568014530642
 42
-0.0118458573900505
 10
313.44962404253158
 20
-1422.4527292577525
 42
-0.0129184518185217
 10
313.61407666613644
 20
-1422.2565687415781
 10
313.64422143849731
 20
-1422.222442662681
 42
-0.0217742579638791
 10
313.82083376083159
 20
-1422.0392358924323
 10
313.83157930529092
 20
-1422.0290190592304
 42
-0.0097266568651854
 10
313.99763692414768
 20
-1421.8771714847921
 42
-0.0187720905722897
 10
314.17198450003576
 20
-1421.7351026314043
 10
314.20269049071106
 20
-1421.7119435490069
 42
-0.0179428207517375
 10
314.43511121070753
 20
-1421.5493913718951
 10
314.43876353762494
 20
-1421.5470274370064
 42
-0.0170047877696736
 10
314.67452717515368
 20
-1421.4055669228558
 10
314.6783101638992
 20
-1421.40346861782
 42
-0.0160190788365245
 10
314.91521871153554
 20
-1421.2818173158314
 42
-0.0151102861493606
 10
315.15925049398163
 20
-1421.1751345397772
 10
315.21163699619399
 20
-1421.1540944068822
 42
-0.0271945441885856
 10
315.57029955525218
 20
-1421.0322295961762
 10
315.63936435574067
 20
-1421.0128800549098
 42
-0.0237596594020801
 10
316.0551612027628
 20
-1420.9174293429282
 10
316.12322405649428
 20
-1420.9051746548012
 42
-0.0213715440552739
 10
316.40909898793853
 20
-1420.8662276232915
 10
316.46924615415577
 20
-1420.8606379085907
 42
-0.0101465655823582
 10
316.63673868615069
 20
-1420.8484943653266
 10
316.64607907234887
 20
-1420.8480074503293
 42
-0.0100375910875249
 10
316.79523317291148
 20
-1420.8432316324042
 10
316.80549244258913
 20
-1420.8431091933899
 42
-0.01036256333839
 10
316.93420043724672
 20
-1420.8442406269164
 10
316.9564660885124
 20
-1420.8448979853813
 42
-0.0115689250230075
 10
317.04051682604154
 20
-1420.8493274916264
 42
-0.0072438037428722
 10
317.12435510548784
 20
-1420.8569166913762
 10
317.1411556149535
 20
-1420.8586832340998
 42
-0.0217917313140723
 10
317.25772537826595
 20
-1420.8761031268207
 10
317.32332546883629
 20
-1420.8888497352359
 42
-0.0332943556749366
 10
317.52771763386221
 20
-1420.9428900265425
 10
317.55789020241212
 20
-1420.9530581036609
 42
-0.0184824084807066
 10
317.69639525887766
 20
-1421.0055091190475
 42
-0.0198002050691262
 10
317.83046959937587
 20
-1421.0683931792464
 10
317.83235623675392
 20
-1421.0693709661268
 42
-0.0212242342967451
 10
317.96449517915738
 20
-1421.1451337049207
 10
317.96631047469936
 20
-1421.1462795071282
 42
-0.0226090605801663
 10
318.09481437592001
 20
-1421.2357591506918
 10
318.09665881765847
 20
-1421.2371714036801
 42
-0.0238457052230729
 10
318.21984089895091
 20
-1421.3411672995419
 10
318.22179362751046
 20
-1421.3429821773086
 42
-0.024816056416188
 10
318.33799513481182
 20
-1421.4622567785182
 10
318.34009876821318
 20
-1421.4646421122218
 42
-0.0254109591451434
 10
318.44770398607898
 20
-1421.5999304981858
 10
318.4499520079932
 20
-1421.6030720465867
 42
-0.0255528488296472
 10
318.54739868679013
 20
-1421.7550991008206
 10
318.54972978670645
 20
-1421.7591807124286
 42
-0.0252146793219333
 10
318.63551081271578
 20
-1421.9286829584262
 10
318.6378130518732
 20
-1421.9338650403386
 42
-0.0244265635950044
 10
318.71046774563467
 20
-1422.1216116123851
 10
318.71971414710293
 20
-1422.1494770307224
 42
-0.0231319612897906
 10
318.76563692609511
 20
-1422.3127780775244
 42
-0.0112130424362555
 10
318.80027294863356
 20
-1422.4789816777138
 10
318.80147547374582
 20
-1422.4854782646005
 42
-0.0210527881227269
 10
318.82716194911666
 20
-1422.6665339100416
 10
318.83067254393853
 20
-1422.7019394585891
 42
-0.0190029892425222
 10
318.8461140174831
 20
-1422.9554753048608
 10
318.84692399392713
 20
-1422.9909509192303
 42
-0.0137974553663863
 10
318.84537514109161
 20
-1423.3159823259621
 10
318.84452968613613
 20
-1423.3421010705536
 42
-0.008133663421712
 10
318.82967035091349
 20
-1423.6474485381559
 42
-0.0073526923572461
 10
318.80536181753916
 20
-1423.952196782438
 10
318.80410039375613
 20
-1423.9655334571071
 42
-0.006688613869326
 10
318.76836480770947
 20
-1424.2961195006055
 10
318.76670771823973
 20
-1424.3097411195956
 42
-0.0061359187352859
 10
318.71885711618847
 20
-1424.666505099698
 10
318.71681961511598
 20
-1424.6803999025249
 42
-0.0056698610067843
 10
318.65616928434883
 20
-1425.0636784713633
 10
318.65376385102587
 20
-1425.0778375905936
 42
-0.0052721077271547
 10
318.57963165022773
 20
-1425.4879649302636
 10
318.57686850138452
 20
-1425.5023815656575
 42
-0.0049289272177756
 10
318.48857438328577
 20
-1425.9396900767742
 10
318.48546188860195
 20
-1425.9543589295959
 42
-0.0047415956711366
 10
318.3822238970676
 20
-1426.4191556870151
 10
318.34745568670985
 20
-1426.5689627823897
 42
-0.0084404470902368
 10
318.15743924313762
 20
-1427.3291868069223
 10
318.15131255515234
 20
-1427.3520509310742
 42
-0.0039635940259796
 10
317.9298588708715
 20
-1428.1530397953104
 10
317.9164820756888
 20
-1428.1999714119133
 42
-0.0072475040836265
 10
317.64903518782609
 20
-1429.0891911283024
 10
317.57882286099698
 20
-1429.3109314782801
 42
-0.0051345458828843
 10
317.29206348893945
 20
-1430.1852566660868
 10
317.27053722217647
 20
-1430.2486829332036
 42
-0.0019150016602721
 10
317.01500381530525
 20
-1430.9922320534429
 10
317.00853621090988
 20
-1431.0108195183616
 42
-0.0021524362752397
 10
316.76005815984519
 20
-1431.7151453400722
 10
316.75084773915279
 20
-1431.7408989183623
 42
-0.002433128682184
 10
316.51459248011275
 20
-1432.3914982264919
 10
316.5055445275683
 20
-1432.4160415328297
 42
-0.0027449721791964
 10
316.28092995672682
 20
-1433.0151714117708
 10
316.27203994932904
 20
-1433.0384940016374
 42
-0.0031083229768021
 10
316.05849746272463
 20
-1433.5884180392027
 10
316.04976133104765
 20
-1433.6105077550642
 42
-0.0035311343282424
 10
315.84672014545725
 20
-1434.1134908807906
 10
315.83813480631903
 20
-1434.134333604278
 42
-0.0040245640947446
 10
315.64502300251513
 20
-1434.5926429268932
 10
315.63658688890479
 20
-1434.6122222949821
 42
-0.0046015135850376
 10
315.45283059574831
 20
-1435.0281273246073
 10
315.44454441792675
 20
-1435.0464244640448
 42
-0.0052768638269263
 10
315.26956689896446
 20
-1435.4221973483297
 10
315.26143468833561
 20
-1435.4391906868771
 42
-0.006067267564282
 10
315.09465507557155
 20
-1435.7771063099872
 10
315.08668559509204
 20
-1435.7927715689805
 42
-0.0069904648872308
 10
314.92751720108851
 20
-1436.0951073756482
 10
314.9197258014762
 20
-1436.1094179248782
 42
-0.0080637022764375
 10
314.76757394113184
 20
-1436.3784532280288
 10
314.75998490850316
 20
-1436.3913810936253
 42
-0.009300645566711
 10
314.61424423196911
 20
-1436.6293954921325
 10
314.60689356522334
 20
-1436.6409134613089
 42
-0.0107060778049442
 10
314.46694502178701
 20
-1436.8501837786846
 10
314.45988325351033
 20
-1436.8602693212463
 42
-0.0122723111412025
 10
314.32508953530925
 20
-1437.0430626507396
 10
314.32476331175667
 20
-1437.0434830385473
 42
-0.0141836319630086
 10
314.18118170878114
 20
-1437.2180527963787
 10
314.17423395312881
 20
-1437.2260277966438
 42
-0.0175957477207651
 10
314.03432778509449
 20
-1437.3756486850482
 42
-0.0080466359674472
 10
313.88686402006516
 20
-1437.5179712131985
 10
313.8408294755468
 20
-1437.5609916512906
 42
-0.0269600260393889
 10
313.58754922956382
 20
-1437.7733149097999
 10
313.52098209327102
 20
-1437.8232663244205
 42
-0.0178362839756922
 10
313.28103760361103
 20
-1437.990284250676
 10
313.27379263260917
 20
-1437.9949527628819
 42
-0.0174650732649071
 10
313.0374564351693
 20
-1438.1358137278401
 42
-0.0169240130163414
 10
312.79199018931149
 20
-1438.2601059876176
 10
312.74600403375376
 20
-1438.2814679431847
 42
-0.0318883036840301
 10
312.39565317813384
 20
-1438.4178062526948
 10
312.32728764296758
 20
-1438.4395068731708
 42
-0.0284435909898217
 10
311.95123751667802
 20
-1438.5357243086451
 10
311.91607935618021
 20
-1438.5426179044734
 42
-0.0243909341015021
 10
311.60263589526051
 20
-1438.5883389355038
 10
311.55235516848865
 20
-1438.5931844824054
 42
-0.0196639292932796
 10
311.33675959096212
 20
-1438.605432767919
 10
311.28493551979676
 20
-1438.6063360286557
 42
-0.0100501510681604
 10
311.1725122381344
 20
-1438.6060356303026
 10
311.14085237682417
 20
-1438.6053145584181
 42
-0.0019752031148139
 10
311.09176004010897
 20
-1438.6040023982075
 10
311.08899973689557
 20
-1438.6039177063815
 42
0.0065378751994333
 10
311.04542316213207
 20
-1438.6031508151661
 42
-0.016797469465869
 10
311.00189233920622
 20
-1438.6014909166406
 10
310.99781299993816
 20
-1438.6011979057453
 42
-0.0081283276267646
 10
310.94625320219131
 20
-1438.5966509121067
 10
310.9345136283211
 20
-1438.5954229945291
 42
-0.0126703440175143
 10
310.8597953325289
 20
-1438.5856882034579
 10
310.83700746485084
 20
-1438.5821299475424
 42
-0.0117852088434096
 10
310.71746847902136
 20
-1438.5605669523859
 10
310.66208802725544
 20
-1438.5492234121507
 42
-0.0251774592297654
 10
310.43524398824695
 20
-1438.4907254027173
 10
310.39052479839648
 20
-1438.4767585833824
 42
-0.0146525199879893
 10
310.20413181085803
 20
-1438.4124920561842
 42
-0.0166929435857497
 10
310.0221541547312
 20
-1438.3366849231297
 10
310.01749752345819
 20
-1438.3345600225157
 42
-0.0191684358439352
 10
309.83231389220936
 20
-1438.2413239387258
 10
309.82898130645202
 20
-1438.2394826911723
 42
-0.0221181781810052
 10
309.64567100254982
 20
-1438.1273491928014
 10
309.64332119854134
 20
-1438.1257648948103
 42
-0.0254984685382299
 10
309.46703104815737
 20
-1437.9933537448419
 10
309.44454890045284
 20
-1437.9746014359037
 42
-0.0292492648802173
 10
309.31977996161106
 20
-1437.8575086362616
 42
-0.0159048957500779
 10
309.20593996416079
 20
-1437.7294886446623
 10
309.20462117358164
 20
-1437.7279070316424
 42
-0.0343813379557298
 10
309.10198391195587
 20
-1437.5860357058737
 10
309.07049238059466
 20
-1437.535532313779
 42
-0.0369117275705575
 10
308.98459987869728
 20
-1437.3720550728306
 42
-0.0191751379908672
 10
308.91740649314033
 20
-1437.1996504668248
 10
308.91564316938076
 20
-1437.1945571221497
 42
-0.0378178042231634
 10
308.86584845059662
 20
-1437.0056163460688
 10
308.85985315486613
 20
-1436.9730557278706
 42
-0.0184846046478344
 10
308.83913595557186
 20
-1436.8313029073265
 42
-0.017986635132424
 10
308.82880295049819
 20
-1436.6884120942452
 10
308.8287465080524
 20
-1436.6868544076328
 42
-0.0085497186138998
 10
308.8273142269486
 20
-1436.6119812426227
 42
-0.0085497186138998
  0
ENDBLK
  5
5F
100
AcDbEntity
  8
template
390
0
100
AcDbBlockEnd
  0
BLOCK
  5
60
100
AcDbEntity
  8
notes
390
0
100
AcDbBlockBegin
  2
*D3
 70
               1
 10
0.0
 20
0.0
 30
0.0
  3
*D3
  1

  0
LINE
  5
61
100
AcDbEntity
  8
0
370
              -2
390
0
  6
Continuous
 62
               0
100
AcDbLine
 10
-778.02884411335083
 20
-343.57239069298083
 30
0.0
 11
-778.02884411335083
 21
-263.57239069298083
 31
0.0
  0
LINE
  5
62
100
AcDbEntity
  8
0
370
              -2
390
0
  6
Continuous
 62
               0
100
AcDbLine
 10
-673.02909179525352
 20
-343.57239069298083
 30
0.0
 11
-673.02909179525352
 21
-263.57239069298083
 31
0.0
  0
LINE
  5
63
100
AcDbEntity
  8
0
370
              -2
390
0
  6
Continuous
 62
               0
100
AcDbLine
 10
-778.02884411335083
 20
-263.57239069298083
 30
0.0
 11
-673.02909179525352
 21
-263.57239069298083
 31
0.0
  0
CIRCLE
  5
64
102
{ACAD_REACTORS
330
65
102
}
100
AcDbEntity
  8
0
370
              -2
390
0
  6
Continuous
 62
               0
100
AcDbCircle
 10
-778.02884411335083
 20
-263.57239069298083
 30
0.0
 40
1.9998779296875
  0
HATCH
  5
65
100
AcDbEntity
  8
0
370
              -2
390
0
  6
Continuous
 62
               0
100
AcDbHatch
 10
0.0
 20
0.0
 30
0.0
210
0.0
220
0.0
230
1.0
  2
SOLID
 70
               1
 71
               1
 91
        1
 92
        1
 93
        1
 72
               2
 10
-778.02884411335083
 20
-263.57239069298083
 40
1.9998779296875
 50
0.0
 51
360.0
 73
               0
 97
        1
330
64
 75
               0
 76
               1
 98
        1
 10
0.0
 20
0.0
  0
CIRCLE
  5
66
102
{ACAD_REACTORS
330
67
102
}
100
AcDbEntity
  8
0
370
              -2
390
0
  6
Continuous
 62
               0
100
AcDbCircle
 10
-673.02909179525352
 20
-263.57239069298083
 30
0.0
 40
1.9998779296875
  0
HATCH
  5
67
100
AcDbEntity
  8
0
370
              -2
390
0
  6
Continuous
 62
               0
100
AcDbHatch
 10
0.0
 20
0.0
 30
0.0
210
0.0
220
0.0
230
1.0
  2
SOLID
 70
               1
 71
               1
 91
        1
 92
        1
 93
        1
 72
               2
 10
-673.02909179525352
 20
-263.57239069298083
 40
1.9998779296875
 50
0.0
 51
360.0
 73
               0
 97
        1
330
66
 75
               0
 76
               1
 98
        1
 10
0.0
 20
0.0
  0
MTEXT
  5
68
100
AcDbEntity
  8
0
390
0
 62
               0
100
AcDbMText
 10
-749.34146963647765
 20
-229.69477350548084
 30
0.0
 40
24.432617187500004
 41
0.0
 71
               1
 72
               1
  1
105
  7
ＭＳ ゴシック
 73
               1
 44
0.7828267384257843
  0
POINT
  5
69
100
AcDbEntity
  8
Defpoints
370
               0
390
0
 62
               0
100
AcDbPoint
 10
-673.02909179525352
 20
-368.57239069298083
 30
0.0
  0
POINT
  5
6A
100
AcDbEntity
  8
Defpoints
370
               0
390
0
 62
               0
100
AcDbPoint
 10
-778.02884411335083
 20
-368.57239069298083
 30
0.0
  0
POINT
  5
6B
100
AcDbEntity
  8
Defpoints
370
               0
390
0
 62
               0
100
AcDbPoint
 10
-778.02884411335083
 20
-263.57239069298083
 30
0.0
  0
ENDBLK
  5
6C
100
AcDbEntity
  8
notes
390
0
100
AcDbBlockEnd
  0
BLOCK
  5
6D
100
AcDbEntity
  8
notes
390
0
100
AcDbBlockBegin
  2
*D4
 70
               1
 10
0.0
 20
0.0
 30
0.0
  3
*D4
  1

  0
LINE
  5
6E
100
AcDbEntity
  8
0
370
              -2
390
0
  6
Continuous
 62
               0
100
AcDbLine
 10
341.33632837070735
 20
-533.57239069298043
 30
0.0
 11
341.33632837070735
 21
-608.57239069298078
 31
0.0
  0
LINE
  5
6F
100
AcDbEntity
  8
0
370
              -2
390
0
  6
Continuous
 62
               0
100
AcDbLine
 10
611.33632837070741
 20
-533.57239069298043
 30
0.0
 11
611.33632837070741
 21
-608.57239069298078
 31
0.0
  0
LINE
  5
70
100
AcDbEntity
  8
0
370
              -2
390
0
  6
Continuous
 62
               0
100
AcDbLine
 10
341.33632837070735
 20
-608.57239069298078
 30
0.0
 11
611.33632837070741
 21
-608.57239069298078
 31
0.0
  0
CIRCLE
  5
71
102
{ACAD_REACTORS
330
72
102
}
100
AcDbEntity
  8
0
370
              -2
390
0
  6
Continuous
 62
               0
100
AcDbCircle
 10
341.33632837070735
 20
-608.57239069298078
 30
0.0
 40
1.9998779296875
  0
HATCH
  5
72
100
AcDbEntity
  8
0
370
              -2
390
0
  6
Continuous
 62
               0
100
AcDbHatch
 10
0.0
 20
0.0
 30
0.0
210
0.0
220
0.0
230
1.0
  2
SOLID
 70
               1
 71
               1
 91
        1
 92
        1
 93
        1
 72
               2
 10
341.33632837070735
 20
-608.57239069298078
 40
1.9998779296875
 50
0.0
 51
360.0
 73
               0
 97
        1
330
71
 75
               0
 76
               1
 98
        1
 10
0.0
 20
0.0
  0
CIRCLE
  5
73
102
{ACAD_REACTORS
330
74
102
}
100
AcDbEntity
  8
0
370
              -2
390
0
  6
Continuous
 62
               0
100
AcDbCircle
 10
611.33632837070741
 20
-608.57239069298078
 30
0.0
 40
1.9998779296875
  0
HATCH
  5
74
100
AcDbEntity
  8
0
370
              -2
390
0
  6
Continuous
 62
               0
100
AcDbHatch
 10
0.0
 20
0.0
 30
0.0
210
0.0
220
0.0
230
1.0
  2
SOLID
 70
               1
 71
               1
 91
        1
 92
        1
 93
        1
 72
               2
 10
611.33632837070741
 20
-608.57239069298078
 40
1.9998779296875
 50
0.0
 51
360.0
 73
               0
 97
        1
330
73
 75
               0
 76
               1
 98
        1
 10
0.0
 20
0.0
  0
MTEXT
  5
75
100
AcDbEntity
  8
0
390
0
 62
               0
100
AcDbMText
 10
452.52382668853181
 20
-574.69477350548073
 30
0.0
 40
24.432617187500004
 41
0.0
 71
               1
 72
               1
  1
270
  7
ＭＳ ゴシック
 73
               1
 44
0.7828267384257843
  0
POINT
  5
76
100
AcDbEntity
  8
Defpoints
370
               0
390
0
 62
               0
100
AcDbPoint
 10
611.33632837070741
 20
-508.57239069298043
 30
0.0
  0
POINT
  5
77
100
AcDbEntity
  8
Defpoints
370
               0
390
0
 62
               0
100
AcDbPoint
 10
341.33632837070735
 20
-508.57239069298043
 30
0.0
  0
POINT
  5
78
100
AcDbEntity
  8
Defpoints
370
               0
390
0
 62
               0
100
AcDbPoint
 10
341.33632837070735
 20
-608.57239069298078
 30
0.0
  0
ENDBLK
  5
79
100
AcDbEntity
  8
notes
390
0
100
AcDbBlockEnd
  0
BLOCK
  5
7A
100
AcDbEntity
  8
notes
390
0
100
AcDbBlockBegin
  2
*D5
 70
               1
 10
0.0
 20
0.0
 30
0.0
  3
*D5
  1

  0
LINE
  5
7B
100
AcDbEntity
  8
0
370
              -2
390
0
  6
Continuous
 62
               0
100
AcDbLine
 10
-725.42951417536881
 20
-533.57239069298066
 30
0.0
 11
-725.42951417536881
 21
-658.57239069298066
 31
0.0
  0
LINE
  5
7C
100
AcDbEntity
  8
0
370
              -2
390
0
  6
Continuous
 62
               0
100
AcDbLine
 10
-80.429514175368809
 20
-533.57239069298066
 30
0.0
 11
-80.429514175368809
 21
-658.57239069298066
 31
0.0
  0
LINE
  5
7D
100
AcDbEntity
  8
0
370
              -2
390
0
  6
Continuous
 62
               0
100
AcDbLine
 10
-725.42951417536881
 20
-658.57239069298066
 30
0.0
 11
-80.429514175368809
 21
-658.57239069298066
 31
0.0
  0
CIRCLE
  5
7E
102
{ACAD_REACTORS
330
7F
102
}
100
AcDbEntity
  8
0
370
              -2
390
0
  6
Continuous
 62
               0
100
AcDbCircle
 10
-725.42951417536881
 20
-658.57239069298066
 30
0.0
 40
1.9998779296875
  0
HATCH
  5
7F
100
AcDbEntity
  8
0
370
              -2
390
0
  6
Continuous
 62
               0
100
AcDbHatch
 10
0.0
 20
0.0
 30
0.0
210
0.0
220
0.0
230
1.0
  2
SOLID
 70
               1
 71
               1
 91
        1
 92
        1
 93
        1
 72
               2
 10
-725.42951417536881
 20
-658.57239069298066
 40
1.9998779296875
 50
0.0
 51
360.0
 73
               0
 97
        1
330
7E
 75
               0
 76
               1
 98
        1
 10
0.0
 20
0.0
  0
CIRCLE
  5
80
102
{ACAD_REACTORS
330
81
102
}
100
AcDbEntity
  8
0
370
              -2
390
0
  6
Continuous
 62
               0
100
AcDbCircle
 10
-80.429514175368809
 20
-658.57239069298066
 30
0.0
 40
1.9998779296875
  0
HATCH
  5
81
100
AcDbEntity
  8
0
370
              -2
390
0
  6
Continuous
 62
               0
100
AcDbHatch
 10
0.0
 20
0.0
 30
0.0
210
0.0
220
0.0
230
1.0
  2
SOLID
 70
               1
 71
               1
 91
        1
 92
        1
 93
        1
 72
               2
 10
-80.429514175368809
 20
-658.57239069298066
 40
1.9998779296875
 50
0.0
 51
360.0
 73
               0
 97
        1
330
80
 75
               0
 76
               1
 98
        1
 10
0.0
 20
0.0
  0
MTEXT
  5
82
100
AcDbEntity
  8
0
390
0
 62
               0
100
AcDbMText
 10
-426.74201585754429
 20
-624.69477350548061
 30
0.0
 40
24.432617187500004
 41
0.0
 71
               1
 72
               1
  1
645
  7
ＭＳ ゴシック
 73
               1
 44
0.7828267384257843
  0
POINT
  5
83
100
AcDbEntity
  8
Defpoints
370
               0
390
0
 62
               0
100
AcDbPoint
 10
-80.429514175368809
 20
-508.57239069298066
 30
0.0
  0
POINT
  5
84
100
AcDbEntity
  8
Defpoints
370
               0
390
0
 62
               0
100
AcDbPoint
 10
-725.42951417536881
 20
-508.57239069298066
 30
0.0
  0
POINT
  5
85
100
AcDbEntity
  8
Defpoints
370
               0
390
0
 62
               0
100
AcDbPoint
 10
-725.42951417536881
 20
-658.57239069298066
 30
0.0
  0
ENDBLK
  5
86
100
AcDbEntity
  8
notes
390
0
100
AcDbBlockEnd
  0
BLOCK
  5
87
100
AcDbEntity
  8
notes
390
0
100
AcDbBlockBegin
  2
*D6
 70
               1
 10
0.0
 20
0.0
 30
0.0
  3
*D6
  1

  0
LINE
  5
88
100
AcDbEntity
  8
0
370
              -2
390
0
  6
Continuous
 62
               0
100
AcDbLine
 10
-778.02884411335083
 20
462.34980719057171
 30
0.0
 11
-778.02884411335083
 21
382.3498071905716
 31
0.0
  0
LINE
  5
89
100
AcDbEntity
  8
0
370
              -2
390
0
  6
Continuous
 62
               0
100
AcDbLine
 10
-623.02884411335083
 20
457.34980719057171
 30
0.0
 11
-623.02884411335083
 21
382.3498071905716
 31
0.0
  0
LINE
  5
8A
100
AcDbEntity
  8
0
370
              -2
390
0
  6
Continuous
 62
               0
100
AcDbLine
 10
-778.02884411335083
 20
382.3498071905716
 30
0.0
 11
-623.02884411335083
 21
382.3498071905716
 31
0.0
  0
CIRCLE
  5
8B
102
{ACAD_REACTORS
330
8C
102
}
100
AcDbEntity
  8
0
370
              -2
390
0
  6
Continuous
 62
               0
100
AcDbCircle
 10
-778.02884411335083
 20
382.3498071905716
 30
0.0
 40
1.9998779296875
  0
HATCH
  5
8C
100
AcDbEntity
  8
0
370
              -2
390
0
  6
Continuous
 62
               0
100
AcDbHatch
 10
0.0
 20
0.0
 30
0.0
210
0.0
220
0.0
230
1.0
  2
SOLID
 70
               1
 71
               1
 91
        1
 92
        1
 93
        1
 72
               2
 10
-778.02884411335083
 20
382.3498071905716
 40
1.9998779296875
 50
0.0
 51
360.0
 73
               0
 97
        1
330
8B
 75
               0
 76
               1
 98
        1
 10
0.0
 20
0.0
  0
CIRCLE
  5
8D
102
{ACAD_REACTORS
330
8E
102
}
100
AcDbEntity
  8
0
370
              -2
390
0
  6
Continuous
 62
               0
100
AcDbCircle
 10
-623.02884411335083
 20
382.3498071905716
 30
0.0
 40
1.9998779296875
  0
HATCH
  5
8E
100
AcDbEntity
  8
0
370
              -2
390
0
  6
Continuous
 62
               0
100
AcDbHatch
 10
0.0
 20
0.0
 30
0.0
210
0.0
220
0.0
230
1.0
  2
SOLID
 70
               1
 71
               1
 91
        1
 92
        1
 93
        1
 72
               2
 10
-623.02884411335083
 20
382.3498071905716
 40
1.9998779296875
 50
0.0
 51
360.0
 73
               0
 97
        1
330
8D
 75
               0
 76
               1
 98
        1
 10
0.0
 20
0.0
  0
MTEXT
  5
8F
100
AcDbEntity
  8
0
390
0
 62
               0
100
AcDbMText
 10
-724.34134579552631
 20
416.22742437807159
 30
0.0
 40
24.432617187500004
 41
0.0
 71
               1
 72
               1
  1
155
  7
ＭＳ ゴシック
 73
               1
 44
0.7828267384257843
  0
POINT
  5
90
100
AcDbEntity
  8
Defpoints
370
               0
390
0
 62
               0
100
AcDbPoint
 10
-623.02884411335083
 20
482.34980719057171
 30
0.0
  0
POINT
  5
91
100
AcDbEntity
  8
Defpoints
370
               0
390
0
 62
               0
100
AcDbPoint
 10
-778.02884411335083
 20
487.34980719057171
 30
0.0
  0
POINT
  5
92
100
AcDbEntity
  8
Defpoints
370
               0
390
0
 62
               0
100
AcDbPoint
 10
-778.02884411335083
 20
382.3498071905716
 30
0.0
  0
ENDBLK
  5
93
100
AcDbEntity
  8
notes
390
0
100
AcDbBlockEnd
  0
BLOCK
  5
94
100
AcDbEntity
  8
notes
390
0
100
AcDbBlockBegin
  2
*D7
 70
               1
 10
0.0
 20
0.0
 30
0.0
  3
*D7
  1

  0
LINE
  5
95
100
AcDbEntity
  8
0
370
              -2
390
0
  6
Continuous
 62
               0
100
AcDbLine
 10
-623.02884411335083
 20
457.34980719057171
 30
0.0
 11
-623.02884411335083
 21
382.3498071905716
 31
0.0
  0
LINE
  5
96
100
AcDbEntity
  8
0
370
              -2
390
0
  6
Continuous
 62
               0
100
AcDbLine
 10
-53.028844113350601
 20
457.34980719057171
 30
0.0
 11
-53.028844113350601
 21
382.3498071905716
 31
0.0
  0
LINE
  5
97
100
AcDbEntity
  8
0
370
              -2
390
0
  6
Continuous
 62
               0
100
AcDbLine
 10
-623.02884411335083
 20
382.3498071905716
 30
0.0
 11
-53.028844113350601
 21
382.3498071905716
 31
0.0
  0
CIRCLE
  5
98
102
{ACAD_REACTORS
330
99
102
}
100
AcDbEntity
  8
0
370
              -2
390
0
  6
Continuous
 62
               0
100
AcDbCircle
 10
-623.02884411335083
 20
382.3498071905716
 30
0.0
 40
1.9998779296875
  0
HATCH
  5
99
100
AcDbEntity
  8
0
370
              -2
390
0
  6
Continuous
 62
               0
100
AcDbHatch
 10
0.0
 20
0.0
 30
0.0
210
0.0
220
0.0
230
1.0
  2
SOLID
 70
               1
 71
               1
 91
        1
 92
        1
 93
        1
 72
               2
 10
-623.02884411335083
 20
382.3498071905716
 40
1.9998779296875
 50
0.0
 51
360.0
 73
               0
 97
        1
330
98
 75
               0
 76
               1
 98
        1
 10
0.0
 20
0.0
  0
CIRCLE
  5
9A
102
{ACAD_REACTORS
330
9B
102
}
100
AcDbEntity
  8
0
370
              -2
390
0
  6
Continuous
 62
               0
100
AcDbCircle
 10
-53.028844113350601
 20
382.3498071905716
 30
0.0
 40
1.9998779296875
  0
HATCH
  5
9B
100
AcDbEntity
  8
0
370
              -2
390
0
  6
Continuous
 62
               0
100
AcDbHatch
 10
0.0
 20
0.0
 30
0.0
210
0.0
220
0.0
230
1.0
  2
SOLID
 70
               1
 71
               1
 91
        1
 92
        1
 93
        1
 72
               2
 10
-53.028844113350601
 20
382.3498071905716
 40
1.9998779296875
 50
0.0
 51
360.0
 73
               0
 97
        1
330
9A
 75
               0
 76
               1
 98
        1
 10
0.0
 20
0.0
  0
MTEXT
  5
9C
100
AcDbEntity
  8
0
390
0
 62
               0
100
AcDbMText
 10
-361.84134579552619
 20
416.22742437807159
 30
0.0
 40
24.432617187500004
 41
0.0
 71
               1
 72
               1
  1
570
  7
ＭＳ ゴシック
 73
               1
 44
0.7828267384257843
  0
POINT
  5
9D
100
AcDbEntity
  8
Defpoints
370
               0
390
0
 62
               0
100
AcDbPoint
 10
-53.028844113350601
 20
482.34980719057171
 30
0.0
  0
POINT
  5
9E
100
AcDbEntity
  8
Defpoints
370
               0
390
0
 62
               0
100
AcDbPoint
 10
-623.02884411335083
 20
482.34980719057171
 30
0.0
  0
POINT
  5
9F
100
AcDbEntity
  8
Defpoints
370
               0
390
0
 62
               0
100
AcDbPoint
 10
-623.02884411335083
 20
382.3498071905716
 30
0.0
  0
ENDBLK
  5
A0
100
AcDbEntity
  8
notes
390
0
100
AcDbBlockEnd
  0
BLOCK
  5
A1
100
AcDbEntity
  8
notes
390
0
100
AcDbBlockBegin
  2
*D8
 70
               1
 10
0.0
 20
0.0
 30
0.0
  3
*D8
  1

  0
LINE
  5
A2
100
AcDbEntity
  8
0
370
              -2
390
0
  6
Continuous
 62
               0
100
AcDbLine
 10
502.76618916155337
 20
-478.57239069298043
 30
0.0
 11
501.37090820474657
 21
-478.57239069298043
 31
0.0
  0
LINE
  5
A3
100
AcDbEntity
  8
0
370
              -2
390
0
  6
Continuous
 62
               0
100
AcDbLine
 10
436.37090820474657
 20
-363.57239069298072
 30
0.0
 11
501.37090820474657
 21
-363.57239069298072
 31
0.0
  0
LINE
  5
A4
100
AcDbEntity
  8
0
370
              -2
390
0
  6
Continuous
 62
               0
100
AcDbLine
 10
501.37090820474657
 20
-363.57239069298072
 30
0.0
 11
501.37090820474657
 21
-197.12435217908035
 31
0.0
  0
LINE
  5
A5
100
AcDbEntity
  8
0
370
              -2
390
0
  6
Continuous
 62
               0
100
AcDbLine
 10
501.37090820474657
 20
-478.57239069298043
 30
0.0
 11
501.37090820474657
 21
-363.57239069298072
 31
0.0
  0
CIRCLE
  5
A6
102
{ACAD_REACTORS
330
A7
102
}
100
AcDbEntity
  8
0
370
              -2
390
0
  6
Continuous
 62
               0
100
AcDbCircle
 10
501.37090820474657
 20
-478.57239069298043
 30
0.0
 40
1.9998779296875
  0
HATCH
  5
A7
100
AcDbEntity
  8
0
370
              -2
390
0
  6
Continuous
 62
               0
100
AcDbHatch
 10
0.0
 20
0.0
 30
0.0
210
0.0
220
0.0
230
1.0
  2
SOLID
 70
               1
 71
               1
 91
        1
 92
        1
 93
        1
 72
               2
 10
501.37090820474657
 20
-478.57239069298043
 40
1.9998779296875
 50
0.0
 51
360.0
 73
               0
 97
        1
330
A6
 75
               0
 76
               1
 98
        1
 10
0.0
 20
0.0
  0
CIRCLE
  5
A8
102
{ACAD_REACTORS
330
A9
102
}
100
AcDbEntity
  8
0
370
              -2
390
0
  6
Continuous
 62
               0
100
AcDbCircle
 10
501.37090820474657
 20
-363.57239069298072
 30
0.0
 40
1.9998779296875
  0
HATCH
  5
A9
100
AcDbEntity
  8
0
370
              -2
390
0
  6
Continuous
 62
               0
100
AcDbHatch
 10
0.0
 20
0.0
 30
0.0
210
0.0
220
0.0
230
1.0
  2
SOLID
 70
               1
 71
               1
 91
        1
 92
        1
 93
        1
 72
               2
 10
501.37090820474657
 20
-363.57239069298072
 40
1.9998779296875
 50
0.0
 51
360.0
 73
               0
 97
        1
330
A8
 75
               0
 76
               1
 98
        1
 10
0.0
 20
0.0
  0
MTEXT
  5
AA
100
AcDbEntity
  8
0
390
0
 62
               0
100
AcDbMText
 10
467.49329101724658
 20
-339.99935217908035
 30
0.0
 40
24.432617187500004
 41
0.0
 71
               1
 72
               1
  1
115(深さ)
  7
ＭＳ ゴシック
 11
0.0
 21
1.0
 31
0.0
 73
               1
 44
0.7828267384257843
  0
POINT
  5
AB
100
AcDbEntity
  8
Defpoints
370
               0
390
0
 62
               0
100
AcDbPoint
 10
411.37090820474657
 20
-363.57239069298072
 30
0.0
  0
POINT
  5
AC
100
AcDbEntity
  8
Defpoints
370
               0
390
0
 62
               0
100
AcDbPoint
 10
477.76618916155337
 20
-478.57239069298043
 30
0.0
  0
POINT
  5
AD
100
AcDbEntity
  8
Defpoints
370
               0
390
0
 62
               0
100
AcDbPoint
 10
501.37090820474657
 20
-478.57239069298043
 30
0.0
  0
ENDBLK
  5
AE
100
AcDbEntity
  8
notes
390
0
100
AcDbBlockEnd
  0
BLOCK
  5
AF
100
AcDbEntity
  8
notes
390
0
100
AcDbBlockBegin
  2
*D9
 70
               1
 10
0.0
 20
0.0
 30
0.0
  3
*D9
  1

  0
LINE
  5
B0
100
AcDbEntity
  8
0
370
              -2
390
0
  6
Continuous
 62
               0
100
AcDbLine
 10
-778.02884411335037
 20
872.34980719057171
 30
0.0
 11
-778.02884411335037
 21
952.34980719057251
 31
0.0
  0
LINE
  5
B1
100
AcDbEntity
  8
0
370
              -2
390
0
  6
Continuous
 62
               0
100
AcDbLine
 10
-28.028844113350601
 20
872.34980719057228
 30
0.0
 11
-28.028844113350601
 21
952.34980719057251
 31
0.0
  0
LINE
  5
B2
100
AcDbEntity
  8
0
370
              -2
390
0
  6
Continuous
 62
               0
100
AcDbLine
 10
-778.02884411335037
 20
952.34980719057251
 30
0.0
 11
-28.028844113350601
 21
952.34980719057251
 31
0.0
  0
CIRCLE
  5
B3
102
{ACAD_REACTORS
330
B4
102
}
100
AcDbEntity
  8
0
370
              -2
390
0
  6
Continuous
 62
               0
100
AcDbCircle
 10
-778.02884411335037
 20
952.34980719057251
 30
0.0
 40
1.9998779296875
  0
HATCH
  5
B4
100
AcDbEntity
  8
0
370
              -2
390
0
  6
Continuous
 62
               0
100
AcDbHatch
 10
0.0
 20
0.0
 30
0.0
210
0.0
220
0.0
230
1.0
  2
SOLID
 70
               1
 71
               1
 91
        1
 92
        1
 93
        1
 72
               2
 10
-778.02884411335037
 20
952.34980719057251
 40
1.9998779296875
 50
0.0
 51
360.0
 73
               0
 97
        1
330
B3
 75
               0
 76
               1
 98
        1
 10
0.0
 20
0.0
  0
CIRCLE
  5
B5
102
{ACAD_REACTORS
330
B6
102
}
100
AcDbEntity
  8
0
370
              -2
390
0
  6
Continuous
 62
               0
100
AcDbCircle
 10
-28.028844113350601
 20
952.34980719057251
 30
0.0
 40
1.9998779296875
  0
HATCH
  5
B6
100
AcDbEntity
  8
0
370
              -2
390
0
  6
Continuous
 62
               0
100
AcDbHatch
 10
0.0
 20
0.0
 30
0.0
210
0.0
220
0.0
230
1.0
  2
SOLID
 70
               1
 71
               1
 91
        1
 92
        1
 93
        1
 72
               2
 10
-28.028844113350601
 20
952.34980719057251
 40
1.9998779296875
 50
0.0
 51
360.0
 73
               0
 97
        1
330
B5
 75
               0
 76
               1
 98
        1
 10
0.0
 20
0.0
  0
MTEXT
  5
B7
100
AcDbEntity
  8
0
390
0
 62
               0
100
AcDbMText
 10
-426.84134579552597
 20
986.22742437807256
 30
0.0
 40
24.432617187500004
 41
0.0
 71
               1
 72
               1
  1
750
  7
ＭＳ ゴシック
 73
               1
 44
0.7828267384257843
  0
POINT
  5
B8
100
AcDbEntity
  8
Defpoints
370
               0
390
0
 62
               0
100
AcDbPoint
 10
-28.028844113350601
 20
847.34980719057228
 30
0.0
  0
POINT
  5
B9
100
AcDbEntity
  8
Defpoints
370
               0
390
0
 62
               0
100
AcDbPoint
 10
-778.02884411335037
 20
847.34980719057171
 30
0.0
  0
POINT
  5
BA
100
AcDbEntity
  8
Defpoints
370
               0
390
0
 62
               0
100
AcDbPoint
 10
-778.02884411335037
 20
952.34980719057251
 30
0.0
  0
ENDBLK
  5
BB
100
AcDbEntity
  8
notes
390
0
100
AcDbBlockEnd
  0
BLOCK
  5
BC
100
AcDbEntity
  8
notes
390
0
100
AcDbBlockBegin
  2
*D10
 70
               1
 10
0.0
 20
0.0
 30
0.0
  3
*D10
  1

  0
LINE
  5
BD
100
AcDbEntity
  8
0
370
              -2
390
0
  6
Continuous
 62
               0
100
AcDbLine
 10
-798.02884411335037
 20
852.34980719057171
 30
0.0
 11
-868.0288441133506
 21
852.34980719057171
 31
0.0
  0
LINE
  5
BE
100
AcDbEntity
  8
0
370
              -2
390
0
  6
Continuous
 62
               0
100
AcDbLine
 10
-798.02884411335083
 20
482.34980719057171
 30
0.0
 11
-868.0288441133506
 21
482.34980719057171
 31
0.0
  0
LINE
  5
BF
100
AcDbEntity
  8
0
370
              -2
390
0
  6
Continuous
 62
               0
100
AcDbLine
 10
-868.0288441133506
 20
852.34980719057171
 30
0.0
 11
-868.0288441133506
 21
482.34980719057171
 31
0.0
  0
CIRCLE
  5
C0
102
{ACAD_REACTORS
330
C1
102
}
100
AcDbEntity
  8
0
370
              -2
390
0
  6
Continuous
 62
               0
100
AcDbCircle
 10
-868.0288441133506
 20
852.34980719057171
 30
0.0
 40
1.9998779296875
  0
HATCH
  5
C1
100
AcDbEntity
  8
0
370
              -2
390
0
  6
Continuous
 62
               0
100
AcDbHatch
 10
0.0
 20
0.0
 30
0.0
210
0.0
220
0.0
230
1.0
  2
SOLID
 70
               1
 71
               1
 91
        1
 92
        1
 93
        1
 72
               2
 10
-868.0288441133506
 20
852.34980719057171
 40
1.9998779296875
 50
0.0
 51
360.0
 73
               0
 97
        1
330
C0
 75
               0
 76
               1
 98
        1
 10
0.0
 20
0.0
  0
CIRCLE
  5
C2
102
{ACAD_REACTORS
330
C3
102
}
100
AcDbEntity
  8
0
370
              -2
390
0
  6
Continuous
 62
               0
100
AcDbCircle
 10
-868.0288441133506
 20
482.34980719057171
 30
0.0
 40
1.9998779296875
  0
HATCH
  5
C3
100
AcDbEntity
  8
0
370
              -2
390
0
  6
Continuous
 62
               0
100
AcDbHatch
 10
0.0
 20
0.0
 30
0.0
210
0.0
220
0.0
230
1.0
  2
SOLID
 70
               1
 71
               1
 91
        1
 92
        1
 93
        1
 72
               2
 10
-868.0288441133506
 20
482.34980719057171
 40
1.9998779296875
 50
0.0
 51
360.0
 73
               0
 97
        1
330
C2
 75
               0
 76
               1
 98
        1
 10
0.0
 20
0.0
  0
MTEXT
  5
C4
100
AcDbEntity
  8
0
390
0
 62
               0
100
AcDbMText
 10
-901.90646130085054
 20
620.69120860012629
 30
0.0
 40
24.432617187500004
 41
0.0
 71
               1
 72
               1
  1
370
  7
ＭＳ ゴシック
 11
0.0
 21
1.0
 31
0.0
 73
               1
 44
0.7828267384257843
  0
POINT
  5
C5
100
AcDbEntity
  8
Defpoints
370
               0
390
0
 62
               0
100
AcDbPoint
 10
-773.02884411335083
 20
482.34980719057171
 30
0.0
  0
POINT
  5
C6
100
AcDbEntity
  8
Defpoints
370
               0
390
0
 62
               0
100
AcDbPoint
 10
-773.02884411335037
 20
852.34980719057171
 30
0.0
  0
POINT
  5
C7
100
AcDbEntity
  8
Defpoints
370
               0
390
0
 62
               0
100
AcDbPoint
 10
-868.0288441133506
 20
852.34980719057171
 30
0.0
  0
ENDBLK
  5
C8
100
AcDbEntity
  8
notes
390
0
100
AcDbBlockEnd
  0
BLOCK
  5
C9
100
AcDbEntity
  8
notes
390
0
100
AcDbBlockBegin
  2
*D11
 70
               1
 10
0.0
 20
0.0
 30
0.0
  3
*D11
  1

  0
LINE
  5
CA
100
AcDbEntity
  8
0
370
              -2
390
0
  6
Continuous
 62
               0
100
AcDbLine
 10
-33.028844113350601
 20
827.34980719057182
 30
0.0
 11
71.971155886649512
 21
827.34980719057182
 31
0.0
  0
LINE
  5
CB
100
AcDbEntity
  8
0
370
              -2
390
0
  6
Continuous
 62
               0
100
AcDbLine
 10
-33.028844113350601
 20
507.34980719057171
 30
0.0
 11
71.971155886649512
 21
507.34980719057171
 31
0.0
  0
LINE
  5
CC
100
AcDbEntity
  8
0
370
              -2
390
0
  6
Continuous
 62
               0
100
AcDbLine
 10
71.971155886649512
 20
827.34980719057182
 30
0.0
 11
71.971155886649512
 21
507.34980719057171
 31
0.0
  0
CIRCLE
  5
CD
102
{ACAD_REACTORS
330
CE
102
}
100
AcDbEntity
  8
0
370
              -2
390
0
  6
Continuous
 62
               0
100
AcDbCircle
 10
71.971155886649512
 20
827.34980719057182
 30
0.0
 40
1.9998779296875
  0
HATCH
  5
CE
100
AcDbEntity
  8
0
370
              -2
390
0
  6
Continuous
 62
               0
100
AcDbHatch
 10
0.0
 20
0.0
 30
0.0
210
0.0
220
0.0
230
1.0
  2
SOLID
 70
               1
 71
               1
 91
        1
 92
        1
 93
        1
 72
               2
 10
71.971155886649512
 20
827.34980719057182
 40
1.9998779296875
 50
0.0
 51
360.0
 73
               0
 97
        1
330
CD
 75
               0
 76
               1
 98
        1
 10
0.0
 20
0.0
  0
CIRCLE
  5
CF
102
{ACAD_REACTORS
330
D0
102
}
100
AcDbEntity
  8
0
370
              -2
390
0
  6
Continuous
 62
               0
100
AcDbCircle
 10
71.971155886649512
 20
507.34980719057171
 30
0.0
 40
1.9998779296875
  0
HATCH
  5
D0
100
AcDbEntity
  8
0
370
              -2
390
0
  6
Continuous
 62
               0
100
AcDbHatch
 10
0.0
 20
0.0
 30
0.0
210
0.0
220
0.0
230
1.0
  2
SOLID
 70
               1
 71
               1
 91
        1
 92
        1
 93
        1
 72
               2
 10
71.971155886649512
 20
507.34980719057171
 40
1.9998779296875
 50
0.0
 51
360.0
 73
               0
 97
        1
330
CF
 75
               0
 76
               1
 98
        1
 10
0.0
 20
0.0
  0
MTEXT
  5
D1
100
AcDbEntity
  8
0
390
0
 62
               0
100
AcDbMText
 10
38.093538699149462
 20
643.53730550839634
 30
0.0
 40
24.432617187500004
 41
0.0
 71
               1
 72
               1
  1
320
  7
ＭＳ ゴシック
 11
0.0
 21
1.0
 31
0.0
 73
               1
 44
0.7828267384257843
  0
POINT
  5
D2
100
AcDbEntity
  8
Defpoints
370
               0
390
0
 62
               0
100
AcDbPoint
 10
-58.028844113350601
 20
507.34980719057171
 30
0.0
  0
POINT
  5
D3
100
AcDbEntity
  8
Defpoints
370
               0
390
0
 62
               0
100
AcDbPoint
 10
-58.028844113350601
 20
827.34980719057182
 30
0.0
  0
POINT
  5
D4
100
AcDbEntity
  8
Defpoints
370
               0
390
0
 62
               0
100
AcDbPoint
 10
71.971155886649512
 20
827.34980719057182
 30
0.0
  0
ENDBLK
  5
D5
100
AcDbEntity
  8
notes
390
0
100
AcDbBlockEnd
  0
BLOCK
  5
D6
100
AcDbEntity
  8
notes
390
0
100
AcDbBlockBegin
  2
*D12
 70
               1
 10
0.0
 20
0.0
 30
0.0
  3
*D12
  1

  0
LINE
  5
D7
100
AcDbEntity
  8
0
370
              -2
390
0
  6
Continuous
 62
               0
100
AcDbLine
 10
-778.02884411335083
 20
-478.57239069298089
 30
0.0
 11
-778.02884411335083
 21
-608.57239069298078
 31
0.0
  0
LINE
  5
D8
100
AcDbEntity
  8
0
370
              -2
390
0
  6
Continuous
 62
               0
100
AcDbLine
 10
-338.05729883583365
 20
-528.57239069298089
 30
0.0
 11
-338.05729883583365
 21
-608.57239069298078
 31
0.0
  0
LINE
  5
D9
100
AcDbEntity
  8
0
370
              -2
390
0
  6
Continuous
 62
               0
100
AcDbLine
 10
-778.02884411335083
 20
-608.57239069298078
 30
0.0
 11
-338.05729883583365
 21
-608.57239069298078
 31
0.0
  0
CIRCLE
  5
DA
102
{ACAD_REACTORS
330
DB
102
}
100
AcDbEntity
  8
0
370
              -2
390
0
  6
Continuous
 62
               0
100
AcDbCircle
 10
-778.02884411335083
 20
-608.57239069298078
 30
0.0
 40
1.9998779296875
  0
HATCH
  5
DB
100
AcDbEntity
  8
0
370
              -2
390
0
  6
Continuous
 62
               0
100
AcDbHatch
 10
0.0
 20
0.0
 30
0.0
210
0.0
220
0.0
230
1.0
  2
SOLID
 70
               1
 71
               1
 91
        1
 92
        1
 93
        1
 72
               2
 10
-778.02884411335083
 20
-608.57239069298078
 40
1.9998779296875
 50
0.0
 51
360.0
 73
               0
 97
        1
330
DA
 75
               0
 76
               1
 98
        1
 10
0.0
 20
0.0
  0
CIRCLE
  5
DC
102
{ACAD_REACTORS
330
DD
102
}
100
AcDbEntity
  8
0
370
              -2
390
0
  6
Continuous
 62
               0
100
AcDbCircle
 10
-338.05729883583365
 20
-608.57239069298078
 30
0.0
 40
1.9998779296875
  0
HATCH
  5
DD
100
AcDbEntity
  8
0
370
              -2
390
0
  6
Continuous
 62
               0
100
AcDbHatch
 10
0.0
 20
0.0
 30
0.0
210
0.0
220
0.0
230
1.0
  2
SOLID
 70
               1
 71
               1
 91
        1
 92
        1
 93
        1
 72
               2
 10
-338.05729883583365
 20
-608.57239069298078
 40
1.9998779296875
 50
0.0
 51
360.0
 73
               0
 97
        1
330
DC
 75
               0
 76
               1
 98
        1
 10
0.0
 20
0.0
  0
MTEXT
  5
DE
100
AcDbEntity
  8
0
390
0
 62
               0
100
AcDbMText
 10
-581.85557315676772
 20
-574.69477350548073
 30
0.0
 40
24.432617187500004
 41
0.0
 71
               1
 72
               1
  1
440
  7
ＭＳ ゴシック
 73
               1
 44
0.7828267384257843
  0
POINT
  5
DF
100
AcDbEntity
  8
Defpoints
370
               0
390
0
 62
               0
100
AcDbPoint
 10
-338.05729883583365
 20
-503.57239069298089
 30
0.0
  0
POINT
  5
E0
100
AcDbEntity
  8
Defpoints
370
               0
390
0
 62
               0
100
AcDbPoint
 10
-778.02884411335083
 20
-453.57239069298089
 30
0.0
  0
POINT
  5
E1
100
AcDbEntity
  8
Defpoints
370
               0
390
0
 62
               0
100
AcDbPoint
 10
-778.02884411335083
 20
-608.57239069298078
 30
0.0
  0
ENDBLK
  5
E2
100
AcDbEntity
  8
notes
390
0
100
AcDbBlockEnd
  0
BLOCK
  5
E3
100
AcDbEntity
  8
notes
390
0
100
AcDbBlockBegin
  2
*D13
 70
               1
 10
0.0
 20
0.0
 30
0.0
  3
*D13
  1

  0
LINE
  5
E4
100
AcDbEntity
  8
0
370
              -2
390
0
  6
Continuous
 62
               0
100
AcDbLine
 10
-8.0288441133507149
 20
-363.57239069298078
 30
0.0
 11
71.971155886649512
 21
-363.57239069298078
 31
0.0
  0
LINE
  5
E5
100
AcDbEntity
  8
0
370
              -2
390
0
  6
Continuous
 62
               0
100
AcDbLine
 10
-54.92677324487795
 20
-513.57239069298089
 30
0.0
 11
71.971155886649512
 21
-513.57239069298089
 31
0.0
  0
LINE
  5
E6
100
AcDbEntity
  8
0
370
              -2
390
0
  6
Continuous
 62
               0
100
AcDbLine
 10
71.971155886649512
 20
-363.57239069298078
 30
0.0
 11
71.971155886649512
 21
-513.57239069298089
 31
0.0
  0
CIRCLE
  5
E7
102
{ACAD_REACTORS
330
E8
102
}
100
AcDbEntity
  8
0
370
              -2
390
0
  6
Continuous
 62
               0
100
AcDbCircle
 10
71.971155886649512
 20
-363.57239069298078
 30
0.0
 40
1.9998779296875
  0
HATCH
  5
E8
100
AcDbEntity
  8
0
370
              -2
390
0
  6
Continuous
 62
               0
100
AcDbHatch
 10
0.0
 20
0.0
 30
0.0
210
0.0
220
0.0
230
1.0
  2
SOLID
 70
               1
 71
               1
 91
        1
 92
        1
 93
        1
 72
               2
 10
71.971155886649512
 20
-363.57239069298078
 40
1.9998779296875
 50
0.0
 51
360.0
 73
               0
 97
        1
330
E7
 75
               0
 76
               1
 98
        1
 10
0.0
 20
0.0
  0
CIRCLE
  5
E9
102
{ACAD_REACTORS
330
EA
102
}
100
AcDbEntity
  8
0
370
              -2
390
0
  6
Continuous
 62
               0
100
AcDbCircle
 10
71.971155886649512
 20
-513.57239069298089
 30
0.0
 40
1.9998779296875
  0
HATCH
  5
EA
100
AcDbEntity
  8
0
370
              -2
390
0
  6
Continuous
 62
               0
100
AcDbHatch
 10
0.0
 20
0.0
 30
0.0
210
0.0
220
0.0
230
1.0
  2
SOLID
 70
               1
 71
               1
 91
        1
 92
        1
 93
        1
 72
               2
 10
71.971155886649512
 20
-513.57239069298089
 40
1.9998779296875
 50
0.0
 51
360.0
 73
               0
 97
        1
330
E9
 75
               0
 76
               1
 98
        1
 10
0.0
 20
0.0
  0
MTEXT
  5
EB
100
AcDbEntity
  8
0
390
0
 62
               0
100
AcDbMText
 10
38.093538699149462
 20
-462.38489237515626
 30
0.0
 40
24.432617187500004
 41
0.0
 71
               1
 72
               1
  1
150
  7
ＭＳ ゴシック
 11
0.0
 21
1.0
 31
0.0
 73
               1
 44
0.7828267384257843
  0
POINT
  5
EC
100
AcDbEntity
  8
Defpoints
370
               0
390
0
 62
               0
100
AcDbPoint
 10
-79.92677324487795
 20
-513.57239069298089
 30
0.0
  0
POINT
  5
ED
100
AcDbEntity
  8
Defpoints
370
               0
390
0
 62
               0
100
AcDbPoint
 10
-33.028844113350715
 20
-363.57239069298078
 30
0.0
  0
POINT
  5
EE
100
AcDbEntity
  8
Defpoints
370
               0
390
0
 62
               0
100
AcDbPoint
 10
71.971155886649512
 20
-363.57239069298078
 30
0.0
  0
ENDBLK
  5
EF
100
AcDbEntity
  8
notes
390
0
100
AcDbBlockEnd
  0
BLOCK
  5
F0
100
AcDbEntity
  8
notes
390
0
100
AcDbBlockBegin
  2
*D14
 70
               1
 10
0.0
 20
0.0
 30
0.0
  3
*D14
  1

  0
LINE
  5
F1
100
AcDbEntity
  8
0
370
              -2
390
0
  6
Continuous
 62
               0
100
AcDbLine
 10
681.32946664071756
 20
-363.57239069298078
 30
0.0
 11
761.32946664071767
 21
-363.57239069298078
 31
0.0
  0
LINE
  5
F2
100
AcDbEntity
  8
0
370
              -2
390
0
  6
Continuous
 62
               0
100
AcDbLine
 10
681.32946664071756
 20
-458.57239069298066
 30
0.0
 11
761.32946664071767
 21
-458.57239069298066
 31
0.0
  0
LINE
  5
F3
100
AcDbEntity
  8
0
370
              -2
390
0
  6
Continuous
 62
               0
100
AcDbLine
 10
761.32946664071767
 20
-363.57239069298078
 30
0.0
 11
761.32946664071767
 21
-458.57239069298066
 31
0.0
  0
CIRCLE
  5
F4
102
{ACAD_REACTORS
330
F5
102
}
100
AcDbEntity
  8
0
370
              -2
390
0
  6
Continuous
 62
               0
100
AcDbCircle
 10
761.32946664071767
 20
-363.57239069298078
 30
0.0
 40
1.9998779296875
  0
HATCH
  5
F5
100
AcDbEntity
  8
0
370
              -2
390
0
  6
Continuous
 62
               0
100
AcDbHatch
 10
0.0
 20
0.0
 30
0.0
210
0.0
220
0.0
230
1.0
  2
SOLID
 70
               1
 71
               1
 91
        1
 92
        1
 93
        1
 72
               2
 10
761.32946664071767
 20
-363.57239069298078
 40
1.9998779296875
 50
0.0
 51
360.0
 73
               0
 97
        1
330
F4
 75
               0
 76
               1
 98
        1
 10
0.0
 20
0.0
  0
CIRCLE
  5
F6
102
{ACAD_REACTORS
330
F7
102
}
100
AcDbEntity
  8
0
370
              -2
390
0
  6
Continuous
 62
               0
100
AcDbCircle
 10
761.32946664071767
 20
-458.57239069298066
 30
0.0
 40
1.9998779296875
  0
HATCH
  5
F7
100
AcDbEntity
  8
0
370
              -2
390
0
  6
Continuous
 62
               0
100
AcDbHatch
 10
0.0
 20
0.0
 30
0.0
210
0.0
220
0.0
230
1.0
  2
SOLID
 70
               1
 71
               1
 91
        1
 92
        1
 93
        1
 72
               2
 10
761.32946664071767
 20
-458.57239069298066
 40
1.9998779296875
 50
0.0
 51
360.0
 73
               0
 97
        1
330
F6
 75
               0
 76
               1
 98
        1
 10
0.0
 20
0.0
  0
MTEXT
  5
F8
100
AcDbEntity
  8
0
390
0
 62
               0
100
AcDbMText
 10
727.45184945321762
 20
-426.94739069298072
 30
0.0
 40
24.432617187500004
 41
0.0
 71
               1
 72
               1
  1
95
  7
ＭＳ ゴシック
 11
0.0
 21
1.0
 31
0.0
 73
               1
 44
0.7828267384257843
  0
POINT
  5
F9
100
AcDbEntity
  8
Defpoints
370
               0
390
0
 62
               0
100
AcDbPoint
 10
656.32946664071756
 20
-458.57239069298066
 30
0.0
  0
POINT
  5
FA
100
AcDbEntity
  8
Defpoints
370
               0
390
0
 62
               0
100
AcDbPoint
 10
656.32946664071756
 20
-363.57239069298078
 30
0.0
  0
POINT
  5
FB
100
AcDbEntity
  8
Defpoints
370
               0
390
0
 62
               0
100
AcDbPoint
 10
761.32946664071767
 20
-363.57239069298078
 30
0.0
  0
ENDBLK
  5
FC
100
AcDbEntity
  8
notes
390
0
100
AcDbBlockEnd
  0
BLOCK
  5
FD
100
AcDbEntity
  8
notes
390
0
100
AcDbBlockBegin
  2
*D15
 70
               1
 10
0.0
 20
0.0
 30
0.0
  3
*D15
  1

  0
LINE
  5
FE
100
AcDbEntity
  8
0
370
              -2
390
0
  6
Continuous
 62
               0
100
AcDbLine
 10
681.32946664071756
 20
-458.57239069298066
 30
0.0
 11
761.32946664071767
 21
-458.57239069298066
 31
0.0
  0
LINE
  5
FF
100
AcDbEntity
  8
0
370
              -2
390
0
  6
Continuous
 62
               0
100
AcDbLine
 10
631.32390055256155
 20
-513.57239069298043
 30
0.0
 11
761.32946664071767
 21
-513.57239069298043
 31
0.0
  0
LINE
  5
100
100
AcDbEntity
  8
0
370
              -2
390
0
  6
Continuous
 62
               0
100
AcDbLine
 10
761.32946664071767
 20
-513.57239069298043
 30
0.0
 11
761.32946664071767
 21
-550.32239069298066
 31
0.0
  0
LINE
  5
101
100
AcDbEntity
  8
0
370
              -2
390
0
  6
Continuous
 62
               0
100
AcDbLine
 10
761.32946664071767
 20
-458.57239069298066
 30
0.0
 11
761.32946664071767
 21
-513.57239069298043
 31
0.0
  0
CIRCLE
  5
102
102
{ACAD_REACTORS
330
103
102
}
100
AcDbEntity
  8
0
370
              -2
390
0
  6
Continuous
 62
               0
100
AcDbCircle
 10
761.32946664071767
 20
-458.57239069298066
 30
0.0
 40
1.9998779296875
  0
HATCH
  5
103
100
AcDbEntity
  8
0
370
              -2
390
0
  6
Continuous
 62
               0
100
AcDbHatch
 10
0.0
 20
0.0
 30
0.0
210
0.0
220
0.0
230
1.0
  2
SOLID
 70
               1
 71
               1
 91
        1
 92
        1
 93
        1
 72
               2
 10
761.32946664071767
 20
-458.57239069298066
 40
1.9998779296875
 50
0.0
 51
360.0
 73
               0
 97
        1
330
102
 75
               0
 76
               1
 98
        1
 10
0.0
 20
0.0
  0
CIRCLE
  5
104
102
{ACAD_REACTORS
330
105
102
}
100
AcDbEntity
  8
0
370
              -2
390
0
  6
Continuous
 62
               0
100
AcDbCircle
 10
761.32946664071767
 20
-513.57239069298043
 30
0.0
 40
1.9998779296875
  0
HATCH
  5
105
100
AcDbEntity
  8
0
370
              -2
390
0
  6
Continuous
 62
               0
100
AcDbHatch
 10
0.0
 20
0.0
 30
0.0
210
0.0
220
0.0
230
1.0
  2
SOLID
 70
               1
 71
               1
 91
        1
 92
        1
 93
        1
 72
               2
 10
761.32946664071767
 20
-513.57239069298043
 40
1.9998779296875
 50
0.0
 51
360.0
 73
               0
 97
        1
330
104
 75
               0
 76
               1
 98
        1
 10
0.0
 20
0.0
  0
MTEXT
  5
106
100
AcDbEntity
  8
0
390
0
 62
               0
100
AcDbMText
 10
727.45184945321762
 20
-550.32239069298066
 30
0.0
 40
24.432617187500004
 41
0.0
 71
               1
 72
               1
  1
55
  7
ＭＳ ゴシック
 11
0.0
 21
1.0
 31
0.0
 73
               1
 44
0.7828267384257843
  0
POINT
  5
107
100
AcDbEntity
  8
Defpoints
370
               0
390
0
 62
               0
100
AcDbPoint
 10
606.32390055256155
 20
-513.57239069298043
 30
0.0
  0
POINT
  5
108
100
AcDbEntity
  8
Defpoints
370
               0
390
0
 62
               0
100
AcDbPoint
 10
656.32946664071756
 20
-458.57239069298066
 30
0.0
  0
POINT
  5
109
100
AcDbEntity
  8
Defpoints
370
               0
390
0
 62
               0
100
AcDbPoint
 10
761.32946664071767
 20
-458.57239069298066
 30
0.0
  0
ENDBLK
  5
10A
100
AcDbEntity
  8
notes
390
0
100
AcDbBlockEnd
  0
BLOCK
  5
10B
100
AcDbEntity
  8
notes
390
0
100
AcDbBlockBegin
  2
*D16
 70
               1
 10
0.0
 20
0.0
 30
0.0
  3
*D16
  1

  0
LINE
  5
10C
100
AcDbEntity
  8
0
370
              -2
390
0
  6
Continuous
 62
               0
100
AcDbLine
 10
-719.65793590860414
 20
667.35045501149136
 30
0.0
 11
-818.02884411335083
 21
667.35045501149136
 31
0.0
  0
LINE
  5
10D
100
AcDbEntity
  8
0
370
              -2
390
0
  6
Continuous
 62
               0
100
AcDbLine
 10
-803.02884411335037
 20
852.34980719057171
 30
0.0
 11
-818.02884411335083
 21
852.34980719057171
 31
0.0
  0
LINE
  5
10E
100
AcDbEntity
  8
0
370
              -2
390
0
  6
Continuous
 62
               0
100
AcDbLine
 10
-818.02884411335083
 20
667.35045501149136
 30
0.0
 11
-818.02884411335083
 21
852.34980719057171
 31
0.0
  0
CIRCLE
  5
10F
102
{ACAD_REACTORS
330
110
102
}
100
AcDbEntity
  8
0
370
              -2
390
0
  6
Continuous
 62
               0
100
AcDbCircle
 10
-818.02884411335083
 20
667.35045501149136
 30
0.0
 40
1.9998779296875
  0
HATCH
  5
110
100
AcDbEntity
  8
0
370
              -2
390
0
  6
Continuous
 62
               0
100
AcDbHatch
 10
0.0
 20
0.0
 30
0.0
210
0.0
220
0.0
230
1.0
  2
SOLID
 70
               1
 71
               1
 91
        1
 92
        1
 93
        1
 72
               2
 10
-818.02884411335083
 20
667.35045501149136
 40
1.9998779296875
 50
0.0
 51
360.0
 73
               0
 97
        1
330
10F
 75
               0
 76
               1
 98
        1
 10
0.0
 20
0.0
  0
CIRCLE
  5
111
102
{ACAD_REACTORS
330
112
102
}
100
AcDbEntity
  8
0
370
              -2
390
0
  6
Continuous
 62
               0
100
AcDbCircle
 10
-818.02884411335083
 20
852.34980719057171
 30
0.0
 40
1.9998779296875
  0
HATCH
  5
112
100
AcDbEntity
  8
0
370
              -2
390
0
  6
Continuous
 62
               0
100
AcDbHatch
 10
0.0
 20
0.0
 30
0.0
210
0.0
220
0.0
230
1.0
  2
SOLID
 70
               1
 71
               1
 91
        1
 92
        1
 93
        1
 72
               2
 10
-818.02884411335083
 20
852.34980719057171
 40
1.9998779296875
 50
0.0
 51
360.0
 73
               0
 97
        1
330
111
 75
               0
 76
               1
 98
        1
 10
0.0
 20
0.0
  0
MTEXT
  5
113
100
AcDbEntity
  8
0
390
0
 62
               0
100
AcDbMText
 10
-851.90646130085076
 20
736.037629418856
 30
0.0
 40
24.432617187500004
 41
0.0
 71
               1
 72
               1
  1
185
  7
ＭＳ ゴシック
 11
0.0
 21
1.0
 31
0.0
 73
               1
 44
0.7828267384257843
  0
POINT
  5
114
100
AcDbEntity
  8
Defpoints
370
               0
390
0
 62
               0
100
AcDbPoint
 10
-778.02884411335037
 20
852.34980719057171
 30
0.0
  0
POINT
  5
115
100
AcDbEntity
  8
Defpoints
370
               0
390
0
 62
               0
100
AcDbPoint
 10
-694.65793590860414
 20
667.35045501149136
 30
0.0
  0
POINT
  5
116
100
AcDbEntity
  8
Defpoints
370
               0
390
0
 62
               0
100
AcDbPoint
 10
-818.02884411335083
 20
667.35045501149136
 30
0.0
  0
ENDBLK
  5
117
100
AcDbEntity
  8
notes
390
0
100
AcDbBlockEnd
  0
BLOCK
  5
118
100
AcDbEntity
  8
notes
390
0
100
AcDbBlockBegin
  2
*D17
 70
               1
 10
0.0
 20
0.0
 30
0.0
  3
*D17
  1

  0
LINE
  5
119
100
AcDbEntity
  8
0
370
              -2
390
0
  6
Continuous
 62
               0
100
AcDbLine
 10
861.97090820474648
 20
817.34980719057239
 30
0.0
 11
907.37090820474657
 21
817.34980719057239
 31
0.0
  0
LINE
  5
11A
100
AcDbEntity
  8
0
370
              -2
390
0
  6
Continuous
 62
               0
100
AcDbLine
 10
861.97090820474648
 20
517.34980719057239
 30
0.0
 11
907.37090820474657
 21
517.34980719057239
 31
0.0
  0
LINE
  5
11B
100
AcDbEntity
  8
0
370
              -2
390
0
  6
Continuous
 62
               0
100
AcDbLine
 10
907.37090820474657
 20
817.34980719057239
 30
0.0
 11
907.37090820474657
 21
517.34980719057239
 31
0.0
  0
CIRCLE
  5
11C
102
{ACAD_REACTORS
330
11D
102
}
100
AcDbEntity
  8
0
370
              -2
390
0
  6
Continuous
 62
               0
100
AcDbCircle
 10
907.37090820474657
 20
817.34980719057239
 30
0.0
 40
1.9998779296875
  0
HATCH
  5
11D
100
AcDbEntity
  8
0
370
              -2
390
0
  6
Continuous
 62
               0
100
AcDbHatch
 10
0.0
 20
0.0
 30
0.0
210
0.0
220
0.0
230
1.0
  2
SOLID
 70
               1
 71
               1
 91
        1
 92
        1
 93
        1
 72
               2
 10
907.37090820474657
 20
817.34980719057239
 40
1.9998779296875
 50
0.0
 51
360.0
 73
               0
 97
        1
330
11C
 75
               0
 76
               1
 98
        1
 10
0.0
 20
0.0
  0
CIRCLE
  5
11E
102
{ACAD_REACTORS
330
11F
102
}
100
AcDbEntity
  8
0
370
              -2
390
0
  6
Continuous
 62
               0
100
AcDbCircle
 10
907.37090820474657
 20
517.34980719057239
 30
0.0
 40
1.9998779296875
  0
HATCH
  5
11F
100
AcDbEntity
  8
0
370
              -2
390
0
  6
Continuous
 62
               0
100
AcDbHatch
 10
0.0
 20
0.0
 30
0.0
210
0.0
220
0.0
230
1.0
  2
SOLID
 70
               1
 71
               1
 91
        1
 92
        1
 93
        1
 72
               2
 10
907.37090820474657
 20
517.34980719057239
 40
1.9998779296875
 50
0.0
 51
360.0
 73
               0
 97
        1
330
11E
 75
               0
 76
               1
 98
        1
 10
0.0
 20
0.0
  0
MTEXT
  5
120
100
AcDbEntity
  8
0
390
0
 62
               0
100
AcDbMText
 10
873.49329101724652
 20
643.53730550839691
 30
0.0
 40
24.432617187500004
 41
0.0
 71
               1
 72
               1
  1
300
  7
ＭＳ ゴシック
 11
0.0
 21
1.0
 31
0.0
 73
               1
 44
0.7828267384257843
  0
POINT
  5
121
100
AcDbEntity
  8
Defpoints
370
               0
390
0
 62
               0
100
AcDbPoint
 10
836.97090820474648
 20
517.34980719057239
 30
0.0
  0
POINT
  5
122
100
AcDbEntity
  8
Defpoints
370
               0
390
0
 62
               0
100
AcDbPoint
 10
836.97090820474648
 20
817.34980719057239
 30
0.0
  0
POINT
  5
123
100
AcDbEntity
  8
Defpoints
370
               0
390
0
 62
               0
100
AcDbPoint
 10
907.37090820474657
 20
817.34980719057239
 30
0.0
  0
ENDBLK
  5
124
100
AcDbEntity
  8
notes
390
0
100
AcDbBlockEnd
  0
BLOCK
  5
125
100
AcDbEntity
  8
notes
390
0
100
AcDbBlockBegin
  2
*D18
 70
               1
 10
0.0
 20
0.0
 30
0.0
  3
*D18
  1

  0
LINE
  5
126
100
AcDbEntity
  8
0
370
              -2
390
0
  6
Continuous
 62
               0
100
AcDbLine
 10
836.97090820474648
 20
492.34980719057239
 30
0.0
 11
836.97090820474648
 21
414.00064782091965
 31
0.0
  0
LINE
  5
127
100
AcDbEntity
  8
0
370
              -2
390
0
  6
Continuous
 62
               0
100
AcDbLine
 10
156.97090820474648
 20
492.34980719057239
 30
0.0
 11
156.97090820474648
 21
414.00064782091965
 31
0.0
  0
LINE
  5
128
100
AcDbEntity
  8
0
370
              -2
390
0
  6
Continuous
 62
               0
100
AcDbLine
 10
836.97090820474648
 20
414.00064782091965
 30
0.0
 11
156.97090820474648
 21
414.00064782091965
 31
0.0
  0
CIRCLE
  5
129
102
{ACAD_REACTORS
330
12A
102
}
100
AcDbEntity
  8
0
370
              -2
390
0
  6
Continuous
 62
               0
100
AcDbCircle
 10
836.97090820474648
 20
414.00064782091965
 30
0.0
 40
1.9998779296875
  0
HATCH
  5
12A
100
AcDbEntity
  8
0
370
              -2
390
0
  6
Continuous
 62
               0
100
AcDbHatch
 10
0.0
 20
0.0
 30
0.0
210
0.0
220
0.0
230
1.0
  2
SOLID
 70
               1
 71
               1
 91
        1
 92
        1
 93
        1
 72
               2
 10
836.97090820474648
 20
414.00064782091965
 40
1.9998779296875
 50
0.0
 51
360.0
 73
               0
 97
        1
330
129
 75
               0
 76
               1
 98
        1
 10
0.0
 20
0.0
  0
CIRCLE
  5
12B
102
{ACAD_REACTORS
330
12C
102
}
100
AcDbEntity
  8
0
370
              -2
390
0
  6
Continuous
 62
               0
100
AcDbCircle
 10
156.97090820474648
 20
414.00064782091965
 30
0.0
 40
1.9998779296875
  0
HATCH
  5
12C
100
AcDbEntity
  8
0
370
              -2
390
0
  6
Continuous
 62
               0
100
AcDbHatch
 10
0.0
 20
0.0
 30
0.0
210
0.0
220
0.0
230
1.0
  2
SOLID
 70
               1
 71
               1
 91
        1
 92
        1
 93
        1
 72
               2
 10
156.97090820474648
 20
414.00064782091965
 40
1.9998779296875
 50
0.0
 51
360.0
 73
               0
 97
        1
330
12B
 75
               0
 76
               1
 98
        1
 10
0.0
 20
0.0
  0
MTEXT
  5
12D
100
AcDbEntity
  8
0
390
0
 62
               0
100
AcDbMText
 10
473.15840652257094
 20
447.87826500841965
 30
0.0
 40
24.432617187500004
 41
0.0
 71
               1
 72
               1
  1
680
  7
ＭＳ ゴシック
 73
               1
 44
0.7828267384257843
  0
POINT
  5
12E
100
AcDbEntity
  8
Defpoints
370
               0
390
0
 62
               0
100
AcDbPoint
 10
156.97090820474648
 20
517.34980719057239
 30
0.0
  0
POINT
  5
12F
100
AcDbEntity
  8
Defpoints
370
               0
390
0
 62
               0
100
AcDbPoint
 10
836.97090820474648
 20
517.34980719057239
 30
0.0
  0
POINT
  5
130
100
AcDbEntity
  8
Defpoints
370
               0
390
0
 62
               0
100
AcDbPoint
 10
836.97090820474648
 20
414.00064782091965
 30
0.0
  0
ENDBLK
  5
131
100
AcDbEntity
  8
notes
390
0
100
AcDbBlockEnd
  0
BLOCK
  5
132
100
AcDbEntity
  8
notes
390
0
100
AcDbBlockBegin
  2
*D19
 70
               1
 10
0.0
 20
0.0
 30
0.0
  3
*D19
  1

  0
LINE
  5
133
100
AcDbEntity
  8
0
370
              -2
390
0
  6
Continuous
 62
               0
100
AcDbLine
 10
156.97090820474648
 20
492.34980719057239
 30
0.0
 11
156.97090820474648
 21
413.62564782091965
 31
0.0
  0
LINE
  5
134
100
AcDbEntity
  8
0
370
              -2
390
0
  6
Continuous
 62
               0
100
AcDbLine
 10
121.97115588664929
 20
492.34980719057239
 30
0.0
 11
121.97115588664929
 21
413.62564782091965
 31
0.0
  0
LINE
  5
135
100
AcDbEntity
  8
0
370
              -2
390
0
  6
Continuous
 62
               0
100
AcDbLine
 10
121.97115588664929
 20
413.62564782091965
 30
0.0
 11
77.460092524191964
 21
413.62564782091965
 31
0.0
  0
LINE
  5
136
100
AcDbEntity
  8
0
370
              -2
390
0
  6
Continuous
 62
               0
100
AcDbLine
 10
156.97090820474648
 20
413.62564782091965
 30
0.0
 11
121.97115588664929
 21
413.62564782091965
 31
0.0
  0
CIRCLE
  5
137
102
{ACAD_REACTORS
330
138
102
}
100
AcDbEntity
  8
0
370
              -2
390
0
  6
Continuous
 62
               0
100
AcDbCircle
 10
156.97090820474648
 20
413.62564782091965
 30
0.0
 40
1.9998779296875
  0
HATCH
  5
138
100
AcDbEntity
  8
0
370
              -2
390
0
  6
Continuous
 62
               0
100
AcDbHatch
 10
0.0
 20
0.0
 30
0.0
210
0.0
220
0.0
230
1.0
  2
SOLID
 70
               1
 71
               1
 91
        1
 92
        1
 93
        1
 72
               2
 10
156.97090820474648
 20
413.62564782091965
 40
1.9998779296875
 50
0.0
 51
360.0
 73
               0
 97
        1
330
137
 75
               0
 76
               1
 98
        1
 10
0.0
 20
0.0
  0
CIRCLE
  5
139
102
{ACAD_REACTORS
330
13A
102
}
100
AcDbEntity
  8
0
370
              -2
390
0
  6
Continuous
 62
               0
100
AcDbCircle
 10
121.97115588664929
 20
413.62564782091965
 30
0.0
 40
1.9998779296875
  0
HATCH
  5
13A
100
AcDbEntity
  8
0
370
              -2
390
0
  6
Continuous
 62
               0
100
AcDbHatch
 10
0.0
 20
0.0
 30
0.0
210
0.0
220
0.0
230
1.0
  2
SOLID
 70
               1
 71
               1
 91
        1
 92
        1
 93
        1
 72
               2
 10
121.97115588664929
 20
413.62564782091965
 40
1.9998779296875
 50
0.0
 51
360.0
 73
               0
 97
        1
330
139
 75
               0
 76
               1
 98
        1
 10
0.0
 20
0.0
  0
MTEXT
  5
13B
100
AcDbEntity
  8
0
390
0
 62
               0
100
AcDbMText
 10
77.460092524191964
 20
447.50326500841965
 30
0.0
 40
24.432617187500004
 41
0.0
 71
               1
 72
               1
  1
35
  7
ＭＳ ゴシック
 73
               1
 44
0.7828267384257843
  0
POINT
  5
13C
100
AcDbEntity
  8
Defpoints
370
               0
390
0
 62
               0
100
AcDbPoint
 10
121.97115588664929
 20
517.34980719057239
 30
0.0
  0
POINT
  5
13D
100
AcDbEntity
  8
Defpoints
370
               0
390
0
 62
               0
100
AcDbPoint
 10
156.97090820474648
 20
517.34980719057239
 30
0.0
  0
POINT
  5
13E
100
AcDbEntity
  8
Defpoints
370
               0
390
0
 62
               0
100
AcDbPoint
 10
156.97090820474648
 20
413.62564782091965
 30
0.0
  0
ENDBLK
  5
13F
100
AcDbEntity
  8
notes
390
0
100
AcDbBlockEnd
  0
BLOCK
  5
140
100
AcDbEntity
  8
notes
390
0
100
AcDbBlockBegin
  2
*D20
 70
               1
 10
0.0
 20
0.0
 30
0.0
  3
*D20
  1

  0
LINE
  5
141
100
AcDbEntity
  8
0
370
              -2
390
0
  6
Continuous
 62
               0
100
AcDbLine
 10
861.97090820474648
 20
817.34980719057239
 30
0.0
 11
907.37090820474657
 21
817.34980719057239
 31
0.0
  0
LINE
  5
142
100
AcDbEntity
  8
0
370
              -2
390
0
  6
Continuous
 62
               0
100
AcDbLine
 10
861.97090820474648
 20
852.34980719057239
 30
0.0
 11
907.37090820474657
 21
852.34980719057239
 31
0.0
  0
LINE
  5
143
100
AcDbEntity
  8
0
370
              -2
390
0
  6
Continuous
 62
               0
100
AcDbLine
 10
907.37090820474657
 20
852.34980719057239
 30
0.0
 11
907.37090820474657
 21
905.75064782091965
 31
0.0
  0
LINE
  5
144
100
AcDbEntity
  8
0
370
              -2
390
0
  6
Continuous
 62
               0
100
AcDbLine
 10
907.37090820474657
 20
817.34980719057239
 30
0.0
 11
907.37090820474657
 21
852.34980719057239
 31
0.0
  0
CIRCLE
  5
145
102
{ACAD_REACTORS
330
146
102
}
100
AcDbEntity
  8
0
370
              -2
390
0
  6
Continuous
 62
               0
100
AcDbCircle
 10
907.37090820474657
 20
817.34980719057239
 30
0.0
 40
1.9998779296875
  0
HATCH
  5
146
100
AcDbEntity
  8
0
370
              -2
390
0
  6
Continuous
 62
               0
100
AcDbHatch
 10
0.0
 20
0.0
 30
0.0
210
0.0
220
0.0
230
1.0
  2
SOLID
 70
               1
 71
               1
 91
        1
 92
        1
 93
        1
 72
               2
 10
907.37090820474657
 20
817.34980719057239
 40
1.9998779296875
 50
0.0
 51
360.0
 73
               0
 97
        1
330
145
 75
               0
 76
               1
 98
        1
 10
0.0
 20
0.0
  0
CIRCLE
  5
147
102
{ACAD_REACTORS
330
148
102
}
100
AcDbEntity
  8
0
370
              -2
390
0
  6
Continuous
 62
               0
100
AcDbCircle
 10
907.37090820474657
 20
852.34980719057239
 30
0.0
 40
1.9998779296875
  0
HATCH
  5
148
100
AcDbEntity
  8
0
370
              -2
390
0
  6
Continuous
 62
               0
100
AcDbHatch
 10
0.0
 20
0.0
 30
0.0
210
0.0
220
0.0
230
1.0
  2
SOLID
 70
               1
 71
               1
 91
        1
 92
        1
 93
        1
 72
               2
 10
907.37090820474657
 20
852.34980719057239
 40
1.9998779296875
 50
0.0
 51
360.0
 73
               0
 97
        1
330
147
 75
               0
 76
               1
 98
        1
 10
0.0
 20
0.0
  0
MTEXT
  5
149
100
AcDbEntity
  8
0
390
0
 62
               0
100
AcDbMText
 10
873.49329101724652
 20
874.00064782091965
 30
0.0
 40
24.432617187500004
 41
0.0
 71
               1
 72
               1
  1
35
  7
ＭＳ ゴシック
 11
0.0
 21
1.0
 31
0.0
 73
               1
 44
0.7828267384257843
  0
POINT
  5
14A
100
AcDbEntity
  8
Defpoints
370
               0
390
0
 62
               0
100
AcDbPoint
 10
836.97090820474648
 20
852.34980719057239
 30
0.0
  0
POINT
  5
14B
100
AcDbEntity
  8
Defpoints
370
               0
390
0
 62
               0
100
AcDbPoint
 10
836.97090820474648
 20
817.34980719057239
 30
0.0
  0
POINT
  5
14C
100
AcDbEntity
  8
Defpoints
370
               0
390
0
 62
               0
100
AcDbPoint
 10
907.37090820474657
 20
817.34980719057239
 30
0.0
  0
ENDBLK
  5
14D
100
AcDbEntity
  8
notes
390
0
100
AcDbBlockEnd
  0
BLOCK
  5
14E
100
AcDbEntity
  8
notes
390
0
100
AcDbBlockBegin
  2
*D21
 70
               1
 10
0.0
 20
0.0
 30
0.0
  3
*D21
  1

  0
LINE
  5
14F
100
AcDbEntity
  8
0
370
              -2
390
0
  6
Continuous
 62
               0
100
AcDbLine
 10
181.97115588664929
 20
592.30064782091961
 30
0.0
 11
181.97115588664929
 21
537.30064782091961
 31
0.0
  0
LINE
  5
150
100
AcDbEntity
  8
0
370
              -2
390
0
  6
Continuous
 62
               0
100
AcDbLine
 10
611.97115588664929
 20
592.30064782091961
 30
0.0
 11
611.97115588664929
 21
537.30064782091961
 31
0.0
  0
LINE
  5
151
100
AcDbEntity
  8
0
370
              -2
390
0
  6
Continuous
 62
               0
100
AcDbLine
 10
181.97115588664929
 20
537.30064782091961
 30
0.0
 11
611.97115588664929
 21
537.30064782091961
 31
0.0
  0
CIRCLE
  5
152
102
{ACAD_REACTORS
330
153
102
}
100
AcDbEntity
  8
0
370
              -2
390
0
  6
Continuous
 62
               0
100
AcDbCircle
 10
181.97115588664929
 20
537.30064782091961
 30
0.0
 40
1.9998779296875
  0
HATCH
  5
153
100
AcDbEntity
  8
0
370
              -2
390
0
  6
Continuous
 62
               0
100
AcDbHatch
 10
0.0
 20
0.0
 30
0.0
210
0.0
220
0.0
230
1.0
  2
SOLID
 70
               1
 71
               1
 91
        1
 92
        1
 93
        1
 72
               2
 10
181.97115588664929
 20
537.30064782091961
 40
1.9998779296875
 50
0.0
 51
360.0
 73
               0
 97
        1
330
152
 75
               0
 76
               1
 98
        1
 10
0.0
 20
0.0
  0
CIRCLE
  5
154
102
{ACAD_REACTORS
330
155
102
}
100
AcDbEntity
  8
0
370
              -2
390
0
  6
Continuous
 62
               0
100
AcDbCircle
 10
611.97115588664929
 20
537.30064782091961
 30
0.0
 40
1.9998779296875
  0
HATCH
  5
155
100
AcDbEntity
  8
0
370
              -2
390
0
  6
Continuous
 62
               0
100
AcDbHatch
 10
0.0
 20
0.0
 30
0.0
210
0.0
220
0.0
230
1.0
  2
SOLID
 70
               1
 71
               1
 91
        1
 92
        1
 93
        1
 72
               2
 10
611.97115588664929
 20
537.30064782091961
 40
1.9998779296875
 50
0.0
 51
360.0
 73
               0
 97
        1
330
154
 75
               0
 76
               1
 98
        1
 10
0.0
 20
0.0
  0
MTEXT
  5
156
100
AcDbEntity
  8
0
390
0
 62
               0
100
AcDbMText
 10
373.15865420447375
 20
571.17826500841966
 30
0.0
 40
24.432617187500004
 41
0.0
 71
               1
 72
               1
  1
430
  7
ＭＳ ゴシック
 73
               1
 44
0.7828267384257843
  0
POINT
  5
157
100
AcDbEntity
  8
Defpoints
370
               0
390
0
 62
               0
100
AcDbPoint
 10
611.97115588664929
 20
617.30064782091961
 30
0.0
  0
POINT
  5
158
100
AcDbEntity
  8
Defpoints
370
               0
390
0
 62
               0
100
AcDbPoint
 10
181.97115588664929
 20
617.30064782091961
 30
0.0
  0
POINT
  5
159
100
AcDbEntity
  8
Defpoints
370
               0
390
0
 62
               0
100
AcDbPoint
 10
181.97115588664929
 20
537.30064782091961
 30
0.0
  0
ENDBLK
  5
15A
100
AcDbEntity
  8
notes
390
0
100
AcDbBlockEnd
  0
BLOCK
  5
15B
100
AcDbEntity
  8
notes
390
0
100
AcDbBlockBegin
  2
*D22
 70
               1
 10
0.0
 20
0.0
 30
0.0
  3
*D22
  1

  0
LINE
  5
15C
100
AcDbEntity
  8
0
370
              -2
390
0
  6
Continuous
 62
               0
100
AcDbLine
 10
636.97115588664929
 20
617.30064782091961
 30
0.0
 11
711.97115588664929
 21
617.30064782091961
 31
0.0
  0
LINE
  5
15D
100
AcDbEntity
  8
0
370
              -2
390
0
  6
Continuous
 62
               0
100
AcDbLine
 10
636.97115588664929
 20
717.30064782091961
 30
0.0
 11
711.97115588664929
 21
717.30064782091961
 31
0.0
  0
LINE
  5
15E
100
AcDbEntity
  8
0
370
              -2
390
0
  6
Continuous
 62
               0
100
AcDbLine
 10
711.97115588664929
 20
617.30064782091961
 30
0.0
 11
711.97115588664929
 21
717.30064782091961
 31
0.0
  0
CIRCLE
  5
15F
102
{ACAD_REACTORS
330
160
102
}
100
AcDbEntity
  8
0
370
              -2
390
0
  6
Continuous
 62
               0
100
AcDbCircle
 10
711.97115588664929
 20
617.30064782091961
 30
0.0
 40
1.9998779296875
  0
HATCH
  5
160
100
AcDbEntity
  8
0
370
              -2
390
0
  6
Continuous
 62
               0
100
AcDbHatch
 10
0.0
 20
0.0
 30
0.0
210
0.0
220
0.0
230
1.0
  2
SOLID
 70
               1
 71
               1
 91
        1
 92
        1
 93
        1
 72
               2
 10
711.97115588664929
 20
617.30064782091961
 40
1.9998779296875
 50
0.0
 51
360.0
 73
               0
 97
        1
330
15F
 75
               0
 76
               1
 98
        1
 10
0.0
 20
0.0
  0
CIRCLE
  5
161
102
{ACAD_REACTORS
330
162
102
}
100
AcDbEntity
  8
0
370
              -2
390
0
  6
Continuous
 62
               0
100
AcDbCircle
 10
711.97115588664929
 20
717.30064782091961
 30
0.0
 40
1.9998779296875
  0
HATCH
  5
162
100
AcDbEntity
  8
0
370
              -2
390
0
  6
Continuous
 62
               0
100
AcDbHatch
 10
0.0
 20
0.0
 30
0.0
210
0.0
220
0.0
230
1.0
  2
SOLID
 70
               1
 71
               1
 91
        1
 92
        1
 93
        1
 72
               2
 10
711.97115588664929
 20
717.30064782091961
 40
1.9998779296875
 50
0.0
 51
360.0
 73
               0
 97
        1
330
161
 75
               0
 76
               1
 98
        1
 10
0.0
 20
0.0
  0
MTEXT
  5
163
100
AcDbEntity
  8
0
390
0
 62
               0
100
AcDbMText
 10
678.09353869914924
 20
643.48814613874413
 30
0.0
 40
24.432617187500004
 41
0.0
 71
               1
 72
               1
  1
100
  7
ＭＳ ゴシック
 11
0.0
 21
1.0
 31
0.0
 73
               1
 44
0.7828267384257843
  0
POINT
  5
164
100
AcDbEntity
  8
Defpoints
370
               0
390
0
 62
               0
100
AcDbPoint
 10
611.97115588664929
 20
717.30064782091961
 30
0.0
  0
POINT
  5
165
100
AcDbEntity
  8
Defpoints
370
               0
390
0
 62
               0
100
AcDbPoint
 10
611.97115588664929
 20
617.30064782091961
 30
0.0
  0
POINT
  5
166
100
AcDbEntity
  8
Defpoints
370
               0
390
0
 62
               0
100
AcDbPoint
 10
711.97115588664929
 20
617.30064782091961
 30
0.0
  0
ENDBLK
  5
167
100
AcDbEntity
  8
notes
390
0
100
AcDbBlockEnd
  0
BLOCK
  5
168
100
AcDbEntity
  8
notes
390
0
100
AcDbBlockBegin
  2
*D23
 70
               1
 10
0.0
 20
0.0
 30
0.0
  3
*D23
  1

  0
LINE
  5
169
100
AcDbEntity
  8
0
370
              -2
390
0
  6
Continuous
 62
               0
100
AcDbLine
 10
181.97115588664929
 20
592.30064782091961
 30
0.0
 11
181.97115588664929
 21
537.17564782091961
 31
0.0
  0
LINE
  5
16A
100
AcDbEntity
  8
0
370
              -2
390
0
  6
Continuous
 62
               0
100
AcDbLine
 10
121.97115588664929
 20
592.30064782091961
 30
0.0
 11
121.97115588664929
 21
537.17564782091961
 31
0.0
  0
LINE
  5
16B
100
AcDbEntity
  8
0
370
              -2
390
0
  6
Continuous
 62
               0
100
AcDbLine
 10
121.97115588664929
 20
537.17564782091961
 30
0.0
 11
83.62090820474657
 21
537.17564782091961
 31
0.0
  0
LINE
  5
16C
100
AcDbEntity
  8
0
370
              -2
390
0
  6
Continuous
 62
               0
100
AcDbLine
 10
181.97115588664929
 20
537.17564782091961
 30
0.0
 11
121.97115588664929
 21
537.17564782091961
 31
0.0
  0
CIRCLE
  5
16D
102
{ACAD_REACTORS
330
16E
102
}
100
AcDbEntity
  8
0
370
              -2
390
0
  6
Continuous
 62
               0
100
AcDbCircle
 10
181.97115588664929
 20
537.17564782091961
 30
0.0
 40
1.9998779296875
  0
HATCH
  5
16E
100
AcDbEntity
  8
0
370
              -2
390
0
  6
Continuous
 62
               0
100
AcDbHatch
 10
0.0
 20
0.0
 30
0.0
210
0.0
220
0.0
230
1.0
  2
SOLID
 70
               1
 71
               1
 91
        1
 92
        1
 93
        1
 72
               2
 10
181.97115588664929
 20
537.17564782091961
 40
1.9998779296875
 50
0.0
 51
360.0
 73
               0
 97
        1
330
16D
 75
               0
 76
               1
 98
        1
 10
0.0
 20
0.0
  0
CIRCLE
  5
16F
102
{ACAD_REACTORS
330
170
102
}
100
AcDbEntity
  8
0
370
              -2
390
0
  6
Continuous
 62
               0
100
AcDbCircle
 10
121.97115588664929
 20
537.17564782091961
 30
0.0
 40
1.9998779296875
  0
HATCH
  5
170
100
AcDbEntity
  8
0
370
              -2
390
0
  6
Continuous
 62
               0
100
AcDbHatch
 10
0.0
 20
0.0
 30
0.0
210
0.0
220
0.0
230
1.0
  2
SOLID
 70
               1
 71
               1
 91
        1
 92
        1
 93
        1
 72
               2
 10
121.97115588664929
 20
537.17564782091961
 40
1.9998779296875
 50
0.0
 51
360.0
 73
               0
 97
        1
330
16F
 75
               0
 76
               1
 98
        1
 10
0.0
 20
0.0
  0
MTEXT
  5
171
100
AcDbEntity
  8
0
390
0
 62
               0
100
AcDbMText
 10
83.62090820474657
 20
571.05326500841966
 30
0.0
 40
24.432617187500004
 41
0.0
 71
               1
 72
               1
  1
60
  7
ＭＳ ゴシック
 73
               1
 44
0.7828267384257843
  0
POINT
  5
172
100
AcDbEntity
  8
Defpoints
370
               0
390
0
 62
               0
100
AcDbPoint
 10
121.97115588664929
 20
617.30064782091961
 30
0.0
  0
POINT
  5
173
100
AcDbEntity
  8
Defpoints
370
               0
390
0
 62
               0
100
AcDbPoint
 10
181.97115588664929
 20
617.30064782091961
 30
0.0
  0
POINT
  5
174
100
AcDbEntity
  8
Defpoints
370
               0
390
0
 62
               0
100
AcDbPoint
 10
181.97115588664929
 20
537.17564782091961
 30
0.0
  0
ENDBLK
  5
175
100
AcDbEntity
  8
notes
390
0
100
AcDbBlockEnd
  0
ENDSEC
  0
SECTION
  2
ENTITIES
  0
MTEXT
  5
176
100
AcDbEntity
  8
template
390
0
 62
               7
100
AcDbMText
 10
-967.9999999997591
 20
-1147.4176292337006
 30
0.0
 40
16.288411458333332
 41
0.0
 71
               1
 72
               1
  1
品名
  7
ＭＳ ゴシック
 73
               1
 44
0.7828267384257843
  0
MTEXT
  5
177
100
AcDbEntity
  8
template
390
0
 62
               7
100
AcDbMText
 10
-967.9999999997591
 20
-1232.4176292337006
 30
0.0
 40
16.288411458333332
 41
0.0
 71
               1
 72
               1
  1
仕様
  7
ＭＳ ゴシック
 73
               1
 44
0.7828267384257843
  0
MTEXT
  5
178
100
AcDbEntity
  8
template
390
0
 62
               7
100
AcDbMText
 10
-914.9999999997591
 20
-1176.0000901712006
 30
0.0
 40
24.432617187500004
 41
0.0
 71
               1
 72
               1
  1
洗面器･手洗器 -CATALANO,Verso-
  7
ＭＳ ゴシック
 73
               1
 44
0.7828267384257843
  0
LINE
  5
179
100
AcDbEntity
  8
template
370
               5
390
0
  6
Continuous
 62
               7
100
AcDbLine
 10
974.99999999975876
 20
-1224.0027073587007
 30
0.0
 11
-975.00000000024113
 21
-1224.0027073587007
 31
0.0
  0
LWPOLYLINE
  5
17A
100
AcDbEntity
  8
template
370
               5
390
0
  6
Continuous
 62
               7
100
AcDbPolyline
 90
        5
 70
             128
 10
975.00000000024124
 20
1405.9972926412993
 10
-974.9999999997591
 20
1405.9972926412993
 10
-974.9999999997591
 20
-1394.0027073587007
 10
975.00000000024124
 20
-1394.0027073587007
 10
975.00000000024124
 20
1405.9972926412993
  0
LINE
  5
17B
100
AcDbEntity
  8
template
370
               5
390
0
  6
Continuous
 62
               7
100
AcDbLine
 10
974.99999999975876
 20
-1139.0027073587007
 30
0.0
 11
-975.00000000024113
 21
-1139.0027073587007
 31
0.0
  0
LINE
  5
17C
100
AcDbEntity
  8
template
370
               5
390
0
  6
Continuous
 62
               7
100
AcDbLine
 10
975.00000000024124
 20
-1309.0027073587007
 30
0.0
 11
222.00000000024124
 21
-1309.0027073587007
 31
0.0
  0
MTEXT
  5
17D
100
AcDbEntity
  8
template
390
0
 62
               7
100
AcDbMText
 10
-974.99999999955583
 20
-1405.8565294155574
 30
0.0
 40
21.717881944444446
 41
0.0
 71
               1
 72
               1
  1
110601SH
  7
ＭＳ ゴシック
 73
               1
 44
0.7828267384257843
  0
MTEXT
  5
17E
100
AcDbEntity
  8
template
390
0
 62
               7
100
AcDbMText
 10
251.87140625250089
 20
-1338.9131018320081
 30
0.0
 40
24.432617187500004
 41
0.0
 71
               1
 72
               1
  1
大洋金物株式会社 ティーフォルム事業部
  7
ＭＳ ゴシック
 73
               1
 44
0.7828267384257843
  0
INSERT
  5
17F
100
AcDbEntity
  8
template
390
0
 62
               7
100
AcDbBlockReference
  2
グループ
 10
592.24019121078925
 20
75.522621213776461
 30
0.0
  0
MTEXT
  5
180
100
AcDbEntity
  8
template
390
0
 62
               7
100
AcDbMText
 10
784.00000000049999
 20
-1261.0000901712006
 30
0.0
 40
24.432617187500004
 41
0.0
 71
               1
 72
               1
  1
1:10
  7
ＭＳ ゴシック
 73
               1
 44
0.7828267384257843
  0
MTEXT
  5
181
100
AcDbEntity
  8
template
390
0
 62
               7
100
AcDbMText
 10
731.00000000049999
 20
-1232.4176292337006
 30
0.0
 40
16.288411458333332
 41
0.0
 71
               1
 72
               1
  1
縮尺
  7
ＭＳ ゴシック
 73
               1
 44
0.7828267384257843
  0
LINE
  5
182
100
AcDbEntity
  8
template
370
               5
390
0
  6
Continuous
 62
               7
100
AcDbLine
 10
724.00000000049999
 20
-1309.0027073587007
 30
0.0
 11
724.00000000049999
 21
-1224.0027073587007
 31
0.0
  0
MTEXT
  5
183
100
AcDbEntity
  8
template
390
0
 62
               7
100
AcDbMText
 10
480.00000000049999
 20
-1232.4176292337006
 30
0.0
 40
16.288411458333332
 41
0.0
 71
               1
 72
               1
  1
容量
  7
ＭＳ ゴシック
 73
               1
 44
0.7828267384257843
  0
MTEXT
  5
184
100
AcDbEntity
  8
template
390
0
 62
               7
100
AcDbMText
 10
533.00000000049999
 20
-1261.0000901712006
 30
0.0
 40
24.432617187500004
 41
0.0
 71
               1
 72
               1
  1
12.8L
  7
ＭＳ ゴシック
 73
               1
 44
0.7828267384257843
  0
LINE
  5
185
100
AcDbEntity
  8
template
370
               5
390
0
  6
Continuous
 62
               7
100
AcDbLine
 10
473.00000000049999
 20
-1309.0027073587007
 30
0.0
 11
473.00000000049999
 21
-1224.0027073587007
 31
0.0
  0
MTEXT
  5
186
100
AcDbEntity
  8
template
390
0
 62
               7
100
AcDbMText
 10
229.00000000049999
 20
-1147.4176292337006
 30
0.0
 40
16.288411458333332
 41
0.0
 71
               1
 72
               1
  1
品番
  7
ＭＳ ゴシック
 73
               1
 44
0.7828267384257843
  0
MTEXT
  5
187
100
AcDbEntity
  8
template
390
0
 62
               7
100
AcDbMText
 10
229.00000000049999
 20
-1232.4176292337006
 30
0.0
 40
16.288411458333332
 41
0.0
 71
               1
 72
               1
  1
重量
  7
ＭＳ ゴシック
 73
               1
 44
0.7828267384257843
  0
MTEXT
  5
188
100
AcDbEntity
  8
template
390
0
 62
               7
100
AcDbMText
 10
282.00000000049999
 20
-1176.0000901712006
 30
0.0
 40
24.432617187500004
 41
0.0
 71
               1
 72
               1
  1
ADF70-0607
  7
ＭＳ ゴシック
 73
               1
 44
0.7828267384257843
  0
MTEXT
  5
189
100
AcDbEntity
  8
template
390
0
 62
               7
100
AcDbMText
 10
282.00000000049999
 20
-1261.0000901712006
 30
0.0
 40
24.432617187500004
 41
0.0
 71
               1
 72
               1
  1
20kg
  7
ＭＳ ゴシック
 73
               1
 44
0.7828267384257843
  0
LINE
  5
18A
100
AcDbEntity
  8
template
370
               5
390
0
  6
Continuous
 62
               7
100
AcDbLine
 10
222.00000000049999
 20
-1394.0027073587007
 30
0.0
 11
222.00000000049999
 21
-1139.0027073587007
 31
0.0
  0
MTEXT
  5
18B
100
AcDbEntity
  8
template
390
0
 62
               7
100
AcDbMText
 10
-914.9999999997591
 20
-1261.0000901712001
 30
0.0
 40
24.432617187500004
 41
0.0
 71
               1
 72
               1
  1
カウンター置き,半埋め込み/オーバーフローなし/陶器,背面釉薬あり/\Pホワイト
  7
ＭＳ ゴシック
 73
               1
 44
1.3047112307096407
  0
MTEXT
  5
18C
100
AcDbEntity
  8
notes
390
0
 62
               7
100
AcDbMText
 10
-773.51998384570163
 20
270.33595052083331
 30
0.0
 40
24.432617187500004
 41
831.97360014212734
 71
               1
 72
               1
  1
＝φ30もしくはφ35の水栓取付用穴あけ加工を承ります。\P  必要な場合、ご注文の際にご指示ください。
  7
ＭＳ ゴシック
 73
               1
 44
1.0437689845677123
  0
MTEXT
  5
18D
100
AcDbEntity
  8
notes
390
0
 62
               7
100
AcDbMText
 10
-838.31584014051271
 20
-694.98840852819274
 30
0.0
 40
24.432617187500004
 41
0.0
 71
               1
 72
               1
  1
カウンター置き
  7
ＭＳ ゴシック
 73
               1
 44
0.7828267384257843
  0
LINE
  5
18E
100
AcDbEntity
  8
notes
370
               5
390
0
  6
Continuous
 62
               7
100
AcDbLine
 10
-745.05428004995326
 20
-508.57239069298078
 30
0.0
 11
-851.75428004995354
 21
-508.57239069298078
 31
0.0
  0
LINE
  5
18F
100
AcDbEntity
  8
notes
370
               5
390
0
  6
Continuous
 62
               7
100
AcDbLine
 10
-826.75428004995354
 20
-508.57239069298078
 30
0.0
 11
-826.75428004995354
 21
-687.99935217908035
 31
0.0
  0
CIRCLE
  5
190
100
AcDbEntity
  8
notes
370
              15
390
0
  6
STYLE_12
 62
               7
100
AcDbCircle
 10
-801.14188252685528
 20
255.25591137365592
 30
0.0
 40
17.5
  0
DIMENSION
  5
191
100
AcDbEntity
  8
notes
370
               5
390
0
  6
Continuous
 62
               7
100
AcDbDimension
  2
*D3
 10
-778.02884411335083
 20
-263.57239069298083
 30
0.0
 11
-725.52896795430217
 21
-263.57239069298083
 31
0.0
 71
               5
 72
               1
 41
1.0
 42
0.0
  3
tform線あり
100
AcDbAlignedDimension
 13
-673.02909179525352
 23
-368.57239069298083
 33
0.0
 14
-778.02884411335083
 24
-368.57239069298083
 34
0.0
100
AcDbRotatedDimension
1001
ACAD
1000
DSTYLE
1002
{
1070
             279
1070
               2
1070
             340
1005
39
1070
             147
1040
5.0
1002
}
  0
DIMENSION
  5
192
100
AcDbEntity
  8
notes
370
               5
390
0
  6
Continuous
 62
               7
100
AcDbDimension
  2
*D4
 10
341.33632837070735
 20
-608.57239069298078
 30
0.0
 11
476.33632837070741
 21
-608.57239069298078
 31
0.0
 71
               5
 72
               1
 41
1.0
 42
0.0
  3
tform線あり
100
AcDbAlignedDimension
 13
611.33632837070741
 23
-508.57239069298043
 33
0.0
 14
341.33632837070735
 24
-508.57239069298043
 34
0.0
100
AcDbRotatedDimension
1001
ACAD
1000
DSTYLE
1002
{
1070
             279
1070
               2
1070
             340
1005
39
1070
             147
1040
5.0
1002
}
  0
DIMENSION
  5
193
100
AcDbEntity
  8
notes
370
               5
390
0
  6
Continuous
 62
               7
100
AcDbDimension
  2
*D5
 10
-725.42951417536881
 20
-658.57239069298066
 30
0.0
 11
-402.92951417536881
 21
-653.57239069298066
 31
0.0
 70
             128
 71
               5
 72
               1
 41
1.0
 42
0.0
  3
tform線あり
100
AcDbAlignedDimension
 13
-80.429514175368809
 23
-508.57239069298066
 33
0.0
 14
-725.42951417536881
 24
-508.57239069298066
 34
0.0
100
AcDbRotatedDimension
1001
ACAD
1000
DSTYLE
1002
{
1070
             279
1070
               2
1070
             340
1005
39
1070
             147
1040
5.0
1002
}
  0
LINE
  5
194
100
AcDbEntity
  8
notes
370
               5
390
0
  6
Continuous
 62
               7
100
AcDbLine
 10
-795.32884411335056
 20
-458.57239069298089
 30
0.0
 11
-902.02884411335083
 21
-458.57239069298089
 31
0.0
  0
LINE
  5
195
100
AcDbEntity
  8
notes
370
               5
390
0
  6
Continuous
 62
               7
100
AcDbLine
 10
-877.02884411335083
 20
-458.57239069298089
 30
0.0
 11
-877.02884411335083
 21
-734.99935217908035
 31
0.0
  0
MTEXT
  5
196
100
AcDbEntity
  8
notes
390
0
 62
               7
100
AcDbMText
 10
-893.51346597860868
 20
-740.8717349915803
 30
0.0
 40
24.432617187500004
 41
0.0
 71
               1
 72
               1
  1
半埋め込み
  7
ＭＳ ゴシック
 73
               1
 44
0.7828267384257843
  0
DIMENSION
  5
197
100
AcDbEntity
  8
notes
370
               5
390
0
  6
Continuous
 62
               7
100
AcDbDimension
  2
*D6
 10
-778.02884411335083
 20
382.3498071905716
 30
0.0
 11
-700.52884411335083
 21
382.3498071905716
 31
0.0
 71
               5
 72
               1
 41
1.0
 42
0.0
  3
tform線あり
100
AcDbAlignedDimension
 13
-623.02884411335083
 23
482.34980719057171
 33
0.0
 14
-778.02884411335083
 24
487.34980719057171
 34
0.0
100
AcDbRotatedDimension
1001
ACAD
1000
DSTYLE
1002
{
1070
             279
1070
               2
1070
             340
1005
39
1070
             147
1040
5.0
1002
}
  0
DIMENSION
  5
198
100
AcDbEntity
  8
notes
370
               5
390
0
  6
Continuous
 62
               7
100
AcDbDimension
  2
*D7
 10
-623.02884411335083
 20
382.3498071905716
 30
0.0
 11
-338.02884411335071
 21
382.3498071905716
 31
0.0
 71
               5
 72
               1
 41
1.0
 42
0.0
  3
tform線あり
100
AcDbAlignedDimension
 13
-53.028844113350601
 23
482.34980719057171
 33
0.0
 14
-623.02884411335083
 24
482.34980719057171
 34
0.0
100
AcDbRotatedDimension
1001
ACAD
1000
DSTYLE
1002
{
1070
             279
1070
               2
1070
             340
1005
39
1070
             147
1040
5.0
1002
}
  0
DIMENSION
  5
199
100
AcDbEntity
  8
notes
370
               5
390
0
  6
Continuous
 62
               7
100
AcDbDimension
  2
*D8
 10
501.37090820474657
 20
-478.57239069298043
 30
0.0
 11
506.37090820474657
 21
-339.99935217908035
 31
0.0
 70
             128
 71
               5
 72
               1
 41
1.0
 42
0.0
  3
tform線あり
100
AcDbAlignedDimension
 13
411.37090820474657
 23
-363.57239069298072
 33
0.0
 14
477.76618916155337
 24
-478.57239069298043
 34
0.0
 50
90.0
100
AcDbRotatedDimension
1001
ACAD
1000
DSTYLE
1002
{
1070
             279
1070
               2
1070
             340
1005
39
1070
               3
1000
<>(深さ)
1070
             174
1070
               0
1070
             147
1040
5.0
1002
}
  0
DIMENSION
  5
19A
100
AcDbEntity
  8
notes
370
               5
390
0
  6
Continuous
 62
               7
100
AcDbDimension
  2
*D9
 10
-778.02884411335037
 20
952.34980719057251
 30
0.0
 11
-403.02884411335049
 21
952.34980719057251
 31
0.0
 71
               5
 72
               1
 41
1.0
 42
0.0
  3
tform線あり
100
AcDbAlignedDimension
 13
-28.028844113350601
 23
847.34980719057228
 33
0.0
 14
-778.02884411335037
 24
847.34980719057171
 34
0.0
100
AcDbRotatedDimension
1001
ACAD
1000
DSTYLE
1002
{
1070
             279
1070
               2
1070
             340
1005
39
1070
             147
1040
5.0
1002
}
  0
DIMENSION
  5
19B
100
AcDbEntity
  8
notes
370
               5
390
0
  6
Continuous
 62
               7
100
AcDbDimension
  2
*D10
 10
-868.0288441133506
 20
852.34980719057171
 30
0.0
 11
-873.0288441133506
 21
644.50371028230177
 31
0.0
 70
             128
 71
               5
 72
               1
 41
1.0
 42
0.0
  3
tform線あり
100
AcDbAlignedDimension
 13
-773.02884411335083
 23
482.34980719057171
 33
0.0
 14
-773.02884411335037
 24
852.34980719057171
 34
0.0
 50
90.0
100
AcDbRotatedDimension
1001
ACAD
1000
DSTYLE
1002
{
1070
             279
1070
               2
1070
             340
1005
39
1070
             147
1040
5.0
1002
}
  0
DIMENSION
  5
19C
100
AcDbEntity
  8
notes
370
               5
390
0
  6
Continuous
 62
               7
100
AcDbDimension
  2
*D11
 10
71.971155886649512
 20
827.34980719057182
 30
0.0
 11
71.971155886649512
 21
667.34980719057182
 31
0.0
 71
               5
 72
               1
 41
1.0
 42
0.0
  3
tform線あり
100
AcDbAlignedDimension
 13
-58.028844113350601
 23
507.34980719057171
 33
0.0
 14
-58.028844113350601
 24
827.34980719057182
 34
0.0
 50
90.0
100
AcDbRotatedDimension
1001
ACAD
1000
DSTYLE
1002
{
1070
             279
1070
               2
1070
             340
1005
39
1070
             147
1040
5.0
1002
}
  0
DIMENSION
  5
19D
100
AcDbEntity
  8
notes
370
               5
390
0
  6
Continuous
 62
               7
100
AcDbDimension
  2
*D12
 10
-778.02884411335083
 20
-608.57239069298078
 30
0.0
 11
-558.04307147459224
 21
-603.57239069298078
 31
0.0
 70
             128
 71
               5
 72
               1
 41
1.0
 42
0.0
  3
tform線あり
100
AcDbAlignedDimension
 13
-338.05729883583365
 23
-503.57239069298089
 33
0.0
 14
-778.02884411335083
 24
-453.57239069298089
 34
0.0
100
AcDbRotatedDimension
1001
ACAD
1000
DSTYLE
1002
{
1070
             279
1070
               2
1070
             340
1005
39
1070
             147
1040
5.0
1002
}
  0
DIMENSION
  5
19E
100
AcDbEntity
  8
notes
370
               5
390
0
  6
Continuous
 62
               7
100
AcDbDimension
  2
*D13
 10
71.971155886649512
 20
-363.57239069298078
 30
0.0
 11
71.971155886649512
 21
-438.57239069298078
 31
0.0
 71
               5
 72
               1
 41
1.0
 42
0.0
  3
tform線あり
100
AcDbAlignedDimension
 13
-79.92677324487795
 23
-513.57239069298089
 33
0.0
 14
-33.028844113350715
 24
-363.57239069298078
 34
0.0
 50
90.0
100
AcDbRotatedDimension
1001
ACAD
1000
DSTYLE
1002
{
1070
             279
1070
               2
1070
             340
1005
39
1070
             147
1040
5.0
1002
}
  0
DIMENSION
  5
19F
100
AcDbEntity
  8
notes
370
               5
390
0
  6
Continuous
 62
               7
100
AcDbDimension
  2
*D14
 10
761.32946664071767
 20
-363.57239069298078
 30
0.0
 11
761.32946664071767
 21
-411.07239069298072
 31
0.0
 71
               5
 72
               1
 41
1.0
 42
0.0
  3
tform線あり
100
AcDbAlignedDimension
 13
656.32946664071756
 23
-458.57239069298066
 33
0.0
 14
656.32946664071756
 24
-363.57239069298078
 34
0.0
 50
90.0
100
AcDbRotatedDimension
1001
ACAD
1000
DSTYLE
1002
{
1070
             279
1070
               2
1070
             340
1005
39
1070
             147
1040
5.0
1002
}
  0
DIMENSION
  5
1A0
100
AcDbEntity
  8
notes
370
               5
390
0
  6
Continuous
 62
               7
100
AcDbDimension
  2
*D15
 10
761.32946664071767
 20
-458.57239069298066
 30
0.0
 11
766.32946664071767
 21
-518.57239069298066
 31
0.0
 70
             128
 71
               5
 72
               1
 41
1.0
 42
0.0
  3
tform線あり
100
AcDbAlignedDimension
 13
606.32390055256155
 23
-513.57239069298043
 33
0.0
 14
656.32946664071756
 24
-458.57239069298066
 34
0.0
 50
90.0
100
AcDbRotatedDimension
1001
ACAD
1000
DSTYLE
1002
{
1070
             279
1070
               2
1070
             340
1005
39
1070
             174
1070
               0
1070
             147
1040
5.0
1002
}
  0
DIMENSION
  5
1A1
100
AcDbEntity
  8
notes
370
               5
390
0
  6
Continuous
 62
               7
100
AcDbDimension
  2
*D16
 10
-818.02884411335083
 20
667.35045501149136
 30
0.0
 11
-823.02884411335083
 21
759.85013110103148
 31
0.0
 70
             128
 71
               5
 72
               1
 41
1.0
 42
0.0
  3
tform線あり
100
AcDbAlignedDimension
 13
-778.02884411335037
 23
852.34980719057171
 33
0.0
 14
-694.65793590860414
 24
667.35045501149136
 34
0.0
 50
90.0
100
AcDbRotatedDimension
1001
ACAD
1000
DSTYLE
1002
{
1070
             279
1070
               2
1070
             340
1005
39
1070
             147
1040
5.0
1002
}
  0
DIMENSION
  5
1A2
100
AcDbEntity
  8
notes
370
               5
390
0
  6
Continuous
 62
               7
100
AcDbDimension
  2
*D17
 10
907.37090820474657
 20
817.34980719057239
 30
0.0
 11
907.37090820474657
 21
667.34980719057239
 31
0.0
 71
               5
 72
               1
 41
1.0
 42
0.0
  3
tform線あり
100
AcDbAlignedDimension
 13
836.97090820474648
 23
517.34980719057239
 33
0.0
 14
836.97090820474648
 24
817.34980719057239
 34
0.0
 50
90.0
100
AcDbRotatedDimension
1001
ACAD
1000
DSTYLE
1002
{
1070
             279
1070
               2
1070
             340
1005
39
1070
             147
1040
5.0
1002
}
  0
DIMENSION
  5
1A3
100
AcDbEntity
  8
notes
370
               5
390
0
  6
Continuous
 62
               7
100
AcDbDimension
  2
*D18
 10
836.97090820474648
 20
414.00064782091965
 30
0.0
 11
496.97090820474648
 21
414.00064782091965
 31
0.0
 71
               5
 72
               1
 41
1.0
 42
0.0
  3
tform線あり
100
AcDbAlignedDimension
 13
156.97090820474648
 23
517.34980719057239
 33
0.0
 14
836.97090820474648
 24
517.34980719057239
 34
0.0
100
AcDbRotatedDimension
1001
ACAD
1000
DSTYLE
1002
{
1070
             279
1070
               2
1070
             340
1005
39
1070
             147
1040
5.0
1002
}
  0
DIMENSION
  5
1A4
100
AcDbEntity
  8
notes
370
               5
390
0
  6
Continuous
 62
               7
100
AcDbDimension
  2
*D19
 10
156.97090820474648
 20
413.62564782091965
 30
0.0
 11
109.21009252419196
 21
418.62564782091965
 31
0.0
 70
             128
 71
               5
 72
               1
 41
1.0
 42
0.0
  3
tform線あり
100
AcDbAlignedDimension
 13
121.97115588664929
 23
517.34980719057239
 33
0.0
 14
156.97090820474648
 24
517.34980719057239
 34
0.0
100
AcDbRotatedDimension
1001
ACAD
1000
DSTYLE
1002
{
1070
             279
1070
               2
1070
             340
1005
39
1070
             174
1070
               0
1070
             147
1040
5.0
1002
}
  0
DIMENSION
  5
1A5
100
AcDbEntity
  8
notes
370
               5
390
0
  6
Continuous
 62
               7
100
AcDbDimension
  2
*D20
 10
907.37090820474657
 20
817.34980719057239
 30
0.0
 11
912.37090820474657
 21
874.00064782091965
 31
0.0
 70
             128
 71
               5
 72
               1
 41
1.0
 42
0.0
  3
tform線あり
100
AcDbAlignedDimension
 13
836.97090820474648
 23
852.34980719057239
 33
0.0
 14
836.97090820474648
 24
817.34980719057239
 34
0.0
 50
90.0
100
AcDbRotatedDimension
1001
ACAD
1000
DSTYLE
1002
{
1070
             279
1070
               2
1070
             340
1005
39
1070
             174
1070
               0
1070
             147
1040
5.0
1002
}
  0
DIMENSION
  5
1A6
100
AcDbEntity
  8
notes
370
               5
390
0
  6
Continuous
 62
               7
100
AcDbDimension
  2
*D21
 10
181.97115588664929
 20
537.30064782091961
 30
0.0
 11
396.97115588664929
 21
537.30064782091961
 31
0.0
 71
               5
 72
               1
 41
1.0
 42
0.0
  3
tform線あり
100
AcDbAlignedDimension
 13
611.97115588664929
 23
617.30064782091961
 33
0.0
 14
181.97115588664929
 24
617.30064782091961
 34
0.0
100
AcDbRotatedDimension
1001
ACAD
1000
DSTYLE
1002
{
1070
             279
1070
               2
1070
             340
1005
39
1070
             147
1040
5.0
1002
}
  0
DIMENSION
  5
1A7
100
AcDbEntity
  8
notes
370
               5
390
0
  6
Continuous
 62
               7
100
AcDbDimension
  2
*D22
 10
711.97115588664929
 20
617.30064782091961
 30
0.0
 11
711.97115588664929
 21
667.30064782091961
 31
0.0
 71
               5
 72
               1
 41
1.0
 42
0.0
  3
tform線あり
100
AcDbAlignedDimension
 13
611.97115588664929
 23
717.30064782091961
 33
0.0
 14
611.97115588664929
 24
617.30064782091961
 34
0.0
 50
90.0
100
AcDbRotatedDimension
1001
ACAD
1000
DSTYLE
1002
{
1070
             279
1070
               2
1070
             340
1005
39
1070
             147
1040
5.0
1002
}
  0
DIMENSION
  5
1A8
100
AcDbEntity
  8
notes
370
               5
390
0
  6
Continuous
 62
               7
100
AcDbDimension
  2
*D23
 10
181.97115588664929
 20
537.17564782091961
 30
0.0
 11
115.37090820474657
 21
542.17564782091961
 31
0.0
 70
             128
 71
               5
 72
               1
 41
1.0
 42
0.0
  3
tform線あり
100
AcDbAlignedDimension
 13
121.97115588664929
 23
617.30064782091961
 33
0.0
 14
181.97115588664929
 24
617.30064782091961
 34
0.0
100
AcDbRotatedDimension
1001
ACAD
1000
DSTYLE
1002
{
1070
             279
1070
               2
1070
             340
1005
39
1070
             174
1070
               0
1070
             147
1040
5.0
1002
}
  0
MTEXT
  5
1A9
100
AcDbEntity
  8
notes
390
0
 62
               7
100
AcDbMText
 10
357.30759780729647
 20
1053.8782650084197
 30
0.0
 40
24.432617187500004
 41
0.0
 71
               1
 72
               1
  1
カウンター切込寸法
  7
ＭＳ ゴシック
 73
               1
 44
0.7828267384257843
  0
MTEXT
  5
1AA
100
AcDbEntity
  8
notes
390
0
 62
               7
100
AcDbMText
 10
156.48414425013721
 20
976.36541531244961
 30
0.0
 40
24.432617187500004
 41
0.0
 71
               1
 72
               1
  1
半埋め込み
  7
ＭＳ ゴシック
 73
               1
 44
0.7828267384257843
  0
MTEXT
  5
1AB
100
AcDbEntity
  8
notes
390
0
 62
               7
100
AcDbMText
 10
186.83684861940901
 20
911.36541531244961
 30
0.0
 40
24.432617187500004
 41
0.0
 71
               1
 72
               1
  1
カウンター置き
  7
ＭＳ ゴシック
 73
               1
 44
0.7828267384257843
  0
LINE
  5
1AC
100
AcDbEntity
  8
notes
370
               5
390
0
  6
Continuous
 62
               7
100
AcDbLine
 10
171.61225601282536
 20
817.34980719057239
 30
0.0
 11
171.61225601282536
 21
938.93913765201216
 31
0.0
  0
LINE
  5
1AD
100
AcDbEntity
  8
notes
370
               5
390
0
  6
Continuous
 62
               7
100
AcDbLine
 10
197.06886647235933
 20
717.30064782091961
 30
0.0
 11
197.06886647235933
 21
876.93913765201216
 31
0.0
  0
MTEXT
  5
1AE
100
AcDbEntity
  8
notes
390
0
 62
               7
100
AcDbMText
 10
113.53000180134552
 20
270.33595052083331
 30
0.0
 40
24.432617187500004
 41
776.43003979881837
 71
               1
 72
               1
  1
※陶器製品には寸法公差があります。\P  洗面器の収め方をご確認の上、必ず現物を合わせて\P  カウンターに切込を行ってください。
  7
ＭＳ ゴシック
 73
               1
 44
1.0437689845677123
  0
MTEXT
  5
1AF
100
AcDbEntity
  8
notes
390
0
 62
               7
100
AcDbMText
 10
113.53000180134552
 20
121.6328538254277
 30
0.0
 40
24.432617187500004
 41
0.0
 71
               1
 72
               1
  1
※別売品のブラケットで壁掛け・アンダーカウンター\P  設置することができます\P　壁付用ブラケット:ADF75-0630\P　アンダーカウンタ ー用ブラケット:ADF75-0650
  7
ＭＳ ゴシック
 73
               1
 44
1.1742401076386764
  0
LINE
  5
1B0
100
AcDbEntity
  8
ADF70-0607
370
              15
390
0
  6
Continuous
 62
               7
100
AcDbLine
 10
661.32946664071756
 20
-368.57239069298072
 30
0.0
 11
661.32946664071756
 21
-453.57239069298066
 31
0.0
  0
LINE
  5
1B1
100
AcDbEntity
  8
ADF70-0607
370
              15
390
0
  6
Continuous
 62
               7
100
AcDbLine
 10
656.32946664071756
 20
-458.57239069298066
 30
0.0
 11
296.32946664071784
 21
-458.57239069298021
 31
0.0
  0
LINE
  5
1B2
100
AcDbEntity
  8
ADF70-0607
370
              15
390
0
  6
Continuous
 62
               7
100
AcDbLine
 10
291.32946664071784
 20
-453.57239069298021
 30
0.0
 11
291.32946664071784
 21
-368.57239069298072
 31
0.0
  0
LINE
  5
1B3
100
AcDbEntity
  8
ADF70-0607
370
              15
390
0
  6
STYLE_12
 62
               7
100
AcDbLine
 10
317.94149725025926
 20
-366.07239069298026
 30
0.0
 11
371.62057458363512
 21
-459.04727993780671
 31
0.0
  0
LINE
  5
1B4
100
AcDbEntity
  8
ADF70-0607
370
              15
390
0
  6
STYLE_12
 62
               7
100
AcDbLine
 10
634.71873167300987
 20
-366.07239069298049
 30
0.0
 11
581.03965433963344
 21
-459.04727993780716
 31
0.0
  0
LINE
  5
1B5
100
AcDbEntity
  8
ADF70-0607
370
              15
390
0
  6
STYLE_12
 62
               7
100
AcDbLine
 10
453.83011446163454
 20
-492.57239069298043
 30
0.0
 11
453.83011446163454
 21
-503.57239069298066
 31
0.0
  0
LINE
  5
1B6
100
AcDbEntity
  8
ADF70-0607
370
              15
390
0
  6
STYLE_12
 62
               7
100
AcDbLine
 10
498.83011446163437
 20
-492.57239069298043
 30
0.0
 11
498.83011446163437
 21
-503.57239069298066
 31
0.0
  0
LINE
  5
1B7
100
AcDbEntity
  8
ADF70-0607
370
              15
390
0
  6
STYLE_12
 62
               7
100
AcDbLine
 10
476.33011446163454
 20
-492.57239069298043
 30
0.0
 11
453.83011446163454
 21
-492.57239069298043
 31
0.0
  0
LINE
  5
1B8
100
AcDbEntity
  8
ADF70-0607
370
              15
390
0
  6
STYLE_12
 62
               7
100
AcDbLine
 10
515.33011446163437
 20
-478.57239069298043
 30
0.0
 11
437.33011446163442
 21
-478.57239069298043
 31
0.0
  0
LINE
  5
1B9
100
AcDbEntity
  8
ADF70-0607
370
              15
390
0
  6
STYLE_12
 62
               7
100
AcDbLine
 10
453.83011446163454
 20
-492.57239069298043
 30
0.0
 11
437.33011446163454
 21
-478.57239069298043
 31
0.0
  0
LINE
  5
1BA
100
AcDbEntity
  8
ADF70-0607
370
              15
390
0
  6
STYLE_12
 62
               7
100
AcDbLine
 10
498.83011446163437
 20
-492.57239069298043
 30
0.0
 11
515.33011446163482
 21
-478.57239069298043
 31
0.0
  0
LINE
  5
1BB
100
AcDbEntity
  8
ADF70-0607
370
              15
390
0
  6
STYLE_12
 62
               7
100
AcDbLine
 10
476.33011446163454
 20
-492.57239069298043
 30
0.0
 11
498.83011446163437
 21
-492.57239069298043
 31
0.0
  0
LINE
  5
1BC
100
AcDbEntity
  8
ADF70-0607
370
              15
390
0
  6
STYLE_12
 62
               7
100
AcDbLine
 10
437.33011446163454
 20
-478.57239069298021
 30
0.0
 11
389.49365178280021
 21
-471.26023314754184
 31
0.0
  0
LINE
  5
1BD
100
AcDbEntity
  8
ADF70-0607
370
              15
390
0
  6
STYLE_12
 62
               7
100
AcDbLine
 10
515.33011446163437
 20
-478.57239069298089
 30
0.0
 11
563.16657714046846
 21
-471.26023314754229
 31
0.0
  0
LINE
  5
1BE
100
AcDbEntity
  8
ADF70-0607
370
              15
390
0
  6
Continuous
 62
               7
100
AcDbLine
 10
338.97111657298097
 20
-458.57239069298066
 30
0.0
 11
341.34318069693455
 21
-508.83407047419519
 31
0.0
  0
LINE
  5
1BF
100
AcDbEntity
  8
ADF70-0607
370
              15
390
0
  6
Continuous
 62
               7
100
AcDbLine
 10
476.33011446163454
 20
-513.57239069298066
 30
0.0
 11
346.33632837070735
 21
-513.57239069298043
 31
0.0
  0
LINE
  5
1C0
100
AcDbEntity
  8
ADF70-0607
370
              15
390
0
  6
STYLE_12
 62
               7
100
AcDbLine
 10
498.83011446163437
 20
-503.57239069298066
 30
0.0
 11
454.0
 21
-503.57239069298066
 31
0.0
  0
ARC
  5
1C1
100
AcDbEntity
  8
ADF70-0607
370
              15
390
0
  6
Continuous
 62
               7
100
AcDbCircle
 10
656.32946664071756
 20
-453.57239069298066
 30
0.0
 40
5.0
100
AcDbArc
 50
270.0
 51
0.0
  0
LINE
  5
1C2
100
AcDbEntity
  8
ADF70-0607
370
              15
390
0
  6
Continuous
 62
               7
100
AcDbLine
 10
639.04885869193208
 20
-363.57239069298072
 30
0.0
 11
313.61137023133705
 21
-363.57239069298072
 31
0.0
  0
LINE
  5
1C3
100
AcDbEntity
  8
ADF70-0607
370
              15
390
0
  6
Continuous
 62
               7
100
AcDbLine
 10
639.04885869193208
 20
-363.57239069298049
 30
0.0
 11
656.32946664071756
 21
-363.57239069298072
 31
0.0
  0
ARC
  5
1C4
100
AcDbEntity
  8
ADF70-0607
370
              15
390
0
  6
STYLE_12
 62
               7
100
AcDbCircle
 10
639.04885869193208
 20
-368.57239069298055
 30
0.0
 40
5.0
100
AcDbArc
 50
90.0
 51
150.00000000000011
  0
ARC
  5
1C5
100
AcDbEntity
  8
ADF70-0607
370
              15
390
0
  6
Continuous
 62
               7
100
AcDbCircle
 10
656.32946664071756
 20
-368.57239069298078
 30
0.0
 40
5.0
100
AcDbArc
 50
0.0
 51
90.0
  0
LINE
  5
1C6
100
AcDbEntity
  8
ADF70-0607
370
              15
390
0
  6
Continuous
 62
               7
100
AcDbLine
 10
313.61137023133705
 20
-363.57239069298026
 30
0.0
 11
296.32946664071784
 21
-363.57239069298072
 31
0.0
  0
ARC
  5
1C7
100
AcDbEntity
  8
ADF70-0607
370
              15
390
0
  6
STYLE_12
 62
               7
100
AcDbCircle
 10
313.61137023133705
 20
-368.57239069298026
 30
0.0
 40
5.000000000000016
100
AcDbArc
 50
29.99999999999989
 51
90.0
  0
ARC
  5
1C8
100
AcDbEntity
  8
ADF70-0607
370
              15
390
0
  6
Continuous
 62
               7
100
AcDbCircle
 10
296.32946664071784
 20
-368.57239069298072
 30
0.0
 40
5.0
100
AcDbArc
 50
90.000000000001307
 51
180.0
  0
ARC
  5
1C9
100
AcDbEntity
  8
ADF70-0607
370
              15
390
0
  6
Continuous
 62
               7
100
AcDbCircle
 10
346.33632837070735
 20
-508.57239069298043
 30
0.0
 40
4.9999999999999289
100
AcDbArc
 50
183.00000000000043
 51
270.0
  0
ARC
  5
1CA
100
AcDbEntity
  8
ADF70-0607
370
              15
390
0
  6
Continuous
 62
               7
100
AcDbCircle
 10
296.32946664071784
 20
-453.57239069298021
 30
0.0
 40
5.0
100
AcDbArc
 50
180.0
 51
270.0
  0
LINE
  5
1CB
100
AcDbEntity
  8
ADF70-0607
370
              15
390
0
  6
Continuous
 62
               7
100
AcDbLine
 10
613.68911235028804
 20
-458.57239069298066
 30
0.0
 11
611.31704822633446
 21
-508.83407047419519
 31
0.0
  0
LINE
  5
1CC
100
AcDbEntity
  8
ADF70-0607
370
              15
390
0
  6
Continuous
 62
               7
100
AcDbLine
 10
476.33011446163454
 20
-513.57239069298066
 30
0.0
 11
606.32390055256155
 21
-513.57239069298043
 31
0.0
  0
ARC
  5
1CD
100
AcDbEntity
  8
ADF70-0607
370
              15
390
0
  6
Continuous
 62
               7
100
AcDbCircle
 10
606.32390055256155
 20
-508.57239069298043
 30
0.0
 40
5.0
100
AcDbArc
 50
270.0
 51
356.99999999999972
  0
ARC
  5
1CE
100
AcDbEntity
  8
ADF70-0607
370
              15
390
0
  6
STYLE_12
 62
               7
100
AcDbCircle
 10
393.27120967824618
 20
-446.54727993780671
 30
0.0
 40
24.999999999999986
100
AcDbArc
 50
210.00000000000006
 51
261.30918723280229
  0
ARC
  5
1CF
100
AcDbEntity
  8
ADF70-0607
370
              15
390
0
  6
STYLE_12
 62
               7
100
AcDbCircle
 10
559.38901924502238
 20
-446.54727993780716
 30
0.0
 40
25.000000000000103
100
AcDbArc
 50
278.690812767198
 51
330.00000000000011
  0
ARC
  5
1D0
100
AcDbEntity
  8
ADF70-0607
370
              15
390
0
  6
Continuous
 62
               7
100
AcDbCircle
 10
-338.05729883583354
 20
667.35013110103148
 30
0.0
 40
22.5
100
AcDbArc
 50
270.0
 51
90.0
  0
ARC
  5
1D1
100
AcDbEntity
  8
ADF70-0607
370
              15
390
0
  6
Continuous
 62
               7
100
AcDbCircle
 10
-338.05729883583354
 20
667.35013110103148
 30
0.0
 40
39.0
100
AcDbArc
 50
270.0
 51
90.0
  0
LINE
  5
1D2
100
AcDbEntity
  8
ADF70-0607
370
              15
390
0
  6
Continuous
 62
               7
100
AcDbLine
 10
-133.48917693830037
 20
592.49069244961424
 30
0.0
 11
-133.48917693830037
 21
742.21021757336837
 31
0.0
  0
ARC
  5
1D3
100
AcDbEntity
  8
ADF70-0607
370
              15
390
0
  6
Continuous
 62
               7
100
AcDbCircle
 10
-138.48917693830037
 20
742.21021757336837
 30
0.0
 40
5.0
100
AcDbArc
 50
0.0
 51
90.0
  0
ARC
  5
1D4
100
AcDbEntity
  8
ADF70-0607
370
              15
390
0
  6
Continuous
 62
               7
100
AcDbCircle
 10
-138.48917693830037
 20
592.49069244961424
 30
0.0
 40
5.0
100
AcDbArc
 50
270.0
 51
0.0
  0
ARC
  5
1D5
100
AcDbEntity
  8
ADF70-0607
370
              15
390
0
  6
Continuous
 62
               7
100
AcDbCircle
 10
-338.05729883583354
 20
667.35013110103148
 30
0.0
 40
39.0
100
AcDbArc
 50
90.0
 51
270.0
  0
ARC
  5
1D6
100
AcDbEntity
  8
ADF70-0607
370
              15
390
0
  6
Continuous
 62
               7
100
AcDbCircle
 10
-338.05729883583354
 20
667.35013110103148
 30
0.0
 40
22.5
100
AcDbArc
 50
90.0
 51
270.0
  0
LINE
  5
1D7
100
AcDbEntity
  8
ADF70-0607
370
              15
390
0
  6
Continuous
 62
               7
100
AcDbLine
 10
-537.68233017833256
 20
587.49069244961424
 30
0.0
 11
-138.48917693830037
 21
587.49069244961424
 31
0.0
  0
LINE
  5
1D8
100
AcDbEntity
  8
ADF70-0607
370
              15
390
0
  6
Continuous
 62
               7
100
AcDbLine
 10
-537.56851128840083
 20
747.20892193152918
 30
0.0
 11
-138.48917693830037
 21
747.21021757336837
 31
0.0
  0
ARC
  5
1D9
100
AcDbEntity
  8
ADF70-0607
370
              15
390
0
  6
Continuous
 62
               7
100
AcDbCircle
 10
-58.028844113350601
 20
512.34980719057171
 30
0.0
 40
5.0
100
AcDbArc
 50
270.0
 51
0.0
  0
LINE
  5
1DA
100
AcDbEntity
  8
ADF70-0607
370
              15
390
0
  6
Continuous
 62
               7
100
AcDbLine
 10
-53.028844113350601
 20
512.34980719057171
 30
0.0
 11
-53.028844113350601
 21
822.34980719057182
 31
0.0
  0
ARC
  5
1DB
100
AcDbEntity
  8
ADF70-0607
370
              15
390
0
  6
Continuous
 62
               7
100
AcDbCircle
 10
-58.028844113350601
 20
822.34980719057182
 30
0.0
 40
5.0
100
AcDbArc
 50
0.0
 51
90.0
  0
LINE
  5
1DC
100
AcDbEntity
  8
ADF70-0607
370
              15
390
0
  6
Continuous
 62
               7
100
AcDbLine
 10
-403.0288441133506
 20
482.34980719057171
 30
0.0
 11
-33.028844113350601
 21
482.34980719057125
 31
0.0
  0
LINE
  5
1DD
100
AcDbEntity
  8
ADF70-0607
370
              15
390
0
  6
Continuous
 62
               7
100
AcDbLine
 10
-33.028844113350601
 20
852.34980719057239
 30
0.0
 11
-403.0288441133506
 21
852.34980719057171
 31
0.0
  0
LINE
  5
1DE
100
AcDbEntity
  8
ADF70-0607
370
              15
390
0
  6
Continuous
 62
               7
100
AcDbLine
 10
-403.0288441133506
 20
482.34980719057171
 30
0.0
 11
-773.02884411335083
 21
482.34980719057171
 31
0.0
  0
ARC
  5
1DF
100
AcDbEntity
  8
ADF70-0607
370
              15
390
0
  6
Continuous
 62
               7
100
AcDbCircle
 10
-773.02884411335083
 20
487.34980719057171
 30
0.0
 40
5.0
100
AcDbArc
 50
180.0
 51
270.0
  0
LINE
  5
1E0
100
AcDbEntity
  8
ADF70-0607
370
              15
390
0
  6
Continuous
 62
               7
100
AcDbLine
 10
-778.02884411335083
 20
487.34980719057171
 30
0.0
 11
-778.02884411335037
 21
847.34980719057171
 31
0.0
  0
ARC
  5
1E1
100
AcDbEntity
  8
ADF70-0607
370
              15
390
0
  6
Continuous
 62
               7
100
AcDbCircle
 10
-773.02884411335037
 20
847.34980719057171
 30
0.0
 40
5.0
100
AcDbArc
 50
90.0
 51
180.0
  0
LINE
  5
1E2
100
AcDbEntity
  8
ADF70-0607
370
              15
390
0
  6
Continuous
 62
               7
100
AcDbLine
 10
-773.02884411335037
 20
852.34980719057171
 30
0.0
 11
-403.0288441133506
 21
852.34980719057171
 31
0.0
  0
LINE
  5
1E3
100
AcDbEntity
  8
ADF70-0607
370
              15
390
0
  6
Continuous
 62
               7
100
AcDbLine
 10
-58.028844113350601
 20
507.34980719057171
 30
0.0
 11
-618.02884411335083
 21
507.34980719057171
 31
0.0
  0
LINE
  5
1E4
100
AcDbEntity
  8
ADF70-0607
370
              15
390
0
  6
Continuous
 62
               7
100
AcDbLine
 10
-618.02884411335037
 20
827.34980719057171
 30
0.0
 11
-58.028844113350601
 21
827.34980719057182
 31
0.0
  0
LINE
  5
1E5
100
AcDbEntity
  8
ADF70-0607
370
              15
390
0
  6
Continuous
 62
               7
100
AcDbLine
 10
-623.02884411335083
 20
512.34980719057171
 30
0.0
 11
-623.02884411335037
 21
822.34980719057171
 31
0.0
  0
LINE
  5
1E6
100
AcDbEntity
  8
ADF70-0607
370
              15
390
0
  6
Continuous
 62
               7
100
AcDbLine
 10
-542.56851128840083
 20
592.48939680777494
 30
0.0
 11
-542.56851128840083
 21
742.20892193152918
 31
0.0
  0
ARC
  5
1E7
100
AcDbEntity
  8
ADF70-0607
370
              15
390
0
  6
Continuous
 62
               7
100
AcDbCircle
 10
-537.56851128840083
 20
592.48939680777494
 30
0.0
 40
5.0
100
AcDbArc
 50
180.0
 51
270.0
  0
ARC
  5
1E8
100
AcDbEntity
  8
ADF70-0607
370
              15
390
0
  6
Continuous
 62
               7
100
AcDbCircle
 10
-537.56851128840083
 20
742.20892193152918
 30
0.0
 40
5.0
100
AcDbArc
 50
90.0
 51
180.0
  0
ARC
  5
1E9
100
AcDbEntity
  8
ADF70-0607
370
              15
390
0
  6
Continuous
 62
               7
100
AcDbCircle
 10
-618.02884411335037
 20
822.34980719057171
 30
0.0
 40
5.0
100
AcDbArc
 50
90.0
 51
180.0
  0
ARC
  5
1EA
100
AcDbEntity
  8
ADF70-0607
370
              15
390
0
  6
Continuous
 62
               7
100
AcDbCircle
 10
-618.02884411335083
 20
512.34980719057171
 30
0.0
 40
5.0
100
AcDbArc
 50
180.0
 51
270.0
  0
LINE
  5
1EB
100
AcDbEntity
  8
ADF70-0607
370
              15
390
0
  6
Continuous
 62
               7
100
AcDbLine
 10
-618.02884411335083
 20
512.34980719057171
 30
0.0
 11
-544.64562852693996
 21
585.42704644304706
 31
0.0
  0
LINE
  5
1EC
100
AcDbEntity
  8
ADF70-0607
370
              15
390
0
  6
Continuous
 62
               7
100
AcDbLine
 10
-618.01475121062333
 20
822.34980719057171
 30
0.0
 11
-544.64670004648917
 21
749.27304546729465
 31
0.0
  0
LINE
  5
1ED
100
AcDbEntity
  8
ADF70-0607
370
              15
390
0
  6
Continuous
 62
               7
100
AcDbLine
 10
-58.028844113350374
 20
512.34980719057171
 30
0.0
 11
-131.41205969976124
 21
585.42704644304706
 31
0.0
  0
LINE
  5
1EE
100
AcDbEntity
  8
ADF70-0607
370
              15
390
0
  6
Continuous
 62
               7
100
AcDbLine
 10
-58.042937016078099
 20
822.34980719057182
 30
0.0
 11
-131.4109881802118
 21
749.27304546729454
 31
0.0
  0
CIRCLE
  5
1EF
100
AcDbEntity
  8
ADF70-0607
370
              15
390
0
  6
STYLE_12
 62
               7
100
AcDbCircle
 10
-677.15793590860414
 20
667.35045501149136
 30
0.0
 40
17.5
  0
LINE
  5
1F0
100
AcDbEntity
  8
ADF70-0607
370
              15
390
0
  6
Continuous
 62
               7
100
AcDbLine
 10
-28.028844113350601
 20
487.34980719057125
 30
0.0
 11
-28.028844113350601
 21
847.34980719057228
 31
0.0
  0
ARC
  5
1F1
100
AcDbEntity
  8
ADF70-0607
370
              15
390
0
  6
Continuous
 62
               7
100
AcDbCircle
 10
-33.028844113350601
 20
487.34980719057125
 30
0.0
 40
5.0
100
AcDbArc
 50
270.0
 51
0.0
  0
ARC
  5
1F2
100
AcDbEntity
  8
ADF70-0607
370
              15
390
0
  6
Continuous
 62
               7
100
AcDbCircle
 10
-33.028844113350601
 20
847.34980719057228
 30
0.0
 40
5.0
100
AcDbArc
 50
0.0
 51
90.0
  0
LINE
  5
1F3
100
AcDbEntity
  8
ADF70-0607
370
              15
390
0
  6
STYLE_12
 62
               7
100
AcDbLine
 10
-338.05729883583342
 20
-492.57239069298089
 30
0.0
 11
-360.55729883583342
 21
-492.57239069298089
 31
0.0
  0
LINE
  5
1F4
100
AcDbEntity
  8
ADF70-0607
370
              15
390
0
  6
STYLE_12
 62
               7
100
AcDbLine
 10
-377.05729883583342
 20
-478.57239069298089
 30
0.0
 11
-338.05729883583365
 21
-478.57239069298089
 31
0.0
  0
LINE
  5
1F5
100
AcDbEntity
  8
ADF70-0607
370
              15
390
0
  6
STYLE_12
 62
               7
100
AcDbLine
 10
-360.55729883583342
 20
-492.57239069298089
 30
0.0
 11
-377.05729883583388
 21
-478.57239069298089
 31
0.0
  0
LINE
  5
1F6
100
AcDbEntity
  8
ADF70-0607
370
              15
390
0
  6
STYLE_12
 62
               7
100
AcDbLine
 10
-360.55729883583342
 20
-492.57239069298089
 30
0.0
 11
-360.55729883583342
 21
-503.57239069298089
 31
0.0
  0
LINE
  5
1F7
100
AcDbEntity
  8
ADF70-0607
370
              15
390
0
  6
Continuous
 62
               7
100
AcDbLine
 10
-778.02884411335083
 20
-368.57239069298083
 30
0.0
 11
-778.02884411335083
 21
-453.57239069298089
 31
0.0
  0
LINE
  5
1F8
100
AcDbEntity
  8
ADF70-0607
370
              15
390
0
  6
Continuous
 62
               7
100
AcDbLine
 10
-730.63191112867378
 20
-458.57239069298089
 30
0.0
 11
-728.12817405133285
 21
-511.67706260546674
 31
0.0
  0
LWPOLYLINE
  5
1F9
100
AcDbEntity
  8
ADF70-0607
370
              15
390
0
  6
STYLE_12
 62
               7
100
AcDbPolyline
 90
        5
 70
             128
 10
-377.05729883583342
 20
-478.57239069298089
 10
-548.73822077565603
 20
-469.57497482885015
 42
-0.2539676464749424
 10
-569.08045696419333
 20
-457.10923645998582
 10
-621.64060437394812
 20
-366.07239069298083
 42
0.2679491924311618
 10
-625.97073139287033
 20
-363.57239069298083
 42
0.2679491924311618
  0
LINE
  5
1FA
100
AcDbEntity
  8
ADF70-0607
370
              15
390
0
  6
Continuous
 62
               7
100
AcDbLine
 10
-113.24309929044659
 20
-513.57239069298066
 30
0.0
 11
-726.13091498182359
 21
-513.572390692981
 31
0.0
  0
ARC
  5
1FB
100
AcDbEntity
  8
ADF70-0607
370
              15
390
0
  6
Continuous
 62
               7
100
AcDbCircle
 10
-773.02884411335083
 20
-368.57239069298083
 30
0.0
 40
5.0
100
AcDbArc
 50
90.0
 51
180.0
  0
LINE
  5
1FC
100
AcDbEntity
  8
ADF70-0607
370
              15
390
0
  6
Continuous
 62
               7
100
AcDbLine
 10
-50.002606040774253
 20
-363.57239069298078
 30
0.0
 11
-625.97073139287033
 21
-363.57239069298083
 31
0.0
  0
LINE
  5
1FD
100
AcDbEntity
  8
ADF70-0607
370
              15
390
0
  6
Continuous
 62
               7
100
AcDbLine
 10
-625.97073139287033
 20
-363.57239069298083
 30
0.0
 11
-659.6579359086046
 21
-363.57239069298083
 31
0.0
  0
LINE
  5
1FE
100
AcDbEntity
  8
ADF70-0607
370
              15
390
0
  6
STYLE_12
 62
               7
100
AcDbLine
 10
-360.55729883583342
 20
-503.57239069298089
 30
0.0
 11
-338.05729883583365
 21
-503.57239069298089
 31
0.0
  0
LINE
  5
1FF
100
AcDbEntity
  8
ADF70-0607
370
              15
390
0
  6
Continuous
 62
               7
100
AcDbLine
 10
-690.52909179525352
 20
-363.57239069298083
 30
0.0
 11
-773.02884411335083
 21
-363.57239069298083
 31
0.0
  0
ARC
  5
200
100
AcDbEntity
  8
ADF70-0607
370
              15
390
0
  6
Continuous
 62
               7
100
AcDbCircle
 10
-773.02884411335083
 20
-453.57239069298089
 30
0.0
 40
5.0
100
AcDbArc
 50
180.0
 51
270.0
  0
ARC
  5
201
100
AcDbEntity
  8
ADF70-0607
370
              15
390
0
  6
Continuous
 62
               7
100
AcDbCircle
 10
-726.13091498182359
 20
-511.57239069298089
 30
0.0
 40
2.0000000000001052
100
AcDbArc
 50
182.99999999999892
 51
270.0
  0
LINE
  5
202
100
AcDbEntity
  8
ADF70-0607
370
              15
390
0
  6
STYLE_12
 62
               7
100
AcDbLine
 10
-338.05729883583388
 20
-492.57239069298089
 30
0.0
 11
-315.55729883583388
 21
-492.57239069298089
 31
0.0
  0
LINE
  5
203
100
AcDbEntity
  8
ADF70-0607
370
              15
390
0
  6
STYLE_12
 62
               7
100
AcDbLine
 10
-299.05729883583388
 20
-478.57239069298089
 30
0.0
 11
-338.05729883583365
 21
-478.57239069298089
 31
0.0
  0
LINE
  5
204
100
AcDbEntity
  8
ADF70-0607
370
              15
390
0
  6
STYLE_12
 62
               7
100
AcDbLine
 10
-315.55729883583388
 20
-492.57239069298089
 30
0.0
 11
-299.05729883583342
 21
-478.57239069298089
 31
0.0
  0
LINE
  5
205
100
AcDbEntity
  8
ADF70-0607
370
              15
390
0
  6
STYLE_12
 62
               7
100
AcDbLine
 10
-315.55729883583388
 20
-492.57239069298089
 30
0.0
 11
-315.55729883583388
 21
-503.57239069298089
 31
0.0
  0
LWPOLYLINE
  5
206
100
AcDbEntity
  8
ADF70-0607
370
              15
390
0
  6
STYLE_12
 62
               7
100
AcDbPolyline
 90
        5
 70
             128
 10
-299.05729883583342
 20
-478.57239069298089
 10
-127.23070909325622
 20
-469.56734070279458
 42
0.2539676464749441
 10
-106.88847290471892
 20
-457.10160233393037
 10
-54.332733059696466
 20
-366.07239069298078
 42
-0.2679491924311232
 10
-50.002606040774253
 20
-363.57239069298078
 42
-0.2679491924311232
  0
LINE
  5
207
100
AcDbEntity
  8
ADF70-0607
370
              15
390
0
  6
STYLE_12
 62
               7
100
AcDbLine
 10
-315.55729883583388
 20
-503.57239069298089
 30
0.0
 11
-338.05729883583365
 21
-503.57239069298089
 31
0.0
  0
LINE
  5
208
100
AcDbEntity
  8
ADF70-0607
370
              15
390
0
  6
Continuous
 62
               7
100
AcDbLine
 10
-79.92677324487795
 20
-513.57239069298066
 30
0.0
 11
-113.24309929044659
 21
-513.57239069298066
 31
0.0
  0
LINE
  5
209
100
AcDbEntity
  8
ADF70-0607
370
              15
390
0
  6
Continuous
 62
               7
100
AcDbLine
 10
-33.028844113350715
 20
-458.57239069298089
 30
0.0
 11
-773.02884411335083
 21
-458.57239069298089
 31
0.0
  0
LINE
  5
20A
100
AcDbEntity
  8
ADF70-0607
370
              15
390
0
  6
Continuous
 62
               7
100
AcDbLine
 10
-28.028844113350715
 20
-368.57239069298078
 30
0.0
 11
-28.028844113350715
 21
-453.57239069298089
 31
0.0
  0
LINE
  5
20B
100
AcDbEntity
  8
ADF70-0607
370
              15
390
0
  6
Continuous
 62
               7
100
AcDbLine
 10
-75.425777098027424
 20
-458.57239069298089
 30
0.0
 11
-77.929514175368809
 21
-511.67706260546674
 31
0.0
  0
ARC
  5
20C
100
AcDbEntity
  8
ADF70-0607
370
              15
390
0
  6
Continuous
 62
               7
100
AcDbCircle
 10
-33.028844113350715
 20
-368.57239069298078
 30
0.0
 40
5.0
100
AcDbArc
 50
0.0
 51
90.0
  0
ARC
  5
20D
100
AcDbEntity
  8
ADF70-0607
370
              15
390
0
  6
Continuous
 62
               7
100
AcDbCircle
 10
-33.028844113350715
 20
-453.57239069298089
 30
0.0
 40
5.0
100
AcDbArc
 50
270.0
 51
0.0
  0
ARC
  5
20E
100
AcDbEntity
  8
ADF70-0607
370
              15
390
0
  6
Continuous
 62
               7
100
AcDbCircle
 10
-79.92677324487795
 20
-511.57239069298089
 30
0.0
 40
2.0
100
AcDbArc
 50
270.0
 51
357.00000000000091
  0
LINE
  5
20F
100
AcDbEntity
  8
ADF70-0607
370
              15
390
0
  6
Continuous
 62
               7
100
AcDbLine
 10
-50.002606040774253
 20
-363.57239069298078
 30
0.0
 11
-33.028844113350715
 21
-363.57239069298078
 31
0.0
  0
ARC
  5
210
100
AcDbEntity
  8
ADF70-0607
370
               5
390
0
  6
STYLE_12
 62
               7
100
AcDbCircle
 10
561.94270116416646
 20
667.35013110103148
 30
0.0
 40
22.5
100
AcDbArc
 50
270.0
 51
90.0
  0
ARC
  5
211
100
AcDbEntity
  8
ADF70-0607
370
               5
390
0
  6
STYLE_12
 62
               7
100
AcDbCircle
 10
561.94270116416646
 20
667.35013110103148
 30
0.0
 40
22.5
100
AcDbArc
 50
90.0
 51
270.0
  0
LINE
  5
212
100
AcDbEntity
  8
ADF70-0607
370
               5
390
0
  6
STYLE_12
 62
               7
100
AcDbLine
 10
496.97115588664934
 20
482.34980719057171
 30
0.0
 11
866.9711558866494
 21
482.34980719057125
 31
0.0
  0
LINE
  5
213
100
AcDbEntity
  8
ADF70-0607
370
               5
390
0
  6
STYLE_12
 62
               7
100
AcDbLine
 10
866.9711558866494
 20
852.34980719057239
 30
0.0
 11
496.9711558866494
 21
852.34980719057171
 31
0.0
  0
LINE
  5
214
100
AcDbEntity
  8
ADF70-0607
370
               5
390
0
  6
STYLE_12
 62
               7
100
AcDbLine
 10
496.97115588664946
 20
482.34980719057171
 30
0.0
 11
126.97115588664929
 21
482.34980719057171
 31
0.0
  0
ARC
  5
215
100
AcDbEntity
  8
ADF70-0607
370
               5
390
0
  6
STYLE_12
 62
               7
100
AcDbCircle
 10
126.97115588664929
 20
487.34980719057171
 30
0.0
 40
5.0
100
AcDbArc
 50
180.0
 51
270.0
  0
LINE
  5
216
100
AcDbEntity
  8
ADF70-0607
370
               5
390
0
  6
STYLE_12
 62
               7
100
AcDbLine
 10
121.97115588664929
 20
487.34980719057171
 30
0.0
 11
121.97115588664951
 21
847.34980719057171
 31
0.0
  0
ARC
  5
217
100
AcDbEntity
  8
ADF70-0607
370
               5
390
0
  6
STYLE_12
 62
               7
100
AcDbCircle
 10
126.97115588664951
 20
847.34980719057171
 30
0.0
 40
5.0
100
AcDbArc
 50
90.0
 51
180.0
  0
LINE
  5
218
100
AcDbEntity
  8
ADF70-0607
370
               5
390
0
  6
STYLE_12
 62
               7
100
AcDbLine
 10
126.97115588664951
 20
852.34980719057171
 30
0.0
 11
496.9711558866494
 21
852.34980719057171
 31
0.0
  0
CIRCLE
  5
219
100
AcDbEntity
  8
ADF70-0607
370
               5
390
0
  6
STYLE_12
 62
               7
100
AcDbCircle
 10
222.84206409139597
 20
667.35045501149136
 30
0.0
 40
17.5
  0
LINE
  5
21A
100
AcDbEntity
  8
ADF70-0607
370
               5
390
0
  6
STYLE_12
 62
               7
100
AcDbLine
 10
871.9711558866494
 20
487.34980719057125
 30
0.0
 11
871.9711558866494
 21
847.34980719057228
 31
0.0
  0
ARC
  5
21B
100
AcDbEntity
  8
ADF70-0607
370
               5
390
0
  6
STYLE_12
 62
               7
100
AcDbCircle
 10
866.9711558866494
 20
487.34980719057125
 30
0.0
 40
5.0
100
AcDbArc
 50
270.0
 51
0.0
  0
ARC
  5
21C
100
AcDbEntity
  8
ADF70-0607
370
               5
390
0
  6
STYLE_12
 62
               7
100
AcDbCircle
 10
866.9711558866494
 20
847.34980719057228
 30
0.0
 40
5.0
100
AcDbArc
 50
0.0
 51
90.0
  0
POLYLINE
  5
21D
100
AcDbEntity
  8
ADF70-0607
370
              15
390
0
  6
Continuous
 62
               7
100
AcDb2dPolyline
 66
               1
 10
0.0
 20
0.0
 30
0.0
 70
               1
 75
               5
  0
VERTEX
  5
21E
100
AcDbEntity
  8
ADF70-0607
370
              15
390
0
  6
Continuous
 62
               7
100
AcDbVertex
100
AcDb2dVertex
 10
156.97090820474648
 20
817.34980719057239
 30
0.0
  0
VERTEX
  5
21F
100
AcDbEntity
  8
ADF70-0607
370
              15
390
0
  6
Continuous
 62
               7
100
AcDbVertex
100
AcDb2dVertex
 10
836.97090820474648
 20
817.34980719057239
 30
0.0
  0
VERTEX
  5
220
100
AcDbEntity
  8
ADF70-0607
370
              15
390
0
  6
Continuous
 62
               7
100
AcDbVertex
100
AcDb2dVertex
 10
836.97090820474648
 20
517.34980719057239
 30
0.0
  0
VERTEX
  5
221
100
AcDbEntity
  8
ADF70-0607
370
              15
390
0
  6
Continuous
 62
               7
100
AcDbVertex
100
AcDb2dVertex
 10
156.97090820474648
 20
517.34980719057239
 30
0.0
  0
SEQEND
  5
222
100
AcDbEntity
  8
ADF70-0607
370
              15
390
0
  6
Continuous
 62
               7
  0
POLYLINE
  5
223
100
AcDbEntity
  8
ADF70-0607
370
              15
390
0
  6
Continuous
 62
               7
100
AcDb2dPolyline
 66
               1
 10
0.0
 20
0.0
 30
0.0
 70
               1
 75
               5
  0
VERTEX
  5
224
100
AcDbEntity
  8
ADF70-0607
370
              15
390
0
  6
Continuous
 62
               7
100
AcDbVertex
100
AcDb2dVertex
 10
181.97115588664929
 20
717.30064782091961
 30
0.0
  0
VERTEX
  5
225
100
AcDbEntity
  8
ADF70-0607
370
              15
390
0
  6
Continuous
 62
               7
100
AcDbVertex
100
AcDb2dVertex
 10
611.97115588664929
 20
717.30064782091961
 30
0.0
  0
VERTEX
  5
226
100
AcDbEntity
  8
ADF70-0607
370
              15
390
0
  6
Continuous
 62
               7
100
AcDbVertex
100
AcDb2dVertex
 10
611.97115588664929
 20
617.30064782091961
 30
0.0
  0
VERTEX
  5
227
100
AcDbEntity
  8
ADF70-0607
370
              15
390
0
  6
Continuous
 62
               7
100
AcDbVertex
100
AcDb2dVertex
 10
181.97115588664929
 20
617.30064782091961
 30
0.0
  0
SEQEND
  5
228
100
AcDbEntity
  8
ADF70-0607
370
              15
390
0
  6
Continuous
 62
               7
  0
LINE
  5
229
100
AcDbEntity
  8
ADF70-0607
370
              15
390
0
  6
Continuous
 62
               7
100
AcDbLine
 10
-690.52909179525352
 20
-363.57239069298083
 30
0.0
 11
-655.52909179525352
 21
-363.57239069298083
 31
0.0
  0
LINE
  5
22A
100
AcDbEntity
  8
ADF70-0607
370
              15
390
0
  6
Continuous
 62
               7
100
AcDbLine
 10
-690.52909179525329
 20
-378.57239069298083
 30
0.0
 11
-690.52909179525352
 21
-363.57239069298083
 31
0.0
  0
LINE
  5
22B
100
AcDbEntity
  8
ADF70-0607
370
              15
390
0
  6
Continuous
 62
               7
100
AcDbLine
 10
-655.52909179525329
 20
-378.57239069298083
 30
0.0
 11
-655.52909179525352
 21
-363.57239069298083
 31
0.0
  0
ENDSEC
  0
SECTION
  2
OBJECTS
  0
DICTIONARY
  5
19
100
AcDbDictionary
280
               0
281
               1
  3
ACAD_GROUP
350
1A
  3
ACAD_MLINESTYLE
350
1B
  3
ACAD_LAYOUT
350
1E
  3
ACAD_PLOTSETTINGS
350
22
  3
ACAD_PLOTSTYLENAME
350
1F
  0
DICTIONARY
  5
1A
102
{ACAD_REACTORS
330
19
102
}
100
AcDbDictionary
280
               0
281
               1
  0
DICTIONARY
  5
1B
102
{ACAD_REACTORS
330
19
102
}
100
AcDbDictionary
280
               0
281
               1
  3
Standard
350
1C
  0
MLINESTYLE
  5
1C
102
{ACAD_REACTORS
330
1B
102
}
100
AcDbMlineStyle
  2
Standard
 70
               0
  3

 62
               0
 51
90.0
 52
90.0
 71
               2
 49
0.5
 62
             256
  6
ByLayer
 49
-0.5
 62
             256
  6
ByLayer
  0
ACDBDICTIONARYWDFLT
  5
1F
102
{ACAD_REACTORS
330
19
102
}
100
AcDbDictionary
281
               1
  3
Normal
350
1D
100
AcDbDictionaryWithDefault
340
1D
  0
ACDBPLACEHOLDER
  5
1D
102
{ACAD_REACTORS
330
1F
102
}
  0
LAYOUT
  5
20
102
{ACAD_REACTORS
330
1E
102
}
100
AcDbPlotSettings
  1

  2

  4

  6

 40
0.0
 41
0.0
 42
0.0
 43
0.0
 44
0.0
 45
0.0
 46
0.0
 47
0.0
 48
0.0
 49
0.0
140
0.0
141
0.0
142
1.0
143
1.0
 70
            1024
 72
               0
 73
               0
 74
               0
  7

 75
               0
147
1.0
148
0.0
149
0.0
100
AcDbLayout
  1
Model
 70
               0
 71
               0
 10
0.0
 20
0.0
 11
0.0
 21
0.0
 12
0.0
 22
0.0
 32
0.0
 14
0.0
 24
0.0
 34
0.0
 15
0.0
 25
0.0
 35
0.0
146
0.0
 13
0.0
 23
0.0
 33
0.0
 16
0.0
 26
0.0
 36
0.0
 17
0.0
 27
0.0
 37
0.0
 76
               0
330
A
331
0
345
0
346
0
  0
LAYOUT
  5
21
102
{ACAD_REACTORS
330
1E
102
}
100
AcDbPlotSettings
  1

  2

  4

  6

 40
0.0
 41
0.0
 42
0.0
 43
0.0
 44
0.0
 45
0.0
 46
0.0
 47
0.0
 48
0.0
 49
0.0
140
0.0
141
0.0
142
1.0
143
1.0
 70
               0
 72
               0
 73
               0
 74
               0
  7

 75
               0
147
1.0
148
0.0
149
0.0
100
AcDbLayout
  1
Layout1
 70
               0
 71
               0
 10
0.0
 20
0.0
 11
0.0
 21
0.0
 12
0.0
 22
0.0
 32
0.0
 14
0.0
 24
0.0
 34
0.0
 15
0.0
 25
0.0
 35
0.0
146
0.0
 13
0.0
 23
0.0
 33
0.0
 16
0.0
 26
0.0
 36
0.0
 17
0.0
 27
0.0
 37
0.0
 76
               0
330
B
331
0
345
0
346
0
  0
DICTIONARY
  5
1E
102
{ACAD_REACTORS
330
19
102
}
100
AcDbDictionary
280
               0
281
               1
  3
Layout1
350
21
  3
Model
350
20
  0
DICTIONARY
  5
22
102
{ACAD_REACTORS
330
19
102
}
100
AcDbDictionary
280
               0
281
               1
  0
ENDSEC
  0
EOF
