  0
SECTION
  2
HEADER
  9
$ACADVER
  1
AC1015
  9
$ACADMAINTVER
 70
               6
  9
$DWGCODEPAGE
  3
ANSI_932
  9
$INSBASE
 10
0.0
 20
0.0
 30
0.0
  9
$EXTMIN
 10
-975.00000000024113
 20
-1431.5255224711129
 30
-14.834305555555554
  9
$EXTMAX
 10
975.00000000024124
 20
1405.9972926412995
 30
14.834305555555554
  9
$LIMMIN
 10
0.0
 20
0.0
  9
$LIMMAX
 10
0.0
 20
0.0
  9
$ORTHOMODE
 70
               0
  9
$REGENMODE
 70
               1
  9
$FILLMODE
 70
               1
  9
$QTEXTMODE
 70
               0
  9
$MIRRTEXT
 70
               1
  9
$LTSCALE
 40
50.799999999999997
  9
$ATTMODE
 70
               1
  9
$TEXTSIZE
 40
0.2
  9
$TRACEWID
 40
1.0
  9
$TEXTSTYLE
  7
Standard
  9
$CLAYER
  8
notes
  9
$CELTYPE
  6
Continuous
  9
$CECOLOR
 62
             256
  9
$CELTSCALE
 40
1.0
  9
$DISPSILH
 70
               0
  9
$DIMSCALE
 40
1.0
  9
$DIMASZ
 40
31.75
  9
$DIMEXO
 40
0.0
  9
$DIMDLI
 40
6.9999999999999396
  9
$DIMRND
 40
0.0
  9
$DIMDLE
 40
0.0
  9
$DIMEXE
 40
19.999999999996199
  9
$DIMTP
 40
0.0
  9
$DIMTM
 40
0.0
  9
$DIMTXT
 40
24.432617187500004
  9
$DIMCEN
 40
0.0
  9
$DIMTSZ
 40
0.0
  9
$DIMTOL
 70
               0
  9
$DIMLIM
 70
               0
  9
$DIMTIH
 70
               0
  9
$DIMTOH
 70
               0
  9
$DIMSE1
 70
               0
  9
$DIMSE2
 70
               0
  9
$DIMTAD
 70
               1
  9
$DIMZIN
 70
              11
  9
$DIMBLK
  1
VW_FILLEDARROW
  9
$DIMASO
 70
               1
  9
$DIMSHO
 70
               1
  9
$DIMPOST
  1
<>
  9
$DIMAPOST
  1
[]
  9
$DIMALT
 70
               0
  9
$DIMALTD
 70
               1
  9
$DIMALTF
 40
1.0
  9
$DIMLFAC
 40
1.0
  9
$DIMTOFL
 70
               0
  9
$DIMTVP
 40
0.0
  9
$DIMTIX
 70
               1
  9
$DIMSOXD
 70
               0
  9
$DIMSAH
 70
               0
  9
$DIMBLK1
  1

  9
$DIMBLK2
  1

  9
$DIMSTYLE
  2
JIS
  9
$DIMCLRD
 70
               0
  9
$DIMCLRE
 70
               0
  9
$DIMCLRT
 70
               0
  9
$DIMTFAC
 40
1.0
  9
$DIMGAP
 40
1.00000000000108
  9
$DIMJUST
 70
               0
  9
$DIMSD1
 70
               0
  9
$DIMSD2
 70
               0
  9
$DIMTOLJ
 70
               1
  9
$DIMTZIN
 70
              11
  9
$DIMALTZ
 70
              11
  9
$DIMALTTZ
 70
              11
  9
$DIMUPT
 70
               0
  9
$DIMDEC
 70
               1
  9
$DIMTDEC
 70
               1
  9
$DIMALTU
 70
               2
  9
$DIMALTTD
 70
               2
  9
$DIMTXSTY
  7
ＭＳ ゴシック
  9
$DIMAUNIT
 70
               0
  9
$DIMADEC
 70
               2
  9
$DIMALTRND
 40
0.0
  9
$DIMAZIN
 70
               0
  9
$DIMDSEP
 70
              46
  9
$DIMATFIT
 70
               0
  9
$DIMFRAC
 70
               2
  9
$DIMLDRBLK
  1

  9
$DIMLUNIT
 70
               2
  9
$DIMLWD
 70
              -2
  9
$DIMLWE
 70
              -2
  9
$DIMTMOVE
 70
               0
  9
$LUNITS
 70
               2
  9
$LUPREC
 70
               4
  9
$SKETCHINC
 40
0.1
  9
$FILLETRAD
 40
0.0
  9
$AUNITS
 70
               0
  9
$AUPREC
 70
               0
  9
$MENU
  1
acad
  9
$ELEVATION
 40
0.0
  9
$PELEVATION
 40
0.0
  9
$THICKNESS
 40
0.0
  9
$LIMCHECK
 70
               0
  9
$CHAMFERA
 40
0.0
  9
$CHAMFERB
 40
0.0
  9
$CHAMFERC
 40
0.0
  9
$CHAMFERD
 40
0.0
  9
$SKPOLY
 70
               0
  9
$TDCREATE
 40
2456035.708576389
  9
$TDUCREATE
 40
0.000000000
  9
$TDUPDATE
 40
2456035.708576389
  9
$TDUUPDATE
 40
0.000000000
  9
$TDINDWG
 40
0.0000000000
  9
$TDUSRTIMER
 40
0.0000000000
  9
$USRTIMER
 70
               1
  9
$ANGBASE
 50
0.0
  9
$ANGDIR
 70
               0
  9
$PDMODE
 70
               1
  9
$PDSIZE
 40
-2.0
  9
$PLINEWID
 40
0.0
  9
$SPLFRAME
 70
               0
  9
$SPLINETYPE
 70
               6
  9
$SPLINESEGS
 70
               8
  9
$HANDSEED
  5
227
  9
$SURFTAB1
 70
               6
  9
$SURFTAB2
 70
               6
  9
$SURFTYPE
 70
               6
  9
$SURFU
 70
               6
  9
$SURFV
 70
               6
  9
$UCSBASE
  2

  9
$UCSNAME
  2

  9
$UCSORG
 10
0.0
 20
0.0
 30
0.0
  9
$UCSXDIR
 10
1.0
 20
0.0
 30
0.0
  9
$UCSYDIR
 10
0.0
 20
1.0
 30
0.0
  9
$UCSORTHOREF
  2

  9
$UCSORTHOVIEW
 70
               0
  9
$UCSORGTOP
 10
0.0
 20
0.0
 30
0.0
  9
$UCSORGBOTTOM
 10
0.0
 20
0.0
 30
0.0
  9
$UCSORGLEFT
 10
0.0
 20
0.0
 30
0.0
  9
$UCSORGRIGHT
 10
0.0
 20
0.0
 30
0.0
  9
$UCSORGFRONT
 10
0.0
 20
0.0
 30
0.0
  9
$UCSORGBACK
 10
0.0
 20
0.0
 30
0.0
  9
$PUCSBASE
  2

  9
$PUCSNAME
  2

  9
$PUCSORG
 10
0.0
 20
0.0
 30
0.0
  9
$PUCSXDIR
 10
1.0
 20
0.0
 30
0.0
  9
$PUCSYDIR
 10
0.0
 20
1.0
 30
0.0
  9
$PUCSORTHOREF
  2

  9
$PUCSORTHOVIEW
 70
               0
  9
$PUCSORGTOP
 10
0.0
 20
0.0
 30
0.0
  9
$PUCSORGBOTTOM
 10
0.0
 20
0.0
 30
0.0
  9
$PUCSORGLEFT
 10
0.0
 20
0.0
 30
0.0
  9
$PUCSORGRIGHT
 10
0.0
 20
0.0
 30
0.0
  9
$PUCSORGFRONT
 10
0.0
 20
0.0
 30
0.0
  9
$PUCSORGBACK
 10
0.0
 20
0.0
 30
0.0
  9
$USERI1
 70
               0
  9
$USERI2
 70
               0
  9
$USERI3
 70
               0
  9
$USERI4
 70
               0
  9
$USERI5
 70
               0
  9
$USERR1
 40
0.0
  9
$USERR2
 40
0.0
  9
$USERR3
 40
0.0
  9
$USERR4
 40
0.0
  9
$USERR5
 40
0.0
  9
$WORLDVIEW
 70
               1
  9
$SHADEDGE
 70
               3
  9
$SHADEDIF
 70
              70
  9
$TILEMODE
 70
               1
  9
$MAXACTVP
 70
              64
  9
$PINSBASE
 10
0.0
 20
0.0
 30
0.0
  9
$PLIMCHECK
 70
               0
  9
$PEXTMIN
 10
1.0000000000000000E+20
 20
1.0000000000000000E+20
 30
1.0000000000000000E+20
  9
$PEXTMAX
 10
-1.0000000000000000E+20
 20
-1.0000000000000000E+20
 30
-1.0000000000000000E+20
  9
$PLIMMIN
 10
0.0
 20
0.0
  9
$PLIMMAX
 10
12.0
 20
9.0
  9
$UNITMODE
 70
               0
  9
$VISRETAIN
 70
               0
  9
$PLINEGEN
 70
               1
  9
$PSLTSCALE
 70
               0
  9
$TREEDEPTH
 70
            3020
  9
$CMLSTYLE
  2
Standard
  9
$CMLJUST
 70
               0
  9
$CMLSCALE
 40
1.0
  9
$PROXYGRAPHICS
 70
               0
  9
$MEASUREMENT
 70
               1
  9
$CELWEIGHT
370
               0
  9
$ENDCAPS
280
               0
  9
$JOINSTYLE
280
               0
  9
$LWDISPLAY
290
               1
  9
$INSUNITS
 70
               4
  9
$HYPERLINKBASE
  1

  9
$STYLESHEET
  1

  9
$XEDIT
290
               1
  9
$CEPSNTYPE
380
               0
  9
$PSTYLEMODE
290
               1
  9
$FINGERPRINTGUID
  2

  9
$VERSIONGUID
  2

  9
$EXTNAMES
290
               1
  9
$PSVPSCALE
 40
0.0
  0
ENDSEC
  0
SECTION
  2
CLASSES
  0
CLASS
  1
LWPOLYLINE
  2
AcDbPolyline
  3
AutoCAD 2000
 90
        0
280
               0
281
               1
  0
CLASS
  1
IMAGE
  2
AcDbRasterImage
  3
ISM
 90
      127
280
               0
281
               1
  0
CLASS
  1
OLE2FRAME
  2
AcDbOle2Frame
  3
AutoCAD 2000
 90
        0
280
               0
281
               1
  0
CLASS
  1
HATCH
  2
AcDbHatch
  3
AutoCAD 2000
 90
        0
280
               0
281
               1
  0
CLASS
  1
DICTIONARYVAR
  2
AcDbDictionaryVar
  3
AutoCAD 2000
 90
        0
280
               0
281
               0
  0
CLASS
  1
RASTERVARIABLES
  2
AcDbRasterVariables
  3
ISM
 90
        0
280
               0
281
               0
  0
CLASS
  1
IMAGEDEF
  2
AcDbRasterImageDef
  3
ISM
 90
        0
280
               0
281
               0
  0
CLASS
  1
IMAGEDEF_REACTOR
  2
AcDbRasterImageDefReactor
  3
ISM
 90
        1
280
               0
281
               0
  0
CLASS
  1
IDBUFFER
  2
AcDbIdBuffer
  3
AutoCAD 2000
 90
        0
280
               0
281
               0
  0
CLASS
  1
SPATIAL_FILTER
  2
AcDbSpatialFilter
  3
AutoCAD 2000
 90
        0
280
               0
281
               0
  0
CLASS
  1
XRECORD
  2
AcDbXrecord
  3
AutoCAD 2000
 90
        0
280
               0
281
               0
  0
CLASS
  1
SORTENTSTABLE
  2
AcDbSortentsTable
  3
AutoCAD 2000
 90
        0
280
               0
281
               0
  0
CLASS
  1
LAYER_INDEX
  2
AcDbLayerIndex
  3
AutoCAD 2000
 90
        0
280
               0
281
               0
  0
CLASS
  1
SPATIAL_INDEX
  2
AcDbSpatialIndex
  3
AutoCAD 2000
 90
        0
280
               0
281
               0
  0
CLASS
  1
OBJECT_PTR
  2
CAseDLPNTableRecord
  3
"ASE-LPNTableRecord"
 90
        1
280
               0
281
               0
  0
CLASS
  1
LAYOUT
  2
AcDbLayout
  3
AutoCAD 2000
 90
        0
280
               0
281
               0
  0
CLASS
  1
PLOTSETTINGS
  2
AcDbPlotSettings
  3
AutoCAD 2000
 90
        0
280
               0
281
               0
  0
CLASS
  1
ACDBDICTIONARYWDFLT
  2
AcDbDictionaryWithDefault
  3
AutoCAD 2000
 90
        0
280
               0
281
               0
  0
CLASS
  1
ACDBPLACEHOLDER
  2
AcDbPlaceHolder
  3
AutoCAD 2000
 90
        0
280
               0
281
               0
  0
ENDSEC
  0
SECTION
  2
TABLES
  0
TABLE
  2
VPORT
  5
7
100
AcDbSymbolTable
 70
               1
  0
VPORT
  5
15
100
AcDbSymbolTableRecord
100
AcDbViewportTableRecord
  2
*ACTIVE
 70
               0
 10
0.0
 20
0.0
 11
1.0
 21
1.0
 12
0.0000000000001137
 22
-12.764114914906713
 13
0.0
 23
0.0
 14
1.0
 24
1.0
 15
0.0
 25
0.0
 16
0.0
 26
0.0
 36
1.0
 17
0.0
 27
0.0
 37
0.0
 40
2837.5228151124124
 41
0.688564
 42
50.0
 43
0.0
 44
0.0
 50
0.0
 51
0.0
 71
               0
 72
            2000
 73
               1
 74
               1
 75
               0
 76
               0
 77
               0
 78
               0
281
               0
 65
               0
110
0.0
120
0.0
130
0.0
111
1.0
121
0.0
131
0.0
112
0.0
122
1.0
132
0.0
345
0
346
0
 79
               0
146
0.0
  0
ENDTAB
  0
TABLE
  2
LTYPE
  5
4
100
AcDbSymbolTable
 70
              15
  0
LTYPE
  5
11
100
AcDbSymbolTableRecord
100
AcDbLinetypeTableRecord
  2
ByBlock
 70
              64
  3

 72
              65
 73
               0
 40
0.0
  0
LTYPE
  5
12
100
AcDbSymbolTableRecord
100
AcDbLinetypeTableRecord
  2
ByLayer
 70
              64
  3

 72
              65
 73
               0
 40
0.0
  0
LTYPE
  5
13
100
AcDbSymbolTableRecord
100
AcDbLinetypeTableRecord
  2
Continuous
 70
              64
  3
Solid line
 72
              65
 73
               0
 40
0.0
  0
LTYPE
  5
3A
100
AcDbSymbolTableRecord
100
AcDbLinetypeTableRecord
  2
STYLE_01
 70
               0
  3

 72
              65
 73
               2
 40
0.375
 49
0.25
 74
               0
 49
-0.125
 74
               0
  0
LTYPE
  5
3B
100
AcDbSymbolTableRecord
100
AcDbLinetypeTableRecord
  2
STYLE_02
 70
               0
  3

 72
              65
 73
               4
 40
0.3937007874015748
 49
0.1968503937007874
 74
               0
 49
-0.0984251968503937
 74
               0
 49
0.0005
 74
               0
 49
-0.0979251968503937
 74
               0
  0
LTYPE
  5
3C
100
AcDbSymbolTableRecord
100
AcDbLinetypeTableRecord
  2
STYLE_03
 70
               0
  3

 72
              65
 73
               2
 40
1.25
 49
1.0416400000000001
 74
               0
 49
-0.2083599999999999
 74
               0
  0
LTYPE
  5
3D
100
AcDbSymbolTableRecord
100
AcDbLinetypeTableRecord
  2
STYLE_04
 70
               0
  3

 72
              65
 73
               2
 40
1.5277099999999999
 49
1.3194249999999998
 74
               0
 49
-0.208285
 74
               0
  0
LTYPE
  5
3E
100
AcDbSymbolTableRecord
100
AcDbLinetypeTableRecord
  2
STYLE_05
 70
               0
  3

 72
              65
 73
               2
 40
0.20828
 49
0.069425
 74
               0
 49
-0.138855
 74
               0
  0
LTYPE
  5
3F
100
AcDbSymbolTableRecord
100
AcDbLinetypeTableRecord
  2
STYLE_06
 70
               0
  3

 72
              65
 73
               4
 40
1.0416400000000001
 49
0.625
 74
               0
 49
-0.20828
 74
               0
 49
0.06943
 74
               0
 49
-0.13893
 74
               0
  0
LTYPE
  5
40
100
AcDbSymbolTableRecord
100
AcDbLinetypeTableRecord
  2
STYLE_07
 70
               0
  3

 72
              65
 73
               6
 40
1.875
 49
0.625
 74
               0
 49
-0.20828
 74
               0
 49
0.6250000000000001
 74
               0
 49
-0.2083599999999999
 74
               0
 49
0.06943
 74
               0
 49
-0.1389299999999999
 74
               0
  0
LTYPE
  5
41
100
AcDbSymbolTableRecord
100
AcDbLinetypeTableRecord
  2
STYLE_08
 70
               0
  3

 72
              65
 73
               6
 40
1.25
 49
0.625
 74
               0
 49
-0.20828
 74
               0
 49
0.06943
 74
               0
 49
-0.13893
 74
               0
 49
0.0694299999999999
 74
               0
 49
-0.13893
 74
               0
  0
LTYPE
  5
42
100
AcDbSymbolTableRecord
100
AcDbLinetypeTableRecord
  2
STYLE_09
 70
               0
  3

 72
              65
 73
               4
 40
5.0
 49
3.75
 74
               0
 49
-0.2777849999999998
 74
               0
 49
0.6944300000000003
 74
               0
 49
-0.2777849999999998
 74
               0
  0
LTYPE
  5
43
100
AcDbSymbolTableRecord
100
AcDbLinetypeTableRecord
  2
STYLE_10
 70
               0
  3

 72
              65
 73
               6
 40
5.9375
 49
3.75
 74
               0
 49
-0.2777849999999998
 74
               0
 49
0.6944300000000003
 74
               0
 49
-0.2777849999999998
 74
               0
 49
0.625
 74
               0
 49
-0.3125
 74
               0
  0
LTYPE
  5
44
100
AcDbSymbolTableRecord
100
AcDbLinetypeTableRecord
  2
STYLE_11
 70
               0
  3

 72
              65
 73
               2
 40
0.0694444881889764
 49
0.0347222440944882
 74
               0
 49
-0.0347222440944882
 74
               0
  0
LTYPE
  5
45
100
AcDbSymbolTableRecord
100
AcDbLinetypeTableRecord
  2
STYLE_12
 70
               0
  3

 72
              65
 73
               2
 40
0.3937007874015748
 49
0.1968503937007874
 74
               0
 49
-0.1968503937007874
 74
               0
  0
ENDTAB
  0
TABLE
  2
LAYER
  5
2
100
AcDbSymbolTable
 70
               5
  0
LAYER
  5
14
100
AcDbSymbolTableRecord
100
AcDbLayerTableRecord
  2
0
 70
               0
 62
               7
  6
Continuous
290
               1
370
              -3
390
1D
  0
LAYER
  5
46
100
AcDbSymbolTableRecord
100
AcDbLayerTableRecord
  2
Defpoints
 70
               0
 62
               7
  6
Continuous
290
               0
370
              -3
390
1D
  0
LAYER
  5
47
100
AcDbSymbolTableRecord
100
AcDbLayerTableRecord
  2
template
 70
               0
 62
               7
  6
Continuous
290
               1
370
              -3
390
1D
  0
LAYER
  5
48
100
AcDbSymbolTableRecord
100
AcDbLayerTableRecord
  2
notes
 70
               0
 62
               7
  6
Continuous
290
               1
370
              -3
390
1D
  0
LAYER
  5
49
100
AcDbSymbolTableRecord
100
AcDbLayerTableRecord
  2
ADF70-0608
 70
               0
 62
               7
  6
Continuous
290
               1
370
              -3
390
1D
  0
ENDTAB
  0
TABLE
  2
STYLE
  5
3
100
AcDbSymbolTable
 70
               2
  0
STYLE
  5
17
100
AcDbSymbolTableRecord
100
AcDbTextStyleTableRecord
  2
Standard
 70
               0
 40
0.0
 41
1.0
 50
0.0
 71
               0
 42
0.0
  3
txt
  4
BIGFONT.SHX
  0
STYLE
  5
39
100
AcDbSymbolTableRecord
100
AcDbTextStyleTableRecord
  2
ＭＳ ゴシック
 70
               0
 40
0.0
 41
1.0
 50
0.0
 71
               0
 42
0.0
  3

  4
ＭＳ ゴシック
1001
ACAD
1000
ＭＳ ゴシック
1071
        0
  0
ENDTAB
  0
TABLE
  2
VIEW
  5
5
100
AcDbSymbolTable
 70
               0
  0
ENDTAB
  0
TABLE
  2
UCS
  5
6
100
AcDbSymbolTable
 70
               0
  0
ENDTAB
  0
TABLE
  2
APPID
  5
8
100
AcDbSymbolTable
 70
               1
  0
APPID
  5
16
100
AcDbSymbolTableRecord
100
AcDbRegAppTableRecord
  2
ACAD
 70
               0
  0
ENDTAB
  0
TABLE
  2
DIMSTYLE
  5
9
100
AcDbSymbolTable
 70
               3
100
AcDbDimStyleTable
 71
               0
  0
DIMSTYLE
105
18
100
AcDbSymbolTableRecord
100
AcDbDimStyleTableRecord
  2
Standard
 70
               0
  3

  4

 40
1.0
 41
0.18
 42
0.0625
 43
0.38
 44
0.18
 45
0.0
 46
0.0
 47
0.0
 48
0.0
 71
               0
 72
               0
 73
               1
 74
               1
 75
               0
 76
               0
 77
               0
 78
               0
 79
               0
140
0.18
141
0.09
142
0.0
143
25.399999999999999
144
1.0
145
0.0
146
1.0
147
0.09
148
0.0
170
               0
171
               2
172
               0
173
               0
174
               0
175
               0
176
               0
177
               0
178
               0
179
               0
271
               4
272
               4
273
               2
274
               2
275
               0
276
               0
277
               2
278
              46
279
               0
280
               0
281
               0
282
               0
283
               1
284
               0
285
               0
286
               0
288
               0
289
               3
340
17
341
0
342
0
343
0
344
0
371
              -2
372
              -2
  0
DIMSTYLE
105
52
100
AcDbSymbolTableRecord
100
AcDbDimStyleTableRecord
  2
tform線あり
 70
               0
  3
<>
  4
[]
 40
1.0
 41
9.9993896484374982
 42
24.999999999999996
 43
0.9999999999999999
 44
0.0
 45
0.0
 46
0.0
 47
0.0
 48
0.0
 71
               0
 72
               0
 73
               0
 74
               0
 75
               0
 76
               0
 77
               1
 78
              11
 79
               0
140
24.432617187500004
141
0.0
142
0.0
143
1.0
144
1.0
145
0.0
146
1.0
147
0.4999999999999999
148
0.0
170
               0
171
               1
172
               0
173
               0
174
               1
175
               0
176
               0
177
               0
178
               0
179
               2
271
               1
272
               1
273
               2
274
               2
275
               0
276
               2
277
               2
278
              46
279
               0
280
               0
281
               0
282
               0
283
               1
284
              11
285
              11
286
              11
288
               0
289
               0
340
39
341
4A
342
4A
343
0
344
0
371
              -2
372
              -2
  0
DIMSTYLE
105
57
100
AcDbSymbolTableRecord
100
AcDbDimStyleTableRecord
  2
JIS
 70
               0
  3
<>
  4
[]
 40
1.0
 41
31.75
 42
0.0
 43
6.9999999999999396
 44
19.999999999996199
 45
0.0
 46
0.0
 47
0.0
 48
0.0
 71
               0
 72
               0
 73
               0
 74
               0
 75
               0
 76
               0
 77
               1
 78
              11
 79
               0
140
24.432617187500004
141
0.0
142
0.0
143
1.0
144
1.0
145
0.0
146
1.0
147
1.00000000000108
148
0.0
170
               0
171
               1
172
               0
173
               0
174
               1
175
               0
176
               0
177
               0
178
               0
179
               2
271
               1
272
               1
273
               2
274
               2
275
               0
276
               2
277
               2
278
              46
279
               0
280
               0
281
               0
282
               0
283
               1
284
              11
285
              11
286
              11
288
               0
289
               0
340
39
341
53
342
53
343
0
344
0
371
              -2
372
              -2
  0
ENDTAB
  0
TABLE
  2
BLOCK_RECORD
  5
1
100
AcDbSymbolTable
 70
              24
  0
BLOCK_RECORD
  5
A
100
AcDbSymbolTableRecord
100
AcDbBlockTableRecord
  2
*MODEL_SPACE
340
20
  0
BLOCK_RECORD
  5
B
100
AcDbSymbolTableRecord
100
AcDbBlockTableRecord
  2
*PAPER_SPACE
340
21
  0
BLOCK_RECORD
  5
4A
100
AcDbSymbolTableRecord
100
AcDbBlockTableRecord
  2
_DOT
340
0
  0
BLOCK_RECORD
  5
53
100
AcDbSymbolTableRecord
100
AcDbBlockTableRecord
  2
VW_FILLEDARROW
340
0
  0
BLOCK_RECORD
  5
23
100
AcDbSymbolTableRecord
100
AcDbBlockTableRecord
  2
グループ
340
0
102
{BLKREFS
331
17E
102
}
  0
BLOCK_RECORD
  5
24
100
AcDbSymbolTableRecord
100
AcDbBlockTableRecord
  2
*D3
340
0
  0
BLOCK_RECORD
  5
25
100
AcDbSymbolTableRecord
100
AcDbBlockTableRecord
  2
*D4
340
0
  0
BLOCK_RECORD
  5
26
100
AcDbSymbolTableRecord
100
AcDbBlockTableRecord
  2
*D5
340
0
  0
BLOCK_RECORD
  5
27
100
AcDbSymbolTableRecord
100
AcDbBlockTableRecord
  2
*D6
340
0
  0
BLOCK_RECORD
  5
28
100
AcDbSymbolTableRecord
100
AcDbBlockTableRecord
  2
*D7
340
0
  0
BLOCK_RECORD
  5
29
100
AcDbSymbolTableRecord
100
AcDbBlockTableRecord
  2
*D8
340
0
  0
BLOCK_RECORD
  5
2A
100
AcDbSymbolTableRecord
100
AcDbBlockTableRecord
  2
*D9
340
0
  0
BLOCK_RECORD
  5
2B
100
AcDbSymbolTableRecord
100
AcDbBlockTableRecord
  2
*D10
340
0
  0
BLOCK_RECORD
  5
2C
100
AcDbSymbolTableRecord
100
AcDbBlockTableRecord
  2
*D11
340
0
  0
BLOCK_RECORD
  5
2D
100
AcDbSymbolTableRecord
100
AcDbBlockTableRecord
  2
*D12
340
0
  0
BLOCK_RECORD
  5
2E
100
AcDbSymbolTableRecord
100
AcDbBlockTableRecord
  2
*D13
340
0
  0
BLOCK_RECORD
  5
2F
100
AcDbSymbolTableRecord
100
AcDbBlockTableRecord
  2
*D14
340
0
  0
BLOCK_RECORD
  5
30
100
AcDbSymbolTableRecord
100
AcDbBlockTableRecord
  2
*D15
340
0
  0
BLOCK_RECORD
  5
31
100
AcDbSymbolTableRecord
100
AcDbBlockTableRecord
  2
*D16
340
0
  0
BLOCK_RECORD
  5
32
100
AcDbSymbolTableRecord
100
AcDbBlockTableRecord
  2
*D17
340
0
  0
BLOCK_RECORD
  5
33
100
AcDbSymbolTableRecord
100
AcDbBlockTableRecord
  2
*D18
340
0
  0
BLOCK_RECORD
  5
34
100
AcDbSymbolTableRecord
100
AcDbBlockTableRecord
  2
*D19
340
0
  0
BLOCK_RECORD
  5
35
100
AcDbSymbolTableRecord
100
AcDbBlockTableRecord
  2
*D20
340
0
  0
BLOCK_RECORD
  5
36
100
AcDbSymbolTableRecord
100
AcDbBlockTableRecord
  2
*D21
340
0
  0
BLOCK_RECORD
  5
37
100
AcDbSymbolTableRecord
100
AcDbBlockTableRecord
  2
*D22
340
0
  0
BLOCK_RECORD
  5
38
100
AcDbSymbolTableRecord
100
AcDbBlockTableRecord
  2
*D23
340
0
  0
ENDTAB
  0
ENDSEC
  0
SECTION
  2
BLOCKS
  0
BLOCK
  5
D
100
AcDbEntity
  8
0
390
0
100
AcDbBlockBegin
  2
*MODEL_SPACE
 70
               0
 10
0.0
 20
0.0
 30
0.0
  3
*MODEL_SPACE
  1

  0
ENDBLK
  5
E
100
AcDbEntity
  8
0
390
0
100
AcDbBlockEnd
  0
BLOCK
  5
F
100
AcDbEntity
 67
               1
  8
0
390
0
100
AcDbBlockBegin
  2
*PAPER_SPACE
 70
               0
 10
0.0
 20
0.0
 30
0.0
  3
*PAPER_SPACE
  1

  0
ENDBLK
  5
10
100
AcDbEntity
 67
               1
  8
0
390
0
100
AcDbBlockEnd
  0
BLOCK
  5
4B
100
AcDbEntity
  8
0
390
0
100
AcDbBlockBegin
  2
_DOT
 70
               0
 10
0.0
 20
0.0
 30
0.0
  3
_DOT
  1

  0
POLYLINE
  5
4C
100
AcDbEntity
  8
0
370
              -2
390
0
  6
ByBlock
 62
               0
100
AcDb2dPolyline
 66
               1
 10
0.0
 20
0.0
 30
0.0
 70
               1
 40
0.5
 41
0.5
  0
VERTEX
  5
4D
100
AcDbEntity
  8
0
370
              -2
390
0
  6
ByBlock
 62
               0
100
AcDbVertex
100
AcDb2dVertex
 10
-0.25
 20
0.0
 30
0.0
 42
1.0
  0
VERTEX
  5
4E
100
AcDbEntity
  8
0
370
              -2
390
0
  6
ByBlock
 62
               0
100
AcDbVertex
100
AcDb2dVertex
 10
0.25
 20
0.0
 30
0.0
 42
1.0
  0
SEQEND
  5
4F
100
AcDbEntity
  8
0
390
0
  0
LINE
  5
50
100
AcDbEntity
  8
0
370
              -2
390
0
  6
ByBlock
 62
               0
100
AcDbLine
 10
-0.5
 20
0.0
 30
0.0
 11
-1.0
 21
0.0
 31
0.0
  0
ENDBLK
  5
51
100
AcDbEntity
  8
0
390
0
100
AcDbBlockEnd
  0
BLOCK
  5
54
100
AcDbEntity
  8
0
370
              -2
390
0
  6
ByBlock
 62
               0
100
AcDbBlockBegin
  2
VW_FILLEDARROW
 70
               0
 10
0.0
 20
0.0
 30
0.0
  3
VW_FILLEDARROW
  1

  0
SOLID
  5
55
100
AcDbEntity
  8
0
370
              -2
390
0
 62
               0
100
AcDbTrace
 10
0.0
 20
0.0
 30
0.0
 11
-0.9921874999999999
 21
-0.2658558393652545
 31
0.0
 12
-0.9921874999999999
 22
0.2658558393652548
 32
0.0
 13
-0.9921874999999999
 23
0.2658558393652548
 33
0.0
  0
ENDBLK
  5
56
100
AcDbEntity
  8
0
390
0
100
AcDbBlockEnd
  0
BLOCK
  5
58
100
AcDbEntity
  8
template
390
0
100
AcDbBlockBegin
  2
グループ
 70
               0
 10
0.0
 20
0.0
 30
0.0
  3
グループ
  1

  0
LWPOLYLINE
  5
59
100
AcDbEntity
  8
0
370
              15
390
0
  6
Continuous
 62
               7
100
AcDbPolyline
 90
        8
 70
             129
 10
377.56675705738701
 20
-1417.4304201685536
 10
377.56675705738701
 20
-1423.4278088621295
 10
368.06556013938371
 20
-1423.4278088621295
 10
368.06556013938371
 20
-1447.8787721256383
 10
359.71018287760091
 20
-1447.8787721256383
 10
359.71018287760091
 20
-1423.4278088621295
 10
350.37722593129149
 20
-1423.4278088621295
 10
350.37722593129149
 20
-1417.4304201685536
  0
LWPOLYLINE
  5
5A
100
AcDbEntity
  8
0
370
              15
390
0
  6
Continuous
 62
               7
100
AcDbPolyline
 90
      101
 70
             128
 10
390.29504888794395
 20
-1418.1586686614901
 10
390.31039891672589
 20
-1418.1543079048058
 42
-0.0222221607815012
 10
390.60040349340005
 20
-1418.0856834395604
 10
390.61619725739638
 20
-1418.082680016463
 42
-0.0146883565586736
 10
390.87889996261782
 20
-1418.040676829514
 42
-0.012745884418727
 10
391.14353892976942
 20
-1418.0131398614417
 10
391.20599400808362
 20
-1418.0082464388533
 42
-0.0198099018566641
 10
391.59684311755581
 20
-1417.9931612814567
 10
391.64865458700427
 20
-1417.9932150571217
 42
-0.0147617382760306
 10
392.14327804798342
 20
-1418.008335082367
 10
392.2159695028559
 20
-1418.0127076892545
 42
-0.0162624549001905
 10
392.60612313231798
 20
-1418.0489405645267
 10
392.72765552357339
 20
-1418.0642271235226
 42
-0.0080020874664732
 10
392.87323455466873
 20
-1418.0849099707916
 10
392.91155402526459
 20
-1418.0909812486027
 42
-0.0053821929664121
 10
392.98003813057858
 20
-1418.1025887724243
 10
392.25363243137997
 20
-1420.2835172281382
 42
0.0108667757394394
 10
392.18631536124701
 20
-1420.2703301129179
 10
392.14884733805962
 20
-1420.2638323703238
 42
0.0170663203309225
 10
392.00563055114191
 20
-1420.2440027730318
 10
391.93775521846112
 20
-1420.2369556024446
 42
0.0220162375276104
 10
391.65737581060517
 20
-1420.2202732416745
 10
391.57952024355654
 20
-1420.219073874408
 42
0.028260691578441
 10
391.24388391997581
 20
-1420.2328771513771
 10
391.19997064620259
 20
-1420.2371771413809
 42
0.0169677213689019
 10
390.95404615124454
 20
-1420.2697141909325
 42
0.0190576269864087
 10
390.7111381886632
 20
-1420.3198610630393
 10
390.70487900055366
 20
-1420.3214040371483
 42
0.0213685642849376
 10
390.4544945160747
 20
-1420.3946043222536
 10
390.4490046211597
 20
-1420.3964673183123
 42
0.0237595297602029
 10
390.19550973625849
 20
-1420.496151840209
 10
390.19040766223134
 20
-1420.498443615686
 42
0.0261857468818259
 10
389.93823688600128
 20
-1420.6279799530605
 10
389.92781069691523
 20
-1420.6340454275285
 42
0.0272553062019124
 10
389.69138092167594
 20
-1420.789417633473
 10
389.65661790816495
 20
-1420.8150787815664
 42
0.0325996893173722
 10
389.50646256451495
 20
-1420.9418266545367
 10
389.48275313539136
 20
-1420.96464468305
 42
0.0138050960633576
 10
389.39086997918173
 20
-1421.0580943446012
 42
0.0125280103796513
 10
389.30402744635057
 20
-1421.1562576711985
 10
389.28034700143985
 20
-1421.1844161693887
 42
0.0205218024743649
 10
389.1552469259239
 20
-1421.3462094836209
 10
389.13278058543904
 20
-1421.3778692134447
 42
0.0163110129576931
 10
388.97707020619231
 20
-1421.6131996485071
 10
388.97434631013675
 20
-1421.6176234105001
 42
0.0131897341897304
 10
388.82754578923038
 20
-1421.8707555028654
 10
388.82584569386438
 20
-1421.8738737420003
 42
0.0107895576059582
 10
388.68806899165833
 20
-1422.1400889516258
 10
388.68733610212854
 20
-1422.1415831842819
 42
0.0091371507217545
 10
388.5588561534758
 20
-1422.4161083820486
 10
388.52911052206986
 20
-1422.4828148892002
 42
0.0135418326349745
 10
388.35739658299804
 20
-1422.8977526744695
 10
388.32379177456568
 20
-1422.9856188167457
 42
0.0092834542410453
 10
388.15256271464301
 20
-1423.4595173150556
 10
388.12694558692596
 20
-1423.5347583848472
 42
0.0054261043584088
 10
388.01930743863244
 20
-1423.8625223579143
 10
388.00178145244138
 20
-1423.9179105201874
 42
0.0008225090821739
 10
387.93311140062497
 20
-1424.1361792782934
 10
386.9484222686915
 20
-1427.16107057155
 10
390.18104610876537
 20
-1427.16107057155
 10
389.67685367891193
 20
-1429.0655488699024
 10
386.42079739692861
 20
-1429.0655488699024
 10
380.59164836457478
 20
-1447.8787719359073
 10
378.76655075426447
 20
-1447.8787719359073
 10
384.6012287897654
 20
-1429.0655488699024
 10
382.19611242072506
 20
-1429.0655488699024
 10
382.7003048505785
 20
-1427.16107057155
 10
385.12885366152852
 20
-1427.16107057155
 10
385.98900857971717
 20
-1424.5246575708511
 42
-0.000586356063689
 10
386.02574325790096
 20
-1424.4078311506219
 10
386.10183109158106
 20
-1424.1668388511739
 42
-0.0087522378929135
 10
386.30129923503733
 20
-1423.5715627640291
 10
386.39356351045251
 20
-1423.3114225955112
 42
-0.007740095383041
 10
386.65149716958251
 20
-1422.6184179179663
 10
386.66726214116159
 20
-1422.5779870345798
 42
-0.0082369946331116
 10
386.91434661177334
 20
-1421.9739079683845
 42
-0.008572523836508
 10
387.18159270777585
 20
-1421.3784819290981
 10
387.28322230878319
 20
-1421.1620608271132
 42
-0.0168109410597891
 10
387.5701667375136
 20
-1420.6008533010079
 10
387.69601012802025
 20
-1420.3738892679246
 42
-0.0007817726858116
 10
387.75029447802928
 20
-1420.2763450229795
 10
387.75042278405311
 20
-1420.2761153142314
 42
-0.0036626142153467
 10
387.8053106480678
 20
-1420.1795174342744
 42
-0.008022115069379
 10
387.86243490347124
 20
-1420.0842381995269
 10
387.89313485483569
 20
-1420.0348472503993
 42
-0.020213932556761
 10
388.02079059464353
 20
-1419.8468656497164
 10
388.07485805983004
 20
-1419.7737867854771
 42
-0.0249323791804565
 10
388.33402085354737
 20
-1419.4577415433248
 10
388.3581606676762
 20
-1419.4311272704103
 42
-0.0242132121540306
 10
388.69784140921962
 20
-1419.0912437842051
 10
388.74575298196629
 20
-1419.0477346480225
 42
-0.0251017527860469
 10
389.02973468260956
 20
-1418.8147419022553
 10
389.03118015942312
 20
-1418.8136726446764
 42
-0.0130868069037929
 10
389.32944080938063
 20
-1418.6048921761339
 10
389.33100262852201
 20
-1418.6038587358598
 42
-0.0290329526389581
 10
389.64211376991665
 20
-1418.4230332342295
 10
389.67195933190868
 20
-1418.4079308513869
 42
-0.0160250190045105
 10
389.93786374566736
 20
-1418.2839147411769
 42
-0.02676003747809
 10
390.21313982313677
 20
-1418.1831664206279
 10
390.23987574265698
 20
-1418.1749738618025
 42
-0.0049981587669817
 10
390.29504888794395
 20
-1418.1586686614901
 42
-0.0049981587669817
  0
LWPOLYLINE
  5
5B
100
AcDbEntity
  8
0
370
              15
390
0
  6
Continuous
 62
               7
100
AcDbPolyline
 90
      118
 70
             128
 10
410.10941645239086
 20
-1427.2350538993774
 10
411.98453837689033
 20
-1427.2350538993774
 10
411.14649947129044
 20
-1429.9166204257774
 42
-0.0010587229231936
 10
411.17795528686662
 20
-1429.8797158924172
 10
411.23614937749431
 20
-1429.8117336362463
 42
-0.0071874740405833
 10
411.38652459559563
 20
-1429.6410929442136
 10
411.52824736885464
 20
-1429.4848568029042
 42
-0.014811805351497
 10
411.9783766615663
 20
-1429.0172429568922
 10
412.06559899647158
 20
-1428.9318456360354
 42
-0.0086273358693627
 10
412.40114779747756
 20
-1428.6144700020211
 10
412.44498151370351
 20
-1428.574420357688
 42
-0.0103138323115584
 10
412.70300521593697
 20
-1428.3482572203498
 10
412.74877962226316
 20
-1428.3097751730904
 42
-0.0060206748570371
 10
412.92162768637627
 20
-1428.1679805223353
 10
412.92365881725772
 20
-1428.1663548167076
 42
-0.0067069027298902
 10
413.09595163192472
 20
-1428.032204182909
 10
413.09850039785175
 20
-1428.030274013033
 42
-0.0076184352054654
 10
413.26940566372207
 20
-1427.9048991377899
 42
-0.0089652861675396
 10
413.44436662645353
 20
-1427.7852658774591
 10
413.48071834660198
 20
-1427.7613546639739
 42
-0.0156916245937974
 10
413.67667784376164
 20
-1427.6410921775
 42
-0.0023299011064958
 10
413.876939887746
 20
-1427.5279142379566
 10
413.89232402012135
 20
-1427.5193142428943
 42
-0.0107669341488122
 10
414.12656084522109
 20
-1427.3949141095457
 10
414.14882564629755
 20
-1427.3836973595949
 42
-0.0078058045894547
 10
414.43241576425311
 20
-1427.246335903955
 10
414.44232285195943
 20
-1427.2417267760879
 42
-0.0181829330472862
 10
414.75263225657199
 20
-1427.1108630349934
 10
414.80668769914166
 20
-1427.0903479150488
 42
-0.0208411536030689
 10
415.15577266659204
 20
-1426.9742574525558
 10
415.17012876672089
 20
-1426.9701390076018
 42
-0.0222799817140163
 10
415.49884856063676
 20
-1426.891497441462
 10
415.50773752387488
 20
-1426.8897854308766
 42
-0.0215509523881362
 10
415.82420849215356
 20
-1426.8428697423424
 10
415.86669045319957
 20
-1426.8384322155518
 42
-0.0182545924872605
 10
416.10079923250777
 20
-1426.8225883901607
 10
416.14020024885036
 20
-1426.8213638450816
 42
-0.0072962856532441
 10
416.29612312854471
 20
-1426.8187945165594
 10
416.32522279912121
 20
-1426.8187396811556
 42
-0.005922751631871
 10
416.4229722982617
 20
-1426.8197133929461
 10
416.45221451574622
 20
-1426.8203511595495
 42
-0.0011833111896166
 10
416.49146579946603
 20
-1426.8213001638594
 10
415.69607920385886
 20
-1429.3600341089584
 42
0.014393205159947
 10
415.66967782150357
 20
-1429.3498351389114
 10
415.66240584909099
 20
-1429.3472639200559
 42
0.0234388603553438
 10
415.62057498315488
 20
-1429.3346446843395
 10
415.61189332024617
 20
-1429.3324637223354
 42
0.0199162742984468
 10
415.55160448616766
 20
-1429.3198469870006
 10
415.53079054835996
 20
-1429.3163497875719
 42
0.0293643550667824
 10
415.42771568959949
 20
-1429.3051997419186
 10
415.40303050888048
 20
-1429.3039881249001
 42
0.0214606686862285
 10
415.24988959293171
 20
-1429.3030495644825
 10
415.24051768211007
 20
-1429.3033944760268
 42
0.0167564054176725
 10
415.06899749099716
 20
-1429.3154715183953
 10
415.06053769824263
 20
-1429.316352858822
 42
0.0137677553239772
 10
414.87318438497812
 20
-1429.3411021673655
 10
414.86583264547011
 20
-1429.3422800873336
 42
0.0118497261482014
 10
414.66533488136884
 20
-1429.3792974375226
 10
414.65918487412154
 20
-1429.3805843002428
 42
0.0106421143890546
 10
414.44830398683138
 20
-1429.4294166758189
 10
414.44339517844742
 20
-1429.4306640185027
 42
0.00997463797047
 10
414.22493670928429
 20
-1429.4908385468177
 10
414.16338866911468
 20
-1429.5091204254481
 42
0.0191613675860813
 10
413.82740420659849
 20
-1429.6230978057354
 10
413.7393444338565
 20
-1429.6567847160579
 42
0.0205274080141534
 10
413.35403766195299
 20
-1429.8226131238857
 10
413.29638837996964
 20
-1429.8502810884588
 42
0.0181256912200284
 10
413.03811143930398
 20
-1429.985964907436
 10
412.98515605598868
 20
-1430.0162825206514
 42
0.0140709242413464
 10
412.84020112136164
 20
-1430.104777194085
 10
412.81395225273928
 20
-1430.121834012803
 42
0.0086667884399151
 10
412.72502609120062
 20
-1430.1818366806833
 42
0.0036408192024143
 10
412.63759285317678
 20
-1430.2440175384688
 10
412.60236597869863
 20
-1430.2694584843885
 42
0.0052260781278974
 10
412.44613728130264
 20
-1430.3847908710266
 10
412.42993042504798
 20
-1430.3970189816409
 42
0.0050024435894806
 10
412.24392708199878
 20
-1430.5403015498955
 10
412.22860892547396
 20
-1430.5523475723489
 42
0.0136138710278275
 10
412.01816765715125
 20
-1430.72731407726
 10
411.98449978135505
 20
-1430.7568930499765
 42
0.0172815186917668
 10
411.72009623969251
 20
-1431.0058897225999
 10
411.71753389384997
 20
-1431.008475539747
 42
0.0189403857993018
 10
411.46695209527087
 20
-1431.2812808045512
 10
411.4343206017362
 20
-1431.3196247360468
 42
0.0185044199502857
 10
411.24236416275482
 20
-1431.5628733171711
 42
0.0088565243900417
 10
411.06390405612393
 20
-1431.8163897373249
 10
411.05472607647789
 20
-1431.8299311170813
 42
0.0157195347229919
 10
410.8715054701434
 20
-1432.1194533263974
 10
410.82542252820912
 20
-1432.1976055234243
 42
0.0095451879781553
 10
410.66033697807529
 20
-1432.4902001657742
 10
410.64918905914385
 20
-1432.5108708379096
 42
0.0100351706257167
 10
410.51714530998635
 20
-1432.7679263983971
 42
0.0086935915419696
 10
410.3948141581937
 20
-1433.0297595437985
 10
410.39149341677785
 20
-1433.0372018667733
 42
0.0072580174867616
 10
410.27114696483017
 20
-1433.3177938583628
 10
410.26788533152654
 20
-1433.3257138843742
 42
0.0060005122616311
 10
410.148684663182
 20
-1433.6253235549846
 10
410.14547368484227
 20
-1433.6336850828843
 42
0.0049017786976888
 10
410.02657352598521
 20
-1433.9526140634873
 10
410.02340771959439
 20
-1433.9613670007188
 42
0.0039415167598674
 10
409.90397144153877
 20
-1434.299909063129
 10
409.90084033888553
 20
-1434.3090122640083
 42
0.0031035838764651
 10
409.78003555318975
 20
-1434.6674521257903
 10
409.77692550866209
 20
-1434.6768727471567
 42
0.0025070747153483
 10
409.65402415735264
 20
-1435.0555199640819
 10
409.61673026092132
 20
-1435.1724116293535
 42
0.0029081910284406
 10
409.42471196311055
 20
-1435.7865752876448
 10
409.38390879459348
 20
-1435.9197985299211
 42
0.0009266453733014
 10
409.11549142027792
 20
-1436.8020229898475
 10
409.09460394764312
 20
-1436.871134869064
 42
-0.0005809993666188
 10
408.81726726704699
 20
-1437.7849429757193
 10
408.75098546877598
 20
-1438.0024279078727
 42
-0.0012018708170168
 10
408.60400115934482
 20
-1438.4805905723997
 10
408.5516813077092
 20
-1438.6493497134913
 42
-0.0002691059596852
 10
408.50811182661073
 20
-1438.7896173336076
 10
405.67515592832149
 20
-1447.8787719359073
 10
403.85716703634296
 20
-1447.8787719359073
 10
410.10941645239086
 20
-1427.2350538993774
  0
SPLINE
  5
5C
100
AcDbEntity
  8
0
370
              15
390
0
  6
Continuous
 62
               7
100
AcDbSpline
210
0.0
220
0.0
230
1.0
 70
              13
 71
               2
 72
             782
 73
             779
 74
               0
 42
0.000001
 43
0.000001
 40
0.0
 40
0.0
 40
0.0
 40
1.0
 40
1.0
 40
2.0
 40
2.0
 40
3.0
 40
3.0
 40
4.0
 40
4.0
 40
5.0
 40
5.0
 40
6.0
 40
6.0
 40
7.0
 40
7.0
 40
8.0
 40
8.0
 40
9.0
 40
9.0
 40
10.0
 40
10.0
 40
11.0
 40
11.0
 40
12.0
 40
12.0
 40
13.0
 40
13.0
 40
14.0
 40
14.0
 40
15.0
 40
15.0
 40
16.0
 40
16.0
 40
17.0
 40
17.0
 40
18.0
 40
18.0
 40
19.0
 40
19.0
 40
20.0
 40
20.0
 40
21.0
 40
21.0
 40
22.0
 40
22.0
 40
23.0
 40
23.0
 40
24.0
 40
24.0
 40
25.0
 40
25.0
 40
26.0
 40
26.0
 40
27.0
 40
27.0
 40
28.0
 40
28.0
 40
29.0
 40
29.0
 40
30.0
 40
30.0
 40
31.0
 40
31.0
 40
32.0
 40
32.0
 40
33.0
 40
33.0
 40
34.0
 40
34.0
 40
35.0
 40
35.0
 40
36.0
 40
36.0
 40
37.0
 40
37.0
 40
38.0
 40
38.0
 40
39.0
 40
39.0
 40
40.0
 40
40.0
 40
41.0
 40
41.0
 40
42.0
 40
42.0
 40
43.0
 40
43.0
 40
44.0
 40
44.0
 40
45.0
 40
45.0
 40
46.0
 40
46.0
 40
47.0
 40
47.0
 40
48.0
 40
48.0
 40
49.0
 40
49.0
 40
50.0
 40
50.0
 40
51.0
 40
51.0
 40
52.0
 40
52.0
 40
53.0
 40
53.0
 40
54.0
 40
54.0
 40
55.0
 40
55.0
 40
56.0
 40
56.0
 40
57.0
 40
57.0
 40
58.0
 40
58.0
 40
59.0
 40
59.0
 40
60.0
 40
60.0
 40
61.0
 40
61.0
 40
62.0
 40
62.0
 40
63.0
 40
63.0
 40
64.0
 40
64.0
 40
65.0
 40
65.0
 40
66.0
 40
66.0
 40
67.0
 40
67.0
 40
68.0
 40
68.0
 40
69.0
 40
69.0
 40
70.0
 40
70.0
 40
71.0
 40
71.0
 40
72.0
 40
72.0
 40
73.0
 40
73.0
 40
74.0
 40
74.0
 40
75.0
 40
75.0
 40
76.0
 40
76.0
 40
77.0
 40
77.0
 40
78.0
 40
78.0
 40
79.0
 40
79.0
 40
80.0
 40
80.0
 40
81.0
 40
81.0
 40
82.0
 40
82.0
 40
83.0
 40
83.0
 40
84.0
 40
84.0
 40
85.0
 40
85.0
 40
86.0
 40
86.0
 40
87.0
 40
87.0
 40
88.0
 40
88.0
 40
89.0
 40
89.0
 40
90.0
 40
90.0
 40
91.0
 40
91.0
 40
92.0
 40
92.0
 40
93.0
 40
93.0
 40
94.0
 40
94.0
 40
95.0
 40
95.0
 40
96.0
 40
96.0
 40
97.0
 40
97.0
 40
98.0
 40
98.0
 40
99.0
 40
99.0
 40
100.0
 40
100.0
 40
101.0
 40
101.0
 40
102.0
 40
102.0
 40
103.0
 40
103.0
 40
104.0
 40
104.0
 40
105.0
 40
105.0
 40
106.0
 40
106.0
 40
107.0
 40
107.0
 40
108.0
 40
108.0
 40
109.0
 40
109.0
 40
110.0
 40
110.0
 40
111.0
 40
111.0
 40
112.0
 40
112.0
 40
113.0
 40
113.0
 40
114.0
 40
114.0
 40
115.0
 40
115.0
 40
116.0
 40
116.0
 40
117.0
 40
117.0
 40
118.0
 40
118.0
 40
119.0
 40
119.0
 40
120.0
 40
120.0
 40
121.0
 40
121.0
 40
122.0
 40
122.0
 40
123.0
 40
123.0
 40
124.0
 40
124.0
 40
125.0
 40
125.0
 40
126.0
 40
126.0
 40
127.0
 40
127.0
 40
128.0
 40
128.0
 40
129.0
 40
129.0
 40
130.0
 40
130.0
 40
131.0
 40
131.0
 40
132.0
 40
132.0
 40
133.0
 40
133.0
 40
134.0
 40
134.0
 40
135.0
 40
135.0
 40
136.0
 40
136.0
 40
137.0
 40
137.0
 40
138.0
 40
138.0
 40
139.0
 40
139.0
 40
140.0
 40
140.0
 40
141.0
 40
141.0
 40
142.0
 40
142.0
 40
143.0
 40
143.0
 40
144.0
 40
144.0
 40
145.0
 40
145.0
 40
146.0
 40
146.0
 40
147.0
 40
147.0
 40
148.0
 40
148.0
 40
149.0
 40
149.0
 40
150.0
 40
150.0
 40
151.0
 40
151.0
 40
152.0
 40
152.0
 40
153.0
 40
153.0
 40
154.0
 40
154.0
 40
155.0
 40
155.0
 40
156.0
 40
156.0
 40
157.0
 40
157.0
 40
158.0
 40
158.0
 40
159.0
 40
159.0
 40
160.0
 40
160.0
 40
161.0
 40
161.0
 40
162.0
 40
162.0
 40
163.0
 40
163.0
 40
164.0
 40
164.0
 40
165.0
 40
165.0
 40
166.0
 40
166.0
 40
167.0
 40
167.0
 40
168.0
 40
168.0
 40
169.0
 40
169.0
 40
170.0
 40
170.0
 40
171.0
 40
171.0
 40
172.0
 40
172.0
 40
173.0
 40
173.0
 40
174.0
 40
174.0
 40
175.0
 40
175.0
 40
176.0
 40
176.0
 40
177.0
 40
177.0
 40
178.0
 40
178.0
 40
179.0
 40
179.0
 40
180.0
 40
180.0
 40
181.0
 40
181.0
 40
182.0
 40
182.0
 40
183.0
 40
183.0
 40
184.0
 40
184.0
 40
185.0
 40
185.0
 40
186.0
 40
186.0
 40
187.0
 40
187.0
 40
188.0
 40
188.0
 40
189.0
 40
189.0
 40
190.0
 40
190.0
 40
191.0
 40
191.0
 40
192.0
 40
192.0
 40
193.0
 40
193.0
 40
194.0
 40
194.0
 40
195.0
 40
195.0
 40
196.0
 40
196.0
 40
197.0
 40
197.0
 40
198.0
 40
198.0
 40
199.0
 40
199.0
 40
200.0
 40
200.0
 40
201.0
 40
201.0
 40
202.0
 40
202.0
 40
203.0
 40
203.0
 40
204.0
 40
204.0
 40
205.0
 40
205.0
 40
206.0
 40
206.0
 40
207.0
 40
207.0
 40
208.0
 40
208.0
 40
209.0
 40
209.0
 40
210.0
 40
210.0
 40
211.0
 40
211.0
 40
212.0
 40
212.0
 40
213.0
 40
213.0
 40
214.0
 40
214.0
 40
215.0
 40
215.0
 40
216.0
 40
216.0
 40
217.0
 40
217.0
 40
218.0
 40
218.0
 40
219.0
 40
219.0
 40
220.0
 40
220.0
 40
221.0
 40
221.0
 40
222.0
 40
222.0
 40
223.0
 40
223.0
 40
224.0
 40
224.0
 40
225.0
 40
225.0
 40
226.0
 40
226.0
 40
227.0
 40
227.0
 40
228.0
 40
228.0
 40
229.0
 40
229.0
 40
230.0
 40
230.0
 40
231.0
 40
231.0
 40
232.0
 40
232.0
 40
233.0
 40
233.0
 40
234.0
 40
234.0
 40
235.0
 40
235.0
 40
236.0
 40
236.0
 40
237.0
 40
237.0
 40
238.0
 40
238.0
 40
239.0
 40
239.0
 40
240.0
 40
240.0
 40
241.0
 40
241.0
 40
242.0
 40
242.0
 40
243.0
 40
243.0
 40
244.0
 40
244.0
 40
245.0
 40
245.0
 40
246.0
 40
246.0
 40
247.0
 40
247.0
 40
248.0
 40
248.0
 40
249.0
 40
249.0
 40
250.0
 40
250.0
 40
251.0
 40
251.0
 40
252.0
 40
252.0
 40
253.0
 40
253.0
 40
254.0
 40
254.0
 40
255.0
 40
255.0
 40
256.0
 40
256.0
 40
257.0
 40
257.0
 40
258.0
 40
258.0
 40
259.0
 40
259.0
 40
260.0
 40
260.0
 40
261.0
 40
261.0
 40
262.0
 40
262.0
 40
263.0
 40
263.0
 40
264.0
 40
264.0
 40
265.0
 40
265.0
 40
266.0
 40
266.0
 40
267.0
 40
267.0
 40
268.0
 40
268.0
 40
269.0
 40
269.0
 40
270.0
 40
270.0
 40
271.0
 40
271.0
 40
272.0
 40
272.0
 40
273.0
 40
273.0
 40
274.0
 40
274.0
 40
275.0
 40
275.0
 40
276.0
 40
276.0
 40
277.0
 40
277.0
 40
278.0
 40
278.0
 40
279.0
 40
279.0
 40
280.0
 40
280.0
 40
281.0
 40
281.0
 40
282.0
 40
282.0
 40
283.0
 40
283.0
 40
284.0
 40
284.0
 40
285.0
 40
285.0
 40
286.0
 40
286.0
 40
287.0
 40
287.0
 40
288.0
 40
288.0
 40
289.0
 40
289.0
 40
290.0
 40
290.0
 40
291.0
 40
291.0
 40
292.0
 40
292.0
 40
293.0
 40
293.0
 40
294.0
 40
294.0
 40
295.0
 40
295.0
 40
296.0
 40
296.0
 40
297.0
 40
297.0
 40
298.0
 40
298.0
 40
299.0
 40
299.0
 40
300.0
 40
300.0
 40
301.0
 40
301.0
 40
302.0
 40
302.0
 40
303.0
 40
303.0
 40
304.0
 40
304.0
 40
305.0
 40
305.0
 40
306.0
 40
306.0
 40
307.0
 40
307.0
 40
308.0
 40
308.0
 40
309.0
 40
309.0
 40
310.0
 40
310.0
 40
311.0
 40
311.0
 40
312.0
 40
312.0
 40
313.0
 40
313.0
 40
314.0
 40
314.0
 40
315.0
 40
315.0
 40
316.0
 40
316.0
 40
317.0
 40
317.0
 40
318.0
 40
318.0
 40
319.0
 40
319.0
 40
320.0
 40
320.0
 40
321.0
 40
321.0
 40
322.0
 40
322.0
 40
323.0
 40
323.0
 40
324.0
 40
324.0
 40
325.0
 40
325.0
 40
326.0
 40
326.0
 40
327.0
 40
327.0
 40
328.0
 40
328.0
 40
329.0
 40
329.0
 40
330.0
 40
330.0
 40
331.0
 40
331.0
 40
332.0
 40
332.0
 40
333.0
 40
333.0
 40
334.0
 40
334.0
 40
335.0
 40
335.0
 40
336.0
 40
336.0
 40
337.0
 40
337.0
 40
338.0
 40
338.0
 40
339.0
 40
339.0
 40
340.0
 40
340.0
 40
341.0
 40
341.0
 40
342.0
 40
342.0
 40
343.0
 40
343.0
 40
344.0
 40
344.0
 40
345.0
 40
345.0
 40
346.0
 40
346.0
 40
347.0
 40
347.0
 40
348.0
 40
348.0
 40
349.0
 40
349.0
 40
350.0
 40
350.0
 40
351.0
 40
351.0
 40
352.0
 40
352.0
 40
353.0
 40
353.0
 40
354.0
 40
354.0
 40
355.0
 40
355.0
 40
356.0
 40
356.0
 40
357.0
 40
357.0
 40
358.0
 40
358.0
 40
359.0
 40
359.0
 40
360.0
 40
360.0
 40
361.0
 40
361.0
 40
362.0
 40
362.0
 40
363.0
 40
363.0
 40
364.0
 40
364.0
 40
365.0
 40
365.0
 40
366.0
 40
366.0
 40
367.0
 40
367.0
 40
368.0
 40
368.0
 40
369.0
 40
369.0
 40
370.0
 40
370.0
 40
371.0
 40
371.0
 40
372.0
 40
372.0
 40
373.0
 40
373.0
 40
374.0
 40
374.0
 40
375.0
 40
375.0
 40
376.0
 40
376.0
 40
377.0
 40
377.0
 40
378.0
 40
378.0
 40
379.0
 40
379.0
 40
380.0
 40
380.0
 40
381.0
 40
381.0
 40
382.0
 40
382.0
 40
383.0
 40
383.0
 40
384.0
 40
384.0
 40
385.0
 40
385.0
 40
386.0
 40
386.0
 40
387.0
 40
387.0
 40
388.0
 40
388.0
 40
389.0
 40
389.0
 40
389.0
 10
420.43812090312349
 20
-1427.224127536015
 30
0.0
 41
1.0
 10
421.25654501184397
 20
-1427.224127536015
 30
0.0
 41
1.0
 10
422.07496912056445
 20
-1427.224127536015
 30
0.0
 41
1.0
 10
421.66121538504768
 20
-1428.5667538002647
 30
0.0
 41
1.0
 10
421.24746164953092
 20
-1429.9093800645144
 30
0.0
 41
1.0
 10
421.26580114471
 20
-1429.8806792915857
 30
0.0
 41
0.9999957264429397
 10
421.28430814156167
 20
-1429.8520862414027
 30
0.0
 41
1.0
 10
421.31473746568292
 20
-1429.8050733630516
 30
0.0
 41
1.0
 10
421.34516678980418
 20
-1429.7580604847005
 30
0.0
 41
1.0
 10
421.42453243490849
 20
-1429.6354416777997
 30
0.0
 41
0.9995394069080898
 10
421.51119082645994
 20
-1429.5178636160585
 30
0.0
 41
1.0
 10
421.54694768872184
 20
-1429.4693487234622
 30
0.0
 41
1.0
 10
421.58270455098369
 20
-1429.4208338308658
 30
0.0
 41
1.0
 10
421.71643121880032
 20
-1429.2393935557411
 30
0.0
 41
0.9994460617143169
 10
421.86193170008789
 20
-1429.0672511580919
 30
0.0
 41
1.0
 10
421.86631988106296
 20
-1429.0620594777092
 30
0.0
 41
1.0
 10
421.87070806203809
 20
-1429.0568677973267
 30
0.0
 41
1.0
 10
422.00743218137683
 20
-1428.8951087604414
 30
0.0
 41
0.999435939493436
 10
422.1547064117272
 20
-1428.7428925592778
 30
0.0
 41
1.0
 10
422.15708976568021
 20
-1428.740429228905
 30
0.0
 41
1.0
 10
422.15947311963328
 20
-1428.7379658985321
 30
0.0
 41
1.0
 10
422.30198064207877
 20
-1428.5906763581131
 30
0.0
 41
0.9995293688567613
 10
422.45325232306084
 20
-1428.4524031459491
 30
0.0
 41
1.0
 10
422.47254608232322
 20
-1428.4347672602989
 30
0.0
 41
1.0
 10
422.4918398415856
 20
-1428.4171313746485
 30
0.0
 41
1.0
 10
422.60452400404347
 20
-1428.3141299337847
 30
0.0
 41
0.9997087614803224
 10
422.72204689299798
 20
-1428.2166856529871
 30
0.0
 41
1.0
 10
422.74121296617091
 20
-1428.2007940744811
 30
0.0
 41
1.0
 10
422.76037903934383
 20
-1428.1849024959754
 30
0.0
 41
1.0
 10
422.83956978195346
 20
-1428.1192413721888
 30
0.0
 41
0.9999595338697505
 10
422.91992905280819
 20
-1428.0550156415343
 30
0.0
 41
1.0
 10
423.00028832365331
 20
-1427.9907899108869
 30
0.0
 41
0.99997494175032
 10
423.08154885799252
 20
-1427.9277083569439
 30
0.0
 41
1.0
 10
423.10253500417747
 20
-1427.9114170696248
 30
0.0
 41
1.0
 10
423.12352115036242
 20
-1427.8951257823057
 30
0.0
 41
1.0
 10
423.20808903564796
 20
-1427.8294767724778
 30
0.0
 41
0.9999792037115588
 10
423.29349663540921
 20
-1427.7649239908401
 30
0.0
 41
1.0
 10
423.31432146136422
 20
-1427.7491841685496
 30
0.0
 41
1.0
 10
423.33514628731928
 20
-1427.7334443462589
 30
0.0
 41
1.0
 10
423.37890423519832
 20
-1427.7003712091819
 30
0.0
 41
0.9999993373970271
 10
423.42258592132191
 20
-1427.6671974137726
 30
0.0
 41
1.0
 10
423.46626760746989
 20
-1427.6340236183451
 30
0.0
 41
0.9999160953817762
 10
423.51079401839002
 20
-1427.6019925531464
 30
0.0
 41
1.0
 10
423.54361590580686
 20
-1427.5783813975634
 30
0.0
 41
1.0
 10
423.5764377932237
 20
-1427.5547702419803
 30
0.0
 41
1.0
 10
423.68660797898275
 20
-1427.4755168656122
 30
0.0
 41
0.9980964527232505
 10
423.8056969724837
 20
-1427.410429392756
 30
0.0
 41
1.0
 10
423.84272957941101
 20
-1427.3901894131632
 30
0.0
 41
1.0
 10
423.87976218633833
 20
-1427.3699494335706
 30
0.0
 41
1.0
 10
424.05908919961183
 20
-1427.2719391828691
 30
0.0
 41
0.9984572810572934
 10
424.24817776597098
 20
-1427.1944169215226
 30
0.0
 41
1.0
 10
424.25182403536564
 20
-1427.192922029185
 30
0.0
 41
1.0
 10
424.25547030476031
 20
-1427.1914271368476
 30
0.0
 41
1.0
 10
424.4372663323291
 20
-1427.1168946601765
 30
0.0
 41
0.9987838528034427
 10
424.62551899088913
 20
-1427.0606290200105
 30
0.0
 41
1.0
 10
424.62975694008833
 20
-1427.0593623663203
 30
0.0
 41
1.0
 10
424.63399488928752
 20
-1427.0580957126299
 30
0.0
 41
1.0
 10
424.8137716494486
 20
-1427.0043633798448
 30
0.0
 41
0.9990652816207064
 10
424.99751758116423
 20
-1426.9663597003027
 30
0.0
 41
1.0
 10
425.00270598219663
 20
-1426.9652865971962
 30
0.0
 41
1.0
 10
425.00789438322897
 20
-1426.9642134940893
 30
0.0
 41
1.0
 10
425.18126351288129
 20
-1426.9283560207605
 30
0.0
 41
0.9992909934270403
 10
425.35683927933843
 20
-1426.9056455882942
 30
0.0
 41
1.0
 10
425.53241504579364
 20
-1426.8829351558279
 30
0.0
 41
0.999455353944853
 10
425.70910647888354
 20
-1426.8718558516218
 30
0.0
 41
1.0
 10
425.74454088668472
 20
-1426.8696339635737
 30
0.0
 41
1.0
 10
425.77997529448589
 20
-1426.8674120755256
 30
0.0
 41
1.0
 10
425.94620106105293
 20
-1426.8569890131141
 30
0.0
 41
0.9990928098293145
 10
426.11271085295317
 20
-1426.8607486543488
 30
0.0
 41
1.0
 10
426.15127268822118
 20
-1426.8616193458815
 30
0.0
 41
1.0
 10
426.18983452348914
 20
-1426.8624900374143
 30
0.0
 41
1.0
 10
426.27922064485199
 20
-1426.8645082955829
 30
0.0
 41
0.9998382089204053
 10
426.36847632764204
 20
-1426.8697404221111
 30
0.0
 41
1.0
 10
426.3689062338625
 20
-1426.8697656230133
 30
0.0
 41
1.0
 10
426.36933614008296
 20
-1426.8697908239158
 30
0.0
 41
1.0
 10
426.45773201042874
 20
-1426.8749725486393
 30
0.0
 41
0.9997558016758223
 10
426.54581258762903
 20
-1426.8840550640057
 30
0.0
 41
1.0
 10
426.54628872605576
 20
-1426.8841041614878
 30
0.0
 41
1.0
 10
426.54676486448244
 20
-1426.8841532589702
 30
0.0
 41
1.0
 10
426.63389316482687
 20
-1426.8931375793718
 30
0.0
 41
0.9996565144181986
 10
426.72043101817195
 20
-1426.9066748860614
 30
0.0
 41
1.0
 10
426.72089694355014
 20
-1426.9067477717929
 30
0.0
 41
1.0
 10
426.72136286892834
 20
-1426.9068206575243
 30
0.0
 41
1.0
 10
426.80696887151453
 20
-1426.9202121927503
 30
0.0
 41
0.9995321806866717
 10
426.89159595184196
 20
-1426.9388126811796
 30
0.0
 41
1.0
 10
426.89198514641345
 20
-1426.9388982236453
 30
0.0
 41
1.0
 10
426.89237434098493
 20
-1426.9389837661111
 30
0.0
 41
1.0
 10
426.97622303216951
 20
-1426.9574131696088
 30
0.0
 41
0.9993819199219739
 10
427.05856956636615
 20
-1426.9816885528694
 30
0.0
 41
1.0
 10
427.05880799986664
 20
-1426.9817588419796
 30
0.0
 41
1.0
 10
427.05904643336709
 20
-1426.9818291310896
 30
0.0
 41
1.0
 10
427.14091610056454
 20
-1427.0059639361309
 30
0.0
 41
0.9992088568506324
 10
427.2206086195506
 20
-1427.0365291719245
 30
0.0
 41
1.0
 10
427.30028961042962
 20
-1427.0670887726578
 30
0.0
 41
0.9990226101773204
 10
427.37696028033679
 20
-1427.1045662042725
 30
0.0
 41
1.0
 10
427.45361942213469
 20
-1427.1420380008256
 30
0.0
 41
0.9988424273972109
 10
427.52632304934713
 20
-1427.1867027760786
 30
0.0
 41
1.0
 10
427.52659075772647
 20
-1427.1868672401508
 30
0.0
 41
1.0
 10
427.52685846610586
 20
-1427.187031704223
 30
0.0
 41
1.0
 10
427.60009751007749
 20
-1427.2320254076212
 30
0.0
 41
0.9986928844492123
 10
427.6683603767886
 20
-1427.2842611419017
 30
0.0
 41
1.0
 10
427.66894166901034
 20
-1427.2847059551286
 30
0.0
 41
1.0
 10
427.66952296123208
 20
-1427.2851507683558
 30
0.0
 41
1.0
 10
427.73894841238666
 20
-1427.3382761290909
 30
0.0
 41
0.9986007262278865
 10
427.80237458215322
 20
-1427.398436898784
 30
0.0
 41
1.0
 10
427.80326899761087
 20
-1427.3992852666195
 30
0.0
 41
1.0
 10
427.80416341306852
 20
-1427.400133634455
 30
0.0
 41
1.0
 10
427.86937841374987
 20
-1427.461991139819
 30
0.0
 41
0.9985581491382567
 10
427.92758602545211
 20
-1427.5304836300911
 30
0.0
 41
1.0
 10
427.93684447904752
 20
-1427.5413779877924
 30
0.0
 41
1.0
 10
427.94610293264299
 20
-1427.5522723454937
 30
0.0
 41
1.0
 10
428.02282745153639
 20
-1427.6425535511689
 30
0.0
 41
0.9970460233520126
 10
428.08481935269577
 20
-1427.7435206353509
 30
0.0
 41
1.0
 10
428.09928871777555
 20
-1427.7670870944326
 30
0.0
 41
1.0
 10
428.11375808285533
 20
-1427.7906535535142
 30
0.0
 41
1.0
 10
428.15349478286703
 20
-1427.8553732775449
 30
0.0
 41
0.9988468816636205
 10
428.1868411536185
 20
-1427.9236057299725
 30
0.0
 41
1.0
 10
428.19387717610971
 20
-1427.9380026511094
 30
0.0
 41
1.0
 10
428.20091319860097
 20
-1427.9523995722463
 30
0.0
 41
1.0
 10
428.22018752436838
 20
-1427.9918381823966
 30
0.0
 41
0.9998431189996747
 10
428.23805285186501
 20
-1428.0319347368409
 30
0.0
 41
1.0
 10
428.25591817935066
 20
-1428.0720312912604
 30
0.0
 41
0.9999989989852909
 10
428.27389690278198
 20
-1428.1120771288654
 30
0.0
 41
1.0
 10
428.28006921437623
 20
-1428.1258253456781
 30
0.0
 41
1.0
 10
428.28624152597047
 20
-1428.1395735624906
 30
0.0
 41
1.0
 10
428.31656487258141
 20
-1428.207115833701
 30
0.0
 41
0.9998790356321994
 10
428.34477275271882
 20
-1428.2755685856368
 30
0.0
 41
1.0
 10
428.3516079340028
 20
-1428.2921556870635
 30
0.0
 41
1.0
 10
428.35844311528683
 20
-1428.3087427884902
 30
0.0
 41
1.0
 10
428.38200077766754
 20
-1428.3659107433764
 30
0.0
 41
0.9998227574561279
 10
428.40338952605714
 20
-1428.4239250516548
 30
0.0
 41
1.0
 10
428.42477827444606
 20
-1428.4819393599307
 30
0.0
 41
0.999679797104078
 10
428.44320455940539
 20
-1428.5409614790494
 30
0.0
 41
1.0
 10
428.44710836213108
 20
-1428.5534659372188
 30
0.0
 41
1.0
 10
428.45101216485676
 20
-1428.5659703953881
 30
0.0
 41
1.0
 10
428.47724605526724
 20
-1428.6500014308456
 30
0.0
 41
0.9979274938735564
 10
428.49247057874646
 20
-1428.7367057895055
 30
0.0
 41
1.0
 10
428.49469426600763
 20
-1428.7493697903265
 30
0.0
 41
1.0
 10
428.49691795326873
 20
-1428.7620337911474
 30
0.0
 41
1.0
 10
428.50784789296711
 20
-1428.8242802984382
 30
0.0
 41
0.9994985982137331
 10
428.51481605814382
 20
-1428.8870937995789
 30
0.0
 41
1.0
 10
428.52178422332076
 20
-1428.9499073007219
 30
0.0
 41
0.9996372611202801
 10
428.52536008908868
 20
-1429.0130048794058
 30
0.0
 41
1.0
 10
428.52552866657788
 20
-1429.0159794964866
 30
0.0
 41
1.0
 10
428.52569724406715
 20
-1429.0189541135676
 30
0.0
 41
1.0
 10
428.52961026481347
 20
-1429.088000926412
 30
0.0
 41
0.9997730630735896
 10
428.53057857830163
 20
-1429.1571517504494
 30
0.0
 41
1.0
 10
428.53063568471975
 20
-1429.1612299295905
 30
0.0
 41
1.0
 10
428.53069279113782
 20
-1429.1653081087316
 30
0.0
 41
1.0
 10
428.53177531746218
 20
-1429.2426152910466
 30
0.0
 41
0.9998772614072129
 10
428.5304352307304
 20
-1429.3199184376117
 30
0.0
 41
1.0
 10
428.53034596753162
 20
-1429.3250676014477
 30
0.0
 41
1.0
 10
428.53025670433288
 20
-1429.3302167652837
 30
0.0
 41
1.0
 10
428.52873809120354
 20
-1429.417818239519
 30
0.0
 41
0.9999415567325783
 10
428.52532578095764
 20
-1429.5053664011948
 30
0.0
 41
1.0
 10
428.52508446028236
 20
-1429.5115578609311
 30
0.0
 41
1.0
 10
428.52484313960707
 20
-1429.5177493206677
 30
0.0
 41
1.0
 10
428.52094818801072
 20
-1429.6176804018141
 30
0.0
 41
0.9999716810422671
 10
428.51554960489233
 20
-1429.7175415400379
 30
0.0
 41
1.0
 10
428.51233680610324
 20
-1429.7769707897007
 30
0.0
 41
1.0
 10
428.5091240073142
 20
-1429.8364000393635
 30
0.0
 41
1.0
 10
428.50105009816139
 20
-1429.9857484406473
 30
0.0
 41
0.9999819129913351
 10
428.49118030654512
 20
-1430.1349889183532
 30
0.0
 41
1.0
 10
428.48131051492851
 20
-1430.2842293960646
 30
0.0
 41
1.0
 10
428.47887119436461
 20
-1430.3214224419139
 30
0.0
 41
1.0
 10
428.50156942821206
 20
-1430.2826814445566
 30
0.0
 41
0.999998212803524
 10
428.52441398697948
 20
-1430.2440265505782
 30
0.0
 41
1.0
 10
428.55132354685009
 20
-1430.198493336547
 30
0.0
 41
1.0
 10
428.57823310672075
 20
-1430.1529601225159
 30
0.0
 41
1.0
 10
428.65489678524756
 20
-1430.0232388004447
 30
0.0
 41
0.999860919005727
 10
428.73584409811133
 20
-1429.8961464185122
 30
0.0
 41
1.0
 10
428.76549241959287
 20
-1429.8495966855553
 30
0.0
 41
1.0
 10
428.79514074107448
 20
-1429.8030469525984
 30
0.0
 41
1.0
 10
428.87741296131071
 20
-1429.6738743826045
 30
0.0
 41
0.9999067609733012
 10
428.96318197077295
 20
-1429.546996693166
 30
0.0
 41
1.0
 10
428.96558667397574
 20
-1429.5434394271083
 30
0.0
 41
1.0
 10
428.96799137717846
 20
-1429.5398821610509
 30
0.0
 41
1.0
 10
429.04895098023991
 20
-1429.4201190037209
 30
0.0
 41
0.9998784952147882
 10
429.13360458991838
 20
-1429.3029377870162
 30
0.0
 41
1.0
 10
429.21825819959912
 20
-1429.1857565703081
 30
0.0
 41
0.9998532968283177
 10
429.30687582042106
 20
-1429.0715436618386
 30
0.0
 41
1.0
 10
429.32683760941256
 20
-1429.045816340818
 30
0.0
 41
1.0
 10
429.34679939840402
 20
-1429.0200890197975
 30
0.0
 41
1.0
 10
429.4652834481638
 20
-1428.8673834088277
 30
0.0
 41
0.9991551975795088
 10
429.59590789778696
 20
-1428.7249238467446
 30
0.0
 41
1.0
 10
429.59941751376823
 20
-1428.7210962451186
 30
0.0
 41
1.0
 10
429.6029271297495
 20
-1428.7172686434926
 30
0.0
 41
1.0
 10
429.72653234741176
 20
-1428.5824642846596
 30
0.0
 41
0.999741814418144
 10
429.85613448711109
 20
-1428.4534148740486
 30
0.0
 41
1.0
 10
429.9857366268111
 20
-1428.3243654634366
 30
0.0
 41
0.9989238204633133
 10
430.12673917506135
 20
-1428.2078805013982
 30
0.0
 41
1.0
 10
430.17198685320102
 20
-1428.1705005097892
 30
0.0
 41
1.0
 10
430.21723453134075
 20
-1428.1331205181805
 30
0.0
 41
1.0
 10
430.35747458856264
 20
-1428.0172654648891
 30
0.0
 41
0.9990825084097051
 10
430.50711452116718
 20
-1427.9138364670557
 30
0.0
 41
1.0
 10
430.51715988522432
 20
-1427.906893253976
 30
0.0
 41
1.0
 10
430.52720524928145
 20
-1427.8999500408963
 30
0.0
 41
1.0
 10
430.65675445377133
 20
-1427.8104074692226
 30
0.0
 41
0.9998164899827291
 10
430.78963865714741
 20
-1427.7258932277064
 30
0.0
 41
1.0
 10
430.80148421767149
 20
-1427.718359461182
 30
0.0
 41
1.0
 10
430.81332977819551
 20
-1427.7108256946574
 30
0.0
 41
1.0
 10
430.92252286052201
 20
-1427.6413789861911
 30
0.0
 41
0.999747344913014
 10
431.03472681777311
 20
-1427.5769100283744
 30
0.0
 41
1.0
 10
431.14693077502363
 20
-1427.5124410705582
 30
0.0
 41
0.9999327861141933
 10
431.26059938579147
 20
-1427.4505910788744
 30
0.0
 41
1.0
 10
431.26115138834945
 20
-1427.4502907201968
 30
0.0
 41
1.0
 10
431.26170339090743
 20
-1427.449990361519
 30
0.0
 41
1.0
 10
431.37647600679207
 20
-1427.3875396524793
 30
0.0
 41
0.9996956420483816
 10
431.49418933263092
 20
-1427.3308261855052
 30
0.0
 41
1.0
 10
431.52462973752586
 20
-1427.3161602087741
 30
0.0
 41
1.0
 10
431.55507014242079
 20
-1427.3014942320431
 30
0.0
 41
1.0
 10
431.65804724916279
 20
-1427.2518805736006
 30
0.0
 41
0.9998070570177046
 10
431.7628936381027
 20
-1427.2063499866999
 30
0.0
 41
1.0
 10
431.86774002704357
 20
-1427.160819399799
 30
0.0
 41
0.9997827436147418
 10
431.97439296365508
 20
-1427.1196982284866
 30
0.0
 41
1.0
 10
431.99361581328571
 20
-1427.1122866548544
 30
0.0
 41
1.0
 10
432.01283866291629
 20
-1427.1048750812224
 30
0.0
 41
1.0
 10
432.15793729878743
 20
-1427.048930762646
 30
0.0
 41
0.9988031841976279
 10
432.30780766139065
 20
-1427.0074306984791
 30
0.0
 41
1.0
 10
432.33272490975639
 20
-1427.0005309526714
 30
0.0
 41
1.0
 10
432.35764215812219
 20
-1426.9936312068637
 30
0.0
 41
1.0
 10
432.52491218376832
 20
-1426.9473130644571
 30
0.0
 41
0.9984748040549998
 10
432.69626909241629
 20
-1426.9197188321925
 30
0.0
 41
1.0
 10
432.70100822866368
 20
-1426.9189556716792
 30
0.0
 41
1.0
 10
432.70574736491108
 20
-1426.9181925111661
 30
0.0
 41
1.0
 10
432.86762600106374
 20
-1426.8921245999277
 30
0.0
 41
0.9984436495479877
 10
433.03140074479001
 20
-1426.884246646109
 30
0.0
 41
1.0
 10
433.053097952923
 20
-1426.8832029589094
 30
0.0
 41
1.0
 10
433.07479516105599
 20
-1426.8821592717095
 30
0.0
 41
1.0
 10
433.19517548851638
 20
-1426.8763686922903
 30
0.0
 41
0.9987954789335641
 10
433.31554373342453
 20
-1426.8824052200325
 30
0.0
 41
1.0
 10
433.33550852591964
 20
-1426.8834064643711
 30
0.0
 41
1.0
 10
433.35547331841468
 20
-1426.8844077087097
 30
0.0
 41
1.0
 10
433.43591197833496
 20
-1426.8884417477748
 30
0.0
 41
0.9997941595877821
 10
433.51612075642879
 20
-1426.8957358136959
 30
0.0
 41
1.0
 10
433.59632953452189
 20
-1426.9030298796167
 30
0.0
 41
0.9998589466236906
 10
433.67624808137521
 20
-1426.9130137340667
 30
0.0
 41
1.0
 10
433.70865428318496
 20
-1426.9170620909861
 30
0.0
 41
1.0
 10
433.7410604849947
 20
-1426.9211104479054
 30
0.0
 41
1.0
 10
433.8857914354648
 20
-1426.9391910161937
 30
0.0
 41
0.9993495063249225
 10
434.02884267922883
 20
-1426.9676567259348
 30
0.0
 41
1.0
 10
434.06177637638416
 20
-1426.9742101891502
 30
0.0
 41
1.0
 10
434.09471007353949
 20
-1426.9807636523658
 30
0.0
 41
1.0
 10
434.20400389674239
 20
-1427.0025119865011
 30
0.0
 41
0.9996788715561449
 10
434.31205546869683
 20
-1427.0297697858637
 30
0.0
 41
1.0
 10
434.31411847123502
 20
-1427.0302902124363
 30
0.0
 41
1.0
 10
434.31618147377316
 20
-1427.0308106390091
 30
0.0
 41
1.0
 10
434.42010704065228
 20
-1427.0570275852265
 30
0.0
 41
0.9995480654492646
 10
434.52226927588265
 20
-1427.089442541851
 30
0.0
 41
1.0
 10
434.52395891801302
 20
-1427.0899786467653
 30
0.0
 41
1.0
 10
434.52564856014345
 20
-1427.0905147516796
 30
0.0
 41
1.0
 10
434.62443151111341
 20
-1427.1218574984759
 30
0.0
 41
0.9993867959457027
 10
434.72077866955465
 20
-1427.1600368677653
 30
0.0
 41
1.0
 10
434.72202161863925
 20
-1427.1605294096614
 30
0.0
 41
1.0
 10
434.72326456772385
 20
-1427.1610219515576
 30
0.0
 41
1.0
 10
434.81712582799605
 20
-1427.1982162370543
 30
0.0
 41
0.9992050256521472
 10
434.90772550303052
 20
-1427.2427701362938
 30
0.0
 41
1.0
 10
434.90846018574268
 20
-1427.2431314287544
 30
0.0
 41
1.0
 10
434.90919486845485
 20
-1427.243492721215
 30
0.0
 41
1.0
 10
434.99832517806317
 20
-1427.287324035532
 30
0.0
 41
0.9990222350741717
 10
435.08323523945757
 20
-1427.3388573032307
 30
0.0
 41
1.0
 10
435.08341912474123
 20
-1427.338968906136
 30
0.0
 41
1.0
 10
435.08360301002489
 20
-1427.3390805090414
 30
0.0
 41
1.0
 10
435.16814530085213
 20
-1427.3903905709299
 30
0.0
 41
0.9988642743805697
 10
435.24741983547023
 20
-1427.4495147584544
 30
0.0
 41
1.0
 10
435.3266943700886
 20
-1427.5086389459791
 30
0.0
 41
0.9987681233310887
 10
435.3997181543649
 20
-1427.57532963738
 30
0.0
 41
1.0
 10
435.40004708233096
 20
-1427.5756300385945
 30
0.0
 41
1.0
 10
435.40037601029695
 20
-1427.5759304398089
 30
0.0
 41
1.0
 10
435.47405765050473
 20
-1427.643221933638
 30
0.0
 41
0.9987496570898629
 10
435.54065145583161
 20
-1427.7175347477241
 30
0.0
 41
1.0
 10
435.54142362559219
 20
-1427.7183964210822
 30
0.0
 41
1.0
 10
435.54219579535282
 20
-1427.7192580944404
 30
0.0
 41
1.0
 10
435.61033394020046
 20
-1427.7952942552422
 30
0.0
 41
0.9988147669826443
 10
435.67075619442591
 20
-1427.8775952620854
 30
0.0
 41
1.0
 10
435.67187552050359
 20
-1427.8791198934377
 30
0.0
 41
1.0
 10
435.67299484658133
 20
-1427.8806445247903
 30
0.0
 41
1.0
 10
435.73565575296197
 20
-1427.965994794338
 30
0.0
 41
0.9989452636215737
 10
435.79022266592307
 20
-1428.0567334834957
 30
0.0
 41
1.0
 10
435.79157139200879
 20
-1428.0589762645218
 30
0.0
 41
1.0
 10
435.79292011809446
 20
-1428.0612190455481
 30
0.0
 41
1.0
 10
435.85018448322705
 20
-1428.156443296758
 30
0.0
 41
0.9991046436070108
 10
435.89919369654882
 20
-1428.2561677297838
 30
0.0
 41
1.0
 10
435.90065755813885
 20
-1428.2591464098564
 30
0.0
 41
1.0
 10
435.90212141972881
 20
-1428.2621250899288
 30
0.0
 41
1.0
 10
435.95405835623075
 20
-1428.3678068830998
 30
0.0
 41
0.9992763831101104
 10
435.99781148478519
 20
-1428.4771309450539
 30
0.0
 41
1.0
 10
435.99929075444868
 20
-1428.480827132588
 30
0.0
 41
1.0
 10
436.00077002411223
 20
-1428.4845233201222
 30
0.0
 41
1.0
 10
436.04748169199411
 20
-1428.6012397571458
 30
0.0
 41
0.9994163472883252
 10
436.08611472318404
 20
-1428.7208733456102
 30
0.0
 41
1.0
 10
436.08735287543084
 20
-1428.724707489393
 30
0.0
 41
1.0
 10
436.08859102767758
 20
-1428.7285416331758
 30
0.0
 41
1.0
 10
436.1284745886947
 20
-1428.8520476946539
 30
0.0
 41
0.9997268055890455
 10
436.16254264460656
 20
-1428.977282726604
 30
0.0
 41
1.0
 10
436.16347282487618
 20
-1428.980702092713
 30
0.0
 41
1.0
 10
436.1644030051458
 20
-1428.9841214588221
 30
0.0
 41
1.0
 10
436.19661070051882
 20
-1429.1025177585555
 30
0.0
 41
0.9996701319000588
 10
436.22269631728904
 20
-1429.222411711818
 30
0.0
 41
1.0
 10
436.24878193405942
 20
-1429.3423056650804
 30
0.0
 41
0.9995785451109159
 10
436.26786551139924
 20
-1429.4635114261132
 30
0.0
 41
1.0
 10
436.2720852935729
 20
-1429.4903125808776
 30
0.0
 41
1.0
 10
436.27630507574651
 20
-1429.5171137356419
 30
0.0
 41
1.0
 10
436.30288005168518
 20
-1429.6858997093454
 30
0.0
 41
0.9979925101216853
 10
436.30790563761161
 20
-1429.8566910374379
 30
0.0
 41
1.0
 10
436.30873045003625
 20
-1429.8847217609191
 30
0.0
 41
1.0
 10
436.30955526246095
 20
-1429.9127524844002
 30
0.0
 41
1.0
 10
436.3129312235381
 20
-1430.0274823655279
 30
0.0
 41
0.9995314902262743
 10
436.30928103139945
 20
-1430.1422038492815
 30
0.0
 41
1.0
 10
436.30563083926114
 20
-1430.2569253330319
 30
0.0
 41
0.9996245486944315
 10
436.2957017441301
 20
-1430.3712746041574
 30
0.0
 41
1.0
 10
436.29553869613585
 20
-1430.3731523602928
 30
0.0
 41
1.0
 10
436.2953756481416
 20
-1430.375030116428
 30
0.0
 41
1.0
 10
436.28512045702223
 20
-1430.4931348998223
 30
0.0
 41
0.9997286095001352
 10
436.26937513345069
 20
-1430.6106338087179
 30
0.0
 41
1.0
 10
436.2689816408004
 20
-1430.6135702334195
 30
0.0
 41
1.0
 10
436.26858814815012
 20
-1430.6165066581209
 30
0.0
 41
1.0
 10
436.25205583927749
 20
-1430.7398784164216
 30
0.0
 41
0.999826553396984
 10
436.23094038054467
 20
-1430.8625488912121
 30
0.0
 41
1.0
 10
436.23026383840784
 20
-1430.8664792697175
 30
0.0
 41
1.0
 10
436.22958729627106
 20
-1430.8704096482229
 30
0.0
 41
1.0
 10
436.20711875326441
 20
-1431.0009408800247
 30
0.0
 41
0.9999022530853694
 10
436.18100928865357
 20
-1431.1307928486679
 30
0.0
 41
1.0
 10
436.18003064748848
 20
-1431.1356599910537
 30
0.0
 41
1.0
 10
436.17905200632345
 20
-1431.1405271334393
 30
0.0
 41
1.0
 10
436.15098525938214
 20
-1431.2801133868552
 30
0.0
 41
0.9999524761939426
 10
436.1202022905494
 20
-1431.4191258800104
 30
0.0
 41
1.0
 10
436.11892618337322
 20
-1431.4248886393161
 30
0.0
 41
1.0
 10
436.11765007619704
 20
-1431.4306513986216
 30
0.0
 41
1.0
 10
436.08431489301381
 20
-1431.5811894103813
 30
0.0
 41
0.9999813588717089
 10
436.04914389221562
 20
-1431.7313091230467
 30
0.0
 41
1.0
 10
436.04758996675906
 20
-1431.7379417134691
 30
0.0
 41
1.0
 10
436.0460360413025
 20
-1431.7445743038916
 30
0.0
 41
1.0
 10
436.00775718959528
 20
-1431.907959197385
 30
0.0
 41
0.9999955237679363
 10
435.96850131161074
 20
-1432.0711121010086
 30
0.0
 41
1.0
 10
435.95621967597754
 20
-1432.1221562915266
 30
0.0
 41
1.0
 10
435.94393804034428
 20
-1432.1732004820449
 30
0.0
 41
1.0
 10
435.88011889111255
 20
-1432.4384417666247
 30
0.0
 41
0.9999993604331405
 10
435.81569994393573
 20
-1432.7035380173456
 30
0.0
 41
1.0
 10
435.81098110838434
 20
-1432.7229569254039
 30
0.0
 41
1.0
 10
435.80626227283301
 20
-1432.7423758334621
 30
0.0
 41
1.0
 10
435.73240565457343
 20
-1433.0463099002181
 30
0.0
 41
0.9999659914729927
 10
435.65354605868714
 20
-1433.3489844467808
 30
0.0
 41
1.0
 10
435.64859336975655
 20
-1433.3679935839632
 30
0.0
 41
1.0
 10
435.64364068082597
 20
-1433.3870027211453
 30
0.0
 41
1.0
 10
435.55487570708169
 20
-1433.7276955420607
 30
0.0
 41
0.9999441976029341
 10
435.4589326741168
 20
-1434.0664369673646
 30
0.0
 41
1.0
 10
435.44223215569139
 20
-1434.1254006798918
 30
0.0
 41
1.0
 10
435.42553163726603
 20
-1434.184364392419
 30
0.0
 41
1.0
 10
435.29618756745094
 20
-1434.6410332427743
 30
0.0
 41
0.9999625120740077
 10
435.15895480012568
 20
-1435.095393776777
 30
0.0
 41
1.0
 10
435.12316485704241
 20
-1435.2138898034052
 30
0.0
 41
1.0
 10
435.08737491395908
 20
-1435.3323858300334
 30
0.0
 41
1.0
 10
435.01285470992013
 20
-1435.5791129081285
 30
0.0
 41
0.9999793386324082
 10
434.93516868678347
 20
-1435.8248615473615
 30
0.0
 41
1.0
 10
434.8574826636459
 20
-1436.0706101865976
 30
0.0
 41
1.0
 10
434.8467031047752
 20
-1436.1046280909723
 30
0.0
 41
1.0
 10
432.99633005150605
 20
-1441.9917000134396
 30
0.0
 41
1.0
 10
431.1459569982369
 20
-1447.8787719359073
 30
0.0
 41
1.0
 10
430.18470030821334
 20
-1447.8787719359073
 30
0.0
 41
1.0
 10
429.22344361818978
 20
-1447.8787719359073
 30
0.0
 41
1.0
 10
430.84238839686822
 20
-1442.7307434341178
 30
0.0
 41
1.0
 10
432.46133317554666
 20
-1437.5827149323284
 30
0.0
 41
1.0
 10
432.50649899871701
 20
-1437.4386837100712
 30
0.0
 41
1.0
 10
432.5516648218873
 20
-1437.2946524878141
 30
0.0
 41
1.0
 10
432.7219692392589
 20
-1436.7515614586232
 30
0.0
 41
0.9999911657905195
 10
432.88770205093823
 20
-1436.2070579272624
 30
0.0
 41
1.0
 10
432.91739799444224
 20
-1436.1094939872003
 30
0.0
 41
1.0
 10
432.94709393794619
 20
-1436.0119300471381
 30
0.0
 41
1.0
 10
433.05343486262353
 20
-1435.6625543958826
 30
0.0
 41
0.9999952428112318
 10
433.15761845194339
 20
-1435.3125293715493
 30
0.0
 41
1.0
 10
433.16267792227416
 20
-1435.29553109728
 30
0.0
 41
1.0
 10
433.16773739260486
 20
-1435.2785328230107
 30
0.0
 41
1.0
 10
433.26180204126831
 20
-1434.9625043471995
 30
0.0
 41
0.9999931687506789
 10
433.35352787914201
 20
-1434.6457891339292
 30
0.0
 41
1.0
 10
433.35846314359969
 20
-1434.6287484246643
 30
0.0
 41
1.0
 10
433.36339840805744
 20
-1434.6117077153995
 30
0.0
 41
1.0
 10
433.44525371701593
 20
-1434.3290739206577
 30
0.0
 41
0.9999893840786072
 10
433.5245009434725
 20
-1434.0456977914121
 30
0.0
 41
1.0
 10
433.60374816993146
 20
-1433.7623216621582
 30
0.0
 41
0.999983398007309
 10
433.67972441067508
 20
-1433.478051079122
 30
0.0
 41
1.0
 10
433.68872834739523
 20
-1433.4443622006515
 30
0.0
 41
1.0
 10
433.69773228411532
 20
-1433.4106733221813
 30
0.0
 41
1.0
 10
433.76669683298212
 20
-1433.1526374898829
 30
0.0
 41
0.9999233658067398
 10
433.82925180420284
 20
-1432.8929733311591
 30
0.0
 41
1.0
 10
433.89180677542311
 20
-1432.6333091724366
 30
0.0
 41
1.0
 10
433.93129019428068
 20
-1432.4695025080105
 30
0.0
 41
1.0
 10
433.93626879825797
 20
-1432.4488475461401
 30
0.0
 41
1.0
 10
433.94124740223521
 20
-1432.4281925842697
 30
0.0
 41
1.0
 10
433.97077361313762
 20
-1432.3056958435868
 30
0.0
 41
0.9999868670879193
 10
433.99904269713443
 20
-1432.1829028979389
 30
0.0
 41
1.0
 10
434.00294018429236
 20
-1432.1659733105209
 30
0.0
 41
1.0
 10
434.00683767145034
 20
-1432.149043723103
 30
0.0
 41
1.0
 10
434.02731178113208
 20
-1432.0601099522869
 30
0.0
 41
0.9999778173338403
 10
434.04659937924606
 20
-1431.970911335063
 30
0.0
 41
1.0
 10
434.0658869773618
 20
-1431.8817127178309
 30
0.0
 41
0.9999602692859563
 10
434.0835813359916
 20
-1431.7921844294094
 30
0.0
 41
1.0
 10
434.08678516806958
 20
-1431.775973974522
 30
0.0
 41
1.0
 10
434.08998900014751
 20
-1431.7597635196348
 30
0.0
 41
1.0
 10
434.11409102293322
 20
-1431.6378143214381
 30
0.0
 41
0.9995617985320694
 10
434.13093437015215
 20
-1431.5146525737321
 30
0.0
 41
1.0
 10
434.13339886005849
 20
-1431.4966317563653
 30
0.0
 41
1.0
 10
434.13586334996489
 20
-1431.4786109389988
 30
0.0
 41
1.0
 10
434.15614661101307
 20
-1431.3302958892973
 30
0.0
 41
0.9991121410639873
 10
434.1638719646013
 20
-1431.1807997904925
 30
0.0
 41
1.0
 10
434.16479075462581
 20
-1431.163019953917
 30
0.0
 41
1.0
 10
434.16570954465033
 20
-1431.1452401173415
 30
0.0
 41
1.0
 10
434.17159731818936
 20
-1431.0313036916882
 30
0.0
 41
0.998979249490612
 10
434.16717822607222
 20
-1430.9173008557877
 30
0.0
 41
1.0
 10
434.16653025420351
 20
-1430.9005846098598
 30
0.0
 41
1.0
 10
434.16588228233485
 20
-1430.8838683639319
 30
0.0
 41
1.0
 10
434.16275913395492
 20
-1430.80329801989
 30
0.0
 41
0.9997820295393495
 10
434.15627513657921
 20
-1430.7229282981455
 30
0.0
 41
1.0
 10
434.14979113920339
 20
-1430.6425585763993
 30
0.0
 41
0.9998335105972642
 10
434.1403789436917
 20
-1430.5624789599501
 30
0.0
 41
1.0
 10
434.13878401901542
 20
-1430.5489092294677
 30
0.0
 41
1.0
 10
434.13718909433913
 20
-1430.5353394989852
 30
0.0
 41
1.0
 10
434.12458704947454
 20
-1430.4281204215681
 30
0.0
 41
0.9996876457879285
 10
434.10664313667644
 20
-1430.3216649938533
 30
0.0
 41
1.0
 10
434.10441147353106
 20
-1430.3084252586111
 30
0.0
 41
1.0
 10
434.10217981038568
 20
-1430.2951855233689
 30
0.0
 41
1.0
 10
434.08838398896501
 20
-1430.2133393794127
 30
0.0
 41
0.9995547496495505
 10
434.06973066707212
 20
-1430.13246188222
 30
0.0
 41
1.0
 10
434.06935671020074
 20
-1430.1308404715141
 30
0.0
 41
1.0
 10
434.06898275332935
 20
-1430.1292190608083
 30
0.0
 41
1.0
 10
434.05107734517912
 20
-1430.0515843850278
 30
0.0
 41
0.9994899427175847
 10
434.02825243650017
 20
-1429.9752511021943
 30
0.0
 41
1.0
 10
434.02779390975957
 20
-1429.9737176524063
 30
0.0
 41
1.0
 10
434.02733538301896
 20
-1429.9721842026181
 30
0.0
 41
1.0
 10
434.00542752782076
 20
-1429.8989178193599
 30
0.0
 41
0.9993784877591123
 10
433.97841189271423
 20
-1429.827377114201
 30
0.0
 41
1.0
 10
433.97788020173738
 20
-1429.8259691314806
 30
0.0
 41
1.0
 10
433.97734851076052
 20
-1429.8245611487603
 30
0.0
 41
1.0
 10
433.9513962576072
 20
-1429.7558364090412
 30
0.0
 41
0.9992430832254549
 10
433.92017972244827
 20
-1429.6893372569737
 30
0.0
 41
1.0
 10
433.91959760639168
 20
-1429.6880972018562
 30
0.0
 41
1.0
 10
433.91901549033503
 20
-1429.6868571467389
 30
0.0
 41
1.0
 10
433.88896318728905
 20
-1429.6228381049054
 30
0.0
 41
0.9990789632797881
 10
433.85353256051224
 20
-1429.5616314931558
 30
0.0
 41
1.0
 10
433.85293685433032
 20
-1429.5606024072968
 30
0.0
 41
1.0
 10
433.85234114814847
 20
-1429.5595733214379
 30
0.0
 41
1.0
 10
433.81810193373491
 20
-1429.5004248814053
 30
0.0
 41
0.9988874801120212
 10
433.77844265770347
 20
-1429.4447651689884
 30
0.0
 41
1.0
 10
433.77788713163926
 20
-1429.4439855173136
 30
0.0
 41
1.0
 10
433.77733160557506
 20
-1429.4432058656391
 30
0.0
 41
1.0
 10
433.73878338167083
 20
-1429.3891054565697
 30
0.0
 41
0.9986762060693126
 10
433.69488091039528
 20
-1429.3392517421312
 30
0.0
 41
1.0
 10
433.69443695006396
 20
-1429.3387476003154
 30
0.0
 41
1.0
 10
433.69399298973264
 20
-1429.3382434584998
 30
0.0
 41
1.0
 10
433.65097843912054
 20
-1429.2893980276936
 30
0.0
 41
0.9984621642489207
 10
433.60282088234129
 20
-1429.245614727221
 30
0.0
 41
1.0
 10
433.60257424782344
 20
-1429.2453904950562
 30
0.0
 41
1.0
 10
433.60232761330553
 20
-1429.2451662628916
 30
0.0
 41
1.0
 10
433.55466332556244
 20
-1429.2018314267491
 30
0.0
 41
0.9982724693850967
 10
433.50224469372205
 20
-1429.1643870762323
 30
0.0
 41
1.0
 10
433.44982606188131
 20
-1429.126942725715
 30
0.0
 41
0.9981399180159242
 10
433.39323999848949
 20
-1429.0961562062723
 30
0.0
 41
1.0
 10
433.39319433640992
 20
-1429.0961313631146
 30
0.0
 41
1.0
 10
433.39314867433035
 20
-1429.0961065199567
 30
0.0
 41
1.0
 10
433.33647128677933
 20
-1429.0652703141984
 30
0.0
 41
0.9980927086835633
 10
433.27642593571278
 20
-1429.0416535053462
 30
0.0
 41
1.0
 10
433.27598576600155
 20
-1429.0414803794713
 30
0.0
 41
1.0
 10
433.27554559629033
 20
-1429.0413072535964
 30
0.0
 41
1.0
 10
433.21461990580099
 20
-1429.0173441929942
 30
0.0
 41
0.9981411356562342
 10
433.15123138440146
 20
-1429.0009715514884
 30
0.0
 41
1.0
 10
433.15034926769988
 20
-1429.0007437092829
 30
0.0
 41
1.0
 10
433.1494671509983
 20
-1429.0005158670774
 30
0.0
 41
1.0
 10
433.08431439619608
 20
-1428.9836875411609
 30
0.0
 41
0.9983031812935237
 10
433.01764696720113
 20
-1428.9745481799846
 30
0.0
 41
1.0
 10
433.00877594179684
 20
-1428.9733320613132
 30
0.0
 41
1.0
 10
432.99990491639255
 20
-1428.9721159426419
 30
0.0
 41
1.0
 10
432.94555527388889
 20
-1428.9646652126507
 30
0.0
 41
0.9983887708263299
 10
432.89071142459647
 20
-1428.9634205390175
 30
0.0
 41
1.0
 10
432.88264801937953
 20
-1428.9632375411427
 30
0.0
 41
1.0
 10
432.87458461416259
 20
-1428.9630545432678
 30
0.0
 41
1.0
 10
432.83586757530412
 20
-1428.9621758653843
 30
0.0
 41
0.9998869563080606
 10
432.79714162210098
 20
-1428.962461734744
 30
0.0
 41
1.0
 10
432.75841566889557
 20
-1428.9627476041037
 30
0.0
 41
0.9999972320116627
 10
432.71969148968168
 20
-1428.9632157036328
 30
0.0
 41
1.0
 10
432.70033847310458
 20
-1428.963449643722
 30
0.0
 41
1.0
 10
432.68098545652754
 20
-1428.9636835838114
 30
0.0
 41
1.0
 10
432.60355524416059
 20
-1428.9646195635194
 30
0.0
 41
0.9997304945087697
 10
432.52625193792687
 20
-1428.9691486573051
 30
0.0
 41
1.0
 10
432.51720229621878
 20
-1428.9696788632953
 30
0.0
 41
1.0
 10
432.5081526545107
 20
-1428.9702090692854
 30
0.0
 41
1.0
 10
432.41275006486495
 20
-1428.9757985750512
 30
0.0
 41
0.9997888306415498
 10
432.31765772902264
 20
-1428.9853035395402
 30
0.0
 41
1.0
 10
432.30893666744953
 20
-1428.9861752541724
 30
0.0
 41
1.0
 10
432.30021560587647
 20
-1428.9870469688044
 30
0.0
 41
1.0
 10
432.18768114688731
 20
-1428.9982953625579
 30
0.0
 41
0.9984170238191076
 10
432.077121999535
 20
-1429.0221114444939
 30
0.0
 41
1.0
 10
432.04074086854985
 20
-1429.0299484802999
 30
0.0
 41
1.0
 10
432.00435973756464
 20
-1429.0377855161057
 30
0.0
 41
1.0
 10
431.88916866914292
 20
-1429.0625993826154
 30
0.0
 41
0.9976592854199368
 10
431.77844050273768
 20
-1429.1028980597625
 30
0.0
 41
1.0
 10
431.6677123363333
 20
-1429.1431967369094
 30
0.0
 41
0.9993255074352546
 10
431.56024053754248
 20
-1429.1915136354019
 30
0.0
 41
1.0
 10
431.55561535861887
 20
-1429.1935930116017
 30
0.0
 41
1.0
 10
431.5509901796953
 20
-1429.1956723878016
 30
0.0
 41
1.0
 10
431.43426802305828
 20
-1429.2481480386934
 30
0.0
 41
0.9976475078275404
 10
431.32582067874847
 20
-1429.3160960283515
 30
0.0
 41
1.0
 10
431.30747828461267
 20
-1429.3275885071666
 30
0.0
 41
1.0
 10
431.28913589047687
 20
-1429.3390809859818
 30
0.0
 41
1.0
 10
431.20493369892637
 20
-1429.391838106749
 30
0.0
 41
0.9995131336406795
 10
431.12418598396835
 20
-1429.4497443187026
 30
0.0
 41
1.0
 10
431.04343826901186
 20
-1429.5076505306552
 30
0.0
 41
0.9995810107606428
 10
430.96617662128369
 20
-1429.5701322131206
 30
0.0
 41
1.0
 10
430.96320659007284
 20
-1429.5725340845856
 30
0.0
 41
1.0
 10
430.96023655886199
 20
-1429.5749359560509
 30
0.0
 41
1.0
 10
430.87703484871327
 20
-1429.6422213814456
 30
0.0
 41
0.9996617837954182
 10
430.79744416157803
 20
-1429.7137418370055
 30
0.0
 41
1.0
 10
430.78531341070072
 20
-1429.7246425699964
 30
0.0
 41
1.0
 10
430.77318265982342
 20
-1429.7355433029875
 30
0.0
 41
1.0
 10
430.70490713242521
 20
-1429.7968959184614
 30
0.0
 41
0.9997267750052283
 10
430.63957362414254
 20
-1429.8613724549855
 30
0.0
 41
1.0
 10
430.57424011586403
 20
-1429.9258489915057
 30
0.0
 41
0.9999667288958724
 10
430.50996717271858
 20
-1429.9913827983989
 30
0.0
 41
1.0
 10
430.44113972494029
 20
-1430.0615604571603
 30
0.0
 41
1.0
 10
430.37231227716194
 20
-1430.131738115922
 30
0.0
 41
1.0
 10
430.17038443846582
 20
-1430.337627240332
 30
0.0
 41
0.9988205335175466
 10
429.98937882148618
 20
-1430.5621314723926
 30
0.0
 41
1.0
 10
429.95873885658125
 20
-1430.600134722823
 30
0.0
 41
1.0
 10
429.92809889167626
 20
-1430.6381379732532
 30
0.0
 41
1.0
 10
429.68581334488863
 20
-1430.938648706172
 30
0.0
 41
0.9997077826754744
 10
429.45833539378361
 20
-1431.2505185003879
 30
0.0
 41
1.0
 10
429.4566119786524
 20
-1431.2528812837686
 30
0.0
 41
1.0
 10
429.45488856352119
 20
-1431.2552440671491
 30
0.0
 41
1.0
 10
429.22396378215524
 20
-1431.5718394281243
 30
0.0
 41
0.9989147567078863
 10
429.02350027927099
 20
-1431.9085488893104
 30
0.0
 41
1.0
 10
428.99875913396295
 20
-1431.9501054698646
 30
0.0
 41
1.0
 10
428.97401798865485
 20
-1431.9916620504189
 30
0.0
 41
1.0
 10
428.81880669001964
 20
-1432.2523634348679
 30
0.0
 41
0.9997476598181688
 10
428.67546170251069
 20
-1432.5197731834494
 30
0.0
 41
1.0
 10
428.53211671500094
 20
-1432.787182932032
 30
0.0
 41
0.999625896710991
 10
428.4036084630709
 20
-1433.0620308686525
 30
0.0
 41
1.0
 10
428.39040855361884
 20
-1433.0902622687533
 30
0.0
 41
1.0
 10
428.37720864416673
 20
-1433.1184936688542
 30
0.0
 41
1.0
 10
428.23699992316813
 20
-1433.4183660668045
 30
0.0
 41
0.9998735413946269
 10
428.10639857644958
 20
-1433.7225456662682
 30
0.0
 41
1.0
 10
428.10295574838943
 20
-1433.7305642517322
 30
0.0
 41
1.0
 10
428.09951292032929
 20
-1433.738582837196
 30
0.0
 41
1.0
 10
427.9757972297291
 20
-1434.0267252657363
 30
0.0
 41
0.9999377418858357
 10
427.85854242755448
 20
-1434.317556733411
 30
0.0
 41
1.0
 10
427.7412876253826
 20
-1434.6083882010787
 30
0.0
 41
0.9999508299504756
 10
427.62982368200602
 20
-1434.9014878778974
 30
0.0
 41
1.0
 10
427.6267429133415
 20
-1434.9095889038667
 30
0.0
 41
1.0
 10
427.62366214467698
 20
-1434.9176899298359
 30
0.0
 41
1.0
 10
427.50603666397751
 20
-1435.2269916585774
 30
0.0
 41
0.999960922843429
 10
427.39389806110296
 20
-1435.5383246745942
 30
0.0
 41
1.0
 10
427.39094205075219
 20
-1435.5465315150068
 30
0.0
 41
1.0
 10
427.38798604040142
 20
-1435.5547383554194
 30
0.0
 41
1.0
 10
427.2699354168293
 20
-1435.882485052251
 30
0.0
 41
0.9999674607403081
 10
427.15718789075862
 20
-1436.2120936722531
 30
0.0
 41
1.0
 10
427.10578950019681
 20
-1436.3623528679432
 30
0.0
 41
1.0
 10
427.05439110963493
 20
-1436.512612063633
 30
0.0
 41
1.0
 10
426.93838050287764
 20
-1436.8517600461341
 30
0.0
 41
0.9999287532308926
 10
426.83049909890639
 20
-1437.1935807851119
 30
0.0
 41
1.0
 10
426.78402184275535
 20
-1437.3408433295203
 30
0.0
 41
1.0
 10
426.73754458660437
 20
-1437.488105873929
 30
0.0
 41
1.0
 10
426.7226176948933
 20
-1437.5354015242217
 30
0.0
 41
0.9999998223246115
 10
426.70774718620521
 20
-1437.5827149323284
 30
0.0
 41
1.0
 10
425.08709104940976
 20
-1442.7307434341178
 30
0.0
 41
1.0
 10
423.46643491261432
 20
-1447.8787719359073
 30
0.0
 41
1.0
 10
422.56112646872339
 20
-1447.8787719359073
 30
0.0
 41
1.0
 10
421.65581802483246
 20
-1447.8787719359073
 30
0.0
 41
1.0
 10
423.5079024362185
 20
-1441.9917000134396
 30
0.0
 41
1.0
 10
425.35998684760455
 20
-1436.1046280909723
 30
0.0
 41
1.0
 10
425.37010860590726
 20
-1436.0725848775226
 30
0.0
 41
1.0
 10
425.442716274757
 20
-1435.8422853356967
 30
0.0
 41
1.0
 10
425.51532394360936
 20
-1435.6119857938625
 30
0.0
 41
0.9999825681963346
 10
425.58520698282069
 20
-1435.3808448987979
 30
0.0
 41
1.0
 10
425.63349804497898
 20
-1435.2211203153104
 30
0.0
 41
1.0
 10
425.68178910713721
 20
-1435.0613957318228
 30
0.0
 41
1.0
 10
425.77894146045446
 20
-1434.7400605100461
 30
0.0
 41
0.9999672528967381
 10
425.8708802660791
 20
-1434.417194964456
 30
0.0
 41
1.0
 10
425.8736691497478
 20
-1434.4074011190698
 30
0.0
 41
1.0
 10
425.87645803341644
 20
-1434.3976072736837
 30
0.0
 41
1.0
 10
425.96281907170379
 20
-1434.0943294188651
 30
0.0
 41
0.9999899749148475
 10
426.04646068123714
 20
-1433.7902903304171
 30
0.0
 41
1.0
 10
426.05656660025545
 20
-1433.753555092736
 30
0.0
 41
1.0
 10
426.06667251927371
 20
-1433.7168198550548
 30
0.0
 41
1.0
 10
426.13010229077213
 20
-1433.4862512419638
 30
0.0
 41
0.999921420050386
 10
426.18773171914955
 20
-1433.2541648997553
 30
0.0
 41
1.0
 10
426.20049757133222
 20
-1433.2027540143508
 30
0.0
 41
1.0
 10
426.21326342351489
 20
-1433.1513431289461
 30
0.0
 41
1.0
 10
426.24536114753016
 20
-1433.0220785575348
 30
0.0
 41
0.9999828681653796
 10
426.2759433995227
 20
-1432.8924470830787
 30
0.0
 41
1.0
 10
426.30652565151769
 20
-1432.7628156086134
 30
0.0
 41
0.9999389844481347
 10
426.33423664030539
 20
-1432.6325401527204
 30
0.0
 41
1.0
 10
426.34137438402661
 20
-1432.5989840488783
 30
0.0
 41
1.0
 10
426.34851212774777
 20
-1432.5654279450364
 30
0.0
 41
1.0
 10
426.39049860397688
 20
-1432.3680402814637
 30
0.0
 41
0.9998933699439709
 10
426.42670286837944
 20
-1432.1695106737038
 30
0.0
 41
1.0
 10
426.42807569359593
 20
-1432.1619826530068
 30
0.0
 41
1.0
 10
426.42944851881236
 20
-1432.1544546323096
 30
0.0
 41
1.0
 10
426.46839843364745
 20
-1431.9408689831573
 30
0.0
 41
0.9996850305193453
 10
426.49658210990674
 20
-1431.7255979777158
 30
0.0
 41
1.0
 10
426.49857714327572
 20
-1431.7103596235961
 30
0.0
 41
1.0
 10
426.50057217664471
 20
-1431.6951212694764
 30
0.0
 41
1.0
 10
426.52798003910374
 20
-1431.4857760423231
 30
0.0
 41
0.9994697936706396
 10
426.54170459832329
 20
-1431.275090846992
 30
0.0
 41
1.0
 10
426.542181667573
 20
-1431.2677673747808
 30
0.0
 41
1.0
 10
426.54265873682266
 20
-1431.2604439025697
 30
0.0
 41
1.0
 10
426.55542915754285
 20
-1431.0644056516621
 30
0.0
 41
0.9991804893137021
 10
426.5523008412701
 20
-1430.8679768016877
 30
0.0
 41
1.0
 10
426.55221696244797
 20
-1430.862710000275
 30
0.0
 41
1.0
 10
426.55213308362585
 20
-1430.857443198862
 30
0.0
 41
1.0
 10
426.54917252499735
 20
-1430.6715479517145
 30
0.0
 41
0.9988448329321484
 10
426.52838097937354
 20
-1430.4867953618809
 30
0.0
 41
1.0
 10
426.52678690567052
 20
-1430.4726305061101
 30
0.0
 41
1.0
 10
426.52519283196756
 20
-1430.4584656503393
 30
0.0
 41
1.0
 10
426.50758943375007
 20
-1430.3020427720494
 30
0.0
 41
0.9985503209458702
 10
426.47327316145021
 20
-1430.1484185879583
 30
0.0
 41
1.0
 10
426.46568716937884
 20
-1430.1144582605575
 30
0.0
 41
1.0
 10
426.45810117730747
 20
-1430.0804979331565
 30
0.0
 41
1.0
 10
426.43895688915046
 20
-1429.9947944038684
 30
0.0
 41
0.9991036781370613
 10
426.41263202749946
 20
-1429.9110173165441
 30
0.0
 41
1.0
 10
426.40864980204395
 20
-1429.8983441540349
 30
0.0
 41
1.0
 10
426.40466757658845
 20
-1429.885670991526
 30
0.0
 41
1.0
 10
426.38630716584754
 20
-1429.8272402292166
 30
0.0
 41
0.9998874504367541
 10
426.36620195816982
 20
-1429.7693866269958
 30
0.0
 41
1.0
 10
426.34609675049097
 20
-1429.7115330247711
 30
0.0
 41
0.9994041637543331
 10
426.32204813755715
 20
-1429.6552043208828
 30
0.0
 41
1.0
 10
426.31785135333325
 20
-1429.6453742564013
 30
0.0
 41
1.0
 10
426.31365456910942
 20
-1429.6355441919197
 30
0.0
 41
1.0
 10
426.28577573811503
 20
-1429.5702440259531
 30
0.0
 41
0.999184684070293
 10
426.25271938142146
 20
-1429.5074059946714
 30
0.0
 41
1.0
 10
426.25158277502629
 20
-1429.5052453782164
 30
0.0
 41
1.0
 10
426.25044616863113
 20
-1429.5030847617616
 30
0.0
 41
1.0
 10
426.21966302472788
 20
-1429.4445679633905
 30
0.0
 41
0.9989253167923532
 10
426.18359360067342
 20
-1429.3891530350011
 30
0.0
 41
1.0
 10
426.18253947599931
 20
-1429.387533540239
 30
0.0
 41
1.0
 10
426.18148535132514
 20
-1429.3859140454767
 30
0.0
 41
1.0
 10
426.14752417661856
 20
-1429.3337381066108
 30
0.0
 41
0.9986467172834936
 10
426.10832702398108
 20
-1429.2853720729813
 30
0.0
 41
1.0
 10
426.10745289528063
 20
-1429.2842934707035
 30
0.0
 41
1.0
 10
426.10657876658024
 20
-1429.2832148684256
 30
0.0
 41
1.0
 10
426.06912987134444
 20
-1429.2370060393525
 30
0.0
 41
0.9984001104268463
 10
426.0267031408265
 20
-1429.1953209319827
 30
0.0
 41
1.0
 10
426.02611600271757
 20
-1429.1947440571018
 30
0.0
 41
1.0
 10
426.02552886460865
 20
-1429.194167182221
 30
0.0
 41
1.0
 10
425.98427641031003
 20
-1429.1536358246146
 30
0.0
 41
0.9982442159084229
 10
425.93852030897375
 20
-1429.1182672633538
 30
0.0
 41
1.0
 10
425.9383055135113
 20
-1429.1181012307102
 30
0.0
 41
1.0
 10
425.93809071804878
 20
-1429.1179351980663
 30
0.0
 41
1.0
 10
425.89276420763753
 20
-1429.0828987020932
 30
0.0
 41
0.9982450060834983
 10
425.84361322856637
 20
-1429.0534669190602
 30
0.0
 41
1.0
 10
425.79446224949578
 20
-1429.0240351360271
 30
0.0
 41
0.9983922639635081
 10
425.74229594333207
 20
-1429.0003555013734
 30
0.0
 41
1.0
 10
425.74206906600648
 20
-1429.0002525158916
 30
0.0
 41
1.0
 10
425.74184218868083
 20
-1429.0001495304095
 30
0.0
 41
1.0
 10
425.68922212786521
 20
-1428.9762639247917
 30
0.0
 41
0.9986517147149117
 10
425.63440915499558
 20
-1428.9579628056697
 30
0.0
 41
1.0
 10
425.63373123356951
 20
-1428.9577364592387
 30
0.0
 41
1.0
 10
425.63305331214343
 20
-1428.957510112808
 30
0.0
 41
1.0
 10
425.57688449641972
 20
-1428.9387563008233
 30
0.0
 41
0.9989435598956598
 10
425.51923110926839
 20
-1428.9252385985887
 30
0.0
 41
1.0
 10
425.51815098968666
 20
-1428.9249853483357
 30
0.0
 41
1.0
 10
425.51707087010499
 20
-1428.9247320980828
 30
0.0
 41
1.0
 10
425.45725724379088
 20
-1428.9107078953425
 30
0.0
 41
0.9992249241239366
 10
425.39652573489428
 20
-1428.9014325526275
 30
0.0
 41
1.0
 10
425.39511204660255
 20
-1428.9012166442194
 30
0.0
 41
1.0
 10
425.39369835831076
 20
-1428.9010007358115
 30
0.0
 41
1.0
 10
425.33013947283325
 20
-1428.8912935762808
 30
0.0
 41
0.9994396597833926
 10
425.26607353629834
 20
-1428.8858606539352
 30
0.0
 41
1.0
 10
425.24693286881853
 20
-1428.8842374862163
 30
0.0
 41
1.0
 10
425.22779220133873
 20
-1428.8826143184974
 30
0.0
 41
1.0
 10
425.12544492984631
 20
-1428.8739350607145
 30
0.0
 41
0.9987693403121644
 10
425.02274130625938
 20
-1428.8754381241672
 30
0.0
 41
1.0
 10
425.01248697203039
 20
-1428.8755881959414
 30
0.0
 41
1.0
 10
425.00223263780134
 20
-1428.8757382677159
 30
0.0
 41
1.0
 10
424.89267687162419
 20
-1428.877341612003
 30
0.0
 41
0.998975364496553
 10
424.78371487160928
 20
-1428.888844618928
 30
0.0
 41
1.0
 10
424.67475287159357
 20
-1428.9003476258533
 30
0.0
 41
0.9983190067306469
 10
424.56785406062903
 20
-1428.9243826176398
 30
0.0
 41
1.0
 10
424.55895310902167
 20
-1428.9263838962027
 30
0.0
 41
1.0
 10
424.55005215741437
 20
-1428.9283851747655
 30
0.0
 41
1.0
 10
424.42535144323728
 20
-1428.9564227236772
 30
0.0
 41
0.9985539388303643
 10
424.30438168956113
 20
-1428.9976863997219
 30
0.0
 41
1.0
 10
424.30203625859923
 20
-1428.9984864435382
 30
0.0
 41
1.0
 10
424.29969082763733
 20
-1428.9992864873548
 30
0.0
 41
1.0
 10
424.17403021203995
 20
-1429.0421502510317
 30
0.0
 41
0.9988468746493974
 10
424.0530598697398
 20
-1429.0968683360941
 30
0.0
 41
1.0
 10
424.04987704775044
 20
-1429.0983080106544
 30
0.0
 41
1.0
 10
424.04669422576114
 20
-1429.0997476852144
 30
0.0
 41
1.0
 10
423.91935823948313
 20
-1429.1573451193967
 30
0.0
 41
0.9991322885919358
 10
423.79725765542599
 20
-1429.2253404515789
 30
0.0
 41
1.0
 10
423.77965564438216
 20
-1429.2351426535686
 30
0.0
 41
1.0
 10
423.76205363333838
 20
-1429.2449448555583
 30
0.0
 41
1.0
 10
423.65987695228165
 20
-1429.3018449713388
 30
0.0
 41
0.9993860037849914
 10
423.5619359482082
 20
-1429.3657609869274
 30
0.0
 41
1.0
 10
423.55631763535814
 20
-1429.3694274816207
 30
0.0
 41
1.0
 10
423.55069932250802
 20
-1429.3730939763143
 30
0.0
 41
1.0
 10
423.46399494413697
 20
-1429.4296770025144
 30
0.0
 41
0.9998821494951939
 10
423.379068568322
 20
-1429.4888952325928
 30
0.0
 41
1.0
 10
423.29414219250896
 20
-1429.5481134626696
 30
0.0
 41
0.9997976482744767
 10
423.21166656210727
 20
-1429.6106998707098
 30
0.0
 41
1.0
 10
423.19703029730147
 20
-1429.6218065604903
 30
0.0
 41
1.0
 10
423.18239403249572
 20
-1429.6329132502708
 30
0.0
 41
1.0
 10
423.07064587248504
 20
-1429.71771303787
 30
0.0
 41
0.9998091630800267
 10
422.96229559445925
 20
-1429.8068133885699
 30
0.0
 41
1.0
 10
422.94928984197963
 20
-1429.8175084890179
 30
0.0
 41
1.0
 10
422.93628408949996
 20
-1429.8282035894658
 30
0.0
 41
1.0
 10
422.80192230651755
 20
-1429.9386941410594
 30
0.0
 41
0.9995035112317453
 10
422.67478642875392
 20
-1430.0574279580746
 30
0.0
 41
1.0
 10
422.6651391183666
 20
-1430.0664377042326
 30
0.0
 41
1.0
 10
422.65549180797927
 20
-1430.0754474503904
 30
0.0
 41
1.0
 10
422.53206874521385
 20
-1430.1907138221463
 30
0.0
 41
0.9994630424299388
 10
422.41646033943044
 20
-1430.3138165653809
 30
0.0
 41
1.0
 10
422.41277750065956
 20
-1430.3177381448932
 30
0.0
 41
1.0
 10
422.40909466188867
 20
-1430.3216597244057
 30
0.0
 41
1.0
 10
422.30085193364772
 20
-1430.4369193086147
 30
0.0
 41
0.9995160693750402
 10
422.19998590411456
 20
-1430.5586867264888
 30
0.0
 41
1.0
 10
422.19805218403502
 20
-1430.5610211506955
 30
0.0
 41
1.0
 10
422.19611846395549
 20
-1430.5633555749021
 30
0.0
 41
1.0
 10
422.09911987458207
 20
-1430.6804541443619
 30
0.0
 41
0.9996561470514952
 10
422.00839365591673
 20
-1430.8024769068104
 30
0.0
 41
1.0
 10
422.00223599001401
 20
-1430.8107586958538
 30
0.0
 41
1.0
 10
421.99607832411129
 20
-1430.8190404848972
 30
0.0
 41
1.0
 10
421.91766743724884
 20
-1430.9244996692621
 30
0.0
 41
0.9998349055173236
 10
421.84314015531862
 20
-1431.0327382529231
 30
0.0
 41
1.0
 10
421.76861287338983
 20
-1431.1409768365811
 30
0.0
 41
0.9999728109572403
 10
421.69568997747757
 20
-1431.2503027621394
 30
0.0
 41
1.0
 10
421.69437476206519
 20
-1431.252274531643
 30
0.0
 41
1.0
 10
421.69305954665276
 20
-1431.2542463011466
 30
0.0
 41
1.0
 10
421.61750621992894
 20
-1431.3675157656921
 30
0.0
 41
0.9999972147312206
 10
421.54248840955478
 20
-1431.4811406085282
 30
0.0
 41
1.0
 10
421.5375168669276
 20
-1431.4886706970078
 30
0.0
 41
1.0
 10
421.53254532430037
 20
-1431.4962007854874
 30
0.0
 41
1.0
 10
421.44758442868238
 20
-1431.6248858052666
 30
0.0
 41
0.9999371979002418
 10
421.36552907928234
 20
-1431.7554427190371
 30
0.0
 41
1.0
 10
421.36202019491782
 20
-1431.7610256471066
 30
0.0
 41
1.0
 10
421.3585113105533
 20
-1431.766608575176
 30
0.0
 41
1.0
 10
421.26943819242774
 20
-1431.9083313450797
 30
0.0
 41
0.9998272025609636
 10
421.18569480154559
 20
-1432.0532672218221
 30
0.0
 41
1.0
 10
421.17047962952012
 20
-1432.0796003362811
 30
0.0
 41
1.0
 10
421.15526445749464
 20
-1432.1059334507404
 30
0.0
 41
1.0
 10
421.04109072256347
 20
-1432.3035355563977
 30
0.0
 41
0.9995217214837767
 10
420.93935103300691
 20
-1432.5078178842621
 30
0.0
 41
1.0
 10
420.93170747037266
 20
-1432.5231653339633
 30
0.0
 41
1.0
 10
420.92406390773834
 20
-1432.5385127836648
 30
0.0
 41
1.0
 10
420.83715861514838
 20
-1432.7130092417469
 30
0.0
 41
0.9998269762607562
 10
420.75680414887699
 20
-1432.890617528469
 30
0.0
 41
1.0
 10
420.67644968260345
 20
-1433.0682258151958
 30
0.0
 41
0.9998944747388024
 10
420.60128888803871
 20
-1433.2480935408255
 30
0.0
 41
1.0
 10
420.59633521845035
 20
-1433.2599481957361
 30
0.0
 41
1.0
 10
420.59138154886205
 20
-1433.2718028506467
 30
0.0
 41
1.0
 10
420.51073448830505
 20
-1433.4647997906748
 30
0.0
 41
0.9999506734412884
 10
420.43393695940119
 20
-1433.6593605955318
 30
0.0
 41
1.0
 10
420.41933699412948
 20
-1433.6963485173396
 30
0.0
 41
1.0
 10
420.40473702885782
 20
-1433.7333364391477
 30
0.0
 41
1.0
 10
420.35713943049439
 20
-1433.8539214003963
 30
0.0
 41
0.9999912393937276
 10
420.3105529864751
 20
-1433.9749006030838
 30
0.0
 41
1.0
 10
420.2639665424457
 20
-1434.0958798057975
 30
0.0
 41
0.9999927113976809
 10
420.21830524805506
 20
-1434.2172112132903
 30
0.0
 41
1.0
 10
420.20433681665901
 20
-1434.2543281952849
 30
0.0
 41
1.0
 10
420.19036838526296
 20
-1434.2914451772795
 30
0.0
 41
1.0
 10
420.11677022807555
 20
-1434.487010548773
 30
0.0
 41
0.9999487550948071
 10
420.04714660310458
 20
-1434.6840259139533
 30
0.0
 41
1.0
 10
420.02355299316525
 20
-1434.7507892242529
 30
0.0
 41
1.0
 10
419.99995938322593
 20
-1434.8175525345528
 30
0.0
 41
1.0
 10
419.90527374885698
 20
-1435.085486369373
 30
0.0
 41
0.999980843693974
 10
419.81391216021586
 20
-1435.3545718006367
 30
0.0
 41
1.0
 10
419.72255057156985
 20
-1435.6236572319149
 30
0.0
 41
0.9999873932909528
 10
419.63389586285103
 20
-1435.8936465869306
 30
0.0
 41
1.0
 10
419.61380350598432
 20
-1435.9548359196756
 30
0.0
 41
1.0
 10
419.59371114911761
 20
-1436.0160252524204
 30
0.0
 41
1.0
 10
419.46487172666406
 20
-1436.4083932729295
 30
0.0
 41
0.9999794883032807
 10
419.34106894171009
 20
-1436.8023794791939
 30
0.0
 41
1.0
 10
419.32991668226839
 20
-1436.8378700894443
 30
0.0
 41
1.0
 10
419.31876442282669
 20
-1436.8733606996948
 30
0.0
 41
1.0
 10
419.17620625894131
 20
-1437.3270334517433
 30
0.0
 41
0.9999982761746263
 10
419.03533381891509
 20
-1437.7812324739007
 30
0.0
 41
1.0
 10
417.44719348634248
 20
-1442.8300022049038
 30
0.0
 41
1.0
 10
415.85905315376988
 20
-1447.8787719359073
 30
0.0
 41
1.0
 10
414.91030254229349
 20
-1447.8787719359073
 30
0.0
 41
1.0
 10
413.96155193081711
 20
-1447.8787719359073
 30
0.0
 41
1.0
 10
417.1998364169703
 20
-1437.5514497359611
 30
0.0
 41
1.0
 10
420.43812090312349
 20
-1427.224127536015
 30
0.0
 41
1.0
  0
LWPOLYLINE
  5
5D
100
AcDbEntity
  8
0
370
              15
390
0
  6
Continuous
 62
               7
100
AcDbPolyline
 90
      232
 70
             128
 10
394.73457512929645
 20
-1428.3084703675302
 42
0.0004370800689895
 10
394.68169795526995
 20
-1428.377137006727
 10
394.64241372409697
 20
-1428.4282441196829
 42
0.0030481992179154
 10
394.51207500696216
 20
-1428.5999658120481
 10
394.47356333522737
 20
-1428.6513525958153
 42
0.0042058245756163
 10
394.26957828455676
 20
-1428.9283583408901
 10
394.21717316205684
 20
-1429.0007911876696
 42
0.0120948898743634
 10
393.92112924529317
 20
-1429.4315407922222
 10
393.82493674617234
 20
-1429.5790215274455
 42
0.0141601263949637
 10
393.52129269925149
 20
-1430.074690864179
 10
393.48175543182452
 20
-1430.1435348316124
 42
0.0071131081301866
 10
393.27648310858712
 20
-1430.5130376304489
 42
0.0068458791000893
 10
393.08160358174899
 20
-1430.8881291939151
 10
393.07479171928628
 20
-1430.9016909076486
 42
0.0064120880287773
 10
392.87664946924559
 20
-1431.3091153825599
 10
392.86911478372497
 20
-1431.3251272392888
 42
0.0058857236447269
 10
392.66635939185824
 20
-1431.7695033503126
 10
392.65818446555932
 20
-1431.7879935039578
 42
0.0053189741893482
 10
392.44948015289003
 20
-1432.2739569778801
 10
392.44073234721043
 20
-1432.2949388560719
 42
0.0047503650421034
 10
392.22475862105881
 20
-1432.827138289284
 10
392.2154903727116
 20
-1432.8506146653895
 42
0.0042071762174672
 10
391.99094298897694
 20
-1433.4337082594775
 10
391.98119358663519
 20
-1433.4596744343289
 42
0.0036680086486264
 10
391.74673894331784
 20
-1434.0983098188747
 10
391.73653116347532
 20
-1434.1267583532044
 42
0.0032573142627764
 10
391.49089887750705
 20
-1434.8256110129623
 10
391.42224835666912
 20
-1435.0250740970073
 42
0.0026133366647279
 10
391.07380315790994
 20
-1436.0549373806828
 10
391.01054637040841
 20
-1436.2451682160784
 42
0.0020592950742597
 10
390.79668330144216
 20
-1436.8972718686889
 10
390.79363151028213
 20
-1436.9067083570892
 42
0.0025609928535309
 10
390.59181100879323
 20
-1437.5418535794645
 10
390.58921964166285
 20
-1437.5501559204167
 42
0.0031362356242177
 10
390.39972885598962
 20
-1438.1709187765846
 10
390.39759781305878
 20
-1438.1780600828072
 42
0.0037229918029545
 10
390.22079742613585
 20
-1438.78704538477
 10
390.2191188369307
 20
-1438.7929922749399
 42
0.0043077623708926
 10
390.05537803486436
 20
-1439.3928110067131
 42
0.0047654161823879
 10
389.90254931234654
 20
-1439.9954970956233
 10
389.86808470350928
 20
-1440.1370588727655
 42
0.0112969368447236
 10
389.67222034536542
 20
-1441.028751033391
 10
389.64421395626903
 20
-1441.1715790794874
 42
0.0130056762571974
 10
389.44337671262241
 20
-1442.3585201511323
 10
389.42283696247517
 20
-1442.5025982646105
 42
0.0138721532144735
 10
389.31913395793742
 20
-1443.409427750435
 10
389.29983847002973
 20
-1443.6329254723578
 42
0.0071254697009606
 10
389.26649182410694
 20
-1444.0961124812075
 10
389.2615308499432
 20
-1444.1821164757766
 42
0.0028881799202164
 10
389.2463925566538
 20
-1444.47385818561
 42
0.0060297297136999
 10
389.23646035687813
 20
-1444.7658071217318
 10
389.23539807521121
 20
-1444.814199493657
 42
0.0229523164155518
 10
389.24312910299693
 20
-1445.1369543399414
 10
389.24735487651736
 20
-1445.1973578739583
 42
0.0123673300666366
 10
389.26643352303563
 20
-1445.3984785991324
 42
0.012857767447124
 10
389.29562891344165
 20
-1445.5983764490577
 10
389.30275478682893
 20
-1445.6397052636562
 42
0.0285717853763186
 10
389.36724878852436
 20
-1445.9178214149688
 10
389.380917312191
 20
-1445.9644761844468
 42
0.0316283099157048
 10
389.4967278921053
 20
-1446.2834906862727
 10
389.49977658386081
 20
-1446.2904770585983
 42
0.0338984824238275
 10
389.64920829482799
 20
-1446.5780430227874
 10
389.65151702419774
 20
-1446.5818340520632
 42
0.0350228718354651
 10
389.83387731487142
 20
-1446.8388860367402
 10
389.8347625666467
 20
-1446.8399651145046
 42
0.0347476747529405
 10
390.04918725388654
 20
-1447.0671501617244
 42
0.0331337701913106
 10
390.29243057963504
 20
-1447.2632788238029
 10
390.29353067814907
 20
-1447.2640515269741
 42
0.030523331908111
 10
390.56207537372353
 20
-1447.4291796970663
 10
390.56530541822366
 20
-1447.4309037089283
 42
0.0273744481154378
 10
390.85785912979929
 20
-1447.5670418528191
 10
390.86296366493548
 20
-1447.5690854372883
 42
0.024096440619343
 10
391.1784407405799
 20
-1447.6780691635695
 10
391.18502406979115
 20
-1447.6799939032448
 42
0.020963617980938
 10
391.5224242224441
 20
-1447.7634620511769
 10
391.53005668289245
 20
-1447.7650139641783
 42
0.018138870469125
 10
391.88837907489068
 20
-1447.8244300573922
 10
391.89665992326906
 20
-1447.8254962412093
 42
0.0156086547586037
 10
392.2748472874577
 20
-1447.862232427786
 10
392.31804253978504
 20
-1447.8650709302649
 42
0.0137148329021278
 10
392.64571568508381
 20
-1447.8775911855164
 10
392.69165187503381
 20
-1447.8780856186318
 42
0.0051057823885904
 10
392.92779746160204
 20
-1447.8782158730405
 42
0.0052256693316267
 10
393.16389474539875
 20
-1447.873467048576
 10
393.23412152913011
 20
-1447.8713200825623
 42
0.0161507179047743
 10
393.60985860722843
 20
-1447.847669712236
 10
393.62987156760443
 20
-1447.8457595169482
 42
0.0101216737834413
 10
394.04389878909666
 20
-1447.7977665865824
 10
394.07795207852189
 20
-1447.793118889773
 42
0.0245291776398197
 10
394.55474173407487
 20
-1447.7040438116965
 10
394.63956504959827
 20
-1447.6838478913508
 42
0.0143509212556225
 10
394.99619615353663
 20
-1447.5880432575723
 42
0.0156557857035162
 10
395.34641221826189
 20
-1447.4710320417541
 10
395.35391343275853
 20
-1447.4682618799993
 42
0.017013733362959
 10
395.71050942844175
 20
-1447.3226042651272
 10
395.71761335084739
 20
-1447.3194164295644
 42
0.018310536441182
 10
396.07696301901194
 20
-1447.142081387741
 10
396.08390978365242
 20
-1447.1383309528678
 42
0.0194899958155009
 10
396.44239052463632
 20
-1446.9263519709771
 10
396.44940440397312
 20
-1446.9218266286821
 42
0.0204869852949749
 10
396.80341870606543
 20
-1446.6723066135976
 10
396.81068431465405
 20
-1446.6667265482479
 42
0.0212516938559099
 10
397.15667424576327
 20
-1446.3768225513522
 10
397.20319093983625
 20
-1446.3343552412612
 42
0.0215248918248858
 10
397.46321710872536
 20
-1446.0755909622653
 10
397.50824684310919
 20
-1446.026746840912
 42
0.0114578554955079
 10
397.66303899678331
 20
-1445.8509239074569
 10
397.67423353277229
 20
-1445.8376051439088
 42
0.0061531305143844
 10
397.80070817876435
 20
-1445.6833156106059
 42
0.0006325587122823
 10
397.92508666296993
 20
-1445.5273122348626
 10
397.94812679796763
 20
-1445.4983387142709
 42
0.0041897761557883
 10
398.11658220194312
 20
-1445.2828193382054
 10
398.1750443218325
 20
-1445.2067179912237
 42
0.0092993880038813
 10
398.45165624905491
 20
-1444.8324392273419
 10
398.53405074225577
 20
-1444.7165022237705
 42
0.0159321727088593
 10
398.8806572248975
 20
-1444.1943280030152
 10
398.92501336028931
 20
-1444.1226484387607
 42
0.0085547317022446
 10
399.15952512561233
 20
-1443.7287734895406
 42
0.0084601156890173
 10
399.3805013030551
 20
-1443.3271466405074
 10
399.38861677688476
 20
-1443.3117869582354
 42
0.008142965428466
 10
399.61186604731921
 20
-1442.8720654457006
 10
399.62072621150628
 20
-1442.8538866036752
 42
0.0076574581327599
 10
399.84713372207523
 20
-1442.3707037284173
 10
399.85661336279668
 20
-1442.3496392501193
 42
0.0070682724200512
 10
400.08705827060606
 20
-1441.8176019453315
 10
400.09704855458517
 20
-1441.7936127563262
 42
0.0064559514448683
 10
400.33238176276592
 20
-1441.2073004898098
 10
400.34279112093185
 20
-1441.1803655643653
 42
0.0058311413905208
 10
400.58383785769252
 20
-1440.5343334699871
 10
400.59459293508212
 20
-1440.5044491288209
 42
0.0052312425819561
 10
400.84217421312724
 20
-1439.793246714974
 10
400.8532180495028
 20
-1439.7604200029168
 42
0.0046680544796842
 10
401.10814647723953
 20
-1438.9785936871547
 10
401.15013862727989
 20
-1438.845610449873
 42
0.0041666856443308
 10
401.35342463967578
 20
-1438.1826416748643
 10
401.3910870803453
 20
-1438.0560605671915
 42
0.0015170975153799
 10
401.51227365875263
 20
-1437.6441922157169
 42
-0.000488799310993
 10
401.63261343192409
 20
-1437.23207380351
 10
401.70909068937084
 20
-1436.9711164177338
 42
0.0002583378929731
 10
401.98230525955313
 20
-1436.0370597141505
 10
402.06407810899736
 20
-1435.7569604550206
 42
0.0006636169670061
 10
402.25794586902305
 20
-1435.0896075313847
 10
402.26304252337525
 20
-1435.0719759484869
 42
0.0010589131323065
 10
402.44449122428671
 20
-1434.4392446054558
 10
402.44947329477901
 20
-1434.4217316983941
 42
0.0015655524462192
 10
402.61774350194997
 20
-1433.8231150192348
 10
402.62257370235278
 20
-1433.8057228603427
 42
0.0021640440475651
 10
402.77686367435098
 20
-1433.2406958422807
 10
402.78149789378
 20
-1433.2234311122904
 42
0.0028763871851061
 10
402.92101361183387
 20
-1432.69146316144
 10
402.92539947600363
 20
-1432.6743391832756
 42
0.0037310511947649
 10
403.04935616783797
 20
-1432.1748915892617
 10
403.05343138812913
 20
-1432.1579313180073
 42
0.0047652197773226
 10
403.16105528863545
 20
-1431.690453549711
 10
403.16474588795774
 20
-1431.6736939945658
 42
0.0060276699298396
 10
403.2552759871125
 20
-1431.2376181994168
 10
403.2584946774013
 20
-1431.2211169851093
 42
0.007582433775505
 10
403.33118398681711
 20
-1430.8158498206815
 10
403.33382936419758
 20
-1430.7996948732298
 42
0.0095130624610383
 10
403.38794459982859
 20
-1430.4246055201593
 10
403.39493082371149
 20
-1430.36867196204
 42
0.0121054653231812
 10
403.42152215428905
 20
-1430.1037761335688
 10
403.42238864404879
 20
-1430.0923726906371
 42
0.006905082738671
 10
403.43747746208629
 20
-1429.8494314637956
 10
403.43861276175505
 20
-1429.8259052067463
 42
0.0169063976709339
 10
403.44144004073513
 20
-1429.6297124794501
 10
403.44026938920376
 20
-1429.5693767180946
 42
0.0052007732902454
 10
403.43801594061085
 20
-1429.4937833279487
 42
0.0054038123300231
 10
403.41805242877092
 20
-1429.3737650319326
 10
403.41296657290155
 20
-1429.3451065453576
 42
0.0112050460466084
 10
403.37758221084277
 20
-1429.1687801070173
 10
403.3597572488024
 20
-1429.0892385202978
 42
0.0240764468013032
 10
403.26885988265599
 20
-1428.759001484796
 10
403.25030111984296
 20
-1428.7023813198032
 42
0.02568123318353
 10
403.10693819965326
 20
-1428.3306571135454
 10
403.10152877383149
 20
-1428.3185257785549
 42
0.0268360501218026
 10
402.93210153298196
 20
-1427.9875326445347
 10
402.92656512534728
 20
-1427.978012974223
 42
0.0274670231729606
 10
402.73436414893359
 20
-1427.685725599305
 10
402.72898284897087
 20
-1427.6784464517634
 42
0.0275035967098056
 10
402.51740996940913
 20
-1427.4229305614597
 10
402.51234046844263
 20
-1427.4174514738293
 42
0.0269557673523908
 10
402.28493692500302
 20
-1427.1968091878671
 10
402.28019386722013
 20
-1427.1926792334061
 42
0.0259124802208953
 10
402.04063903578964
 20
-1427.0049887062537
 10
402.03610819060805
 20
-1427.0018032039236
 42
0.0245162153003638
 10
401.78819183751295
 20
-1426.8450701948132
 10
401.78366529118603
 20
-1426.8425099976107
 42
0.0229282588843603
 10
401.53124573436139
 20
-1426.7146418051134
 10
401.52646524052568
 20
-1426.7124895053519
 42
0.0212984135697524
 10
401.27342728806292
 20
-1426.6112905881091
 10
401.26812300309393
 20
-1426.6094270253493
 42
0.0197555462345082
 10
401.01834466537042
 20
-1426.5326116073843
 42
0.0183511896793
 10
400.76341593990452
 20
-1426.4750287004183
 10
400.67705074318661
 20
-1426.4588259100342
 42
0.0338057877143657
 10
400.39154339392394
 20
-1426.4250175048933
 10
400.30053798888434
 20
-1426.420437849632
 42
0.0091990524489419
 10
400.194690880248
 20
-1426.4170619937099
 42
0.0028333980788944
 10
400.08877696425338
 20
-1426.4162338861934
 10
400.08786151120574
 20
-1426.4162319163693
 42
-0.0023619827805774
 10
399.98011549610931
 20
-1426.4154910752907
 10
399.94371032592397
 20
-1426.4150687688275
 42
0.0008824598470279
 10
399.76315433620096
 20
-1426.4132929905904
 10
399.71929290366813
 20
-1426.4129390290636
 42
0.0038132665763906
 10
399.45101000779937
 20
-1426.412820092997
 10
399.43447635299583
 20
-1426.4129388591407
 42
0.0060665569336037
 10
399.13319586139943
 20
-1426.4187591585617
 10
399.11894552937918
 20
-1426.4192074665291
 42
0.008035695333604
 10
398.78948681303513
 20
-1426.4348751885962
 10
398.7774167979527
 20
-1426.4356437715364
 42
0.0098996399101472
 10
398.4246537133148
 20
-1426.4651290007332
 10
398.41460800392713
 20
-1426.4661692969328
 42
0.0117740981370045
 10
398.04345114557447
 20
-1426.5134615444633
 10
398.03522844909583
 20
-1426.5147066610334
 42
0.0137435215138233
 10
397.65063962960909
 20
-1426.5838036345956
 10
397.64398259048738
 20
-1426.5851895308288
 42
0.0158359869387607
 10
397.25098549668377
 20
-1426.6800816193097
 10
397.24557230981776
 20
-1426.6815715601799
 42
0.0180554124029035
 10
396.8492572652047
 20
-1426.806209576419
 10
396.84470047712193
 20
-1426.8078256126851
 42
0.0203657431282433
 10
396.45022295931057
 20
-1426.9660859542005
 10
396.44607942030325
 20
-1426.9679475756425
 42
0.0226819684657144
 10
396.05864336409701
 20
-1427.1635901543152
 10
396.05444357308147
 20
-1427.1659557462335
 42
0.024863498460609
 10
395.67926163190106
 20
-1427.40258239218
 10
395.63106670311777
 20
-1427.4364394340053
 42
0.0267044190886149
 10
395.35677400619977
 20
-1427.6518798098746
 42
0.0139303002197311
 10
395.10060684026342
 20
-1427.889118650784
 10
395.09575345454004
 20
-1427.8938713136465
 42
0.0283460963446573
 10
394.85168086031143
 20
-1428.1616019740932
 10
394.8120123551563
 20
-1428.2104035515647
 42
0.0070695364819207
 10
394.73457512929645
 20
-1428.3084703675302
 42
0.0070695364819207
  0
LWPOLYLINE
  5
5E
100
AcDbEntity
  8
0
370
              15
390
0
  6
Continuous
 62
               7
100
AcDbPolyline
 90
      226
 70
             128
 10
391.20575469205005
 20
-1444.0300591737141
 42
-0.0026277636621026
 10
391.20567680824996
 20
-1443.9632872479672
 10
391.20589416648204
 20
-1443.9101320305281
 42
-0.0088680296730747
 10
391.20967078277516
 20
-1443.7371162481238
 10
391.21201714188754
 20
-1443.6778362226714
 42
-0.0077381705614858
 10
391.22806325265071
 20
-1443.3865757268725
 10
391.22893116382375
 20
-1443.3742874931881
 42
-0.006887253052992
 10
391.25556324357166
 20
-1443.0590657411215
 10
391.25676746775798
 20
-1443.0468247621002
 42
-0.0062130021488459
 10
391.29436118458653
 20
-1442.7079550708559
 10
391.29586508812093
 20
-1442.6957811989453
 42
-0.0056726929666207
 10
391.34478694762248
 20
-1442.3335859768367
 10
391.34656039326762
 20
-1442.3214921765866
 42
-0.0052341884490579
 10
391.40717097952944
 20
-1441.9362989210576
 10
391.40918896830425
 20
-1441.9242939910762
 42
-0.0049768450168619
 10
391.48192764972976
 20
-1441.5164494236481
 10
391.50617666445237
 20
-1441.3879014406375
 42
-0.008902980562635
 10
391.64325751624676
 20
-1440.726125993217
 10
391.67600289156564
 20
-1440.5810945626918
 42
-0.0080318257099402
 10
391.90555150590706
 20
-1439.6353849308355
 10
391.91753643235461
 20
-1439.5892542956481
 42
-0.0074265721317599
 10
392.20154797120603
 20
-1438.5591897172624
 10
392.22142751432273
 20
-1438.4910556566729
 42
-0.0069711922701568
 10
392.54873209282789
 20
-1437.4247879163499
 10
392.60868403993356
 20
-1437.2387665579788
 42
-0.0052070422894837
 10
392.83810926519271
 20
-1436.5514944809481
 10
392.85539045736164
 20
-1436.5014672003406
 42
-0.0009167004449604
 10
393.05848234465435
 20
-1435.9170113521768
 42
-0.0025162726943379
 10
393.26557997491437
 20
-1435.3339700880215
 10
393.30280458671876
 20
-1435.2308205421191
 42
-0.0028212681459304
 10
393.55098050568546
 20
-1434.555089909938
 10
393.56081126844242
 20
-1434.5287824652444
 42
-0.0031964916822739
 10
393.79710352609845
 20
-1433.9085777031341
 10
393.80673798008985
 20
-1433.8837677130105
 42
-0.0036281836454126
 10
394.03184394119864
 20
-1433.3163270320979
 10
394.04128235136028
 20
-1433.2930296005848
 42
-0.0041269166829941
 10
394.25590004801529
 20
-1432.7755887046167
 10
394.28853300443637
 20
-1432.6987102582548
 42
-0.0047472213055556
 10
394.44557780998969
 20
-1432.3382887903722
 10
394.45247189118913
 20
-1432.3228681930598
 42
-0.0025651659996153
 10
394.60082992504806
 20
-1431.9955401372918
 42
-0.0057144634999116
 10
394.75457961882125
 20
-1431.6707304639256
 10
394.78261032422142
 20
-1431.6132220815334
 42
-0.0065388068373903
 10
394.96607735196039
 20
-1431.2489895848701
 10
394.974535807736
 20
-1431.232730005506
 42
-0.0074510843022365
 10
395.15071805361674
 20
-1430.9060417243777
 10
395.15889772414715
 20
-1430.89140094711
 42
-0.0084648979856517
 10
395.32853157724782
 20
-1430.5994919361478
 10
395.33638770373449
 20
-1430.5864849444993
 42
-0.0095638542803032
 10
395.50022315133015
 20
-1430.3265960725184
 10
395.50769809500366
 20
-1430.3152267110602
 42
-0.0107191626802647
 10
395.66649967538945
 20
-1430.084615476519
 10
395.67351640912347
 20
-1430.0748793841503
 42
-0.0118458573901607
 10
395.82806450763303
 20
-1429.8708071888436
 42
-0.0129184518185582
 10
395.99251713123545
 20
-1429.674646672672
 10
396.02266190359882
 20
-1429.6405205937722
 42
-0.0217742579635681
 10
396.19927422593304
 20
-1429.4573138235237
 10
396.21001977039248
 20
-1429.4470969903216
 42
-0.0097266568651754
 10
396.37607738924913
 20
-1429.2952494158833
 42
-0.0187720905718367
 10
396.55042496513954
 20
-1429.1531805624936
 10
396.58113095581075
 20
-1429.1300214800995
 42
-0.0179428207521065
 10
396.81355167580898
 20
-1428.9674693029863
 10
396.81720400272684
 20
-1428.9651053680971
 42
-0.0170047877693909
 10
397.05296764025513
 20
-1428.8236448539469
 10
397.05675062899786
 20
-1428.8215465489127
 42
-0.0160190788364448
 10
397.29365917663699
 20
-1428.6998952469226
 42
-0.015110286148992
 10
397.53769095908649
 20
-1428.593212470867
 10
397.59007746129544
 20
-1428.5721723379734
 42
-0.0271945441887806
 10
397.94874002035215
 20
-1428.4503075272678
 10
398.01780482084462
 20
-1428.4309579860003
 42
-0.0237596594022217
 10
398.43360166786425
 20
-1428.3355072740196
 10
398.50166452159152
 20
-1428.3232525858934
 42
-0.0213715440558294
 10
398.78753945303998
 20
-1428.2843055543829
 10
398.84768661926665
 20
-1428.2787158396811
 42
-0.0101465655816549
 10
399.01517915125214
 20
-1428.266572296418
 10
399.02451953744873
 20
-1428.2660853814207
 42
-0.0100375910881162
 10
399.17367363801293
 20
-1428.2613095634954
 10
399.18393290769183
 20
-1428.261187124481
 42
-0.0103625633383491
 10
399.31264090234816
 20
-1428.2623185580076
 10
399.33490655361783
 20
-1428.2629759164724
 42
-0.0115689250230999
 10
399.41895729114299
 20
-1428.2674054227177
 42
-0.0072438037434519
 10
399.50279557058673
 20
-1428.2749946224674
 10
399.51959608005495
 20
-1428.2767611651911
 42
-0.0217917313132192
 10
399.63616584336904
 20
-1428.2941810579123
 10
399.70176593393666
 20
-1428.3069276663268
 42
-0.0332943556756205
 10
399.90615809896366
 20
-1428.3609679576339
 10
399.93633066751113
 20
-1428.3711360347513
 42
-0.018482408480825
 10
400.07483572397911
 20
-1428.4235870501388
 42
-0.0198002050697521
 10
400.20891006447789
 20
-1428.4864711103378
 10
400.21079670185537
 20
-1428.487448897218
 42
-0.0212242342972511
 10
400.34293564425684
 20
-1428.5632116360105
 10
400.3447509398008
 20
-1428.5643574382193
 42
-0.0226090605788199
 10
400.47325484102237
 20
-1428.6538370817836
 10
400.47509928275991
 20
-1428.6552493347713
 42
-0.0238457052230534
 10
400.59828136405395
 20
-1428.7592452306346
 10
400.60023409261191
 20
-1428.7610601083998
 42
-0.0248160564140908
 10
400.71643559991355
 20
-1428.8803347096095
 10
400.71853923331463
 20
-1428.8827200433129
 42
-0.0254109591442191
 10
400.82614445118071
 20
-1429.0180084292774
 10
400.82839247309465
 20
-1429.0211499776779
 42
-0.025552848829541
 10
400.92583915189164
 20
-1429.1731770319122
 10
400.9281702518079
 20
-1429.17725864352
 42
-0.0252146793220895
 10
401.013951277817
 20
-1429.3467608895166
 10
401.01625351697464
 20
-1429.3519429714297
 42
-0.0244265635958532
 10
401.08890821073624
 20
-1429.5396895434767
 10
401.0981546122041
 20
-1429.5675549618129
 42
-0.0231319612897789
 10
401.14407739119656
 20
-1429.7308560086158
 42
-0.0112130424360537
 10
401.17871341373495
 20
-1429.8970596088047
 10
401.17991593884727
 20
-1429.9035561956916
 42
-0.0210527881235761
 10
401.20560241421828
 20
-1430.0846118411341
 10
401.20911300903998
 20
-1430.1200173896802
 42
-0.0190029892425215
 10
401.22455448258455
 20
-1430.3735532359515
 10
401.22536445902858
 20
-1430.4090288503216
 42
-0.0137974553662932
 10
401.22381560619317
 20
-1430.7340602570507
 10
401.2229701512374
 20
-1430.7601790016497
 42
-0.0081336634216898
 10
401.20811081601494
 20
-1431.0655264692471
 42
-0.0073526923570507
 10
401.18380228264033
 20
-1431.3702747135324
 10
401.18254085885758
 20
-1431.3836113881982
 42
-0.0066886138692399
 10
401.14680527281087
 20
-1431.7141974316971
 10
401.14514818334118
 20
-1431.7278190506868
 42
-0.0061359187353062
 10
401.09729758128947
 20
-1432.0845830307924
 10
401.09526008021743
 20
-1432.098477833616
 42
-0.0056698610066166
 10
401.03460974945062
 20
-1432.4817564024527
 10
401.03220431612732
 20
-1432.4959155216848
 42
-0.0052721077276707
 10
400.95807211532821
 20
-1432.9060428613598
 10
400.95530896648597
 20
-1432.9204594967487
 42
-0.0049289272181825
 10
400.86701484838648
 20
-1433.3577680078688
 10
400.86390235370339
 20
-1433.372436860687
 42
-0.0047415956713796
 10
400.76066436217207
 20
-1433.837233618093
 10
400.7258961518113
 20
-1433.9870407134808
 42
-0.0084404470903568
 10
400.53587970823963
 20
-1434.7472647380112
 10
400.52975302025379
 20
-1434.7701288621654
 42
-0.003963594025906
 10
400.30829933597067
 20
-1435.5711177264097
 10
400.29492254079025
 20
-1435.6180493430047
 42
-0.0072475040836638
 10
400.0274756529293
 20
-1436.5072690593881
 10
399.95726332610417
 20
-1436.729009409353
 42
-0.0051345458827937
 10
399.6705039540409
 20
-1437.603334597178
 10
399.64897768727405
 20
-1437.6667608643061
 42
-0.0019150016601091
 10
399.3934442804067
 20
-1438.410309984534
 10
399.38697667601735
 20
-1438.4288974494355
 42
-0.0021524362752204
 10
399.13849862494664
 20
-1439.1332232711634
 10
399.12928820425321
 20
-1439.1589768494564
 42
-0.0024331286821298
 10
398.8930329452142
 20
-1439.8095761575833
 10
398.88398499265003
 20
-1439.8341194639747
 42
-0.00274497217839
 10
398.65937042182827
 20
-1440.4332493428619
 10
398.6504804144484
 20
-1440.4565719326818
 42
-0.0031083229769829
 10
398.43693792782608
 20
-1441.0064959702938
 10
398.42820179614256
 20
-1441.0285856861717
 42
-0.0035311343280341
 10
398.2251606105587
 20
-1441.5315688118817
 10
398.21657527141559
 20
-1441.552411535381
 42
-0.0040245640951826
 10
398.02346346761658
 20
-1442.0107208579843
 10
398.01502735400834
 20
-1442.0303002260684
 42
-0.0046015135849728
 10
397.83127106084976
 20
-1442.4462052556987
 10
397.8229848830232
 20
-1442.4645023951471
 42
-0.0052768638268448
 10
397.6480073640659
 20
-1442.8402752794211
 10
397.63987515343752
 20
-1442.8572686179673
 42
-0.0060672675644078
 10
397.473095540673
 20
-1443.1951842410786
 10
397.4651260601961
 20
-1443.2108495000668
 42
-0.0069904648871018
 10
397.30595766618995
 20
-1443.5131853067396
 10
397.29816626657316
 20
-1443.5274958559778
 42
-0.0080637022761337
 10
397.14601440623329
 20
-1443.7965311591199
 10
397.13842537360603
 20
-1443.809459024714
 42
-0.009300645566408
 10
396.99268469707056
 20
-1444.0474734232239
 10
396.98533403032951
 20
-1444.058991392393
 42
-0.010706077805092
 10
396.84538548688846
 20
-1444.268261709776
 10
396.83832371860854
 20
-1444.2783472523422
 42
-0.0122723111409264
 10
396.70353000041069
 20
-1444.4611405818309
 10
396.70320377685584
 20
-1444.4615609696416
 42
-0.0141836319620872
 10
396.55962217388259
 20
-1444.6361307274701
 10
396.55267441823304
 20
-1444.644105727732
 42
-0.0175957477207407
 10
396.41276825019594
 20
-1444.7937266161396
 42
-0.0080466359667089
 10
396.2653044851599
 20
-1444.9360491442962
 10
396.21926994064825
 20
-1444.979069582382
 42
-0.0269600260395548
 10
395.96598969466839
 20
-1445.191392840889
 10
395.89942255836661
 20
-1445.2413442555162
 42
-0.0178362839753989
 10
395.65947806871247
 20
-1445.4083621817674
 10
395.65223309771358
 20
-1445.4130306939712
 42
-0.017465073265355
 10
395.41589690027075
 20
-1445.5538916589314
 42
-0.0169240130163398
 10
395.17043065441288
 20
-1445.678183918709
 10
395.12444449885521
 20
-1445.6995458742761
 42
-0.0318883036841109
 10
394.77409364323591
 20
-1445.835884183786
 10
394.7057281080684
 20
-1445.8575848042624
 42
-0.0284435909897674
 10
394.32967798177947
 20
-1445.9538022397364
 10
394.29451982128069
 20
-1445.960695835565
 42
-0.0243909341009928
 10
393.98107636036195
 20
-1446.0064168665949
 10
393.93079563359464
 20
-1446.0112624134963
 42
-0.0196639292931972
 10
393.71520005606357
 20
-1446.0235106990101
 10
393.66337598490139
 20
-1446.0244139597469
 42
-0.0100501510682053
 10
393.55095270323585
 20
-1446.0241135613937
 10
393.5192928418507
 20
-1446.0233924895074
 42
-0.0019752031128396
 10
393.47020050521041
 20
-1446.0220803292987
 10
393.46744020198759
 20
-1446.0219956374724
 42
0.0065378751988633
 10
393.42386362723352
 20
-1446.0212287462575
 42
-0.0167974694632611
 10
393.38033280429914
 20
-1446.0195688477313
 10
393.37625346503961
 20
-1446.0192758368366
 42
-0.0081283276279678
 10
393.32469366730328
 20
-1446.0147288431988
 10
393.31295409342255
 20
-1446.0135009256203
 42
-0.0126703440164451
 10
393.23823579762546
 20
-1446.0037661345484
 10
393.21544792995229
 20
-1446.0002078786335
 42
-0.011785208843505
 10
393.0959089441177
 20
-1445.9786448834759
 10
393.04052849235688
 20
-1445.9673013432418
 42
-0.0251774592298303
 10
392.81368445335158
 20
-1445.9088033338096
 10
392.76896526349395
 20
-1445.8948365144722
 42
-0.0146525199889699
 10
392.58257227595948
 20
-1445.8305699872753
 42
-0.0166929435854984
 10
392.40059461982781
 20
-1445.7547628542186
 10
392.39593798855964
 20
-1445.7526379536068
 42
-0.0191684358431547
 10
392.21075435731279
 20
-1445.6594018698183
 10
392.20742177155347
 20
-1445.6575606222636
 42
-0.022118178180606
 10
392.02411146764865
 20
-1445.5454271238909
 10
392.02176166364279
 20
-1445.5438428259017
 42
-0.025498468538112
 10
391.84547151325614
 20
-1445.4114316759312
 10
391.82298936555634
 20
-1445.3926793669966
 42
-0.0292492648804172
 10
391.69822042671251
 20
-1445.2755865673528
 42
-0.0159048957500521
 10
391.58438042926139
 20
-1445.1475665757523
 10
391.58306163868309
 20
-1445.1459849627336
 42
-0.0343813379570218
 10
391.4804243770572
 20
-1445.0041136369648
 10
391.44893284569582
 20
-1444.9536102448697
 42
-0.0369117275701076
 10
391.36304034379873
 20
-1444.7901330039217
 42
-0.0191751379918993
 10
391.29584695824212
 20
-1444.6177283979168
 10
391.29408363448221
 20
-1444.6126350532409
 42
-0.0378178042232259
 10
391.24428891569806
 20
-1444.4236942771599
 10
391.23829361996741
 20
-1444.3911336589608
 42
-0.0184846046474115
 10
391.21757642067331
 20
-1444.2493808384177
 42
-0.0179866351324244
 10
391.20724341559963
 20
-1444.1064900253368
 10
391.20718697315385
 20
-1444.104932338724
 42
-0.0085497186138714
 10
391.20575469205005
 20
-1444.0300591737141
 42
-0.0085497186138714
  0
ENDBLK
  5
5F
100
AcDbEntity
  8
template
390
0
100
AcDbBlockEnd
  0
BLOCK
  5
60
100
AcDbEntity
  8
notes
390
0
100
AcDbBlockBegin
  2
*D3
 70
               1
 10
0.0
 20
0.0
 30
0.0
  3
*D3
  1

  0
LINE
  5
61
100
AcDbEntity
  8
0
370
              -2
390
0
  6
Continuous
 62
               0
100
AcDbLine
 10
248.1141896043822
 20
495.38971093049815
 30
0.0
 11
248.1141896043822
 21
385.26471093049815
 31
0.0
  0
LINE
  5
62
100
AcDbEntity
  8
0
370
              -2
390
0
  6
Continuous
 62
               0
100
AcDbLine
 10
213.11418960438209
 20
465.38971093049815
 30
0.0
 11
213.11418960438209
 21
385.26471093049815
 31
0.0
  0
LINE
  5
63
100
AcDbEntity
  8
0
370
              -2
390
0
  6
Continuous
 62
               0
100
AcDbLine
 10
213.11418960438209
 20
385.26471093049815
 30
0.0
 11
170.78342381116096
 21
385.26471093049815
 31
0.0
  0
LINE
  5
64
100
AcDbEntity
  8
0
370
              -2
390
0
  6
Continuous
 62
               0
100
AcDbLine
 10
248.1141896043822
 20
385.26471093049815
 30
0.0
 11
213.11418960438209
 21
385.26471093049815
 31
0.0
  0
CIRCLE
  5
65
102
{ACAD_REACTORS
330
66
102
}
100
AcDbEntity
  8
0
370
              -2
390
0
  6
Continuous
 62
               0
100
AcDbCircle
 10
248.1141896043822
 20
385.26471093049815
 30
0.0
 40
4.99969482421875
  0
HATCH
  5
66
100
AcDbEntity
  8
0
370
              -2
390
0
  6
Continuous
 62
               0
100
AcDbHatch
 10
0.0
 20
0.0
 30
0.0
210
0.0
220
0.0
230
1.0
  2
SOLID
 70
               1
 71
               1
 91
        1
 92
        1
 93
        1
 72
               2
 10
248.1141896043822
 20
385.26471093049815
 40
4.99969482421875
 50
0.0
 51
360.0
 73
               0
 97
        1
330
65
 75
               0
 76
               1
 98
        1
 10
0.0
 20
0.0
  0
CIRCLE
  5
67
102
{ACAD_REACTORS
330
68
102
}
100
AcDbEntity
  8
0
370
              -2
390
0
  6
Continuous
 62
               0
100
AcDbCircle
 10
213.11418960438209
 20
385.26471093049815
 30
0.0
 40
4.99969482421875
  0
HATCH
  5
68
100
AcDbEntity
  8
0
370
              -2
390
0
  6
Continuous
 62
               0
100
AcDbHatch
 10
0.0
 20
0.0
 30
0.0
210
0.0
220
0.0
230
1.0
  2
SOLID
 70
               1
 71
               1
 91
        1
 92
        1
 93
        1
 72
               2
 10
213.11418960438209
 20
385.26471093049815
 40
4.99969482421875
 50
0.0
 51
360.0
 73
               0
 97
        1
330
67
 75
               0
 76
               1
 98
        1
 10
0.0
 20
0.0
  0
MTEXT
  5
69
100
AcDbEntity
  8
0
390
0
 62
               0
100
AcDbMText
 10
170.78342381116096
 20
419.14232811799815
 30
0.0
 40
24.432617187500004
 41
0.0
 71
               1
 72
               1
  1
35
  7
ＭＳ ゴシック
 73
               1
 44
0.7828267384257843
  0
POINT
  5
6A
100
AcDbEntity
  8
Defpoints
370
               0
390
0
 62
               0
100
AcDbPoint
 10
213.11418960438209
 20
490.38971093049815
 30
0.0
  0
POINT
  5
6B
100
AcDbEntity
  8
Defpoints
370
               0
390
0
 62
               0
100
AcDbPoint
 10
248.1141896043822
 20
520.38971093049815
 30
0.0
  0
POINT
  5
6C
100
AcDbEntity
  8
Defpoints
370
               0
390
0
 62
               0
100
AcDbPoint
 10
248.1141896043822
 20
385.26471093049815
 30
0.0
  0
ENDBLK
  5
6D
100
AcDbEntity
  8
notes
390
0
100
AcDbBlockEnd
  0
BLOCK
  5
6E
100
AcDbEntity
  8
notes
390
0
100
AcDbBlockBegin
  2
*D4
 70
               1
 10
0.0
 20
0.0
 30
0.0
  3
*D4
  1

  0
LINE
  5
6F
100
AcDbEntity
  8
0
370
              -2
390
0
  6
Continuous
 62
               0
100
AcDbLine
 10
273.13342381116092
 20
570.42409865617833
 30
0.0
 11
273.13342381116092
 21
545.42409865617833
 31
0.0
  0
LINE
  5
70
100
AcDbEntity
  8
0
370
              -2
390
0
  6
Continuous
 62
               0
100
AcDbLine
 10
213.11418960438209
 20
570.42409865617833
 30
0.0
 11
213.11418960438209
 21
545.42409865617833
 31
0.0
  0
LINE
  5
71
100
AcDbEntity
  8
0
370
              -2
390
0
  6
Continuous
 62
               0
100
AcDbLine
 10
213.11418960438209
 20
545.42409865617833
 30
0.0
 11
161.78342381116096
 21
545.42409865617833
 31
0.0
  0
LINE
  5
72
100
AcDbEntity
  8
0
370
              -2
390
0
  6
Continuous
 62
               0
100
AcDbLine
 10
273.13342381116092
 20
545.42409865617833
 30
0.0
 11
213.11418960438209
 21
545.42409865617833
 31
0.0
  0
CIRCLE
  5
73
102
{ACAD_REACTORS
330
74
102
}
100
AcDbEntity
  8
0
370
              -2
390
0
  6
Continuous
 62
               0
100
AcDbCircle
 10
273.13342381116092
 20
545.42409865617833
 30
0.0
 40
4.99969482421875
  0
HATCH
  5
74
100
AcDbEntity
  8
0
370
              -2
390
0
  6
Continuous
 62
               0
100
AcDbHatch
 10
0.0
 20
0.0
 30
0.0
210
0.0
220
0.0
230
1.0
  2
SOLID
 70
               1
 71
               1
 91
        1
 92
        1
 93
        1
 72
               2
 10
273.13342381116092
 20
545.42409865617833
 40
4.99969482421875
 50
0.0
 51
360.0
 73
               0
 97
        1
330
73
 75
               0
 76
               1
 98
        1
 10
0.0
 20
0.0
  0
CIRCLE
  5
75
102
{ACAD_REACTORS
330
76
102
}
100
AcDbEntity
  8
0
370
              -2
390
0
  6
Continuous
 62
               0
100
AcDbCircle
 10
213.11418960438209
 20
545.42409865617833
 30
0.0
 40
4.99969482421875
  0
HATCH
  5
76
100
AcDbEntity
  8
0
370
              -2
390
0
  6
Continuous
 62
               0
100
AcDbHatch
 10
0.0
 20
0.0
 30
0.0
210
0.0
220
0.0
230
1.0
  2
SOLID
 70
               1
 71
               1
 91
        1
 92
        1
 93
        1
 72
               2
 10
213.11418960438209
 20
545.42409865617833
 40
4.99969482421875
 50
0.0
 51
360.0
 73
               0
 97
        1
330
75
 75
               0
 76
               1
 98
        1
 10
0.0
 20
0.0
  0
MTEXT
  5
77
100
AcDbEntity
  8
0
390
0
 62
               0
100
AcDbMText
 10
161.78342381116096
 20
579.30171584367827
 30
0.0
 40
24.432617187500004
 41
0.0
 71
               1
 72
               1
  1
60
  7
ＭＳ ゴシック
 73
               1
 44
0.7828267384257843
  0
POINT
  5
78
100
AcDbEntity
  8
Defpoints
370
               0
390
0
 62
               0
100
AcDbPoint
 10
213.11418960438209
 20
595.42409865617833
 30
0.0
  0
POINT
  5
79
100
AcDbEntity
  8
Defpoints
370
               0
390
0
 62
               0
100
AcDbPoint
 10
273.13342381116092
 20
595.42409865617833
 30
0.0
  0
POINT
  5
7A
100
AcDbEntity
  8
Defpoints
370
               0
390
0
 62
               0
100
AcDbPoint
 10
273.13342381116092
 20
545.42409865617833
 30
0.0
  0
ENDBLK
  5
7B
100
AcDbEntity
  8
notes
390
0
100
AcDbBlockEnd
  0
BLOCK
  5
7C
100
AcDbEntity
  8
notes
390
0
100
AcDbBlockBegin
  2
*D5
 70
               1
 10
0.0
 20
0.0
 30
0.0
  3
*D5
  1

  0
LINE
  5
7D
100
AcDbEntity
  8
0
370
              -2
390
0
  6
Continuous
 62
               0
100
AcDbLine
 10
328.12040351345502
 20
-530.76404944093019
 30
0.0
 11
328.12040351345502
 21
-605.53086192271348
 31
0.0
  0
LINE
  5
7E
100
AcDbEntity
  8
0
370
              -2
390
0
  6
Continuous
 62
               0
100
AcDbLine
 10
598.12040351345502
 20
-530.76404944093019
 30
0.0
 11
598.12040351345502
 21
-605.53086192271348
 31
0.0
  0
LINE
  5
7F
100
AcDbEntity
  8
0
370
              -2
390
0
  6
Continuous
 62
               0
100
AcDbLine
 10
328.12040351345502
 20
-605.53086192271348
 30
0.0
 11
598.12040351345502
 21
-605.53086192271348
 31
0.0
  0
CIRCLE
  5
80
102
{ACAD_REACTORS
330
81
102
}
100
AcDbEntity
  8
0
370
              -2
390
0
  6
Continuous
 62
               0
100
AcDbCircle
 10
328.12040351345502
 20
-605.53086192271348
 30
0.0
 40
4.99969482421875
  0
HATCH
  5
81
100
AcDbEntity
  8
0
370
              -2
390
0
  6
Continuous
 62
               0
100
AcDbHatch
 10
0.0
 20
0.0
 30
0.0
210
0.0
220
0.0
230
1.0
  2
SOLID
 70
               1
 71
               1
 91
        1
 92
        1
 93
        1
 72
               2
 10
328.12040351345502
 20
-605.53086192271348
 40
4.99969482421875
 50
0.0
 51
360.0
 73
               0
 97
        1
330
80
 75
               0
 76
               1
 98
        1
 10
0.0
 20
0.0
  0
CIRCLE
  5
82
102
{ACAD_REACTORS
330
83
102
}
100
AcDbEntity
  8
0
370
              -2
390
0
  6
Continuous
 62
               0
100
AcDbCircle
 10
598.12040351345502
 20
-605.53086192271348
 30
0.0
 40
4.99969482421875
  0
HATCH
  5
83
100
AcDbEntity
  8
0
370
              -2
390
0
  6
Continuous
 62
               0
100
AcDbHatch
 10
0.0
 20
0.0
 30
0.0
210
0.0
220
0.0
230
1.0
  2
SOLID
 70
               1
 71
               1
 91
        1
 92
        1
 93
        1
 72
               2
 10
598.12040351345502
 20
-605.53086192271348
 40
4.99969482421875
 50
0.0
 51
360.0
 73
               0
 97
        1
330
82
 75
               0
 76
               1
 98
        1
 10
0.0
 20
0.0
  0
MTEXT
  5
84
100
AcDbEntity
  8
0
390
0
 62
               0
100
AcDbMText
 10
439.30790183127942
 20
-571.65324473521332
 30
0.0
 40
24.432617187500004
 41
0.0
 71
               1
 72
               1
  1
270
  7
ＭＳ ゴシック
 73
               1
 44
0.7828267384257843
  0
POINT
  5
85
100
AcDbEntity
  8
Defpoints
370
               0
390
0
 62
               0
100
AcDbPoint
 10
598.12040351345502
 20
-505.76404944093025
 30
0.0
  0
POINT
  5
86
100
AcDbEntity
  8
Defpoints
370
               0
390
0
 62
               0
100
AcDbPoint
 10
328.12040351345502
 20
-505.76404944093025
 30
0.0
  0
POINT
  5
87
100
AcDbEntity
  8
Defpoints
370
               0
390
0
 62
               0
100
AcDbPoint
 10
328.12040351345502
 20
-605.53086192271348
 30
0.0
  0
ENDBLK
  5
88
100
AcDbEntity
  8
notes
390
0
100
AcDbBlockEnd
  0
BLOCK
  5
89
100
AcDbEntity
  8
notes
390
0
100
AcDbBlockBegin
  2
*D6
 70
               1
 10
0.0
 20
0.0
 30
0.0
  3
*D6
  1

  0
LINE
  5
8A
100
AcDbEntity
  8
0
370
              -2
390
0
  6
Continuous
 62
               0
100
AcDbLine
 10
-646.97523128180467
 20
-528.63553383519911
 30
0.0
 11
-646.97523128180467
 21
-655.53086192271303
 31
0.0
  0
LINE
  5
8B
100
AcDbEntity
  8
0
370
              -2
390
0
  6
Continuous
 62
               0
100
AcDbLine
 10
-251.97523128180489
 20
-529.4055281110127
 30
0.0
 11
-251.97523128180489
 21
-655.53086192271303
 31
0.0
  0
LINE
  5
8C
100
AcDbEntity
  8
0
370
              -2
390
0
  6
Continuous
 62
               0
100
AcDbLine
 10
-646.97523128180467
 20
-655.53086192271303
 30
0.0
 11
-251.97523128180489
 21
-655.53086192271303
 31
0.0
  0
CIRCLE
  5
8D
102
{ACAD_REACTORS
330
8E
102
}
100
AcDbEntity
  8
0
370
              -2
390
0
  6
Continuous
 62
               0
100
AcDbCircle
 10
-646.97523128180467
 20
-655.53086192271303
 30
0.0
 40
4.99969482421875
  0
HATCH
  5
8E
100
AcDbEntity
  8
0
370
              -2
390
0
  6
Continuous
 62
               0
100
AcDbHatch
 10
0.0
 20
0.0
 30
0.0
210
0.0
220
0.0
230
1.0
  2
SOLID
 70
               1
 71
               1
 91
        1
 92
        1
 93
        1
 72
               2
 10
-646.97523128180467
 20
-655.53086192271303
 40
4.99969482421875
 50
0.0
 51
360.0
 73
               0
 97
        1
330
8D
 75
               0
 76
               1
 98
        1
 10
0.0
 20
0.0
  0
CIRCLE
  5
8F
102
{ACAD_REACTORS
330
90
102
}
100
AcDbEntity
  8
0
370
              -2
390
0
  6
Continuous
 62
               0
100
AcDbCircle
 10
-251.97523128180489
 20
-655.53086192271303
 30
0.0
 40
4.99969482421875
  0
HATCH
  5
90
100
AcDbEntity
  8
0
370
              -2
390
0
  6
Continuous
 62
               0
100
AcDbHatch
 10
0.0
 20
0.0
 30
0.0
210
0.0
220
0.0
230
1.0
  2
SOLID
 70
               1
 71
               1
 91
        1
 92
        1
 93
        1
 72
               2
 10
-251.97523128180489
 20
-655.53086192271303
 40
4.99969482421875
 50
0.0
 51
360.0
 73
               0
 97
        1
330
8F
 75
               0
 76
               1
 98
        1
 10
0.0
 20
0.0
  0
MTEXT
  5
91
100
AcDbEntity
  8
0
390
0
 62
               0
100
AcDbMText
 10
-465.3791860596765
 20
-621.65324473521309
 30
0.0
 40
24.432617187500004
 41
0.0
 71
               1
 72
               1
  1
395
  7
ＭＳ ゴシック
 73
               1
 44
0.7828267384257843
  0
POINT
  5
92
100
AcDbEntity
  8
Defpoints
370
               0
390
0
 62
               0
100
AcDbPoint
 10
-251.97523128180489
 20
-504.40552811101264
 30
0.0
  0
POINT
  5
93
100
AcDbEntity
  8
Defpoints
370
               0
390
0
 62
               0
100
AcDbPoint
 10
-646.97523128180467
 20
-503.63553383519917
 30
0.0
  0
POINT
  5
94
100
AcDbEntity
  8
Defpoints
370
               0
390
0
 62
               0
100
AcDbPoint
 10
-646.97523128180467
 20
-655.53086192271303
 30
0.0
  0
ENDBLK
  5
95
100
AcDbEntity
  8
notes
390
0
100
AcDbBlockEnd
  0
BLOCK
  5
96
100
AcDbEntity
  8
notes
390
0
100
AcDbBlockBegin
  2
*D7
 70
               1
 10
0.0
 20
0.0
 30
0.0
  3
*D7
  1

  0
LINE
  5
97
100
AcDbEntity
  8
0
370
              -2
390
0
  6
Continuous
 62
               0
100
AcDbLine
 10
-719.37590134382265
 20
855.39133596083866
 30
0.0
 11
-849.37590134382265
 21
855.39133596083866
 31
0.0
  0
LINE
  5
98
100
AcDbEntity
  8
0
370
              -2
390
0
  6
Continuous
 62
               0
100
AcDbLine
 10
-719.37590134382287
 20
485.39133596083877
 30
0.0
 11
-849.37590134382265
 21
485.39133596083877
 31
0.0
  0
LINE
  5
99
100
AcDbEntity
  8
0
370
              -2
390
0
  6
Continuous
 62
               0
100
AcDbLine
 10
-849.37590134382265
 20
855.39133596083866
 30
0.0
 11
-849.37590134382265
 21
485.39133596083877
 31
0.0
  0
CIRCLE
  5
9A
102
{ACAD_REACTORS
330
9B
102
}
100
AcDbEntity
  8
0
370
              -2
390
0
  6
Continuous
 62
               0
100
AcDbCircle
 10
-849.37590134382265
 20
855.39133596083866
 30
0.0
 40
4.99969482421875
  0
HATCH
  5
9B
100
AcDbEntity
  8
0
370
              -2
390
0
  6
Continuous
 62
               0
100
AcDbHatch
 10
0.0
 20
0.0
 30
0.0
210
0.0
220
0.0
230
1.0
  2
SOLID
 70
               1
 71
               1
 91
        1
 92
        1
 93
        1
 72
               2
 10
-849.37590134382265
 20
855.39133596083866
 40
4.99969482421875
 50
0.0
 51
360.0
 73
               0
 97
        1
330
9A
 75
               0
 76
               1
 98
        1
 10
0.0
 20
0.0
  0
CIRCLE
  5
9C
102
{ACAD_REACTORS
330
9D
102
}
100
AcDbEntity
  8
0
370
              -2
390
0
  6
Continuous
 62
               0
100
AcDbCircle
 10
-849.37590134382265
 20
485.39133596083877
 30
0.0
 40
4.99969482421875
  0
HATCH
  5
9D
100
AcDbEntity
  8
0
370
              -2
390
0
  6
Continuous
 62
               0
100
AcDbHatch
 10
0.0
 20
0.0
 30
0.0
210
0.0
220
0.0
230
1.0
  2
SOLID
 70
               1
 71
               1
 91
        1
 92
        1
 93
        1
 72
               2
 10
-849.37590134382265
 20
485.39133596083877
 40
4.99969482421875
 50
0.0
 51
360.0
 73
               0
 97
        1
330
9C
 75
               0
 76
               1
 98
        1
 10
0.0
 20
0.0
  0
MTEXT
  5
9E
100
AcDbEntity
  8
0
390
0
 62
               0
100
AcDbMText
 10
-883.25351853132258
 20
646.57883427866318
 30
0.0
 40
24.432617187500004
 41
0.0
 71
               1
 72
               1
  1
370
  7
ＭＳ ゴシック
 11
0.0
 21
1.0
 31
0.0
 73
               1
 44
0.7828267384257843
  0
POINT
  5
9F
100
AcDbEntity
  8
Defpoints
370
               0
390
0
 62
               0
100
AcDbPoint
 10
-694.37590134382287
 20
485.39133596083877
 30
0.0
  0
POINT
  5
A0
100
AcDbEntity
  8
Defpoints
370
               0
390
0
 62
               0
100
AcDbPoint
 10
-694.37590134382265
 20
855.39133596083866
 30
0.0
  0
POINT
  5
A1
100
AcDbEntity
  8
Defpoints
370
               0
390
0
 62
               0
100
AcDbPoint
 10
-849.37590134382265
 20
855.39133596083866
 30
0.0
  0
ENDBLK
  5
A2
100
AcDbEntity
  8
notes
390
0
100
AcDbBlockEnd
  0
BLOCK
  5
A3
100
AcDbEntity
  8
notes
390
0
100
AcDbBlockBegin
  2
*D8
 70
               1
 10
0.0
 20
0.0
 30
0.0
  3
*D8
  1

  0
LINE
  5
A4
100
AcDbEntity
  8
0
370
              -2
390
0
  6
Continuous
 62
               0
100
AcDbLine
 10
-719.37590134382265
 20
855.39133596083866
 30
0.0
 11
-799.37590134382265
 21
855.39133596083866
 31
0.0
  0
LINE
  5
A5
100
AcDbEntity
  8
0
370
              -2
390
0
  6
Continuous
 62
               0
100
AcDbLine
 10
-641.00499313907619
 20
670.39198378175843
 30
0.0
 11
-799.37590134382265
 21
670.39198378175843
 31
0.0
  0
LINE
  5
A6
100
AcDbEntity
  8
0
370
              -2
390
0
  6
Continuous
 62
               0
100
AcDbLine
 10
-799.37590134382265
 20
855.39133596083866
 30
0.0
 11
-799.37590134382265
 21
670.39198378175843
 31
0.0
  0
CIRCLE
  5
A7
102
{ACAD_REACTORS
330
A8
102
}
100
AcDbEntity
  8
0
370
              -2
390
0
  6
Continuous
 62
               0
100
AcDbCircle
 10
-799.37590134382265
 20
855.39133596083866
 30
0.0
 40
4.99969482421875
  0
HATCH
  5
A8
100
AcDbEntity
  8
0
370
              -2
390
0
  6
Continuous
 62
               0
100
AcDbHatch
 10
0.0
 20
0.0
 30
0.0
210
0.0
220
0.0
230
1.0
  2
SOLID
 70
               1
 71
               1
 91
        1
 92
        1
 93
        1
 72
               2
 10
-799.37590134382265
 20
855.39133596083866
 40
4.99969482421875
 50
0.0
 51
360.0
 73
               0
 97
        1
330
A7
 75
               0
 76
               1
 98
        1
 10
0.0
 20
0.0
  0
CIRCLE
  5
A9
102
{ACAD_REACTORS
330
AA
102
}
100
AcDbEntity
  8
0
370
              -2
390
0
  6
Continuous
 62
               0
100
AcDbCircle
 10
-799.37590134382265
 20
670.39198378175843
 30
0.0
 40
4.99969482421875
  0
HATCH
  5
AA
100
AcDbEntity
  8
0
370
              -2
390
0
  6
Continuous
 62
               0
100
AcDbHatch
 10
0.0
 20
0.0
 30
0.0
210
0.0
220
0.0
230
1.0
  2
SOLID
 70
               1
 71
               1
 91
        1
 92
        1
 93
        1
 72
               2
 10
-799.37590134382265
 20
670.39198378175843
 40
4.99969482421875
 50
0.0
 51
360.0
 73
               0
 97
        1
330
A9
 75
               0
 76
               1
 98
        1
 10
0.0
 20
0.0
  0
MTEXT
  5
AB
100
AcDbEntity
  8
0
390
0
 62
               0
100
AcDbMText
 10
-833.25351853132258
 20
739.07915818912306
 30
0.0
 40
24.432617187500004
 41
0.0
 71
               1
 72
               1
  1
185
  7
ＭＳ ゴシック
 11
0.0
 21
1.0
 31
0.0
 73
               1
 44
0.7828267384257843
  0
POINT
  5
AC
100
AcDbEntity
  8
Defpoints
370
               0
390
0
 62
               0
100
AcDbPoint
 10
-616.00499313907619
 20
670.39198378175843
 30
0.0
  0
POINT
  5
AD
100
AcDbEntity
  8
Defpoints
370
               0
390
0
 62
               0
100
AcDbPoint
 10
-694.37590134382265
 20
855.39133596083866
 30
0.0
  0
POINT
  5
AE
100
AcDbEntity
  8
Defpoints
370
               0
390
0
 62
               0
100
AcDbPoint
 10
-799.37590134382265
 20
855.39133596083866
 30
0.0
  0
ENDBLK
  5
AF
100
AcDbEntity
  8
notes
390
0
100
AcDbBlockEnd
  0
BLOCK
  5
B0
100
AcDbEntity
  8
notes
390
0
100
AcDbBlockBegin
  2
*D9
 70
               1
 10
0.0
 20
0.0
 30
0.0
  3
*D9
  1

  0
LINE
  5
B1
100
AcDbEntity
  8
0
370
              -2
390
0
  6
Continuous
 62
               0
100
AcDbLine
 10
-699.37590134382287
 20
465.39133596083877
 30
0.0
 11
-699.37590134382287
 21
385.39133596083877
 31
0.0
  0
LINE
  5
B2
100
AcDbEntity
  8
0
370
              -2
390
0
  6
Continuous
 62
               0
100
AcDbLine
 10
-544.37590134382265
 20
435.39133596083877
 30
0.0
 11
-544.37590134382265
 21
385.39133596083877
 31
0.0
  0
LINE
  5
B3
100
AcDbEntity
  8
0
370
              -2
390
0
  6
Continuous
 62
               0
100
AcDbLine
 10
-699.37590134382287
 20
385.39133596083877
 30
0.0
 11
-544.37590134382265
 21
385.39133596083877
 31
0.0
  0
CIRCLE
  5
B4
102
{ACAD_REACTORS
330
B5
102
}
100
AcDbEntity
  8
0
370
              -2
390
0
  6
Continuous
 62
               0
100
AcDbCircle
 10
-699.37590134382287
 20
385.39133596083877
 30
0.0
 40
4.99969482421875
  0
HATCH
  5
B5
100
AcDbEntity
  8
0
370
              -2
390
0
  6
Continuous
 62
               0
100
AcDbHatch
 10
0.0
 20
0.0
 30
0.0
210
0.0
220
0.0
230
1.0
  2
SOLID
 70
               1
 71
               1
 91
        1
 92
        1
 93
        1
 72
               2
 10
-699.37590134382287
 20
385.39133596083877
 40
4.99969482421875
 50
0.0
 51
360.0
 73
               0
 97
        1
330
B4
 75
               0
 76
               1
 98
        1
 10
0.0
 20
0.0
  0
CIRCLE
  5
B6
102
{ACAD_REACTORS
330
B7
102
}
100
AcDbEntity
  8
0
370
              -2
390
0
  6
Continuous
 62
               0
100
AcDbCircle
 10
-544.37590134382265
 20
385.39133596083877
 30
0.0
 40
4.99969482421875
  0
HATCH
  5
B7
100
AcDbEntity
  8
0
370
              -2
390
0
  6
Continuous
 62
               0
100
AcDbHatch
 10
0.0
 20
0.0
 30
0.0
210
0.0
220
0.0
230
1.0
  2
SOLID
 70
               1
 71
               1
 91
        1
 92
        1
 93
        1
 72
               2
 10
-544.37590134382265
 20
385.39133596083877
 40
4.99969482421875
 50
0.0
 51
360.0
 73
               0
 97
        1
330
B6
 75
               0
 76
               1
 98
        1
 10
0.0
 20
0.0
  0
MTEXT
  5
B8
100
AcDbEntity
  8
0
390
0
 62
               0
100
AcDbMText
 10
-645.68840302599813
 20
419.26895314833877
 30
0.0
 40
24.432617187500004
 41
0.0
 71
               1
 72
               1
  1
155
  7
ＭＳ ゴシック
 73
               1
 44
0.7828267384257843
  0
POINT
  5
B9
100
AcDbEntity
  8
Defpoints
370
               0
390
0
 62
               0
100
AcDbPoint
 10
-544.37590134382265
 20
460.39133596083877
 30
0.0
  0
POINT
  5
BA
100
AcDbEntity
  8
Defpoints
370
               0
390
0
 62
               0
100
AcDbPoint
 10
-699.37590134382287
 20
490.39133596083877
 30
0.0
  0
POINT
  5
BB
100
AcDbEntity
  8
Defpoints
370
               0
390
0
 62
               0
100
AcDbPoint
 10
-699.37590134382287
 20
385.39133596083877
 30
0.0
  0
ENDBLK
  5
BC
100
AcDbEntity
  8
notes
390
0
100
AcDbBlockEnd
  0
BLOCK
  5
BD
100
AcDbEntity
  8
notes
390
0
100
AcDbBlockBegin
  2
*D10
 70
               1
 10
0.0
 20
0.0
 30
0.0
  3
*D10
  1

  0
LINE
  5
BE
100
AcDbEntity
  8
0
370
              -2
390
0
  6
Continuous
 62
               0
100
AcDbLine
 10
-544.37590134382265
 20
460.39133596083877
 30
0.0
 11
-544.37590134382265
 21
385.39133596083877
 31
0.0
  0
LINE
  5
BF
100
AcDbEntity
  8
0
370
              -2
390
0
  6
Continuous
 62
               0
100
AcDbLine
 10
-224.37590134382265
 20
460.39133596083877
 30
0.0
 11
-224.37590134382265
 21
385.39133596083877
 31
0.0
  0
LINE
  5
C0
100
AcDbEntity
  8
0
370
              -2
390
0
  6
Continuous
 62
               0
100
AcDbLine
 10
-544.37590134382265
 20
385.39133596083877
 30
0.0
 11
-224.37590134382265
 21
385.39133596083877
 31
0.0
  0
CIRCLE
  5
C1
102
{ACAD_REACTORS
330
C2
102
}
100
AcDbEntity
  8
0
370
              -2
390
0
  6
Continuous
 62
               0
100
AcDbCircle
 10
-544.37590134382265
 20
385.39133596083877
 30
0.0
 40
4.99969482421875
  0
HATCH
  5
C2
100
AcDbEntity
  8
0
370
              -2
390
0
  6
Continuous
 62
               0
100
AcDbHatch
 10
0.0
 20
0.0
 30
0.0
210
0.0
220
0.0
230
1.0
  2
SOLID
 70
               1
 71
               1
 91
        1
 92
        1
 93
        1
 72
               2
 10
-544.37590134382265
 20
385.39133596083877
 40
4.99969482421875
 50
0.0
 51
360.0
 73
               0
 97
        1
330
C1
 75
               0
 76
               1
 98
        1
 10
0.0
 20
0.0
  0
CIRCLE
  5
C3
102
{ACAD_REACTORS
330
C4
102
}
100
AcDbEntity
  8
0
370
              -2
390
0
  6
Continuous
 62
               0
100
AcDbCircle
 10
-224.37590134382265
 20
385.39133596083877
 30
0.0
 40
4.99969482421875
  0
HATCH
  5
C4
100
AcDbEntity
  8
0
370
              -2
390
0
  6
Continuous
 62
               0
100
AcDbHatch
 10
0.0
 20
0.0
 30
0.0
210
0.0
220
0.0
230
1.0
  2
SOLID
 70
               1
 71
               1
 91
        1
 92
        1
 93
        1
 72
               2
 10
-224.37590134382265
 20
385.39133596083877
 40
4.99969482421875
 50
0.0
 51
360.0
 73
               0
 97
        1
330
C3
 75
               0
 76
               1
 98
        1
 10
0.0
 20
0.0
  0
MTEXT
  5
C5
100
AcDbEntity
  8
0
390
0
 62
               0
100
AcDbMText
 10
-408.18840302599813
 20
419.26895314833877
 30
0.0
 40
24.432617187500004
 41
0.0
 71
               1
 72
               1
  1
320
  7
ＭＳ ゴシック
 73
               1
 44
0.7828267384257843
  0
POINT
  5
C6
100
AcDbEntity
  8
Defpoints
370
               0
390
0
 62
               0
100
AcDbPoint
 10
-224.37590134382265
 20
485.39133596083877
 30
0.0
  0
POINT
  5
C7
100
AcDbEntity
  8
Defpoints
370
               0
390
0
 62
               0
100
AcDbPoint
 10
-544.37590134382265
 20
485.39133596083877
 30
0.0
  0
POINT
  5
C8
100
AcDbEntity
  8
Defpoints
370
               0
390
0
 62
               0
100
AcDbPoint
 10
-544.37590134382265
 20
385.39133596083877
 30
0.0
  0
ENDBLK
  5
C9
100
AcDbEntity
  8
notes
390
0
100
AcDbBlockEnd
  0
BLOCK
  5
CA
100
AcDbEntity
  8
notes
390
0
100
AcDbBlockBegin
  2
*D11
 70
               1
 10
0.0
 20
0.0
 30
0.0
  3
*D11
  1

  0
LINE
  5
CB
100
AcDbEntity
  8
0
370
              -2
390
0
  6
Continuous
 62
               0
100
AcDbLine
 10
248.1141896043822
 20
495.38971093049815
 30
0.0
 11
248.1141896043822
 21
385.38971093049815
 31
0.0
  0
LINE
  5
CC
100
AcDbEntity
  8
0
370
              -2
390
0
  6
Continuous
 62
               0
100
AcDbLine
 10
678.11418960438198
 20
495.38971093049815
 30
0.0
 11
678.11418960438198
 21
385.38971093049815
 31
0.0
  0
LINE
  5
CD
100
AcDbEntity
  8
0
370
              -2
390
0
  6
Continuous
 62
               0
100
AcDbLine
 10
248.1141896043822
 20
385.38971093049815
 30
0.0
 11
678.11418960438198
 21
385.38971093049815
 31
0.0
  0
CIRCLE
  5
CE
102
{ACAD_REACTORS
330
CF
102
}
100
AcDbEntity
  8
0
370
              -2
390
0
  6
Continuous
 62
               0
100
AcDbCircle
 10
248.1141896043822
 20
385.38971093049815
 30
0.0
 40
4.99969482421875
  0
HATCH
  5
CF
100
AcDbEntity
  8
0
370
              -2
390
0
  6
Continuous
 62
               0
100
AcDbHatch
 10
0.0
 20
0.0
 30
0.0
210
0.0
220
0.0
230
1.0
  2
SOLID
 70
               1
 71
               1
 91
        1
 92
        1
 93
        1
 72
               2
 10
248.1141896043822
 20
385.38971093049815
 40
4.99969482421875
 50
0.0
 51
360.0
 73
               0
 97
        1
330
CE
 75
               0
 76
               1
 98
        1
 10
0.0
 20
0.0
  0
CIRCLE
  5
D0
102
{ACAD_REACTORS
330
D1
102
}
100
AcDbEntity
  8
0
370
              -2
390
0
  6
Continuous
 62
               0
100
AcDbCircle
 10
678.11418960438198
 20
385.38971093049815
 30
0.0
 40
4.99969482421875
  0
HATCH
  5
D1
100
AcDbEntity
  8
0
370
              -2
390
0
  6
Continuous
 62
               0
100
AcDbHatch
 10
0.0
 20
0.0
 30
0.0
210
0.0
220
0.0
230
1.0
  2
SOLID
 70
               1
 71
               1
 91
        1
 92
        1
 93
        1
 72
               2
 10
678.11418960438198
 20
385.38971093049815
 40
4.99969482421875
 50
0.0
 51
360.0
 73
               0
 97
        1
330
D0
 75
               0
 76
               1
 98
        1
 10
0.0
 20
0.0
  0
MTEXT
  5
D2
100
AcDbEntity
  8
0
390
0
 62
               0
100
AcDbMText
 10
439.30168792220661
 20
419.26732811799815
 30
0.0
 40
24.432617187500004
 41
0.0
 71
               1
 72
               1
  1
430
  7
ＭＳ ゴシック
 73
               1
 44
0.7828267384257843
  0
POINT
  5
D3
100
AcDbEntity
  8
Defpoints
370
               0
390
0
 62
               0
100
AcDbPoint
 10
678.11418960438198
 20
520.38971093049815
 30
0.0
  0
POINT
  5
D4
100
AcDbEntity
  8
Defpoints
370
               0
390
0
 62
               0
100
AcDbPoint
 10
248.1141896043822
 20
520.38971093049815
 30
0.0
  0
POINT
  5
D5
100
AcDbEntity
  8
Defpoints
370
               0
390
0
 62
               0
100
AcDbPoint
 10
248.1141896043822
 20
385.38971093049815
 30
0.0
  0
ENDBLK
  5
D6
100
AcDbEntity
  8
notes
390
0
100
AcDbBlockEnd
  0
BLOCK
  5
D7
100
AcDbEntity
  8
notes
390
0
100
AcDbBlockBegin
  2
*D12
 70
               1
 10
0.0
 20
0.0
 30
0.0
  3
*D12
  1

  0
LINE
  5
D8
100
AcDbEntity
  8
0
370
              -2
390
0
  6
Continuous
 62
               0
100
AcDbLine
 10
-699.37590134382287
 20
-340.5308619227132
 30
0.0
 11
-699.37590134382287
 21
-260.5308619227132
 31
0.0
  0
LINE
  5
D9
100
AcDbEntity
  8
0
370
              -2
390
0
  6
Continuous
 62
               0
100
AcDbLine
 10
-594.37590134382287
 20
-335.5308619227132
 30
0.0
 11
-594.37590134382287
 21
-260.5308619227132
 31
0.0
  0
LINE
  5
DA
100
AcDbEntity
  8
0
370
              -2
390
0
  6
Continuous
 62
               0
100
AcDbLine
 10
-699.37590134382287
 20
-260.5308619227132
 30
0.0
 11
-594.37590134382287
 21
-260.5308619227132
 31
0.0
  0
CIRCLE
  5
DB
102
{ACAD_REACTORS
330
DC
102
}
100
AcDbEntity
  8
0
370
              -2
390
0
  6
Continuous
 62
               0
100
AcDbCircle
 10
-699.37590134382287
 20
-260.5308619227132
 30
0.0
 40
4.99969482421875
  0
HATCH
  5
DC
100
AcDbEntity
  8
0
370
              -2
390
0
  6
Continuous
 62
               0
100
AcDbHatch
 10
0.0
 20
0.0
 30
0.0
210
0.0
220
0.0
230
1.0
  2
SOLID
 70
               1
 71
               1
 91
        1
 92
        1
 93
        1
 72
               2
 10
-699.37590134382287
 20
-260.5308619227132
 40
4.99969482421875
 50
0.0
 51
360.0
 73
               0
 97
        1
330
DB
 75
               0
 76
               1
 98
        1
 10
0.0
 20
0.0
  0
CIRCLE
  5
DD
102
{ACAD_REACTORS
330
DE
102
}
100
AcDbEntity
  8
0
370
              -2
390
0
  6
Continuous
 62
               0
100
AcDbCircle
 10
-594.37590134382287
 20
-260.5308619227132
 30
0.0
 40
4.99969482421875
  0
HATCH
  5
DE
100
AcDbEntity
  8
0
370
              -2
390
0
  6
Continuous
 62
               0
100
AcDbHatch
 10
0.0
 20
0.0
 30
0.0
210
0.0
220
0.0
230
1.0
  2
SOLID
 70
               1
 71
               1
 91
        1
 92
        1
 93
        1
 72
               2
 10
-594.37590134382287
 20
-260.5308619227132
 40
4.99969482421875
 50
0.0
 51
360.0
 73
               0
 97
        1
330
DD
 75
               0
 76
               1
 98
        1
 10
0.0
 20
0.0
  0
MTEXT
  5
DF
100
AcDbEntity
  8
0
390
0
 62
               0
100
AcDbMText
 10
-670.68840302599835
 20
-226.65324473521321
 30
0.0
 40
24.432617187500004
 41
0.0
 71
               1
 72
               1
  1
105
  7
ＭＳ ゴシック
 73
               1
 44
0.7828267384257843
  0
POINT
  5
E0
100
AcDbEntity
  8
Defpoints
370
               0
390
0
 62
               0
100
AcDbPoint
 10
-594.37590134382287
 20
-360.5308619227132
 30
0.0
  0
POINT
  5
E1
100
AcDbEntity
  8
Defpoints
370
               0
390
0
 62
               0
100
AcDbPoint
 10
-699.37590134382287
 20
-365.5308619227132
 30
0.0
  0
POINT
  5
E2
100
AcDbEntity
  8
Defpoints
370
               0
390
0
 62
               0
100
AcDbPoint
 10
-699.37590134382287
 20
-260.5308619227132
 30
0.0
  0
ENDBLK
  5
E3
100
AcDbEntity
  8
notes
390
0
100
AcDbBlockEnd
  0
BLOCK
  5
E4
100
AcDbEntity
  8
notes
390
0
100
AcDbBlockBegin
  2
*D13
 70
               1
 10
0.0
 20
0.0
 30
0.0
  3
*D13
  1

  0
LINE
  5
E5
100
AcDbEntity
  8
0
370
              -2
390
0
  6
Continuous
 62
               0
100
AcDbLine
 10
488.11418960438209
 20
-360.5308619227132
 30
0.0
 11
473.53342381116096
 21
-360.5308619227132
 31
0.0
  0
LINE
  5
E6
100
AcDbEntity
  8
0
370
              -2
390
0
  6
Continuous
 62
               0
100
AcDbLine
 10
488.11418960438215
 20
-475.5308619227132
 30
0.0
 11
473.53342381116096
 21
-475.5308619227132
 31
0.0
  0
LINE
  5
E7
100
AcDbEntity
  8
0
370
              -2
390
0
  6
Continuous
 62
               0
100
AcDbLine
 10
473.53342381116096
 20
-360.5308619227132
 30
0.0
 11
473.53342381116096
 21
-211.50090134382168
 31
0.0
  0
LINE
  5
E8
100
AcDbEntity
  8
0
370
              -2
390
0
  6
Continuous
 62
               0
100
AcDbLine
 10
473.53342381116096
 20
-360.5308619227132
 30
0.0
 11
473.53342381116096
 21
-475.5308619227132
 31
0.0
  0
CIRCLE
  5
E9
102
{ACAD_REACTORS
330
EA
102
}
100
AcDbEntity
  8
0
370
              -2
390
0
  6
Continuous
 62
               0
100
AcDbCircle
 10
473.53342381116096
 20
-360.5308619227132
 30
0.0
 40
4.99969482421875
  0
HATCH
  5
EA
100
AcDbEntity
  8
0
370
              -2
390
0
  6
Continuous
 62
               0
100
AcDbHatch
 10
0.0
 20
0.0
 30
0.0
210
0.0
220
0.0
230
1.0
  2
SOLID
 70
               1
 71
               1
 91
        1
 92
        1
 93
        1
 72
               2
 10
473.53342381116096
 20
-360.5308619227132
 40
4.99969482421875
 50
0.0
 51
360.0
 73
               0
 97
        1
330
E9
 75
               0
 76
               1
 98
        1
 10
0.0
 20
0.0
  0
CIRCLE
  5
EB
102
{ACAD_REACTORS
330
EC
102
}
100
AcDbEntity
  8
0
370
              -2
390
0
  6
Continuous
 62
               0
100
AcDbCircle
 10
473.53342381116096
 20
-475.5308619227132
 30
0.0
 40
4.99969482421875
  0
HATCH
  5
EC
100
AcDbEntity
  8
0
370
              -2
390
0
  6
Continuous
 62
               0
100
AcDbHatch
 10
0.0
 20
0.0
 30
0.0
210
0.0
220
0.0
230
1.0
  2
SOLID
 70
               1
 71
               1
 91
        1
 92
        1
 93
        1
 72
               2
 10
473.53342381116096
 20
-475.5308619227132
 40
4.99969482421875
 50
0.0
 51
360.0
 73
               0
 97
        1
330
EB
 75
               0
 76
               1
 98
        1
 10
0.0
 20
0.0
  0
MTEXT
  5
ED
100
AcDbEntity
  8
0
390
0
 62
               0
100
AcDbMText
 10
439.65580662366096
 20
-354.37590134382168
 30
0.0
 40
24.432617187500004
 41
0.0
 71
               1
 72
               1
  1
115(深さ)
  7
ＭＳ ゴシック
 11
0.0
 21
1.0
 31
0.0
 73
               1
 44
0.7828267384257843
  0
POINT
  5
EE
100
AcDbEntity
  8
Defpoints
370
               0
390
0
 62
               0
100
AcDbPoint
 10
463.11418960438215
 20
-475.5308619227132
 30
0.0
  0
POINT
  5
EF
100
AcDbEntity
  8
Defpoints
370
               0
390
0
 62
               0
100
AcDbPoint
 10
463.11418960438209
 20
-360.5308619227132
 30
0.0
  0
POINT
  5
F0
100
AcDbEntity
  8
Defpoints
370
               0
390
0
 62
               0
100
AcDbPoint
 10
473.53342381116096
 20
-360.5308619227132
 30
0.0
  0
ENDBLK
  5
F1
100
AcDbEntity
  8
notes
390
0
100
AcDbBlockEnd
  0
BLOCK
  5
F2
100
AcDbEntity
  8
notes
390
0
100
AcDbBlockBegin
  2
*D14
 70
               1
 10
0.0
 20
0.0
 30
0.0
  3
*D14
  1

  0
LINE
  5
F3
100
AcDbEntity
  8
0
370
              -2
390
0
  6
Continuous
 62
               0
100
AcDbLine
 10
-699.37590134382265
 20
875.39133596083866
 30
0.0
 11
-699.37590134382265
 21
955.39133596083866
 31
0.0
  0
LINE
  5
F4
100
AcDbEntity
  8
0
370
              -2
390
0
  6
Continuous
 62
               0
100
AcDbLine
 10
-199.37590134382151
 20
875.39133596083934
 30
0.0
 11
-199.37590134382151
 21
955.39133596083866
 31
0.0
  0
LINE
  5
F5
100
AcDbEntity
  8
0
370
              -2
390
0
  6
Continuous
 62
               0
100
AcDbLine
 10
-699.37590134382265
 20
955.39133596083866
 30
0.0
 11
-199.37590134382151
 21
955.39133596083866
 31
0.0
  0
CIRCLE
  5
F6
102
{ACAD_REACTORS
330
F7
102
}
100
AcDbEntity
  8
0
370
              -2
390
0
  6
Continuous
 62
               0
100
AcDbCircle
 10
-699.37590134382265
 20
955.39133596083866
 30
0.0
 40
4.99969482421875
  0
HATCH
  5
F7
100
AcDbEntity
  8
0
370
              -2
390
0
  6
Continuous
 62
               0
100
AcDbHatch
 10
0.0
 20
0.0
 30
0.0
210
0.0
220
0.0
230
1.0
  2
SOLID
 70
               1
 71
               1
 91
        1
 92
        1
 93
        1
 72
               2
 10
-699.37590134382265
 20
955.39133596083866
 40
4.99969482421875
 50
0.0
 51
360.0
 73
               0
 97
        1
330
F6
 75
               0
 76
               1
 98
        1
 10
0.0
 20
0.0
  0
CIRCLE
  5
F8
102
{ACAD_REACTORS
330
F9
102
}
100
AcDbEntity
  8
0
370
              -2
390
0
  6
Continuous
 62
               0
100
AcDbCircle
 10
-199.37590134382151
 20
955.39133596083866
 30
0.0
 40
4.99969482421875
  0
HATCH
  5
F9
100
AcDbEntity
  8
0
370
              -2
390
0
  6
Continuous
 62
               0
100
AcDbHatch
 10
0.0
 20
0.0
 30
0.0
210
0.0
220
0.0
230
1.0
  2
SOLID
 70
               1
 71
               1
 91
        1
 92
        1
 93
        1
 72
               2
 10
-199.37590134382151
 20
955.39133596083866
 40
4.99969482421875
 50
0.0
 51
360.0
 73
               0
 97
        1
330
F8
 75
               0
 76
               1
 98
        1
 10
0.0
 20
0.0
  0
MTEXT
  5
FA
100
AcDbEntity
  8
0
390
0
 62
               0
100
AcDbMText
 10
-473.18840302599756
 20
989.26895314833882
 30
0.0
 40
24.432617187500004
 41
0.0
 71
               1
 72
               1
  1
500
  7
ＭＳ ゴシック
 73
               1
 44
0.7828267384257843
  0
POINT
  5
FB
100
AcDbEntity
  8
Defpoints
370
               0
390
0
 62
               0
100
AcDbPoint
 10
-199.37590134382151
 20
850.39133596083934
 30
0.0
  0
POINT
  5
FC
100
AcDbEntity
  8
Defpoints
370
               0
390
0
 62
               0
100
AcDbPoint
 10
-699.37590134382265
 20
850.39133596083866
 30
0.0
  0
POINT
  5
FD
100
AcDbEntity
  8
Defpoints
370
               0
390
0
 62
               0
100
AcDbPoint
 10
-699.37590134382265
 20
955.39133596083866
 30
0.0
  0
ENDBLK
  5
FE
100
AcDbEntity
  8
notes
390
0
100
AcDbBlockEnd
  0
BLOCK
  5
FF
100
AcDbEntity
  8
notes
390
0
100
AcDbBlockBegin
  2
*D15
 70
               1
 10
0.0
 20
0.0
 30
0.0
  3
*D15
  1

  0
LINE
  5
100
100
AcDbEntity
  8
0
370
              -2
390
0
  6
Continuous
 62
               0
100
AcDbLine
 10
-174.37590134382174
 20
830.39133596083889
 30
0.0
 11
-99.375901343821738
 21
830.39133596083889
 31
0.0
  0
LINE
  5
101
100
AcDbEntity
  8
0
370
              -2
390
0
  6
Continuous
 62
               0
100
AcDbLine
 10
-174.37590134382174
 20
510.39133596083889
 30
0.0
 11
-99.375901343821738
 21
510.39133596083889
 31
0.0
  0
LINE
  5
102
100
AcDbEntity
  8
0
370
              -2
390
0
  6
Continuous
 62
               0
100
AcDbLine
 10
-99.375901343821738
 20
830.39133596083889
 30
0.0
 11
-99.375901343821738
 21
510.39133596083889
 31
0.0
  0
CIRCLE
  5
103
102
{ACAD_REACTORS
330
104
102
}
100
AcDbEntity
  8
0
370
              -2
390
0
  6
Continuous
 62
               0
100
AcDbCircle
 10
-99.375901343821738
 20
830.39133596083889
 30
0.0
 40
4.99969482421875
  0
HATCH
  5
104
100
AcDbEntity
  8
0
370
              -2
390
0
  6
Continuous
 62
               0
100
AcDbHatch
 10
0.0
 20
0.0
 30
0.0
210
0.0
220
0.0
230
1.0
  2
SOLID
 70
               1
 71
               1
 91
        1
 92
        1
 93
        1
 72
               2
 10
-99.375901343821738
 20
830.39133596083889
 40
4.99969482421875
 50
0.0
 51
360.0
 73
               0
 97
        1
330
103
 75
               0
 76
               1
 98
        1
 10
0.0
 20
0.0
  0
CIRCLE
  5
105
102
{ACAD_REACTORS
330
106
102
}
100
AcDbEntity
  8
0
370
              -2
390
0
  6
Continuous
 62
               0
100
AcDbCircle
 10
-99.375901343821738
 20
510.39133596083889
 30
0.0
 40
4.99969482421875
  0
HATCH
  5
106
100
AcDbEntity
  8
0
370
              -2
390
0
  6
Continuous
 62
               0
100
AcDbHatch
 10
0.0
 20
0.0
 30
0.0
210
0.0
220
0.0
230
1.0
  2
SOLID
 70
               1
 71
               1
 91
        1
 92
        1
 93
        1
 72
               2
 10
-99.375901343821738
 20
510.39133596083889
 40
4.99969482421875
 50
0.0
 51
360.0
 73
               0
 97
        1
330
105
 75
               0
 76
               1
 98
        1
 10
0.0
 20
0.0
  0
MTEXT
  5
107
100
AcDbEntity
  8
0
390
0
 62
               0
100
AcDbMText
 10
-133.25351853132179
 20
646.57883427866341
 30
0.0
 40
24.432617187500004
 41
0.0
 71
               1
 72
               1
  1
320
  7
ＭＳ ゴシック
 11
0.0
 21
1.0
 31
0.0
 73
               1
 44
0.7828267384257843
  0
POINT
  5
108
100
AcDbEntity
  8
Defpoints
370
               0
390
0
 62
               0
100
AcDbPoint
 10
-199.37590134382174
 20
510.39133596083889
 30
0.0
  0
POINT
  5
109
100
AcDbEntity
  8
Defpoints
370
               0
390
0
 62
               0
100
AcDbPoint
 10
-199.37590134382174
 20
830.39133596083889
 30
0.0
  0
POINT
  5
10A
100
AcDbEntity
  8
Defpoints
370
               0
390
0
 62
               0
100
AcDbPoint
 10
-99.375901343821738
 20
830.39133596083889
 30
0.0
  0
ENDBLK
  5
10B
100
AcDbEntity
  8
notes
390
0
100
AcDbBlockEnd
  0
BLOCK
  5
10C
100
AcDbEntity
  8
notes
390
0
100
AcDbBlockBegin
  2
*D16
 70
               1
 10
0.0
 20
0.0
 30
0.0
  3
*D16
  1

  0
LINE
  5
10D
100
AcDbEntity
  8
0
370
              -2
390
0
  6
Continuous
 62
               0
100
AcDbLine
 10
-179.37590134382162
 20
-360.5308619227132
 30
0.0
 11
-99.375901343821738
 21
-360.5308619227132
 31
0.0
  0
LINE
  5
10E
100
AcDbEntity
  8
0
370
              -2
390
0
  6
Continuous
 62
               0
100
AcDbLine
 10
-226.27383047534886
 20
-510.5308619227132
 30
0.0
 11
-99.375901343821738
 21
-510.5308619227132
 31
0.0
  0
LINE
  5
10F
100
AcDbEntity
  8
0
370
              -2
390
0
  6
Continuous
 62
               0
100
AcDbLine
 10
-99.375901343821738
 20
-360.5308619227132
 30
0.0
 11
-99.375901343821738
 21
-510.5308619227132
 31
0.0
  0
CIRCLE
  5
110
102
{ACAD_REACTORS
330
111
102
}
100
AcDbEntity
  8
0
370
              -2
390
0
  6
Continuous
 62
               0
100
AcDbCircle
 10
-99.375901343821738
 20
-360.5308619227132
 30
0.0
 40
4.99969482421875
  0
HATCH
  5
111
100
AcDbEntity
  8
0
370
              -2
390
0
  6
Continuous
 62
               0
100
AcDbHatch
 10
0.0
 20
0.0
 30
0.0
210
0.0
220
0.0
230
1.0
  2
SOLID
 70
               1
 71
               1
 91
        1
 92
        1
 93
        1
 72
               2
 10
-99.375901343821738
 20
-360.5308619227132
 40
4.99969482421875
 50
0.0
 51
360.0
 73
               0
 97
        1
330
110
 75
               0
 76
               1
 98
        1
 10
0.0
 20
0.0
  0
CIRCLE
  5
112
102
{ACAD_REACTORS
330
113
102
}
100
AcDbEntity
  8
0
370
              -2
390
0
  6
Continuous
 62
               0
100
AcDbCircle
 10
-99.375901343821738
 20
-510.5308619227132
 30
0.0
 40
4.99969482421875
  0
HATCH
  5
113
100
AcDbEntity
  8
0
370
              -2
390
0
  6
Continuous
 62
               0
100
AcDbHatch
 10
0.0
 20
0.0
 30
0.0
210
0.0
220
0.0
230
1.0
  2
SOLID
 70
               1
 71
               1
 91
        1
 92
        1
 93
        1
 72
               2
 10
-99.375901343821738
 20
-510.5308619227132
 40
4.99969482421875
 50
0.0
 51
360.0
 73
               0
 97
        1
330
112
 75
               0
 76
               1
 98
        1
 10
0.0
 20
0.0
  0
MTEXT
  5
114
100
AcDbEntity
  8
0
390
0
 62
               0
100
AcDbMText
 10
-133.25351853132179
 20
-459.34336360488868
 30
0.0
 40
24.432617187500004
 41
0.0
 71
               1
 72
               1
  1
150
  7
ＭＳ ゴシック
 11
0.0
 21
1.0
 31
0.0
 73
               1
 44
0.7828267384257843
  0
POINT
  5
115
100
AcDbEntity
  8
Defpoints
370
               0
390
0
 62
               0
100
AcDbPoint
 10
-251.27383047534886
 20
-510.5308619227132
 30
0.0
  0
POINT
  5
116
100
AcDbEntity
  8
Defpoints
370
               0
390
0
 62
               0
100
AcDbPoint
 10
-204.37590134382162
 20
-360.5308619227132
 30
0.0
  0
POINT
  5
117
100
AcDbEntity
  8
Defpoints
370
               0
390
0
 62
               0
100
AcDbPoint
 10
-99.375901343821738
 20
-360.5308619227132
 30
0.0
  0
ENDBLK
  5
118
100
AcDbEntity
  8
notes
390
0
100
AcDbBlockEnd
  0
BLOCK
  5
119
100
AcDbEntity
  8
notes
390
0
100
AcDbBlockBegin
  2
*D17
 70
               1
 10
0.0
 20
0.0
 30
0.0
  3
*D17
  1

  0
LINE
  5
11A
100
AcDbEntity
  8
0
370
              -2
390
0
  6
Continuous
 62
               0
100
AcDbLine
 10
668.11354178346528
 20
-360.5308619227132
 30
0.0
 11
748.11354178346528
 21
-360.5308619227132
 31
0.0
  0
LINE
  5
11B
100
AcDbEntity
  8
0
370
              -2
390
0
  6
Continuous
 62
               0
100
AcDbLine
 10
668.11354178346528
 20
-455.53086192271343
 30
0.0
 11
748.11354178346528
 21
-455.53086192271343
 31
0.0
  0
LINE
  5
11C
100
AcDbEntity
  8
0
370
              -2
390
0
  6
Continuous
 62
               0
100
AcDbLine
 10
748.11354178346528
 20
-360.5308619227132
 30
0.0
 11
748.11354178346528
 21
-455.53086192271343
 31
0.0
  0
CIRCLE
  5
11D
102
{ACAD_REACTORS
330
11E
102
}
100
AcDbEntity
  8
0
370
              -2
390
0
  6
Continuous
 62
               0
100
AcDbCircle
 10
748.11354178346528
 20
-360.5308619227132
 30
0.0
 40
4.99969482421875
  0
HATCH
  5
11E
100
AcDbEntity
  8
0
370
              -2
390
0
  6
Continuous
 62
               0
100
AcDbHatch
 10
0.0
 20
0.0
 30
0.0
210
0.0
220
0.0
230
1.0
  2
SOLID
 70
               1
 71
               1
 91
        1
 92
        1
 93
        1
 72
               2
 10
748.11354178346528
 20
-360.5308619227132
 40
4.99969482421875
 50
0.0
 51
360.0
 73
               0
 97
        1
330
11D
 75
               0
 76
               1
 98
        1
 10
0.0
 20
0.0
  0
CIRCLE
  5
11F
102
{ACAD_REACTORS
330
120
102
}
100
AcDbEntity
  8
0
370
              -2
390
0
  6
Continuous
 62
               0
100
AcDbCircle
 10
748.11354178346528
 20
-455.53086192271343
 30
0.0
 40
4.99969482421875
  0
HATCH
  5
120
100
AcDbEntity
  8
0
370
              -2
390
0
  6
Continuous
 62
               0
100
AcDbHatch
 10
0.0
 20
0.0
 30
0.0
210
0.0
220
0.0
230
1.0
  2
SOLID
 70
               1
 71
               1
 91
        1
 92
        1
 93
        1
 72
               2
 10
748.11354178346528
 20
-455.53086192271343
 40
4.99969482421875
 50
0.0
 51
360.0
 73
               0
 97
        1
330
11F
 75
               0
 76
               1
 98
        1
 10
0.0
 20
0.0
  0
MTEXT
  5
121
100
AcDbEntity
  8
0
390
0
 62
               0
100
AcDbMText
 10
714.23592459596534
 20
-423.90586192271331
 30
0.0
 40
24.432617187500004
 41
0.0
 71
               1
 72
               1
  1
95
  7
ＭＳ ゴシック
 11
0.0
 21
1.0
 31
0.0
 73
               1
 44
0.7828267384257843
  0
POINT
  5
122
100
AcDbEntity
  8
Defpoints
370
               0
390
0
 62
               0
100
AcDbPoint
 10
643.11354178346528
 20
-455.53086192271343
 30
0.0
  0
POINT
  5
123
100
AcDbEntity
  8
Defpoints
370
               0
390
0
 62
               0
100
AcDbPoint
 10
643.11354178346528
 20
-360.5308619227132
 30
0.0
  0
POINT
  5
124
100
AcDbEntity
  8
Defpoints
370
               0
390
0
 62
               0
100
AcDbPoint
 10
748.11354178346528
 20
-360.5308619227132
 30
0.0
  0
ENDBLK
  5
125
100
AcDbEntity
  8
notes
390
0
100
AcDbBlockEnd
  0
BLOCK
  5
126
100
AcDbEntity
  8
notes
390
0
100
AcDbBlockBegin
  2
*D18
 70
               1
 10
0.0
 20
0.0
 30
0.0
  3
*D18
  1

  0
LINE
  5
127
100
AcDbEntity
  8
0
370
              -2
390
0
  6
Continuous
 62
               0
100
AcDbLine
 10
668.11354178346528
 20
-455.53086192271343
 30
0.0
 11
748.11354178346528
 21
-455.53086192271343
 31
0.0
  0
LINE
  5
128
100
AcDbEntity
  8
0
370
              -2
390
0
  6
Continuous
 62
               0
100
AcDbLine
 10
618.10797569530928
 20
-510.5308619227132
 30
0.0
 11
748.11354178346528
 21
-510.5308619227132
 31
0.0
  0
LINE
  5
129
100
AcDbEntity
  8
0
370
              -2
390
0
  6
Continuous
 62
               0
100
AcDbLine
 10
748.11354178346528
 20
-455.53086192271343
 30
0.0
 11
748.11354178346528
 21
-510.5308619227132
 31
0.0
  0
CIRCLE
  5
12A
102
{ACAD_REACTORS
330
12B
102
}
100
AcDbEntity
  8
0
370
              -2
390
0
  6
Continuous
 62
               0
100
AcDbCircle
 10
748.11354178346528
 20
-455.53086192271343
 30
0.0
 40
4.99969482421875
  0
HATCH
  5
12B
100
AcDbEntity
  8
0
370
              -2
390
0
  6
Continuous
 62
               0
100
AcDbHatch
 10
0.0
 20
0.0
 30
0.0
210
0.0
220
0.0
230
1.0
  2
SOLID
 70
               1
 71
               1
 91
        1
 92
        1
 93
        1
 72
               2
 10
748.11354178346528
 20
-455.53086192271343
 40
4.99969482421875
 50
0.0
 51
360.0
 73
               0
 97
        1
330
12A
 75
               0
 76
               1
 98
        1
 10
0.0
 20
0.0
  0
CIRCLE
  5
12C
102
{ACAD_REACTORS
330
12D
102
}
100
AcDbEntity
  8
0
370
              -2
390
0
  6
Continuous
 62
               0
100
AcDbCircle
 10
748.11354178346528
 20
-510.5308619227132
 30
0.0
 40
4.99969482421875
  0
HATCH
  5
12D
100
AcDbEntity
  8
0
370
              -2
390
0
  6
Continuous
 62
               0
100
AcDbHatch
 10
0.0
 20
0.0
 30
0.0
210
0.0
220
0.0
230
1.0
  2
SOLID
 70
               1
 71
               1
 91
        1
 92
        1
 93
        1
 72
               2
 10
748.11354178346528
 20
-510.5308619227132
 40
4.99969482421875
 50
0.0
 51
360.0
 73
               0
 97
        1
330
12C
 75
               0
 76
               1
 98
        1
 10
0.0
 20
0.0
  0
MTEXT
  5
12E
100
AcDbEntity
  8
0
390
0
 62
               0
100
AcDbMText
 10
714.23592459596534
 20
-498.90586192271331
 30
0.0
 40
24.432617187500004
 41
0.0
 71
               1
 72
               1
  1
55
  7
ＭＳ ゴシック
 11
0.0
 21
1.0
 31
0.0
 73
               1
 44
0.7828267384257843
  0
POINT
  5
12F
100
AcDbEntity
  8
Defpoints
370
               0
390
0
 62
               0
100
AcDbPoint
 10
593.10797569530928
 20
-510.5308619227132
 30
0.0
  0
POINT
  5
130
100
AcDbEntity
  8
Defpoints
370
               0
390
0
 62
               0
100
AcDbPoint
 10
643.11354178346528
 20
-455.53086192271343
 30
0.0
  0
POINT
  5
131
100
AcDbEntity
  8
Defpoints
370
               0
390
0
 62
               0
100
AcDbPoint
 10
748.11354178346528
 20
-455.53086192271343
 30
0.0
  0
ENDBLK
  5
132
100
AcDbEntity
  8
notes
390
0
100
AcDbBlockEnd
  0
BLOCK
  5
133
100
AcDbEntity
  8
notes
390
0
100
AcDbBlockBegin
  2
*D19
 70
               1
 10
0.0
 20
0.0
 30
0.0
  3
*D19
  1

  0
LINE
  5
134
100
AcDbEntity
  8
0
370
              -2
390
0
  6
Continuous
 62
               0
100
AcDbLine
 10
-699.37590134382287
 20
-470.5308619227132
 30
0.0
 11
-699.37590134382287
 21
-605.53086192271303
 31
0.0
  0
LINE
  5
135
100
AcDbEntity
  8
0
370
              -2
390
0
  6
Continuous
 62
               0
100
AcDbLine
 10
-384.33372594729326
 20
-525.53086192271326
 30
0.0
 11
-384.33372594729326
 21
-605.53086192271303
 31
0.0
  0
LINE
  5
136
100
AcDbEntity
  8
0
370
              -2
390
0
  6
Continuous
 62
               0
100
AcDbLine
 10
-699.37590134382287
 20
-605.53086192271303
 30
0.0
 11
-384.33372594729326
 21
-605.53086192271303
 31
0.0
  0
CIRCLE
  5
137
102
{ACAD_REACTORS
330
138
102
}
100
AcDbEntity
  8
0
370
              -2
390
0
  6
Continuous
 62
               0
100
AcDbCircle
 10
-699.37590134382287
 20
-605.53086192271303
 30
0.0
 40
4.99969482421875
  0
HATCH
  5
138
100
AcDbEntity
  8
0
370
              -2
390
0
  6
Continuous
 62
               0
100
AcDbHatch
 10
0.0
 20
0.0
 30
0.0
210
0.0
220
0.0
230
1.0
  2
SOLID
 70
               1
 71
               1
 91
        1
 92
        1
 93
        1
 72
               2
 10
-699.37590134382287
 20
-605.53086192271303
 40
4.99969482421875
 50
0.0
 51
360.0
 73
               0
 97
        1
330
137
 75
               0
 76
               1
 98
        1
 10
0.0
 20
0.0
  0
CIRCLE
  5
139
102
{ACAD_REACTORS
330
13A
102
}
100
AcDbEntity
  8
0
370
              -2
390
0
  6
Continuous
 62
               0
100
AcDbCircle
 10
-384.33372594729326
 20
-605.53086192271303
 30
0.0
 40
4.99969482421875
  0
HATCH
  5
13A
100
AcDbEntity
  8
0
370
              -2
390
0
  6
Continuous
 62
               0
100
AcDbHatch
 10
0.0
 20
0.0
 30
0.0
210
0.0
220
0.0
230
1.0
  2
SOLID
 70
               1
 71
               1
 91
        1
 92
        1
 93
        1
 72
               2
 10
-384.33372594729326
 20
-605.53086192271303
 40
4.99969482421875
 50
0.0
 51
360.0
 73
               0
 97
        1
330
139
 75
               0
 76
               1
 98
        1
 10
0.0
 20
0.0
  0
MTEXT
  5
13B
100
AcDbEntity
  8
0
390
0
 62
               0
100
AcDbMText
 10
-565.66731532773349
 20
-571.65324473521309
 30
0.0
 40
24.432617187500004
 41
0.0
 71
               1
 72
               1
  1
315
  7
ＭＳ ゴシック
 73
               1
 44
0.7828267384257843
  0
POINT
  5
13C
100
AcDbEntity
  8
Defpoints
370
               0
390
0
 62
               0
100
AcDbPoint
 10
-384.33372594729326
 20
-500.5308619227132
 30
0.0
  0
POINT
  5
13D
100
AcDbEntity
  8
Defpoints
370
               0
390
0
 62
               0
100
AcDbPoint
 10
-699.37590134382287
 20
-445.5308619227132
 30
0.0
  0
POINT
  5
13E
100
AcDbEntity
  8
Defpoints
370
               0
390
0
 62
               0
100
AcDbPoint
 10
-699.37590134382287
 20
-605.53086192271303
 30
0.0
  0
ENDBLK
  5
13F
100
AcDbEntity
  8
notes
390
0
100
AcDbBlockEnd
  0
BLOCK
  5
140
100
AcDbEntity
  8
notes
390
0
100
AcDbBlockBegin
  2
*D20
 70
               1
 10
0.0
 20
0.0
 30
0.0
  3
*D20
  1

  0
LINE
  5
141
100
AcDbEntity
  8
0
370
              -2
390
0
  6
Continuous
 62
               0
100
AcDbLine
 10
703.11418960438198
 20
820.38971093049804
 30
0.0
 11
813.23651697139906
 21
820.38971093049804
 31
0.0
  0
LINE
  5
142
100
AcDbEntity
  8
0
370
              -2
390
0
  6
Continuous
 62
               0
100
AcDbLine
 10
703.11418960438198
 20
520.38971093049815
 30
0.0
 11
813.23651697139906
 21
520.38971093049815
 31
0.0
  0
LINE
  5
143
100
AcDbEntity
  8
0
370
              -2
390
0
  6
Continuous
 62
               0
100
AcDbLine
 10
813.23651697139906
 20
820.38971093049804
 30
0.0
 11
813.23651697139906
 21
520.38971093049815
 31
0.0
  0
CIRCLE
  5
144
102
{ACAD_REACTORS
330
145
102
}
100
AcDbEntity
  8
0
370
              -2
390
0
  6
Continuous
 62
               0
100
AcDbCircle
 10
813.23651697139906
 20
820.38971093049804
 30
0.0
 40
4.99969482421875
  0
HATCH
  5
145
100
AcDbEntity
  8
0
370
              -2
390
0
  6
Continuous
 62
               0
100
AcDbHatch
 10
0.0
 20
0.0
 30
0.0
210
0.0
220
0.0
230
1.0
  2
SOLID
 70
               1
 71
               1
 91
        1
 92
        1
 93
        1
 72
               2
 10
813.23651697139906
 20
820.38971093049804
 40
4.99969482421875
 50
0.0
 51
360.0
 73
               0
 97
        1
330
144
 75
               0
 76
               1
 98
        1
 10
0.0
 20
0.0
  0
CIRCLE
  5
146
102
{ACAD_REACTORS
330
147
102
}
100
AcDbEntity
  8
0
370
              -2
390
0
  6
Continuous
 62
               0
100
AcDbCircle
 10
813.23651697139906
 20
520.38971093049815
 30
0.0
 40
4.99969482421875
  0
HATCH
  5
147
100
AcDbEntity
  8
0
370
              -2
390
0
  6
Continuous
 62
               0
100
AcDbHatch
 10
0.0
 20
0.0
 30
0.0
210
0.0
220
0.0
230
1.0
  2
SOLID
 70
               1
 71
               1
 91
        1
 92
        1
 93
        1
 72
               2
 10
813.23651697139906
 20
520.38971093049815
 40
4.99969482421875
 50
0.0
 51
360.0
 73
               0
 97
        1
330
146
 75
               0
 76
               1
 98
        1
 10
0.0
 20
0.0
  0
MTEXT
  5
148
100
AcDbEntity
  8
0
390
0
 62
               0
100
AcDbMText
 10
779.35889978389901
 20
646.57720924832256
 30
0.0
 40
24.432617187500004
 41
0.0
 71
               1
 72
               1
  1
300
  7
ＭＳ ゴシック
 11
0.0
 21
1.0
 31
0.0
 73
               1
 44
0.7828267384257843
  0
POINT
  5
149
100
AcDbEntity
  8
Defpoints
370
               0
390
0
 62
               0
100
AcDbPoint
 10
678.11418960438198
 20
520.38971093049815
 30
0.0
  0
POINT
  5
14A
100
AcDbEntity
  8
Defpoints
370
               0
390
0
 62
               0
100
AcDbPoint
 10
678.11418960438198
 20
820.38971093049804
 30
0.0
  0
POINT
  5
14B
100
AcDbEntity
  8
Defpoints
370
               0
390
0
 62
               0
100
AcDbPoint
 10
813.23651697139906
 20
820.38971093049804
 30
0.0
  0
ENDBLK
  5
14C
100
AcDbEntity
  8
notes
390
0
100
AcDbBlockEnd
  0
BLOCK
  5
14D
100
AcDbEntity
  8
notes
390
0
100
AcDbBlockBegin
  2
*D21
 70
               1
 10
0.0
 20
0.0
 30
0.0
  3
*D21
  1

  0
LINE
  5
14E
100
AcDbEntity
  8
0
370
              -2
390
0
  6
Continuous
 62
               0
100
AcDbLine
 10
703.11418960438198
 20
820.38971093049804
 30
0.0
 11
813.5334238111609
 21
820.38971093049804
 31
0.0
  0
LINE
  5
14F
100
AcDbEntity
  8
0
370
              -2
390
0
  6
Continuous
 62
               0
100
AcDbLine
 10
733.1141896043822
 20
855.38971093049872
 30
0.0
 11
813.5334238111609
 21
855.38971093049872
 31
0.0
  0
LINE
  5
150
100
AcDbEntity
  8
0
370
              -2
390
0
  6
Continuous
 62
               0
100
AcDbLine
 10
813.5334238111609
 20
855.38971093049872
 30
0.0
 11
813.5334238111609
 21
899.37409865617838
 31
0.0
  0
LINE
  5
151
100
AcDbEntity
  8
0
370
              -2
390
0
  6
Continuous
 62
               0
100
AcDbLine
 10
813.5334238111609
 20
820.38971093049804
 30
0.0
 11
813.5334238111609
 21
855.38971093049872
 31
0.0
  0
CIRCLE
  5
152
102
{ACAD_REACTORS
330
153
102
}
100
AcDbEntity
  8
0
370
              -2
390
0
  6
Continuous
 62
               0
100
AcDbCircle
 10
813.5334238111609
 20
820.38971093049804
 30
0.0
 40
4.99969482421875
  0
HATCH
  5
153
100
AcDbEntity
  8
0
370
              -2
390
0
  6
Continuous
 62
               0
100
AcDbHatch
 10
0.0
 20
0.0
 30
0.0
210
0.0
220
0.0
230
1.0
  2
SOLID
 70
               1
 71
               1
 91
        1
 92
        1
 93
        1
 72
               2
 10
813.5334238111609
 20
820.38971093049804
 40
4.99969482421875
 50
0.0
 51
360.0
 73
               0
 97
        1
330
152
 75
               0
 76
               1
 98
        1
 10
0.0
 20
0.0
  0
CIRCLE
  5
154
102
{ACAD_REACTORS
330
155
102
}
100
AcDbEntity
  8
0
370
              -2
390
0
  6
Continuous
 62
               0
100
AcDbCircle
 10
813.5334238111609
 20
855.38971093049872
 30
0.0
 40
4.99969482421875
  0
HATCH
  5
155
100
AcDbEntity
  8
0
370
              -2
390
0
  6
Continuous
 62
               0
100
AcDbHatch
 10
0.0
 20
0.0
 30
0.0
210
0.0
220
0.0
230
1.0
  2
SOLID
 70
               1
 71
               1
 91
        1
 92
        1
 93
        1
 72
               2
 10
813.5334238111609
 20
855.38971093049872
 40
4.99969482421875
 50
0.0
 51
360.0
 73
               0
 97
        1
330
154
 75
               0
 76
               1
 98
        1
 10
0.0
 20
0.0
  0
MTEXT
  5
156
100
AcDbEntity
  8
0
390
0
 62
               0
100
AcDbMText
 10
779.65580662366096
 20
867.62409865617838
 30
0.0
 40
24.432617187500004
 41
0.0
 71
               1
 72
               1
  1
35
  7
ＭＳ ゴシック
 11
0.0
 21
1.0
 31
0.0
 73
               1
 44
0.7828267384257843
  0
POINT
  5
157
100
AcDbEntity
  8
Defpoints
370
               0
390
0
 62
               0
100
AcDbPoint
 10
708.1141896043822
 20
855.38971093049872
 30
0.0
  0
POINT
  5
158
100
AcDbEntity
  8
Defpoints
370
               0
390
0
 62
               0
100
AcDbPoint
 10
678.11418960438198
 20
820.38971093049804
 30
0.0
  0
POINT
  5
159
100
AcDbEntity
  8
Defpoints
370
               0
390
0
 62
               0
100
AcDbPoint
 10
813.5334238111609
 20
820.38971093049804
 30
0.0
  0
ENDBLK
  5
15A
100
AcDbEntity
  8
notes
390
0
100
AcDbBlockEnd
  0
BLOCK
  5
15B
100
AcDbEntity
  8
notes
390
0
100
AcDbBlockBegin
  2
*D22
 70
               1
 10
0.0
 20
0.0
 30
0.0
  3
*D22
  1

  0
LINE
  5
15C
100
AcDbEntity
  8
0
370
              -2
390
0
  6
Continuous
 62
               0
100
AcDbLine
 10
598.13342381116092
 20
745.42409865617833
 30
0.0
 11
653.13342381116104
 21
745.42409865617833
 31
0.0
  0
LINE
  5
15D
100
AcDbEntity
  8
0
370
              -2
390
0
  6
Continuous
 62
               0
100
AcDbLine
 10
598.13342381116092
 20
595.42409865617833
 30
0.0
 11
653.13342381116104
 21
595.42409865617833
 31
0.0
  0
LINE
  5
15E
100
AcDbEntity
  8
0
370
              -2
390
0
  6
Continuous
 62
               0
100
AcDbLine
 10
653.13342381116104
 20
745.42409865617833
 30
0.0
 11
653.13342381116104
 21
595.42409865617833
 31
0.0
  0
CIRCLE
  5
15F
102
{ACAD_REACTORS
330
160
102
}
100
AcDbEntity
  8
0
370
              -2
390
0
  6
Continuous
 62
               0
100
AcDbCircle
 10
653.13342381116104
 20
745.42409865617833
 30
0.0
 40
4.99969482421875
  0
HATCH
  5
160
100
AcDbEntity
  8
0
370
              -2
390
0
  6
Continuous
 62
               0
100
AcDbHatch
 10
0.0
 20
0.0
 30
0.0
210
0.0
220
0.0
230
1.0
  2
SOLID
 70
               1
 71
               1
 91
        1
 92
        1
 93
        1
 72
               2
 10
653.13342381116104
 20
745.42409865617833
 40
4.99969482421875
 50
0.0
 51
360.0
 73
               0
 97
        1
330
15F
 75
               0
 76
               1
 98
        1
 10
0.0
 20
0.0
  0
CIRCLE
  5
161
102
{ACAD_REACTORS
330
162
102
}
100
AcDbEntity
  8
0
370
              -2
390
0
  6
Continuous
 62
               0
100
AcDbCircle
 10
653.13342381116104
 20
595.42409865617833
 30
0.0
 40
4.99969482421875
  0
HATCH
  5
162
100
AcDbEntity
  8
0
370
              -2
390
0
  6
Continuous
 62
               0
100
AcDbHatch
 10
0.0
 20
0.0
 30
0.0
210
0.0
220
0.0
230
1.0
  2
SOLID
 70
               1
 71
               1
 91
        1
 92
        1
 93
        1
 72
               2
 10
653.13342381116104
 20
595.42409865617833
 40
4.99969482421875
 50
0.0
 51
360.0
 73
               0
 97
        1
330
161
 75
               0
 76
               1
 98
        1
 10
0.0
 20
0.0
  0
MTEXT
  5
163
100
AcDbEntity
  8
0
390
0
 62
               0
100
AcDbMText
 10
619.25580662366099
 20
646.61159697400285
 30
0.0
 40
24.432617187500004
 41
0.0
 71
               1
 72
               1
  1
150
  7
ＭＳ ゴシック
 11
0.0
 21
1.0
 31
0.0
 73
               1
 44
0.7828267384257843
  0
POINT
  5
164
100
AcDbEntity
  8
Defpoints
370
               0
390
0
 62
               0
100
AcDbPoint
 10
573.13342381116092
 20
595.42409865617833
 30
0.0
  0
POINT
  5
165
100
AcDbEntity
  8
Defpoints
370
               0
390
0
 62
               0
100
AcDbPoint
 10
573.13342381116092
 20
745.42409865617833
 30
0.0
  0
POINT
  5
166
100
AcDbEntity
  8
Defpoints
370
               0
390
0
 62
               0
100
AcDbPoint
 10
653.13342381116104
 20
745.42409865617833
 30
0.0
  0
ENDBLK
  5
167
100
AcDbEntity
  8
notes
390
0
100
AcDbBlockEnd
  0
BLOCK
  5
168
100
AcDbEntity
  8
notes
390
0
100
AcDbBlockBegin
  2
*D23
 70
               1
 10
0.0
 20
0.0
 30
0.0
  3
*D23
  1

  0
LINE
  5
169
100
AcDbEntity
  8
0
370
              -2
390
0
  6
Continuous
 62
               0
100
AcDbLine
 10
273.13342381116092
 20
570.42409865617833
 30
0.0
 11
273.13342381116092
 21
545.42409865617833
 31
0.0
  0
LINE
  5
16A
100
AcDbEntity
  8
0
370
              -2
390
0
  6
Continuous
 62
               0
100
AcDbLine
 10
573.13342381116092
 20
570.42409865617833
 30
0.0
 11
573.13342381116092
 21
545.42409865617833
 31
0.0
  0
LINE
  5
16B
100
AcDbEntity
  8
0
370
              -2
390
0
  6
Continuous
 62
               0
100
AcDbLine
 10
273.13342381116092
 20
545.42409865617833
 30
0.0
 11
573.13342381116092
 21
545.42409865617833
 31
0.0
  0
CIRCLE
  5
16C
102
{ACAD_REACTORS
330
16D
102
}
100
AcDbEntity
  8
0
370
              -2
390
0
  6
Continuous
 62
               0
100
AcDbCircle
 10
273.13342381116092
 20
545.42409865617833
 30
0.0
 40
4.99969482421875
  0
HATCH
  5
16D
100
AcDbEntity
  8
0
370
              -2
390
0
  6
Continuous
 62
               0
100
AcDbHatch
 10
0.0
 20
0.0
 30
0.0
210
0.0
220
0.0
230
1.0
  2
SOLID
 70
               1
 71
               1
 91
        1
 92
        1
 93
        1
 72
               2
 10
273.13342381116092
 20
545.42409865617833
 40
4.99969482421875
 50
0.0
 51
360.0
 73
               0
 97
        1
330
16C
 75
               0
 76
               1
 98
        1
 10
0.0
 20
0.0
  0
CIRCLE
  5
16E
102
{ACAD_REACTORS
330
16F
102
}
100
AcDbEntity
  8
0
370
              -2
390
0
  6
Continuous
 62
               0
100
AcDbCircle
 10
573.13342381116092
 20
545.42409865617833
 30
0.0
 40
4.99969482421875
  0
HATCH
  5
16F
100
AcDbEntity
  8
0
370
              -2
390
0
  6
Continuous
 62
               0
100
AcDbHatch
 10
0.0
 20
0.0
 30
0.0
210
0.0
220
0.0
230
1.0
  2
SOLID
 70
               1
 71
               1
 91
        1
 92
        1
 93
        1
 72
               2
 10
573.13342381116092
 20
545.42409865617833
 40
4.99969482421875
 50
0.0
 51
360.0
 73
               0
 97
        1
330
16E
 75
               0
 76
               1
 98
        1
 10
0.0
 20
0.0
  0
MTEXT
  5
170
100
AcDbEntity
  8
0
390
0
 62
               0
100
AcDbMText
 10
399.32092212898544
 20
579.30171584367827
 30
0.0
 40
24.432617187500004
 41
0.0
 71
               1
 72
               1
  1
300
  7
ＭＳ ゴシック
 73
               1
 44
0.7828267384257843
  0
POINT
  5
171
100
AcDbEntity
  8
Defpoints
370
               0
390
0
 62
               0
100
AcDbPoint
 10
573.13342381116092
 20
595.42409865617833
 30
0.0
  0
POINT
  5
172
100
AcDbEntity
  8
Defpoints
370
               0
390
0
 62
               0
100
AcDbPoint
 10
273.13342381116092
 20
595.42409865617833
 30
0.0
  0
POINT
  5
173
100
AcDbEntity
  8
Defpoints
370
               0
390
0
 62
               0
100
AcDbPoint
 10
273.13342381116092
 20
545.42409865617833
 30
0.0
  0
ENDBLK
  5
174
100
AcDbEntity
  8
notes
390
0
100
AcDbBlockEnd
  0
ENDSEC
  0
SECTION
  2
ENTITIES
  0
MTEXT
  5
175
100
AcDbEntity
  8
template
390
0
 62
               7
100
AcDbMText
 10
-967.9999999997591
 20
-1147.4176292337004
 30
0.0
 40
16.288411458333332
 41
0.0
 71
               1
 72
               1
  1
品名
  7
ＭＳ ゴシック
 73
               1
 44
0.7828267384257843
  0
MTEXT
  5
176
100
AcDbEntity
  8
template
390
0
 62
               7
100
AcDbMText
 10
-967.9999999997591
 20
-1232.4176292337004
 30
0.0
 40
16.288411458333332
 41
0.0
 71
               1
 72
               1
  1
仕様
  7
ＭＳ ゴシック
 73
               1
 44
0.7828267384257843
  0
MTEXT
  5
177
100
AcDbEntity
  8
template
390
0
 62
               7
100
AcDbMText
 10
-914.9999999997591
 20
-1176.0000901712006
 30
0.0
 40
24.432617187500004
 41
0.0
 71
               1
 72
               1
  1
手洗器 -CATALANO,Verso-
  7
ＭＳ ゴシック
 73
               1
 44
0.7828267384257843
  0
LINE
  5
178
100
AcDbEntity
  8
template
370
               5
390
0
  6
Continuous
 62
               7
100
AcDbLine
 10
974.99999999975876
 20
-1224.0027073587005
 30
0.0
 11
-975.00000000024113
 21
-1224.0027073587005
 31
0.0
  0
LWPOLYLINE
  5
179
100
AcDbEntity
  8
template
370
               5
390
0
  6
Continuous
 62
               7
100
AcDbPolyline
 90
        5
 70
             128
 10
975.00000000024124
 20
1405.9972926412995
 10
-974.9999999997591
 20
1405.9972926412995
 10
-974.9999999997591
 20
-1394.0027073587005
 10
975.00000000024124
 20
-1394.0027073587005
 10
975.00000000024124
 20
1405.9972926412995
  0
LINE
  5
17A
100
AcDbEntity
  8
template
370
               5
390
0
  6
Continuous
 62
               7
100
AcDbLine
 10
974.99999999975876
 20
-1139.0027073587005
 30
0.0
 11
-975.00000000024113
 21
-1139.0027073587005
 31
0.0
  0
LINE
  5
17B
100
AcDbEntity
  8
template
370
               5
390
0
  6
Continuous
 62
               7
100
AcDbLine
 10
975.00000000024124
 20
-1309.0027073587005
 30
0.0
 11
222.00000000024124
 21
-1309.0027073587005
 31
0.0
  0
MTEXT
  5
17C
100
AcDbEntity
  8
template
390
0
 62
               7
100
AcDbMText
 10
-974.99999999955583
 20
-1405.8565294155574
 30
0.0
 40
21.717881944444446
 41
0.0
 71
               1
 72
               1
  1
100707SH
  7
ＭＳ ゴシック
 73
               1
 44
0.7828267384257843
  0
MTEXT
  5
17D
100
AcDbEntity
  8
template
390
0
 62
               7
100
AcDbMText
 10
251.87140625250089
 20
-1338.9131018320081
 30
0.0
 40
24.432617187500004
 41
0.0
 71
               1
 72
               1
  1
大洋金物株式会社 ティーフォルム事業部
  7
ＭＳ ゴシック
 73
               1
 44
0.7828267384257843
  0
INSERT
  5
17E
100
AcDbEntity
  8
template
390
0
 62
               7
100
AcDbBlockReference
  2
グループ
 10
509.8617507456878
 20
82.940699144867779
 30
0.0
  0
MTEXT
  5
17F
100
AcDbEntity
  8
template
390
0
 62
               7
100
AcDbMText
 10
784.00000000049999
 20
-1261.0000901712006
 30
0.0
 40
24.432617187500004
 41
0.0
 71
               1
 72
               1
  1
1:10
  7
ＭＳ ゴシック
 73
               1
 44
0.7828267384257843
  0
MTEXT
  5
180
100
AcDbEntity
  8
template
390
0
 62
               7
100
AcDbMText
 10
731.00000000049999
 20
-1232.4176292337004
 30
0.0
 40
16.288411458333332
 41
0.0
 71
               1
 72
               1
  1
縮尺
  7
ＭＳ ゴシック
 73
               1
 44
0.7828267384257843
  0
LINE
  5
181
100
AcDbEntity
  8
template
370
               5
390
0
  6
Continuous
 62
               7
100
AcDbLine
 10
724.00000000049999
 20
-1309.0027073587005
 30
0.0
 11
724.00000000049999
 21
-1224.0027073587005
 31
0.0
  0
MTEXT
  5
182
100
AcDbEntity
  8
template
390
0
 62
               7
100
AcDbMText
 10
480.00000000049999
 20
-1232.4176292337004
 30
0.0
 40
16.288411458333332
 41
0.0
 71
               1
 72
               1
  1
容量
  7
ＭＳ ゴシック
 73
               1
 44
0.7828267384257843
  0
MTEXT
  5
183
100
AcDbEntity
  8
template
390
0
 62
               7
100
AcDbMText
 10
533.00000000049999
 20
-1261.0000901712006
 30
0.0
 40
24.432617187500004
 41
0.0
 71
               1
 72
               1
  1
7.2L
  7
ＭＳ ゴシック
 73
               1
 44
0.7828267384257843
  0
LINE
  5
184
100
AcDbEntity
  8
template
370
               5
390
0
  6
Continuous
 62
               7
100
AcDbLine
 10
473.00000000049999
 20
-1309.0027073587005
 30
0.0
 11
473.00000000049999
 21
-1224.0027073587005
 31
0.0
  0
MTEXT
  5
185
100
AcDbEntity
  8
template
390
0
 62
               7
100
AcDbMText
 10
229.00000000049999
 20
-1147.4176292337004
 30
0.0
 40
16.288411458333332
 41
0.0
 71
               1
 72
               1
  1
品番
  7
ＭＳ ゴシック
 73
               1
 44
0.7828267384257843
  0
MTEXT
  5
186
100
AcDbEntity
  8
template
390
0
 62
               7
100
AcDbMText
 10
229.00000000049999
 20
-1232.4176292337004
 30
0.0
 40
16.288411458333332
 41
0.0
 71
               1
 72
               1
  1
重量
  7
ＭＳ ゴシック
 73
               1
 44
0.7828267384257843
  0
MTEXT
  5
187
100
AcDbEntity
  8
template
390
0
 62
               7
100
AcDbMText
 10
282.00000000049999
 20
-1176.0000901712006
 30
0.0
 40
24.432617187500004
 41
0.0
 71
               1
 72
               1
  1
ADF70-0608
  7
ＭＳ ゴシック
 73
               1
 44
0.7828267384257843
  0
MTEXT
  5
188
100
AcDbEntity
  8
template
390
0
 62
               7
100
AcDbMText
 10
282.00000000049999
 20
-1261.0000901712006
 30
0.0
 40
24.432617187500004
 41
0.0
 71
               1
 72
               1
  1
16kg
  7
ＭＳ ゴシック
 73
               1
 44
0.7828267384257843
  0
LINE
  5
189
100
AcDbEntity
  8
template
370
               5
390
0
  6
Continuous
 62
               7
100
AcDbLine
 10
222.00000000049999
 20
-1394.0027073587005
 30
0.0
 11
222.00000000049999
 21
-1139.0027073587005
 31
0.0
  0
MTEXT
  5
18A
100
AcDbEntity
  8
template
390
0
 62
               7
100
AcDbMText
 10
-914.9999999997591
 20
-1261.0000901712003
 30
0.0
 40
24.432617187500004
 41
0.0
 71
               1
 72
               1
  1
カウンター置き,半埋め込み/オーバーフローなし/陶器,背面釉薬あり/\Pホワイト
  7
ＭＳ ゴシック
 73
               1
 44
1.3047112307096407
  0
MTEXT
  5
18B
100
AcDbEntity
  8
notes
390
0
 62
               7
100
AcDbMText
 10
-821.81861679463293
 20
283.12221573836246
 30
0.0
 40
24.432617187500004
 41
834.35204060579406
 71
               1
 72
               1
  1
＝φ30もしくはφ35の水栓取付用穴あけ加工を承ります。\P  必要な場合、ご注文の際にご指示ください。
  7
ＭＳ ゴシック
 73
               1
 44
1.0437689845677123
  0
MTEXT
  5
18C
100
AcDbEntity
  8
notes
390
0
 62
               7
100
AcDbMText
 10
326.53759047782762
 20
1104.1967430954521
 30
0.0
 40
24.432617187500004
 41
0.0
 71
               1
 72
               1
  1
カウンター切込寸法
  7
ＭＳ ゴシック
 73
               1
 44
0.7828267384257843
  0
MTEXT
  5
18D
100
AcDbEntity
  8
notes
390
0
 62
               7
100
AcDbMText
 10
261.82971950802755
 20
917.6838933994818
 30
0.0
 40
24.432617187500004
 41
0.0
 71
               1
 72
               1
  1
カウンター置き
  7
ＭＳ ゴシック
 73
               1
 44
0.7828267384257843
  0
MTEXT
  5
18E
100
AcDbEntity
  8
notes
390
0
 62
               7
100
AcDbMText
 10
-766.94069377391168
 20
-715.15213233124859
 30
0.0
 40
24.432617187500004
 41
0.0
 71
               1
 72
               1
  1
カウンター置き
  7
ＭＳ ゴシック
 73
               1
 44
0.7828267384257843
  0
LINE
  5
18F
100
AcDbEntity
  8
notes
370
               5
390
0
  6
Continuous
 62
               7
100
AcDbLine
 10
-669.02494960540173
 20
-505.5308619227132
 30
0.0
 11
-775.72494960540178
 21
-505.5308619227132
 31
0.0
  0
LINE
  5
190
100
AcDbEntity
  8
notes
370
               5
390
0
  6
Continuous
 62
               7
100
AcDbLine
 10
-750.72494960540178
 20
-505.5308619227132
 30
0.0
 11
-750.72494960540178
 21
-710.37590134382162
 31
0.0
  0
MTEXT
  5
191
100
AcDbEntity
  8
notes
390
0
 62
               7
100
AcDbMText
 10
89.249973085191414
 20
283.12221573836246
 30
0.0
 40
24.432617187500004
 41
764.7717154610109
 71
               1
 72
               1
  1
※陶器製品には寸法公差があります。\P  洗面器の収め方をご確認の上、必ず現物を合わせて\P  カウンターに切込を行ってください。
  7
ＭＳ ゴシック
 73
               1
 44
1.0437689845677123
  0
DIMENSION
  5
192
100
AcDbEntity
  8
notes
370
               5
390
0
  6
Continuous
 62
               7
100
AcDbDimension
  2
*D3
 10
248.1141896043822
 20
385.26471093049815
 30
0.0
 11
202.53342381116096
 21
390.26471093049815
 31
0.0
 70
             128
 71
               5
 72
               1
 41
1.0
 42
0.0
  3
tform線あり
100
AcDbAlignedDimension
 13
213.11418960438209
 23
490.38971093049815
 33
0.0
 14
248.1141896043822
 24
520.38971093049815
 34
0.0
100
AcDbRotatedDimension
1001
ACAD
1000
DSTYLE
1002
{
1070
             279
1070
               2
1070
             340
1005
39
1070
             174
1070
               0
1070
             147
1040
5.0
1002
}
  0
DIMENSION
  5
193
100
AcDbEntity
  8
notes
370
               5
390
0
  6
Continuous
 62
               7
100
AcDbDimension
  2
*D4
 10
273.13342381116092
 20
545.42409865617833
 30
0.0
 11
193.53342381116096
 21
550.42409865617833
 31
0.0
 70
             128
 71
               5
 72
               1
 41
1.0
 42
0.0
  3
tform線あり
100
AcDbAlignedDimension
 13
213.11418960438209
 23
595.42409865617833
 33
0.0
 14
273.13342381116092
 24
595.42409865617833
 34
0.0
100
AcDbRotatedDimension
1001
ACAD
1000
DSTYLE
1002
{
1070
             279
1070
               2
1070
             340
1005
39
1070
             174
1070
               0
1070
             147
1040
5.0
1002
}
  0
DIMENSION
  5
194
100
AcDbEntity
  8
notes
370
               5
390
0
  6
Continuous
 62
               7
100
AcDbDimension
  2
*D5
 10
328.12040351345502
 20
-605.53086192271348
 30
0.0
 11
463.12040351345502
 21
-600.53086192271348
 31
0.0
 70
             128
 71
               5
 72
               1
 41
1.0
 42
0.0
  3
tform線あり
100
AcDbAlignedDimension
 13
598.12040351345502
 23
-505.76404944093025
 33
0.0
 14
328.12040351345502
 24
-505.76404944093025
 34
0.0
100
AcDbRotatedDimension
1001
ACAD
1000
DSTYLE
1002
{
1070
             279
1070
               2
1070
             340
1005
39
1070
             147
1040
5.0
1002
}
  0
DIMENSION
  5
195
100
AcDbEntity
  8
notes
370
               5
390
0
  6
Continuous
 62
               7
100
AcDbDimension
  2
*D6
 10
-646.97523128180467
 20
-655.53086192271303
 30
0.0
 11
-441.56668437750102
 21
-650.53086192271303
 31
0.0
 70
             128
 71
               5
 72
               1
 41
1.0
 42
0.0
  3
tform線あり
100
AcDbAlignedDimension
 13
-251.97523128180489
 23
-504.40552811101264
 33
0.0
 14
-646.97523128180467
 24
-503.63553383519917
 34
0.0
100
AcDbRotatedDimension
1001
ACAD
1000
DSTYLE
1002
{
1070
             279
1070
               2
1070
             340
1005
39
1070
             147
1040
5.0
1002
}
  0
DIMENSION
  5
196
100
AcDbEntity
  8
notes
370
               5
390
0
  6
Continuous
 62
               7
100
AcDbDimension
  2
*D7
 10
-849.37590134382265
 20
855.39133596083866
 30
0.0
 11
-849.37590134382265
 21
670.39133596083866
 31
0.0
 71
               5
 72
               1
 41
1.0
 42
0.0
  3
tform線あり
100
AcDbAlignedDimension
 13
-694.37590134382287
 23
485.39133596083877
 33
0.0
 14
-694.37590134382265
 24
855.39133596083866
 34
0.0
 50
90.0
100
AcDbRotatedDimension
1001
ACAD
1000
DSTYLE
1002
{
1070
             279
1070
               2
1070
             340
1005
39
1070
             147
1040
5.0
1002
}
  0
DIMENSION
  5
197
100
AcDbEntity
  8
notes
370
               5
390
0
  6
Continuous
 62
               7
100
AcDbDimension
  2
*D8
 10
-799.37590134382265
 20
855.39133596083866
 30
0.0
 11
-799.37590134382265
 21
762.89165987129854
 31
0.0
 71
               5
 72
               1
 41
1.0
 42
0.0
  3
tform線あり
100
AcDbAlignedDimension
 13
-616.00499313907619
 23
670.39198378175843
 33
0.0
 14
-694.37590134382265
 24
855.39133596083866
 34
0.0
 50
90.0
100
AcDbRotatedDimension
1001
ACAD
1000
DSTYLE
1002
{
1070
             279
1070
               2
1070
             340
1005
39
1070
             147
1040
5.0
1002
}
  0
CIRCLE
  5
198
100
AcDbEntity
  8
notes
370
              15
390
0
  6
STYLE_12
 62
               7
100
AcDbCircle
 10
-842.51095492129059
 20
268.01315182504925
 30
0.0
 40
17.5
  0
MTEXT
  5
199
100
AcDbEntity
  8
notes
390
0
 62
               7
100
AcDbMText
 10
-814.80281835219364
 20
-765.60939526743277
 30
0.0
 40
24.432617187500004
 41
0.0
 71
               1
 72
               1
  1
半埋め込み置き
  7
ＭＳ ゴシック
 73
               1
 44
0.7828267384257843
  0
LINE
  5
19A
100
AcDbEntity
  8
notes
370
               5
390
0
  6
Continuous
 62
               7
100
AcDbLine
 10
-715.238865442264
 20
-455.5308619227132
 30
0.0
 11
-821.93886544226382
 21
-455.5308619227132
 31
0.0
  0
LINE
  5
19B
100
AcDbEntity
  8
notes
370
               5
390
0
  6
Continuous
 62
               7
100
AcDbLine
 10
-796.93886544226382
 20
-455.5308619227132
 30
0.0
 11
-796.93886544226382
 21
-758.37590134382162
 31
0.0
  0
DIMENSION
  5
19C
100
AcDbEntity
  8
notes
370
               5
390
0
  6
Continuous
 62
               7
100
AcDbDimension
  2
*D9
 10
-699.37590134382287
 20
385.39133596083877
 30
0.0
 11
-621.87590134382265
 21
385.39133596083877
 31
0.0
 71
               5
 72
               1
 41
1.0
 42
0.0
  3
tform線あり
100
AcDbAlignedDimension
 13
-544.37590134382265
 23
460.39133596083877
 33
0.0
 14
-699.37590134382287
 24
490.39133596083877
 34
0.0
100
AcDbRotatedDimension
1001
ACAD
1000
DSTYLE
1002
{
1070
             279
1070
               2
1070
             340
1005
39
1070
             147
1040
5.0
1002
}
  0
DIMENSION
  5
19D
100
AcDbEntity
  8
notes
370
               5
390
0
  6
Continuous
 62
               7
100
AcDbDimension
  2
*D10
 10
-544.37590134382265
 20
385.39133596083877
 30
0.0
 11
-384.37590134382265
 21
385.39133596083877
 31
0.0
 71
               5
 72
               1
 41
1.0
 42
0.0
  3
tform線あり
100
AcDbAlignedDimension
 13
-224.37590134382265
 23
485.39133596083877
 33
0.0
 14
-544.37590134382265
 24
485.39133596083877
 34
0.0
100
AcDbRotatedDimension
1001
ACAD
1000
DSTYLE
1002
{
1070
             279
1070
               2
1070
             340
1005
39
1070
             147
1040
5.0
1002
}
  0
DIMENSION
  5
19E
100
AcDbEntity
  8
notes
370
               5
390
0
  6
Continuous
 62
               7
100
AcDbDimension
  2
*D11
 10
248.1141896043822
 20
385.38971093049815
 30
0.0
 11
463.11418960438209
 21
385.38971093049815
 31
0.0
 71
               5
 72
               1
 41
1.0
 42
0.0
  3
tform線あり
100
AcDbAlignedDimension
 13
678.11418960438198
 23
520.38971093049815
 33
0.0
 14
248.1141896043822
 24
520.38971093049815
 34
0.0
100
AcDbRotatedDimension
1001
ACAD
1000
DSTYLE
1002
{
1070
             279
1070
               2
1070
             340
1005
39
1070
             147
1040
5.0
1002
}
  0
DIMENSION
  5
19F
100
AcDbEntity
  8
notes
370
               5
390
0
  6
Continuous
 62
               7
100
AcDbDimension
  2
*D12
 10
-699.37590134382287
 20
-260.5308619227132
 30
0.0
 11
-646.87590134382287
 21
-260.5308619227132
 31
0.0
 71
               5
 72
               1
 41
1.0
 42
0.0
  3
tform線あり
100
AcDbAlignedDimension
 13
-594.37590134382287
 23
-360.5308619227132
 33
0.0
 14
-699.37590134382287
 24
-365.5308619227132
 34
0.0
100
AcDbRotatedDimension
1001
ACAD
1000
DSTYLE
1002
{
1070
             271
1070
               0
1070
             279
1070
               2
1070
             340
1005
39
1070
             147
1040
5.0
1002
}
  0
DIMENSION
  5
1A0
100
AcDbEntity
  8
notes
370
               5
390
0
  6
Continuous
 62
               7
100
AcDbDimension
  2
*D13
 10
473.53342381116096
 20
-360.5308619227132
 30
0.0
 11
478.53342381116096
 21
-354.37590134382168
 31
0.0
 70
             128
 71
               5
 72
               1
 41
1.0
 42
0.0
  3
tform線あり
100
AcDbAlignedDimension
 13
463.11418960438215
 23
-475.5308619227132
 33
0.0
 14
463.11418960438209
 24
-360.5308619227132
 34
0.0
 50
90.0
100
AcDbRotatedDimension
1001
ACAD
1000
DSTYLE
1002
{
1070
             279
1070
               2
1070
             340
1005
39
1070
               3
1000
<>(深さ)
1070
             174
1070
               0
1070
             147
1040
5.0
1002
}
  0
DIMENSION
  5
1A1
100
AcDbEntity
  8
notes
370
               5
390
0
  6
Continuous
 62
               7
100
AcDbDimension
  2
*D14
 10
-699.37590134382265
 20
955.39133596083866
 30
0.0
 11
-449.37590134382208
 21
955.39133596083866
 31
0.0
 71
               5
 72
               1
 41
1.0
 42
0.0
  3
tform線あり
100
AcDbAlignedDimension
 13
-199.37590134382151
 23
850.39133596083934
 33
0.0
 14
-699.37590134382265
 24
850.39133596083866
 34
0.0
100
AcDbRotatedDimension
1001
ACAD
1000
DSTYLE
1002
{
1070
             279
1070
               2
1070
             340
1005
39
1070
             147
1040
5.0
1002
}
  0
DIMENSION
  5
1A2
100
AcDbEntity
  8
notes
370
               5
390
0
  6
Continuous
 62
               7
100
AcDbDimension
  2
*D15
 10
-99.375901343821738
 20
830.39133596083889
 30
0.0
 11
-99.375901343821738
 21
670.39133596083889
 31
0.0
 71
               5
 72
               1
 41
1.0
 42
0.0
  3
tform線あり
100
AcDbAlignedDimension
 13
-199.37590134382174
 23
510.39133596083889
 33
0.0
 14
-199.37590134382174
 24
830.39133596083889
 34
0.0
 50
90.0
100
AcDbRotatedDimension
1001
ACAD
1000
DSTYLE
1002
{
1070
             279
1070
               2
1070
             340
1005
39
1070
             147
1040
5.0
1002
}
  0
DIMENSION
  5
1A3
100
AcDbEntity
  8
notes
370
               5
390
0
  6
Continuous
 62
               7
100
AcDbDimension
  2
*D16
 10
-99.375901343821738
 20
-360.5308619227132
 30
0.0
 11
-99.375901343821738
 21
-435.5308619227132
 31
0.0
 71
               5
 72
               1
 41
1.0
 42
0.0
  3
tform線あり
100
AcDbAlignedDimension
 13
-251.27383047534886
 23
-510.5308619227132
 33
0.0
 14
-204.37590134382162
 24
-360.5308619227132
 34
0.0
 50
90.0
100
AcDbRotatedDimension
1001
ACAD
1000
DSTYLE
1002
{
1070
             279
1070
               2
1070
             340
1005
39
1070
             147
1040
5.0
1002
}
  0
DIMENSION
  5
1A4
100
AcDbEntity
  8
notes
370
               5
390
0
  6
Continuous
 62
               7
100
AcDbDimension
  2
*D17
 10
748.11354178346528
 20
-360.5308619227132
 30
0.0
 11
748.11354178346528
 21
-408.03086192271331
 31
0.0
 71
               5
 72
               1
 41
1.0
 42
0.0
  3
tform線あり
100
AcDbAlignedDimension
 13
643.11354178346528
 23
-455.53086192271343
 33
0.0
 14
643.11354178346528
 24
-360.5308619227132
 34
0.0
 50
90.0
100
AcDbRotatedDimension
1001
ACAD
1000
DSTYLE
1002
{
1070
             279
1070
               2
1070
             340
1005
39
1070
             147
1040
5.0
1002
}
  0
DIMENSION
  5
1A5
100
AcDbEntity
  8
notes
370
               5
390
0
  6
Continuous
 62
               7
100
AcDbDimension
  2
*D18
 10
748.11354178346528
 20
-455.53086192271343
 30
0.0
 11
753.11354178346528
 21
-483.03086192271331
 31
0.0
 70
             128
 71
               5
 72
               1
 41
1.0
 42
0.0
  3
tform線あり
100
AcDbAlignedDimension
 13
593.10797569530928
 23
-510.5308619227132
 33
0.0
 14
643.11354178346528
 24
-455.53086192271343
 34
0.0
 50
90.0
100
AcDbRotatedDimension
1001
ACAD
1000
DSTYLE
1002
{
1070
             279
1070
               2
1070
             340
1005
39
1070
             147
1040
5.0
1002
}
  0
DIMENSION
  5
1A6
100
AcDbEntity
  8
notes
370
               5
390
0
  6
Continuous
 62
               7
100
AcDbDimension
  2
*D19
 10
-699.37590134382287
 20
-605.53086192271303
 30
0.0
 11
-541.85481364555801
 21
-605.53086192271303
 31
0.0
 71
               5
 72
               1
 41
1.0
 42
0.0
  3
tform線あり
100
AcDbAlignedDimension
 13
-384.33372594729326
 23
-500.5308619227132
 33
0.0
 14
-699.37590134382287
 24
-445.5308619227132
 34
0.0
100
AcDbRotatedDimension
1001
ACAD
1000
DSTYLE
1002
{
1070
             279
1070
               2
1070
             340
1005
39
1070
             147
1040
5.0
1002
}
  0
DIMENSION
  5
1A7
100
AcDbEntity
  8
notes
370
               5
390
0
  6
Continuous
 62
               7
100
AcDbDimension
  2
*D20
 10
813.23651697139906
 20
820.38971093049804
 30
0.0
 11
813.23651697139906
 21
670.38971093049804
 31
0.0
 71
               5
 72
               1
 41
1.0
 42
0.0
  3
tform線あり
100
AcDbAlignedDimension
 13
678.11418960438198
 23
520.38971093049815
 33
0.0
 14
678.11418960438198
 24
820.38971093049804
 34
0.0
 50
90.0
100
AcDbRotatedDimension
1001
ACAD
1000
DSTYLE
1002
{
1070
             279
1070
               2
1070
             340
1005
39
1070
             147
1040
5.0
1002
}
  0
DIMENSION
  5
1A8
100
AcDbEntity
  8
notes
370
               5
390
0
  6
Continuous
 62
               7
100
AcDbDimension
  2
*D21
 10
813.5334238111609
 20
820.38971093049804
 30
0.0
 11
818.5334238111609
 21
867.62409865617838
 31
0.0
 70
             128
 71
               5
 72
               1
 41
1.0
 42
0.0
  3
tform線あり
100
AcDbAlignedDimension
 13
708.1141896043822
 23
855.38971093049872
 33
0.0
 14
678.11418960438198
 24
820.38971093049804
 34
0.0
 50
90.0
100
AcDbRotatedDimension
1001
ACAD
1000
DSTYLE
1002
{
1070
             279
1070
               2
1070
             340
1005
39
1070
             174
1070
               0
1070
             147
1040
5.0
1002
}
  0
DIMENSION
  5
1A9
100
AcDbEntity
  8
notes
370
               5
390
0
  6
Continuous
 62
               7
100
AcDbDimension
  2
*D22
 10
653.13342381116104
 20
745.42409865617833
 30
0.0
 11
653.13342381116104
 21
670.42409865617833
 31
0.0
 71
               5
 72
               1
 41
1.0
 42
0.0
  3
tform線あり
100
AcDbAlignedDimension
 13
573.13342381116092
 23
595.42409865617833
 33
0.0
 14
573.13342381116092
 24
745.42409865617833
 34
0.0
 50
90.0
100
AcDbRotatedDimension
1001
ACAD
1000
DSTYLE
1002
{
1070
             279
1070
               2
1070
             340
1005
39
1070
             147
1040
5.0
1002
}
  0
DIMENSION
  5
1AA
100
AcDbEntity
  8
notes
370
               5
390
0
  6
Continuous
 62
               7
100
AcDbDimension
  2
*D23
 10
273.13342381116092
 20
545.42409865617833
 30
0.0
 11
423.13342381116092
 21
545.42409865617833
 31
0.0
 71
               5
 72
               1
 41
1.0
 42
0.0
  3
tform線あり
100
AcDbAlignedDimension
 13
573.13342381116092
 23
595.42409865617833
 33
0.0
 14
273.13342381116092
 24
595.42409865617833
 34
0.0
100
AcDbRotatedDimension
1001
ACAD
1000
DSTYLE
1002
{
1070
             279
1070
               2
1070
             340
1005
39
1070
             147
1040
5.0
1002
}
  0
MTEXT
  5
1AB
100
AcDbEntity
  8
notes
390
0
 62
               7
100
AcDbMText
 10
231.66953492227191
 20
991.75171584367831
 30
0.0
 40
24.432617187500004
 41
0.0
 71
               1
 72
               1
  1
半埋め込み置き
  7
ＭＳ ゴシック
 73
               1
 44
0.7828267384257843
  0
LINE
  5
1AC
100
AcDbEntity
  8
notes
370
               5
390
0
  6
Continuous
 62
               7
100
AcDbLine
 10
273.5334238111609
 20
745.42409865617833
 30
0.0
 11
273.5334238111609
 21
883.62409865617838
 31
0.0
  0
LINE
  5
1AD
100
AcDbEntity
  8
notes
370
               5
390
0
  6
Continuous
 62
               7
100
AcDbLine
 10
248.1141896043822
 20
820.38971093049804
 30
0.0
 11
248.1141896043822
 21
955.62409865617838
 31
0.0
  0
MTEXT
  5
1AE
100
AcDbEntity
  8
notes
390
0
 62
               7
100
AcDbMText
 10
89.249973085191414
 20
121.37759027269159
 30
0.0
 40
24.432617187500004
 41
0.0
 71
               1
 72
               1
  1
※別売品のブラケットで壁掛け・アンダーカウンター\P  設置することができます\P　壁付用ブラケット:ADF75-0630\P　アンダーカウンタ ー用ブラケット:ADF75-0650
  7
ＭＳ ゴシック
 73
               1
 44
1.1742401076386764
  0
LINE
  5
1AF
100
AcDbEntity
  8
notes
370
               5
390
0
  6
Continuous
 62
               7
100
AcDbLine
 10
-224.37590134382287
 20
825.39133596083866
 30
0.0
 11
-224.37590134382287
 21
515.39133596083889
 31
0.0
  0
LINE
  5
1B0
100
AcDbEntity
  8
notes
370
               5
390
0
  6
Continuous
 62
               7
100
AcDbLine
 10
-544.37590134382287
 20
825.39133596083866
 30
0.0
 11
-544.37590134382287
 21
515.39133596083889
 31
0.0
  0
ARC
  5
1B1
100
AcDbEntity
  8
notes
370
              15
390
0
  6
Continuous
 62
               7
100
AcDbCircle
 10
-539.37590134382287
 20
515.39133596083889
 30
0.0
 40
5.0
100
AcDbArc
 50
180.0
 51
270.0
  0
ARC
  5
1B2
100
AcDbEntity
  8
notes
370
              15
390
0
  6
Continuous
 62
               7
100
AcDbCircle
 10
-229.37590134382287
 20
515.39133596083889
 30
0.0
 40
5.0
100
AcDbArc
 50
270.0
 51
0.0
  0
ARC
  5
1B3
100
AcDbEntity
  8
notes
370
              15
390
0
  6
Continuous
 62
               7
100
AcDbCircle
 10
-229.37590134382287
 20
825.39133596083866
 30
0.0
 40
5.0
100
AcDbArc
 50
0.0
 51
90.0
  0
ARC
  5
1B4
100
AcDbEntity
  8
notes
370
              15
390
0
  6
Continuous
 62
               7
100
AcDbCircle
 10
-539.37590134382287
 20
825.39133596083866
 30
0.0
 40
5.0
100
AcDbArc
 50
90.0
 51
180.0
  0
LINE
  5
1B5
100
AcDbEntity
  8
notes
370
               5
390
0
  6
Continuous
 62
               7
100
AcDbLine
 10
-464.22590134382176
 20
745.25046846967348
 30
0.0
 11
-464.22590134382176
 21
595.5309650132865
 31
0.0
  0
LINE
  5
1B6
100
AcDbEntity
  8
notes
370
               5
390
0
  6
Continuous
 62
               7
100
AcDbLine
 10
-304.52590134382183
 20
745.25103564352594
 30
0.0
 11
-304.52590134382183
 21
595.53222382962417
 31
0.0
  0
ARC
  5
1B7
100
AcDbEntity
  8
notes
370
               5
390
0
  6
Continuous
 62
               7
100
AcDbCircle
 10
-459.22590134382176
 20
745.25046846967348
 30
0.0
 40
4.9999999999999609
100
AcDbArc
 50
90.000217078610547
 51
180.0
  0
ARC
  5
1B8
100
AcDbEntity
  8
notes
370
              15
390
0
  6
Continuous
 62
               7
100
AcDbCircle
 10
-309.52590134382172
 20
745.25103564352594
 30
0.0
 40
4.9999999999998863
100
AcDbArc
 50
0.0
 51
90.000217078611854
  0
ARC
  5
1B9
100
AcDbEntity
  8
notes
370
               5
390
0
  6
Continuous
 62
               7
100
AcDbCircle
 10
-309.52590134382183
 20
595.53222382962417
 30
0.0
 40
4.999999999999992
100
AcDbArc
 50
270.00048179601367
 51
0.0
  0
ARC
  5
1BA
100
AcDbEntity
  8
notes
370
              15
390
0
  6
Continuous
 62
               7
100
AcDbCircle
 10
-459.22590134382176
 20
595.5309650132865
 30
0.0
 40
5.0
100
AcDbArc
 50
180.0
 51
270.00048179601367
  0
LINE
  5
1BB
100
AcDbEntity
  8
ADF70-0608
370
              15
390
0
  6
Continuous
 62
               7
100
AcDbLine
 10
648.11354178346528
 20
-365.5308619227132
 30
0.0
 11
648.11354178346528
 21
-450.53086192271343
 31
0.0
  0
LINE
  5
1BC
100
AcDbEntity
  8
ADF70-0608
370
              15
390
0
  6
Continuous
 62
               7
100
AcDbLine
 10
643.11354178346528
 20
-455.53086192271343
 30
0.0
 11
283.11354178346539
 21
-455.53086192271297
 31
0.0
  0
LINE
  5
1BD
100
AcDbEntity
  8
ADF70-0608
370
              15
390
0
  6
Continuous
 62
               7
100
AcDbLine
 10
278.11354178346539
 20
-450.53086192271297
 30
0.0
 11
278.11354178346539
 21
-365.5308619227132
 31
0.0
  0
LINE
  5
1BE
100
AcDbEntity
  8
ADF70-0608
370
              15
390
0
  6
STYLE_12
 62
               7
100
AcDbLine
 10
304.72557239300681
 20
-363.03086192271297
 30
0.0
 11
358.40464972638279
 21
-456.00575116753947
 31
0.0
  0
LINE
  5
1BF
100
AcDbEntity
  8
ADF70-0608
370
              15
390
0
  6
STYLE_12
 62
               7
100
AcDbLine
 10
621.50280681575737
 20
-363.03086192271309
 30
0.0
 11
567.82372948238094
 21
-456.00575116753993
 31
0.0
  0
LINE
  5
1C0
100
AcDbEntity
  8
ADF70-0608
370
              15
390
0
  6
STYLE_12
 62
               7
100
AcDbLine
 10
440.6141896043822
 20
-489.5308619227132
 30
0.0
 11
440.6141896043822
 21
-500.5308619227132
 31
0.0
  0
LINE
  5
1C1
100
AcDbEntity
  8
ADF70-0608
370
              15
390
0
  6
STYLE_12
 62
               7
100
AcDbLine
 10
485.61418960438226
 20
-489.5308619227132
 30
0.0
 11
485.61418960438226
 21
-500.5308619227132
 31
0.0
  0
LINE
  5
1C2
100
AcDbEntity
  8
ADF70-0608
370
              15
390
0
  6
STYLE_12
 62
               7
100
AcDbLine
 10
463.1141896043822
 20
-489.5308619227132
 30
0.0
 11
440.6141896043822
 21
-489.5308619227132
 31
0.0
  0
LINE
  5
1C3
100
AcDbEntity
  8
ADF70-0608
370
              15
390
0
  6
STYLE_12
 62
               7
100
AcDbLine
 10
502.11418960438226
 20
-475.5308619227132
 30
0.0
 11
424.11418960438198
 21
-475.5308619227132
 31
0.0
  0
LINE
  5
1C4
100
AcDbEntity
  8
ADF70-0608
370
              15
390
0
  6
STYLE_12
 62
               7
100
AcDbLine
 10
440.6141896043822
 20
-489.5308619227132
 30
0.0
 11
424.1141896043822
 21
-475.5308619227132
 31
0.0
  0
LINE
  5
1C5
100
AcDbEntity
  8
ADF70-0608
370
              15
390
0
  6
STYLE_12
 62
               7
100
AcDbLine
 10
485.61418960438226
 20
-489.5308619227132
 30
0.0
 11
502.11418960438272
 21
-475.5308619227132
 31
0.0
  0
LINE
  5
1C6
100
AcDbEntity
  8
ADF70-0608
370
              15
390
0
  6
STYLE_12
 62
               7
100
AcDbLine
 10
463.1141896043822
 20
-489.5308619227132
 30
0.0
 11
485.61418960438226
 21
-489.5308619227132
 31
0.0
  0
LINE
  5
1C7
100
AcDbEntity
  8
ADF70-0608
370
              15
390
0
  6
STYLE_12
 62
               7
100
AcDbLine
 10
424.1141896043822
 20
-475.53086192271297
 30
0.0
 11
376.27772692554777
 21
-468.21870437727438
 31
0.0
  0
LINE
  5
1C8
100
AcDbEntity
  8
ADF70-0608
370
              15
390
0
  6
STYLE_12
 62
               7
100
AcDbLine
 10
502.11418960438226
 20
-475.53086192271365
 30
0.0
 11
549.95065228321619
 21
-468.21870437727483
 31
0.0
  0
LINE
  5
1C9
100
AcDbEntity
  8
ADF70-0608
370
              15
390
0
  6
Continuous
 62
               7
100
AcDbLine
 10
325.75519171572853
 20
-455.5308619227132
 30
0.0
 11
328.12725583968211
 21
-505.79254170392795
 31
0.0
  0
LINE
  5
1CA
100
AcDbEntity
  8
ADF70-0608
370
              15
390
0
  6
Continuous
 62
               7
100
AcDbLine
 10
463.1141896043822
 20
-510.53086192271343
 30
0.0
 11
333.12040351345502
 21
-510.5308619227132
 31
0.0
  0
LINE
  5
1CB
100
AcDbEntity
  8
ADF70-0608
370
              15
390
0
  6
STYLE_12
 62
               7
100
AcDbLine
 10
485.61418960438226
 20
-500.5308619227132
 30
0.0
 11
440.6141896043822
 21
-500.5308619227132
 31
0.0
  0
ARC
  5
1CC
100
AcDbEntity
  8
ADF70-0608
370
              15
390
0
  6
Continuous
 62
               7
100
AcDbCircle
 10
643.11354178346528
 20
-450.53086192271343
 30
0.0
 40
5.0
100
AcDbArc
 50
270.0
 51
0.0
  0
LINE
  5
1CD
100
AcDbEntity
  8
ADF70-0608
370
              15
390
0
  6
Continuous
 62
               7
100
AcDbLine
 10
625.83293383467958
 20
-360.5308619227132
 30
0.0
 11
300.39544537408449
 21
-360.5308619227132
 31
0.0
  0
LINE
  5
1CE
100
AcDbEntity
  8
ADF70-0608
370
              15
390
0
  6
Continuous
 62
               7
100
AcDbLine
 10
625.83293383467958
 20
-360.53086192271309
 30
0.0
 11
643.11354178346528
 21
-360.5308619227132
 31
0.0
  0
ARC
  5
1CF
100
AcDbEntity
  8
ADF70-0608
370
              15
390
0
  6
STYLE_12
 62
               7
100
AcDbCircle
 10
625.83293383467958
 20
-365.53086192271309
 30
0.0
 40
5.0
100
AcDbArc
 50
90.0
 51
150.00000000000011
  0
ARC
  5
1D0
100
AcDbEntity
  8
ADF70-0608
370
              15
390
0
  6
Continuous
 62
               7
100
AcDbCircle
 10
643.11354178346528
 20
-365.5308619227132
 30
0.0
 40
5.0
100
AcDbArc
 50
0.0
 51
90.0
  0
LINE
  5
1D1
100
AcDbEntity
  8
ADF70-0608
370
              15
390
0
  6
Continuous
 62
               7
100
AcDbLine
 10
300.39544537408449
 20
-360.53086192271297
 30
0.0
 11
283.11354178346539
 21
-360.5308619227132
 31
0.0
  0
ARC
  5
1D2
100
AcDbEntity
  8
ADF70-0608
370
              15
390
0
  6
STYLE_12
 62
               7
100
AcDbCircle
 10
300.39544537408449
 20
-365.53086192271297
 30
0.0
 40
5.0000000000000657
100
AcDbArc
 50
29.999999999999563
 51
90.0
  0
ARC
  5
1D3
100
AcDbEntity
  8
ADF70-0608
370
              15
390
0
  6
Continuous
 62
               7
100
AcDbCircle
 10
283.11354178346539
 20
-365.5308619227132
 30
0.0
 40
5.0
100
AcDbArc
 50
90.0
 51
180.0
  0
ARC
  5
1D4
100
AcDbEntity
  8
ADF70-0608
370
              15
390
0
  6
Continuous
 62
               7
100
AcDbCircle
 10
333.12040351345502
 20
-505.5308619227132
 30
0.0
 40
4.9999999999999858
100
AcDbArc
 50
183.00000000000037
 51
270.0
  0
ARC
  5
1D5
100
AcDbEntity
  8
ADF70-0608
370
              15
390
0
  6
Continuous
 62
               7
100
AcDbCircle
 10
283.11354178346539
 20
-450.53086192271297
 30
0.0
 40
5.0
100
AcDbArc
 50
180.0
 51
270.0
  0
LINE
  5
1D6
100
AcDbEntity
  8
ADF70-0608
370
              15
390
0
  6
Continuous
 62
               7
100
AcDbLine
 10
600.47318749303554
 20
-455.5308619227132
 30
0.0
 11
598.10112336908219
 21
-505.79254170392795
 31
0.0
  0
LINE
  5
1D7
100
AcDbEntity
  8
ADF70-0608
370
              15
390
0
  6
Continuous
 62
               7
100
AcDbLine
 10
463.1141896043822
 20
-510.53086192271343
 30
0.0
 11
593.10797569530928
 21
-510.5308619227132
 31
0.0
  0
ARC
  5
1D8
100
AcDbEntity
  8
ADF70-0608
370
              15
390
0
  6
Continuous
 62
               7
100
AcDbCircle
 10
593.10797569530928
 20
-505.5308619227132
 30
0.0
 40
5.0
100
AcDbArc
 50
270.0
 51
356.99999999999972
  0
ARC
  5
1D9
100
AcDbEntity
  8
ADF70-0608
370
              15
390
0
  6
STYLE_12
 62
               7
100
AcDbCircle
 10
380.05528482099373
 20
-443.50575116753947
 30
0.0
 40
25.000000000000032
100
AcDbArc
 50
209.99999999999994
 51
261.30918723280217
  0
ARC
  5
1DA
100
AcDbEntity
  8
ADF70-0608
370
              15
390
0
  6
STYLE_12
 62
               7
100
AcDbCircle
 10
546.17309438777011
 20
-443.50575116753993
 30
0.0
 40
24.999999999999844
100
AcDbArc
 50
278.6908127671976
 51
329.99999999999983
  0
ARC
  5
1DB
100
AcDbEntity
  8
ADF70-0608
370
              15
390
0
  6
Continuous
 62
               7
100
AcDbCircle
 10
-384.33372594729315
 20
670.39133596083866
 30
0.0
 40
22.5
100
AcDbArc
 50
270.0
 51
90.0
  0
ARC
  5
1DC
100
AcDbEntity
  8
ADF70-0608
370
              15
390
0
  6
Continuous
 62
               7
100
AcDbCircle
 10
-384.33372594729315
 20
670.39133596083866
 30
0.0
 40
39.0
100
AcDbArc
 50
270.0
 51
90.0
  0
ARC
  5
1DD
100
AcDbEntity
  8
ADF70-0608
370
              15
390
0
  6
Continuous
 62
               7
100
AcDbCircle
 10
-384.33372594729315
 20
670.39133596083866
 30
0.0
 40
39.0
100
AcDbArc
 50
90.0
 51
270.0
  0
ARC
  5
1DE
100
AcDbEntity
  8
ADF70-0608
370
              15
390
0
  6
Continuous
 62
               7
100
AcDbCircle
 10
-384.33372594729315
 20
670.39133596083866
 30
0.0
 40
22.5
100
AcDbArc
 50
90.0
 51
270.0
  0
LINE
  5
1DF
100
AcDbEntity
  8
ADF70-0608
370
              15
390
0
  6
Continuous
 62
               7
100
AcDbLine
 10
-459.22585929918796
 20
590.5309650134634
 30
0.0
 11
-309.52585929918803
 21
590.53222382980107
 31
0.0
  0
LINE
  5
1E0
100
AcDbEntity
  8
ADF70-0608
370
              15
390
0
  6
Continuous
 62
               7
100
AcDbLine
 10
-459.22592028750421
 20
750.25046846963755
 30
0.0
 11
-309.52592028750428
 21
750.25103564349001
 31
0.0
  0
LINE
  5
1E1
100
AcDbEntity
  8
ADF70-0608
370
              15
390
0
  6
Continuous
 62
               7
100
AcDbLine
 10
-324.37590134382162
 20
485.39133596083877
 30
0.0
 11
-204.37590134382174
 21
485.39133596083843
 31
0.0
  0
LINE
  5
1E2
100
AcDbEntity
  8
ADF70-0608
370
              15
390
0
  6
Continuous
 62
               7
100
AcDbLine
 10
-204.37590134382151
 20
855.39133596083934
 30
0.0
 11
-324.37590134382162
 21
855.39133596083866
 31
0.0
  0
LINE
  5
1E3
100
AcDbEntity
  8
ADF70-0608
370
              15
390
0
  6
Continuous
 62
               7
100
AcDbLine
 10
-324.37590134382162
 20
485.39133596083877
 30
0.0
 11
-694.37590134382287
 21
485.39133596083877
 31
0.0
  0
ARC
  5
1E4
100
AcDbEntity
  8
ADF70-0608
370
              15
390
0
  6
Continuous
 62
               7
100
AcDbCircle
 10
-694.37590134382287
 20
490.39133596083877
 30
0.0
 40
5.0
100
AcDbArc
 50
180.0
 51
270.0
  0
LINE
  5
1E5
100
AcDbEntity
  8
ADF70-0608
370
              15
390
0
  6
Continuous
 62
               7
100
AcDbLine
 10
-699.37590134382287
 20
490.39133596083877
 30
0.0
 11
-699.37590134382265
 21
850.39133596083866
 31
0.0
  0
ARC
  5
1E6
100
AcDbEntity
  8
ADF70-0608
370
              15
390
0
  6
Continuous
 62
               7
100
AcDbCircle
 10
-694.37590134382265
 20
850.39133596083866
 30
0.0
 40
5.0
100
AcDbArc
 50
90.0
 51
180.0
  0
LINE
  5
1E7
100
AcDbEntity
  8
ADF70-0608
370
              15
390
0
  6
Continuous
 62
               7
100
AcDbLine
 10
-694.37590134382265
 20
855.39133596083866
 30
0.0
 11
-324.37590134382162
 21
855.39133596083866
 31
0.0
  0
LINE
  5
1E8
100
AcDbEntity
  8
ADF70-0608
370
              15
390
0
  6
Continuous
 62
               7
100
AcDbLine
 10
-229.37590134382287
 20
510.39133596083889
 30
0.0
 11
-539.37590134382287
 21
510.39133596083889
 31
0.0
  0
LINE
  5
1E9
100
AcDbEntity
  8
ADF70-0608
370
              15
390
0
  6
Continuous
 62
               7
100
AcDbLine
 10
-539.37590134382287
 20
830.39133596083866
 30
0.0
 11
-229.37590134382287
 21
830.39133596083866
 31
0.0
  0
LINE
  5
1EA
100
AcDbEntity
  8
ADF70-0608
370
              15
390
0
  6
Continuous
 62
               7
100
AcDbLine
 10
-539.50009953281199
 20
515.39133596083877
 30
0.0
 11
-466.11688394640043
 21
588.46857521331412
 31
0.0
  0
LINE
  5
1EB
100
AcDbEntity
  8
ADF70-0608
370
              15
390
0
  6
Continuous
 62
               7
100
AcDbLine
 10
-539.44671817240317
 20
825.39133596083866
 30
0.0
 11
-466.07866700826844
 21
752.3145742375616
 31
0.0
  0
LINE
  5
1EC
100
AcDbEntity
  8
ADF70-0608
370
              15
390
0
  6
Continuous
 62
               7
100
AcDbLine
 10
-229.3759013438214
 20
515.39133596083889
 30
0.0
 11
-302.75911693023227
 21
588.46857521331424
 31
0.0
  0
LINE
  5
1ED
100
AcDbEntity
  8
ADF70-0608
370
              15
390
0
  6
Continuous
 62
               7
100
AcDbLine
 10
-229.38999424654912
 20
825.39133596083889
 30
0.0
 11
-302.75804541068283
 21
752.3145742375616
 31
0.0
  0
CIRCLE
  5
1EE
100
AcDbEntity
  8
ADF70-0608
370
              15
390
0
  6
STYLE_12
 62
               7
100
AcDbCircle
 10
-594.37590134382287
 20
670.39198378175843
 30
0.0
 40
17.5
  0
LINE
  5
1EF
100
AcDbEntity
  8
ADF70-0608
370
              15
390
0
  6
Continuous
 62
               7
100
AcDbLine
 10
-199.37590134382174
 20
490.39133596083843
 30
0.0
 11
-199.37590134382151
 21
850.39133596083934
 31
0.0
  0
ARC
  5
1F0
100
AcDbEntity
  8
ADF70-0608
370
              15
390
0
  6
Continuous
 62
               7
100
AcDbCircle
 10
-204.37590134382174
 20
490.39133596083843
 30
0.0
 40
5.0
100
AcDbArc
 50
270.0
 51
0.0
  0
ARC
  5
1F1
100
AcDbEntity
  8
ADF70-0608
370
              15
390
0
  6
Continuous
 62
               7
100
AcDbCircle
 10
-204.37590134382151
 20
850.39133596083934
 30
0.0
 40
5.0
100
AcDbArc
 50
0.0
 51
90.0
  0
LINE
  5
1F2
100
AcDbEntity
  8
ADF70-0608
370
              15
390
0
  6
Continuous
 62
               7
100
AcDbLine
 10
-694.37590134382287
 20
-455.5308619227132
 30
0.0
 11
-204.37590134382151
 21
-455.5308619227132
 31
0.0
  0
LINE
  5
1F3
100
AcDbEntity
  8
ADF70-0608
370
              15
390
0
  6
STYLE_12
 62
               7
100
AcDbLine
 10
-361.83372594729337
 20
-489.5308619227132
 30
0.0
 11
-406.83372594729315
 21
-489.5308619227132
 31
0.0
  0
LINE
  5
1F4
100
AcDbEntity
  8
ADF70-0608
370
              15
390
0
  6
STYLE_12
 62
               7
100
AcDbLine
 10
-423.33372594729315
 20
-475.5308619227132
 30
0.0
 11
-345.33372594729303
 21
-475.5308619227132
 31
0.0
  0
LINE
  5
1F5
100
AcDbEntity
  8
ADF70-0608
370
              15
390
0
  6
STYLE_12
 62
               7
100
AcDbLine
 10
-406.83372594729315
 20
-489.5308619227132
 30
0.0
 11
-423.3337259472936
 21
-475.5308619227132
 31
0.0
  0
LINE
  5
1F6
100
AcDbEntity
  8
ADF70-0608
370
              15
390
0
  6
STYLE_12
 62
               7
100
AcDbLine
 10
-406.83372594729315
 20
-489.5308619227132
 30
0.0
 11
-406.83372594729315
 21
-500.5308619227132
 31
0.0
  0
LINE
  5
1F7
100
AcDbEntity
  8
ADF70-0608
370
              15
390
0
  6
Continuous
 62
               7
100
AcDbLine
 10
-699.37590134382287
 20
-365.5308619227132
 30
0.0
 11
-699.37590134382287
 21
-450.5308619227132
 31
0.0
  0
LINE
  5
1F8
100
AcDbEntity
  8
ADF70-0608
370
              15
390
0
  6
Continuous
 62
               7
100
AcDbLine
 10
-651.9789683591456
 20
-455.5308619227132
 30
0.0
 11
-649.47523128180467
 21
-508.63553383519917
 31
0.0
  0
LWPOLYLINE
  5
1F9
100
AcDbEntity
  8
ADF70-0608
370
              15
390
0
  6
STYLE_12
 62
               7
100
AcDbPolyline
 90
        5
 70
             128
 10
-423.33372594729315
 20
-475.5308619227132
 10
-466.18726471852176
 20
-473.28500312129353
 42
-0.253967646474946
 10
-486.5295009070594
 20
-460.81926475242921
 10
-542.9876616044204
 20
-363.0308619227132
 42
0.2679491924311232
 10
-547.31778862334261
 20
-360.5308619227132
 42
0.2679491924311232
  0
LINE
  5
1FA
100
AcDbEntity
  8
ADF70-0608
370
              15
390
0
  6
Continuous
 62
               7
100
AcDbLine
 10
-284.5901565209175
 20
-510.5308619227132
 30
0.0
 11
-647.47797221229587
 21
-510.53086192271309
 31
0.0
  0
ARC
  5
1FB
100
AcDbEntity
  8
ADF70-0608
370
              15
390
0
  6
Continuous
 62
               7
100
AcDbCircle
 10
-694.37590134382287
 20
-365.5308619227132
 30
0.0
 40
5.0
100
AcDbArc
 50
90.0
 51
180.0
  0
LINE
  5
1FC
100
AcDbEntity
  8
ADF70-0608
370
              15
390
0
  6
Continuous
 62
               7
100
AcDbLine
 10
-221.34966327124516
 20
-360.5308619227132
 30
0.0
 11
-547.31778862334261
 21
-360.5308619227132
 31
0.0
  0
LINE
  5
1FD
100
AcDbEntity
  8
ADF70-0608
370
              15
390
0
  6
Continuous
 62
               7
100
AcDbLine
 10
-547.31778862334261
 20
-360.5308619227132
 30
0.0
 11
-581.00499313907642
 21
-360.5308619227132
 31
0.0
  0
LINE
  5
1FE
100
AcDbEntity
  8
ADF70-0608
370
              15
390
0
  6
STYLE_12
 62
               7
100
AcDbLine
 10
-406.83372594729315
 20
-500.5308619227132
 30
0.0
 11
-361.83372594729349
 21
-500.5308619227132
 31
0.0
  0
LINE
  5
1FF
100
AcDbEntity
  8
ADF70-0608
370
              15
390
0
  6
Continuous
 62
               7
100
AcDbLine
 10
-581.00499313907642
 20
-360.5308619227132
 30
0.0
 11
-694.37590134382287
 21
-360.5308619227132
 31
0.0
  0
ARC
  5
200
100
AcDbEntity
  8
ADF70-0608
370
              15
390
0
  6
Continuous
 62
               7
100
AcDbCircle
 10
-694.37590134382287
 20
-450.5308619227132
 30
0.0
 40
5.0
100
AcDbArc
 50
180.0
 51
270.0
  0
ARC
  5
201
100
AcDbEntity
  8
ADF70-0608
370
              15
390
0
  6
Continuous
 62
               7
100
AcDbCircle
 10
-647.47797221229587
 20
-508.5308619227132
 30
0.0
 40
1.9999999999996572
100
AcDbArc
 50
183.00000000000284
 51
270.0
  0
LINE
  5
202
100
AcDbEntity
  8
ADF70-0608
370
              15
390
0
  6
Continuous
 62
               7
100
AcDbLine
 10
-611.87590134382287
 20
-375.5308619227132
 30
0.0
 11
-611.87590134382287
 21
-360.5308619227132
 31
0.0
  0
LINE
  5
203
100
AcDbEntity
  8
ADF70-0608
370
              15
390
0
  6
Continuous
 62
               7
100
AcDbLine
 10
-576.87590134382287
 20
-375.5308619227132
 30
0.0
 11
-576.87590134382287
 21
-360.5308619227132
 31
0.0
  0
LINE
  5
204
100
AcDbEntity
  8
ADF70-0608
370
              15
390
0
  6
STYLE_12
 62
               7
100
AcDbLine
 10
-361.83372594729349
 20
-489.5308619227132
 30
0.0
 11
-345.33372594729303
 21
-475.5308619227132
 31
0.0
  0
LINE
  5
205
100
AcDbEntity
  8
ADF70-0608
370
              15
390
0
  6
STYLE_12
 62
               7
100
AcDbLine
 10
-361.83372594729349
 20
-489.5308619227132
 30
0.0
 11
-361.83372594729349
 21
-500.5308619227132
 31
0.0
  0
LWPOLYLINE
  5
206
100
AcDbEntity
  8
ADF70-0608
370
              15
390
0
  6
STYLE_12
 62
               7
100
AcDbPolyline
 90
        5
 70
             128
 10
-345.33372594729349
 20
-475.5308619227132
 10
-302.4801871760651
 20
-473.28500312129353
 42
0.2539676464749475
 10
-282.13795098752757
 20
-460.81926475242932
 10
-225.67979029016738
 20
-363.0308619227132
 42
-0.2679491924311232
 10
-221.34966327124516
 20
-360.5308619227132
 42
-0.2679491924311232
  0
LINE
  5
207
100
AcDbEntity
  8
ADF70-0608
370
              15
390
0
  6
Continuous
 62
               7
100
AcDbLine
 10
-251.27383047534886
 20
-510.5308619227132
 30
0.0
 11
-284.5901565209175
 21
-510.5308619227132
 31
0.0
  0
LINE
  5
208
100
AcDbEntity
  8
ADF70-0608
370
              15
390
0
  6
Continuous
 62
               7
100
AcDbLine
 10
-199.37590134382162
 20
-365.5308619227132
 30
0.0
 11
-199.37590134382162
 21
-450.5308619227132
 31
0.0
  0
LINE
  5
209
100
AcDbEntity
  8
ADF70-0608
370
              15
390
0
  6
Continuous
 62
               7
100
AcDbLine
 10
-246.77283432849845
 20
-455.5308619227132
 30
0.0
 11
-249.27657140583972
 21
-508.63553383519917
 31
0.0
  0
ARC
  5
20A
100
AcDbEntity
  8
ADF70-0608
370
              15
390
0
  6
Continuous
 62
               7
100
AcDbCircle
 10
-204.37590134382162
 20
-365.5308619227132
 30
0.0
 40
5.0
100
AcDbArc
 50
0.0
 51
90.0
  0
ARC
  5
20B
100
AcDbEntity
  8
ADF70-0608
370
              15
390
0
  6
Continuous
 62
               7
100
AcDbCircle
 10
-204.37590134382162
 20
-450.5308619227132
 30
0.0
 40
5.0
100
AcDbArc
 50
270.0
 51
0.0
  0
ARC
  5
20C
100
AcDbEntity
  8
ADF70-0608
370
              15
390
0
  6
Continuous
 62
               7
100
AcDbCircle
 10
-251.27383047534886
 20
-508.5308619227132
 30
0.0
 40
2.0
100
AcDbArc
 50
270.0
 51
356.99999999999767
  0
LINE
  5
20D
100
AcDbEntity
  8
ADF70-0608
370
              15
390
0
  6
Continuous
 62
               7
100
AcDbLine
 10
-221.34966327124516
 20
-360.5308619227132
 30
0.0
 11
-204.37590134382162
 21
-360.5308619227132
 31
0.0
  0
LINE
  5
20E
100
AcDbEntity
  8
ADF70-0608
370
               5
390
0
  6
STYLE_12
 62
               7
100
AcDbLine
 10
588.11418960438198
 20
485.38971093049815
 30
0.0
 11
708.11418960438198
 21
485.38971093049781
 31
0.0
  0
LINE
  5
20F
100
AcDbEntity
  8
ADF70-0608
370
               5
390
0
  6
STYLE_01
 62
               7
100
AcDbLine
 10
708.1141896043822
 20
855.38971093049872
 30
0.0
 11
588.1141896043822
 21
855.38971093049804
 31
0.0
  0
LINE
  5
210
100
AcDbEntity
  8
ADF70-0608
370
               5
390
0
  6
STYLE_12
 62
               7
100
AcDbLine
 10
588.1141896043822
 20
485.38971093049815
 30
0.0
 11
218.11418960438209
 21
485.38971093049815
 31
0.0
  0
ARC
  5
211
100
AcDbEntity
  8
ADF70-0608
370
               5
390
0
  6
STYLE_12
 62
               7
100
AcDbCircle
 10
218.11418960438209
 20
490.38971093049815
 30
0.0
 40
5.0
100
AcDbArc
 50
180.0
 51
270.0
  0
LINE
  5
212
100
AcDbEntity
  8
ADF70-0608
370
               5
390
0
  6
STYLE_12
 62
               7
100
AcDbLine
 10
213.11418960438209
 20
490.38971093049815
 30
0.0
 11
213.11418960438232
 21
850.38971093049804
 31
0.0
  0
ARC
  5
213
100
AcDbEntity
  8
ADF70-0608
370
               5
390
0
  6
STYLE_12
 62
               7
100
AcDbCircle
 10
218.11418960438232
 20
850.38971093049804
 30
0.0
 40
5.0
100
AcDbArc
 50
90.0
 51
180.0
  0
LINE
  5
214
100
AcDbEntity
  8
ADF70-0608
370
               5
390
0
  6
STYLE_01
 62
               7
100
AcDbLine
 10
218.11418960438232
 20
855.38971093049804
 30
0.0
 11
588.1141896043822
 21
855.38971093049804
 31
0.0
  0
LINE
  5
215
100
AcDbEntity
  8
ADF70-0608
370
               5
390
0
  6
STYLE_12
 62
               7
100
AcDbLine
 10
713.11418960438198
 20
490.38971093049781
 30
0.0
 11
713.1141896043822
 21
850.38971093049872
 31
0.0
  0
ARC
  5
216
100
AcDbEntity
  8
ADF70-0608
370
               5
390
0
  6
STYLE_12
 62
               7
100
AcDbCircle
 10
708.11418960438198
 20
490.38971093049781
 30
0.0
 40
5.0
100
AcDbArc
 50
270.0
 51
0.0
  0
ARC
  5
217
100
AcDbEntity
  8
ADF70-0608
370
               5
390
0
  6
STYLE_12
 62
               7
100
AcDbCircle
 10
708.1141896043822
 20
850.38971093049872
 30
0.0
 40
5.0
100
AcDbArc
 50
0.0
 51
90.0
  0
POLYLINE
  5
218
100
AcDbEntity
  8
ADF70-0608
370
              15
390
0
  6
Continuous
 62
               7
100
AcDb2dPolyline
 66
               1
 10
0.0
 20
0.0
 30
0.0
 70
               1
 75
               5
  0
VERTEX
  5
219
100
AcDbEntity
  8
ADF70-0608
370
              15
390
0
  6
Continuous
 62
               7
100
AcDbVertex
100
AcDb2dVertex
 10
248.1141896043822
 20
520.38971093049815
 30
0.0
  0
VERTEX
  5
21A
100
AcDbEntity
  8
ADF70-0608
370
              15
390
0
  6
Continuous
 62
               7
100
AcDbVertex
100
AcDb2dVertex
 10
678.11418960438198
 20
520.38971093049815
 30
0.0
  0
VERTEX
  5
21B
100
AcDbEntity
  8
ADF70-0608
370
              15
390
0
  6
Continuous
 62
               7
100
AcDbVertex
100
AcDb2dVertex
 10
678.11418960438198
 20
820.38971093049804
 30
0.0
  0
VERTEX
  5
21C
100
AcDbEntity
  8
ADF70-0608
370
              15
390
0
  6
Continuous
 62
               7
100
AcDbVertex
100
AcDb2dVertex
 10
248.1141896043822
 20
820.38971093049804
 30
0.0
  0
SEQEND
  5
21D
100
AcDbEntity
  8
ADF70-0608
370
              15
390
0
  6
Continuous
 62
               7
  0
POLYLINE
  5
21E
100
AcDbEntity
  8
ADF70-0608
370
              15
390
0
  6
Continuous
 62
               7
100
AcDb2dPolyline
 66
               1
 10
0.0
 20
0.0
 30
0.0
 70
               1
 75
               5
  0
VERTEX
  5
21F
100
AcDbEntity
  8
ADF70-0608
370
              15
390
0
  6
Continuous
 62
               7
100
AcDbVertex
100
AcDb2dVertex
 10
273.13342381116092
 20
745.42409865617833
 30
0.0
  0
VERTEX
  5
220
100
AcDbEntity
  8
ADF70-0608
370
              15
390
0
  6
Continuous
 62
               7
100
AcDbVertex
100
AcDb2dVertex
 10
573.13342381116092
 20
745.42409865617833
 30
0.0
  0
VERTEX
  5
221
100
AcDbEntity
  8
ADF70-0608
370
              15
390
0
  6
Continuous
 62
               7
100
AcDbVertex
100
AcDb2dVertex
 10
573.13342381116092
 20
595.42409865617833
 30
0.0
  0
VERTEX
  5
222
100
AcDbEntity
  8
ADF70-0608
370
              15
390
0
  6
Continuous
 62
               7
100
AcDbVertex
100
AcDb2dVertex
 10
273.13342381116092
 20
595.42409865617833
 30
0.0
  0
SEQEND
  5
223
100
AcDbEntity
  8
ADF70-0608
370
              15
390
0
  6
Continuous
 62
               7
  0
ARC
  5
224
100
AcDbEntity
  8
ADF70-0608
370
               5
390
0
  6
STYLE_12
 62
               7
100
AcDbCircle
 10
528.15636500091057
 20
670.38971093049804
 30
0.0
 40
22.5
100
AcDbArc
 50
270.0
 51
90.0
  0
ARC
  5
225
100
AcDbEntity
  8
ADF70-0608
370
               5
390
0
  6
STYLE_12
 62
               7
100
AcDbCircle
 10
528.15636500091057
 20
670.38971093049804
 30
0.0
 40
22.5
100
AcDbArc
 50
90.0
 51
270.0
  0
CIRCLE
  5
226
100
AcDbEntity
  8
ADF70-0608
370
               5
390
0
  6
STYLE_12
 62
               7
100
AcDbCircle
 10
313.98509780912877
 20
670.39035875141781
 30
0.0
 40
17.5
  0
ENDSEC
  0
SECTION
  2
OBJECTS
  0
DICTIONARY
  5
19
100
AcDbDictionary
280
               0
281
               1
  3
ACAD_GROUP
350
1A
  3
ACAD_MLINESTYLE
350
1B
  3
ACAD_LAYOUT
350
1E
  3
ACAD_PLOTSETTINGS
350
22
  3
ACAD_PLOTSTYLENAME
350
1F
  0
DICTIONARY
  5
1A
102
{ACAD_REACTORS
330
19
102
}
100
AcDbDictionary
280
               0
281
               1
  0
DICTIONARY
  5
1B
102
{ACAD_REACTORS
330
19
102
}
100
AcDbDictionary
280
               0
281
               1
  3
Standard
350
1C
  0
MLINESTYLE
  5
1C
102
{ACAD_REACTORS
330
1B
102
}
100
AcDbMlineStyle
  2
Standard
 70
               0
  3

 62
               0
 51
90.0
 52
90.0
 71
               2
 49
0.5
 62
             256
  6
ByLayer
 49
-0.5
 62
             256
  6
ByLayer
  0
ACDBDICTIONARYWDFLT
  5
1F
102
{ACAD_REACTORS
330
19
102
}
100
AcDbDictionary
281
               1
  3
Normal
350
1D
100
AcDbDictionaryWithDefault
340
1D
  0
ACDBPLACEHOLDER
  5
1D
102
{ACAD_REACTORS
330
1F
102
}
  0
LAYOUT
  5
20
102
{ACAD_REACTORS
330
1E
102
}
100
AcDbPlotSettings
  1

  2

  4

  6

 40
0.0
 41
0.0
 42
0.0
 43
0.0
 44
0.0
 45
0.0
 46
0.0
 47
0.0
 48
0.0
 49
0.0
140
0.0
141
0.0
142
1.0
143
1.0
 70
            1024
 72
               0
 73
               0
 74
               0
  7

 75
               0
147
1.0
148
0.0
149
0.0
100
AcDbLayout
  1
Model
 70
               0
 71
               0
 10
0.0
 20
0.0
 11
0.0
 21
0.0
 12
0.0
 22
0.0
 32
0.0
 14
0.0
 24
0.0
 34
0.0
 15
0.0
 25
0.0
 35
0.0
146
0.0
 13
0.0
 23
0.0
 33
0.0
 16
0.0
 26
0.0
 36
0.0
 17
0.0
 27
0.0
 37
0.0
 76
               0
330
A
331
0
345
0
346
0
  0
LAYOUT
  5
21
102
{ACAD_REACTORS
330
1E
102
}
100
AcDbPlotSettings
  1

  2

  4

  6

 40
0.0
 41
0.0
 42
0.0
 43
0.0
 44
0.0
 45
0.0
 46
0.0
 47
0.0
 48
0.0
 49
0.0
140
0.0
141
0.0
142
1.0
143
1.0
 70
               0
 72
               0
 73
               0
 74
               0
  7

 75
               0
147
1.0
148
0.0
149
0.0
100
AcDbLayout
  1
Layout1
 70
               0
 71
               0
 10
0.0
 20
0.0
 11
0.0
 21
0.0
 12
0.0
 22
0.0
 32
0.0
 14
0.0
 24
0.0
 34
0.0
 15
0.0
 25
0.0
 35
0.0
146
0.0
 13
0.0
 23
0.0
 33
0.0
 16
0.0
 26
0.0
 36
0.0
 17
0.0
 27
0.0
 37
0.0
 76
               0
330
B
331
0
345
0
346
0
  0
DICTIONARY
  5
1E
102
{ACAD_REACTORS
330
19
102
}
100
AcDbDictionary
280
               0
281
               1
  3
Layout1
350
21
  3
Model
350
20
  0
DICTIONARY
  5
22
102
{ACAD_REACTORS
330
19
102
}
100
AcDbDictionary
280
               0
281
               1
  0
ENDSEC
  0
EOF
