  0
SECTION
  2
HEADER
  9
$ACADVER
  1
AC1015
  9
$ACADMAINTVER
 70
               6
  9
$DWGCODEPAGE
  3
ANSI_932
  9
$INSBASE
 10
0.0
 20
0.0
 30
0.0
  9
$EXTMIN
 10
-975.00000000024113
 20
-1431.5255224711129
 30
-14.834305555555552
  9
$EXTMAX
 10
975.00000000024124
 20
1405.9972926412997
 30
14.834305555555552
  9
$LIMMIN
 10
0.0
 20
0.0
  9
$LIMMAX
 10
0.0
 20
0.0
  9
$ORTHOMODE
 70
               0
  9
$REGENMODE
 70
               1
  9
$FILLMODE
 70
               1
  9
$QTEXTMODE
 70
               0
  9
$MIRRTEXT
 70
               1
  9
$LTSCALE
 40
50.799999999999997
  9
$ATTMODE
 70
               1
  9
$TEXTSIZE
 40
0.2
  9
$TRACEWID
 40
1.0
  9
$TEXTSTYLE
  7
Standard
  9
$CLAYER
  8
notes
  9
$CELTYPE
  6
Continuous
  9
$CECOLOR
 62
             256
  9
$CELTSCALE
 40
1.0
  9
$DISPSILH
 70
               0
  9
$DIMSCALE
 40
1.0
  9
$DIMASZ
 40
31.75
  9
$DIMEXO
 40
0.0
  9
$DIMDLI
 40
6.9999999999999396
  9
$DIMRND
 40
0.0
  9
$DIMDLE
 40
0.0
  9
$DIMEXE
 40
19.999999999996199
  9
$DIMTP
 40
0.0
  9
$DIMTM
 40
0.0
  9
$DIMTXT
 40
24.432617187500004
  9
$DIMCEN
 40
0.0
  9
$DIMTSZ
 40
0.0
  9
$DIMTOL
 70
               0
  9
$DIMLIM
 70
               0
  9
$DIMTIH
 70
               0
  9
$DIMTOH
 70
               0
  9
$DIMSE1
 70
               0
  9
$DIMSE2
 70
               0
  9
$DIMTAD
 70
               1
  9
$DIMZIN
 70
              11
  9
$DIMBLK
  1
VW_FILLEDARROW
  9
$DIMASO
 70
               1
  9
$DIMSHO
 70
               1
  9
$DIMPOST
  1
<>
  9
$DIMAPOST
  1
[]
  9
$DIMALT
 70
               0
  9
$DIMALTD
 70
               1
  9
$DIMALTF
 40
1.0
  9
$DIMLFAC
 40
1.0
  9
$DIMTOFL
 70
               0
  9
$DIMTVP
 40
0.0
  9
$DIMTIX
 70
               1
  9
$DIMSOXD
 70
               0
  9
$DIMSAH
 70
               0
  9
$DIMBLK1
  1

  9
$DIMBLK2
  1

  9
$DIMSTYLE
  2
JIS
  9
$DIMCLRD
 70
               0
  9
$DIMCLRE
 70
               0
  9
$DIMCLRT
 70
               0
  9
$DIMTFAC
 40
1.0
  9
$DIMGAP
 40
1.00000000000108
  9
$DIMJUST
 70
               0
  9
$DIMSD1
 70
               0
  9
$DIMSD2
 70
               0
  9
$DIMTOLJ
 70
               1
  9
$DIMTZIN
 70
              11
  9
$DIMALTZ
 70
              11
  9
$DIMALTTZ
 70
              11
  9
$DIMUPT
 70
               0
  9
$DIMDEC
 70
               1
  9
$DIMTDEC
 70
               1
  9
$DIMALTU
 70
               2
  9
$DIMALTTD
 70
               2
  9
$DIMTXSTY
  7
ＭＳ ゴシック
  9
$DIMAUNIT
 70
               0
  9
$DIMADEC
 70
               2
  9
$DIMALTRND
 40
0.0
  9
$DIMAZIN
 70
               0
  9
$DIMDSEP
 70
              46
  9
$DIMATFIT
 70
               0
  9
$DIMFRAC
 70
               2
  9
$DIMLDRBLK
  1

  9
$DIMLUNIT
 70
               2
  9
$DIMLWD
 70
              -2
  9
$DIMLWE
 70
              -2
  9
$DIMTMOVE
 70
               0
  9
$LUNITS
 70
               2
  9
$LUPREC
 70
               4
  9
$SKETCHINC
 40
0.1
  9
$FILLETRAD
 40
0.0
  9
$AUNITS
 70
               0
  9
$AUPREC
 70
               0
  9
$MENU
  1
acad
  9
$ELEVATION
 40
0.0
  9
$PELEVATION
 40
0.0
  9
$THICKNESS
 40
0.0
  9
$LIMCHECK
 70
               0
  9
$CHAMFERA
 40
0.0
  9
$CHAMFERB
 40
0.0
  9
$CHAMFERC
 40
0.0
  9
$CHAMFERD
 40
0.0
  9
$SKPOLY
 70
               0
  9
$TDCREATE
 40
2455547.608240741
  9
$TDUCREATE
 40
0.000000000
  9
$TDUPDATE
 40
2455547.608240741
  9
$TDUUPDATE
 40
0.000000000
  9
$TDINDWG
 40
0.0000000000
  9
$TDUSRTIMER
 40
0.0000000000
  9
$USRTIMER
 70
               1
  9
$ANGBASE
 50
0.0
  9
$ANGDIR
 70
               0
  9
$PDMODE
 70
               1
  9
$PDSIZE
 40
-2.0
  9
$PLINEWID
 40
0.0
  9
$SPLFRAME
 70
               0
  9
$SPLINETYPE
 70
               6
  9
$SPLINESEGS
 70
               8
  9
$HANDSEED
  5
190
  9
$SURFTAB1
 70
               6
  9
$SURFTAB2
 70
               6
  9
$SURFTYPE
 70
               6
  9
$SURFU
 70
               6
  9
$SURFV
 70
               6
  9
$UCSBASE
  2

  9
$UCSNAME
  2

  9
$UCSORG
 10
0.0
 20
0.0
 30
0.0
  9
$UCSXDIR
 10
1.0
 20
0.0
 30
0.0
  9
$UCSYDIR
 10
0.0
 20
1.0
 30
0.0
  9
$UCSORTHOREF
  2

  9
$UCSORTHOVIEW
 70
               0
  9
$UCSORGTOP
 10
0.0
 20
0.0
 30
0.0
  9
$UCSORGBOTTOM
 10
0.0
 20
0.0
 30
0.0
  9
$UCSORGLEFT
 10
0.0
 20
0.0
 30
0.0
  9
$UCSORGRIGHT
 10
0.0
 20
0.0
 30
0.0
  9
$UCSORGFRONT
 10
0.0
 20
0.0
 30
0.0
  9
$UCSORGBACK
 10
0.0
 20
0.0
 30
0.0
  9
$PUCSBASE
  2

  9
$PUCSNAME
  2

  9
$PUCSORG
 10
0.0
 20
0.0
 30
0.0
  9
$PUCSXDIR
 10
1.0
 20
0.0
 30
0.0
  9
$PUCSYDIR
 10
0.0
 20
1.0
 30
0.0
  9
$PUCSORTHOREF
  2

  9
$PUCSORTHOVIEW
 70
               0
  9
$PUCSORGTOP
 10
0.0
 20
0.0
 30
0.0
  9
$PUCSORGBOTTOM
 10
0.0
 20
0.0
 30
0.0
  9
$PUCSORGLEFT
 10
0.0
 20
0.0
 30
0.0
  9
$PUCSORGRIGHT
 10
0.0
 20
0.0
 30
0.0
  9
$PUCSORGFRONT
 10
0.0
 20
0.0
 30
0.0
  9
$PUCSORGBACK
 10
0.0
 20
0.0
 30
0.0
  9
$USERI1
 70
               0
  9
$USERI2
 70
               0
  9
$USERI3
 70
               0
  9
$USERI4
 70
               0
  9
$USERI5
 70
               0
  9
$USERR1
 40
0.0
  9
$USERR2
 40
0.0
  9
$USERR3
 40
0.0
  9
$USERR4
 40
0.0
  9
$USERR5
 40
0.0
  9
$WORLDVIEW
 70
               1
  9
$SHADEDGE
 70
               3
  9
$SHADEDIF
 70
              70
  9
$TILEMODE
 70
               1
  9
$MAXACTVP
 70
              64
  9
$PINSBASE
 10
0.0
 20
0.0
 30
0.0
  9
$PLIMCHECK
 70
               0
  9
$PEXTMIN
 10
1.0000000000000000E+20
 20
1.0000000000000000E+20
 30
1.0000000000000000E+20
  9
$PEXTMAX
 10
-1.0000000000000000E+20
 20
-1.0000000000000000E+20
 30
-1.0000000000000000E+20
  9
$PLIMMIN
 10
0.0
 20
0.0
  9
$PLIMMAX
 10
12.0
 20
9.0
  9
$UNITMODE
 70
               0
  9
$VISRETAIN
 70
               0
  9
$PLINEGEN
 70
               1
  9
$PSLTSCALE
 70
               0
  9
$TREEDEPTH
 70
            3020
  9
$CMLSTYLE
  2
Standard
  9
$CMLJUST
 70
               0
  9
$CMLSCALE
 40
1.0
  9
$PROXYGRAPHICS
 70
               0
  9
$MEASUREMENT
 70
               1
  9
$CELWEIGHT
370
               0
  9
$ENDCAPS
280
               0
  9
$JOINSTYLE
280
               0
  9
$LWDISPLAY
290
               1
  9
$INSUNITS
 70
               4
  9
$HYPERLINKBASE
  1

  9
$STYLESHEET
  1

  9
$XEDIT
290
               1
  9
$CEPSNTYPE
380
               0
  9
$PSTYLEMODE
290
               1
  9
$FINGERPRINTGUID
  2

  9
$VERSIONGUID
  2

  9
$EXTNAMES
290
               1
  9
$PSVPSCALE
 40
0.0
  0
ENDSEC
  0
SECTION
  2
CLASSES
  0
CLASS
  1
LWPOLYLINE
  2
AcDbPolyline
  3
AutoCAD 2000
 90
        0
280
               0
281
               1
  0
CLASS
  1
IMAGE
  2
AcDbRasterImage
  3
ISM
 90
      127
280
               0
281
               1
  0
CLASS
  1
OLE2FRAME
  2
AcDbOle2Frame
  3
AutoCAD 2000
 90
        0
280
               0
281
               1
  0
CLASS
  1
HATCH
  2
AcDbHatch
  3
AutoCAD 2000
 90
        0
280
               0
281
               1
  0
CLASS
  1
DICTIONARYVAR
  2
AcDbDictionaryVar
  3
AutoCAD 2000
 90
        0
280
               0
281
               0
  0
CLASS
  1
RASTERVARIABLES
  2
AcDbRasterVariables
  3
ISM
 90
        0
280
               0
281
               0
  0
CLASS
  1
IMAGEDEF
  2
AcDbRasterImageDef
  3
ISM
 90
        0
280
               0
281
               0
  0
CLASS
  1
IMAGEDEF_REACTOR
  2
AcDbRasterImageDefReactor
  3
ISM
 90
        1
280
               0
281
               0
  0
CLASS
  1
IDBUFFER
  2
AcDbIdBuffer
  3
AutoCAD 2000
 90
        0
280
               0
281
               0
  0
CLASS
  1
SPATIAL_FILTER
  2
AcDbSpatialFilter
  3
AutoCAD 2000
 90
        0
280
               0
281
               0
  0
CLASS
  1
XRECORD
  2
AcDbXrecord
  3
AutoCAD 2000
 90
        0
280
               0
281
               0
  0
CLASS
  1
SORTENTSTABLE
  2
AcDbSortentsTable
  3
AutoCAD 2000
 90
        0
280
               0
281
               0
  0
CLASS
  1
LAYER_INDEX
  2
AcDbLayerIndex
  3
AutoCAD 2000
 90
        0
280
               0
281
               0
  0
CLASS
  1
SPATIAL_INDEX
  2
AcDbSpatialIndex
  3
AutoCAD 2000
 90
        0
280
               0
281
               0
  0
CLASS
  1
OBJECT_PTR
  2
CAseDLPNTableRecord
  3
"ASE-LPNTableRecord"
 90
        1
280
               0
281
               0
  0
CLASS
  1
LAYOUT
  2
AcDbLayout
  3
AutoCAD 2000
 90
        0
280
               0
281
               0
  0
CLASS
  1
PLOTSETTINGS
  2
AcDbPlotSettings
  3
AutoCAD 2000
 90
        0
280
               0
281
               0
  0
CLASS
  1
ACDBDICTIONARYWDFLT
  2
AcDbDictionaryWithDefault
  3
AutoCAD 2000
 90
        0
280
               0
281
               0
  0
CLASS
  1
ACDBPLACEHOLDER
  2
AcDbPlaceHolder
  3
AutoCAD 2000
 90
        0
280
               0
281
               0
  0
ENDSEC
  0
SECTION
  2
TABLES
  0
TABLE
  2
VPORT
  5
7
100
AcDbSymbolTable
 70
               1
  0
VPORT
  5
15
100
AcDbSymbolTableRecord
100
AcDbViewportTableRecord
  2
*ACTIVE
 70
               0
 10
0.0
 20
0.0
 11
1.0
 21
1.0
 12
0.0000000000001137
 22
-12.764114914906486
 13
0.0
 23
0.0
 14
1.0
 24
1.0
 15
0.0
 25
0.0
 16
0.0
 26
0.0
 36
1.0
 17
0.0
 27
0.0
 37
0.0
 40
2837.5228151124129
 41
0.688564
 42
50.0
 43
0.0
 44
0.0
 50
0.0
 51
0.0
 71
               0
 72
            2000
 73
               1
 74
               1
 75
               0
 76
               0
 77
               0
 78
               0
281
               0
 65
               0
110
0.0
120
0.0
130
0.0
111
1.0
121
0.0
131
0.0
112
0.0
122
1.0
132
0.0
345
0
346
0
 79
               0
146
0.0
  0
ENDTAB
  0
TABLE
  2
LTYPE
  5
4
100
AcDbSymbolTable
 70
              18
  0
LTYPE
  5
11
100
AcDbSymbolTableRecord
100
AcDbLinetypeTableRecord
  2
ByBlock
 70
              64
  3

 72
              65
 73
               0
 40
0.0
  0
LTYPE
  5
12
100
AcDbSymbolTableRecord
100
AcDbLinetypeTableRecord
  2
ByLayer
 70
              64
  3

 72
              65
 73
               0
 40
0.0
  0
LTYPE
  5
13
100
AcDbSymbolTableRecord
100
AcDbLinetypeTableRecord
  2
Continuous
 70
              64
  3
Solid line
 72
              65
 73
               0
 40
0.0
  0
LTYPE
  5
33
100
AcDbSymbolTableRecord
100
AcDbLinetypeTableRecord
  2
STYLE_01
 70
               0
  3

 72
              65
 73
               2
 40
0.516732283464567
 49
0.344488188976378
 74
               0
 49
-0.172244094488189
 74
               0
  0
LTYPE
  5
34
100
AcDbSymbolTableRecord
100
AcDbLinetypeTableRecord
  2
STYLE_02
 70
               0
  3

 72
              65
 73
               2
 40
0.6944250000000001
 49
0.48607
 74
               0
 49
-0.2083550000000001
 74
               0
  0
LTYPE
  5
35
100
AcDbSymbolTableRecord
100
AcDbLinetypeTableRecord
  2
STYLE_03
 70
               0
  3

 72
              65
 73
               2
 40
1.25
 49
1.0416400000000001
 74
               0
 49
-0.2083599999999999
 74
               0
  0
LTYPE
  5
36
100
AcDbSymbolTableRecord
100
AcDbLinetypeTableRecord
  2
STYLE_04
 70
               0
  3

 72
              65
 73
               2
 40
1.5277099999999999
 49
1.3194249999999998
 74
               0
 49
-0.208285
 74
               0
  0
LTYPE
  5
37
100
AcDbSymbolTableRecord
100
AcDbLinetypeTableRecord
  2
STYLE_05
 70
               0
  3

 72
              65
 73
               2
 40
0.20828
 49
0.069425
 74
               0
 49
-0.138855
 74
               0
  0
LTYPE
  5
38
100
AcDbSymbolTableRecord
100
AcDbLinetypeTableRecord
  2
STYLE_06
 70
               0
  3

 72
              65
 73
               4
 40
1.0416400000000001
 49
0.625
 74
               0
 49
-0.20828
 74
               0
 49
0.06943
 74
               0
 49
-0.13893
 74
               0
  0
LTYPE
  5
39
100
AcDbSymbolTableRecord
100
AcDbLinetypeTableRecord
  2
STYLE_07
 70
               0
  3

 72
              65
 73
               6
 40
1.875
 49
0.625
 74
               0
 49
-0.20828
 74
               0
 49
0.6250000000000001
 74
               0
 49
-0.2083599999999999
 74
               0
 49
0.06943
 74
               0
 49
-0.1389299999999999
 74
               0
  0
LTYPE
  5
3A
100
AcDbSymbolTableRecord
100
AcDbLinetypeTableRecord
  2
STYLE_08
 70
               0
  3

 72
              65
 73
               6
 40
1.25
 49
0.625
 74
               0
 49
-0.20828
 74
               0
 49
0.06943
 74
               0
 49
-0.13893
 74
               0
 49
0.0694299999999999
 74
               0
 49
-0.13893
 74
               0
  0
LTYPE
  5
3B
100
AcDbSymbolTableRecord
100
AcDbLinetypeTableRecord
  2
STYLE_09
 70
               0
  3

 72
              65
 73
               4
 40
5.0
 49
3.75
 74
               0
 49
-0.2777849999999998
 74
               0
 49
0.6944300000000003
 74
               0
 49
-0.2777849999999998
 74
               0
  0
LTYPE
  5
3C
100
AcDbSymbolTableRecord
100
AcDbLinetypeTableRecord
  2
STYLE_10
 70
               0
  3

 72
              65
 73
               6
 40
5.9375
 49
3.75
 74
               0
 49
-0.2777849999999998
 74
               0
 49
0.6944300000000003
 74
               0
 49
-0.2777849999999998
 74
               0
 49
0.625
 74
               0
 49
-0.3125
 74
               0
  0
LTYPE
  5
3D
100
AcDbSymbolTableRecord
100
AcDbLinetypeTableRecord
  2
STYLE_11
 70
               0
  3

 72
              65
 73
               2
 40
0.0694444881889764
 49
0.0347222440944882
 74
               0
 49
-0.0347222440944882
 74
               0
  0
LTYPE
  5
3E
100
AcDbSymbolTableRecord
100
AcDbLinetypeTableRecord
  2
STYLE_12
 70
               0
  3

 72
              65
 73
               2
 40
0.3937007874015748
 49
0.1968503937007874
 74
               0
 49
-0.1968503937007874
 74
               0
  0
LTYPE
  5
3F
100
AcDbSymbolTableRecord
100
AcDbLinetypeTableRecord
  2
STYLE_13
 70
               0
  3

 72
              65
 73
               2
 40
0.5905511811023622
 49
0.2952755905511811
 74
               0
 49
-0.2952755905511811
 74
               0
  0
LTYPE
  5
40
100
AcDbSymbolTableRecord
100
AcDbLinetypeTableRecord
  2
STYLE_14
 70
               0
  3

 72
              65
 73
               2
 40
1.9685039370078738
 49
0.9842519685039369
 74
               0
 49
-0.9842519685039369
 74
               0
  0
LTYPE
  5
41
100
AcDbSymbolTableRecord
100
AcDbLinetypeTableRecord
  2
STYLE_15
 70
               0
  3

 72
              65
 73
               2
 40
0.1875
 49
0.125
 74
               0
 49
-0.0625
 74
               0
  0
ENDTAB
  0
TABLE
  2
LAYER
  5
2
100
AcDbSymbolTable
 70
               5
  0
LAYER
  5
14
100
AcDbSymbolTableRecord
100
AcDbLayerTableRecord
  2
0
 70
               0
 62
               7
  6
Continuous
290
               1
370
              -3
390
1D
  0
LAYER
  5
42
100
AcDbSymbolTableRecord
100
AcDbLayerTableRecord
  2
Defpoints
 70
               0
 62
               7
  6
Continuous
290
               0
370
              -3
390
1D
  0
LAYER
  5
43
100
AcDbSymbolTableRecord
100
AcDbLayerTableRecord
  2
template
 70
               0
 62
               7
  6
Continuous
290
               1
370
              -3
390
1D
  0
LAYER
  5
44
100
AcDbSymbolTableRecord
100
AcDbLayerTableRecord
  2
notes
 70
               0
 62
               7
  6
Continuous
290
               1
370
              -3
390
1D
  0
LAYER
  5
45
100
AcDbSymbolTableRecord
100
AcDbLayerTableRecord
  2
ADF70-0611
 70
               0
 62
               7
  6
Continuous
290
               1
370
              -3
390
1D
  0
ENDTAB
  0
TABLE
  2
STYLE
  5
3
100
AcDbSymbolTable
 70
               2
  0
STYLE
  5
17
100
AcDbSymbolTableRecord
100
AcDbTextStyleTableRecord
  2
Standard
 70
               0
 40
0.0
 41
1.0
 50
0.0
 71
               0
 42
0.0
  3
txt
  4
BIGFONT.SHX
  0
STYLE
  5
32
100
AcDbSymbolTableRecord
100
AcDbTextStyleTableRecord
  2
ＭＳ ゴシック
 70
               0
 40
0.0
 41
1.0
 50
0.0
 71
               0
 42
0.0
  3

  4
ＭＳ ゴシック
1001
ACAD
1000
ＭＳ ゴシック
1071
        0
  0
ENDTAB
  0
TABLE
  2
VIEW
  5
5
100
AcDbSymbolTable
 70
               0
  0
ENDTAB
  0
TABLE
  2
UCS
  5
6
100
AcDbSymbolTable
 70
               0
  0
ENDTAB
  0
TABLE
  2
APPID
  5
8
100
AcDbSymbolTable
 70
               1
  0
APPID
  5
16
100
AcDbSymbolTableRecord
100
AcDbRegAppTableRecord
  2
ACAD
 70
               0
  0
ENDTAB
  0
TABLE
  2
DIMSTYLE
  5
9
100
AcDbSymbolTable
 70
               3
100
AcDbDimStyleTable
 71
               0
  0
DIMSTYLE
105
18
100
AcDbSymbolTableRecord
100
AcDbDimStyleTableRecord
  2
Standard
 70
               0
  3

  4

 40
1.0
 41
0.18
 42
0.0625
 43
0.38
 44
0.18
 45
0.0
 46
0.0
 47
0.0
 48
0.0
 71
               0
 72
               0
 73
               1
 74
               1
 75
               0
 76
               0
 77
               0
 78
               0
 79
               0
140
0.18
141
0.09
142
0.0
143
25.399999999999999
144
1.0
145
0.0
146
1.0
147
0.09
148
0.0
170
               0
171
               2
172
               0
173
               0
174
               0
175
               0
176
               0
177
               0
178
               0
179
               0
271
               4
272
               4
273
               2
274
               2
275
               0
276
               0
277
               2
278
              46
279
               0
280
               0
281
               0
282
               0
283
               1
284
               0
285
               0
286
               0
288
               0
289
               3
340
17
341
0
342
0
343
0
344
0
371
              -2
372
              -2
  0
DIMSTYLE
105
4E
100
AcDbSymbolTableRecord
100
AcDbDimStyleTableRecord
  2
tfrom線あり
 70
               0
  3
<>
  4
[]
 40
1.0
 41
3.999755859375
 42
24.999999999999996
 43
0.9999999999999999
 44
0.0
 45
0.0
 46
0.0
 47
0.0
 48
0.0
 71
               0
 72
               0
 73
               0
 74
               0
 75
               0
 76
               0
 77
               1
 78
              11
 79
               0
140
24.432617187500004
141
0.0
142
0.0
143
1.0
144
1.0
145
0.0
146
1.0
147
0.4999999999999999
148
0.0
170
               0
171
               1
172
               0
173
               0
174
               1
175
               0
176
               0
177
               0
178
               0
179
               2
271
               1
272
               1
273
               2
274
               2
275
               0
276
               2
277
               2
278
              46
279
               0
280
               0
281
               0
282
               0
283
               1
284
              11
285
              11
286
              11
288
               0
289
               0
340
32
341
46
342
46
343
0
344
0
371
              -2
372
              -2
  0
DIMSTYLE
105
53
100
AcDbSymbolTableRecord
100
AcDbDimStyleTableRecord
  2
JIS
 70
               0
  3
<>
  4
[]
 40
1.0
 41
31.75
 42
0.0
 43
6.9999999999999396
 44
19.999999999996199
 45
0.0
 46
0.0
 47
0.0
 48
0.0
 71
               0
 72
               0
 73
               0
 74
               0
 75
               0
 76
               0
 77
               1
 78
              11
 79
               0
140
24.432617187500004
141
0.0
142
0.0
143
1.0
144
1.0
145
0.0
146
1.0
147
1.00000000000108
148
0.0
170
               0
171
               1
172
               0
173
               0
174
               1
175
               0
176
               0
177
               0
178
               0
179
               2
271
               1
272
               1
273
               2
274
               2
275
               0
276
               2
277
               2
278
              46
279
               0
280
               0
281
               0
282
               0
283
               1
284
              11
285
              11
286
              11
288
               0
289
               0
340
32
341
4F
342
4F
343
0
344
0
371
              -2
372
              -2
  0
ENDTAB
  0
TABLE
  2
BLOCK_RECORD
  5
1
100
AcDbSymbolTable
 70
              17
  0
BLOCK_RECORD
  5
A
100
AcDbSymbolTableRecord
100
AcDbBlockTableRecord
  2
*MODEL_SPACE
340
20
  0
BLOCK_RECORD
  5
B
100
AcDbSymbolTableRecord
100
AcDbBlockTableRecord
  2
*PAPER_SPACE
340
21
  0
BLOCK_RECORD
  5
46
100
AcDbSymbolTableRecord
100
AcDbBlockTableRecord
  2
_DOT
340
0
  0
BLOCK_RECORD
  5
4F
100
AcDbSymbolTableRecord
100
AcDbBlockTableRecord
  2
VW_FILLEDARROW
340
0
  0
BLOCK_RECORD
  5
23
100
AcDbSymbolTableRecord
100
AcDbBlockTableRecord
  2
グループ
340
0
102
{BLKREFS
331
112
102
}
  0
BLOCK_RECORD
  5
24
100
AcDbSymbolTableRecord
100
AcDbBlockTableRecord
  2
*D3
340
0
  0
BLOCK_RECORD
  5
25
100
AcDbSymbolTableRecord
100
AcDbBlockTableRecord
  2
*D4
340
0
  0
BLOCK_RECORD
  5
26
100
AcDbSymbolTableRecord
100
AcDbBlockTableRecord
  2
*D5
340
0
  0
BLOCK_RECORD
  5
27
100
AcDbSymbolTableRecord
100
AcDbBlockTableRecord
  2
*D6
340
0
  0
BLOCK_RECORD
  5
28
100
AcDbSymbolTableRecord
100
AcDbBlockTableRecord
  2
*D7
340
0
  0
BLOCK_RECORD
  5
29
100
AcDbSymbolTableRecord
100
AcDbBlockTableRecord
  2
*D8
340
0
  0
BLOCK_RECORD
  5
2A
100
AcDbSymbolTableRecord
100
AcDbBlockTableRecord
  2
*D9
340
0
  0
BLOCK_RECORD
  5
2B
100
AcDbSymbolTableRecord
100
AcDbBlockTableRecord
  2
*D10
340
0
  0
BLOCK_RECORD
  5
2C
100
AcDbSymbolTableRecord
100
AcDbBlockTableRecord
  2
*D11
340
0
  0
BLOCK_RECORD
  5
2D
100
AcDbSymbolTableRecord
100
AcDbBlockTableRecord
  2
*D12
340
0
  0
BLOCK_RECORD
  5
2E
100
AcDbSymbolTableRecord
100
AcDbBlockTableRecord
  2
*D13
340
0
  0
BLOCK_RECORD
  5
2F
100
AcDbSymbolTableRecord
100
AcDbBlockTableRecord
  2
*D14
340
0
  0
BLOCK_RECORD
  5
30
100
AcDbSymbolTableRecord
100
AcDbBlockTableRecord
  2
*D15
340
0
  0
BLOCK_RECORD
  5
31
100
AcDbSymbolTableRecord
100
AcDbBlockTableRecord
  2
グループ-1
340
0
102
{BLKREFS
331
17D
102
}
  0
ENDTAB
  0
ENDSEC
  0
SECTION
  2
BLOCKS
  0
BLOCK
  5
D
100
AcDbEntity
  8
0
390
0
100
AcDbBlockBegin
  2
*MODEL_SPACE
 70
               0
 10
0.0
 20
0.0
 30
0.0
  3
*MODEL_SPACE
  1

  0
ENDBLK
  5
E
100
AcDbEntity
  8
0
390
0
100
AcDbBlockEnd
  0
BLOCK
  5
F
100
AcDbEntity
 67
               1
  8
0
390
0
100
AcDbBlockBegin
  2
*PAPER_SPACE
 70
               0
 10
0.0
 20
0.0
 30
0.0
  3
*PAPER_SPACE
  1

  0
ENDBLK
  5
10
100
AcDbEntity
 67
               1
  8
0
390
0
100
AcDbBlockEnd
  0
BLOCK
  5
47
100
AcDbEntity
  8
0
390
0
100
AcDbBlockBegin
  2
_DOT
 70
               0
 10
0.0
 20
0.0
 30
0.0
  3
_DOT
  1

  0
POLYLINE
  5
48
100
AcDbEntity
  8
0
370
              -2
390
0
  6
ByBlock
 62
               0
100
AcDb2dPolyline
 66
               1
 10
0.0
 20
0.0
 30
0.0
 70
               1
 40
0.5
 41
0.5
  0
VERTEX
  5
49
100
AcDbEntity
  8
0
370
              -2
390
0
  6
ByBlock
 62
               0
100
AcDbVertex
100
AcDb2dVertex
 10
-0.25
 20
0.0
 30
0.0
 42
1.0
  0
VERTEX
  5
4A
100
AcDbEntity
  8
0
370
              -2
390
0
  6
ByBlock
 62
               0
100
AcDbVertex
100
AcDb2dVertex
 10
0.25
 20
0.0
 30
0.0
 42
1.0
  0
SEQEND
  5
4B
100
AcDbEntity
  8
0
390
0
  0
LINE
  5
4C
100
AcDbEntity
  8
0
370
              -2
390
0
  6
ByBlock
 62
               0
100
AcDbLine
 10
-0.5
 20
0.0
 30
0.0
 11
-1.0
 21
0.0
 31
0.0
  0
ENDBLK
  5
4D
100
AcDbEntity
  8
0
390
0
100
AcDbBlockEnd
  0
BLOCK
  5
50
100
AcDbEntity
  8
0
370
              -2
390
0
  6
ByBlock
 62
               0
100
AcDbBlockBegin
  2
VW_FILLEDARROW
 70
               0
 10
0.0
 20
0.0
 30
0.0
  3
VW_FILLEDARROW
  1

  0
SOLID
  5
51
100
AcDbEntity
  8
0
370
              -2
390
0
 62
               0
100
AcDbTrace
 10
0.0
 20
0.0
 30
0.0
 11
-0.9921874999999999
 21
-0.2658558393652545
 31
0.0
 12
-0.9921874999999999
 22
0.2658558393652548
 32
0.0
 13
-0.9921874999999999
 23
0.2658558393652548
 33
0.0
  0
ENDBLK
  5
52
100
AcDbEntity
  8
0
390
0
100
AcDbBlockEnd
  0
BLOCK
  5
54
100
AcDbEntity
  8
template
390
0
100
AcDbBlockBegin
  2
グループ
 70
               0
 10
0.0
 20
0.0
 30
0.0
  3
グループ
  1

  0
LWPOLYLINE
  5
55
100
AcDbEntity
  8
0
370
              15
390
0
  6
Continuous
 62
               7
100
AcDbPolyline
 90
        8
 70
             129
 10
510.19531474915823
 20
966.12101119174304
 10
510.19531474915823
 20
960.12362249816715
 10
500.69411783115493
 20
960.12362249816715
 10
500.69411783115493
 20
935.67265923465834
 10
492.33874056937213
 20
935.67265923465834
 10
492.33874056937213
 20
960.12362249816715
 10
483.00578362306271
 20
960.12362249816715
 10
483.00578362306271
 20
966.12101119174304
  0
LWPOLYLINE
  5
56
100
AcDbEntity
  8
0
370
              15
390
0
  6
Continuous
 62
               7
100
AcDbPolyline
 90
      101
 70
             128
 10
522.92360657971517
 20
965.39276269880656
 10
522.9389566085008
 20
965.39712345549185
 42
-0.0222221607813031
 10
523.22896118517133
 20
965.46574792073625
 10
523.24475494916283
 20
965.46875134383288
 42
-0.014688356558736
 10
523.5074576543891
 20
965.51075453078261
 42
-0.0127458844183582
 10
523.77209662154576
 20
965.53829149885541
 10
523.83455169985484
 20
965.5431849214433
 42
-0.0198099018566627
 10
524.22540080932674
 20
965.55827007884
 10
524.27721227877555
 20
965.55821630317485
 42
-0.0147617382762047
 10
524.77183573975014
 20
965.54309627792998
 10
524.8445271946257
 20
965.53872367104225
 42
-0.0162624549002247
 10
525.2346808240892
 20
965.50249079576997
 10
525.35621321534643
 20
965.48720423677366
 42
-0.0080020874668227
 10
525.50179224643989
 20
965.46652138950503
 10
525.54011171702564
 20
965.46045011169542
 42
-0.0053821929682018
 10
525.6085958223498
 20
965.44884258787238
 10
524.88219012315119
 20
963.26791413215847
 42
0.0108667757394893
 10
524.81487305301903
 20
963.28110124737861
 10
524.77740502983079
 20
963.28759898997282
 42
0.0170663203312771
 10
524.63418824291341
 20
963.30742858726478
 10
524.56631291023234
 20
963.31447575785205
 42
0.0220162375275552
 10
524.28593350237702
 20
963.33115811862217
 10
524.20807793532515
 20
963.33235748588868
 42
0.0282606915785282
 10
523.87244161174704
 20
963.31855420891964
 10
523.82852833797313
 20
963.31425421891583
 42
0.0169677213687574
 10
523.5826038430157
 20
963.28171716936401
 42
0.0190576269869177
 10
523.33969588043237
 20
963.23157029725678
 10
523.33343669232488
 20
963.23002732314831
 42
0.0213685642842785
 10
523.08305220784848
 20
963.15682703804407
 10
523.07756231293092
 20
963.1549640419845
 42
0.0237595297594878
 10
522.82406742803084
 20
963.05527952008833
 10
522.81896535400256
 20
963.05298774461073
 42
0.026185746881422
 10
522.56679457777398
 20
962.92345140723705
 10
522.55636838868497
 20
962.9173859327675
 42
0.0272553062021744
 10
522.31993861344722
 20
962.76201372682351
 10
522.2851755999377
 20
962.73635257873138
 42
0.0325996893174845
 10
522.13502025628623
 20
962.60960470575992
 10
522.11131082716076
 20
962.58678667724485
 42
0.0138050960641433
 10
522.01942767095295
 20
962.49333701569537
 42
0.0125280103800526
 10
521.93258513812111
 20
962.39517368909742
 10
521.90890469321107
 20
962.36701519090798
 42
0.0205218024735547
 10
521.78380461769734
 20
962.20522187667893
 10
521.76133827721026
 20
962.17356214685196
 42
0.0163110129583221
 10
521.60562789795915
 20
961.93823171178235
 10
521.60290400190797
 20
961.93380794979657
 42
0.0131897341897915
 10
521.45610348100206
 20
961.68067585743211
 10
521.4544033856356
 20
961.67755761829642
 42
0.0107895576061229
 10
521.31662668342585
 20
961.41134240866347
 10
521.3158937938997
 20
961.40984817601475
 42
0.0091371507217074
 10
521.1874138452514
 20
961.13532297825759
 10
521.15766821384113
 20
961.06861647109633
 42
0.0135418326352755
 10
520.9859542747688
 20
960.65367868582598
 10
520.95234946633445
 20
960.56581254354455
 42
0.0092834542411507
 10
520.78112040641417
 20
960.09191404524097
 10
520.75550327869598
 20
960.01667297544589
 42
0.0054261043583474
 10
520.64786513040372
 20
959.6889090023825
 10
520.63033914420612
 20
959.63352084008864
 42
0.0008225090821064
 10
520.56166909239619
 20
959.41525208200324
 10
519.57697996046272
 20
956.39036078874665
 10
522.80960380053659
 20
956.39036078874665
 10
522.30541137068315
 20
954.48588249039426
 10
519.04935508869983
 20
954.48588249039426
 10
513.220206056346
 20
935.67265942438939
 10
511.39510844603569
 20
935.67265942438939
 10
517.22978648153662
 20
954.48588249039426
 10
514.82467011249628
 20
954.48588249039426
 10
515.32886254234973
 20
956.39036078874665
 10
517.75741135329974
 20
956.39036078874665
 10
518.61756627148839
 20
959.02677378944554
 42
-0.0005863560644464
 10
518.65430094966644
 20
959.1436002096566
 10
518.73038878335228
 20
959.38459250912274
 42
-0.0087522378927724
 10
518.92985692680952
 20
959.97986859627019
 10
519.02212120222123
 20
960.24000876477851
 42
-0.0077400953830616
 10
519.28005486135373
 20
960.93301344233043
 10
519.29581983293326
 20
960.97344432571799
 42
-0.0082369946330754
 10
519.54290430354456
 20
961.57752339191222
 42
-0.0085725238364108
 10
519.81015039954855
 20
962.17294943120169
 10
519.91178000055527
 20
962.38937053318523
 42
-0.0168109410595532
 10
520.19872442928477
 20
962.95057805928877
 10
520.32456781973951
 20
963.17754209227849
 42
-0.0007817726864417
 10
520.37885216980044
 20
963.27508633731725
 10
520.37898047581416
 20
963.27531604604724
 42
-0.0036626142156991
 10
520.43386833983902
 20
963.37191392602222
 42
-0.0080221150674211
 10
520.4909925952461
 20
963.46719316077565
 10
520.52169254660691
 20
963.51658410989728
 42
-0.0202139325572619
 10
520.64934828641356
 20
963.70456571057855
 10
520.70341575160126
 20
963.77764457481953
 42
-0.0249323791799479
 10
520.96257854531973
 20
964.09368981697321
 10
520.98671835944742
 20
964.12030408988642
 42
-0.0242132121538706
 10
521.32639910098965
 20
964.46018757609056
 10
521.37431067373893
 20
964.50369671227554
 42
-0.0251017527860131
 10
521.65829237438084
 20
964.73668945804127
 10
521.65973785119388
 20
964.73775871561975
 42
-0.0130868069038587
 10
521.95799850115191
 20
964.9465391841627
 10
521.95956032029324
 20
964.94757262443682
 42
-0.0290329526391952
 10
522.27067146168793
 20
965.12839812606705
 10
522.30051702367473
 20
965.14350050890698
 42
-0.016025019004937
 10
522.56642143743852
 20
965.26751661911987
 42
-0.0267600374782208
 10
522.84169751490754
 20
965.36826493966851
 10
522.8684334344282
 20
965.37645749849412
 42
-0.0049981587669998
 10
522.92360657971517
 20
965.39276269880656
 42
-0.0049981587669998
  0
LWPOLYLINE
  5
57
100
AcDbEntity
  8
0
370
              15
390
0
  6
Continuous
 62
               7
100
AcDbPolyline
 90
      118
 70
             128
 10
542.73797414416208
 20
956.31637746091928
 10
544.61309606866155
 20
956.31637746091928
 10
543.77505716306166
 20
953.63481093451924
 42
-0.0010587229235607
 10
543.80651297863244
 20
953.67171546787336
 10
543.86470706926548
 20
953.7396977240503
 42
-0.0071874740405582
 10
544.0150822873652
 20
953.91033841608112
 10
544.15680506062586
 20
954.06657455739253
 42
-0.0148118053512827
 10
544.6069343533369
 20
954.53418840340396
 10
544.6941566882407
 20
954.61958572425931
 42
-0.0086273358692863
 10
545.02970548924873
 20
954.93696135827554
 10
545.07353920547428
 20
954.97701100260838
 42
-0.0103138323111667
 10
545.33156290770819
 20
955.2031741399469
 10
545.37733731403523
 20
955.24165618720701
 42
-0.006020674856749
 10
545.55018537814749
 20
955.3834508379615
 10
545.55221650902979
 20
955.38507654358989
 42
-0.0067069027293624
 10
545.72450932369588
 20
955.51922717738773
 10
545.72705808962257
 20
955.52115734726362
 42
-0.0076184352046118
 10
545.89796335549329
 20
955.64653222250683
 42
-0.0089652861670913
 10
546.07292431823385
 20
955.76616548284335
 10
546.10927603837035
 20
955.79007669632085
 42
-0.0156916245937934
 10
546.3052355355328
 20
955.91033918279675
 42
-0.002329901106189
 10
546.50549757951092
 20
956.02351712233667
 10
546.52088171189257
 20
956.03211711740232
 42
-0.0107669341486336
 10
546.75511853699425
 20
956.15651725075202
 10
546.77738333806883
 20
956.16773400070178
 42
-0.0078058045898317
 10
547.06097345601836
 20
956.30509545633879
 10
547.07088054373071
 20
956.3097045842087
 42
-0.0181829330471781
 10
547.38118994834542
 20
956.44056832530407
 10
547.43524539091254
 20
956.46108344524771
 42
-0.0208411536030068
 10
547.78433035836326
 20
956.57717390774098
 10
547.79868645849137
 20
956.58129235269462
 42
-0.022279981713845
 10
548.12740625240804
 20
956.65993391883478
 10
548.13629521564667
 20
956.66164592942016
 42
-0.0215509523882629
 10
548.45276618392472
 20
956.70856161795416
 10
548.49524814497272
 20
956.71299914474491
 42
-0.0182545924872882
 10
548.72935692427905
 20
956.72884297013593
 10
548.7687579406238
 20
956.73006751521507
 42
-0.007296285653362
 10
548.92468082031587
 20
956.73263684373728
 10
548.95378049089015
 20
956.732691679141
 42
-0.0059227516313836
 10
549.05152999003292
 20
956.73171796735062
 10
549.08077220750283
 20
956.73108020074744
 42
-0.0011833111898512
 10
549.12002349123725
 20
956.73013119643724
 10
548.32463689563008
 20
954.19139725133823
 42
0.0143932051584943
 10
548.2982355132774
 20
954.20159622138419
 10
548.29096354086221
 20
954.20416744024089
 42
0.0234388603516562
 10
548.24913267492843
 20
954.21678667595654
 10
548.24045101201739
 20
954.21896763796121
 42
0.0199162742982032
 10
548.18016217793809
 20
954.23158437329619
 10
548.15934824013118
 20
954.23508157272477
 42
0.0293643550671717
 10
548.05627338137117
 20
954.24623161837792
 10
548.03158820065164
 20
954.24744323539653
 42
0.0214606686866775
 10
547.87844728469963
 20
954.248381795814
 10
547.86907537388129
 20
954.24803688426971
 42
0.0167564054183105
 10
547.69755518276975
 20
954.23595984190138
 10
547.68909539001379
 20
954.2350785014745
 42
0.0137677553243267
 10
547.50174207674763
 20
954.21032919293089
 10
547.49439033724138
 20
954.20915127296303
 42
0.0118497261483953
 10
547.29389257314028
 20
954.17213392277404
 10
547.28774256589281
 20
954.1708470600538
 42
0.0106421143891629
 10
547.07686167860334
 20
954.1220146844779
 10
547.07195287021864
 20
954.12076734179391
 42
0.0099746379703461
 10
546.85349440105779
 20
954.06059281347962
 10
546.79194636088596
 20
954.0423109348485
 42
0.0191613675862213
 10
546.45596189836795
 20
953.9283335545606
 10
546.36790212562335
 20
953.8946466442369
 42
0.0205274080145411
 10
545.98259535372426
 20
953.72881823641092
 10
545.92494607174581
 20
953.70115027184022
 42
0.0181256912193649
 10
545.6666691310752
 20
953.56546645286073
 10
545.61371374776002
 20
953.53514883964522
 42
0.0140709242411766
 10
545.46875881313281
 20
953.4466541662116
 10
545.4425099445134
 20
953.42959734749559
 42
0.0086667884395611
 10
545.35358378297178
 20
953.36959467961333
 42
0.0036408192017529
 10
545.26615054494096
 20
953.30741382182282
 10
545.23092367046979
 20
953.2819728759082
 42
0.0052260781276332
 10
545.07469497308466
 20
953.16664048927828
 10
545.05848811681926
 20
953.15441237865582
 42
0.0050024435896388
 10
544.87248477376204
 20
953.01112981039489
 10
544.85716661724518
 20
952.99908378794782
 42
0.0136138710279805
 10
544.64672534891952
 20
952.82411728303418
 10
544.61305747312622
 20
952.79453831032026
 42
0.0172815186916567
 10
544.34865393146356
 20
952.54554163769649
 10
544.34609158562125
 20
952.54295582054976
 42
0.0189403857991895
 10
544.0955097870434
 20
952.27015055574702
 10
544.06287829350549
 20
952.23180662424761
 42
0.0185044199505921
 10
543.87092185452605
 20
951.98855804312541
 42
0.0088565243900832
 10
543.69246174789748
 20
951.73504162297502
 10
543.68328376824911
 20
951.72150024321536
 42
0.0157195347230074
 10
543.50006316191366
 20
951.43197803389739
 10
543.45398021998528
 20
951.35382583688079
 42
0.0095451879781633
 10
543.28889466984651
 20
951.06123119452229
 10
543.2777467509145
 20
951.04056052238593
 42
0.010035170625651
 10
543.14570300175751
 20
950.78350496189955
 42
0.0086935915422498
 10
543.02337184996202
 20
950.52167181649168
 10
543.02005110854907
 20
950.51422949352332
 42
0.0072580174863619
 10
542.89970465660474
 20
950.2336375019421
 10
542.89644302329771
 20
950.22571747592235
 42
0.0060005122613465
 10
542.77724235495327
 20
949.92610780531243
 10
542.77403137661349
 20
949.91774627741245
 42
0.004901778698105
 10
542.65513121775575
 20
949.59881729680717
 10
542.65196541136561
 20
949.5900643595777
 42
0.0039415167602494
 10
542.53252913330891
 20
949.25152229716468
 10
542.52939803065669
 20
949.24241909628836
 42
0.0031035838763712
 10
542.40859324496409
 20
948.883979234516
 10
542.40548320043331
 20
948.87455861314004
 42
0.0025070747152348
 10
542.28258184911908
 20
948.49591139619986
 10
542.24528795269248
 20
948.37901973094313
 42
0.0029081910284
 10
542.05326965487927
 20
947.76485607264362
 10
542.0124664863647
 20
947.63163283037557
 42
0.0009266453733913
 10
541.74404911203919
 20
946.74940837041652
 10
541.72316163939422
 20
946.68029649116636
 42
-0.0005809993664755
 10
541.44582495881821
 20
945.7664883845772
 10
541.37954316054584
 20
945.54900345241947
 42
-0.0012018708169822
 10
541.23255885111598
 20
945.07084078789683
 10
541.18023899954824
 20
944.90208164702415
 42
-0.0002691059611034
 10
541.13666951838195
 20
944.76181402668908
 10
538.30371362009271
 20
935.67265942438939
 10
536.48572472811418
 20
935.67265942438939
 10
542.73797414416208
 20
956.31637746091928
  0
SPLINE
  5
58
100
AcDbEntity
  8
0
370
              15
390
0
  6
Continuous
 62
               7
100
AcDbSpline
210
0.0
220
0.0
230
1.0
 70
              13
 71
               2
 72
             782
 73
             779
 74
               0
 42
0.000001
 43
0.000001
 40
0.0
 40
0.0
 40
0.0
 40
1.0
 40
1.0
 40
2.0
 40
2.0
 40
3.0
 40
3.0
 40
4.0
 40
4.0
 40
5.0
 40
5.0
 40
6.0
 40
6.0
 40
7.0
 40
7.0
 40
8.0
 40
8.0
 40
9.0
 40
9.0
 40
10.0
 40
10.0
 40
11.0
 40
11.0
 40
12.0
 40
12.0
 40
13.0
 40
13.0
 40
14.0
 40
14.0
 40
15.0
 40
15.0
 40
16.0
 40
16.0
 40
17.0
 40
17.0
 40
18.0
 40
18.0
 40
19.0
 40
19.0
 40
20.0
 40
20.0
 40
21.0
 40
21.0
 40
22.0
 40
22.0
 40
23.0
 40
23.0
 40
24.0
 40
24.0
 40
25.0
 40
25.0
 40
26.0
 40
26.0
 40
27.0
 40
27.0
 40
28.0
 40
28.0
 40
29.0
 40
29.0
 40
30.0
 40
30.0
 40
31.0
 40
31.0
 40
32.0
 40
32.0
 40
33.0
 40
33.0
 40
34.0
 40
34.0
 40
35.0
 40
35.0
 40
36.0
 40
36.0
 40
37.0
 40
37.0
 40
38.0
 40
38.0
 40
39.0
 40
39.0
 40
40.0
 40
40.0
 40
41.0
 40
41.0
 40
42.0
 40
42.0
 40
43.0
 40
43.0
 40
44.0
 40
44.0
 40
45.0
 40
45.0
 40
46.0
 40
46.0
 40
47.0
 40
47.0
 40
48.0
 40
48.0
 40
49.0
 40
49.0
 40
50.0
 40
50.0
 40
51.0
 40
51.0
 40
52.0
 40
52.0
 40
53.0
 40
53.0
 40
54.0
 40
54.0
 40
55.0
 40
55.0
 40
56.0
 40
56.0
 40
57.0
 40
57.0
 40
58.0
 40
58.0
 40
59.0
 40
59.0
 40
60.0
 40
60.0
 40
61.0
 40
61.0
 40
62.0
 40
62.0
 40
63.0
 40
63.0
 40
64.0
 40
64.0
 40
65.0
 40
65.0
 40
66.0
 40
66.0
 40
67.0
 40
67.0
 40
68.0
 40
68.0
 40
69.0
 40
69.0
 40
70.0
 40
70.0
 40
71.0
 40
71.0
 40
72.0
 40
72.0
 40
73.0
 40
73.0
 40
74.0
 40
74.0
 40
75.0
 40
75.0
 40
76.0
 40
76.0
 40
77.0
 40
77.0
 40
78.0
 40
78.0
 40
79.0
 40
79.0
 40
80.0
 40
80.0
 40
81.0
 40
81.0
 40
82.0
 40
82.0
 40
83.0
 40
83.0
 40
84.0
 40
84.0
 40
85.0
 40
85.0
 40
86.0
 40
86.0
 40
87.0
 40
87.0
 40
88.0
 40
88.0
 40
89.0
 40
89.0
 40
90.0
 40
90.0
 40
91.0
 40
91.0
 40
92.0
 40
92.0
 40
93.0
 40
93.0
 40
94.0
 40
94.0
 40
95.0
 40
95.0
 40
96.0
 40
96.0
 40
97.0
 40
97.0
 40
98.0
 40
98.0
 40
99.0
 40
99.0
 40
100.0
 40
100.0
 40
101.0
 40
101.0
 40
102.0
 40
102.0
 40
103.0
 40
103.0
 40
104.0
 40
104.0
 40
105.0
 40
105.0
 40
106.0
 40
106.0
 40
107.0
 40
107.0
 40
108.0
 40
108.0
 40
109.0
 40
109.0
 40
110.0
 40
110.0
 40
111.0
 40
111.0
 40
112.0
 40
112.0
 40
113.0
 40
113.0
 40
114.0
 40
114.0
 40
115.0
 40
115.0
 40
116.0
 40
116.0
 40
117.0
 40
117.0
 40
118.0
 40
118.0
 40
119.0
 40
119.0
 40
120.0
 40
120.0
 40
121.0
 40
121.0
 40
122.0
 40
122.0
 40
123.0
 40
123.0
 40
124.0
 40
124.0
 40
125.0
 40
125.0
 40
126.0
 40
126.0
 40
127.0
 40
127.0
 40
128.0
 40
128.0
 40
129.0
 40
129.0
 40
130.0
 40
130.0
 40
131.0
 40
131.0
 40
132.0
 40
132.0
 40
133.0
 40
133.0
 40
134.0
 40
134.0
 40
135.0
 40
135.0
 40
136.0
 40
136.0
 40
137.0
 40
137.0
 40
138.0
 40
138.0
 40
139.0
 40
139.0
 40
140.0
 40
140.0
 40
141.0
 40
141.0
 40
142.0
 40
142.0
 40
143.0
 40
143.0
 40
144.0
 40
144.0
 40
145.0
 40
145.0
 40
146.0
 40
146.0
 40
147.0
 40
147.0
 40
148.0
 40
148.0
 40
149.0
 40
149.0
 40
150.0
 40
150.0
 40
151.0
 40
151.0
 40
152.0
 40
152.0
 40
153.0
 40
153.0
 40
154.0
 40
154.0
 40
155.0
 40
155.0
 40
156.0
 40
156.0
 40
157.0
 40
157.0
 40
158.0
 40
158.0
 40
159.0
 40
159.0
 40
160.0
 40
160.0
 40
161.0
 40
161.0
 40
162.0
 40
162.0
 40
163.0
 40
163.0
 40
164.0
 40
164.0
 40
165.0
 40
165.0
 40
166.0
 40
166.0
 40
167.0
 40
167.0
 40
168.0
 40
168.0
 40
169.0
 40
169.0
 40
170.0
 40
170.0
 40
171.0
 40
171.0
 40
172.0
 40
172.0
 40
173.0
 40
173.0
 40
174.0
 40
174.0
 40
175.0
 40
175.0
 40
176.0
 40
176.0
 40
177.0
 40
177.0
 40
178.0
 40
178.0
 40
179.0
 40
179.0
 40
180.0
 40
180.0
 40
181.0
 40
181.0
 40
182.0
 40
182.0
 40
183.0
 40
183.0
 40
184.0
 40
184.0
 40
185.0
 40
185.0
 40
186.0
 40
186.0
 40
187.0
 40
187.0
 40
188.0
 40
188.0
 40
189.0
 40
189.0
 40
190.0
 40
190.0
 40
191.0
 40
191.0
 40
192.0
 40
192.0
 40
193.0
 40
193.0
 40
194.0
 40
194.0
 40
195.0
 40
195.0
 40
196.0
 40
196.0
 40
197.0
 40
197.0
 40
198.0
 40
198.0
 40
199.0
 40
199.0
 40
200.0
 40
200.0
 40
201.0
 40
201.0
 40
202.0
 40
202.0
 40
203.0
 40
203.0
 40
204.0
 40
204.0
 40
205.0
 40
205.0
 40
206.0
 40
206.0
 40
207.0
 40
207.0
 40
208.0
 40
208.0
 40
209.0
 40
209.0
 40
210.0
 40
210.0
 40
211.0
 40
211.0
 40
212.0
 40
212.0
 40
213.0
 40
213.0
 40
214.0
 40
214.0
 40
215.0
 40
215.0
 40
216.0
 40
216.0
 40
217.0
 40
217.0
 40
218.0
 40
218.0
 40
219.0
 40
219.0
 40
220.0
 40
220.0
 40
221.0
 40
221.0
 40
222.0
 40
222.0
 40
223.0
 40
223.0
 40
224.0
 40
224.0
 40
225.0
 40
225.0
 40
226.0
 40
226.0
 40
227.0
 40
227.0
 40
228.0
 40
228.0
 40
229.0
 40
229.0
 40
230.0
 40
230.0
 40
231.0
 40
231.0
 40
232.0
 40
232.0
 40
233.0
 40
233.0
 40
234.0
 40
234.0
 40
235.0
 40
235.0
 40
236.0
 40
236.0
 40
237.0
 40
237.0
 40
238.0
 40
238.0
 40
239.0
 40
239.0
 40
240.0
 40
240.0
 40
241.0
 40
241.0
 40
242.0
 40
242.0
 40
243.0
 40
243.0
 40
244.0
 40
244.0
 40
245.0
 40
245.0
 40
246.0
 40
246.0
 40
247.0
 40
247.0
 40
248.0
 40
248.0
 40
249.0
 40
249.0
 40
250.0
 40
250.0
 40
251.0
 40
251.0
 40
252.0
 40
252.0
 40
253.0
 40
253.0
 40
254.0
 40
254.0
 40
255.0
 40
255.0
 40
256.0
 40
256.0
 40
257.0
 40
257.0
 40
258.0
 40
258.0
 40
259.0
 40
259.0
 40
260.0
 40
260.0
 40
261.0
 40
261.0
 40
262.0
 40
262.0
 40
263.0
 40
263.0
 40
264.0
 40
264.0
 40
265.0
 40
265.0
 40
266.0
 40
266.0
 40
267.0
 40
267.0
 40
268.0
 40
268.0
 40
269.0
 40
269.0
 40
270.0
 40
270.0
 40
271.0
 40
271.0
 40
272.0
 40
272.0
 40
273.0
 40
273.0
 40
274.0
 40
274.0
 40
275.0
 40
275.0
 40
276.0
 40
276.0
 40
277.0
 40
277.0
 40
278.0
 40
278.0
 40
279.0
 40
279.0
 40
280.0
 40
280.0
 40
281.0
 40
281.0
 40
282.0
 40
282.0
 40
283.0
 40
283.0
 40
284.0
 40
284.0
 40
285.0
 40
285.0
 40
286.0
 40
286.0
 40
287.0
 40
287.0
 40
288.0
 40
288.0
 40
289.0
 40
289.0
 40
290.0
 40
290.0
 40
291.0
 40
291.0
 40
292.0
 40
292.0
 40
293.0
 40
293.0
 40
294.0
 40
294.0
 40
295.0
 40
295.0
 40
296.0
 40
296.0
 40
297.0
 40
297.0
 40
298.0
 40
298.0
 40
299.0
 40
299.0
 40
300.0
 40
300.0
 40
301.0
 40
301.0
 40
302.0
 40
302.0
 40
303.0
 40
303.0
 40
304.0
 40
304.0
 40
305.0
 40
305.0
 40
306.0
 40
306.0
 40
307.0
 40
307.0
 40
308.0
 40
308.0
 40
309.0
 40
309.0
 40
310.0
 40
310.0
 40
311.0
 40
311.0
 40
312.0
 40
312.0
 40
313.0
 40
313.0
 40
314.0
 40
314.0
 40
315.0
 40
315.0
 40
316.0
 40
316.0
 40
317.0
 40
317.0
 40
318.0
 40
318.0
 40
319.0
 40
319.0
 40
320.0
 40
320.0
 40
321.0
 40
321.0
 40
322.0
 40
322.0
 40
323.0
 40
323.0
 40
324.0
 40
324.0
 40
325.0
 40
325.0
 40
326.0
 40
326.0
 40
327.0
 40
327.0
 40
328.0
 40
328.0
 40
329.0
 40
329.0
 40
330.0
 40
330.0
 40
331.0
 40
331.0
 40
332.0
 40
332.0
 40
333.0
 40
333.0
 40
334.0
 40
334.0
 40
335.0
 40
335.0
 40
336.0
 40
336.0
 40
337.0
 40
337.0
 40
338.0
 40
338.0
 40
339.0
 40
339.0
 40
340.0
 40
340.0
 40
341.0
 40
341.0
 40
342.0
 40
342.0
 40
343.0
 40
343.0
 40
344.0
 40
344.0
 40
345.0
 40
345.0
 40
346.0
 40
346.0
 40
347.0
 40
347.0
 40
348.0
 40
348.0
 40
349.0
 40
349.0
 40
350.0
 40
350.0
 40
351.0
 40
351.0
 40
352.0
 40
352.0
 40
353.0
 40
353.0
 40
354.0
 40
354.0
 40
355.0
 40
355.0
 40
356.0
 40
356.0
 40
357.0
 40
357.0
 40
358.0
 40
358.0
 40
359.0
 40
359.0
 40
360.0
 40
360.0
 40
361.0
 40
361.0
 40
362.0
 40
362.0
 40
363.0
 40
363.0
 40
364.0
 40
364.0
 40
365.0
 40
365.0
 40
366.0
 40
366.0
 40
367.0
 40
367.0
 40
368.0
 40
368.0
 40
369.0
 40
369.0
 40
370.0
 40
370.0
 40
371.0
 40
371.0
 40
372.0
 40
372.0
 40
373.0
 40
373.0
 40
374.0
 40
374.0
 40
375.0
 40
375.0
 40
376.0
 40
376.0
 40
377.0
 40
377.0
 40
378.0
 40
378.0
 40
379.0
 40
379.0
 40
380.0
 40
380.0
 40
381.0
 40
381.0
 40
382.0
 40
382.0
 40
383.0
 40
383.0
 40
384.0
 40
384.0
 40
385.0
 40
385.0
 40
386.0
 40
386.0
 40
387.0
 40
387.0
 40
388.0
 40
388.0
 40
389.0
 40
389.0
 40
389.0
 10
553.06667859489471
 20
956.32730382428167
 30
0.0
 41
1.0
 10
553.88510270361519
 20
956.32730382428167
 30
0.0
 41
1.0
 10
554.70352681233567
 20
956.32730382428167
 30
0.0
 41
1.0
 10
554.28977307681885
 20
954.98467756003197
 30
0.0
 41
1.0
 10
553.87601934130214
 20
953.64205129578227
 30
0.0
 41
1.0
 10
553.89435883646786
 20
953.67075206869038
 30
0.0
 41
0.999995726439202
 10
553.91286583329736
 20
953.69934511883912
 30
0.0
 41
1.0
 10
553.9432951574363
 20
953.74635799721761
 30
0.0
 41
1.0
 10
553.97372448157535
 20
953.79337087559611
 30
0.0
 41
1.0
 10
554.0530901266817
 20
953.91598968249968
 30
0.0
 41
0.9995394069081526
 10
554.13974851823411
 20
954.03356774424208
 30
0.0
 41
1.0
 10
554.17550538049409
 20
954.08208263683593
 30
0.0
 41
1.0
 10
554.21126224275417
 20
954.13059752942979
 30
0.0
 41
1.0
 10
554.3449889105716
 20
954.31203780455553
 30
0.0
 41
0.9994460617143547
 10
554.49048939185911
 20
954.48418020220458
 30
0.0
 41
1.0
 10
554.49487757283396
 20
954.48937188258697
 30
0.0
 41
1.0
 10
554.49926575380869
 20
954.49456356296923
 30
0.0
 41
1.0
 10
554.63598987314685
 20
954.65632259985398
 30
0.0
 41
0.9994359394934493
 10
554.78326410349837
 20
954.80853880101881
 30
0.0
 41
1.0
 10
554.78564745745234
 20
954.81100213139268
 30
0.0
 41
1.0
 10
554.78803081140643
 20
954.81346546176655
 30
0.0
 41
1.0
 10
554.93053833385
 20
954.96075500218365
 30
0.0
 41
0.9995293688567692
 10
555.08181001483206
 20
955.09902821434764
 30
0.0
 41
1.0
 10
555.10110377409433
 20
955.11666409999793
 30
0.0
 41
1.0
 10
555.12039753335659
 20
955.13429998564811
 30
0.0
 41
1.0
 10
555.23308169581389
 20
955.23730142651152
 30
0.0
 41
0.9997087614804153
 10
555.35060458476914
 20
955.33474570730959
 30
0.0
 41
1.0
 10
555.36977065794485
 20
955.3506372858177
 30
0.0
 41
1.0
 10
555.38893673112057
 20
955.3665288643258
 30
0.0
 41
1.0
 10
555.46812747372439
 20
955.43218998810767
 30
0.0
 41
0.9999595338693952
 10
555.54848674457935
 20
955.49641571876248
 30
0.0
 41
1.0
 10
555.62884601543419
 20
955.56064144941706
 30
0.0
 41
0.9999749417511749
 10
555.71010654977886
 20
955.62372300336449
 30
0.0
 41
1.0
 10
555.73109269595147
 20
955.640014290674
 30
0.0
 41
1.0
 10
555.75207884212409
 20
955.65630557798352
 30
0.0
 41
1.0
 10
555.83664672741634
 20
955.72195458781698
 30
0.0
 41
0.9999792037118119
 10
555.92205432718038
 20
955.78650736945644
 30
0.0
 41
1.0
 10
555.9428791531011
 20
955.80224719172111
 30
0.0
 41
1.0
 10
555.96370397902172
 20
955.81798701398577
 30
0.0
 41
1.0
 10
556.00746192695806
 20
955.85106015110625
 30
0.0
 41
0.9999993374062696
 10
556.05114361309313
 20
955.88423394652409
 30
0.0
 41
1.0
 10
556.09482529923662
 20
955.91740774194841
 30
0.0
 41
0.9999160953814711
 10
556.1393517101568
 20
955.94943880714686
 30
0.0
 41
1.0
 10
556.17217359757592
 20
955.97304996273147
 30
0.0
 41
1.0
 10
556.20499548499492
 20
955.99666111831618
 30
0.0
 41
1.0
 10
556.31516567075357
 20
956.07591449468418
 30
0.0
 41
0.9980964527231783
 10
556.43425466425424
 20
956.14100196754021
 30
0.0
 41
1.0
 10
556.47128727118229
 20
956.16124194713325
 30
0.0
 41
1.0
 10
556.50831987811023
 20
956.18148192672629
 30
0.0
 41
1.0
 10
556.68764689138311
 20
956.27949217742753
 30
0.0
 41
0.9984572810572591
 10
556.87673545774214
 20
956.35701443877394
 30
0.0
 41
1.0
 10
556.88038172713846
 20
956.35850933111215
 30
0.0
 41
1.0
 10
556.88402799653466
 20
956.36000422345023
 30
0.0
 41
1.0
 10
557.06582402410152
 20
956.43453670012047
 30
0.0
 41
0.9987838528034376
 10
557.2540766826603
 20
956.49080234028611
 30
0.0
 41
1.0
 10
557.25831463185932
 20
956.49206899397643
 30
0.0
 41
1.0
 10
557.26255258105834
 20
956.49333564766675
 30
0.0
 41
1.0
 10
557.44232934121999
 20
956.54706798045197
 30
0.0
 41
0.9990652816207465
 10
557.6260752729354
 20
956.5850716599939
 30
0.0
 41
1.0
 10
557.63126367396649
 20
956.58614476310038
 30
0.0
 41
1.0
 10
557.63645207499758
 20
956.58721786620686
 30
0.0
 41
1.0
 10
557.80982120465092
 20
956.62307533953594
 30
0.0
 41
0.9992909934270854
 10
557.98539697110959
 20
956.64578577200245
 30
0.0
 41
1.0
 10
558.16097273756816
 20
956.66849620446897
 30
0.0
 41
0.9994553539448534
 10
558.33766417066192
 20
956.67957550867527
 30
0.0
 41
1.0
 10
558.37309857845673
 20
956.68179739672303
 30
0.0
 41
1.0
 10
558.40853298625154
 20
956.68401928477078
 30
0.0
 41
1.0
 10
558.57475875282148
 20
956.69444234718253
 30
0.0
 41
0.9990928098292995
 10
558.74126854472433
 20
956.69068270594801
 30
0.0
 41
1.0
 10
558.77983037999866
 20
956.68981201441488
 30
0.0
 41
1.0
 10
558.81839221527287
 20
956.68894132288187
 30
0.0
 41
1.0
 10
558.90777833662946
 20
956.68692306471337
 30
0.0
 41
0.9998382089204546
 10
558.99703401941326
 20
956.6816909381854
 30
0.0
 41
1.0
 10
558.99746392563134
 20
956.68166573728331
 30
0.0
 41
1.0
 10
558.99789383184941
 20
956.68164053638111
 30
0.0
 41
1.0
 10
559.08628970219763
 20
956.67645881165754
 30
0.0
 41
0.9997558016758193
 10
559.17437027940025
 20
956.66737629629085
 30
0.0
 41
1.0
 10
559.17484641783017
 20
956.66732719880827
 30
0.0
 41
1.0
 10
559.1753225562602
 20
956.66727810132568
 30
0.0
 41
1.0
 10
559.26245085660128
 20
956.65829378092428
 30
0.0
 41
0.9996565144181364
 10
559.34898870994311
 20
956.64475647423535
 30
0.0
 41
1.0
 10
559.34945463532028
 20
956.64468358850399
 30
0.0
 41
1.0
 10
559.34992056069746
 20
956.64461070277275
 30
0.0
 41
1.0
 10
559.43552656328484
 20
956.63121916754642
 30
0.0
 41
0.9995321806867017
 10
559.52015364361318
 20
956.61261867911708
 30
0.0
 41
1.0
 10
559.52054283818552
 20
956.61253313665111
 30
0.0
 41
1.0
 10
559.52093203275774
 20
956.61244759418514
 30
0.0
 41
1.0
 10
559.60478072394164
 20
956.59401819068762
 30
0.0
 41
0.9993819199219477
 10
559.68712725813737
 20
956.56974280742713
 30
0.0
 41
1.0
 10
559.68736569163514
 20
956.56967251831793
 30
0.0
 41
1.0
 10
559.68760412513291
 20
956.56960222920861
 30
0.0
 41
1.0
 10
559.7694737923332
 20
956.54546742416665
 30
0.0
 41
0.9992088568505371
 10
559.84916631132182
 20
956.51490218837205
 30
0.0
 41
1.0
 10
559.92884730220089
 20
956.48434258763893
 30
0.0
 41
0.9990226101773203
 10
560.00551797210801
 20
956.44686515602427
 30
0.0
 41
1.0
 10
560.08217711390603
 20
956.40939335947087
 30
0.0
 41
0.998842427397229
 10
560.15488074111806
 20
956.36472858421814
 30
0.0
 41
1.0
 10
560.15514844949757
 20
956.36456412014581
 30
0.0
 41
1.0
 10
560.15541615787708
 20
956.36439965607349
 30
0.0
 41
1.0
 10
560.22865520184678
 20
956.31940595267713
 30
0.0
 41
0.9986928844490558
 10
560.29691806855533
 20
956.26717021839841
 30
0.0
 41
1.0
 10
560.29749936077928
 20
956.26672540516961
 30
0.0
 41
1.0
 10
560.29808065300335
 20
956.2662805919407
 30
0.0
 41
1.0
 10
560.36750610415856
 20
956.21315523120529
 30
0.0
 41
0.9986007262278409
 10
560.43093227392524
 20
956.15299446151187
 30
0.0
 41
1.0
 10
560.43182668938243
 20
956.15214609367672
 30
0.0
 41
1.0
 10
560.43272110483974
 20
956.15129772584157
 30
0.0
 41
1.0
 10
560.49793610552069
 20
956.0894402204782
 30
0.0
 41
0.99855814913812
 10
560.5561437172222
 20
956.02094773020667
 30
0.0
 41
1.0
 10
560.56540217081829
 20
956.01005337250467
 30
0.0
 41
1.0
 10
560.57466062441426
 20
955.99915901480279
 30
0.0
 41
1.0
 10
560.65138514330715
 20
955.90887780912828
 30
0.0
 41
0.9970460233520131
 10
560.71337704446614
 20
955.80791072494719
 30
0.0
 41
1.0
 10
560.72784640954683
 20
955.78434426586409
 30
0.0
 41
1.0
 10
560.74231577462763
 20
955.76077780678088
 30
0.0
 41
1.0
 10
560.78205247463893
 20
955.69605808275048
 30
0.0
 41
0.9988468816636925
 10
560.81539884538972
 20
955.6278256303242
 30
0.0
 41
1.0
 10
560.82243486788127
 20
955.61342870918656
 30
0.0
 41
1.0
 10
560.82947089037282
 20
955.59903178804905
 30
0.0
 41
1.0
 10
560.84874521614108
 20
955.55959317789689
 30
0.0
 41
0.9998431189998495
 10
560.86661054363617
 20
955.51949662345578
 30
0.0
 41
1.0
 10
560.88447587111091
 20
955.47940006906038
 30
0.0
 41
0.9999989989701987
 10
560.90245459451785
 20
955.43935423150981
 30
0.0
 41
1.0
 10
560.90862690612971
 20
955.42560601465789
 30
0.0
 41
1.0
 10
560.91479921774169
 20
955.41185779780596
 30
0.0
 41
1.0
 10
560.94512256435121
 20
955.34431552659919
 30
0.0
 41
0.9998790356319798
 10
560.97333044448851
 20
955.27586277466355
 30
0.0
 41
1.0
 10
560.98016562577413
 20
955.25927567323311
 30
0.0
 41
1.0
 10
560.98700080705964
 20
955.24268857180266
 30
0.0
 41
1.0
 10
561.01055846943939
 20
955.18552061691844
 30
0.0
 41
0.9998227574560569
 10
561.03194721782836
 20
955.12750630864196
 30
0.0
 41
1.0
 10
561.05333596621801
 20
955.06949200036365
 30
0.0
 41
0.9996797971041271
 10
561.07176225117746
 20
955.01046988124483
 30
0.0
 41
1.0
 10
561.07566605390275
 20
954.99796542307672
 30
0.0
 41
1.0
 10
561.07956985662804
 20
954.9854609649085
 30
0.0
 41
1.0
 10
561.10580374703818
 20
954.90142992945277
 30
0.0
 41
0.9979274938734543
 10
561.1210282705174
 20
954.81472557079258
 30
0.0
 41
1.0
 10
561.12325195777873
 20
954.80206156997053
 30
0.0
 41
1.0
 10
561.12547564504007
 20
954.78939756914849
 30
0.0
 41
1.0
 10
561.13640558473821
 20
954.72715106185899
 30
0.0
 41
0.9994985982137687
 10
561.1433737499151
 20
954.66433756071763
 30
0.0
 41
1.0
 10
561.1503419150921
 20
954.60152405957342
 30
0.0
 41
0.9996372611202126
 10
561.15391778086007
 20
954.53842648088823
 30
0.0
 41
1.0
 10
561.15408635834922
 20
954.5354518638087
 30
0.0
 41
1.0
 10
561.15425493583837
 20
954.53247724672906
 30
0.0
 41
1.0
 10
561.15816795658475
 20
954.4634304338814
 30
0.0
 41
0.9997730630736279
 10
561.15913627007296
 20
954.39427960984631
 30
0.0
 41
1.0
 10
561.15919337649098
 20
954.3902014307057
 30
0.0
 41
1.0
 10
561.1592504829091
 20
954.3861232515651
 30
0.0
 41
1.0
 10
561.16033300923334
 20
954.30881606924606
 30
0.0
 41
0.9998772614069821
 10
561.15899292250162
 20
954.23151292268051
 30
0.0
 41
1.0
 10
561.15890365930295
 20
954.22636375884667
 30
0.0
 41
1.0
 10
561.15881439610416
 20
954.22121459501295
 30
0.0
 41
1.0
 10
561.15729578297487
 20
954.13361312077905
 30
0.0
 41
0.999941556732409
 10
561.15388347272904
 20
954.04606495910457
 30
0.0
 41
1.0
 10
561.15364215205364
 20
954.03987349936676
 30
0.0
 41
1.0
 10
561.15340083137835
 20
954.03368203962896
 30
0.0
 41
1.0
 10
561.1495058797816
 20
953.93375095847841
 30
0.0
 41
0.9999716810425541
 10
561.14410729666315
 20
953.83388982025053
 30
0.0
 41
1.0
 10
561.14089449787468
 20
953.77446057059865
 30
0.0
 41
1.0
 10
561.13768169908622
 20
953.71503132094676
 30
0.0
 41
1.0
 10
561.12960778993329
 20
953.56568291966073
 30
0.0
 41
0.9999819129906211
 10
561.1197379983164
 20
953.41644244194345
 30
0.0
 41
1.0
 10
561.10986820669973
 20
953.26720196423207
 30
0.0
 41
1.0
 10
561.10742888613584
 20
953.23000891838274
 30
0.0
 41
1.0
 10
561.13012711996703
 20
953.26874991571276
 30
0.0
 41
0.999998212812409
 10
561.15297167873132
 20
953.30740480968564
 30
0.0
 41
1.0
 10
561.17988123861164
 20
953.35293802373326
 30
0.0
 41
1.0
 10
561.20679079849197
 20
953.39847123778077
 30
0.0
 41
1.0
 10
561.28345447701827
 20
953.52819255985116
 30
0.0
 41
0.9998609190056603
 10
561.36440178988153
 20
953.65528494178295
 30
0.0
 41
1.0
 10
561.39405011136205
 20
953.70183467473839
 30
0.0
 41
1.0
 10
561.42369843284268
 20
953.74838440769383
 30
0.0
 41
1.0
 10
561.50597065308045
 20
953.87755697768978
 30
0.0
 41
0.9999067609732995
 10
561.59173966254411
 20
954.00443466713057
 30
0.0
 41
1.0
 10
561.59414436574593
 20
954.00799193318676
 30
0.0
 41
1.0
 10
561.59654906894787
 20
954.01154919924306
 30
0.0
 41
1.0
 10
561.67750867200868
 20
954.13131235657249
 30
0.0
 41
0.9998784952148385
 10
561.7621622816896
 20
954.2484935732806
 30
0.0
 41
1.0
 10
561.84681589137074
 20
954.36567478998904
 30
0.0
 41
0.999853296828462
 10
561.93543351219296
 20
954.47988769845881
 30
0.0
 41
1.0
 10
561.95539530118458
 20
954.50561501947959
 30
0.0
 41
1.0
 10
561.97535709017609
 20
954.53134234050026
 30
0.0
 41
1.0
 10
562.09384113993474
 20
954.68404795146864
 30
0.0
 41
0.9991551975795228
 10
562.22446558955812
 20
954.82650751355209
 30
0.0
 41
1.0
 10
562.22797520553718
 20
954.83033511517556
 30
0.0
 41
1.0
 10
562.23148482151623
 20
954.83416271679914
 30
0.0
 41
1.0
 10
562.3550900391806
 20
954.96896707563451
 30
0.0
 41
0.9997418144180609
 10
562.48469217888237
 20
955.09801648624807
 30
0.0
 41
1.0
 10
562.61429431858289
 20
955.22706589686049
 30
0.0
 41
0.9989238204633246
 10
562.75529686683387
 20
955.34355085889945
 30
0.0
 41
1.0
 10
562.80054454497349
 20
955.38093085050832
 30
0.0
 41
1.0
 10
562.84579222311322
 20
955.41831084211708
 30
0.0
 41
1.0
 10
562.98603228033448
 20
955.53416589540791
 30
0.0
 41
0.9990825084096535
 10
563.1356722129384
 20
955.63759489324082
 30
0.0
 41
1.0
 10
563.14571757699571
 20
955.64453810632062
 30
0.0
 41
1.0
 10
563.15576294105301
 20
955.65148131940032
 30
0.0
 41
1.0
 10
563.28531214554266
 20
955.74102389107395
 30
0.0
 41
0.9998164899824097
 10
563.41819634891863
 20
955.82553813259017
 30
0.0
 41
1.0
 10
563.43004190944407
 20
955.83307189911557
 30
0.0
 41
1.0
 10
563.4418874699694
 20
955.84060566564085
 30
0.0
 41
1.0
 10
563.55108055229471
 20
955.91005237410639
 30
0.0
 41
0.9997473449131594
 10
563.66328450954438
 20
955.97452133192223
 30
0.0
 41
1.0
 10
563.7754884667944
 20
956.03899028973831
 30
0.0
 41
0.9999327861143458
 10
563.88915707755973
 20
956.10084028142069
 30
0.0
 41
1.0
 10
563.88970908011925
 20
956.10114064009917
 30
0.0
 41
1.0
 10
563.89026108267865
 20
956.10144099877766
 30
0.0
 41
1.0
 10
564.00503369856358
 20
956.16389170781747
 30
0.0
 41
0.9996956420483726
 10
564.12274702440391
 20
956.22060517479224
 30
0.0
 41
1.0
 10
564.15318742929753
 20
956.23527115152262
 30
0.0
 41
1.0
 10
564.18362783419104
 20
956.24993712825301
 30
0.0
 41
1.0
 10
564.28660494093413
 20
956.29955078669605
 30
0.0
 41
0.9998070570176385
 10
564.39145132987392
 20
956.3450813735966
 30
0.0
 41
1.0
 10
564.49629771881223
 20
956.39061196049659
 30
0.0
 41
0.9997827436146919
 10
564.60295065541914
 20
956.43173313180728
 30
0.0
 41
1.0
 10
564.6221735050533
 20
956.43914470544075
 30
0.0
 41
1.0
 10
564.64139635468746
 20
956.44655627907423
 30
0.0
 41
1.0
 10
564.78649499056041
 20
956.50250059765096
 30
0.0
 41
0.9988031841976652
 10
564.93636535316512
 20
956.5440006618187
 30
0.0
 41
1.0
 10
564.96128260152841
 20
956.55090040762559
 30
0.0
 41
1.0
 10
564.9861998498917
 20
956.55780015343248
 30
0.0
 41
1.0
 10
565.1534698755388
 20
956.60411829583927
 30
0.0
 41
0.9984748040550036
 10
565.32482678418751
 20
956.63171252810412
 30
0.0
 41
1.0
 10
565.32956592043661
 20
956.63247568861766
 30
0.0
 41
1.0
 10
565.33430505668559
 20
956.63323884913109
 30
0.0
 41
1.0
 10
565.49618369283667
 20
956.65930676036896
 30
0.0
 41
0.9984436495480029
 10
565.65995843656128
 20
956.66718471418767
 30
0.0
 41
1.0
 10
565.68165564469268
 20
956.6682284013873
 30
0.0
 41
1.0
 10
565.70335285282397
 20
956.66927208858704
 30
0.0
 41
1.0
 10
565.8237331802859
 20
956.67506266800638
 30
0.0
 41
0.9987954789335551
 10
565.94410142519575
 20
956.66902614026412
 30
0.0
 41
1.0
 10
565.96406621769006
 20
956.66802489592556
 30
0.0
 41
1.0
 10
565.98403101018448
 20
956.66702365158699
 30
0.0
 41
1.0
 10
566.0644696701055
 20
956.66298961252187
 30
0.0
 41
0.9997941595878046
 10
566.14467844820001
 20
956.65569554660078
 30
0.0
 41
1.0
 10
566.22488722629441
 20
956.64840148067969
 30
0.0
 41
0.9998589466236423
 10
566.30480577314916
 20
956.63841762622963
 30
0.0
 41
1.0
 10
566.33721197495754
 20
956.63436926931035
 30
0.0
 41
1.0
 10
566.36961817676593
 20
956.6303209123912
 30
0.0
 41
1.0
 10
566.51434912723596
 20
956.61224034410293
 30
0.0
 41
0.9993495063249579
 10
566.65740037100022
 20
956.58377463436159
 30
0.0
 41
1.0
 10
566.69033406815379
 20
956.57722117114645
 30
0.0
 41
1.0
 10
566.72326776530724
 20
956.57066770793131
 30
0.0
 41
1.0
 10
566.83256158851191
 20
956.54891937379602
 30
0.0
 41
0.999678871556087
 10
566.94061316046805
 20
956.52166157443298
 30
0.0
 41
1.0
 10
566.94267616300704
 20
956.52114114786013
 30
0.0
 41
1.0
 10
566.94473916554591
 20
956.52062072128717
 30
0.0
 41
1.0
 10
567.04866473242453
 20
956.49440377506994
 30
0.0
 41
0.9995480654492115
 10
567.15082696765387
 20
956.46198881844555
 30
0.0
 41
1.0
 10
567.15251660978402
 20
956.46145271353134
 30
0.0
 41
1.0
 10
567.15420625191405
 20
956.46091660861703
 30
0.0
 41
1.0
 10
567.25298920288424
 20
956.42957386182081
 30
0.0
 41
0.9993867959456334
 10
567.34933636132587
 20
956.39139449253139
 30
0.0
 41
1.0
 10
567.35057931041183
 20
956.39090195063466
 30
0.0
 41
1.0
 10
567.35182225949779
 20
956.39040940873792
 30
0.0
 41
1.0
 10
567.4456835197692
 20
956.35321512324117
 30
0.0
 41
0.9992050256521956
 10
567.53628319480174
 20
956.30866122400289
 30
0.0
 41
1.0
 10
567.53701787751311
 20
956.30829993154259
 30
0.0
 41
1.0
 10
567.53775256022448
 20
956.30793863908229
 30
0.0
 41
1.0
 10
567.62688286983371
 20
956.26410732476495
 30
0.0
 41
0.9990222350741307
 10
567.71179293122873
 20
956.21257405706581
 30
0.0
 41
1.0
 10
567.7119768165112
 20
956.21246245416114
 30
0.0
 41
1.0
 10
567.71216070179378
 20
956.21235085125636
 30
0.0
 41
1.0
 10
567.79670299262239
 20
956.16104078936758
 30
0.0
 41
0.998864274380499
 10
567.8759775272415
 20
956.10191660184228
 30
0.0
 41
1.0
 10
567.95525206186005
 20
956.04279241431732
 30
0.0
 41
0.9987681233310585
 10
568.02827584613613
 20
955.97610172291661
 30
0.0
 41
1.0
 10
568.02860477410218
 20
955.97580132170219
 30
0.0
 41
1.0
 10
568.02893370206812
 20
955.97550092048789
 30
0.0
 41
1.0
 10
568.10261534227664
 20
955.90820942665789
 30
0.0
 41
0.9987496570899024
 10
568.16920914760476
 20
955.83389661257036
 30
0.0
 41
1.0
 10
568.16998131736443
 20
955.83303493921335
 30
0.0
 41
1.0
 10
568.1707534871241
 20
955.83217326585623
 30
0.0
 41
1.0
 10
568.23889163197157
 20
955.75613710505445
 30
0.0
 41
0.9988147669826958
 10
568.29931388619605
 20
955.67383609821275
 30
0.0
 41
1.0
 10
568.30043321227436
 20
955.67231146685958
 30
0.0
 41
1.0
 10
568.30155253835255
 20
955.67078683550631
 30
0.0
 41
1.0
 10
568.36421344473297
 20
955.58543656595884
 30
0.0
 41
0.9989452636216061
 10
568.41878035769435
 20
955.49469787680096
 30
0.0
 41
1.0
 10
568.42012908378001
 20
955.49245509577486
 30
0.0
 41
1.0
 10
568.42147780986568
 20
955.49021231474865
 30
0.0
 41
1.0
 10
568.47874217499873
 20
955.39498806353788
 30
0.0
 41
0.9991046436070834
 10
568.52775138832055
 20
955.29526363051207
 30
0.0
 41
1.0
 10
568.52921524991029
 20
955.29228495044003
 30
0.0
 41
1.0
 10
568.53067911150004
 20
955.289306270368
 30
0.0
 41
1.0
 10
568.58261604800123
 20
955.18362447719869
 30
0.0
 41
0.9992763831100705
 10
568.62636917655584
 20
955.0743004152439
 30
0.0
 41
1.0
 10
568.62784844621956
 20
955.07060422770917
 30
0.0
 41
1.0
 10
568.62932771588339
 20
955.06690804017444
 30
0.0
 41
1.0
 10
568.67603938376533
 20
954.9501916031511
 30
0.0
 41
0.9994163472883124
 10
568.71467241495509
 20
954.83055801468686
 30
0.0
 41
1.0
 10
568.71591056720149
 20
954.8267238709052
 30
0.0
 41
1.0
 10
568.71714871944789
 20
954.82288972712354
 30
0.0
 41
1.0
 10
568.75703228046552
 20
954.69938366564429
 30
0.0
 41
0.9997268055891582
 10
568.79110033637778
 20
954.57414863369263
 30
0.0
 41
1.0
 10
568.79203051664808
 20
954.57072926758099
 30
0.0
 41
1.0
 10
568.7929606969185
 20
954.56730990146934
 30
0.0
 41
1.0
 10
568.82516839229038
 20
954.44891360173949
 30
0.0
 41
0.9996701319000427
 10
568.85125400906031
 20
954.32901964847849
 30
0.0
 41
1.0
 10
568.8773396258307
 20
954.20912569521533
 30
0.0
 41
0.9995785451109295
 10
568.89642320317057
 20
954.08791993418367
 30
0.0
 41
1.0
 10
568.90064298534423
 20
954.06111877941873
 30
0.0
 41
1.0
 10
568.9048627675179
 20
954.0343176246538
 30
0.0
 41
1.0
 10
568.93143774345651
 20
953.86553165095029
 30
0.0
 41
0.9979925101216836
 10
568.93646332938283
 20
953.69474032285871
 30
0.0
 41
1.0
 10
568.93728814180747
 20
953.6667095993771
 30
0.0
 41
1.0
 10
568.93811295423211
 20
953.63867887589549
 30
0.0
 41
1.0
 10
568.94148891530915
 20
953.52394899476701
 30
0.0
 41
0.9995314902263216
 10
568.93783872317067
 20
953.40922751101505
 30
0.0
 41
1.0
 10
568.93418853103196
 20
953.29450602726047
 30
0.0
 41
0.9996245486944441
 10
568.92425943590069
 20
953.18015675613299
 30
0.0
 41
1.0
 10
568.92409638790673
 20
953.17827900000088
 30
0.0
 41
1.0
 10
568.92393333991276
 20
953.17640124386867
 30
0.0
 41
1.0
 10
568.91367814879334
 20
953.05829646047334
 30
0.0
 41
0.9997286095000988
 10
568.89793282522191
 20
952.94079755157873
 30
0.0
 41
1.0
 10
568.89753933257157
 20
952.93786112687724
 30
0.0
 41
1.0
 10
568.89714583992134
 20
952.93492470217575
 30
0.0
 41
1.0
 10
568.88061353104911
 20
952.81155294387656
 30
0.0
 41
0.9998265533969788
 10
568.85949807231634
 20
952.68888246908728
 30
0.0
 41
1.0
 10
568.85882153017928
 20
952.68495209058051
 30
0.0
 41
1.0
 10
568.85814498804234
 20
952.68102171207386
 30
0.0
 41
1.0
 10
568.83567644503603
 20
952.55049048027354
 30
0.0
 41
0.999902253085255
 10
568.80956698042701
 20
952.42063851164016
 30
0.0
 41
1.0
 10
568.80858833926084
 20
952.41577136924877
 30
0.0
 41
1.0
 10
568.80760969809467
 20
952.41090422685738
 30
0.0
 41
1.0
 10
568.77954295115455
 20
952.27131797344725
 30
0.0
 41
0.9999524761941018
 10
568.74875998232073
 20
952.13230548028673
 30
0.0
 41
1.0
 10
568.74748387514455
 20
952.12654272098075
 30
0.0
 41
1.0
 10
568.74620776796826
 20
952.12077996167488
 30
0.0
 41
1.0
 10
568.71287258478287
 20
951.97024194990718
 30
0.0
 41
0.999981358873099
 10
568.67770158398707
 20
951.82012223725098
 30
0.0
 41
1.0
 10
568.67614765853045
 20
951.81348964682797
 30
0.0
 41
1.0
 10
568.67459373307372
 20
951.80685705640508
 30
0.0
 41
1.0
 10
568.63631488136571
 20
951.64347216290776
 30
0.0
 41
0.9999955237686496
 10
568.59705900338588
 20
951.48031925930445
 30
0.0
 41
1.0
 10
568.58477736775069
 20
951.42927506877811
 30
0.0
 41
1.0
 10
568.5724957321155
 20
951.37823087825177
 30
0.0
 41
1.0
 10
568.50867658286938
 20
951.11298959361238
 30
0.0
 41
0.9999993604476515
 10
568.44425763569859
 20
950.84789334291645
 30
0.0
 41
1.0
 10
568.43953880015147
 20
950.82847443487549
 30
0.0
 41
1.0
 10
568.43481996460423
 20
950.80905552683441
 30
0.0
 41
1.0
 10
568.36096334634249
 20
950.50512146007009
 30
0.0
 41
0.9999659914721306
 10
568.28210375045614
 20
950.20244691350717
 30
0.0
 41
1.0
 10
568.27715106152664
 20
950.18343777632924
 30
0.0
 41
1.0
 10
568.27219837259713
 20
950.16442863915131
 30
0.0
 41
1.0
 10
568.18343339885189
 20
949.82373581823208
 30
0.0
 41
0.9999441976024823
 10
568.08749036588745
 20
949.48499439293028
 30
0.0
 41
1.0
 10
568.07078984746227
 20
949.42603068040398
 30
0.0
 41
1.0
 10
568.0540893290372
 20
949.3670669678778
 30
0.0
 41
1.0
 10
567.92474525922364
 20
948.91039811752694
 30
0.0
 41
0.9999625120734289
 10
567.78751249190134
 20
948.45603758353457
 30
0.0
 41
1.0
 10
567.75172254881727
 20
948.33754155690394
 30
0.0
 41
1.0
 10
567.7159326057332
 20
948.21904553027321
 30
0.0
 41
1.0
 10
567.64141240169283
 20
947.97231845217311
 30
0.0
 41
0.9999793386321332
 10
567.56372637855475
 20
947.72656981293517
 30
0.0
 41
1.0
 10
567.48604035541712
 20
947.48082117369904
 30
0.0
 41
1.0
 10
567.47526079654642
 20
947.44680326932439
 30
0.0
 41
1.0
 10
565.62488774327721
 20
941.55973134685689
 30
0.0
 41
1.0
 10
563.77451469000812
 20
935.67265942438939
 30
0.0
 41
1.0
 10
562.81325799998456
 20
935.67265942438939
 30
0.0
 41
1.0
 10
561.852001309961
 20
935.67265942438939
 30
0.0
 41
1.0
 10
563.47094608863949
 20
940.82068792617883
 30
0.0
 41
1.0
 10
565.08989086731788
 20
945.96871642796827
 30
0.0
 41
1.0
 10
565.1350566904913
 20
946.11274765023541
 30
0.0
 41
1.0
 10
565.18022251366472
 20
946.25677887250242
 30
0.0
 41
1.0
 10
565.35052693102853
 20
946.79986990166833
 30
0.0
 41
0.9999911657921929
 10
565.51625974270951
 20
947.34437343303421
 30
0.0
 41
1.0
 10
565.54595568620971
 20
947.4419373730841
 30
0.0
 41
1.0
 10
565.57565162971002
 20
947.53950131313388
 30
0.0
 41
1.0
 10
565.68199255438913
 20
947.88887696439633
 30
0.0
 41
0.9999952428154437
 10
565.78617614371456
 20
948.23890198874744
 30
0.0
 41
1.0
 10
565.79123561404754
 20
948.25590026302416
 30
0.0
 41
1.0
 10
565.7962950843804
 20
948.27289853730088
 30
0.0
 41
1.0
 10
565.89035973304158
 20
948.58892701310367
 30
0.0
 41
0.9999931687535253
 10
565.98208557091323
 20
948.90564222636749
 30
0.0
 41
1.0
 10
565.98702083537137
 20
948.9226829356337
 30
0.0
 41
1.0
 10
565.99195609982951
 20
948.93972364489991
 30
0.0
 41
1.0
 10
566.07381140878579
 20
949.22235743963415
 30
0.0
 41
0.9999893840781944
 10
566.15305863524372
 20
949.50573356888458
 30
0.0
 41
1.0
 10
566.2323058617003
 20
949.78910969813001
 30
0.0
 41
0.9999833980078856
 10
566.30828210243931
 20
950.07338028114873
 30
0.0
 41
1.0
 10
566.31728603916326
 20
950.10706915963306
 30
0.0
 41
1.0
 10
566.32628997588711
 20
950.1407580381175
 30
0.0
 41
1.0
 10
566.39525452475368
 20
950.39879387041458
 30
0.0
 41
0.9999233658067714
 10
566.45780949597406
 20
950.65845802913759
 30
0.0
 41
1.0
 10
566.52036446719433
 20
950.91812218786004
 30
0.0
 41
1.0
 10
566.5598478860519
 20
951.08192885228618
 30
0.0
 41
1.0
 10
566.56482649002692
 20
951.10258381414724
 30
0.0
 41
1.0
 10
566.56980509400194
 20
951.12323877600829
 30
0.0
 41
1.0
 10
566.59933130490788
 20
951.24573551670574
 30
0.0
 41
0.9999868670851215
 10
566.62760038890565
 20
951.36852846235774
 30
0.0
 41
1.0
 10
566.63149787606517
 20
951.38545804978253
 30
0.0
 41
1.0
 10
566.63539536322469
 20
951.40238763720731
 30
0.0
 41
1.0
 10
566.65586947290296
 20
951.49132140800828
 30
0.0
 41
0.9999778173347373
 10
566.67515707101734
 20
951.58052002523368
 30
0.0
 41
1.0
 10
566.69444466913296
 20
951.66971864246511
 30
0.0
 41
0.9999602692865933
 10
566.71213902776492
 20
951.75924693089769
 30
0.0
 41
1.0
 10
566.71534285984183
 20
951.77545738577976
 30
0.0
 41
1.0
 10
566.71854669191873
 20
951.79166784066183
 30
0.0
 41
1.0
 10
566.74264871470518
 20
951.9136170388615
 30
0.0
 41
0.9995617985320566
 10
566.75949206192399
 20
952.03677878656913
 30
0.0
 41
1.0
 10
566.76195655183005
 20
952.05479960393336
 30
0.0
 41
1.0
 10
566.76442104173611
 20
952.07282042129771
 30
0.0
 41
1.0
 10
566.78470430278423
 20
952.22113547099798
 30
0.0
 41
0.9991121410639841
 10
566.79242965637252
 20
952.37063156980423
 30
0.0
 41
1.0
 10
566.79334844639709
 20
952.38841140638124
 30
0.0
 41
1.0
 10
566.79426723642166
 20
952.40619124295813
 30
0.0
 41
1.0
 10
566.8001550099608
 20
952.52012766861128
 30
0.0
 41
0.9989792494905105
 10
566.79573591784344
 20
952.63413050450879
 30
0.0
 41
1.0
 10
566.79508794597473
 20
952.65084675043818
 30
0.0
 41
1.0
 10
566.79443997410601
 20
952.66756299636756
 30
0.0
 41
1.0
 10
566.79131682572597
 20
952.74813334040925
 30
0.0
 41
0.9997820295394212
 10
566.78483282835043
 20
952.82850306215119
 30
0.0
 41
1.0
 10
566.77834883097478
 20
952.90887278389539
 30
0.0
 41
0.9998335105972617
 10
566.76893663546298
 20
952.98895240034562
 30
0.0
 41
1.0
 10
566.7673417107867
 20
953.00252213082854
 30
0.0
 41
1.0
 10
566.76574678611041
 20
953.01609186131134
 30
0.0
 41
1.0
 10
566.75314474124571
 20
953.12331093872899
 30
0.0
 41
0.999687645787869
 10
566.73520082844709
 20
953.2297663664466
 30
0.0
 41
1.0
 10
566.73296916530251
 20
953.24300610168416
 30
0.0
 41
1.0
 10
566.73073750215792
 20
953.25624583692183
 30
0.0
 41
1.0
 10
566.71694168073645
 20
953.33809198088284
 30
0.0
 41
0.9995547496494753
 10
566.69828835884334
 20
953.41896947807663
 30
0.0
 41
1.0
 10
566.69791440197173
 20
953.42059088878364
 30
0.0
 41
1.0
 10
566.6975404451
 20
953.42221229949075
 30
0.0
 41
1.0
 10
566.67963503695034
 20
953.49984697526929
 30
0.0
 41
0.9994899427175127
 10
566.65681012827145
 20
953.57618025810223
 30
0.0
 41
1.0
 10
566.6563516015309
 20
953.5777137078901
 30
0.0
 41
1.0
 10
566.65589307479036
 20
953.57924715767797
 30
0.0
 41
1.0
 10
566.63398521959232
 20
953.65251354093562
 30
0.0
 41
0.9993784877591484
 10
566.60696958448546
 20
953.72405424609565
 30
0.0
 41
1.0
 10
566.60643789350888
 20
953.72546222881533
 30
0.0
 41
1.0
 10
566.60590620253231
 20
953.72687021153502
 30
0.0
 41
1.0
 10
566.57995394937905
 20
953.79559495125432
 30
0.0
 41
0.9992430832254492
 10
566.54873741421943
 20
953.86209410332299
 30
0.0
 41
1.0
 10
566.54815529816278
 20
953.86333415844047
 30
0.0
 41
1.0
 10
566.54757318210602
 20
953.86457421355806
 30
0.0
 41
1.0
 10
566.51752087906004
 20
953.92859325539132
 30
0.0
 41
0.9990789632798198
 10
566.48209025228346
 20
953.98979986714085
 30
0.0
 41
1.0
 10
566.48149454610234
 20
953.99082895299853
 30
0.0
 41
1.0
 10
566.48089883992122
 20
953.99185803885632
 30
0.0
 41
1.0
 10
566.44665962550744
 20
954.05100647888924
 30
0.0
 41
0.9988874801121258
 10
566.40700034947463
 20
954.10666619130836
 30
0.0
 41
1.0
 10
566.40644482341054
 20
954.10744584298277
 30
0.0
 41
1.0
 10
566.40588929734656
 20
954.10822549465718
 30
0.0
 41
1.0
 10
566.36734107344273
 20
954.16232590372601
 30
0.0
 41
0.9986762060692893
 10
566.32343860216656
 20
954.21217961816535
 30
0.0
 41
1.0
 10
566.3229946418337
 20
954.21268375998261
 30
0.0
 41
1.0
 10
566.32255068150096
 20
954.21318790179998
 30
0.0
 41
1.0
 10
566.27953613088971
 20
954.26203333260526
 30
0.0
 41
0.9984621642487949
 10
566.23137857411257
 20
954.30581663307566
 30
0.0
 41
1.0
 10
566.231131939595
 20
954.30604086524011
 30
0.0
 41
1.0
 10
566.23088530507744
 20
954.30626509740455
 30
0.0
 41
1.0
 10
566.18322101733384
 20
954.34959993354755
 30
0.0
 41
0.9982724693851283
 10
566.13080238549333
 20
954.38704428406447
 30
0.0
 41
1.0
 10
566.07838375365191
 20
954.42448863458208
 30
0.0
 41
0.9981399180159225
 10
566.02179769025872
 20
954.45527515402546
 30
0.0
 41
1.0
 10
566.02175202818012
 20
954.45529999718269
 30
0.0
 41
1.0
 10
566.02170636610163
 20
954.45532484033993
 30
0.0
 41
1.0
 10
565.96502897855271
 20
954.48616104609698
 30
0.0
 41
0.9980927086838276
 10
565.90498362748792
 20
954.50977785494911
 30
0.0
 41
1.0
 10
565.90454345777471
 20
954.50995098082467
 30
0.0
 41
1.0
 10
565.90410328806161
 20
954.51012410670023
 30
0.0
 41
1.0
 10
565.84317759757187
 20
954.53408716730269
 30
0.0
 41
0.9981411356562057
 10
565.77978907617216
 20
954.55045980880834
 30
0.0
 41
1.0
 10
565.77890695947087
 20
954.55068765101373
 30
0.0
 41
1.0
 10
565.77802484276958
 20
954.55091549321924
 30
0.0
 41
1.0
 10
565.71287208796696
 20
954.5677438191359
 30
0.0
 41
0.9983031812934804
 10
565.64620465897167
 20
954.57688318031205
 30
0.0
 41
1.0
 10
565.63733363356766
 20
954.57809929898337
 30
0.0
 41
1.0
 10
565.62846260816366
 20
954.5793154176547
 30
0.0
 41
1.0
 10
565.57411296566022
 20
954.58676614764579
 30
0.0
 41
0.9983887708262874
 10
565.5192691163677
 20
954.588010821279
 30
0.0
 41
1.0
 10
565.51120571115121
 20
954.58819381915384
 30
0.0
 41
1.0
 10
565.50314230593472
 20
954.58837681702869
 30
0.0
 41
1.0
 10
565.46442526707585
 20
954.58925549491232
 30
0.0
 41
0.9998869563079741
 10
565.4256993138722
 20
954.58896962555264
 30
0.0
 41
1.0
 10
565.38697336067503
 20
954.58868375619295
 30
0.0
 41
0.999997232006151
 10
565.34824918146933
 20
954.58821565666403
 30
0.0
 41
1.0
 10
565.3288961648841
 20
954.58798171657463
 30
0.0
 41
1.0
 10
565.30954314829876
 20
954.58774777648512
 30
0.0
 41
1.0
 10
565.2321129359259
 20
954.58681179677728
 30
0.0
 41
0.9997304945088276
 10
565.15480962968616
 20
954.58228270299105
 30
0.0
 41
1.0
 10
565.14575998798409
 20
954.58175249700116
 30
0.0
 41
1.0
 10
565.13671034628192
 20
954.58122229101139
 30
0.0
 41
1.0
 10
565.04130775663748
 20
954.5756327852456
 30
0.0
 41
0.9997888306416164
 10
564.94621542079676
 20
954.56612782075672
 30
0.0
 41
1.0
 10
564.93749435922223
 20
954.56525610612448
 30
0.0
 41
1.0
 10
564.92877329764769
 20
954.56438439149213
 30
0.0
 41
1.0
 10
564.81623883865871
 20
954.55313599773876
 30
0.0
 41
0.9984170238190773
 10
564.70567969130695
 20
954.52931991580283
 30
0.0
 41
1.0
 10
564.66929856032175
 20
954.52148287999694
 30
0.0
 41
1.0
 10
564.63291742933654
 20
954.51364584419105
 30
0.0
 41
1.0
 10
564.51772636091448
 20
954.48883197768134
 30
0.0
 41
0.9976592854199192
 10
564.4069981945089
 20
954.448533300534
 30
0.0
 41
1.0
 10
564.29627002810287
 20
954.40823462338631
 30
0.0
 41
0.999325507435227
 10
564.18879822931115
 20
954.35991772489353
 30
0.0
 41
1.0
 10
564.18417305038884
 20
954.35783834869426
 30
0.0
 41
1.0
 10
564.17954787146653
 20
954.35575897249498
 30
0.0
 41
1.0
 10
564.06282571482973
 20
954.30328332160343
 30
0.0
 41
0.9976475078275294
 10
563.95437837051986
 20
954.23533533194541
 30
0.0
 41
1.0
 10
563.93603597638366
 20
954.22384285313001
 30
0.0
 41
1.0
 10
563.91769358224758
 20
954.21235037431472
 30
0.0
 41
1.0
 10
563.83349139069696
 20
954.1595932535472
 30
0.0
 41
0.9995131336406693
 10
563.75274367573957
 20
954.101687041594
 30
0.0
 41
1.0
 10
563.67199596078217
 20
954.04378082964081
 30
0.0
 41
0.9995810107606384
 10
563.5947343130531
 20
953.9812991471747
 30
0.0
 41
1.0
 10
563.5917642818431
 20
953.97889727571032
 30
0.0
 41
1.0
 10
563.58879425063321
 20
953.97649540424584
 30
0.0
 41
1.0
 10
563.50559254048437
 20
953.90920997885087
 30
0.0
 41
0.9996617837954467
 10
563.42600185334868
 20
953.83768952329069
 30
0.0
 41
1.0
 10
563.41387110247206
 20
953.82678879030027
 30
0.0
 41
1.0
 10
563.40174035159532
 20
953.81588805730985
 30
0.0
 41
1.0
 10
563.33346482419745
 20
953.75453544183631
 30
0.0
 41
0.9997267750052167
 10
563.26813131591371
 20
953.69005890531105
 30
0.0
 41
1.0
 10
563.20279780763053
 20
953.62558236878613
 30
0.0
 41
0.999966728896319
 10
563.13852486448366
 20
953.56004856189156
 30
0.0
 41
1.0
 10
563.06969741670832
 20
953.48987090313312
 30
0.0
 41
1.0
 10
563.0008699689331
 20
953.4196932443748
 30
0.0
 41
1.0
 10
562.79894213023613
 20
953.2138041199637
 30
0.0
 41
0.998820533517507
 10
562.61793651325627
 20
952.98929988790258
 30
0.0
 41
1.0
 10
562.58729654835179
 20
952.95129663747298
 30
0.0
 41
1.0
 10
562.55665658344742
 20
952.9132933870435
 30
0.0
 41
1.0
 10
562.31437103665837
 20
952.61278265412284
 30
0.0
 41
0.9997077826754481
 10
562.08689308555347
 20
952.30091285990693
 30
0.0
 41
1.0
 10
562.08516967042294
 20
952.29855007652725
 30
0.0
 41
1.0
 10
562.08344625529242
 20
952.29618729314757
 30
0.0
 41
1.0
 10
561.85252147392623
 20
951.97959193217207
 30
0.0
 41
0.9989147567078724
 10
561.65205797104261
 20
951.64288247098705
 30
0.0
 41
1.0
 10
561.62731682573599
 20
951.60132589043519
 30
0.0
 41
1.0
 10
561.60257568042937
 20
951.55976930988322
 30
0.0
 41
1.0
 10
561.44736438179143
 20
951.29906792542954
 30
0.0
 41
0.9997476598181054
 10
561.30401939428191
 20
951.03165817684726
 30
0.0
 41
1.0
 10
561.16067440677261
 20
950.76424842826543
 30
0.0
 41
0.9996258967109222
 10
561.03216615484121
 20
950.48940049164219
 30
0.0
 41
1.0
 10
561.01896624539017
 20
950.46116909154352
 30
0.0
 41
1.0
 10
561.00576633593903
 20
950.43293769144486
 30
0.0
 41
1.0
 10
560.8655576149406
 20
950.13306529349472
 30
0.0
 41
0.9998735413945645
 10
560.7349562682208
 20
949.82888569402837
 30
0.0
 41
1.0
 10
560.73151344016139
 20
949.82086710856629
 30
0.0
 41
1.0
 10
560.72807061210199
 20
949.81284852310409
 30
0.0
 41
1.0
 10
560.60435492150202
 20
949.52470609456429
 30
0.0
 41
0.9999377418860077
 10
560.48710011932576
 20
949.23387462688572
 30
0.0
 41
1.0
 10
560.36984531715166
 20
948.94304315921272
 30
0.0
 41
0.9999508299502805
 10
560.25838137377684
 20
948.64994348239804
 30
0.0
 41
1.0
 10
560.25530060511255
 20
948.64184245642934
 30
0.0
 41
1.0
 10
560.25221983644815
 20
948.63374143046065
 30
0.0
 41
1.0
 10
560.13459435574669
 20
948.32443970171357
 30
0.0
 41
0.9999609228436601
 10
560.02245575287225
 20
948.01310668569681
 30
0.0
 41
1.0
 10
560.01949974252238
 20
948.0048998452869
 30
0.0
 41
1.0
 10
560.01654373217264
 20
947.9966930048771
 30
0.0
 41
1.0
 10
559.89849310860029
 20
947.66894630804507
 30
0.0
 41
0.9999674607407644
 10
559.7857455825316
 20
947.33933768804877
 30
0.0
 41
1.0
 10
559.73434719196985
 20
947.18907849235904
 30
0.0
 41
1.0
 10
559.68294880140809
 20
947.03881929666932
 30
0.0
 41
1.0
 10
559.56693819464931
 20
946.69967131416342
 30
0.0
 41
0.9999287532307847
 10
559.45905679067755
 20
946.3578505751849
 30
0.0
 41
1.0
 10
559.41257953454624
 20
946.21058803083838
 30
0.0
 41
1.0
 10
559.36610227841481
 20
946.06332548649198
 30
0.0
 41
1.0
 10
559.35117538671057
 20
946.01602983622092
 30
0.0
 41
0.9999998223586752
 10
559.33630487797643
 20
945.96871642796827
 30
0.0
 41
1.0
 10
557.71564874118098
 20
940.82068792617883
 30
0.0
 41
1.0
 10
556.09499260438554
 20
935.67265942438939
 30
0.0
 41
1.0
 10
555.18968416049461
 20
935.67265942438939
 30
0.0
 41
1.0
 10
554.28437571660368
 20
935.67265942438939
 30
0.0
 41
1.0
 10
556.13646012798972
 20
941.55973134685689
 30
0.0
 41
1.0
 10
557.98854453937577
 20
947.44680326932439
 30
0.0
 41
1.0
 10
557.99866629767848
 20
947.47884648277409
 30
0.0
 41
1.0
 10
558.07127396652822
 20
947.70914602459993
 30
0.0
 41
1.0
 10
558.14388163537797
 20
947.93944556642577
 30
0.0
 41
0.9999825681976798
 10
558.21376467458947
 20
948.17058646149098
 30
0.0
 41
1.0
 10
558.2620557367502
 20
948.3303110449865
 30
0.0
 41
1.0
 10
558.31034679891093
 20
948.49003562848202
 30
0.0
 41
1.0
 10
558.40749915222693
 20
948.81137085025421
 30
0.0
 41
0.9999672528962864
 10
558.49943795785032
 20
949.13423639584073
 30
0.0
 41
1.0
 10
558.50222684151868
 20
949.14403024122566
 30
0.0
 41
1.0
 10
558.50501572518704
 20
949.1538240866106
 30
0.0
 41
1.0
 10
558.59137676347348
 20
949.45710194142634
 30
0.0
 41
0.9999899749158465
 10
558.67501837300836
 20
949.76114102987947
 30
0.0
 41
1.0
 10
558.6851242920269
 20
949.79787626756161
 30
0.0
 41
1.0
 10
558.69523021104544
 20
949.83461150524374
 30
0.0
 41
1.0
 10
558.75865998254346
 20
950.0651801183335
 30
0.0
 41
0.9999214200501605
 10
558.81628941092072
 20
950.29726646054121
 30
0.0
 41
1.0
 10
558.82905526310162
 20
950.34867734593865
 30
0.0
 41
1.0
 10
558.84182111528253
 20
950.4000882313361
 30
0.0
 41
1.0
 10
558.87391883929843
 20
950.52935280275028
 30
0.0
 41
0.9999828681659266
 10
558.90450109129392
 20
950.658984277218
 30
0.0
 41
1.0
 10
558.93508334328931
 20
950.78861575168514
 30
0.0
 41
0.9999389844476693
 10
558.96279433207849
 20
950.91889120758538
 30
0.0
 41
1.0
 10
558.96993207579874
 20
950.95244731142293
 30
0.0
 41
1.0
 10
558.97706981951899
 20
950.98600341526037
 30
0.0
 41
1.0
 10
559.01905629574799
 20
951.18339107883264
 30
0.0
 41
0.9998933699441925
 10
559.05526056014992
 20
951.38192068658896
 30
0.0
 41
1.0
 10
559.05663338536669
 20
951.38944870728801
 30
0.0
 41
1.0
 10
559.05800621058359
 20
951.39697672798707
 30
0.0
 41
1.0
 10
559.09695612541816
 20
951.61056237713672
 30
0.0
 41
0.9996850305193628
 10
559.12513980167671
 20
951.82583338257166
 30
0.0
 41
1.0
 10
559.12713483504626
 20
951.84107173669486
 30
0.0
 41
1.0
 10
559.1291298684157
 20
951.85631009081817
 30
0.0
 41
1.0
 10
559.1565377308749
 20
952.06565531797378
 30
0.0
 41
0.9994697936706715
 10
559.17026229009457
 20
952.27634051330472
 30
0.0
 41
1.0
 10
559.17073935934422
 20
952.28366398551543
 30
0.0
 41
1.0
 10
559.17121642859388
 20
952.29098745772615
 30
0.0
 41
1.0
 10
559.18398684931412
 20
952.48702570863497
 30
0.0
 41
0.9991804893137349
 10
559.18085853304137
 20
952.6834545586089
 30
0.0
 41
1.0
 10
559.18077465421925
 20
952.6887213600221
 30
0.0
 41
1.0
 10
559.18069077539712
 20
952.69398816143541
 30
0.0
 41
1.0
 10
559.17773021676851
 20
952.87988340858283
 30
0.0
 41
0.9988448329321797
 10
559.15693867114476
 20
953.06463599841572
 30
0.0
 41
1.0
 10
559.15534459744163
 20
953.07880085418742
 30
0.0
 41
1.0
 10
559.15375052373861
 20
953.092965709959
 30
0.0
 41
1.0
 10
559.13614712552089
 20
953.24938858824964
 30
0.0
 41
0.9985503209458294
 10
559.10183085322137
 20
953.40301277233834
 30
0.0
 41
1.0
 10
559.0942448611504
 20
953.43697309973743
 30
0.0
 41
1.0
 10
559.08665886907954
 20
953.47093342713652
 30
0.0
 41
1.0
 10
559.06751458092208
 20
953.55663695642647
 30
0.0
 41
0.9991036781370642
 10
559.04118971927073
 20
953.64041404375257
 30
0.0
 41
1.0
 10
559.03720749381523
 20
953.65308720626194
 30
0.0
 41
1.0
 10
559.03322526835962
 20
953.6657603687712
 30
0.0
 41
1.0
 10
559.01486485761984
 20
953.72419113107662
 30
0.0
 41
0.9998874504369183
 10
558.99475964994099
 20
953.78204473330084
 30
0.0
 41
1.0
 10
558.97465444226225
 20
953.83989833552494
 30
0.0
 41
0.9994041637543363
 10
558.95060582932751
 20
953.89622703941598
 30
0.0
 41
1.0
 10
558.94640904510425
 20
953.90605710389605
 30
0.0
 41
1.0
 10
558.94221226088109
 20
953.915887168376
 30
0.0
 41
1.0
 10
558.91433342988614
 20
953.9811873343441
 30
0.0
 41
0.9991846840702463
 10
558.88127707319268
 20
954.0440253656252
 30
0.0
 41
1.0
 10
558.88014046679803
 20
954.04618598207924
 30
0.0
 41
1.0
 10
558.87900386040337
 20
954.04834659853327
 30
0.0
 41
1.0
 10
558.84822071650001
 20
954.10686339690471
 30
0.0
 41
0.9989253167923899
 10
558.8121512924447
 20
954.16227832529569
 30
0.0
 41
1.0
 10
558.8110971677703
 20
954.16389782005831
 30
0.0
 41
1.0
 10
558.8100430430959
 20
954.16551731482082
 30
0.0
 41
1.0
 10
558.77608186838961
 20
954.21769325368609
 30
0.0
 41
0.9986467172836213
 10
558.73688471575224
 20
954.26605928731544
 30
0.0
 41
1.0
 10
558.73601058705162
 20
954.26713788959341
 30
0.0
 41
1.0
 10
558.73513645835112
 20
954.2682164918715
 30
0.0
 41
1.0
 10
558.69768756311498
 20
954.31442532094491
 30
0.0
 41
0.9984001104267651
 10
558.65526083259772
 20
954.35611042831385
 30
0.0
 41
1.0
 10
558.65467369448766
 20
954.35668730319571
 30
0.0
 41
1.0
 10
558.65408655637759
 20
954.35726417807768
 30
0.0
 41
1.0
 10
558.61283410207989
 20
954.39779553568337
 30
0.0
 41
0.9982442159081435
 10
558.56707800074491
 20
954.43316409694285
 30
0.0
 41
1.0
 10
558.56686320528433
 20
954.43333012958522
 30
0.0
 41
1.0
 10
558.56664840982364
 20
954.43349616222758
 30
0.0
 41
1.0
 10
558.52132189941051
 20
954.46853265820209
 30
0.0
 41
0.9982450060837359
 10
558.47217092033759
 20
954.4979644412366
 30
0.0
 41
1.0
 10
558.42301994126433
 20
954.52739622427111
 30
0.0
 41
0.9983922639633508
 10
558.37085363509755
 20
954.55107585892574
 30
0.0
 41
1.0
 10
558.37062675777474
 20
954.55117884440642
 30
0.0
 41
1.0
 10
558.37039988045206
 20
954.5512818298871
 30
0.0
 41
1.0
 10
558.31777981963933
 20
954.57516743550354
 30
0.0
 41
0.998651714715035
 10
558.26296684677266
 20
954.59346855462491
 30
0.0
 41
1.0
 10
558.26228892534368
 20
954.59369490105678
 30
0.0
 41
1.0
 10
558.2616110039146
 20
954.59392124748865
 30
0.0
 41
1.0
 10
558.20544218818907
 20
954.61267505947399
 30
0.0
 41
0.9989435598955557
 10
558.14778880103529
 20
954.62619276170881
 30
0.0
 41
1.0
 10
558.14670868145572
 20
954.62644601196132
 30
0.0
 41
1.0
 10
558.14562856187626
 20
954.62669926221383
 30
0.0
 41
1.0
 10
558.08581493556335
 20
954.64072346495391
 30
0.0
 41
0.9992249241240365
 10
558.02508342666806
 20
954.64999880766891
 30
0.0
 41
1.0
 10
558.02366973837502
 20
954.65021471607702
 30
0.0
 41
1.0
 10
558.02225605008198
 20
954.65043062448524
 30
0.0
 41
1.0
 10
557.95869716460231
 20
954.66013778401611
 30
0.0
 41
0.9994396597833889
 10
557.89463122806535
 20
954.66557070636179
 30
0.0
 41
1.0
 10
557.87549056058765
 20
954.66719387408045
 30
0.0
 41
1.0
 10
557.85634989310995
 20
954.66881704179912
 30
0.0
 41
1.0
 10
557.75400262161645
 20
954.67749629958223
 30
0.0
 41
0.9987693403121249
 10
557.65129899802832
 20
954.67599323612944
 30
0.0
 41
1.0
 10
557.64104466380195
 20
954.67584316435523
 30
0.0
 41
1.0
 10
557.63079032957558
 20
954.67569309258101
 30
0.0
 41
1.0
 10
557.52123456339689
 20
954.67408974829368
 30
0.0
 41
0.9989753644966158
 10
557.4122725633805
 20
954.6625867413685
 30
0.0
 41
1.0
 10
557.30331056336479
 20
954.65108373444332
 30
0.0
 41
0.9983190067306393
 10
557.19641175240054
 20
954.62704874265694
 30
0.0
 41
1.0
 10
557.18751080079301
 20
954.625047464094
 30
0.0
 41
1.0
 10
557.17860984918559
 20
954.62304618553117
 30
0.0
 41
1.0
 10
557.05390913500662
 20
954.5950086366189
 30
0.0
 41
0.9985539388303282
 10
556.93293938132865
 20
954.55374496057334
 30
0.0
 41
1.0
 10
556.93059395036857
 20
954.5529449167575
 30
0.0
 41
1.0
 10
556.9282485194085
 20
954.55214487294177
 30
0.0
 41
1.0
 10
556.80258790380992
 20
954.50928110926441
 30
0.0
 41
0.9988468746493692
 10
556.68161756150948
 20
954.45456302420189
 30
0.0
 41
1.0
 10
556.67843473952098
 20
954.45312334964206
 30
0.0
 41
1.0
 10
556.67525191753236
 20
954.45168367508222
 30
0.0
 41
1.0
 10
556.54791593125378
 20
954.39408624089958
 30
0.0
 41
0.9991322885918912
 10
556.42581534719591
 20
954.32609090871699
 30
0.0
 41
1.0
 10
556.40821333615236
 20
954.31628870672739
 30
0.0
 41
1.0
 10
556.39061132510892
 20
954.3064865047379
 30
0.0
 41
1.0
 10
556.28843464405247
 20
954.2495863889576
 30
0.0
 41
0.9993860037849577
 10
556.19049363997942
 20
954.18567037336925
 30
0.0
 41
1.0
 10
556.18487532712811
 20
954.182003878675
 30
0.0
 41
1.0
 10
556.17925701427691
 20
954.17833738398076
 30
0.0
 41
1.0
 10
556.09255263590717
 20
954.12175435778147
 30
0.0
 41
0.9998821494955233
 10
556.00762626009328
 20
954.06253612770399
 30
0.0
 41
1.0
 10
555.92269988428086
 20
954.00331789762754
 30
0.0
 41
0.9997976482743622
 10
555.8402242538773
 20
953.94073148958591
 30
0.0
 41
1.0
 10
555.82558798907212
 20
953.92962479980588
 30
0.0
 41
1.0
 10
555.81095172426694
 20
953.91851811002584
 30
0.0
 41
1.0
 10
555.69920356425223
 20
953.83371832242358
 30
0.0
 41
0.9998091630800847
 10
555.59085328622393
 20
953.74461797172148
 30
0.0
 41
1.0
 10
555.57784753374756
 20
953.73392287127626
 30
0.0
 41
1.0
 10
555.56484178127118
 20
953.72322777083093
 30
0.0
 41
1.0
 10
555.430479998289
 20
953.61273721923749
 30
0.0
 41
0.9995035112317162
 10
555.30334412052559
 20
953.49400340222269
 30
0.0
 41
1.0
 10
555.29369681013827
 20
953.48499365606472
 30
0.0
 41
1.0
 10
555.28404949975095
 20
953.47598390990674
 30
0.0
 41
1.0
 10
555.16062643698581
 20
953.36071753815099
 30
0.0
 41
0.9994630424299104
 10
555.04501803120161
 20
953.23761479491577
 30
0.0
 41
1.0
 10
555.04133519242998
 20
953.23369321540258
 30
0.0
 41
1.0
 10
555.03765235365836
 20
953.22977163588928
 30
0.0
 41
1.0
 10
554.92940962541775
 20
953.11451205168055
 30
0.0
 41
0.9995160693750078
 10
554.82854359588578
 20
952.992744633808
 30
0.0
 41
1.0
 10
554.82660987580562
 20
952.99041020960044
 30
0.0
 41
1.0
 10
554.82467615572534
 20
952.98807578539299
 30
0.0
 41
1.0
 10
554.7276775663538
 20
952.87097721593534
 30
0.0
 41
0.9996561470514578
 10
554.63695134768795
 20
952.74895445348625
 30
0.0
 41
1.0
 10
554.63079368178614
 20
952.74067266444422
 30
0.0
 41
1.0
 10
554.62463601588445
 20
952.73239087540219
 30
0.0
 41
1.0
 10
554.54622512902188
 20
952.62693169103682
 30
0.0
 41
0.9998349055173255
 10
554.4716978470899
 20
952.51869310737368
 30
0.0
 41
1.0
 10
554.39717056515678
 20
952.41045452370895
 30
0.0
 41
0.9999728109559298
 10
554.32424766924737
 20
952.30112859815506
 30
0.0
 41
1.0
 10
554.32293245383562
 20
952.29915682865249
 30
0.0
 41
1.0
 10
554.32161723842398
 20
952.29718505915002
 30
0.0
 41
1.0
 10
554.24606391168436
 20
952.18391559458087
 30
0.0
 41
0.9999972147468361
 10
554.17104610130821
 20
952.07029075174182
 30
0.0
 41
1.0
 10
554.16607455868984
 20
952.06276066327564
 30
0.0
 41
1.0
 10
554.16110301607159
 20
952.05523057480934
 30
0.0
 41
1.0
 10
554.07614212045314
 20
951.92654555502941
 30
0.0
 41
0.9999371979005065
 10
553.99408677105021
 20
951.79598864125421
 30
0.0
 41
1.0
 10
553.99057788668733
 20
951.79040571318751
 30
0.0
 41
1.0
 10
553.98706900232446
 20
951.7848227851207
 30
0.0
 41
1.0
 10
553.89799588419623
 20
951.64310001521244
 30
0.0
 41
0.9998272025610385
 10
553.81425249331392
 20
951.49816413846963
 30
0.0
 41
1.0
 10
553.79903732128992
 20
951.471831024013
 30
0.0
 41
1.0
 10
553.78382214926592
 20
951.44549790955637
 30
0.0
 41
1.0
 10
553.6696484143356
 20
951.24789580390041
 30
0.0
 41
0.9995217214837698
 10
553.56790872477995
 20
951.04361347603833
 30
0.0
 41
1.0
 10
553.56026516214411
 20
951.02826602633365
 30
0.0
 41
1.0
 10
553.55262159950814
 20
951.01291857662898
 30
0.0
 41
1.0
 10
553.4657163069196
 20
950.83842211854972
 30
0.0
 41
0.9998269762606603
 10
553.38536184064822
 20
950.66081383182768
 30
0.0
 41
1.0
 10
553.30500737437626
 20
950.48320554510451
 30
0.0
 41
0.9998944747389236
 10
553.22984657981169
 20
950.30333781947536
 30
0.0
 41
1.0
 10
553.22489291022112
 20
950.29148316455939
 30
0.0
 41
1.0
 10
553.21993924063054
 20
950.27962850964332
 30
0.0
 41
1.0
 10
553.13929218007706
 20
950.08663156962325
 30
0.0
 41
0.9999506734407264
 10
553.06249465117241
 20
949.89207076476475
 30
0.0
 41
1.0
 10
553.04789468590548
 20
949.85508284296873
 30
0.0
 41
1.0
 10
553.03329472063842
 20
949.8180949211727
 30
0.0
 41
1.0
 10
552.98569712227027
 20
949.6975099599124
 30
0.0
 41
0.9999912393946459
 10
552.93911067824638
 20
949.57653075721282
 30
0.0
 41
1.0
 10
552.89252423422113
 20
949.45555155451007
 30
0.0
 41
0.9999927113967594
 10
552.84686293982543
 20
949.3342201470042
 30
0.0
 41
1.0
 10
552.83289450842972
 20
949.29710316501064
 30
0.0
 41
1.0
 10
552.81892607703412
 20
949.25998618301719
 30
0.0
 41
1.0
 10
552.74532791984416
 20
949.06442081151636
 30
0.0
 41
0.9999487550948368
 10
552.6757042948725
 20
948.86740544633381
 30
0.0
 41
1.0
 10
552.65211068493466
 20
948.80064213603839
 30
0.0
 41
1.0
 10
552.62851707499681
 20
948.73387882574298
 30
0.0
 41
1.0
 10
552.53383144062809
 20
948.4659449909235
 30
0.0
 41
0.9999808436928432
 10
552.44246985198708
 20
948.19685955965997
 30
0.0
 41
1.0
 10
552.35110826334767
 20
947.92777412840132
 30
0.0
 41
0.9999873932914429
 10
552.26245355463175
 20
947.65778477339472
 30
0.0
 41
1.0
 10
552.24236119776026
 20
947.5965954406355
 30
0.0
 41
1.0
 10
552.22226884088877
 20
947.53540610787627
 30
0.0
 41
1.0
 10
552.09342941843192
 20
947.14303808735713
 30
0.0
 41
0.9999794883039674
 10
551.96962663347233
 20
946.74905188107402
 30
0.0
 41
1.0
 10
551.95847437404086
 20
946.7135612708563
 30
0.0
 41
1.0
 10
551.94732211460951
 20
946.67807066063858
 30
0.0
 41
1.0
 10
551.80476395071094
 20
946.22439790854867
 30
0.0
 41
0.9999982761799684
 10
551.66389151068631
 20
945.77019888639597
 30
0.0
 41
1.0
 10
550.07575117811371
 20
940.72142915539268
 30
0.0
 41
1.0
 10
548.4876108455411
 20
935.67265942438939
 30
0.0
 41
1.0
 10
547.53886023406471
 20
935.67265942438939
 30
0.0
 41
1.0
 10
546.59010962258833
 20
935.67265942438939
 30
0.0
 41
1.0
 10
549.82839410874158
 20
945.99998162433553
 30
0.0
 41
1.0
 10
553.06667859489471
 20
956.32730382428167
 30
0.0
 41
1.0
  0
LWPOLYLINE
  5
59
100
AcDbEntity
  8
0
370
              15
390
0
  6
Continuous
 62
               7
100
AcDbPolyline
 90
      232
 70
             128
 10
527.36313282106767
 20
955.24296099276648
 42
0.000437080068926
 10
527.31025564701872
 20
955.1742943535404
 10
527.27097141586819
 20
955.12318724061367
 42
0.0030481992176103
 10
527.14063269874748
 20
954.95146554826727
 10
527.10212102699859
 20
954.90007876448135
 42
0.0042058245759133
 10
526.89813597632337
 20
954.62307301940018
 10
526.84573085382806
 20
954.55064017262691
 42
0.012094889874178
 10
526.54968693706633
 20
954.11989056807738
 10
526.45349443794385
 20
953.97240983285178
 42
0.0141601263947891
 10
526.14985039102271
 20
953.4767404961176
 10
526.11031312359648
 20
953.40789652868534
 42
0.0071131081303125
 10
525.90504080035839
 20
953.03839372984771
 42
0.0068458791004228
 10
525.71016127351493
 20
952.66330216637107
 10
525.7033494110575
 20
952.64974045264796
 42
0.0064120880290533
 10
525.50520716101244
 20
952.24231597772746
 10
525.49767247549619
 20
952.22630412100784
 42
0.0058857236448425
 10
525.29491708362559
 20
951.78192800997533
 10
525.28674215733054
 20
951.7634378563389
 42
0.0053189741894722
 10
525.07803784466364
 20
951.27747438242261
 10
525.06929003898165
 20
951.25649250422487
 42
0.0047503650420596
 10
524.85331631282759
 20
950.72429307100651
 10
524.84404806448288
 20
950.7008166949073
 42
0.00420717621736
 10
524.61950068075305
 20
950.11772310083211
 10
524.60975127840641
 20
950.09175692596784
 42
0.0036680086484145
 10
524.3752966350944
 20
949.45312154143664
 10
524.36508885524654
 20
949.42467300709211
 42
0.003257314262753
 10
524.11945656927901
 20
948.72582034733648
 10
524.05080604843567
 20
948.52635726327594
 42
0.0026133366648368
 10
523.7023608496811
 20
947.49649397961389
 10
523.63910406217883
 20
947.30626314421602
 42
0.0020592950740811
 10
523.42524099321338
 20
946.65415949160774
 10
523.42218920205244
 20
946.64472300320472
 42
0.0025609928534361
 10
523.22036870056445
 20
946.00957778083216
 10
523.21777733343583
 20
946.00127543988538
 42
0.0031362356242774
 10
523.0282865477609
 20
945.38051258371206
 10
523.02615550483404
 20
945.37337127750288
 42
0.0037229918029116
 10
522.84935511790707
 20
944.76438597552681
 10
522.847676528703
 20
944.75843908536069
 42
0.004307762370725
 10
522.68393572663558
 20
944.15862035358339
 42
0.0047654161825641
 10
522.5311070041198
 20
943.55593426468158
 10
522.49664239528056
 20
943.4143724875313
 42
0.0112969368446357
 10
522.3007780371363
 20
942.52268032690415
 10
522.27277164804025
 20
942.37985228080925
 42
0.0130056762571515
 10
522.07193440439369
 20
941.19291120916432
 10
522.05139465424622
 20
941.04883309568447
 42
0.0138721532145812
 10
521.94769164970864
 20
940.1420036098616
 10
521.92839616180072
 20
939.91850588793602
 42
0.0071254697007735
 10
521.8950495158781
 20
939.4553188790893
 10
521.89008854171539
 20
939.36931488453922
 42
0.0028881799196951
 10
521.87495024842497
 20
939.07757317468656
 42
0.0060297297131095
 10
521.86501804864963
 20
938.78562423857852
 10
521.86395576698237
 20
938.73723186663892
 42
0.0229523164154297
 10
521.87168679476815
 20
938.41447702035509
 10
521.87591256828853
 20
938.35407348633896
 42
0.012367330066951
 10
521.89499121480685
 20
938.1529527611641
 42
0.0128577674474696
 10
521.92418660521287
 20
937.95305491123918
 10
521.93131247860015
 20
937.91172609664034
 42
0.0285717853767781
 10
521.99580648029587
 20
937.63360994532707
 10
522.00947500396239
 20
937.58695517584943
 42
0.0316283099160285
 10
522.12528558387658
 20
937.26794067402398
 10
522.12833427563237
 20
937.26095430169778
 42
0.0338984824238511
 10
522.27776598659921
 20
936.97338833750928
 10
522.28007471596879
 20
936.9695973082338
 42
0.0350228718354008
 10
522.46243500664264
 20
936.71254532355647
 10
522.46332025841798
 20
936.71146624579205
 42
0.0347476747529373
 10
522.67774494565776
 20
936.48428119857238
 42
0.0331337701911348
 10
522.92098827140376
 20
936.2881525364952
 10
522.92208836992029
 20
936.28737983332246
 42
0.0305233319083312
 10
523.19063306549333
 20
936.1222516632314
 10
523.19386310999494
 20
936.12052765136843
 42
0.0273744481151751
 10
523.48641682156631
 20
935.98438950747914
 10
523.4915213567067
 20
935.98234592300832
 42
0.0240964406197887
 10
523.80699843235425
 20
935.87336219672648
 10
523.81358176156232
 20
935.87143745705191
 42
0.020963617981076
 10
524.15098191421282
 20
935.78796930912029
 10
524.15861437466367
 20
935.7864173961184
 42
0.0181388704693655
 10
524.51693676666537
 20
935.727001302904
 10
524.52521761504022
 20
935.72593511908735
 42
0.0156086547586135
 10
524.90340497922705
 20
935.68919893251086
 10
524.9466002315603
 20
935.68636043003141
 42
0.0137148329023471
 10
525.27427337685504
 20
935.67384017478037
 10
525.32020956679025
 20
935.67334574166523
 42
0.0051057823884246
 10
525.55635515337326
 20
935.67321548725602
 42
0.00522566933147
 10
525.79245243716218
 20
935.67796431172053
 10
525.86267922090133
 20
935.68011127773434
 42
0.0161507179049175
 10
526.23841629900335
 20
935.703761648061
 10
526.25842925937559
 20
935.70567184334845
 42
0.0101216737833789
 10
526.6724564808693
 20
935.75366477371438
 10
526.70650977029311
 20
935.75831247052361
 42
0.0245291776397429
 10
527.18329942584319
 20
935.84738754859961
 10
527.26812274136648
 20
935.86758346894521
 42
0.0143509212556409
 10
527.62475384530785
 20
935.96338810272448
 42
0.0156557857039506
 10
527.97496991003516
 20
936.0803993185433
 10
527.98247112452975
 20
936.08316948029744
 42
0.0170137333630472
 10
528.33906712021246
 20
936.22882709516921
 10
528.34617104261861
 20
936.23201493073225
 42
0.0183105364410697
 10
528.70552071078396
 20
936.40934997255613
 10
528.71246747542364
 20
936.41310040742871
 42
0.0194899958149917
 10
529.07094821640885
 20
936.62507938932015
 10
529.0779620957444
 20
936.62960473161445
 42
0.0204869852950706
 10
529.43197639783864
 20
936.87912474670065
 10
529.43924200642527
 20
936.88470481204865
 42
0.0212516938556577
 10
529.78523193753347
 20
937.17460880894339
 10
529.83174863160934
 20
937.2170761190373
 42
0.0215248918252983
 10
530.09177480049652
 20
937.47584039803144
 10
530.1368045348795
 20
937.52468451938375
 42
0.0114578554957357
 10
530.29159668855459
 20
937.70050745283959
 10
530.30279122454158
 20
937.71382621638543
 42
0.0061531305133073
 10
530.42926587053557
 20
937.86811574969067
 42
0.0006325587119971
 10
530.55364435469221
 20
938.02411912537252
 10
530.57668448973891
 20
938.05309264602579
 42
0.0041897761557105
 10
530.74513989372053
 20
938.26861202209932
 10
530.80360201360372
 20
938.34471336907279
 42
0.0092993880037297
 10
531.08021394082846
 20
938.71899213295819
 10
531.16260843402608
 20
938.83492913652481
 42
0.0159321727085393
 10
531.50921491666872
 20
939.3571033572814
 10
531.5535710520594
 20
939.42878292153409
 42
0.0085547317022089
 10
531.78808281738361
 20
939.82265787075607
 42
0.0084601156888401
 10
532.00905899482541
 20
940.22428471978765
 10
532.01717446865598
 20
940.23964440206123
 42
0.0081429654285316
 10
532.24042373909481
 20
940.67936591460466
 10
532.2492839032775
 20
940.69754475662137
 42
0.007657458133001
 10
532.47569141384554
 20
941.1807276318774
 10
532.4851710545679
 20
941.20179211017751
 42
0.0070682724202211
 10
532.7156159623778
 20
941.73382941496607
 10
532.72560624635639
 20
941.75781860397035
 42
0.0064559514446168
 10
532.96093945453833
 20
942.34413087048983
 10
532.97134881270313
 20
942.37106579593149
 42
0.0058311413905327
 10
533.21239554946601
 20
943.01709789031554
 10
533.22315062685334
 20
943.04698223147568
 42
0.0052312425818327
 10
533.47073190489493
 20
943.7581846453121
 10
533.48177574127408
 20
943.79101135737994
 42
0.0046680544796455
 10
533.7367041690087
 20
944.57283767313572
 10
533.77869631905241
 20
944.70582091042809
 42
0.0041666856445323
 10
533.98198233144694
 20
945.36878968543238
 10
534.01964477210845
 20
945.49537079307834
 42
0.0015170975156406
 10
534.14083135052385
 20
945.90723914457976
 42
-0.0004887993114898
 10
534.26117112365637
 20
946.31935755665336
 10
534.33764838114212
 20
946.58031494256284
 42
0.0002583378927582
 10
534.61086295123596
 20
947.51437164584331
 10
534.69263580078746
 20
947.7944709053404
 42
0.0006636169672257
 10
534.88650356079427
 20
948.46182382891197
 10
534.8916002151451
 20
948.47945541180536
 42
0.0010589131323655
 10
535.07304891605793
 20
949.11218675484088
 10
535.07803098654051
 20
949.12969966186847
 42
0.0015655524462724
 10
535.24630119372114
 20
949.72831634106183
 10
535.25113139413156
 20
949.74570849998122
 42
0.0021640440477062
 10
535.40542136612225
 20
950.3107355180158
 10
535.41005558555457
 20
950.32800024801861
 42
0.0028763871852919
 10
535.54957130360503
 20
950.85996819885668
 10
535.55395716777355
 20
950.87709217701592
 42
0.0037310511946961
 10
535.67791385960913
 20
951.37653977103503
 10
535.68198907989859
 20
951.3935000422822
 42
0.0047652197771172
 10
535.78961298040667
 20
951.86097781058561
 10
535.79330357972913
 20
951.8777373657316
 42
0.0060276699300457
 10
535.88383367888378
 20
952.31381316087982
 10
535.88705236917281
 20
952.33031437518821
 42
0.0075824337755892
 10
535.95974167858833
 20
952.73558153961517
 10
535.9623870559692
 20
952.75173648706937
 42
0.0095130624607808
 10
536.01650229159986
 20
953.12682584013749
 10
536.02348851548231
 20
953.18275939825298
 42
0.0121054653225922
 10
536.05007984606027
 20
953.44765522672787
 10
536.05094633581973
 20
953.45905866965677
 42
0.0069050827388811
 10
536.06603515385746
 20
953.70199989650121
 10
536.06717045352627
 20
953.72552615355301
 42
0.0169063976706068
 10
536.06999773250641
 20
953.9217188808467
 10
536.0688270809751
 20
953.98205464219745
 42
0.0052007732897517
 10
536.06657363238207
 20
954.05764803234797
 42
0.0054038123297829
 10
536.04661012054294
 20
954.17766632835958
 10
536.04152426467272
 20
954.20632481493908
 42
0.0112050460466003
 10
536.00613990261365
 20
954.3826512532811
 10
535.98831494057367
 20
954.46219283999892
 42
0.0240764468010643
 10
535.89741757442675
 20
954.79242987550197
 10
535.87885881161367
 20
954.84905004049483
 42
0.0256812331835194
 10
535.73549589142453
 20
955.22077424675126
 10
535.73008646560322
 20
955.23290558174062
 42
0.0268360501215886
 10
535.56065922475318
 20
955.56389871576198
 10
535.55512281711788
 20
955.57341838607476
 42
0.0274670231730363
 10
535.36292184070476
 20
955.86570576099155
 10
535.35754054074175
 20
955.87298490853345
 42
0.0275035967103345
 10
535.14596766118029
 20
956.12850079883697
 10
535.14089816021533
 20
956.13397988646568
 42
0.026955767352581
 10
534.91349461677419
 20
956.35462217242969
 10
534.90875155899198
 20
956.35875212689007
 42
0.0259124802210575
 10
534.6691967275608
 20
956.54644265404283
 10
534.66466588237824
 20
956.5496281563735
 42
0.0245162153005919
 10
534.41674952928417
 20
956.7063611654836
 10
534.41222298296225
 20
956.7089213626831
 42
0.0229282588837392
 10
534.15980342613261
 20
956.83678955518337
 10
534.1550229322944
 20
956.83894185494603
 42
0.0212984135696577
 10
533.9019849798342
 20
956.94014077218765
 10
533.89668069486652
 20
956.942004334947
 42
0.0197555462340815
 10
533.6469023571417
 20
957.01881975291246
 42
0.0183511896790535
 10
533.39197363167227
 20
957.07640265987914
 10
533.3056084349555
 20
957.09260545026291
 42
0.0338057877148954
 10
533.02010108569516
 20
957.12641385540326
 10
532.92909568064783
 20
957.13099351066489
 42
0.0091990524503424
 10
532.82324857201922
 20
957.13436936658672
 42
0.0028333980778633
 10
532.71733465602358
 20
957.13519747410351
 10
532.71641920297702
 20
957.13519944392749
 42
-0.0023619827802572
 10
532.60867318785529
 20
957.1359402850062
 10
532.57226801769525
 20
957.13636259146904
 42
0.0008824598476963
 10
532.39171202787782
 20
957.13813836970701
 10
532.34785059543935
 20
957.1384923312329
 42
0.0038132665768183
 10
532.07956769956286
 20
957.13861126729955
 10
532.06303404476705
 20
957.13849250115595
 42
0.0060665569337387
 10
531.76175355316309
 20
957.13267220173475
 10
531.7475032211504
 20
957.13222389376756
 42
0.0080356953335582
 10
531.41804450481277
 20
957.11655617170084
 10
531.40597448972392
 20
957.11578758876021
 42
0.0098996399105209
 10
531.05321140507692
 20
957.08630235956241
 10
531.04316569569835
 20
957.08526206336387
 42
0.0117740981367486
 10
530.67200883735052
 20
957.03796981583412
 10
530.66378614086705
 20
957.03672469926323
 42
0.013743521513603
 10
530.27919732137877
 20
956.96762772570094
 10
530.27254028225866
 20
956.966241829468
 42
0.0158359869385997
 10
529.87954318845493
 20
956.87134974098694
 10
529.87413000158904
 20
956.86985980011673
 42
0.018055412402678
 10
529.4778149569778
 20
956.74522178387849
 10
529.47325816889315
 20
956.7436057476117
 42
0.0203657431284808
 10
529.07878065108048
 20
956.58534540609537
 10
529.07463711207447
 20
956.58348378465405
 42
0.0226819684655765
 10
528.68720105587101
 20
956.38784120598302
 10
528.68300126485269
 20
956.38547561406324
 42
0.0248634984604931
 10
528.30781932367188
 20
956.14884896811634
 10
528.25962439488785
 20
956.1149919262906
 42
0.026704419088501
 10
527.98533169797099
 20
955.89955155042219
 42
0.0139303002201015
 10
527.72916453202981
 20
955.66231270950777
 10
527.72431114631127
 20
955.65756004665013
 42
0.0283460963442644
 10
527.4802385520843
 20
955.38982938620541
 10
527.44057004692752
 20
955.34102780873195
 42
0.0070695364822613
 10
527.36313282106767
 20
955.24296099276648
 42
0.0070695364822613
  0
LWPOLYLINE
  5
5A
100
AcDbEntity
  8
0
370
              15
390
0
  6
Continuous
 62
               7
100
AcDbPolyline
 90
      226
 70
             128
 10
523.83431238382127
 20
939.52137218658254
 42
-0.0026277636629292
 10
523.83423450002124
 20
939.58814411231765
 10
523.83445185825326
 20
939.64129932976869
 42
-0.0088680296729284
 10
523.83822847454633
 20
939.81431511217181
 10
523.84057483365882
 20
939.87359513762533
 42
-0.0077381705618222
 10
523.85662094442148
 20
940.1648556334178
 10
523.85748885559497
 20
940.17714386710861
 42
-0.0068872530532167
 10
523.88412093534305
 20
940.49236561917689
 10
523.8853251595292
 20
940.50460659819635
 42
-0.0062130021486203
 10
523.92291887635804
 20
940.84347628944283
 10
523.92442277989221
 20
940.85565016135138
 42
-0.0056726929670439
 10
523.97334463939387
 20
941.21784538346083
 10
523.97511808503884
 20
941.22993918371014
 42
-0.0052341884494888
 10
524.03572867129901
 20
941.61513243922877
 10
524.03774666007553
 20
941.62713736922046
 42
-0.0049768450170027
 10
524.11048534150098
 20
942.03498193664859
 10
524.13473435622359
 20
942.16352991965903
 42
-0.0089029805626123
 10
524.27181520801707
 20
942.82530536707566
 10
524.30456058333687
 20
942.97033679760489
 42
-0.0080318257099998
 10
524.53410919767703
 20
943.91604642945617
 10
524.54609412412583
 20
943.9621770646487
 42
-0.0074265721318328
 10
524.83010566297639
 20
944.99224164303143
 10
524.84998520609179
 20
945.06037570361673
 42
-0.0069711922702683
 10
525.17728978459911
 20
946.12664344394659
 10
525.23724173170228
 20
946.31266480230988
 42
-0.0052070422895104
 10
525.46666695696399
 20
946.99993687934852
 10
525.4839481491473
 20
947.04996415999767
 42
-0.0009167004448242
 10
525.68704003642551
 20
947.63442000811972
 42
-0.0025162726943683
 10
525.89413766668724
 20
948.21746127227982
 10
525.93136227849152
 20
948.3206108181821
 42
-0.0028212681457804
 10
526.17953819745662
 20
948.99634145035873
 10
526.18936896021398
 20
949.02264889505318
 42
-0.0031964916821089
 10
526.42566121786967
 20
949.6428536571625
 10
526.43529567186499
 20
949.66766364729631
 42
-0.0036281836452634
 10
526.66040163296987
 20
950.23510432819887
 10
526.66984004312462
 20
950.25840175969506
 42
-0.0041269166833085
 10
526.88445773978651
 20
950.77584265567998
 10
526.91709069620708
 20
950.8527211020405
 42
-0.0047472213057237
 10
527.07413550176091
 20
951.21314256992446
 10
527.08102958297468
 20
951.22856316726882
 42
-0.0025651659995666
 10
527.22938761681928
 20
951.55589122300489
 42
-0.0057144634995655
 10
527.38313731059145
 20
951.88070089636892
 10
527.41116801599298
 20
951.93820927876391
 42
-0.0065388068373977
 10
527.59463504373161
 20
952.30244177542659
 10
527.6030934995083
 20
952.31870135479255
 42
-0.0074510843025644
 10
527.77927574538796
 20
952.64538963591883
 10
527.78745541591991
 20
952.66003041318925
 42
-0.0084648979858871
 10
527.95708926901898
 20
952.9519394241488
 10
527.96494539550702
 20
952.96494641579955
 42
-0.0095638542804738
 10
528.12878084310137
 20
953.22483528777821
 10
528.1362557867717
 20
953.23620464923147
 42
-0.0107191626807012
 10
528.29505736716067
 20
953.46681588377771
 10
528.3020741008927
 20
953.4765519761437
 42
-0.0118458573902193
 10
528.45662219940425
 20
953.68062417145302
 42
-0.0129184518190925
 10
528.62107482300564
 20
953.87678468762329
 10
528.65121959537021
 20
953.91091076652447
 42
-0.0217742579635901
 10
528.82783191770432
 20
954.09411753677307
 10
528.83857746216324
 20
954.10433436997459
 42
-0.0097266568650627
 10
529.0046350810203
 20
954.25618194441336
 42
-0.0187720905719573
 10
529.17898265691008
 20
954.39825079780258
 10
529.20968864758265
 20
954.42140988019776
 42
-0.0179428207518823
 10
529.4421093675802
 20
954.58396205731037
 10
529.44576169449522
 20
954.58632599219766
 42
-0.0170047877697998
 10
529.68152533202635
 20
954.72778650634962
 10
529.6853083207742
 20
954.72988481138657
 42
-0.0160190788364734
 10
529.92221686840821
 20
954.85153611337398
 42
-0.0151102861491547
 10
530.16624865085782
 20
954.95821888942976
 10
530.21863515306666
 20
954.97925902232328
 42
-0.0271945441888561
 10
530.57729771212314
 20
955.10112383302874
 10
530.64636251261425
 20
955.1204733742959
 42
-0.0237596594021646
 10
531.06215935963542
 20
955.21592408627714
 10
531.13022221336496
 20
955.22817877440377
 42
-0.0213715440553994
 10
531.41609714481115
 20
955.26712580591379
 10
531.47624431103122
 20
955.27271552061484
 42
-0.0101465655818964
 10
531.64373684302336
 20
955.2848590638788
 10
531.65307722922353
 20
955.28534597887619
 42
-0.0100375910877414
 10
531.80223132978415
 20
955.29012179680126
 10
531.8124905994639
 20
955.29024423581575
 42
-0.0103625633378454
 10
531.94119859411944
 20
955.28911280228908
 10
531.96346424538524
 20
955.2884554438242
 42
-0.0115689250236484
 10
532.04751498291421
 20
955.28402593757903
 42
-0.0072438037423136
 10
532.13135326236136
 20
955.27643673782893
 10
532.14815377182617
 20
955.2746701951055
 42
-0.0217917313129446
 10
532.26472353514202
 20
955.25725030238402
 10
532.33032362570691
 20
955.24450369396993
 42
-0.0332943556755853
 10
532.53471579073494
 20
955.19046340266289
 10
532.5648883592861
 20
955.18029532554408
 42
-0.0184824084799393
 10
532.70339341575027
 20
955.12784431015791
 42
-0.0198002050694007
 10
532.83746775624979
 20
955.06496024995852
 10
532.83935439362654
 20
955.06398246307867
 42
-0.0212242342975511
 10
532.97149333602988
 20
954.98821972428482
 10
532.97330863157208
 20
954.98707392207723
 42
-0.0226090605798311
 10
533.10181253279166
 20
954.89759427851425
 10
533.10365697453108
 20
954.89618202552526
 42
-0.0238457052238636
 10
533.22683905582346
 20
954.79218612966349
 10
533.22879178438313
 20
954.79037125189677
 42
-0.0248160564151369
 10
533.344993291685
 20
954.67109665068665
 10
533.34709692508591
 20
954.6687113169836
 42
-0.0254109591449846
 10
533.45470214295142
 20
954.53342293101991
 10
533.45695016486593
 20
954.53028138261868
 42
-0.0255528488289715
 10
533.55439684366263
 20
954.37825432838486
 10
533.55672794357906
 20
954.3741727167768
 42
-0.0252146793223533
 10
533.64250896958822
 20
954.20467047077989
 10
533.64481120874586
 20
954.19948838886694
 42
-0.0244265635948643
 10
533.71746590250791
 20
954.01174181681858
 10
533.72671230397475
 20
953.98387639848556
 42
-0.0231319612905996
 10
533.77263508296778
 20
953.82057535168087
 42
-0.011213042435876
 10
533.80727110550606
 20
953.65437175149225
 10
533.80847363061844
 20
953.6478751646049
 42
-0.0210527881232714
 10
533.83416010598955
 20
953.46681951916264
 10
533.83767070081126
 20
953.4314139706164
 42
-0.0190029892422824
 10
533.85311217435572
 20
953.17787812434528
 10
533.8539221507998
 20
953.14240250997511
 42
-0.0137974553660366
 10
533.85237329796405
 20
952.81737110323752
 10
533.85152784300874
 20
952.79125235864979
 42
-0.0081336634215456
 10
533.83666850778616
 20
952.48590489104959
 42
-0.0073526923571885
 10
533.81235997441183
 20
952.18115664676714
 10
533.8110985506288
 20
952.16781997209841
 42
-0.0066886138691289
 10
533.77536296458265
 20
951.83723392860315
 10
533.77370587511246
 20
951.82361230960976
 42
-0.0061359187352101
 10
533.72585527306148
 20
951.46684832950893
 10
533.72381777198871
 20
951.45295352668052
 42
-0.0056698610064159
 10
533.66316744122105
 20
951.06967495783942
 10
533.66076200789848
 20
951.05551583861177
 42
-0.005272107727572
 10
533.58662980710017
 20
950.64538849894052
 10
533.58386665825719
 20
950.63097186354787
 42
-0.0049289272176615
 10
533.4955725401569
 20
950.19366335242375
 10
533.49246004547467
 20
950.17899449960964
 42
-0.0047415956710415
 10
533.38922205394226
 20
949.71419774219896
 10
533.35445384358252
 20
949.56439064681581
 42
-0.0084404470902763
 10
533.16443740001102
 20
948.80416662228583
 10
533.15831071202501
 20
948.78130249813125
 42
-0.00396359402585
 10
532.93685702774121
 20
947.98031363388463
 10
532.92348023256147
 20
947.93338201729205
 42
-0.0072475040836648
 10
532.6560333446987
 20
947.0441623009026
 10
532.58582101787329
 20
946.8224219509367
 42
-0.005134545882791
 10
532.29906164581212
 20
945.94809676311866
 10
532.2775353790413
 20
945.88467049597887
 42
-0.0019150016601562
 10
532.02200197217792
 20
945.14112137576262
 10
532.0155343677875
 20
945.12253391085812
 42
-0.0021524362753622
 10
531.7670563167178
 20
944.41820808913315
 10
531.75784589601699
 20
944.39245451081956
 42
-0.0024331286821526
 10
531.52159063698537
 20
943.74185520271351
 10
531.51254268443529
 20
943.71731189636034
 42
-0.0027449721788627
 10
531.28792811359949
 20
943.11818201743472
 10
531.27903810620694
 20
943.0948594275817
 42
-0.0031083229768579
 10
531.0654956195973
 20
942.54493539000282
 10
531.05675948792498
 20
942.52284567415325
 42
-0.0035311343281795
 10
530.85371830232998
 20
942.01986254841495
 10
530.84513296318312
 20
941.99901982490667
 42
-0.0040245640947877
 10
530.6520211593878
 20
941.54071050231221
 10
530.64358504578433
 20
941.52113113423911
 42
-0.0046015135851372
 10
530.45982875262098
 20
941.10522610459793
 10
530.4515425747951
 20
941.08692896515095
 42
-0.0052768638269171
 10
530.27656505583718
 20
940.71115608087553
 10
530.2684328452101
 20
940.69416274233197
 42
-0.0060672675640521
 10
530.10165323244428
 20
940.3562471192181
 10
530.09368375196539
 20
940.34058186022605
 42
-0.0069904648871315
 10
529.93451535796112
 20
940.03824605355715
 10
529.92672395835018
 20
940.02393550432942
 42
-0.0080637022767026
 10
529.77457209800446
 20
939.75490020117672
 10
529.76698306537321
 20
939.74197233557595
 42
-0.0093006455668334
 10
529.62124238884178
 20
939.50395793707287
 10
529.61389172209806
 20
939.49243996789949
 42
-0.0107060778049493
 10
529.47394317865974
 20
939.28316965052068
 10
529.46688141038248
 20
939.2730841079582
 42
-0.0122723111415375
 10
529.33208769218186
 20
939.09029077846583
 10
529.33176146862854
 20
939.0898703906571
 42
-0.0141836319625964
 10
529.18817986565386
 20
938.91530063282664
 10
529.18123211000443
 20
938.90732563256483
 42
-0.0175957477207564
 10
529.04132594196722
 20
938.75770474415708
 42
-0.0080466359674239
 10
528.8938621769388
 20
938.61538221600767
 10
528.84782763241947
 20
938.57236177791469
 42
-0.0269600260393837
 10
528.59454738643683
 20
938.36003851940563
 10
528.52798025014022
 20
938.31008710478216
 42
-0.0178362839754522
 10
528.28803576048369
 20
938.14306917852923
 10
528.28079078948258
 20
938.13840066632395
 42
-0.0174650732649675
 10
528.04445459204203
 20
937.99753970136521
 42
-0.0169240130165007
 10
527.79898834618473
 20
937.87324744158798
 10
527.75300219062638
 20
937.85188548602059
 42
-0.0318883036841542
 10
527.40265133500668
 20
937.71554717651054
 10
527.33428579983968
 20
937.69384655603437
 42
-0.0284435909899412
 10
526.95823567355069
 20
937.59762912056033
 10
526.92307751305441
 20
937.59073552473228
 42
-0.0243909341014867
 10
526.60963405213317
 20
937.54501449370173
 10
526.55935332536001
 20
937.54016894679989
 42
-0.0196639292929209
 10
526.34375774783484
 20
937.52792066128654
 10
526.29193367667085
 20
937.52701740054977
 42
-0.010050151068195
 10
526.17951039500713
 20
937.52731779890291
 10
526.14785053368212
 20
937.52803887078778
 42
-0.0019752031130574
 10
526.09875819698163
 20
937.52935103099787
 10
526.09599789376216
 20
937.52943572282413
 42
0.0065378751985597
 10
526.05242131900468
 20
937.53020261403913
 42
-0.0167974694659451
 10
526.00889049607474
 20
937.53186251256511
 10
526.00481115681077
 20
937.53215552346012
 42
-0.008128327628054
 10
525.95325135907456
 20
937.53670251709775
 10
525.94151178519382
 20
937.53793043467635
 42
-0.0126703440175351
 10
525.8667934893989
 20
937.54766522574801
 10
525.84400562172345
 20
937.5512234816631
 42
-0.0117852088439687
 10
525.72446663589494
 20
937.57278647681949
 10
525.6690861841281
 20
937.5841300170548
 42
-0.0251774592293753
 10
525.44224214511939
 20
937.64262802648807
 10
525.39752295526478
 20
937.65659484582443
 42
-0.0146525199884097
 10
525.2111299677307
 20
937.72086137302119
 42
-0.0166929435859574
 10
525.0291523116083
 20
937.79666850607373
 10
525.0244956803308
 20
937.79879340668981
 42
-0.019168435843167
 10
524.83931204907958
 20
937.89202949048092
 10
524.83597946332475
 20
937.89387073803312
 42
-0.0221181781813315
 10
524.65266915942175
 20
938.00600423640446
 10
524.65031935541401
 20
938.00758853439493
 42
-0.0254984685381933
 10
524.4740292050285
 20
938.13999968436462
 10
524.45154705732762
 20
938.15875199330003
 42
-0.0292492648806334
 10
524.32677811848373
 20
938.27584479294387
 42
-0.0159048957500324
 10
524.21293812103374
 20
938.40386478454286
 10
524.21161933045437
 20
938.40544639756297
 42
-0.0343813379566388
 10
524.10898206882837
 20
938.54731772333196
 10
524.07749053746636
 20
938.59782111542791
 42
-0.0369117275698783
 10
523.99159803556995
 20
938.76129835637494
 42
-0.019175137990931
 10
523.92440465001403
 20
938.93370296237742
 10
523.92264132625337
 20
938.93879630705578
 42
-0.0378178042231008
 10
523.87284660746957
 20
939.12773708313534
 10
523.86685131173817
 20
939.16029770133855
 42
-0.0184846046472251
 10
523.84613411244459
 20
939.30205052187898
 42
-0.0179866351316681
 10
523.8358011073708
 20
939.44494133495994
 10
523.83574466492507
 20
939.44649902157266
 42
-0.0085497186116697
 10
523.83431238382127
 20
939.52137218658254
 42
-0.0085497186116697
  0
ENDBLK
  5
5B
100
AcDbEntity
  8
template
390
0
100
AcDbBlockEnd
  0
BLOCK
  5
5C
100
AcDbEntity
  8
notes
390
0
100
AcDbBlockBegin
  2
*D3
 70
               1
 10
0.0
 20
0.0
 30
0.0
  3
*D3
  1

  0
LINE
  5
5D
100
AcDbEntity
  8
0
370
              -2
390
0
  6
Continuous
 62
               0
100
AcDbLine
 10
-719.99999999999989
 20
886.4353271699465
 30
0.0
 11
-719.99999999999989
 21
1014.5491248825579
 31
0.0
  0
LINE
  5
5E
100
AcDbEntity
  8
0
370
              -2
390
0
  6
Continuous
 62
               0
100
AcDbLine
 10
-20.0
 20
886.43532716994696
 30
0.0
 11
-20.0
 21
1014.5491248825579
 31
0.0
  0
LINE
  5
5F
100
AcDbEntity
  8
0
370
              -2
390
0
  6
Continuous
 62
               0
100
AcDbLine
 10
-719.99999999999989
 20
1014.5491248825579
 30
0.0
 11
-20.0
 21
1014.5491248825579
 31
0.0
  0
CIRCLE
  5
60
102
{ACAD_REACTORS
330
61
102
}
100
AcDbEntity
  8
0
370
              -2
390
0
  6
Continuous
 62
               0
100
AcDbCircle
 10
-719.99999999999989
 20
1014.5491248825579
 30
0.0
 40
1.9998779296875
  0
HATCH
  5
61
100
AcDbEntity
  8
0
370
              -2
390
0
  6
Continuous
 62
               0
100
AcDbHatch
 10
0.0
 20
0.0
 30
0.0
210
0.0
220
0.0
230
1.0
  2
SOLID
 70
               1
 71
               1
 91
        1
 92
        1
 93
        1
 72
               2
 10
-719.99999999999989
 20
1014.5491248825579
 40
1.9998779296875
 50
0.0
 51
360.0
 73
               0
 97
        1
330
60
 75
               0
 76
               1
 98
        1
 10
0.0
 20
0.0
  0
CIRCLE
  5
62
102
{ACAD_REACTORS
330
63
102
}
100
AcDbEntity
  8
0
370
              -2
390
0
  6
Continuous
 62
               0
100
AcDbCircle
 10
-20.0
 20
1014.5491248825579
 30
0.0
 40
1.9998779296875
  0
HATCH
  5
63
100
AcDbEntity
  8
0
370
              -2
390
0
  6
Continuous
 62
               0
100
AcDbHatch
 10
0.0
 20
0.0
 30
0.0
210
0.0
220
0.0
230
1.0
  2
SOLID
 70
               1
 71
               1
 91
        1
 92
        1
 93
        1
 72
               2
 10
-20.0
 20
1014.5491248825579
 40
1.9998779296875
 50
0.0
 51
360.0
 73
               0
 97
        1
330
62
 75
               0
 76
               1
 98
        1
 10
0.0
 20
0.0
  0
MTEXT
  5
64
100
AcDbEntity
  8
0
390
0
 62
               0
100
AcDbMText
 10
-393.81250168217537
 20
1048.426742070058
 30
0.0
 40
24.432617187500004
 41
0.0
 71
               1
 72
               1
  1
700
  7
ＭＳ ゴシック
 73
               1
 44
0.7828267384257843
  0
POINT
  5
65
100
AcDbEntity
  8
Defpoints
370
               0
390
0
 62
               0
100
AcDbPoint
 10
-20.0
 20
861.43532716994696
 30
0.0
  0
POINT
  5
66
100
AcDbEntity
  8
Defpoints
370
               0
390
0
 62
               0
100
AcDbPoint
 10
-719.99999999999989
 20
861.4353271699465
 30
0.0
  0
POINT
  5
67
100
AcDbEntity
  8
Defpoints
370
               0
390
0
 62
               0
100
AcDbPoint
 10
-719.99999999999989
 20
1014.5491248825579
 30
0.0
  0
ENDBLK
  5
68
100
AcDbEntity
  8
notes
390
0
100
AcDbBlockEnd
  0
BLOCK
  5
69
100
AcDbEntity
  8
notes
390
0
100
AcDbBlockBegin
  2
*D4
 70
               1
 10
0.0
 20
0.0
 30
0.0
  3
*D4
  1

  0
LINE
  5
6A
100
AcDbEntity
  8
0
370
              -2
390
0
  6
Continuous
 62
               0
100
AcDbLine
 10
-370.00000000000193
 20
828.9353271699465
 30
0.0
 11
-370.00000000000193
 21
924.54912488255786
 31
0.0
  0
LINE
  5
6B
100
AcDbEntity
  8
0
370
              -2
390
0
  6
Continuous
 62
               0
100
AcDbLine
 10
-470.00000000000193
 20
826.4353271699465
 30
0.0
 11
-470.00000000000193
 21
924.54912488255786
 31
0.0
  0
LINE
  5
6C
100
AcDbEntity
  8
0
370
              -2
390
0
  6
Continuous
 62
               0
100
AcDbLine
 10
-370.00000000000193
 20
924.54912488255786
 30
0.0
 11
-470.00000000000193
 21
924.54912488255786
 31
0.0
  0
CIRCLE
  5
6D
102
{ACAD_REACTORS
330
6E
102
}
100
AcDbEntity
  8
0
370
              -2
390
0
  6
Continuous
 62
               0
100
AcDbCircle
 10
-370.00000000000193
 20
924.54912488255786
 30
0.0
 40
1.9998779296875
  0
HATCH
  5
6E
100
AcDbEntity
  8
0
370
              -2
390
0
  6
Continuous
 62
               0
100
AcDbHatch
 10
0.0
 20
0.0
 30
0.0
210
0.0
220
0.0
230
1.0
  2
SOLID
 70
               1
 71
               1
 91
        1
 92
        1
 93
        1
 72
               2
 10
-370.00000000000193
 20
924.54912488255786
 40
1.9998779296875
 50
0.0
 51
360.0
 73
               0
 97
        1
330
6D
 75
               0
 76
               1
 98
        1
 10
0.0
 20
0.0
  0
CIRCLE
  5
6F
102
{ACAD_REACTORS
330
70
102
}
100
AcDbEntity
  8
0
370
              -2
390
0
  6
Continuous
 62
               0
100
AcDbCircle
 10
-470.00000000000193
 20
924.54912488255786
 30
0.0
 40
1.9998779296875
  0
HATCH
  5
70
100
AcDbEntity
  8
0
370
              -2
390
0
  6
Continuous
 62
               0
100
AcDbHatch
 10
0.0
 20
0.0
 30
0.0
210
0.0
220
0.0
230
1.0
  2
SOLID
 70
               1
 71
               1
 91
        1
 92
        1
 93
        1
 72
               2
 10
-470.00000000000193
 20
924.54912488255786
 40
1.9998779296875
 50
0.0
 51
360.0
 73
               0
 97
        1
330
6F
 75
               0
 76
               1
 98
        1
 10
0.0
 20
0.0
  0
MTEXT
  5
71
100
AcDbEntity
  8
0
390
0
 62
               0
100
AcDbMText
 10
-443.81250168217741
 20
958.42674207005803
 30
0.0
 40
24.432617187500004
 41
0.0
 71
               1
 72
               1
  1
100
  7
ＭＳ ゴシック
 73
               1
 44
0.7828267384257843
  0
POINT
  5
72
100
AcDbEntity
  8
Defpoints
370
               0
390
0
 62
               0
100
AcDbPoint
 10
-470.00000000000193
 20
801.4353271699465
 30
0.0
  0
POINT
  5
73
100
AcDbEntity
  8
Defpoints
370
               0
390
0
 62
               0
100
AcDbPoint
 10
-370.00000000000193
 20
803.9353271699465
 30
0.0
  0
POINT
  5
74
100
AcDbEntity
  8
Defpoints
370
               0
390
0
 62
               0
100
AcDbPoint
 10
-370.00000000000193
 20
924.54912488255786
 30
0.0
  0
ENDBLK
  5
75
100
AcDbEntity
  8
notes
390
0
100
AcDbBlockEnd
  0
BLOCK
  5
76
100
AcDbEntity
  8
notes
390
0
100
AcDbBlockBegin
  2
*D5
 70
               1
 10
0.0
 20
0.0
 30
0.0
  3
*D5
  1

  0
LINE
  5
77
100
AcDbEntity
  8
0
370
              -2
390
0
  6
Continuous
 62
               0
100
AcDbLine
 10
-370.00000000000193
 20
828.9353271699465
 30
0.0
 11
-370.00000000000193
 21
924.54912488255786
 31
0.0
  0
LINE
  5
78
100
AcDbEntity
  8
0
370
              -2
390
0
  6
Continuous
 62
               0
100
AcDbLine
 10
-270.00000000000193
 20
826.43532716994605
 30
0.0
 11
-270.00000000000193
 21
924.54912488255786
 31
0.0
  0
LINE
  5
79
100
AcDbEntity
  8
0
370
              -2
390
0
  6
Continuous
 62
               0
100
AcDbLine
 10
-370.00000000000193
 20
924.54912488255786
 30
0.0
 11
-270.00000000000193
 21
924.54912488255786
 31
0.0
  0
CIRCLE
  5
7A
102
{ACAD_REACTORS
330
7B
102
}
100
AcDbEntity
  8
0
370
              -2
390
0
  6
Continuous
 62
               0
100
AcDbCircle
 10
-370.00000000000193
 20
924.54912488255786
 30
0.0
 40
1.9998779296875
  0
HATCH
  5
7B
100
AcDbEntity
  8
0
370
              -2
390
0
  6
Continuous
 62
               0
100
AcDbHatch
 10
0.0
 20
0.0
 30
0.0
210
0.0
220
0.0
230
1.0
  2
SOLID
 70
               1
 71
               1
 91
        1
 92
        1
 93
        1
 72
               2
 10
-370.00000000000193
 20
924.54912488255786
 40
1.9998779296875
 50
0.0
 51
360.0
 73
               0
 97
        1
330
7A
 75
               0
 76
               1
 98
        1
 10
0.0
 20
0.0
  0
CIRCLE
  5
7C
102
{ACAD_REACTORS
330
7D
102
}
100
AcDbEntity
  8
0
370
              -2
390
0
  6
Continuous
 62
               0
100
AcDbCircle
 10
-270.00000000000193
 20
924.54912488255786
 30
0.0
 40
1.9998779296875
  0
HATCH
  5
7D
100
AcDbEntity
  8
0
370
              -2
390
0
  6
Continuous
 62
               0
100
AcDbHatch
 10
0.0
 20
0.0
 30
0.0
210
0.0
220
0.0
230
1.0
  2
SOLID
 70
               1
 71
               1
 91
        1
 92
        1
 93
        1
 72
               2
 10
-270.00000000000193
 20
924.54912488255786
 40
1.9998779296875
 50
0.0
 51
360.0
 73
               0
 97
        1
330
7C
 75
               0
 76
               1
 98
        1
 10
0.0
 20
0.0
  0
MTEXT
  5
7E
100
AcDbEntity
  8
0
390
0
 62
               0
100
AcDbMText
 10
-343.81250168217741
 20
958.42674207005803
 30
0.0
 40
24.432617187500004
 41
0.0
 71
               1
 72
               1
  1
100
  7
ＭＳ ゴシック
 73
               1
 44
0.7828267384257843
  0
POINT
  5
7F
100
AcDbEntity
  8
Defpoints
370
               0
390
0
 62
               0
100
AcDbPoint
 10
-270.00000000000193
 20
801.43532716994605
 30
0.0
  0
POINT
  5
80
100
AcDbEntity
  8
Defpoints
370
               0
390
0
 62
               0
100
AcDbPoint
 10
-370.00000000000193
 20
803.9353271699465
 30
0.0
  0
POINT
  5
81
100
AcDbEntity
  8
Defpoints
370
               0
390
0
 62
               0
100
AcDbPoint
 10
-370.00000000000193
 20
924.54912488255786
 30
0.0
  0
ENDBLK
  5
82
100
AcDbEntity
  8
notes
390
0
100
AcDbBlockEnd
  0
BLOCK
  5
83
100
AcDbEntity
  8
notes
390
0
100
AcDbBlockBegin
  2
*D6
 70
               1
 10
0.0
 20
0.0
 30
0.0
  3
*D6
  1

  0
LINE
  5
84
100
AcDbEntity
  8
0
370
              -2
390
0
  6
Continuous
 62
               0
100
AcDbLine
 10
2.0
 20
864.43532716994696
 30
0.0
 11
106.73295518356963
 21
864.43532716994696
 31
0.0
  0
LINE
  5
85
100
AcDbEntity
  8
0
370
              -2
390
0
  6
Continuous
 62
               0
100
AcDbLine
 10
-5.0
 20
264.4353271699465
 30
0.0
 11
106.73295518356963
 21
264.4353271699465
 31
0.0
  0
LINE
  5
86
100
AcDbEntity
  8
0
370
              -2
390
0
  6
Continuous
 62
               0
100
AcDbLine
 10
106.73295518356963
 20
864.43532716994696
 30
0.0
 11
106.73295518356963
 21
264.4353271699465
 31
0.0
  0
CIRCLE
  5
87
102
{ACAD_REACTORS
330
88
102
}
100
AcDbEntity
  8
0
370
              -2
390
0
  6
Continuous
 62
               0
100
AcDbCircle
 10
106.73295518356963
 20
864.43532716994696
 30
0.0
 40
1.9998779296875
  0
HATCH
  5
88
100
AcDbEntity
  8
0
370
              -2
390
0
  6
Continuous
 62
               0
100
AcDbHatch
 10
0.0
 20
0.0
 30
0.0
210
0.0
220
0.0
230
1.0
  2
SOLID
 70
               1
 71
               1
 91
        1
 92
        1
 93
        1
 72
               2
 10
106.73295518356963
 20
864.43532716994696
 40
1.9998779296875
 50
0.0
 51
360.0
 73
               0
 97
        1
330
87
 75
               0
 76
               1
 98
        1
 10
0.0
 20
0.0
  0
CIRCLE
  5
89
102
{ACAD_REACTORS
330
8A
102
}
100
AcDbEntity
  8
0
370
              -2
390
0
  6
Continuous
 62
               0
100
AcDbCircle
 10
106.73295518356963
 20
264.4353271699465
 30
0.0
 40
1.9998779296875
  0
HATCH
  5
8A
100
AcDbEntity
  8
0
370
              -2
390
0
  6
Continuous
 62
               0
100
AcDbHatch
 10
0.0
 20
0.0
 30
0.0
210
0.0
220
0.0
230
1.0
  2
SOLID
 70
               1
 71
               1
 91
        1
 92
        1
 93
        1
 72
               2
 10
106.73295518356963
 20
264.4353271699465
 40
1.9998779296875
 50
0.0
 51
360.0
 73
               0
 97
        1
330
89
 75
               0
 76
               1
 98
        1
 10
0.0
 20
0.0
  0
MTEXT
  5
8B
100
AcDbEntity
  8
0
390
0
 62
               0
100
AcDbMText
 10
72.855337996069636
 20
540.62282548777148
 30
0.0
 40
24.432617187500004
 41
0.0
 71
               1
 72
               1
  1
600
  7
ＭＳ ゴシック
 11
0.0
 21
1.0
 31
0.0
 73
               1
 44
0.7828267384257843
  0
POINT
  5
8C
100
AcDbEntity
  8
Defpoints
370
               0
390
0
 62
               0
100
AcDbPoint
 10
-30.0
 20
264.4353271699465
 30
0.0
  0
POINT
  5
8D
100
AcDbEntity
  8
Defpoints
370
               0
390
0
 62
               0
100
AcDbPoint
 10
-23.0
 20
864.43532716994696
 30
0.0
  0
POINT
  5
8E
100
AcDbEntity
  8
Defpoints
370
               0
390
0
 62
               0
100
AcDbPoint
 10
106.73295518356963
 20
864.43532716994696
 30
0.0
  0
ENDBLK
  5
8F
100
AcDbEntity
  8
notes
390
0
100
AcDbBlockEnd
  0
BLOCK
  5
90
100
AcDbEntity
  8
notes
390
0
100
AcDbBlockBegin
  2
*D7
 70
               1
 10
0.0
 20
0.0
 30
0.0
  3
*D7
  1

  0
LINE
  5
91
100
AcDbEntity
  8
0
370
              -2
390
0
  6
Continuous
 62
               0
100
AcDbLine
 10
-600.00000000000011
 20
239.43532716994696
 30
0.0
 11
-600.00000000000011
 21
148.54912488255786
 31
0.0
  0
LINE
  5
92
100
AcDbEntity
  8
0
370
              -2
390
0
  6
Continuous
 62
               0
100
AcDbLine
 10
-139.99999999999989
 20
239.43532716994696
 30
0.0
 11
-139.99999999999989
 21
148.54912488255786
 31
0.0
  0
LINE
  5
93
100
AcDbEntity
  8
0
370
              -2
390
0
  6
Continuous
 62
               0
100
AcDbLine
 10
-600.00000000000011
 20
148.54912488255786
 30
0.0
 11
-139.99999999999989
 21
148.54912488255786
 31
0.0
  0
CIRCLE
  5
94
102
{ACAD_REACTORS
330
95
102
}
100
AcDbEntity
  8
0
370
              -2
390
0
  6
Continuous
 62
               0
100
AcDbCircle
 10
-600.00000000000011
 20
148.54912488255786
 30
0.0
 40
1.9998779296875
  0
HATCH
  5
95
100
AcDbEntity
  8
0
370
              -2
390
0
  6
Continuous
 62
               0
100
AcDbHatch
 10
0.0
 20
0.0
 30
0.0
210
0.0
220
0.0
230
1.0
  2
SOLID
 70
               1
 71
               1
 91
        1
 92
        1
 93
        1
 72
               2
 10
-600.00000000000011
 20
148.54912488255786
 40
1.9998779296875
 50
0.0
 51
360.0
 73
               0
 97
        1
330
94
 75
               0
 76
               1
 98
        1
 10
0.0
 20
0.0
  0
CIRCLE
  5
96
102
{ACAD_REACTORS
330
97
102
}
100
AcDbEntity
  8
0
370
              -2
390
0
  6
Continuous
 62
               0
100
AcDbCircle
 10
-139.99999999999989
 20
148.54912488255786
 30
0.0
 40
1.9998779296875
  0
HATCH
  5
97
100
AcDbEntity
  8
0
370
              -2
390
0
  6
Continuous
 62
               0
100
AcDbHatch
 10
0.0
 20
0.0
 30
0.0
210
0.0
220
0.0
230
1.0
  2
SOLID
 70
               1
 71
               1
 91
        1
 92
        1
 93
        1
 72
               2
 10
-139.99999999999989
 20
148.54912488255786
 40
1.9998779296875
 50
0.0
 51
360.0
 73
               0
 97
        1
330
96
 75
               0
 76
               1
 98
        1
 10
0.0
 20
0.0
  0
MTEXT
  5
98
100
AcDbEntity
  8
0
390
0
 62
               0
100
AcDbMText
 10
-393.81250168217548
 20
182.42674207005803
 30
0.0
 40
24.432617187500004
 41
0.0
 71
               1
 72
               1
  1
460
  7
ＭＳ ゴシック
 73
               1
 44
0.7828267384257843
  0
POINT
  5
99
100
AcDbEntity
  8
Defpoints
370
               0
390
0
 62
               0
100
AcDbPoint
 10
-139.99999999999989
 20
264.43532716994696
 30
0.0
  0
POINT
  5
9A
100
AcDbEntity
  8
Defpoints
370
               0
390
0
 62
               0
100
AcDbPoint
 10
-600.00000000000011
 20
264.43532716994696
 30
0.0
  0
POINT
  5
9B
100
AcDbEntity
  8
Defpoints
370
               0
390
0
 62
               0
100
AcDbPoint
 10
-600.00000000000011
 20
148.54912488255786
 30
0.0
  0
ENDBLK
  5
9C
100
AcDbEntity
  8
notes
390
0
100
AcDbBlockEnd
  0
BLOCK
  5
9D
100
AcDbEntity
  8
notes
390
0
100
AcDbBlockBegin
  2
*D8
 70
               1
 10
0.0
 20
0.0
 30
0.0
  3
*D8
  1

  0
LINE
  5
9E
100
AcDbEntity
  8
0
370
              -2
390
0
  6
Continuous
 62
               0
100
AcDbLine
 10
-741.99999999999989
 20
864.4353271699465
 30
0.0
 11
-853.26704481643026
 21
864.4353271699465
 31
0.0
  0
LINE
  5
9F
100
AcDbEntity
  8
0
370
              -2
390
0
  6
Continuous
 62
               0
100
AcDbLine
 10
-745.00000000000011
 20
744.43532716994605
 30
0.0
 11
-853.26704481643026
 21
744.43532716994605
 31
0.0
  0
LINE
  5
A0
100
AcDbEntity
  8
0
370
              -2
390
0
  6
Continuous
 62
               0
100
AcDbLine
 10
-853.26704481643026
 20
864.4353271699465
 30
0.0
 11
-853.26704481643026
 21
744.43532716994605
 31
0.0
  0
CIRCLE
  5
A1
102
{ACAD_REACTORS
330
A2
102
}
100
AcDbEntity
  8
0
370
              -2
390
0
  6
Continuous
 62
               0
100
AcDbCircle
 10
-853.26704481643026
 20
864.4353271699465
 30
0.0
 40
1.9998779296875
  0
HATCH
  5
A2
100
AcDbEntity
  8
0
370
              -2
390
0
  6
Continuous
 62
               0
100
AcDbHatch
 10
0.0
 20
0.0
 30
0.0
210
0.0
220
0.0
230
1.0
  2
SOLID
 70
               1
 71
               1
 91
        1
 92
        1
 93
        1
 72
               2
 10
-853.26704481643026
 20
864.4353271699465
 40
1.9998779296875
 50
0.0
 51
360.0
 73
               0
 97
        1
330
A1
 75
               0
 76
               1
 98
        1
 10
0.0
 20
0.0
  0
CIRCLE
  5
A3
102
{ACAD_REACTORS
330
A4
102
}
100
AcDbEntity
  8
0
370
              -2
390
0
  6
Continuous
 62
               0
100
AcDbCircle
 10
-853.26704481643026
 20
744.43532716994605
 30
0.0
 40
1.9998779296875
  0
HATCH
  5
A4
100
AcDbEntity
  8
0
370
              -2
390
0
  6
Continuous
 62
               0
100
AcDbHatch
 10
0.0
 20
0.0
 30
0.0
210
0.0
220
0.0
230
1.0
  2
SOLID
 70
               1
 71
               1
 91
        1
 92
        1
 93
        1
 72
               2
 10
-853.26704481643026
 20
744.43532716994605
 40
1.9998779296875
 50
0.0
 51
360.0
 73
               0
 97
        1
330
A3
 75
               0
 76
               1
 98
        1
 10
0.0
 20
0.0
  0
MTEXT
  5
A5
100
AcDbEntity
  8
0
390
0
 62
               0
100
AcDbMText
 10
-887.14466200393019
 20
780.62282548777057
 30
0.0
 40
24.432617187500004
 41
0.0
 71
               1
 72
               1
  1
120
  7
ＭＳ ゴシック
 11
0.0
 21
1.0
 31
0.0
 73
               1
 44
0.7828267384257843
  0
POINT
  5
A6
100
AcDbEntity
  8
Defpoints
370
               0
390
0
 62
               0
100
AcDbPoint
 10
-720.00000000000011
 20
744.43532716994605
 30
0.0
  0
POINT
  5
A7
100
AcDbEntity
  8
Defpoints
370
               0
390
0
 62
               0
100
AcDbPoint
 10
-716.99999999999989
 20
864.4353271699465
 30
0.0
  0
POINT
  5
A8
100
AcDbEntity
  8
Defpoints
370
               0
390
0
 62
               0
100
AcDbPoint
 10
-853.26704481643026
 20
864.4353271699465
 30
0.0
  0
ENDBLK
  5
A9
100
AcDbEntity
  8
notes
390
0
100
AcDbBlockEnd
  0
BLOCK
  5
AA
100
AcDbEntity
  8
notes
390
0
100
AcDbBlockBegin
  2
*D9
 70
               1
 10
0.0
 20
0.0
 30
0.0
  3
*D9
  1

  0
LINE
  5
AB
100
AcDbEntity
  8
0
370
              -2
390
0
  6
Continuous
 62
               0
100
AcDbLine
 10
-745.00000000000011
 20
744.43532716994605
 30
0.0
 11
-853.26704481643026
 21
744.43532716994605
 31
0.0
  0
LINE
  5
AC
100
AcDbEntity
  8
0
370
              -2
390
0
  6
Continuous
 62
               0
100
AcDbLine
 10
-734.99999999999966
 20
264.43532716994696
 30
0.0
 11
-853.26704481643026
 21
264.43532716994696
 31
0.0
  0
LINE
  5
AD
100
AcDbEntity
  8
0
370
              -2
390
0
  6
Continuous
 62
               0
100
AcDbLine
 10
-853.26704481643026
 20
744.43532716994605
 30
0.0
 11
-853.26704481643026
 21
264.43532716994696
 31
0.0
  0
CIRCLE
  5
AE
102
{ACAD_REACTORS
330
AF
102
}
100
AcDbEntity
  8
0
370
              -2
390
0
  6
Continuous
 62
               0
100
AcDbCircle
 10
-853.26704481643026
 20
744.43532716994605
 30
0.0
 40
1.9998779296875
  0
HATCH
  5
AF
100
AcDbEntity
  8
0
370
              -2
390
0
  6
Continuous
 62
               0
100
AcDbHatch
 10
0.0
 20
0.0
 30
0.0
210
0.0
220
0.0
230
1.0
  2
SOLID
 70
               1
 71
               1
 91
        1
 92
        1
 93
        1
 72
               2
 10
-853.26704481643026
 20
744.43532716994605
 40
1.9998779296875
 50
0.0
 51
360.0
 73
               0
 97
        1
330
AE
 75
               0
 76
               1
 98
        1
 10
0.0
 20
0.0
  0
CIRCLE
  5
B0
102
{ACAD_REACTORS
330
B1
102
}
100
AcDbEntity
  8
0
370
              -2
390
0
  6
Continuous
 62
               0
100
AcDbCircle
 10
-853.26704481643026
 20
264.43532716994696
 30
0.0
 40
1.9998779296875
  0
HATCH
  5
B1
100
AcDbEntity
  8
0
370
              -2
390
0
  6
Continuous
 62
               0
100
AcDbHatch
 10
0.0
 20
0.0
 30
0.0
210
0.0
220
0.0
230
1.0
  2
SOLID
 70
               1
 71
               1
 91
        1
 92
        1
 93
        1
 72
               2
 10
-853.26704481643026
 20
264.43532716994696
 40
1.9998779296875
 50
0.0
 51
360.0
 73
               0
 97
        1
330
B0
 75
               0
 76
               1
 98
        1
 10
0.0
 20
0.0
  0
MTEXT
  5
B2
100
AcDbEntity
  8
0
390
0
 62
               0
100
AcDbMText
 10
-887.14466200393019
 20
480.62282548777102
 30
0.0
 40
24.432617187500004
 41
0.0
 71
               1
 72
               1
  1
480
  7
ＭＳ ゴシック
 11
0.0
 21
1.0
 31
0.0
 73
               1
 44
0.7828267384257843
  0
POINT
  5
B3
100
AcDbEntity
  8
Defpoints
370
               0
390
0
 62
               0
100
AcDbPoint
 10
-709.99999999999966
 20
264.43532716994696
 30
0.0
  0
POINT
  5
B4
100
AcDbEntity
  8
Defpoints
370
               0
390
0
 62
               0
100
AcDbPoint
 10
-720.00000000000011
 20
744.43532716994605
 30
0.0
  0
POINT
  5
B5
100
AcDbEntity
  8
Defpoints
370
               0
390
0
 62
               0
100
AcDbPoint
 10
-853.26704481643026
 20
744.43532716994605
 30
0.0
  0
ENDBLK
  5
B6
100
AcDbEntity
  8
notes
390
0
100
AcDbBlockEnd
  0
BLOCK
  5
B7
100
AcDbEntity
  8
notes
390
0
100
AcDbBlockBegin
  2
*D10
 70
               1
 10
0.0
 20
0.0
 30
0.0
  3
*D10
  1

  0
LINE
  5
B8
100
AcDbEntity
  8
0
370
              -2
390
0
  6
Continuous
 62
               0
100
AcDbLine
 10
891.64379891933754
 20
-471.34570278961428
 30
0.0
 11
891.64379891933754
 21
-384.18542145047968
 31
0.0
  0
LINE
  5
B9
100
AcDbEntity
  8
0
370
              -2
390
0
  6
Continuous
 62
               0
100
AcDbLine
 10
821.64379891933754
 20
-471.34570278961428
 30
0.0
 11
821.64379891933754
 21
-384.18542145047968
 31
0.0
  0
LINE
  5
BA
100
AcDbEntity
  8
0
370
              -2
390
0
  6
Continuous
 62
               0
100
AcDbLine
 10
891.64379891933754
 20
-384.18542145047968
 30
0.0
 11
821.64379891933754
 21
-384.18542145047968
 31
0.0
  0
CIRCLE
  5
BB
102
{ACAD_REACTORS
330
BC
102
}
100
AcDbEntity
  8
0
370
              -2
390
0
  6
Continuous
 62
               0
100
AcDbCircle
 10
891.64379891933754
 20
-384.18542145047968
 30
0.0
 40
1.9998779296875
  0
HATCH
  5
BC
100
AcDbEntity
  8
0
370
              -2
390
0
  6
Continuous
 62
               0
100
AcDbHatch
 10
0.0
 20
0.0
 30
0.0
210
0.0
220
0.0
230
1.0
  2
SOLID
 70
               1
 71
               1
 91
        1
 92
        1
 93
        1
 72
               2
 10
891.64379891933754
 20
-384.18542145047968
 40
1.9998779296875
 50
0.0
 51
360.0
 73
               0
 97
        1
330
BB
 75
               0
 76
               1
 98
        1
 10
0.0
 20
0.0
  0
CIRCLE
  5
BD
102
{ACAD_REACTORS
330
BE
102
}
100
AcDbEntity
  8
0
370
              -2
390
0
  6
Continuous
 62
               0
100
AcDbCircle
 10
821.64379891933754
 20
-384.18542145047968
 30
0.0
 40
1.9998779296875
  0
HATCH
  5
BE
100
AcDbEntity
  8
0
370
              -2
390
0
  6
Continuous
 62
               0
100
AcDbHatch
 10
0.0
 20
0.0
 30
0.0
210
0.0
220
0.0
230
1.0
  2
SOLID
 70
               1
 71
               1
 91
        1
 92
        1
 93
        1
 72
               2
 10
821.64379891933754
 20
-384.18542145047968
 40
1.9998779296875
 50
0.0
 51
360.0
 73
               0
 97
        1
330
BD
 75
               0
 76
               1
 98
        1
 10
0.0
 20
0.0
  0
MTEXT
  5
BF
100
AcDbEntity
  8
0
390
0
 62
               0
100
AcDbMText
 10
843.00199197325423
 20
-350.30780426297974
 30
0.0
 40
24.432617187500004
 41
0.0
 71
               1
 72
               1
  1
70
  7
ＭＳ ゴシック
 73
               1
 44
0.7828267384257843
  0
POINT
  5
C0
100
AcDbEntity
  8
Defpoints
370
               0
390
0
 62
               0
100
AcDbPoint
 10
821.64379891933754
 20
-496.34570278961428
 30
0.0
  0
POINT
  5
C1
100
AcDbEntity
  8
Defpoints
370
               0
390
0
 62
               0
100
AcDbPoint
 10
891.64379891933754
 20
-496.34570278961428
 30
0.0
  0
POINT
  5
C2
100
AcDbEntity
  8
Defpoints
370
               0
390
0
 62
               0
100
AcDbPoint
 10
891.64379891933754
 20
-384.18542145047968
 30
0.0
  0
ENDBLK
  5
C3
100
AcDbEntity
  8
notes
390
0
100
AcDbBlockEnd
  0
BLOCK
  5
C4
100
AcDbEntity
  8
notes
390
0
100
AcDbBlockBegin
  2
*D11
 70
               1
 10
0.0
 20
0.0
 30
0.0
  3
*D11
  1

  0
LINE
  5
C5
100
AcDbEntity
  8
0
370
              -2
390
0
  6
Continuous
 62
               0
100
AcDbLine
 10
892.16600106749252
 20
-691.34570278961428
 30
0.0
 11
892.16600106749252
 21
-768.18542145047968
 31
0.0
  0
LINE
  5
C6
100
AcDbEntity
  8
0
370
              -2
390
0
  6
Continuous
 62
               0
100
AcDbLine
 10
692.16600106749252
 20
-691.34570278961428
 30
0.0
 11
692.16600106749252
 21
-768.18542145047968
 31
0.0
  0
LINE
  5
C7
100
AcDbEntity
  8
0
370
              -2
390
0
  6
Continuous
 62
               0
100
AcDbLine
 10
892.16600106749252
 20
-768.18542145047968
 30
0.0
 11
692.16600106749252
 21
-768.18542145047968
 31
0.0
  0
CIRCLE
  5
C8
102
{ACAD_REACTORS
330
C9
102
}
100
AcDbEntity
  8
0
370
              -2
390
0
  6
Continuous
 62
               0
100
AcDbCircle
 10
892.16600106749252
 20
-768.18542145047968
 30
0.0
 40
1.9998779296875
  0
HATCH
  5
C9
100
AcDbEntity
  8
0
370
              -2
390
0
  6
Continuous
 62
               0
100
AcDbHatch
 10
0.0
 20
0.0
 30
0.0
210
0.0
220
0.0
230
1.0
  2
SOLID
 70
               1
 71
               1
 91
        1
 92
        1
 93
        1
 72
               2
 10
892.16600106749252
 20
-768.18542145047968
 40
1.9998779296875
 50
0.0
 51
360.0
 73
               0
 97
        1
330
C8
 75
               0
 76
               1
 98
        1
 10
0.0
 20
0.0
  0
CIRCLE
  5
CA
102
{ACAD_REACTORS
330
CB
102
}
100
AcDbEntity
  8
0
370
              -2
390
0
  6
Continuous
 62
               0
100
AcDbCircle
 10
692.16600106749252
 20
-768.18542145047968
 30
0.0
 40
1.9998779296875
  0
HATCH
  5
CB
100
AcDbEntity
  8
0
370
              -2
390
0
  6
Continuous
 62
               0
100
AcDbHatch
 10
0.0
 20
0.0
 30
0.0
210
0.0
220
0.0
230
1.0
  2
SOLID
 70
               1
 71
               1
 91
        1
 92
        1
 93
        1
 72
               2
 10
692.16600106749252
 20
-768.18542145047968
 40
1.9998779296875
 50
0.0
 51
360.0
 73
               0
 97
        1
330
CA
 75
               0
 76
               1
 98
        1
 10
0.0
 20
0.0
  0
MTEXT
  5
CC
100
AcDbEntity
  8
0
390
0
 62
               0
100
AcDbMText
 10
768.35349938531704
 20
-734.30780426297974
 30
0.0
 40
24.432617187500004
 41
0.0
 71
               1
 72
               1
  1
200
  7
ＭＳ ゴシック
 73
               1
 44
0.7828267384257843
  0
POINT
  5
CD
100
AcDbEntity
  8
Defpoints
370
               0
390
0
 62
               0
100
AcDbPoint
 10
692.16600106749252
 20
-666.34570278961428
 30
0.0
  0
POINT
  5
CE
100
AcDbEntity
  8
Defpoints
370
               0
390
0
 62
               0
100
AcDbPoint
 10
892.16600106749252
 20
-666.34570278961428
 30
0.0
  0
POINT
  5
CF
100
AcDbEntity
  8
Defpoints
370
               0
390
0
 62
               0
100
AcDbPoint
 10
892.16600106749252
 20
-768.18542145047968
 30
0.0
  0
ENDBLK
  5
D0
100
AcDbEntity
  8
notes
390
0
100
AcDbBlockEnd
  0
BLOCK
  5
D1
100
AcDbEntity
  8
notes
390
0
100
AcDbBlockBegin
  2
*D12
 70
               1
 10
0.0
 20
0.0
 30
0.0
  3
*D12
  1

  0
LINE
  5
D2
100
AcDbEntity
  8
0
370
              -2
390
0
  6
Continuous
 62
               0
100
AcDbLine
 10
273.19181650686022
 20
-496.38586497429833
 30
0.0
 11
218.87699197325418
 21
-496.38586497429833
 31
0.0
  0
LINE
  5
D3
100
AcDbEntity
  8
0
370
              -2
390
0
  6
Continuous
 62
               0
100
AcDbLine
 10
287.08982676076647
 20
-546.38586497429833
 30
0.0
 11
218.87699197325418
 21
-546.38586497429833
 31
0.0
  0
LINE
  5
D4
100
AcDbEntity
  8
0
370
              -2
390
0
  6
Continuous
 62
               0
100
AcDbLine
 10
218.87699197325418
 20
-496.38586497429833
 30
0.0
 11
218.87699197325418
 21
-546.38586497429833
 31
0.0
  0
CIRCLE
  5
D5
102
{ACAD_REACTORS
330
D6
102
}
100
AcDbEntity
  8
0
370
              -2
390
0
  6
Continuous
 62
               0
100
AcDbCircle
 10
218.87699197325418
 20
-496.38586497429833
 30
0.0
 40
1.9998779296875
  0
HATCH
  5
D6
100
AcDbEntity
  8
0
370
              -2
390
0
  6
Continuous
 62
               0
100
AcDbHatch
 10
0.0
 20
0.0
 30
0.0
210
0.0
220
0.0
230
1.0
  2
SOLID
 70
               1
 71
               1
 91
        1
 92
        1
 93
        1
 72
               2
 10
218.87699197325418
 20
-496.38586497429833
 40
1.9998779296875
 50
0.0
 51
360.0
 73
               0
 97
        1
330
D5
 75
               0
 76
               1
 98
        1
 10
0.0
 20
0.0
  0
CIRCLE
  5
D7
102
{ACAD_REACTORS
330
D8
102
}
100
AcDbEntity
  8
0
370
              -2
390
0
  6
Continuous
 62
               0
100
AcDbCircle
 10
218.87699197325418
 20
-546.38586497429833
 30
0.0
 40
1.9998779296875
  0
HATCH
  5
D8
100
AcDbEntity
  8
0
370
              -2
390
0
  6
Continuous
 62
               0
100
AcDbHatch
 10
0.0
 20
0.0
 30
0.0
210
0.0
220
0.0
230
1.0
  2
SOLID
 70
               1
 71
               1
 91
        1
 92
        1
 93
        1
 72
               2
 10
218.87699197325418
 20
-546.38586497429833
 40
1.9998779296875
 50
0.0
 51
360.0
 73
               0
 97
        1
330
D7
 75
               0
 76
               1
 98
        1
 10
0.0
 20
0.0
  0
MTEXT
  5
D9
100
AcDbEntity
  8
0
390
0
 62
               0
100
AcDbMText
 10
184.99937478575418
 20
-537.26086497429833
 30
0.0
 40
24.432617187500004
 41
0.0
 71
               1
 72
               1
  1
50
  7
ＭＳ ゴシック
 11
0.0
 21
1.0
 31
0.0
 73
               1
 44
0.7828267384257843
  0
POINT
  5
DA
100
AcDbEntity
  8
Defpoints
370
               0
390
0
 62
               0
100
AcDbPoint
 10
312.08982676076647
 20
-546.38586497429833
 30
0.0
  0
POINT
  5
DB
100
AcDbEntity
  8
Defpoints
370
               0
390
0
 62
               0
100
AcDbPoint
 10
298.19181650686022
 20
-496.38586497429833
 30
0.0
  0
POINT
  5
DC
100
AcDbEntity
  8
Defpoints
370
               0
390
0
 62
               0
100
AcDbPoint
 10
218.87699197325418
 20
-496.38586497429833
 30
0.0
  0
ENDBLK
  5
DD
100
AcDbEntity
  8
notes
390
0
100
AcDbBlockEnd
  0
BLOCK
  5
DE
100
AcDbEntity
  8
notes
390
0
100
AcDbBlockBegin
  2
*D13
 70
               1
 10
0.0
 20
0.0
 30
0.0
  3
*D13
  1

  0
LINE
  5
DF
100
AcDbEntity
  8
0
370
              -2
390
0
  6
Continuous
 62
               0
100
AcDbLine
 10
4.9999999999997726
 20
-496.3611170317713
 30
0.0
 11
100.73295518356963
 21
-496.3611170317713
 31
0.0
  0
LINE
  5
E0
100
AcDbEntity
  8
0
370
              -2
390
0
  6
Continuous
 62
               0
100
AcDbLine
 10
-106.55400085449241
 20
-656.3611170317713
 30
0.0
 11
100.73295518356963
 21
-656.3611170317713
 31
0.0
  0
LINE
  5
E1
100
AcDbEntity
  8
0
370
              -2
390
0
  6
Continuous
 62
               0
100
AcDbLine
 10
100.73295518356963
 20
-496.3611170317713
 30
0.0
 11
100.73295518356963
 21
-656.3611170317713
 31
0.0
  0
CIRCLE
  5
E2
102
{ACAD_REACTORS
330
E3
102
}
100
AcDbEntity
  8
0
370
              -2
390
0
  6
Continuous
 62
               0
100
AcDbCircle
 10
100.73295518356963
 20
-496.3611170317713
 30
0.0
 40
1.9998779296875
  0
HATCH
  5
E3
100
AcDbEntity
  8
0
370
              -2
390
0
  6
Continuous
 62
               0
100
AcDbHatch
 10
0.0
 20
0.0
 30
0.0
210
0.0
220
0.0
230
1.0
  2
SOLID
 70
               1
 71
               1
 91
        1
 92
        1
 93
        1
 72
               2
 10
100.73295518356963
 20
-496.3611170317713
 40
1.9998779296875
 50
0.0
 51
360.0
 73
               0
 97
        1
330
E2
 75
               0
 76
               1
 98
        1
 10
0.0
 20
0.0
  0
CIRCLE
  5
E4
102
{ACAD_REACTORS
330
E5
102
}
100
AcDbEntity
  8
0
370
              -2
390
0
  6
Continuous
 62
               0
100
AcDbCircle
 10
100.73295518356963
 20
-656.3611170317713
 30
0.0
 40
1.9998779296875
  0
HATCH
  5
E5
100
AcDbEntity
  8
0
370
              -2
390
0
  6
Continuous
 62
               0
100
AcDbHatch
 10
0.0
 20
0.0
 30
0.0
210
0.0
220
0.0
230
1.0
  2
SOLID
 70
               1
 71
               1
 91
        1
 92
        1
 93
        1
 72
               2
 10
100.73295518356963
 20
-656.3611170317713
 40
1.9998779296875
 50
0.0
 51
360.0
 73
               0
 97
        1
330
E4
 75
               0
 76
               1
 98
        1
 10
0.0
 20
0.0
  0
MTEXT
  5
E6
100
AcDbEntity
  8
0
390
0
 62
               0
100
AcDbMText
 10
66.855337996069636
 20
-600.17361871394678
 30
0.0
 40
24.432617187500004
 41
0.0
 71
               1
 72
               1
  1
160
  7
ＭＳ ゴシック
 11
0.0
 21
1.0
 31
0.0
 73
               1
 44
0.7828267384257843
  0
POINT
  5
E7
100
AcDbEntity
  8
Defpoints
370
               0
390
0
 62
               0
100
AcDbPoint
 10
-131.55400085449241
 20
-656.3611170317713
 30
0.0
  0
POINT
  5
E8
100
AcDbEntity
  8
Defpoints
370
               0
390
0
 62
               0
100
AcDbPoint
 10
-20.000000000000227
 20
-496.3611170317713
 30
0.0
  0
POINT
  5
E9
100
AcDbEntity
  8
Defpoints
370
               0
390
0
 62
               0
100
AcDbPoint
 10
100.73295518356963
 20
-496.3611170317713
 30
0.0
  0
ENDBLK
  5
EA
100
AcDbEntity
  8
notes
390
0
100
AcDbBlockEnd
  0
BLOCK
  5
EB
100
AcDbEntity
  8
notes
390
0
100
AcDbBlockBegin
  2
*D14
 70
               1
 10
0.0
 20
0.0
 30
0.0
  3
*D14
  1

  0
LINE
  5
EC
100
AcDbEntity
  8
0
370
              -2
390
0
  6
Continuous
 62
               0
100
AcDbLine
 10
-510.00000000000011
 20
-501.3611170317713
 30
0.0
 11
-510.00000000000011
 21
-441.3611170317713
 31
0.0
  0
LINE
  5
ED
100
AcDbEntity
  8
0
370
              -2
390
0
  6
Continuous
 62
               0
100
AcDbLine
 10
-230.00000000000034
 20
-501.3611170317713
 30
0.0
 11
-230.00000000000034
 21
-441.3611170317713
 31
0.0
  0
LINE
  5
EE
100
AcDbEntity
  8
0
370
              -2
390
0
  6
Continuous
 62
               0
100
AcDbLine
 10
-510.00000000000011
 20
-441.3611170317713
 30
0.0
 11
-230.00000000000034
 21
-441.3611170317713
 31
0.0
  0
CIRCLE
  5
EF
102
{ACAD_REACTORS
330
F0
102
}
100
AcDbEntity
  8
0
370
              -2
390
0
  6
Continuous
 62
               0
100
AcDbCircle
 10
-510.00000000000011
 20
-441.3611170317713
 30
0.0
 40
1.9998779296875
  0
HATCH
  5
F0
100
AcDbEntity
  8
0
370
              -2
390
0
  6
Continuous
 62
               0
100
AcDbHatch
 10
0.0
 20
0.0
 30
0.0
210
0.0
220
0.0
230
1.0
  2
SOLID
 70
               1
 71
               1
 91
        1
 92
        1
 93
        1
 72
               2
 10
-510.00000000000011
 20
-441.3611170317713
 40
1.9998779296875
 50
0.0
 51
360.0
 73
               0
 97
        1
330
EF
 75
               0
 76
               1
 98
        1
 10
0.0
 20
0.0
  0
CIRCLE
  5
F1
102
{ACAD_REACTORS
330
F2
102
}
100
AcDbEntity
  8
0
370
              -2
390
0
  6
Continuous
 62
               0
100
AcDbCircle
 10
-230.00000000000034
 20
-441.3611170317713
 30
0.0
 40
1.9998779296875
  0
HATCH
  5
F2
100
AcDbEntity
  8
0
370
              -2
390
0
  6
Continuous
 62
               0
100
AcDbHatch
 10
0.0
 20
0.0
 30
0.0
210
0.0
220
0.0
230
1.0
  2
SOLID
 70
               1
 71
               1
 91
        1
 92
        1
 93
        1
 72
               2
 10
-230.00000000000034
 20
-441.3611170317713
 40
1.9998779296875
 50
0.0
 51
360.0
 73
               0
 97
        1
330
F1
 75
               0
 76
               1
 98
        1
 10
0.0
 20
0.0
  0
MTEXT
  5
F3
100
AcDbEntity
  8
0
390
0
 62
               0
100
AcDbMText
 10
-393.81250168217571
 20
-407.48349984427136
 30
0.0
 40
24.432617187500004
 41
0.0
 71
               1
 72
               1
  1
280
  7
ＭＳ ゴシック
 73
               1
 44
0.7828267384257843
  0
POINT
  5
F4
100
AcDbEntity
  8
Defpoints
370
               0
390
0
 62
               0
100
AcDbPoint
 10
-230.00000000000034
 20
-526.3611170317713
 30
0.0
  0
POINT
  5
F5
100
AcDbEntity
  8
Defpoints
370
               0
390
0
 62
               0
100
AcDbPoint
 10
-510.00000000000011
 20
-526.3611170317713
 30
0.0
  0
POINT
  5
F6
100
AcDbEntity
  8
Defpoints
370
               0
390
0
 62
               0
100
AcDbPoint
 10
-510.00000000000011
 20
-441.3611170317713
 30
0.0
  0
ENDBLK
  5
F7
100
AcDbEntity
  8
notes
390
0
100
AcDbBlockEnd
  0
BLOCK
  5
F8
100
AcDbEntity
  8
notes
390
0
100
AcDbBlockBegin
  2
*D15
 70
               1
 10
0.0
 20
0.0
 30
0.0
  3
*D15
  1

  0
LINE
  5
F9
100
AcDbEntity
  8
0
370
              -2
390
0
  6
Continuous
 62
               0
100
AcDbLine
 10
-555.00000000000011
 20
-546.3611170317713
 30
0.0
 11
-840.26704481643026
 21
-546.3611170317713
 31
0.0
  0
LINE
  5
FA
100
AcDbEntity
  8
0
370
              -2
390
0
  6
Continuous
 62
               0
100
AcDbLine
 10
-745.00000000000011
 20
-496.3611170317713
 30
0.0
 11
-840.26704481643026
 21
-496.3611170317713
 31
0.0
  0
LINE
  5
FB
100
AcDbEntity
  8
0
370
              -2
390
0
  6
Continuous
 62
               0
100
AcDbLine
 10
-840.26704481643026
 20
-546.3611170317713
 30
0.0
 11
-840.26704481643026
 21
-496.3611170317713
 31
0.0
  0
CIRCLE
  5
FC
102
{ACAD_REACTORS
330
FD
102
}
100
AcDbEntity
  8
0
370
              -2
390
0
  6
Continuous
 62
               0
100
AcDbCircle
 10
-840.26704481643026
 20
-546.3611170317713
 30
0.0
 40
1.9998779296875
  0
HATCH
  5
FD
100
AcDbEntity
  8
0
370
              -2
390
0
  6
Continuous
 62
               0
100
AcDbHatch
 10
0.0
 20
0.0
 30
0.0
210
0.0
220
0.0
230
1.0
  2
SOLID
 70
               1
 71
               1
 91
        1
 92
        1
 93
        1
 72
               2
 10
-840.26704481643026
 20
-546.3611170317713
 40
1.9998779296875
 50
0.0
 51
360.0
 73
               0
 97
        1
330
FC
 75
               0
 76
               1
 98
        1
 10
0.0
 20
0.0
  0
CIRCLE
  5
FE
102
{ACAD_REACTORS
330
FF
102
}
100
AcDbEntity
  8
0
370
              -2
390
0
  6
Continuous
 62
               0
100
AcDbCircle
 10
-840.26704481643026
 20
-496.3611170317713
 30
0.0
 40
1.9998779296875
  0
HATCH
  5
FF
100
AcDbEntity
  8
0
370
              -2
390
0
  6
Continuous
 62
               0
100
AcDbHatch
 10
0.0
 20
0.0
 30
0.0
210
0.0
220
0.0
230
1.0
  2
SOLID
 70
               1
 71
               1
 91
        1
 92
        1
 93
        1
 72
               2
 10
-840.26704481643026
 20
-496.3611170317713
 40
1.9998779296875
 50
0.0
 51
360.0
 73
               0
 97
        1
330
FE
 75
               0
 76
               1
 98
        1
 10
0.0
 20
0.0
  0
MTEXT
  5
100
100
AcDbEntity
  8
0
390
0
 62
               0
100
AcDbMText
 10
-874.14466200393019
 20
-537.2361170317713
 30
0.0
 40
24.432617187500004
 41
0.0
 71
               1
 72
               1
  1
50
  7
ＭＳ ゴシック
 11
0.0
 21
1.0
 31
0.0
 73
               1
 44
0.7828267384257843
  0
POINT
  5
101
100
AcDbEntity
  8
Defpoints
370
               0
390
0
 62
               0
100
AcDbPoint
 10
-720.00000000000011
 20
-496.3611170317713
 30
0.0
  0
POINT
  5
102
100
AcDbEntity
  8
Defpoints
370
               0
390
0
 62
               0
100
AcDbPoint
 10
-530.00000000000011
 20
-546.3611170317713
 30
0.0
  0
POINT
  5
103
100
AcDbEntity
  8
Defpoints
370
               0
390
0
 62
               0
100
AcDbPoint
 10
-840.26704481643026
 20
-546.3611170317713
 30
0.0
  0
ENDBLK
  5
104
100
AcDbEntity
  8
notes
390
0
100
AcDbBlockEnd
  0
BLOCK
  5
105
100
AcDbEntity
  8
ADF70-0611
390
0
100
AcDbBlockBegin
  2
グループ-1
 70
               0
 10
0.0
 20
0.0
 30
0.0
  3
グループ-1
  1

  0
LINE
  5
106
100
AcDbEntity
  8
0
370
              15
390
0
  6
Continuous
 62
               7
100
AcDbLine
 10
-65.143366293150109
 20
1754.2248672411306
 30
0.0
 11
-84.479364828306359
 21
1795.6891569063528
 31
0.0
  0
ARC
  5
107
100
AcDbEntity
  8
0
370
              15
390
0
  6
Continuous
 62
               7
100
AcDbCircle
 10
-79.114050426914389
 20
1798.2710763985524
 30
0.0
 40
5.9542343663968804
100
AcDbArc
 50
89.300664076739693
 51
205.69798879418818
  0
ENDBLK
  5
108
100
AcDbEntity
  8
ADF70-0611
390
0
100
AcDbBlockEnd
  0
ENDSEC
  0
SECTION
  2
ENTITIES
  0
MTEXT
  5
109
100
AcDbEntity
  8
template
390
0
 62
               7
100
AcDbMText
 10
-967.9999999997591
 20
-1147.4176292337004
 30
0.0
 40
16.288411458333332
 41
0.0
 71
               1
 72
               1
  1
品名
  7
ＭＳ ゴシック
 73
               1
 44
0.7828267384257843
  0
MTEXT
  5
10A
100
AcDbEntity
  8
template
390
0
 62
               7
100
AcDbMText
 10
-967.9999999997591
 20
-1232.4176292337004
 30
0.0
 40
16.288411458333332
 41
0.0
 71
               1
 72
               1
  1
仕様
  7
ＭＳ ゴシック
 73
               1
 44
0.7828267384257843
  0
MTEXT
  5
10B
100
AcDbEntity
  8
template
390
0
 62
               7
100
AcDbMText
 10
-914.9999999997591
 20
-1176.0000901712006
 30
0.0
 40
24.432617187500004
 41
0.0
 71
               1
 72
               1
  1
洗面器 -CATALANO,Verso-
  7
ＭＳ ゴシック
 73
               1
 44
0.7828267384257843
  0
LINE
  5
10C
100
AcDbEntity
  8
template
370
               5
390
0
  6
Continuous
 62
               7
100
AcDbLine
 10
974.99999999975876
 20
-1224.0027073587005
 30
0.0
 11
-975.00000000024113
 21
-1224.0027073587005
 31
0.0
  0
LWPOLYLINE
  5
10D
100
AcDbEntity
  8
template
370
               5
390
0
  6
Continuous
 62
               7
100
AcDbPolyline
 90
        5
 70
             128
 10
975.00000000024124
 20
1405.9972926412997
 10
-974.9999999997591
 20
1405.9972926412997
 10
-974.9999999997591
 20
-1394.0027073587005
 10
975.00000000024124
 20
-1394.0027073587005
 10
975.00000000024124
 20
1405.9972926412997
  0
LINE
  5
10E
100
AcDbEntity
  8
template
370
               5
390
0
  6
Continuous
 62
               7
100
AcDbLine
 10
974.99999999975876
 20
-1139.0027073587005
 30
0.0
 11
-975.00000000024113
 21
-1139.0027073587005
 31
0.0
  0
LINE
  5
10F
100
AcDbEntity
  8
template
370
               5
390
0
  6
Continuous
 62
               7
100
AcDbLine
 10
975.00000000024124
 20
-1309.0027073587005
 30
0.0
 11
222.00000000024124
 21
-1309.0027073587005
 31
0.0
  0
MTEXT
  5
110
100
AcDbEntity
  8
template
390
0
 62
               7
100
AcDbMText
 10
-974.99999999955583
 20
-1405.8565294155574
 30
0.0
 40
21.717881944444446
 41
0.0
 71
               1
 72
               1
  1
100707SH
  7
ＭＳ ゴシック
 73
               1
 44
0.7828267384257843
  0
MTEXT
  5
111
100
AcDbEntity
  8
template
390
0
 62
               7
100
AcDbMText
 10
251.87140625250089
 20
-1338.9131018320081
 30
0.0
 40
24.432617187500004
 41
0.0
 71
               1
 72
               1
  1
大洋金物株式会社 ティーフォルム事業部
  7
ＭＳ ゴシック
 73
               1
 44
0.7828267384257843
  0
INSERT
  5
112
100
AcDbEntity
  8
template
390
0
 62
               7
100
AcDbBlockReference
  2
グループ
 10
377.23319305391658
 20
-2300.6107322154289
 30
0.0
  0
MTEXT
  5
113
100
AcDbEntity
  8
template
390
0
 62
               7
100
AcDbMText
 10
784.00000000049999
 20
-1261.0000901712006
 30
0.0
 40
24.432617187500004
 41
0.0
 71
               1
 72
               1
  1
1:10
  7
ＭＳ ゴシック
 73
               1
 44
0.7828267384257843
  0
MTEXT
  5
114
100
AcDbEntity
  8
template
390
0
 62
               7
100
AcDbMText
 10
731.00000000049999
 20
-1232.4176292337004
 30
0.0
 40
16.288411458333332
 41
0.0
 71
               1
 72
               1
  1
縮尺
  7
ＭＳ ゴシック
 73
               1
 44
0.7828267384257843
  0
LINE
  5
115
100
AcDbEntity
  8
template
370
               5
390
0
  6
Continuous
 62
               7
100
AcDbLine
 10
724.00000000049999
 20
-1309.0027073587005
 30
0.0
 11
724.00000000049999
 21
-1224.0027073587005
 31
0.0
  0
MTEXT
  5
116
100
AcDbEntity
  8
template
390
0
 62
               7
100
AcDbMText
 10
480.00000000049999
 20
-1232.4176292337004
 30
0.0
 40
16.288411458333332
 41
0.0
 71
               1
 72
               1
  1
容量
  7
ＭＳ ゴシック
 73
               1
 44
0.7828267384257843
  0
MTEXT
  5
117
100
AcDbEntity
  8
template
390
0
 62
               7
100
AcDbMText
 10
533.00000000049999
 20
-1261.0000901712006
 30
0.0
 40
24.432617187500004
 41
0.0
 71
               1
 72
               1
  1
20L
  7
ＭＳ ゴシック
 73
               1
 44
0.7828267384257843
  0
LINE
  5
118
100
AcDbEntity
  8
template
370
               5
390
0
  6
Continuous
 62
               7
100
AcDbLine
 10
473.00000000049999
 20
-1309.0027073587005
 30
0.0
 11
473.00000000049999
 21
-1224.0027073587005
 31
0.0
  0
MTEXT
  5
119
100
AcDbEntity
  8
template
390
0
 62
               7
100
AcDbMText
 10
229.00000000049999
 20
-1147.4176292337004
 30
0.0
 40
16.288411458333332
 41
0.0
 71
               1
 72
               1
  1
品番
  7
ＭＳ ゴシック
 73
               1
 44
0.7828267384257843
  0
MTEXT
  5
11A
100
AcDbEntity
  8
template
390
0
 62
               7
100
AcDbMText
 10
229.00000000049999
 20
-1232.4176292337004
 30
0.0
 40
16.288411458333332
 41
0.0
 71
               1
 72
               1
  1
重量
  7
ＭＳ ゴシック
 73
               1
 44
0.7828267384257843
  0
MTEXT
  5
11B
100
AcDbEntity
  8
template
390
0
 62
               7
100
AcDbMText
 10
282.00000000049999
 20
-1176.0000901712006
 30
0.0
 40
24.432617187500004
 41
0.0
 71
               1
 72
               1
  1
ADF70-0611
  7
ＭＳ ゴシック
 73
               1
 44
0.7828267384257843
  0
MTEXT
  5
11C
100
AcDbEntity
  8
template
390
0
 62
               7
100
AcDbMText
 10
282.00000000049999
 20
-1261.0000901712006
 30
0.0
 40
24.432617187500004
 41
0.0
 71
               1
 72
               1
  1
22kg
  7
ＭＳ ゴシック
 73
               1
 44
0.7828267384257843
  0
LINE
  5
11D
100
AcDbEntity
  8
template
370
               5
390
0
  6
Continuous
 62
               7
100
AcDbLine
 10
222.00000000049999
 20
-1394.0027073587005
 30
0.0
 11
222.00000000049999
 21
-1139.0027073587005
 31
0.0
  0
MTEXT
  5
11E
100
AcDbEntity
  8
notes
390
0
 62
               7
100
AcDbMText
 10
-758.7105637953656
 20
89.92481681029949
 30
0.0
 40
24.432617187500004
 41
833.92979864183906
 71
               1
 72
               1
  1
＝φ30もしくはφ35の水栓取付用穴あけ加工を承ります。\P  必要な場合、ご注文の際にご指示ください。
  7
ＭＳ ゴシック
 73
               1
 44
1.0437689845677123
  0
MTEXT
  5
11F
100
AcDbEntity
  8
notes
390
0
 62
               7
100
AcDbMText
 10
-186.92503746542138
 20
-411.35125802560765
 30
0.0
 40
24.432617187500004
 41
0.0
 71
               1
 72
               1
  1
壁取付ボルト穴(2ヶ所)
  7
ＭＳ ゴシック
 73
               1
 44
0.7828267384257843
  0
LINE
  5
120
100
AcDbEntity
  8
notes
370
               5
390
0
  6
Continuous
 62
               7
100
AcDbLine
 10
-230.00000000000034
 20
-546.3611170317713
 30
0.0
 11
-169.79362092700308
 21
-444.02215745225158
 31
0.0
  0
CIRCLE
  5
121
100
AcDbEntity
  8
notes
370
              15
390
0
  6
STYLE_12
 62
               7
100
AcDbCircle
 10
-784.73053370006244
 20
79.886071886918671
 30
0.0
 40
17.500000000000227
  0
DIMENSION
  5
122
100
AcDbEntity
  8
notes
370
               5
390
0
  6
Continuous
 62
               7
100
AcDbDimension
  2
*D3
 10
-719.99999999999989
 20
1014.5491248825579
 30
0.0
 11
-369.99999999999989
 21
1019.5491248825579
 31
0.0
 70
             128
 71
               5
 72
               1
 41
1.0
 42
0.0
  3
tfrom線あり
100
AcDbAlignedDimension
 13
-20.0
 23
861.43532716994696
 33
0.0
 14
-719.99999999999989
 24
861.4353271699465
 34
0.0
100
AcDbRotatedDimension
1001
ACAD
1000
DSTYLE
1002
{
1070
             279
1070
               2
1070
             340
1005
32
1070
             147
1040
5.0
1002
}
  0
DIMENSION
  5
123
100
AcDbEntity
  8
notes
370
               5
390
0
  6
Continuous
 62
               7
100
AcDbDimension
  2
*D4
 10
-370.00000000000193
 20
924.54912488255786
 30
0.0
 11
-420.00000000000193
 21
924.54912488255786
 31
0.0
 71
               5
 72
               1
 41
1.0
 42
0.0
  3
tfrom線あり
100
AcDbAlignedDimension
 13
-470.00000000000193
 23
801.4353271699465
 33
0.0
 14
-370.00000000000193
 24
803.9353271699465
 34
0.0
100
AcDbRotatedDimension
1001
ACAD
1000
DSTYLE
1002
{
1070
             279
1070
               2
1070
             340
1005
32
1070
             147
1040
5.0
1002
}
  0
DIMENSION
  5
124
100
AcDbEntity
  8
notes
370
               5
390
0
  6
Continuous
 62
               7
100
AcDbDimension
  2
*D5
 10
-370.00000000000193
 20
924.54912488255786
 30
0.0
 11
-320.00000000000193
 21
924.54912488255786
 31
0.0
 71
               5
 72
               1
 41
1.0
 42
0.0
  3
tfrom線あり
100
AcDbAlignedDimension
 13
-270.00000000000193
 23
801.43532716994605
 33
0.0
 14
-370.00000000000193
 24
803.9353271699465
 34
0.0
100
AcDbRotatedDimension
1001
ACAD
1000
DSTYLE
1002
{
1070
             279
1070
               2
1070
             340
1005
32
1070
             147
1040
5.0
1002
}
  0
DIMENSION
  5
125
100
AcDbEntity
  8
notes
370
               5
390
0
  6
Continuous
 62
               7
100
AcDbDimension
  2
*D6
 10
106.73295518356963
 20
864.43532716994696
 30
0.0
 11
106.73295518356963
 21
564.43532716994696
 31
0.0
 71
               5
 72
               1
 41
1.0
 42
0.0
  3
tfrom線あり
100
AcDbAlignedDimension
 13
-30.0
 23
264.4353271699465
 33
0.0
 14
-23.0
 24
864.43532716994696
 34
0.0
 50
90.0
100
AcDbRotatedDimension
1001
ACAD
1000
DSTYLE
1002
{
1070
             279
1070
               2
1070
             340
1005
32
1070
             147
1040
5.0
1002
}
  0
DIMENSION
  5
126
100
AcDbEntity
  8
notes
370
               5
390
0
  6
Continuous
 62
               7
100
AcDbDimension
  2
*D7
 10
-600.00000000000011
 20
148.54912488255786
 30
0.0
 11
-370.0
 21
148.54912488255786
 31
0.0
 71
               5
 72
               1
 41
1.0
 42
0.0
  3
tfrom線あり
100
AcDbAlignedDimension
 13
-139.99999999999989
 23
264.43532716994696
 33
0.0
 14
-600.00000000000011
 24
264.43532716994696
 34
0.0
100
AcDbRotatedDimension
1001
ACAD
1000
DSTYLE
1002
{
1070
             279
1070
               2
1070
             340
1005
32
1070
             147
1040
5.0
1002
}
  0
DIMENSION
  5
127
100
AcDbEntity
  8
notes
370
               5
390
0
  6
Continuous
 62
               7
100
AcDbDimension
  2
*D8
 10
-853.26704481643026
 20
864.4353271699465
 30
0.0
 11
-853.26704481643026
 21
804.43532716994605
 31
0.0
 71
               5
 72
               1
 41
1.0
 42
0.0
  3
tfrom線あり
100
AcDbAlignedDimension
 13
-720.00000000000011
 23
744.43532716994605
 33
0.0
 14
-716.99999999999989
 24
864.4353271699465
 34
0.0
 50
90.0
100
AcDbRotatedDimension
1001
ACAD
1000
DSTYLE
1002
{
1070
             279
1070
               2
1070
             340
1005
32
1070
             147
1040
5.0
1002
}
  0
DIMENSION
  5
128
100
AcDbEntity
  8
notes
370
               5
390
0
  6
Continuous
 62
               7
100
AcDbDimension
  2
*D9
 10
-853.26704481643026
 20
744.43532716994605
 30
0.0
 11
-853.26704481643026
 21
504.4353271699465
 31
0.0
 71
               5
 72
               1
 41
1.0
 42
0.0
  3
tfrom線あり
100
AcDbAlignedDimension
 13
-709.99999999999966
 23
264.43532716994696
 33
0.0
 14
-720.00000000000011
 24
744.43532716994605
 34
0.0
 50
90.0
100
AcDbRotatedDimension
1001
ACAD
1000
DSTYLE
1002
{
1070
             279
1070
               2
1070
             340
1005
32
1070
             147
1040
5.0
1002
}
  0
DIMENSION
  5
129
100
AcDbEntity
  8
notes
370
               5
390
0
  6
Continuous
 62
               7
100
AcDbDimension
  2
*D10
 10
891.64379891933754
 20
-384.18542145047968
 30
0.0
 11
858.87699197325423
 21
-379.18542145047968
 31
0.0
 70
             128
 71
               5
 72
               1
 41
1.0
 42
0.0
  3
tfrom線あり
100
AcDbAlignedDimension
 13
821.64379891933754
 23
-496.34570278961428
 33
0.0
 14
891.64379891933754
 24
-496.34570278961428
 34
0.0
100
AcDbRotatedDimension
1001
ACAD
1000
DSTYLE
1002
{
1070
             279
1070
               2
1070
             340
1005
32
1070
             147
1040
5.0
1002
}
  0
DIMENSION
  5
12A
100
AcDbEntity
  8
notes
370
               5
390
0
  6
Continuous
 62
               7
100
AcDbDimension
  2
*D11
 10
892.16600106749252
 20
-768.18542145047968
 30
0.0
 11
792.16600106749252
 21
-768.18542145047968
 31
0.0
 71
               5
 72
               1
 41
1.0
 42
0.0
  3
tfrom線あり
100
AcDbAlignedDimension
 13
692.16600106749252
 23
-666.34570278961428
 33
0.0
 14
892.16600106749252
 24
-666.34570278961428
 34
0.0
100
AcDbRotatedDimension
1001
ACAD
1000
DSTYLE
1002
{
1070
             279
1070
               2
1070
             340
1005
32
1070
             147
1040
5.0
1002
}
  0
DIMENSION
  5
12B
100
AcDbEntity
  8
notes
370
               5
390
0
  6
Continuous
 62
               7
100
AcDbDimension
  2
*D12
 10
218.87699197325418
 20
-496.38586497429833
 30
0.0
 11
218.87699197325418
 21
-521.38586497429833
 31
0.0
 71
               5
 72
               1
 41
1.0
 42
0.0
  3
tfrom線あり
100
AcDbAlignedDimension
 13
312.08982676076647
 23
-546.38586497429833
 33
0.0
 14
298.19181650686022
 24
-496.38586497429833
 34
0.0
 50
90.0
100
AcDbRotatedDimension
1001
ACAD
1000
DSTYLE
1002
{
1070
             279
1070
               2
1070
             340
1005
32
1070
             147
1040
5.0
1002
}
  0
DIMENSION
  5
12C
100
AcDbEntity
  8
notes
370
               5
390
0
  6
Continuous
 62
               7
100
AcDbDimension
  2
*D13
 10
100.73295518356963
 20
-496.3611170317713
 30
0.0
 11
100.73295518356963
 21
-576.3611170317713
 31
0.0
 71
               5
 72
               1
 41
1.0
 42
0.0
  3
tfrom線あり
100
AcDbAlignedDimension
 13
-131.55400085449241
 23
-656.3611170317713
 33
0.0
 14
-20.000000000000227
 24
-496.3611170317713
 34
0.0
 50
90.0
100
AcDbRotatedDimension
1001
ACAD
1000
DSTYLE
1002
{
1070
             279
1070
               2
1070
             340
1005
32
1070
             147
1040
5.0
1002
}
  0
DIMENSION
  5
12D
100
AcDbEntity
  8
notes
370
               5
390
0
  6
Continuous
 62
               7
100
AcDbDimension
  2
*D14
 10
-510.00000000000011
 20
-441.3611170317713
 30
0.0
 11
-370.00000000000023
 21
-441.3611170317713
 31
0.0
 71
               5
 72
               1
 41
1.0
 42
0.0
  3
tfrom線あり
100
AcDbAlignedDimension
 13
-230.00000000000034
 23
-526.3611170317713
 33
0.0
 14
-510.00000000000011
 24
-526.3611170317713
 34
0.0
100
AcDbRotatedDimension
1001
ACAD
1000
DSTYLE
1002
{
1070
             279
1070
               2
1070
             340
1005
32
1070
             147
1040
5.0
1002
}
  0
DIMENSION
  5
12E
100
AcDbEntity
  8
notes
370
               5
390
0
  6
Continuous
 62
               7
100
AcDbDimension
  2
*D15
 10
-840.26704481643026
 20
-546.3611170317713
 30
0.0
 11
-840.26704481643026
 21
-521.3611170317713
 31
0.0
 71
               5
 72
               1
 41
1.0
 42
0.0
  3
tfrom線あり
100
AcDbAlignedDimension
 13
-720.00000000000011
 23
-496.3611170317713
 33
0.0
 14
-530.00000000000011
 24
-546.3611170317713
 34
0.0
 50
90.0
100
AcDbRotatedDimension
1001
ACAD
1000
DSTYLE
1002
{
1070
             279
1070
               2
1070
             340
1005
32
1070
             147
1040
5.0
1002
}
  0
MTEXT
  5
12F
100
AcDbEntity
  8
notes
390
0
 62
               7
100
AcDbMText
 10
-914.9999999997591
 20
-1261.0000901712003
 30
0.0
 40
24.432617187500004
 41
0.0
 71
               1
 72
               1
  1
壁掛け/オーバーフローなし/壁取付ボルト付属/\P陶器/ホワイト/車いす対応品
  7
ＭＳ ゴシック
 73
               1
 44
1.3047112307096407
  0
LINE
  5
130
100
AcDbEntity
  8
ADF70-0611
370
              15
390
0
  6
Continuous
 62
               7
100
AcDbLine
 10
-716.99999999999989
 20
864.4353271699465
 30
0.0
 11
-23.0
 21
864.43532716994696
 31
0.0
  0
LINE
  5
131
100
AcDbEntity
  8
ADF70-0611
370
              15
390
0
  6
Continuous
 62
               7
100
AcDbLine
 10
-720.00000000000011
 20
274.43532716994696
 30
0.0
 11
-719.99999999999989
 21
861.4353271699465
 31
0.0
  0
LINE
  5
132
100
AcDbEntity
  8
ADF70-0611
370
              15
390
0
  6
Continuous
 62
               7
100
AcDbLine
 10
-600.00000000000034
 20
274.43532716994696
 30
0.0
 11
-599.99999999999989
 21
624.43532716994605
 31
0.0
  0
ARC
  5
133
100
AcDbEntity
  8
ADF70-0611
370
              15
390
0
  6
Continuous
 62
               7
100
AcDbCircle
 10
-709.99999999999989
 20
274.43532716994696
 30
0.0
 40
9.9999999999997726
100
AcDbArc
 50
180.0
 51
270.00000000000131
  0
ARC
  5
134
100
AcDbEntity
  8
ADF70-0611
370
              15
390
0
  6
Continuous
 62
               7
100
AcDbCircle
 10
-609.99999999999989
 20
274.43532716994696
 30
0.0
 40
10.0
100
AcDbArc
 50
269.99999999999932
 51
0.0
  0
LINE
  5
135
100
AcDbEntity
  8
ADF70-0611
370
              15
390
0
  6
Continuous
 62
               7
100
AcDbLine
 10
-710.00000000000011
 20
264.43532716994696
 30
0.0
 11
-610.00000000000034
 21
264.43532716994696
 31
0.0
  0
LINE
  5
136
100
AcDbEntity
  8
ADF70-0611
370
              15
390
0
  6
Continuous
 62
               7
100
AcDbLine
 10
-609.98570291948693
 20
264.43532716994696
 30
0.0
 11
-610.00000000000034
 21
264.43532716994696
 31
0.0
  0
LINE
  5
137
100
AcDbEntity
  8
ADF70-0611
370
              15
390
0
  6
Continuous
 62
               7
100
AcDbLine
 10
-140.0
 20
274.4353271699465
 30
0.0
 11
-140.0
 21
624.4353271699465
 31
0.0
  0
LINE
  5
138
100
AcDbEntity
  8
ADF70-0611
370
              15
390
0
  6
Continuous
 62
               7
100
AcDbLine
 10
-20.0
 20
274.4353271699465
 30
0.0
 11
-20.0
 21
861.43532716994696
 31
0.0
  0
ARC
  5
139
100
AcDbEntity
  8
ADF70-0611
370
              15
390
0
  6
Continuous
 62
               7
100
AcDbCircle
 10
-130.0
 20
274.43532716994696
 30
0.0
 40
9.9999999999998863
100
AcDbArc
 50
180.0
 51
270.0
  0
ARC
  5
13A
100
AcDbEntity
  8
ADF70-0611
370
              15
390
0
  6
Continuous
 62
               7
100
AcDbCircle
 10
-30.0
 20
274.43532716994696
 30
0.0
 40
10.0
100
AcDbArc
 50
270.0
 51
0.0
  0
LINE
  5
13B
100
AcDbEntity
  8
ADF70-0611
370
              15
390
0
  6
Continuous
 62
               7
100
AcDbLine
 10
-130.0
 20
264.4353271699465
 30
0.0
 11
-30.0
 21
264.4353271699465
 31
0.0
  0
LINE
  5
13C
100
AcDbEntity
  8
ADF70-0611
370
              15
390
0
  6
Continuous
 62
               7
100
AcDbLine
 10
-130.01429708051273
 20
264.4353271699465
 30
0.0
 11
-130.0
 21
264.4353271699465
 31
0.0
  0
CIRCLE
  5
13D
100
AcDbEntity
  8
ADF70-0611
370
              15
390
0
  6
Continuous
 62
               7
100
AcDbCircle
 10
-370.00000000000057
 20
666.41969228784455
 30
0.0
 40
23.0
  0
CIRCLE
  5
13E
100
AcDbEntity
  8
ADF70-0611
370
              15
390
0
  6
Continuous
 62
               7
100
AcDbCircle
 10
-370.00000000000057
 20
666.41969228784455
 30
0.0
 40
38.0
  0
LINE
  5
13F
100
AcDbEntity
  8
ADF70-0611
370
              15
390
0
  6
Continuous
 62
               7
100
AcDbLine
 10
-146.09172837025562
 20
536.67124726560178
 30
0.0
 11
-593.90827162974426
 21
536.67124726560269
 31
0.0
  0
LINE
  5
140
100
AcDbEntity
  8
ADF70-0611
370
              15
390
0
  6
Continuous
 62
               7
100
AcDbLine
 10
-260.00000000000011
 20
744.4353271699465
 30
0.0
 11
-479.99999999999989
 21
744.43532716994605
 31
0.0
  0
ARC
  5
141
100
AcDbEntity
  8
ADF70-0611
370
              15
390
0
  6
Continuous
 62
               7
100
AcDbCircle
 10
-260.00000000000011
 20
624.4353271699465
 30
0.0
 40
120.00000000000011
100
AcDbArc
 50
0.0
 51
90.0
  0
ARC
  5
142
100
AcDbEntity
  8
ADF70-0611
370
              15
390
0
  6
Continuous
 62
               7
100
AcDbCircle
 10
-479.99999999999966
 20
624.43532716994605
 30
0.0
 40
120.0
100
AcDbArc
 50
90.0
 51
180.0
  0
ARC
  5
143
100
AcDbEntity
  8
ADF70-0611
370
              15
390
0
  6
Continuous
 62
               7
100
AcDbCircle
 10
-716.99999999999989
 20
861.4353271699465
 30
0.0
 40
3.0
100
AcDbArc
 50
90.0
 51
180.0
  0
ARC
  5
144
100
AcDbEntity
  8
ADF70-0611
370
              15
390
0
  6
Continuous
 62
               7
100
AcDbCircle
 10
-23.0
 20
861.43532716994696
 30
0.0
 40
3.0
100
AcDbArc
 50
0.0
 51
90.0
  0
ARC
  5
145
100
AcDbEntity
  8
ADF70-0611
370
              15
390
0
  6
Continuous
 62
               7
100
AcDbCircle
 10
-130.01429708051273
 20
274.43532716994696
 30
0.0
 40
9.9999999999998845
100
AcDbArc
 50
250.99023329098728
 51
270.0
  0
ARC
  5
146
100
AcDbEntity
  8
ADF70-0611
370
              15
390
0
  6
Continuous
 62
               7
100
AcDbCircle
 10
-609.98570291948693
 20
274.43532716994696
 30
0.0
 40
10.0
100
AcDbArc
 50
270.0
 51
289.00976670901338
  0
LINE
  5
147
100
AcDbEntity
  8
ADF70-0611
370
              15
390
0
  6
Continuous
 62
               7
100
AcDbLine
 10
-610.00000000000034
 20
264.43532716994696
 30
0.0
 11
-130.0
 21
264.4353271699465
 31
0.0
  0
POLYLINE
  5
148
100
AcDbEntity
  8
ADF70-0611
370
              15
390
0
  6
Continuous
 62
               7
100
AcDb2dPolyline
 66
               1
 10
0.0
 20
0.0
 30
0.0
 70
               1
 75
               5
  0
VERTEX
  5
149
100
AcDbEntity
  8
ADF70-0611
370
              15
390
0
  6
Continuous
 62
               7
100
AcDbVertex
100
AcDb2dVertex
 10
-720.00000000000011
 20
-496.3611170317713
 30
0.0
  0
VERTEX
  5
14A
100
AcDbEntity
  8
ADF70-0611
370
              15
390
0
  6
Continuous
 62
               7
100
AcDbVertex
100
AcDb2dVertex
 10
-20.000000000000227
 20
-496.3611170317713
 30
0.0
  0
VERTEX
  5
14B
100
AcDbEntity
  8
ADF70-0611
370
              15
390
0
  6
Continuous
 62
               7
100
AcDbVertex
100
AcDb2dVertex
 10
-20.000000000000227
 20
-546.3611170317713
 30
0.0
  0
VERTEX
  5
14C
100
AcDbEntity
  8
ADF70-0611
370
              15
390
0
  6
Continuous
 62
               7
100
AcDbVertex
100
AcDb2dVertex
 10
-720.00000000000011
 20
-546.3611170317713
 30
0.0
  0
SEQEND
  5
14D
100
AcDbEntity
  8
ADF70-0611
370
              15
390
0
  6
Continuous
 62
               7
  0
LINE
  5
14E
100
AcDbEntity
  8
ADF70-0611
370
              15
390
0
  6
Continuous
 62
               7
100
AcDbLine
 10
-618.0540008544923
 20
-552.15171685476935
 30
0.0
 11
-614.44200134277355
 21
-650.57011666556036
 31
0.0
  0
ARC
  5
14F
100
AcDbEntity
  8
ADF70-0611
370
              15
390
0
  6
Continuous
 62
               7
100
AcDbCircle
 10
-608.4028305538011
 20
-650.31678953172559
 30
0.0
 40
6.0444816531374412
100
AcDbArc
 50
182.401997212357
 51
269.59080045556345
  0
ARC
  5
150
100
AcDbEntity
  8
ADF70-0611
370
              15
390
0
  6
Continuous
 62
               7
100
AcDbCircle
 10
-624.26462811698946
 20
-552.58300039340202
 30
0.0
 40
6.2255840275727081
100
AcDbArc
 50
3.9724039338694705
 51
88.024354417880971
  0
LINE
  5
151
100
AcDbEntity
  8
ADF70-0611
370
              15
390
0
  6
STYLE_12
 62
               7
100
AcDbLine
 10
-609.23319305391669
 20
-503.75038481634192
 30
0.0
 11
-606.16200256347668
 21
-606.25411477347052
 31
0.0
  0
LINE
  5
152
100
AcDbEntity
  8
ADF70-0611
370
              15
390
0
  6
STYLE_12
 62
               7
100
AcDbLine
 10
-586.07170535584294
 20
-626.35802873863986
 30
0.0
 11
-501.23319305391669
 21
-626.35802873863986
 31
0.0
  0
LINE
  5
153
100
AcDbEntity
  8
ADF70-0611
370
              15
390
0
  6
STYLE_12
 62
               7
100
AcDbLine
 10
-501.23319305391669
 20
-626.35802873863986
 30
0.0
 11
-485.06459808349621
 21
-626.73811593313849
 31
0.0
  0
LINE
  5
154
100
AcDbEntity
  8
ADF70-0611
370
              15
390
0
  6
STYLE_12
 62
               7
100
AcDbLine
 10
-405.2215972281781
 20
-637.13112130423224
 30
0.0
 11
-393.95324710381897
 21
-646.61010995169318
 31
0.0
  0
LINE
  5
155
100
AcDbEntity
  8
ADF70-0611
370
              15
390
0
  6
Continuous
 62
               7
100
AcDbLine
 10
-608.44599914550793
 20
-656.3611170317713
 30
0.0
 11
-286.26704481643048
 21
-656.3611170317713
 31
0.0
  0
ARC
  5
156
100
AcDbEntity
  8
ADF70-0611
370
              15
390
0
  6
Continuous
 62
               7
100
AcDbCircle
 10
-608.4028305538011
 20
-650.31678953172559
 30
0.0
 40
6.0444816531374412
100
AcDbArc
 50
182.401997212357
 51
269.59080045556345
  0
ARC
  5
157
100
AcDbEntity
  8
ADF70-0611
370
              15
390
0
  6
Continuous
 62
               7
100
AcDbCircle
 10
-624.26462811698946
 20
-552.58300039340202
 30
0.0
 40
6.2255840275727081
100
AcDbArc
 50
3.9724039338694705
 51
88.024354417880971
  0
LINE
  5
158
100
AcDbEntity
  8
ADF70-0611
370
              15
390
0
  6
Continuous
 62
               7
100
AcDbLine
 10
-608.44599914550793
 20
-656.3611170317713
 30
0.0
 11
-131.55400085449241
 21
-656.3611170317713
 31
0.0
  0
POLYLINE
  5
159
100
AcDbEntity
  8
ADF70-0611
370
              15
390
0
  6
Continuous
 62
               7
100
AcDb2dPolyline
 66
               1
 10
0.0
 20
0.0
 30
0.0
 70
               1
 75
               5
  0
VERTEX
  5
15A
100
AcDbEntity
  8
ADF70-0611
370
              15
390
0
  6
Continuous
 62
               7
100
AcDbVertex
100
AcDb2dVertex
 10
-720.00000000000011
 20
-496.3611170317713
 30
0.0
  0
VERTEX
  5
15B
100
AcDbEntity
  8
ADF70-0611
370
              15
390
0
  6
Continuous
 62
               7
100
AcDbVertex
100
AcDb2dVertex
 10
-20.000000000000227
 20
-496.3611170317713
 30
0.0
  0
VERTEX
  5
15C
100
AcDbEntity
  8
ADF70-0611
370
              15
390
0
  6
Continuous
 62
               7
100
AcDbVertex
100
AcDb2dVertex
 10
-20.000000000000227
 20
-546.3611170317713
 30
0.0
  0
VERTEX
  5
15D
100
AcDbEntity
  8
ADF70-0611
370
              15
390
0
  6
Continuous
 62
               7
100
AcDbVertex
100
AcDb2dVertex
 10
-720.00000000000011
 20
-546.3611170317713
 30
0.0
  0
SEQEND
  5
15E
100
AcDbEntity
  8
ADF70-0611
370
              15
390
0
  6
Continuous
 62
               7
  0
LINE
  5
15F
100
AcDbEntity
  8
ADF70-0611
370
              15
390
0
  6
Continuous
 62
               7
100
AcDbLine
 10
-121.94599914550804
 20
-552.15171685476935
 30
0.0
 11
-125.2252142817473
 21
-650.58120350140916
 31
0.0
  0
ARC
  5
160
100
AcDbEntity
  8
ADF70-0611
370
              15
390
0
  6
Continuous
 62
               7
100
AcDbCircle
 10
-131.59716944619925
 20
-650.31678953172559
 30
0.0
 40
6.0444816531377432
100
AcDbArc
 50
270.40919954443649
 51
357.59800278764288
  0
ARC
  5
161
100
AcDbEntity
  8
ADF70-0611
370
              15
390
0
  6
Continuous
 62
               7
100
AcDbCircle
 10
-115.73537188301088
 20
-552.58300039340202
 30
0.0
 40
6.225584027572256
100
AcDbArc
 50
91.975645582119057
 51
176.02759606613051
  0
LINE
  5
162
100
AcDbEntity
  8
ADF70-0611
370
              15
390
0
  6
STYLE_12
 62
               7
100
AcDbLine
 10
-130.76680694608365
 20
-503.75038481634192
 30
0.0
 11
-133.83799743652366
 21
-606.25411477347052
 31
0.0
  0
LINE
  5
163
100
AcDbEntity
  8
ADF70-0611
370
              15
390
0
  6
STYLE_12
 62
               7
100
AcDbLine
 10
-153.9282946441574
 20
-626.35802873863986
 30
0.0
 11
-238.76680694608365
 21
-626.35802873863986
 31
0.0
  0
LINE
  5
164
100
AcDbEntity
  8
ADF70-0611
370
              15
390
0
  6
STYLE_12
 62
               7
100
AcDbLine
 10
-238.76680694608365
 20
-626.35802873863986
 30
0.0
 11
-254.93540191650425
 21
-626.73811593313849
 31
0.0
  0
LINE
  5
165
100
AcDbEntity
  8
ADF70-0611
370
              15
390
0
  6
STYLE_12
 62
               7
100
AcDbLine
 10
-334.68489697945984
 20
-637.13112130423224
 30
0.0
 11
-345.95324710381897
 21
-646.61010995169318
 31
0.0
  0
ARC
  5
166
100
AcDbEntity
  8
ADF70-0611
370
              15
390
0
  6
STYLE_12
 62
               7
100
AcDbCircle
 10
-586.176019032304
 20
-606.35408925229467
 30
0.0
 40
20.004211464500845
100
AcDbArc
 50
178.56813268922104
 51
270.29877511063665
  0
LINE
  5
167
100
AcDbEntity
  8
ADF70-0611
370
              15
390
0
  6
Continuous
 62
               7
100
AcDbLine
 10
312.08982676076647
 20
-546.38586497429833
 30
0.0
 11
892.16642796285373
 21
-546.34566657223831
 31
0.0
  0
LINE
  5
168
100
AcDbEntity
  8
ADF70-0611
370
              15
390
0
  6
Continuous
 62
               7
100
AcDbLine
 10
298.19181650686022
 20
-496.38586497429833
 30
0.0
 11
892.16600106749252
 21
-496.34566744930044
 31
0.0
  0
LINE
  5
169
100
AcDbEntity
  8
ADF70-0611
370
              15
390
0
  6
Continuous
 62
               7
100
AcDbLine
 10
892.16600106749252
 20
-496.34570278961428
 30
0.0
 11
892.16600106749252
 21
-666.34570278961428
 31
0.0
  0
LINE
  5
16A
100
AcDbEntity
  8
ADF70-0611
370
              15
390
0
  6
Continuous
 62
               7
100
AcDbLine
 10
605.93783712003528
 20
-665.79578365829775
 30
0.0
 11
359.36548668836912
 21
-546.38561243225149
 31
0.0
  0
LINE
  5
16B
100
AcDbEntity
  8
ADF70-0611
370
              15
390
0
  6
STYLE_12
 62
               7
100
AcDbLine
 10
298.19181650686022
 20
-496.38586497429833
 30
0.0
 11
554.64999459776595
 21
-620.5917049868799
 31
0.0
  0
LINE
  5
16C
100
AcDbEntity
  8
ADF70-0611
370
              15
390
0
  6
STYLE_12
 62
               7
100
AcDbLine
 10
575.24799417051986
 20
-626.3576961978174
 30
0.0
 11
627.87699197325423
 21
-630.96364146446513
 31
0.0
  0
LINE
  5
16D
100
AcDbEntity
  8
ADF70-0611
370
              15
390
0
  6
STYLE_12
 62
               7
100
AcDbLine
 10
630.09381602797225
 20
-631.33270230133303
 30
0.0
 11
653.17151473555282
 21
-636.0917049868799
 31
0.0
  0
LINE
  5
16E
100
AcDbEntity
  8
ADF70-0611
370
              15
390
0
  6
STYLE_12
 62
               7
100
AcDbLine
 10
771.73099587950423
 20
-501.87495293457278
 30
0.0
 11
763.42149804625228
 21
-607.45720257599123
 31
0.0
  0
LINE
  5
16F
100
AcDbEntity
  8
ADF70-0611
370
              15
390
0
  6
STYLE_12
 62
               7
100
AcDbLine
 10
743.64361690077499
 20
-631.64170803863772
 30
0.0
 11
731.07851527723983
 21
-636.04870571930178
 31
0.0
  0
LINE
  5
170
100
AcDbEntity
  8
ADF70-0611
370
              15
390
0
  6
STYLE_12
 62
               7
100
AcDbLine
 10
728.64361629070595
 20
-637.44520535309084
 30
0.0
 11
717.81971477064803
 21
-646.59469570953615
 31
0.0
  0
LINE
  5
171
100
AcDbEntity
  8
ADF70-0611
370
              15
390
0
  6
STYLE_12
 62
               7
100
AcDbLine
 10
668.1659853318663
 20
-650.42469754059084
 30
0.0
 11
668.1659853318663
 21
-661.34570278961428
 31
0.0
  0
LINE
  5
172
100
AcDbEntity
  8
ADF70-0611
370
              15
390
0
  6
Continuous
 62
               7
100
AcDbLine
 10
608.33506455886811
 20
-666.34570278961428
 30
0.0
 11
891.64379891933754
 21
-666.34570278961428
 31
0.0
  0
LINE
  5
173
100
AcDbEntity
  8
ADF70-0611
370
              15
390
0
  6
Continuous
 62
               7
100
AcDbLine
 10
839.66600106749252
 20
-496.34570278961428
 30
0.0
 11
839.66600106749252
 21
-511.34570278961428
 31
0.0
  0
LINE
  5
174
100
AcDbEntity
  8
ADF70-0611
370
              15
390
0
  6
Continuous
 62
               7
100
AcDbLine
 10
839.66600106749252
 20
-496.34570278961428
 30
0.0
 11
839.66600106749252
 21
-511.34570278961428
 31
0.0
  0
LINE
  5
175
100
AcDbEntity
  8
ADF70-0611
370
              15
390
0
  6
Continuous
 62
               7
100
AcDbLine
 10
804.66600106749252
 20
-496.34570278961428
 30
0.0
 11
804.66600106749252
 21
-511.34570278961428
 31
0.0
  0
LINE
  5
176
100
AcDbEntity
  8
ADF70-0611
370
              15
390
0
  6
Continuous
 62
               7
100
AcDbLine
 10
804.66600106749252
 20
-496.34570278961428
 30
0.0
 11
804.66600106749252
 21
-511.34570278961428
 31
0.0
  0
ARC
  5
177
100
AcDbEntity
  8
ADF70-0611
370
              15
390
0
  6
STYLE_12
 62
               7
100
AcDbCircle
 10
573.14258089927011
 20
-594.20453951097761
 30
0.0
 40
32.222014989308619
100
AcDbArc
 50
234.97655761508807
 51
273.7464229858449
  0
ARC
  5
178
100
AcDbEntity
  8
ADF70-0611
370
              15
390
0
  6
STYLE_12
 62
               7
100
AcDbCircle
 10
732.09147561286386
 20
-640.63583778186285
 30
0.0
 40
4.6976450697049579
100
AcDbArc
 50
102.45257968272686
 51
137.21897483877225
  0
ARC
  5
179
100
AcDbEntity
  8
ADF70-0611
370
              15
390
0
  6
STYLE_12
 62
               7
100
AcDbCircle
 10
722.92600756764591
 20
-651.07147725512868
 30
0.0
 40
6.7908614428237488
100
AcDbArc
 50
138.75835459720676
 51
174.53471340458464
  0
LINE
  5
17A
100
AcDbEntity
  8
ADF70-0611
370
              15
390
0
  6
STYLE_12
 62
               7
100
AcDbLine
 10
655.68838584427908
 20
-637.44520535309084
 30
0.0
 11
666.512287364337
 21
-646.59469570953615
 31
0.0
  0
ARC
  5
17B
100
AcDbEntity
  8
ADF70-0611
370
              15
390
0
  6
STYLE_12
 62
               7
100
AcDbCircle
 10
652.24052652212117
 20
-640.63583778186285
 30
0.0
 40
4.6976450697048993
100
AcDbArc
 50
42.781025161227767
 51
77.547420317273165
  0
ARC
  5
17C
100
AcDbEntity
  8
ADF70-0611
370
              15
390
0
  6
STYLE_12
 62
               7
100
AcDbCircle
 10
661.40599456733912
 20
-651.07147725512868
 30
0.0
 40
6.7908614428237559
100
AcDbArc
 50
5.4652865954153471
 51
41.241645402793239
  0
INSERT
  5
17D
100
AcDbEntity
  8
ADF70-0611
390
0
 62
               7
100
AcDbBlockReference
  2
グループ-1
 10
377.23319305391658
 20
-2300.6107322154289
 30
0.0
  0
ARC
  5
17E
100
AcDbEntity
  8
ADF70-0611
370
              15
390
0
  6
STYLE_12
 62
               7
100
AcDbCircle
 10
735.16210893056291
 20
-604.53052100828745
 30
0.0
 40
28.406908308427433
100
AcDbArc
 50
287.37185545800958
 51
354.42400911636213
  0
LINE
  5
17F
100
AcDbEntity
  8
ADF70-0611
370
              15
390
0
  6
STYLE_12
 62
               7
100
AcDbLine
 10
-210.00000000000023
 20
-546.3611170317713
 30
0.0
 11
-250.00000000000034
 21
-546.3611170317713
 31
0.0
  0
LINE
  5
180
100
AcDbEntity
  8
ADF70-0611
370
              15
390
0
  6
STYLE_12
 62
               7
100
AcDbLine
 10
-230.00000000000034
 20
-526.3611170317713
 30
0.0
 11
-230.00000000000034
 21
-566.3611170317713
 31
0.0
  0
LINE
  5
181
100
AcDbEntity
  8
ADF70-0611
370
              15
390
0
  6
STYLE_12
 62
               7
100
AcDbLine
 10
-490.00000000000011
 20
-546.3611170317713
 30
0.0
 11
-530.00000000000011
 21
-546.3611170317713
 31
0.0
  0
LINE
  5
182
100
AcDbEntity
  8
ADF70-0611
370
              15
390
0
  6
STYLE_12
 62
               7
100
AcDbLine
 10
-510.00000000000011
 20
-526.3611170317713
 30
0.0
 11
-510.00000000000011
 21
-566.3611170317713
 31
0.0
  0
CIRCLE
  5
183
100
AcDbEntity
  8
ADF70-0611
370
              15
390
0
  6
STYLE_12
 62
               7
100
AcDbCircle
 10
-230.00000000000034
 20
-546.3611170317713
 30
0.0
 40
10.000000000000114
  0
CIRCLE
  5
184
100
AcDbEntity
  8
ADF70-0611
370
              15
390
0
  6
STYLE_12
 62
               7
100
AcDbCircle
 10
-510.00000000000011
 20
-546.3611170317713
 30
0.0
 40
10.0
  0
ARC
  5
185
100
AcDbEntity
  8
ADF70-0611
370
              15
390
0
  6
Continuous
 62
               7
100
AcDbCircle
 10
608.335064558868
 20
-660.84570278961428
 30
0.0
 40
5.4999999999998703
100
AcDbArc
 50
244.1600000000002
 51
270.00000000000114
  0
LINE
  5
186
100
AcDbEntity
  8
ADF70-0611
370
              15
390
0
  6
STYLE_12
 62
               7
100
AcDbLine
 10
716.16601680311874
 20
-650.42469754059084
 30
0.0
 11
716.16601680311874
 21
-661.34570278961428
 31
0.0
  0
LINE
  5
187
100
AcDbEntity
  8
ADF70-0611
370
              15
390
0
  6
STYLE_12
 62
               7
100
AcDbLine
 10
668.1659853318663
 20
-650.42469754059084
 30
0.0
 11
668.1659853318663
 21
-661.34570278961428
 31
0.0
  0
LINE
  5
188
100
AcDbEntity
  8
ADF70-0611
370
              15
390
0
  6
STYLE_12
 62
               7
100
AcDbLine
 10
-394.00000000000034
 20
-646.4749147443822
 30
0.0
 11
-394.00000000000034
 21
-656.4749147443822
 31
0.0
  0
LINE
  5
189
100
AcDbEntity
  8
ADF70-0611
370
              15
390
0
  6
STYLE_12
 62
               7
100
AcDbLine
 10
-346.00000000000034
 20
-646.3611170317713
 30
0.0
 11
-346.00000000000034
 21
-656.3611170317713
 31
0.0
  0
ARC
  5
18A
100
AcDbEntity
  8
ADF70-0611
370
              15
390
0
  6
STYLE_12
 62
               7
100
AcDbCircle
 10
-244.06721602267976
 20
-1021.3045048246763
 30
0.0
 40
394.71604060074753
100
AcDbArc
 50
91.577792202604059
 51
103.2721627692336
  0
ARC
  5
18B
100
AcDbEntity
  8
ADF70-0611
370
              15
390
0
  6
STYLE_12
 62
               7
100
AcDbCircle
 10
-495.93278397732058
 20
-1021.3045048246763
 30
0.0
 40
394.71604060074753
100
AcDbArc
 50
76.72783723076644
 51
88.422207797395956
  0
ARC
  5
18C
100
AcDbEntity
  8
ADF70-0611
370
              15
390
0
  6
STYLE_12
 62
               7
100
AcDbCircle
 10
-153.82398096769646
 20
-606.35408925229467
 30
0.0
 40
20.004211464500596
100
AcDbArc
 50
269.70122488936335
 51
1.431867310778955
  0
CIRCLE
  5
18D
100
AcDbEntity
  8
ADF70-0611
370
              15
390
0
  6
STYLE_12
 62
               7
100
AcDbCircle
 10
-470.00000000000193
 20
794.4353271699465
 30
0.0
 40
17.5
  0
CIRCLE
  5
18E
100
AcDbEntity
  8
ADF70-0611
370
              15
390
0
  6
STYLE_12
 62
               7
100
AcDbCircle
 10
-270.00000000000193
 20
794.4353271699465
 30
0.0
 40
17.5
  0
CIRCLE
  5
18F
100
AcDbEntity
  8
ADF70-0611
370
              15
390
0
  6
STYLE_12
 62
               7
100
AcDbCircle
 10
-370.00000000000193
 20
794.4353271699465
 30
0.0
 40
17.5
  0
ENDSEC
  0
SECTION
  2
OBJECTS
  0
DICTIONARY
  5
19
100
AcDbDictionary
280
               0
281
               1
  3
ACAD_GROUP
350
1A
  3
ACAD_MLINESTYLE
350
1B
  3
ACAD_LAYOUT
350
1E
  3
ACAD_PLOTSETTINGS
350
22
  3
ACAD_PLOTSTYLENAME
350
1F
  0
DICTIONARY
  5
1A
102
{ACAD_REACTORS
330
19
102
}
100
AcDbDictionary
280
               0
281
               1
  0
DICTIONARY
  5
1B
102
{ACAD_REACTORS
330
19
102
}
100
AcDbDictionary
280
               0
281
               1
  3
Standard
350
1C
  0
MLINESTYLE
  5
1C
102
{ACAD_REACTORS
330
1B
102
}
100
AcDbMlineStyle
  2
Standard
 70
               0
  3

 62
               0
 51
90.0
 52
90.0
 71
               2
 49
0.5
 62
             256
  6
ByLayer
 49
-0.5
 62
             256
  6
ByLayer
  0
ACDBDICTIONARYWDFLT
  5
1F
102
{ACAD_REACTORS
330
19
102
}
100
AcDbDictionary
281
               1
  3
Normal
350
1D
100
AcDbDictionaryWithDefault
340
1D
  0
ACDBPLACEHOLDER
  5
1D
102
{ACAD_REACTORS
330
1F
102
}
  0
LAYOUT
  5
20
102
{ACAD_REACTORS
330
1E
102
}
100
AcDbPlotSettings
  1

  2

  4

  6

 40
0.0
 41
0.0
 42
0.0
 43
0.0
 44
0.0
 45
0.0
 46
0.0
 47
0.0
 48
0.0
 49
0.0
140
0.0
141
0.0
142
1.0
143
1.0
 70
            1024
 72
               0
 73
               0
 74
               0
  7

 75
               0
147
1.0
148
0.0
149
0.0
100
AcDbLayout
  1
Model
 70
               0
 71
               0
 10
0.0
 20
0.0
 11
0.0
 21
0.0
 12
0.0
 22
0.0
 32
0.0
 14
0.0
 24
0.0
 34
0.0
 15
0.0
 25
0.0
 35
0.0
146
0.0
 13
0.0
 23
0.0
 33
0.0
 16
0.0
 26
0.0
 36
0.0
 17
0.0
 27
0.0
 37
0.0
 76
               0
330
A
331
0
345
0
346
0
  0
LAYOUT
  5
21
102
{ACAD_REACTORS
330
1E
102
}
100
AcDbPlotSettings
  1

  2

  4

  6

 40
0.0
 41
0.0
 42
0.0
 43
0.0
 44
0.0
 45
0.0
 46
0.0
 47
0.0
 48
0.0
 49
0.0
140
0.0
141
0.0
142
1.0
143
1.0
 70
               0
 72
               0
 73
               0
 74
               0
  7

 75
               0
147
1.0
148
0.0
149
0.0
100
AcDbLayout
  1
Layout1
 70
               0
 71
               0
 10
0.0
 20
0.0
 11
0.0
 21
0.0
 12
0.0
 22
0.0
 32
0.0
 14
0.0
 24
0.0
 34
0.0
 15
0.0
 25
0.0
 35
0.0
146
0.0
 13
0.0
 23
0.0
 33
0.0
 16
0.0
 26
0.0
 36
0.0
 17
0.0
 27
0.0
 37
0.0
 76
               0
330
B
331
0
345
0
346
0
  0
DICTIONARY
  5
1E
102
{ACAD_REACTORS
330
19
102
}
100
AcDbDictionary
280
               0
281
               1
  3
Layout1
350
21
  3
Model
350
20
  0
DICTIONARY
  5
22
102
{ACAD_REACTORS
330
19
102
}
100
AcDbDictionary
280
               0
281
               1
  0
ENDSEC
  0
EOF
