  0
SECTION
  2
HEADER
  9
$ACADVER
  1
AC1015
  9
$ACADMAINTVER
 70
               6
  9
$DWGCODEPAGE
  3
ANSI_932
  9
$INSBASE
 10
0.0
 20
0.0
 30
0.0
  9
$EXTMIN
 10
-975.00000000024011
 20
-1431.5255224711132
 30
-14.834305555555556
  9
$EXTMAX
 10
975.00000000024011
 20
1405.9972926412993
 30
14.834305555555556
  9
$LIMMIN
 10
0.0
 20
0.0
  9
$LIMMAX
 10
0.0
 20
0.0
  9
$ORTHOMODE
 70
               0
  9
$REGENMODE
 70
               1
  9
$FILLMODE
 70
               1
  9
$QTEXTMODE
 70
               0
  9
$MIRRTEXT
 70
               1
  9
$LTSCALE
 40
5.0800000000000001
  9
$ATTMODE
 70
               1
  9
$TEXTSIZE
 40
0.2
  9
$TRACEWID
 40
1.0
  9
$TEXTSTYLE
  7
Standard
  9
$CLAYER
  8
ADF70-0901
  9
$CELTYPE
  6
Continuous
  9
$CECOLOR
 62
             256
  9
$CELTSCALE
 40
1.0
  9
$DISPSILH
 70
               0
  9
$DIMSCALE
 40
1.0
  9
$DIMASZ
 40
22.4482421875
  9
$DIMEXO
 40
15.875
  9
$DIMDLI
 40
10.16
  9
$DIMRND
 40
0.0
  9
$DIMDLE
 40
1.5874999999999999
  9
$DIMEXE
 40
31.75
  9
$DIMTP
 40
0.0
  9
$DIMTM
 40
0.0
  9
$DIMTXT
 40
21.828125
  9
$DIMCEN
 40
0.0
  9
$DIMTSZ
 40
0.0
  9
$DIMTOL
 70
               0
  9
$DIMLIM
 70
               0
  9
$DIMTIH
 70
               0
  9
$DIMTOH
 70
               0
  9
$DIMSE1
 70
               0
  9
$DIMSE2
 70
               0
  9
$DIMTAD
 70
               1
  9
$DIMZIN
 70
              11
  9
$DIMBLK
  1
VW_SLASH
  9
$DIMASO
 70
               1
  9
$DIMSHO
 70
               1
  9
$DIMPOST
  1
<>
  9
$DIMAPOST
  1
[]
  9
$DIMALT
 70
               0
  9
$DIMALTD
 70
               1
  9
$DIMALTF
 40
1.0
  9
$DIMLFAC
 40
1.0
  9
$DIMTOFL
 70
               1
  9
$DIMTVP
 40
0.0
  9
$DIMTIX
 70
               1
  9
$DIMSOXD
 70
               0
  9
$DIMSAH
 70
               0
  9
$DIMBLK1
  1

  9
$DIMBLK2
  1

  9
$DIMSTYLE
  2
Arch
  9
$DIMCLRD
 70
               0
  9
$DIMCLRE
 70
               0
  9
$DIMCLRT
 70
               0
  9
$DIMTFAC
 40
1.0
  9
$DIMGAP
 40
1.5874999999999999
  9
$DIMJUST
 70
               0
  9
$DIMSD1
 70
               0
  9
$DIMSD2
 70
               0
  9
$DIMTOLJ
 70
               1
  9
$DIMTZIN
 70
              11
  9
$DIMALTZ
 70
              11
  9
$DIMALTTZ
 70
              11
  9
$DIMUPT
 70
               0
  9
$DIMDEC
 70
               1
  9
$DIMTDEC
 70
               1
  9
$DIMALTU
 70
               2
  9
$DIMALTTD
 70
               2
  9
$DIMTXSTY
  7
MS UI Gothic
  9
$DIMAUNIT
 70
               0
  9
$DIMADEC
 70
               2
  9
$DIMALTRND
 40
0.0
  9
$DIMAZIN
 70
               0
  9
$DIMDSEP
 70
              46
  9
$DIMATFIT
 70
               0
  9
$DIMFRAC
 70
               2
  9
$DIMLDRBLK
  1

  9
$DIMLUNIT
 70
               2
  9
$DIMLWD
 70
              -2
  9
$DIMLWE
 70
              -2
  9
$DIMTMOVE
 70
               0
  9
$LUNITS
 70
               2
  9
$LUPREC
 70
               4
  9
$SKETCHINC
 40
0.1
  9
$FILLETRAD
 40
0.0
  9
$AUNITS
 70
               0
  9
$AUPREC
 70
               0
  9
$MENU
  1
acad
  9
$ELEVATION
 40
0.0
  9
$PELEVATION
 40
0.0
  9
$THICKNESS
 40
0.0
  9
$LIMCHECK
 70
               0
  9
$CHAMFERA
 40
0.0
  9
$CHAMFERB
 40
0.0
  9
$CHAMFERC
 40
0.0
  9
$CHAMFERD
 40
0.0
  9
$SKPOLY
 70
               0
  9
$TDCREATE
 40
2456046.424293981
  9
$TDUCREATE
 40
0.000000000
  9
$TDUPDATE
 40
2456046.424293981
  9
$TDUUPDATE
 40
0.000000000
  9
$TDINDWG
 40
0.0000000000
  9
$TDUSRTIMER
 40
0.0000000000
  9
$USRTIMER
 70
               1
  9
$ANGBASE
 50
0.0
  9
$ANGDIR
 70
               0
  9
$PDMODE
 70
               1
  9
$PDSIZE
 40
-2.0
  9
$PLINEWID
 40
0.0
  9
$SPLFRAME
 70
               0
  9
$SPLINETYPE
 70
               6
  9
$SPLINESEGS
 70
               8
  9
$HANDSEED
  5
149
  9
$SURFTAB1
 70
               6
  9
$SURFTAB2
 70
               6
  9
$SURFTYPE
 70
               6
  9
$SURFU
 70
               6
  9
$SURFV
 70
               6
  9
$UCSBASE
  2

  9
$UCSNAME
  2

  9
$UCSORG
 10
0.0
 20
0.0
 30
0.0
  9
$UCSXDIR
 10
1.0
 20
0.0
 30
0.0
  9
$UCSYDIR
 10
0.0
 20
1.0
 30
0.0
  9
$UCSORTHOREF
  2

  9
$UCSORTHOVIEW
 70
               0
  9
$UCSORGTOP
 10
0.0
 20
0.0
 30
0.0
  9
$UCSORGBOTTOM
 10
0.0
 20
0.0
 30
0.0
  9
$UCSORGLEFT
 10
0.0
 20
0.0
 30
0.0
  9
$UCSORGRIGHT
 10
0.0
 20
0.0
 30
0.0
  9
$UCSORGFRONT
 10
0.0
 20
0.0
 30
0.0
  9
$UCSORGBACK
 10
0.0
 20
0.0
 30
0.0
  9
$PUCSBASE
  2

  9
$PUCSNAME
  2

  9
$PUCSORG
 10
0.0
 20
0.0
 30
0.0
  9
$PUCSXDIR
 10
1.0
 20
0.0
 30
0.0
  9
$PUCSYDIR
 10
0.0
 20
1.0
 30
0.0
  9
$PUCSORTHOREF
  2

  9
$PUCSORTHOVIEW
 70
               0
  9
$PUCSORGTOP
 10
0.0
 20
0.0
 30
0.0
  9
$PUCSORGBOTTOM
 10
0.0
 20
0.0
 30
0.0
  9
$PUCSORGLEFT
 10
0.0
 20
0.0
 30
0.0
  9
$PUCSORGRIGHT
 10
0.0
 20
0.0
 30
0.0
  9
$PUCSORGFRONT
 10
0.0
 20
0.0
 30
0.0
  9
$PUCSORGBACK
 10
0.0
 20
0.0
 30
0.0
  9
$USERI1
 70
               0
  9
$USERI2
 70
               0
  9
$USERI3
 70
               0
  9
$USERI4
 70
               0
  9
$USERI5
 70
               0
  9
$USERR1
 40
0.0
  9
$USERR2
 40
0.0
  9
$USERR3
 40
0.0
  9
$USERR4
 40
0.0
  9
$USERR5
 40
0.0
  9
$WORLDVIEW
 70
               1
  9
$SHADEDGE
 70
               3
  9
$SHADEDIF
 70
              70
  9
$TILEMODE
 70
               1
  9
$MAXACTVP
 70
              64
  9
$PINSBASE
 10
0.0
 20
0.0
 30
0.0
  9
$PLIMCHECK
 70
               0
  9
$PEXTMIN
 10
1.0000000000000000E+20
 20
1.0000000000000000E+20
 30
1.0000000000000000E+20
  9
$PEXTMAX
 10
-1.0000000000000000E+20
 20
-1.0000000000000000E+20
 30
-1.0000000000000000E+20
  9
$PLIMMIN
 10
0.0
 20
0.0
  9
$PLIMMAX
 10
12.0
 20
9.0
  9
$UNITMODE
 70
               0
  9
$VISRETAIN
 70
               0
  9
$PLINEGEN
 70
               1
  9
$PSLTSCALE
 70
               0
  9
$TREEDEPTH
 70
            3020
  9
$CMLSTYLE
  2
Standard
  9
$CMLJUST
 70
               0
  9
$CMLSCALE
 40
1.0
  9
$PROXYGRAPHICS
 70
               0
  9
$MEASUREMENT
 70
               1
  9
$CELWEIGHT
370
               0
  9
$ENDCAPS
280
               0
  9
$JOINSTYLE
280
               0
  9
$LWDISPLAY
290
               1
  9
$INSUNITS
 70
               4
  9
$HYPERLINKBASE
  1

  9
$STYLESHEET
  1

  9
$XEDIT
290
               1
  9
$CEPSNTYPE
380
               0
  9
$PSTYLEMODE
290
               1
  9
$FINGERPRINTGUID
  2

  9
$VERSIONGUID
  2

  9
$EXTNAMES
290
               1
  9
$PSVPSCALE
 40
0.0
  0
ENDSEC
  0
SECTION
  2
CLASSES
  0
CLASS
  1
LWPOLYLINE
  2
AcDbPolyline
  3
AutoCAD 2000
 90
        0
280
               0
281
               1
  0
CLASS
  1
IMAGE
  2
AcDbRasterImage
  3
ISM
 90
      127
280
               0
281
               1
  0
CLASS
  1
OLE2FRAME
  2
AcDbOle2Frame
  3
AutoCAD 2000
 90
        0
280
               0
281
               1
  0
CLASS
  1
HATCH
  2
AcDbHatch
  3
AutoCAD 2000
 90
        0
280
               0
281
               1
  0
CLASS
  1
DICTIONARYVAR
  2
AcDbDictionaryVar
  3
AutoCAD 2000
 90
        0
280
               0
281
               0
  0
CLASS
  1
RASTERVARIABLES
  2
AcDbRasterVariables
  3
ISM
 90
        0
280
               0
281
               0
  0
CLASS
  1
IMAGEDEF
  2
AcDbRasterImageDef
  3
ISM
 90
        0
280
               0
281
               0
  0
CLASS
  1
IMAGEDEF_REACTOR
  2
AcDbRasterImageDefReactor
  3
ISM
 90
        1
280
               0
281
               0
  0
CLASS
  1
IDBUFFER
  2
AcDbIdBuffer
  3
AutoCAD 2000
 90
        0
280
               0
281
               0
  0
CLASS
  1
SPATIAL_FILTER
  2
AcDbSpatialFilter
  3
AutoCAD 2000
 90
        0
280
               0
281
               0
  0
CLASS
  1
XRECORD
  2
AcDbXrecord
  3
AutoCAD 2000
 90
        0
280
               0
281
               0
  0
CLASS
  1
SORTENTSTABLE
  2
AcDbSortentsTable
  3
AutoCAD 2000
 90
        0
280
               0
281
               0
  0
CLASS
  1
LAYER_INDEX
  2
AcDbLayerIndex
  3
AutoCAD 2000
 90
        0
280
               0
281
               0
  0
CLASS
  1
SPATIAL_INDEX
  2
AcDbSpatialIndex
  3
AutoCAD 2000
 90
        0
280
               0
281
               0
  0
CLASS
  1
OBJECT_PTR
  2
CAseDLPNTableRecord
  3
"ASE-LPNTableRecord"
 90
        1
280
               0
281
               0
  0
CLASS
  1
LAYOUT
  2
AcDbLayout
  3
AutoCAD 2000
 90
        0
280
               0
281
               0
  0
CLASS
  1
PLOTSETTINGS
  2
AcDbPlotSettings
  3
AutoCAD 2000
 90
        0
280
               0
281
               0
  0
CLASS
  1
ACDBDICTIONARYWDFLT
  2
AcDbDictionaryWithDefault
  3
AutoCAD 2000
 90
        0
280
               0
281
               0
  0
CLASS
  1
ACDBPLACEHOLDER
  2
AcDbPlaceHolder
  3
AutoCAD 2000
 90
        0
280
               0
281
               0
  0
ENDSEC
  0
SECTION
  2
TABLES
  0
TABLE
  2
VPORT
  5
7
100
AcDbSymbolTable
 70
               1
  0
VPORT
  5
15
100
AcDbSymbolTableRecord
100
AcDbViewportTableRecord
  2
*ACTIVE
 70
               0
 10
0.0
 20
0.0
 11
1.0
 21
1.0
 12
0.0
 22
-12.764114914906941
 13
0.0
 23
0.0
 14
1.0
 24
1.0
 15
0.0
 25
0.0
 16
0.0
 26
0.0
 36
1.0
 17
0.0
 27
0.0
 37
0.0
 40
2837.5228151124124
 41
0.688564
 42
50.0
 43
0.0
 44
0.0
 50
0.0
 51
0.0
 71
               0
 72
            2000
 73
               1
 74
               1
 75
               0
 76
               0
 77
               0
 78
               0
281
               0
 65
               0
110
0.0
120
0.0
130
0.0
111
1.0
121
0.0
131
0.0
112
0.0
122
1.0
132
0.0
345
0
346
0
 79
               0
146
0.0
  0
ENDTAB
  0
TABLE
  2
LTYPE
  5
4
100
AcDbSymbolTable
 70
              26
  0
LTYPE
  5
11
100
AcDbSymbolTableRecord
100
AcDbLinetypeTableRecord
  2
ByBlock
 70
              64
  3

 72
              65
 73
               0
 40
0.0
  0
LTYPE
  5
12
100
AcDbSymbolTableRecord
100
AcDbLinetypeTableRecord
  2
ByLayer
 70
              64
  3

 72
              65
 73
               0
 40
0.0
  0
LTYPE
  5
13
100
AcDbSymbolTableRecord
100
AcDbLinetypeTableRecord
  2
Continuous
 70
              64
  3
Solid line
 72
              65
 73
               0
 40
0.0
  0
LTYPE
  5
31
100
AcDbSymbolTableRecord
100
AcDbLinetypeTableRecord
  2
STYLE_01
 70
               0
  3

 72
              65
 73
               2
 40
0.6944448818897638
 49
0.3472224409448819
 74
               0
 49
-0.3472224409448819
 74
               0
  0
LTYPE
  5
32
100
AcDbSymbolTableRecord
100
AcDbLinetypeTableRecord
  2
STYLE_02
 70
               0
  3

 72
              65
 73
               4
 40
1.128472933070866
 49
0.3472224409448819
 74
               0
 49
-0.3472224409448819
 74
               0
 49
0.0868056102362205
 74
               0
 49
-0.3472224409448818
 74
               0
  0
LTYPE
  5
33
100
AcDbSymbolTableRecord
100
AcDbLinetypeTableRecord
  2
STYLE_03
 70
               0
  3

 72
              65
 73
               4
 40
1.128472933070866
 49
0.3472224409448819
 74
               0
 49
-0.3472224409448819
 74
               0
 49
0.0868056102362205
 74
               0
 49
-0.3472224409448818
 74
               0
  0
LTYPE
  5
34
100
AcDbSymbolTableRecord
100
AcDbLinetypeTableRecord
  2
STYLE_04
 70
               0
  3

 72
              65
 73
               4
 40
0.749496062992126
 49
0.6192883858267717
 74
               0
 49
-0.0434025590551181
 74
               0
 49
0.0434025590551181
 74
               0
 49
-0.0434025590551181
 74
               0
  0
LTYPE
  5
35
100
AcDbSymbolTableRecord
100
AcDbLinetypeTableRecord
  2
STYLE_05
 70
               0
  3

 72
              65
 73
               4
 40
0.749496062992126
 49
0.6192883858267717
 74
               0
 49
-0.0434025590551181
 74
               0
 49
0.0434025590551181
 74
               0
 49
-0.0434025590551181
 74
               0
  0
LTYPE
  5
36
100
AcDbSymbolTableRecord
100
AcDbLinetypeTableRecord
  2
STYLE_06
 70
               0
  3

 72
              65
 73
               4
 40
0.6591845472440944
 49
0.5024827755905512
 74
               0
 49
-0.0364758858267716
 74
               0
 49
0.08375
 74
               0
 49
-0.0364758858267716
 74
               0
  0
LTYPE
  5
37
100
AcDbSymbolTableRecord
100
AcDbLinetypeTableRecord
  2
STYLE_07
 70
               0
  3

 72
              65
 73
               4
 40
0.6591845472440944
 49
0.5024827755905512
 74
               0
 49
-0.0364758858267716
 74
               0
 49
0.08375
 74
               0
 49
-0.0364758858267716
 74
               0
  0
LTYPE
  5
38
100
AcDbSymbolTableRecord
100
AcDbLinetypeTableRecord
  2
STYLE_08
 70
               0
  3

 72
              65
 73
               6
 40
6.25
 49
3.125
 74
               0
 49
-1.0413999999999999
 74
               0
 49
0.3471500000000002
 74
               0
 49
-0.6946500000000001
 74
               0
 49
0.3471499999999995
 74
               0
 49
-0.6946500000000001
 74
               0
  0
LTYPE
  5
39
100
AcDbSymbolTableRecord
100
AcDbLinetypeTableRecord
  2
STYLE_09
 70
               0
  3

 72
              65
 73
               4
 40
25.0
 49
18.75
 74
               0
 49
-1.3889249999999991
 74
               0
 49
3.4721500000000018
 74
               0
 49
-1.3889249999999991
 74
               0
  0
LTYPE
  5
3A
100
AcDbSymbolTableRecord
100
AcDbLinetypeTableRecord
  2
STYLE_10
 70
               0
  3

 72
              65
 73
               6
 40
29.6875
 49
18.75
 74
               0
 49
-1.3889249999999991
 74
               0
 49
3.4721500000000018
 74
               0
 49
-1.3889249999999991
 74
               0
 49
3.125
 74
               0
 49
-1.5625
 74
               0
  0
LTYPE
  5
3B
100
AcDbSymbolTableRecord
100
AcDbLinetypeTableRecord
  2
STYLE_11
 70
               0
  3

 72
              65
 73
               8
 40
0.3149606299212597
 49
0.1771653543307086
 74
               0
 49
-0.0196850393700787
 74
               0
 49
0.0196850393700787
 74
               0
 49
-0.0196850393700787
 74
               0
 49
0.0196850393700787
 74
               0
 49
-0.0196850393700787
 74
               0
 49
0.0196850393700787
 74
               0
 49
-0.0196850393700787
 74
               0
  0
LTYPE
  5
3C
100
AcDbSymbolTableRecord
100
AcDbLinetypeTableRecord
  2
STYLE_12
 70
               0
  3

 72
              65
 73
              10
 40
0.3149606299212597
 49
0.1377952755905512
 74
               0
 49
-0.0196850393700787
 74
               0
 49
0.0196850393700787
 74
               0
 49
-0.0196850393700787
 74
               0
 49
0.0196850393700787
 74
               0
 49
-0.0196850393700787
 74
               0
 49
0.0196850393700787
 74
               0
 49
-0.0196850393700787
 74
               0
 49
0.0196850393700787
 74
               0
 49
-0.0196850393700787
 74
               0
  0
LTYPE
  5
3D
100
AcDbSymbolTableRecord
100
AcDbLinetypeTableRecord
  2
STYLE_13
 70
               0
  3

 72
              65
 73
              10
 40
0.3149606299212597
 49
0.1377952755905512
 74
               0
 49
-0.0196850393700787
 74
               0
 49
0.0196850393700787
 74
               0
 49
-0.0196850393700787
 74
               0
 49
0.0196850393700787
 74
               0
 49
-0.0196850393700787
 74
               0
 49
0.0196850393700787
 74
               0
 49
-0.0196850393700787
 74
               0
 49
0.0196850393700787
 74
               0
 49
-0.0196850393700787
 74
               0
  0
LTYPE
  5
3E
100
AcDbSymbolTableRecord
100
AcDbLinetypeTableRecord
  2
STYLE_14
 70
               0
  3

 72
              65
 73
              10
 40
0.2755905511811023
 49
0.0984251968503937
 74
               0
 49
-0.0196850393700787
 74
               0
 49
0.0196850393700787
 74
               0
 49
-0.0196850393700787
 74
               0
 49
0.0196850393700787
 74
               0
 49
-0.0196850393700787
 74
               0
 49
0.0196850393700787
 74
               0
 49
-0.0196850393700787
 74
               0
 49
0.0196850393700787
 74
               0
 49
-0.0196850393700787
 74
               0
  0
LTYPE
  5
3F
100
AcDbSymbolTableRecord
100
AcDbLinetypeTableRecord
  2
STYLE_15
 70
               0
  3

 72
              65
 73
              10
 40
0.2755905511811023
 49
0.0984251968503937
 74
               0
 49
-0.0196850393700787
 74
               0
 49
0.0196850393700787
 74
               0
 49
-0.0196850393700787
 74
               0
 49
0.0196850393700787
 74
               0
 49
-0.0196850393700787
 74
               0
 49
0.0196850393700787
 74
               0
 49
-0.0196850393700787
 74
               0
 49
0.0196850393700787
 74
               0
 49
-0.0196850393700787
 74
               0
  0
LTYPE
  5
40
100
AcDbSymbolTableRecord
100
AcDbLinetypeTableRecord
  2
STYLE_16
 70
               0
  3

 72
              65
 73
               2
 40
0.3169606299212598
 49
0.3149606299212598
 74
               0
 49
-0.005
 74
               0
  0
LTYPE
  5
41
100
AcDbSymbolTableRecord
100
AcDbLinetypeTableRecord
  2
STYLE_17
 70
               0
  3

 72
              65
 73
               2
 40
0.3169606299212598
 49
0.3149606299212598
 74
               0
 49
-0.005
 74
               0
  0
LTYPE
  5
42
100
AcDbSymbolTableRecord
100
AcDbLinetypeTableRecord
  2
STYLE_18
 70
               0
  3

 72
              65
 73
               4
 40
0.2559055118110236
 49
0.1838582677165354
 74
               0
 49
-0.024015748031496
 74
               0
 49
0.0240157480314961
 74
               0
 49
-0.0240157480314961
 74
               0
  0
LTYPE
  5
43
100
AcDbSymbolTableRecord
100
AcDbLinetypeTableRecord
  2
STYLE_19
 70
               0
  3

 72
              65
 73
               2
 40
0.3169606299212598
 49
0.3149606299212598
 74
               0
 49
-0.005
 74
               0
  0
LTYPE
  5
44
100
AcDbSymbolTableRecord
100
AcDbLinetypeTableRecord
  2
STYLE_20
 70
               0
  3

 72
              65
 73
               4
 40
0.2559055118110236
 49
0.1838582677165354
 74
               0
 49
-0.024015748031496
 74
               0
 49
0.0240157480314961
 74
               0
 49
-0.0240157480314961
 74
               0
  0
LTYPE
  5
45
100
AcDbSymbolTableRecord
100
AcDbLinetypeTableRecord
  2
STYLE_21
 70
               0
  3

 72
              65
 73
               2
 40
1.3888897637795274
 49
0.6944448818897637
 74
               0
 49
-0.6944448818897637
 74
               0
  0
LTYPE
  5
46
100
AcDbSymbolTableRecord
100
AcDbLinetypeTableRecord
  2
STYLE_22
 70
               0
  3

 72
              65
 73
               6
 40
59.375
 49
37.5
 74
               0
 49
-2.7778499999999982
 74
               0
 49
6.9443000000000037
 74
               0
 49
-2.7778499999999982
 74
               0
 49
6.25
 74
               0
 49
-3.125
 74
               0
  0
LTYPE
  5
47
100
AcDbSymbolTableRecord
100
AcDbLinetypeTableRecord
  2
STYLE_23
 70
               0
  3

 72
              65
 73
               2
 40
3.9370078740157481
 49
1.9685039370078741
 74
               0
 49
-1.9685039370078741
 74
               0
  0
ENDTAB
  0
TABLE
  2
LAYER
  5
2
100
AcDbSymbolTable
 70
               5
  0
LAYER
  5
14
100
AcDbSymbolTableRecord
100
AcDbLayerTableRecord
  2
0
 70
               0
 62
               7
  6
Continuous
290
               1
370
              -3
390
1D
  0
LAYER
  5
48
100
AcDbSymbolTableRecord
100
AcDbLayerTableRecord
  2
Defpoints
 70
               0
 62
               7
  6
Continuous
290
               0
370
              -3
390
1D
  0
LAYER
  5
49
100
AcDbSymbolTableRecord
100
AcDbLayerTableRecord
  2
template
 70
               0
 62
               7
  6
Continuous
290
               1
370
              -3
390
1D
  0
LAYER
  5
4A
100
AcDbSymbolTableRecord
100
AcDbLayerTableRecord
  2
notes
 70
               0
 62
               7
  6
Continuous
290
               1
370
              -3
390
1D
  0
LAYER
  5
4B
100
AcDbSymbolTableRecord
100
AcDbLayerTableRecord
  2
ADF70-0901
 70
               0
 62
               7
  6
Continuous
290
               1
370
              -3
390
1D
  0
ENDTAB
  0
TABLE
  2
STYLE
  5
3
100
AcDbSymbolTable
 70
               3
  0
STYLE
  5
17
100
AcDbSymbolTableRecord
100
AcDbTextStyleTableRecord
  2
Standard
 70
               0
 40
0.0
 41
1.0
 50
0.0
 71
               0
 42
0.0
  3
txt
  4
BIGFONT.SHX
  0
STYLE
  5
2F
100
AcDbSymbolTableRecord
100
AcDbTextStyleTableRecord
  2
MS UI Gothic
 70
               0
 40
0.0
 41
1.0
 50
0.0
 71
               0
 42
0.0
  3

  4
MS UI Gothic
1001
ACAD
1000
MS UI Gothic
1071
        0
  0
STYLE
  5
30
100
AcDbSymbolTableRecord
100
AcDbTextStyleTableRecord
  2
ＭＳ ゴシック
 70
               0
 40
0.0
 41
1.0
 50
0.0
 71
               0
 42
0.0
  3

  4
ＭＳ ゴシック
1001
ACAD
1000
ＭＳ ゴシック
1071
        0
  0
ENDTAB
  0
TABLE
  2
VIEW
  5
5
100
AcDbSymbolTable
 70
               0
  0
ENDTAB
  0
TABLE
  2
UCS
  5
6
100
AcDbSymbolTable
 70
               0
  0
ENDTAB
  0
TABLE
  2
APPID
  5
8
100
AcDbSymbolTable
 70
               1
  0
APPID
  5
16
100
AcDbSymbolTableRecord
100
AcDbRegAppTableRecord
  2
ACAD
 70
               0
  0
ENDTAB
  0
TABLE
  2
DIMSTYLE
  5
9
100
AcDbSymbolTable
 70
               3
100
AcDbDimStyleTable
 71
               0
  0
DIMSTYLE
105
18
100
AcDbSymbolTableRecord
100
AcDbDimStyleTableRecord
  2
Standard
 70
               0
  3

  4

 40
1.0
 41
0.18
 42
0.0625
 43
0.38
 44
0.18
 45
0.0
 46
0.0
 47
0.0
 48
0.0
 71
               0
 72
               0
 73
               1
 74
               1
 75
               0
 76
               0
 77
               0
 78
               0
 79
               0
140
0.18
141
0.09
142
0.0
143
25.399999999999999
144
1.0
145
0.0
146
1.0
147
0.09
148
0.0
170
               0
171
               2
172
               0
173
               0
174
               0
175
               0
176
               0
177
               0
178
               0
179
               0
271
               4
272
               4
273
               2
274
               2
275
               0
276
               0
277
               2
278
              46
279
               0
280
               0
281
               0
282
               0
283
               1
284
               0
285
               0
286
               0
288
               0
289
               3
340
17
341
0
342
0
343
0
344
0
371
              -2
372
              -2
  0
DIMSTYLE
105
54
100
AcDbSymbolTableRecord
100
AcDbDimStyleTableRecord
  2
Tform線あり
 70
               0
  3
<>
  4
[]
 40
1.0
 41
9.9993896484374982
 42
24.999999999999996
 43
0.9999999999999999
 44
0.0
 45
0.0
 46
0.0
 47
0.0
 48
0.0
 71
               0
 72
               0
 73
               0
 74
               0
 75
               0
 76
               0
 77
               1
 78
              11
 79
               0
140
21.828125
141
0.0
142
0.0
143
1.0
144
1.0
145
0.0
146
0.8
147
0.4999999999999999
148
0.0
170
               0
171
               1
172
               1
173
               0
174
               1
175
               0
176
               0
177
               0
178
               0
179
               2
271
               1
272
               1
273
               2
274
               2
275
               0
276
               2
277
               2
278
              46
279
               0
280
               0
281
               0
282
               0
283
               1
284
              11
285
              11
286
              11
288
               0
289
               0
340
2F
341
4C
342
4C
343
0
344
0
371
              -2
372
              -2
  0
DIMSTYLE
105
5E
100
AcDbSymbolTableRecord
100
AcDbDimStyleTableRecord
  2
Arch
 70
               0
  3
<>
  4
[]
 40
1.0
 41
22.4482421875
 42
15.875
 43
10.16
 44
31.75
 45
0.0
 46
1.5874999999999999
 47
0.0
 48
0.0
 71
               0
 72
               0
 73
               0
 74
               0
 75
               0
 76
               0
 77
               1
 78
              11
 79
               0
140
21.828125
141
0.0
142
0.0
143
1.0
144
1.0
145
0.0
146
1.0
147
1.5874999999999999
148
0.0
170
               0
171
               1
172
               1
173
               0
174
               1
175
               0
176
               0
177
               0
178
               0
179
               2
271
               1
272
               1
273
               2
274
               2
275
               0
276
               2
277
               2
278
              46
279
               0
280
               0
281
               0
282
               0
283
               1
284
              11
285
              11
286
              11
288
               0
289
               0
340
2F
341
5A
342
55
343
0
344
0
371
              -2
372
              -2
  0
ENDTAB
  0
TABLE
  2
BLOCK_RECORD
  5
1
100
AcDbSymbolTable
 70
              15
  0
BLOCK_RECORD
  5
A
100
AcDbSymbolTableRecord
100
AcDbBlockTableRecord
  2
*MODEL_SPACE
340
20
  0
BLOCK_RECORD
  5
B
100
AcDbSymbolTableRecord
100
AcDbBlockTableRecord
  2
*PAPER_SPACE
340
21
  0
BLOCK_RECORD
  5
4C
100
AcDbSymbolTableRecord
100
AcDbBlockTableRecord
  2
_DOT
340
0
  0
BLOCK_RECORD
  5
55
100
AcDbSymbolTableRecord
100
AcDbBlockTableRecord
  2
VW_SLASH
340
0
  0
BLOCK_RECORD
  5
5A
100
AcDbSymbolTableRecord
100
AcDbBlockTableRecord
  2
VW_FILLEDARROW
340
0
  0
BLOCK_RECORD
  5
23
100
AcDbSymbolTableRecord
100
AcDbBlockTableRecord
  2
グループ
340
0
102
{BLKREFS
331
FB
102
}
  0
BLOCK_RECORD
  5
24
100
AcDbSymbolTableRecord
100
AcDbBlockTableRecord
  2
*D4
340
0
  0
BLOCK_RECORD
  5
25
100
AcDbSymbolTableRecord
100
AcDbBlockTableRecord
  2
*D5
340
0
  0
BLOCK_RECORD
  5
26
100
AcDbSymbolTableRecord
100
AcDbBlockTableRecord
  2
*D6
340
0
  0
BLOCK_RECORD
  5
27
100
AcDbSymbolTableRecord
100
AcDbBlockTableRecord
  2
*D7
340
0
  0
BLOCK_RECORD
  5
28
100
AcDbSymbolTableRecord
100
AcDbBlockTableRecord
  2
*D8
340
0
  0
BLOCK_RECORD
  5
29
100
AcDbSymbolTableRecord
100
AcDbBlockTableRecord
  2
*D9
340
0
  0
BLOCK_RECORD
  5
2A
100
AcDbSymbolTableRecord
100
AcDbBlockTableRecord
  2
*D10
340
0
  0
BLOCK_RECORD
  5
2B
100
AcDbSymbolTableRecord
100
AcDbBlockTableRecord
  2
*D11
340
0
  0
BLOCK_RECORD
  5
2C
100
AcDbSymbolTableRecord
100
AcDbBlockTableRecord
  2
*D12
340
0
  0
BLOCK_RECORD
  5
2D
100
AcDbSymbolTableRecord
100
AcDbBlockTableRecord
  2
*D13
340
0
  0
BLOCK_RECORD
  5
2E
100
AcDbSymbolTableRecord
100
AcDbBlockTableRecord
  2
*D14
340
0
  0
ENDTAB
  0
ENDSEC
  0
SECTION
  2
BLOCKS
  0
BLOCK
  5
D
100
AcDbEntity
  8
0
390
0
100
AcDbBlockBegin
  2
*MODEL_SPACE
 70
               0
 10
0.0
 20
0.0
 30
0.0
  3
*MODEL_SPACE
  1

  0
ENDBLK
  5
E
100
AcDbEntity
  8
0
390
0
100
AcDbBlockEnd
  0
BLOCK
  5
F
100
AcDbEntity
 67
               1
  8
0
390
0
100
AcDbBlockBegin
  2
*PAPER_SPACE
 70
               0
 10
0.0
 20
0.0
 30
0.0
  3
*PAPER_SPACE
  1

  0
ENDBLK
  5
10
100
AcDbEntity
 67
               1
  8
0
390
0
100
AcDbBlockEnd
  0
BLOCK
  5
4D
100
AcDbEntity
  8
0
390
0
100
AcDbBlockBegin
  2
_DOT
 70
               0
 10
0.0
 20
0.0
 30
0.0
  3
_DOT
  1

  0
POLYLINE
  5
4E
100
AcDbEntity
  8
0
370
              -2
390
0
  6
ByBlock
 62
               0
100
AcDb2dPolyline
 66
               1
 10
0.0
 20
0.0
 30
0.0
 70
               1
 40
0.5
 41
0.5
  0
VERTEX
  5
4F
100
AcDbEntity
  8
0
370
              -2
390
0
  6
ByBlock
 62
               0
100
AcDbVertex
100
AcDb2dVertex
 10
-0.25
 20
0.0
 30
0.0
 42
1.0
  0
VERTEX
  5
50
100
AcDbEntity
  8
0
370
              -2
390
0
  6
ByBlock
 62
               0
100
AcDbVertex
100
AcDb2dVertex
 10
0.25
 20
0.0
 30
0.0
 42
1.0
  0
SEQEND
  5
51
100
AcDbEntity
  8
0
390
0
  0
LINE
  5
52
100
AcDbEntity
  8
0
370
              -2
390
0
  6
ByBlock
 62
               0
100
AcDbLine
 10
-0.5
 20
0.0
 30
0.0
 11
-1.0
 21
0.0
 31
0.0
  0
ENDBLK
  5
53
100
AcDbEntity
  8
0
390
0
100
AcDbBlockEnd
  0
BLOCK
  5
56
100
AcDbEntity
  8
0
370
              -2
390
0
  6
ByBlock
 62
               0
100
AcDbBlockBegin
  2
VW_SLASH
 70
               0
 10
0.0
 20
0.0
 30
0.0
  3
VW_SLASH
  1

  0
LINE
  5
57
100
AcDbEntity
  8
0
370
              -2
390
0
  6
ByBlock
 62
               0
100
AcDbLine
 10
0.0
 20
0.0
 30
0.0
 11
-1.0
 21
0.0
 31
0.0
  0
LINE
  5
58
100
AcDbEntity
  8
0
370
              20
390
0
  6
ByBlock
 62
               0
100
AcDbLine
 10
-0.4987813153181721
 20
-0.4987813153181719
 30
0.0
 11
0.4987813153181721
 21
0.4987813153181719
 31
0.0
  0
ENDBLK
  5
59
100
AcDbEntity
  8
0
390
0
100
AcDbBlockEnd
  0
BLOCK
  5
5B
100
AcDbEntity
  8
0
370
              -2
390
0
  6
ByBlock
 62
               0
100
AcDbBlockBegin
  2
VW_FILLEDARROW
 70
               0
 10
0.0
 20
0.0
 30
0.0
  3
VW_FILLEDARROW
  1

  0
SOLID
  5
5C
100
AcDbEntity
  8
0
370
              -2
390
0
 62
               0
100
AcDbTrace
 10
0.0
 20
0.0
 30
0.0
 11
-1.4107666015625
 21
-0.3780137715974714
 31
0.0
 12
-1.4107666015625
 22
0.3780137715974717
 32
0.0
 13
-1.4107666015625
 23
0.3780137715974717
 33
0.0
  0
ENDBLK
  5
5D
100
AcDbEntity
  8
0
390
0
100
AcDbBlockEnd
  0
BLOCK
  5
5F
100
AcDbEntity
  8
template
390
0
100
AcDbBlockBegin
  2
グループ
 70
               0
 10
0.0
 20
0.0
 30
0.0
  3
グループ
  1

  0
LWPOLYLINE
  5
60
100
AcDbEntity
  8
0
370
              15
390
0
  6
Continuous
 62
               7
100
AcDbPolyline
 90
        8
 70
             129
 10
-19988.492468078748
 20
2366.5860052621538
 10
-19988.492468078748
 20
2360.5886165685779
 10
-19997.993664996749
 20
2360.5886165685779
 10
-19997.993664996749
 20
2336.1376533050689
 10
-20006.349042258531
 20
2336.1376533050689
 10
-20006.349042258531
 20
2360.5886165685779
 10
-20015.68199920484
 20
2360.5886165685779
 10
-20015.68199920484
 20
2366.5860052621538
  0
LWPOLYLINE
  5
61
100
AcDbEntity
  8
0
370
              15
390
0
  6
Continuous
 62
               7
100
AcDbPolyline
 90
      101
 70
             128
 10
-19975.764176248191
 20
2365.8577567692173
 10
-19975.748826219402
 20
2365.8621175259032
 42
-0.0222221607844509
 10
-19975.458821642733
 20
2365.930741991147
 10
-19975.44302787874
 20
2365.9337454142442
 42
-0.0146883565561865
 10
-19975.180325173518
 20
2365.9757486011931
 42
-0.0127458844193638
 10
-19974.915686206354
 20
2366.0032855692666
 10
-19974.853231128051
 20
2366.008178991854
 42
-0.0198099018531716
 10
-19974.462382018584
 20
2366.0232641492507
 10
-19974.410570549131
 20
2366.0232103735857
 42
-0.0147617382805805
 10
-19973.91594708816
 20
2366.0080903483408
 10
-19973.843255633277
 20
2366.0037177414529
 42
-0.016262454901615
 10
-19973.453102003816
 20
2365.9674848661807
 10
-19973.331569612543
 20
2365.9521983071827
 42
-0.0080020874657689
 10
-19973.185990581464
 20
2365.9315154599158
 10
-19973.147671110903
 20
2365.9254441821099
 42
-0.0053821929782022
 10
-19973.079187005555
 20
2365.9138366582829
 10
-19973.805592704754
 20
2363.732908202569
 42
0.0108667757418032
 10
-19973.872909774898
 20
2363.7460953177915
 10
-19973.910377798071
 20
2363.7525930603833
 42
0.0170663203401623
 10
-19974.053594584981
 20
2363.7724226576747
 10
-19974.121469917671
 20
2363.7794698282628
 42
0.0220162375283557
 10
-19974.401849325532
 20
2363.7961521890334
 10
-19974.47970489259
 20
2363.7973515562999
 42
0.0282606915783691
 10
-19974.815341216156
 20
2363.7835482793307
 10
-19974.859254489933
 20
2363.7792482893265
 42
0.0169677213720684
 10
-19975.105178984886
 20
2363.7467112397744
 42
0.0190576269885943
 10
-19975.348086947484
 20
2363.696564367664
 10
-19975.35434613558
 20
2363.6950213935588
 42
0.0213685642879422
 10
-19975.604730620067
 20
2363.6218211084506
 10
-19975.610220514973
 20
2363.6199581123951
 42
0.0237595297657898
 10
-19975.863715399886
 20
2363.5202735904918
 10
-19975.8688174739
 20
2363.5179818150214
 42
0.0261857468792102
 10
-19976.120988250153
 20
2363.3884454776348
 10
-19976.13141443926
 20
2363.3823800031555
 42
0.027255306203205
 10
-19976.367844214459
 20
2363.2270077972344
 10
-19976.402607227974
 20
2363.201346649138
 42
0.0325996893162754
 10
-19976.55276257162
 20
2363.0745987761707
 10
-19976.576472000805
 20
2363.051780747599
 42
0.0138050960575166
 10
-19976.668355156951
 20
2362.9583310861062
 42
0.0125280103895502
 10
-19976.755197689821
 20
2362.8601677594634
 10
-19976.778878134694
 20
2362.8320092613185
 42
0.020521802471717
 10
-19976.903978210201
 20
2362.6702159470947
 10
-19976.926444550692
 20
2362.6385562172627
 42
0.016311012960606
 10
-19977.082154929962
 20
2362.4032257821705
 10
-19977.084878825997
 20
2362.3988020202073
 42
0.0131897341925358
 10
-19977.231679346896
 20
2362.145669927856
 10
-19977.23337944227
 20
2362.142551688707
 42
0.0107895576078395
 10
-19977.371156144458
 20
2361.8763364791162
 10
-19977.371889034006
 20
2361.8748422464255
 42
0.0091371507290375
 10
-19977.500368982717
 20
2361.6003170485264
 10
-19977.530114614063
 20
2361.5336105415072
 42
0.0135418326419324
 10
-19977.701828553159
 20
2361.1186727561767
 10
-19977.735433361599
 20
2361.0308066138887
 42
0.0092834542399708
 10
-19977.90666242149
 20
2360.5569081156518
 10
-19977.932279549259
 20
2360.4816670457039
 42
0.0054261043605498
 10
-19978.039917697501
 20
2360.1539030727931
 10
-19978.057443683214
 20
2360.098514912032
 42
0.0008225090712911
 10
-19978.12611373551
 20
2359.8802461524137
 10
-19979.110802867443
 20
2356.8553548591572
 10
-19975.878179027368
 20
2356.8553548591572
 10
-19976.382371457221
 20
2354.9508765608052
 10
-19979.638427739206
 20
2354.9508765608052
 10
-19985.46757677156
 20
2336.1376534948004
 10
-19987.292674381868
 20
2336.1376534948004
 10
-19981.457996346369
 20
2354.9508765608052
 10
-19983.863112715408
 20
2354.9508765608052
 10
-19983.358920285555
 20
2356.8553548591572
 10
-19980.930371474606
 20
2356.8553548591572
 10
-19980.070216556418
 20
2359.4917678598563
 42
-0.0005863560775229
 10
-19980.033481878934
 20
2359.6085942778577
 10
-19979.957394044555
 20
2359.8495865795335
 42
-0.0087522378960747
 10
-19979.757925901089
 20
2360.4448626666917
 10
-19979.665661625681
 20
2360.7050028351919
 42
-0.007740095383822
 10
-19979.407727966551
 20
2361.3980075127411
 10
-19979.391962995014
 20
2361.4384383960228
 42
-0.0082369946303714
 10
-19979.144878524363
 20
2362.0425174623228
 42
-0.0085725238355234
 10
-19978.877632428288
 20
2362.6379435017579
 10
-19978.776002827333
 20
2362.8543646036323
 42
-0.0168109410564251
 10
-19978.48905839862
 20
2363.4155721296993
 10
-19978.363215006804
 20
2363.6425361651413
 42
-0.0007817726846222
 10
-19978.308930658102
 20
2363.7400804077279
 10
-19978.308802352185
 20
2363.7403101162822
 42
-0.0036626142313032
 10
-19978.253914488065
 20
2363.8369079964327
 42
-0.0080221150594527
 10
-19978.196790232607
 20
2363.9321872312703
 10
-19978.166090281298
 20
2363.9815781803081
 42
-0.020213932548436
 10
-19978.038434541431
 20
2364.1695597810703
 10
-19977.984367076304
 20
2364.2426386452303
 42
-0.0249323791804613
 10
-19977.725204282589
 20
2364.5586838873787
 10
-19977.701064468456
 20
2364.5852981602975
 42
-0.0242132121552327
 10
-19977.361383726911
 20
2364.9251816465076
 10
-19977.313472154172
 20
2364.9686907826822
 42
-0.0251017527822187
 10
-19977.029490453526
 20
2365.2016835284521
 10
-19977.028044976661
 20
2365.2027527860678
 42
-0.0130868069037663
 10
-19976.729784326752
 20
2365.4115332545734
 10
-19976.728222507605
 20
2365.4125666948507
 42
-0.0290329526365974
 10
-19976.417111366216
 20
2365.5933921964779
 10
-19976.38726580426
 20
2365.6084945793027
 42
-0.0160250190086963
 10
-19976.121361390466
 20
2365.7325106895305
 42
-0.0267600374721714
 10
-19975.846085312958
 20
2365.8332590100913
 10
-19975.819349393478
 20
2365.8414515689046
 42
-0.0049981587255788
 10
-19975.764176248191
 20
2365.8577567692173
 42
-0.0049981587255788
  0
LWPOLYLINE
  5
62
100
AcDbEntity
  8
0
370
              15
390
0
  6
Continuous
 62
               7
100
AcDbPolyline
 90
      118
 70
             128
 10
-19955.949808683741
 20
2356.78137153133
 10
-19954.074686759242
 20
2356.78137153133
 10
-19954.912725664843
 20
2354.0998050049302
 42
-0.0010587229685411
 10
-19954.881269849455
 20
2354.1367095380692
 10
-19954.823075758639
 20
2354.2046917944608
 42
-0.0071874740426651
 10
-19954.672700540599
 20
2354.3753324864256
 10
-19954.530977767281
 20
2354.5315686278036
 42
-0.0148118053515908
 10
-19954.080848474572
 20
2354.9991824738108
 10
-19953.993626139749
 20
2355.0845797945876
 42
-0.0086273358702911
 10
-19953.658077338659
 20
2355.4019554286861
 10
-19953.614243622407
 20
2355.4420050730432
 42
-0.0103138323060824
 10
-19953.356219920199
 20
2355.6681682103576
 10
-19953.31044551378
 20
2355.706650257694
 42
-0.0060206748525486
 10
-19953.137597449757
 20
2355.8484449083721
 10
-19953.135566318972
 20
2355.8500706139221
 42
-0.0067069027274336
 10
-19952.963273504211
 20
2355.9842212477984
 10
-19952.96072473831
 20
2355.9861514176532
 42
-0.0076184352067982
 10
-19952.789819472411
 20
2356.1115262929175
 42
-0.0089652861645712
 10
-19952.614858509638
 20
2356.231159553276
 10
-19952.578506789545
 20
2356.255070766726
 42
-0.0156916245899823
 10
-19952.382547292371
 20
2356.3753332532078
 42
-0.0023299011040774
 10
-19952.182285248371
 20
2356.4885111927601
 10
-19952.166901116012
 20
2356.4971111878131
 42
-0.0107669341480713
 10
-19951.932664290842
 20
2356.621511321197
 10
-19951.910399489836
 20
2356.6327280711125
 42
-0.0078058045906587
 10
-19951.626809371908
 20
2356.7700895267403
 10
-19951.616902284175
 20
2356.7746986546194
 42
-0.0181829330456133
 10
-19951.306592879529
 20
2356.9055623957261
 10
-19951.252537437013
 20
2356.9260775156504
 42
-0.0208411536069387
 10
-19950.903452469542
 20
2357.0421679781516
 10
-19950.889096369432
 20
2357.0462864231004
 42
-0.0222799817164797
 10
-19950.560376575497
 20
2357.1249279892454
 10
-19950.551487612251
 20
2357.1266399998326
 42
-0.0215509523821059
 10
-19950.235016643979
 20
2357.173555688365
 10
-19950.192534682923
 20
2357.1779932151567
 42
-0.018254592489768
 10
-19949.958425903627
 20
2357.1938370405469
 10
-19949.919024887273
 20
2357.1950615856263
 42
-0.0072962856353212
 10
-19949.76310200759
 20
2357.1976309141482
 10
-19949.734002337027
 20
2357.197685749552
 42
-0.0059227516179521
 10
-19949.636252837874
 20
2357.1967120377612
 10
-19949.607010620392
 20
2357.1960742711576
 42
-0.0011833111973219
 10
-19949.567759336667
 20
2357.1951252668478
 10
-19950.363145932275
 20
2354.6563913217487
 42
0.0143932051854976
 10
-19950.389547314637
 20
2354.6665902917971
 10
-19950.396819287045
 20
2354.6691615106515
 42
0.0234388603507385
 10
-19950.438650152966
 20
2354.6817807463649
 10
-19950.447331815885
 20
2354.683961708372
 42
0.0199162743162247
 10
-19950.507620649976
 20
2354.6965784437089
 10
-19950.528434587774
 20
2354.7000756431357
 42
0.029364355077066
 10
-19950.631509446528
 20
2354.7112256887885
 10
-19950.656194627256
 20
2354.7124373058073
 42
0.0214606686949804
 10
-19950.809335543207
 20
2354.7133758662244
 10
-19950.818707454026
 20
2354.7130309546801
 42
0.0167564054141002
 10
-19950.990227645136
 20
2354.7009539123119
 10
-19950.998687437888
 20
2354.7000725718854
 42
0.0137677553331836
 10
-19951.186040751174
 20
2354.6753232633391
 10
-19951.193392490663
 20
2354.6741453433738
 42
0.0118497261404885
 10
-19951.393890254727
 20
2354.6371279931923
 10
-19951.400040262011
 20
2354.6358411304645
 42
0.0106421143801524
 10
-19951.610921149302
 20
2354.5870087548888
 10
-19951.615829957685
 20
2354.5857614122046
 42
0.0099746379737555
 10
-19951.834288426911
 20
2354.5255868838713
 10
-19951.895836467018
 20
2354.5073050052592
 42
0.0191613675825559
 10
-19952.231820929552
 20
2354.3933276249663
 10
-19952.319880702289
 20
2354.3596407146451
 42
0.0205274080165809
 10
-19952.705187474181
 20
2354.1938123068217
 10
-19952.762836756126
 20
2354.1661443422672
 42
0.0181256912168982
 10
-19953.021113696828
 20
2354.0304605232714
 10
-19953.074069080183
 20
2354.0001429100339
 42
0.0140709242403046
 10
-19953.219024014772
 20
2353.9116482366226
 10
-19953.245272883356
 20
2353.894591417929
 42
0.0086667884330836
 10
-19953.334199044933
 20
2353.8345887500241
 42
0.0036408191989187
 10
-19953.421632283003
 20
2353.7724078922038
 10
-19953.456859157435
 20
2353.7469669463189
 42
0.0052260781292545
 10
-19953.613087854796
 20
2353.6316345597065
 10
-19953.629294711085
 20
2353.6194064490664
 42
0.0050024435918833
 10
-19953.81529805412
 20
2353.4761238808246
 10
-19953.83061621066
 20
2353.4640778583589
 42
0.01361387103008
 10
-19954.041057479008
 20
2353.2891113534265
 10
-19954.074725354778
 20
2353.2595323807309
 42
0.0172815186897705
 10
-19954.339128896452
 20
2353.0105357080965
 10
-19954.341691242284
 20
2353.0079498909608
 42
0.0189403857977858
 10
-19954.592273040871
 20
2352.7351446261505
 10
-19954.624904534394
 20
2352.6968006946686
 42
0.0185044199506278
 10
-19954.816860973377
 20
2352.4535521135363
 42
0.0088565243832052
 10
-19954.995321079976
 20
2352.2000356934363
 10
-19955.004499059658
 20
2352.1864943136261
 42
0.0157195347253466
 10
-19955.187719666021
 20
2351.8969721042595
 10
-19955.233802607949
 20
2351.818819907241
 42
0.009545187978492
 10
-19955.398888158059
 20
2351.5262252649331
 10
-19955.410036076966
 20
2351.5055545928403
 42
0.010035170624742
 10
-19955.542079826148
 20
2351.2484990323101
 42
0.0086935915428351
 10
-19955.66441097789
 20
2350.9866658870228
 10
-19955.667731719357
 20
2350.9792235639343
 42
0.0072580174950827
 10
-19955.788078171365
 20
2350.6986315721933
 10
-19955.791339804608
 20
2350.6907115463332
 42
0.0060005122648301
 10
-19955.910540473014
 20
2350.391101875558
 10
-19955.913751451291
 20
2350.3827403478235
 42
0.0049017787055121
 10
-19956.032651610196
 20
2350.0638113670825
 10
-19956.035817416538
 20
2350.0550584299881
 42
0.003941516758091
 10
-19956.155253694669
 20
2349.716516367374
 10
-19956.158384797251
 20
2349.7074131666991
 42
0.0031035838794343
 10
-19956.279189582969
 20
2349.3489733048409
 10
-19956.28229962747
 20
2349.3395526835511
 42
0.002507074713087
 10
-19956.405200978697
 20
2348.9609054668845
 10
-19956.442494875213
 20
2348.8440138013539
 42
0.0029081910250523
 10
-19956.63451317307
 20
2348.2298501429159
 10
-19956.675316341541
 20
2348.0966269007863
 42
0.000926645373234
 10
-19956.943733716198
 20
2347.214402439738
 10
-19956.964621189076
 20
2347.1452905597162
 42
-0.0005809993671324
 10
-19957.241957869086
 20
2346.2314824549881
 10
-19957.30823966756
 20
2346.0139975221664
 42
-0.0012018708131833
 10
-19957.455223976787
 20
2345.5358348583077
 10
-19957.507543827323
 20
2345.3670757207615
 42
-0.000269105954683
 10
-19957.551113309524
 20
2345.2268080970998
 10
-19960.384069207812
 20
2336.1376534948004
 10
-19962.202058099792
 20
2336.1376534948004
 10
-19955.949808683741
 20
2356.78137153133
  0
SPLINE
  5
63
100
AcDbEntity
  8
0
370
              15
390
0
  6
Continuous
 62
               7
100
AcDbSpline
210
0.0
220
0.0
230
1.0
 70
              13
 71
               2
 72
             782
 73
             779
 74
               0
 42
0.000001
 43
0.000001
 40
0.0
 40
0.0
 40
0.0
 40
1.0
 40
1.0
 40
2.0
 40
2.0
 40
3.0
 40
3.0
 40
4.0
 40
4.0
 40
5.0
 40
5.0
 40
6.0
 40
6.0
 40
7.0
 40
7.0
 40
8.0
 40
8.0
 40
9.0
 40
9.0
 40
10.0
 40
10.0
 40
11.0
 40
11.0
 40
12.0
 40
12.0
 40
13.0
 40
13.0
 40
14.0
 40
14.0
 40
15.0
 40
15.0
 40
16.0
 40
16.0
 40
17.0
 40
17.0
 40
18.0
 40
18.0
 40
19.0
 40
19.0
 40
20.0
 40
20.0
 40
21.0
 40
21.0
 40
22.0
 40
22.0
 40
23.0
 40
23.0
 40
24.0
 40
24.0
 40
25.0
 40
25.0
 40
26.0
 40
26.0
 40
27.0
 40
27.0
 40
28.0
 40
28.0
 40
29.0
 40
29.0
 40
30.0
 40
30.0
 40
31.0
 40
31.0
 40
32.0
 40
32.0
 40
33.0
 40
33.0
 40
34.0
 40
34.0
 40
35.0
 40
35.0
 40
36.0
 40
36.0
 40
37.0
 40
37.0
 40
38.0
 40
38.0
 40
39.0
 40
39.0
 40
40.0
 40
40.0
 40
41.0
 40
41.0
 40
42.0
 40
42.0
 40
43.0
 40
43.0
 40
44.0
 40
44.0
 40
45.0
 40
45.0
 40
46.0
 40
46.0
 40
47.0
 40
47.0
 40
48.0
 40
48.0
 40
49.0
 40
49.0
 40
50.0
 40
50.0
 40
51.0
 40
51.0
 40
52.0
 40
52.0
 40
53.0
 40
53.0
 40
54.0
 40
54.0
 40
55.0
 40
55.0
 40
56.0
 40
56.0
 40
57.0
 40
57.0
 40
58.0
 40
58.0
 40
59.0
 40
59.0
 40
60.0
 40
60.0
 40
61.0
 40
61.0
 40
62.0
 40
62.0
 40
63.0
 40
63.0
 40
64.0
 40
64.0
 40
65.0
 40
65.0
 40
66.0
 40
66.0
 40
67.0
 40
67.0
 40
68.0
 40
68.0
 40
69.0
 40
69.0
 40
70.0
 40
70.0
 40
71.0
 40
71.0
 40
72.0
 40
72.0
 40
73.0
 40
73.0
 40
74.0
 40
74.0
 40
75.0
 40
75.0
 40
76.0
 40
76.0
 40
77.0
 40
77.0
 40
78.0
 40
78.0
 40
79.0
 40
79.0
 40
80.0
 40
80.0
 40
81.0
 40
81.0
 40
82.0
 40
82.0
 40
83.0
 40
83.0
 40
84.0
 40
84.0
 40
85.0
 40
85.0
 40
86.0
 40
86.0
 40
87.0
 40
87.0
 40
88.0
 40
88.0
 40
89.0
 40
89.0
 40
90.0
 40
90.0
 40
91.0
 40
91.0
 40
92.0
 40
92.0
 40
93.0
 40
93.0
 40
94.0
 40
94.0
 40
95.0
 40
95.0
 40
96.0
 40
96.0
 40
97.0
 40
97.0
 40
98.0
 40
98.0
 40
99.0
 40
99.0
 40
100.0
 40
100.0
 40
101.0
 40
101.0
 40
102.0
 40
102.0
 40
103.0
 40
103.0
 40
104.0
 40
104.0
 40
105.0
 40
105.0
 40
106.0
 40
106.0
 40
107.0
 40
107.0
 40
108.0
 40
108.0
 40
109.0
 40
109.0
 40
110.0
 40
110.0
 40
111.0
 40
111.0
 40
112.0
 40
112.0
 40
113.0
 40
113.0
 40
114.0
 40
114.0
 40
115.0
 40
115.0
 40
116.0
 40
116.0
 40
117.0
 40
117.0
 40
118.0
 40
118.0
 40
119.0
 40
119.0
 40
120.0
 40
120.0
 40
121.0
 40
121.0
 40
122.0
 40
122.0
 40
123.0
 40
123.0
 40
124.0
 40
124.0
 40
125.0
 40
125.0
 40
126.0
 40
126.0
 40
127.0
 40
127.0
 40
128.0
 40
128.0
 40
129.0
 40
129.0
 40
130.0
 40
130.0
 40
131.0
 40
131.0
 40
132.0
 40
132.0
 40
133.0
 40
133.0
 40
134.0
 40
134.0
 40
135.0
 40
135.0
 40
136.0
 40
136.0
 40
137.0
 40
137.0
 40
138.0
 40
138.0
 40
139.0
 40
139.0
 40
140.0
 40
140.0
 40
141.0
 40
141.0
 40
142.0
 40
142.0
 40
143.0
 40
143.0
 40
144.0
 40
144.0
 40
145.0
 40
145.0
 40
146.0
 40
146.0
 40
147.0
 40
147.0
 40
148.0
 40
148.0
 40
149.0
 40
149.0
 40
150.0
 40
150.0
 40
151.0
 40
151.0
 40
152.0
 40
152.0
 40
153.0
 40
153.0
 40
154.0
 40
154.0
 40
155.0
 40
155.0
 40
156.0
 40
156.0
 40
157.0
 40
157.0
 40
158.0
 40
158.0
 40
159.0
 40
159.0
 40
160.0
 40
160.0
 40
161.0
 40
161.0
 40
162.0
 40
162.0
 40
163.0
 40
163.0
 40
164.0
 40
164.0
 40
165.0
 40
165.0
 40
166.0
 40
166.0
 40
167.0
 40
167.0
 40
168.0
 40
168.0
 40
169.0
 40
169.0
 40
170.0
 40
170.0
 40
171.0
 40
171.0
 40
172.0
 40
172.0
 40
173.0
 40
173.0
 40
174.0
 40
174.0
 40
175.0
 40
175.0
 40
176.0
 40
176.0
 40
177.0
 40
177.0
 40
178.0
 40
178.0
 40
179.0
 40
179.0
 40
180.0
 40
180.0
 40
181.0
 40
181.0
 40
182.0
 40
182.0
 40
183.0
 40
183.0
 40
184.0
 40
184.0
 40
185.0
 40
185.0
 40
186.0
 40
186.0
 40
187.0
 40
187.0
 40
188.0
 40
188.0
 40
189.0
 40
189.0
 40
190.0
 40
190.0
 40
191.0
 40
191.0
 40
192.0
 40
192.0
 40
193.0
 40
193.0
 40
194.0
 40
194.0
 40
195.0
 40
195.0
 40
196.0
 40
196.0
 40
197.0
 40
197.0
 40
198.0
 40
198.0
 40
199.0
 40
199.0
 40
200.0
 40
200.0
 40
201.0
 40
201.0
 40
202.0
 40
202.0
 40
203.0
 40
203.0
 40
204.0
 40
204.0
 40
205.0
 40
205.0
 40
206.0
 40
206.0
 40
207.0
 40
207.0
 40
208.0
 40
208.0
 40
209.0
 40
209.0
 40
210.0
 40
210.0
 40
211.0
 40
211.0
 40
212.0
 40
212.0
 40
213.0
 40
213.0
 40
214.0
 40
214.0
 40
215.0
 40
215.0
 40
216.0
 40
216.0
 40
217.0
 40
217.0
 40
218.0
 40
218.0
 40
219.0
 40
219.0
 40
220.0
 40
220.0
 40
221.0
 40
221.0
 40
222.0
 40
222.0
 40
223.0
 40
223.0
 40
224.0
 40
224.0
 40
225.0
 40
225.0
 40
226.0
 40
226.0
 40
227.0
 40
227.0
 40
228.0
 40
228.0
 40
229.0
 40
229.0
 40
230.0
 40
230.0
 40
231.0
 40
231.0
 40
232.0
 40
232.0
 40
233.0
 40
233.0
 40
234.0
 40
234.0
 40
235.0
 40
235.0
 40
236.0
 40
236.0
 40
237.0
 40
237.0
 40
238.0
 40
238.0
 40
239.0
 40
239.0
 40
240.0
 40
240.0
 40
241.0
 40
241.0
 40
242.0
 40
242.0
 40
243.0
 40
243.0
 40
244.0
 40
244.0
 40
245.0
 40
245.0
 40
246.0
 40
246.0
 40
247.0
 40
247.0
 40
248.0
 40
248.0
 40
249.0
 40
249.0
 40
250.0
 40
250.0
 40
251.0
 40
251.0
 40
252.0
 40
252.0
 40
253.0
 40
253.0
 40
254.0
 40
254.0
 40
255.0
 40
255.0
 40
256.0
 40
256.0
 40
257.0
 40
257.0
 40
258.0
 40
258.0
 40
259.0
 40
259.0
 40
260.0
 40
260.0
 40
261.0
 40
261.0
 40
262.0
 40
262.0
 40
263.0
 40
263.0
 40
264.0
 40
264.0
 40
265.0
 40
265.0
 40
266.0
 40
266.0
 40
267.0
 40
267.0
 40
268.0
 40
268.0
 40
269.0
 40
269.0
 40
270.0
 40
270.0
 40
271.0
 40
271.0
 40
272.0
 40
272.0
 40
273.0
 40
273.0
 40
274.0
 40
274.0
 40
275.0
 40
275.0
 40
276.0
 40
276.0
 40
277.0
 40
277.0
 40
278.0
 40
278.0
 40
279.0
 40
279.0
 40
280.0
 40
280.0
 40
281.0
 40
281.0
 40
282.0
 40
282.0
 40
283.0
 40
283.0
 40
284.0
 40
284.0
 40
285.0
 40
285.0
 40
286.0
 40
286.0
 40
287.0
 40
287.0
 40
288.0
 40
288.0
 40
289.0
 40
289.0
 40
290.0
 40
290.0
 40
291.0
 40
291.0
 40
292.0
 40
292.0
 40
293.0
 40
293.0
 40
294.0
 40
294.0
 40
295.0
 40
295.0
 40
296.0
 40
296.0
 40
297.0
 40
297.0
 40
298.0
 40
298.0
 40
299.0
 40
299.0
 40
300.0
 40
300.0
 40
301.0
 40
301.0
 40
302.0
 40
302.0
 40
303.0
 40
303.0
 40
304.0
 40
304.0
 40
305.0
 40
305.0
 40
306.0
 40
306.0
 40
307.0
 40
307.0
 40
308.0
 40
308.0
 40
309.0
 40
309.0
 40
310.0
 40
310.0
 40
311.0
 40
311.0
 40
312.0
 40
312.0
 40
313.0
 40
313.0
 40
314.0
 40
314.0
 40
315.0
 40
315.0
 40
316.0
 40
316.0
 40
317.0
 40
317.0
 40
318.0
 40
318.0
 40
319.0
 40
319.0
 40
320.0
 40
320.0
 40
321.0
 40
321.0
 40
322.0
 40
322.0
 40
323.0
 40
323.0
 40
324.0
 40
324.0
 40
325.0
 40
325.0
 40
326.0
 40
326.0
 40
327.0
 40
327.0
 40
328.0
 40
328.0
 40
329.0
 40
329.0
 40
330.0
 40
330.0
 40
331.0
 40
331.0
 40
332.0
 40
332.0
 40
333.0
 40
333.0
 40
334.0
 40
334.0
 40
335.0
 40
335.0
 40
336.0
 40
336.0
 40
337.0
 40
337.0
 40
338.0
 40
338.0
 40
339.0
 40
339.0
 40
340.0
 40
340.0
 40
341.0
 40
341.0
 40
342.0
 40
342.0
 40
343.0
 40
343.0
 40
344.0
 40
344.0
 40
345.0
 40
345.0
 40
346.0
 40
346.0
 40
347.0
 40
347.0
 40
348.0
 40
348.0
 40
349.0
 40
349.0
 40
350.0
 40
350.0
 40
351.0
 40
351.0
 40
352.0
 40
352.0
 40
353.0
 40
353.0
 40
354.0
 40
354.0
 40
355.0
 40
355.0
 40
356.0
 40
356.0
 40
357.0
 40
357.0
 40
358.0
 40
358.0
 40
359.0
 40
359.0
 40
360.0
 40
360.0
 40
361.0
 40
361.0
 40
362.0
 40
362.0
 40
363.0
 40
363.0
 40
364.0
 40
364.0
 40
365.0
 40
365.0
 40
366.0
 40
366.0
 40
367.0
 40
367.0
 40
368.0
 40
368.0
 40
369.0
 40
369.0
 40
370.0
 40
370.0
 40
371.0
 40
371.0
 40
372.0
 40
372.0
 40
373.0
 40
373.0
 40
374.0
 40
374.0
 40
375.0
 40
375.0
 40
376.0
 40
376.0
 40
377.0
 40
377.0
 40
378.0
 40
378.0
 40
379.0
 40
379.0
 40
380.0
 40
380.0
 40
381.0
 40
381.0
 40
382.0
 40
382.0
 40
383.0
 40
383.0
 40
384.0
 40
384.0
 40
385.0
 40
385.0
 40
386.0
 40
386.0
 40
387.0
 40
387.0
 40
388.0
 40
388.0
 40
389.0
 40
389.0
 40
389.0
 10
-19945.621104233011
 20
2356.7922978946926
 30
0.0
 41
1.0
 10
-19944.802680124289
 20
2356.7922978946926
 30
0.0
 41
1.0
 10
-19943.98425601557
 20
2356.7922978946926
 30
0.0
 41
1.0
 10
-19944.398009751087
 20
2355.4496716304429
 30
0.0
 41
1.0
 10
-19944.811763486603
 20
2354.1070453661932
 30
0.0
 41
1.0
 10
-19944.793423991385
 20
2354.1357461391817
 30
0.0
 41
0.9999957264385939
 10
-19944.774916994415
 20
2354.1643391895486
 30
0.0
 41
1.0
 10
-19944.744487670374
 20
2354.2113520677776
 30
0.0
 41
1.0
 10
-19944.71405834633
 20
2354.2583649460066
 30
0.0
 41
1.0
 10
-19944.634692701209
 20
2354.3809837529257
 30
0.0
 41
0.9995394069085901
 10
-19944.548034309653
 20
2354.4985618146789
 30
0.0
 41
1.0
 10
-19944.512277447418
 20
2354.5470767072397
 30
0.0
 41
1.0
 10
-19944.476520585184
 20
2354.5955915998006
 30
0.0
 41
1.0
 10
-19944.342793917353
 20
2354.7770318749431
 30
0.0
 41
0.999446061714246
 10
-19944.197293436046
 20
2354.949174272615
 30
0.0
 41
1.0
 10
-19944.192905255073
 20
2354.9543659529941
 30
0.0
 41
1.0
 10
-19944.188517074101
 20
2354.9595576333732
 30
0.0
 41
1.0
 10
-19944.051792954757
 20
2355.1213166702664
 30
0.0
 41
0.9994359394933693
 10
-19943.904518724405
 20
2355.2735328714293
 30
0.0
 41
1.0
 10
-19943.902135370441
 20
2355.2759962018126
 30
0.0
 41
1.0
 10
-19943.899752016478
 20
2355.2784595321959
 30
0.0
 41
1.0
 10
-19943.75724449406
 20
2355.4257490725927
 30
0.0
 41
0.9995293688564106
 10
-19943.605972813071
 20
2355.5640222847583
 30
0.0
 41
1.0
 10
-19943.586679053809
 20
2355.581658170408
 30
0.0
 41
1.0
 10
-19943.567385294547
 20
2355.5992940560577
 30
0.0
 41
1.0
 10
-19943.454701132068
 20
2355.7022954969411
 30
0.0
 41
0.9997087614801821
 10
-19943.337178243135
 20
2355.7997397777203
 30
0.0
 41
1.0
 10
-19943.318012170079
 20
2355.8156313561303
 30
0.0
 41
1.0
 10
-19943.298846097023
 20
2355.8315229345403
 30
0.0
 41
1.0
 10
-19943.219655354304
 20
2355.8971840584218
 30
0.0
 41
0.9999595338692243
 10
-19943.139296083325
 20
2355.9614097891731
 30
0.0
 41
1.0
 10
-19943.05893681238
 20
2356.0256355198962
 30
0.0
 41
0.99997494174988
 10
-19942.977676277951
 20
2356.0887170739129
 30
0.0
 41
1.0
 10
-19942.956690131832
 20
2356.1050083611813
 30
0.0
 41
1.0
 10
-19942.93570398571
 20
2356.1212996484496
 30
0.0
 41
1.0
 10
-19942.851136100428
 20
2356.1869486582709
 30
0.0
 41
0.9999792037123254
 10
-19942.765728500723
 20
2356.2515014398668
 30
0.0
 41
1.0
 10
-19942.744903674786
 20
2356.2672412621423
 30
0.0
 41
1.0
 10
-19942.724078848853
 20
2356.2829810844182
 30
0.0
 41
1.0
 10
-19942.680320900559
 20
2356.3160542218111
 30
0.0
 41
0.9999993374219772
 10
-19942.636639214812
 20
2356.3492280169348
 30
0.0
 41
1.0
 10
-19942.59295752869
 20
2356.3824018123441
 30
0.0
 41
0.9999160953814122
 10
-19942.548431117746
 20
2356.4144328775583
 30
0.0
 41
1.0
 10
-19942.51560923033
 20
2356.4380440331424
 30
0.0
 41
1.0
 10
-19942.482787342909
 20
2356.4616551887266
 30
0.0
 41
1.0
 10
-19942.372617157154
 20
2356.5409085650908
 30
0.0
 41
0.9980964527236299
 10
-19942.253528163659
 20
2356.6059960379462
 30
0.0
 41
1.0
 10
-19942.216495556739
 20
2356.6262360175351
 30
0.0
 41
1.0
 10
-19942.179462949818
 20
2356.6464759971245
 30
0.0
 41
1.0
 10
-19942.000135936545
 20
2356.744486247831
 30
0.0
 41
0.9984572810563995
 10
-19941.811047370164
 20
2356.8220085091843
 30
0.0
 41
1.0
 10
-19941.807401100756
 20
2356.823503401527
 30
0.0
 41
1.0
 10
-19941.803754831348
 20
2356.8249982938696
 30
0.0
 41
1.0
 10
-19941.6219588038
 20
2356.89953077053
 30
0.0
 41
0.9987838528037381
 10
-19941.433706145246
 20
2356.9557964106966
 30
0.0
 41
1.0
 10
-19941.429468196053
 20
2356.9570630643848
 30
0.0
 41
1.0
 10
-19941.425230246863
 20
2356.9583297180729
 30
0.0
 41
1.0
 10
-19941.245453486685
 20
2357.0120620508615
 30
0.0
 41
0.9990652816210129
 10
-19941.061707554967
 20
2357.0500657304046
 30
0.0
 41
1.0
 10
-19941.056519153935
 20
2357.0511388335117
 30
0.0
 41
1.0
 10
-19941.0513307529
 20
2357.0522119366187
 30
0.0
 41
1.0
 10
-19940.877961623257
 20
2357.0880694099469
 30
0.0
 41
0.9992909934268318
 10
-19940.702385856795
 20
2357.1107798424132
 30
0.0
 41
1.0
 10
-19940.526810090341
 20
2357.1334902748781
 30
0.0
 41
0.9994553539450327
 10
-19940.350118657239
 20
2357.1445695790862
 30
0.0
 41
1.0
 10
-19940.31468424945
 20
2357.1467914671339
 30
0.0
 41
1.0
 10
-19940.27924984166
 20
2357.1490133551811
 30
0.0
 41
1.0
 10
-19940.113024075075
 20
2357.1594364175912
 30
0.0
 41
0.9990928098298049
 10
-19939.94651428318
 20
2357.1556767763586
 30
0.0
 41
1.0
 10
-19939.907952447909
 20
2357.1548060848259
 30
0.0
 41
1.0
 10
-19939.869390612643
 20
2357.1539353932931
 30
0.0
 41
1.0
 10
-19939.78000449128
 20
2357.1519171351251
 30
0.0
 41
0.9998382089204105
 10
-19939.690748808491
 20
2357.1466850085963
 30
0.0
 41
1.0
 10
-19939.690318902274
 20
2357.146659807694
 30
0.0
 41
1.0
 10
-19939.689888996058
 20
2357.1466346067923
 30
0.0
 41
1.0
 10
-19939.601493125741
 20
2357.1414528820724
 30
0.0
 41
0.9997558016754524
 10
-19939.513412548506
 20
2357.1323703667013
 30
0.0
 41
1.0
 10
-19939.512936410072
 20
2357.1323212692187
 30
0.0
 41
1.0
 10
-19939.512460271642
 20
2357.1322721717356
 30
0.0
 41
1.0
 10
-19939.425331971324
 20
2357.1232878513374
 30
0.0
 41
0.9996565144182252
 10
-19939.338794117961
 20
2357.109750544646
 30
0.0
 41
1.0
 10
-19939.338328192593
 20
2357.1096776589156
 30
0.0
 41
1.0
 10
-19939.337862267221
 20
2357.1096047731853
 30
0.0
 41
1.0
 10
-19939.252256264619
 20
2357.0962132379591
 30
0.0
 41
0.9995321806860366
 10
-19939.167629184292
 20
2357.0776127495278
 30
0.0
 41
1.0
 10
-19939.167239989718
 20
2357.0775272070614
 30
0.0
 41
1.0
 10
-19939.166850795144
 20
2357.077441664595
 30
0.0
 41
1.0
 10
-19939.083002103973
 20
2357.0590122611006
 30
0.0
 41
0.9993819199218887
 10
-19939.000655569769
 20
2357.0347368778375
 30
0.0
 41
1.0
 10
-19939.000417136271
 20
2357.0346665887282
 30
0.0
 41
1.0
 10
-19939.000178702772
 20
2357.0345962996189
 30
0.0
 41
1.0
 10
-19938.918309035562
 20
2357.0104614945712
 30
0.0
 41
0.9992088568515641
 10
-19938.838616516583
 20
2356.9798962587829
 30
0.0
 41
1.0
 10
-19938.758935525719
 20
2356.9493366580573
 30
0.0
 41
0.9990226101769349
 10
-19938.682264855794
 20
2356.9118592264349
 30
0.0
 41
1.0
 10
-19938.605605713983
 20
2356.8743874298739
 30
0.0
 41
0.9988424273970273
 10
-19938.532902086787
 20
2356.8297226546292
 30
0.0
 41
1.0
 10
-19938.532634378407
 20
2356.8295581905568
 30
0.0
 41
1.0
 10
-19938.532366670028
 20
2356.8293937264843
 30
0.0
 41
1.0
 10
-19938.459127626047
 20
2356.784400023078
 30
0.0
 41
0.9986928844500552
 10
-19938.390864759349
 20
2356.7321642888091
 30
0.0
 41
1.0
 10
-19938.390283467124
 20
2356.7317194755806
 30
0.0
 41
1.0
 10
-19938.3897021749
 20
2356.7312746623516
 30
0.0
 41
1.0
 10
-19938.320276723742
 20
2356.6781493016133
 30
0.0
 41
0.9986007262278043
 10
-19938.256850553986
 20
2356.6179885319279
 30
0.0
 41
1.0
 10
-19938.255956138528
 20
2356.6171401640904
 30
0.0
 41
1.0
 10
-19938.255061723066
 20
2356.6162917962524
 30
0.0
 41
1.0
 10
-19938.189846722384
 20
2356.5544342908884
 30
0.0
 41
0.9985581491386867
 10
-19938.131639110696
 20
2356.4859418006345
 30
0.0
 41
1.0
 10
-19938.122380657092
 20
2356.4750474429238
 30
0.0
 41
1.0
 10
-19938.113122203489
 20
2356.4641530852136
 30
0.0
 41
1.0
 10
-19938.036397684591
 20
2356.3738718795271
 30
0.0
 41
0.997046023352302
 10
-19937.974405783429
 20
2356.2729047953367
 30
0.0
 41
1.0
 10
-19937.959936418352
 20
2356.2493383362648
 30
0.0
 41
1.0
 10
-19937.94546705328
 20
2356.225771877193
 30
0.0
 41
1.0
 10
-19937.905730353272
 20
2356.1610521531707
 30
0.0
 41
0.9988468816630124
 10
-19937.872383982518
 20
2356.0928197007347
 30
0.0
 41
1.0
 10
-19937.865347960054
 20
2356.0784227796535
 30
0.0
 41
1.0
 10
-19937.858311937587
 20
2356.0640258585722
 30
0.0
 41
1.0
 10
-19937.839037611786
 20
2356.0245872483542
 30
0.0
 41
0.9998431189998709
 10
-19937.821172284268
 20
2355.9844906938665
 30
0.0
 41
1.0
 10
-19937.803306956874
 20
2355.9443941396548
 30
0.0
 41
0.9999989990068098
 10
-19937.785328233498
 20
2355.9043483021705
 30
0.0
 41
1.0
 10
-19937.779155921831
 20
2355.8906000851939
 30
0.0
 41
1.0
 10
-19937.772983610164
 20
2355.8768518682168
 30
0.0
 41
1.0
 10
-19937.742660263539
 20
2355.8093095969753
 30
0.0
 41
0.9998790356321294
 10
-19937.714452383407
 20
2355.7408568450442
 30
0.0
 41
1.0
 10
-19937.707617202126
 20
2355.7242697436304
 30
0.0
 41
1.0
 10
-19937.700782020849
 20
2355.7076826422172
 30
0.0
 41
1.0
 10
-19937.677224358464
 20
2355.6505146873237
 30
0.0
 41
0.9998227574558575
 10
-19937.65583561008
 20
2355.5925003790526
 30
0.0
 41
1.0
 10
-19937.634446861699
 20
2355.534486070811
 30
0.0
 41
0.9996797971034971
 10
-19937.616020576756
 20
2355.4754639517482
 30
0.0
 41
1.0
 10
-19937.612116774017
 20
2355.4629594935341
 30
0.0
 41
1.0
 10
-19937.608212971278
 20
2355.4504550353195
 30
0.0
 41
1.0
 10
-19937.581979080871
 20
2355.3664239998739
 30
0.0
 41
0.9979274938731704
 10
-19937.566754557392
 20
2355.2797196412293
 30
0.0
 41
1.0
 10
-19937.564530870135
 20
2355.2670556404387
 30
0.0
 41
1.0
 10
-19937.562307182881
 20
2355.254391639648
 30
0.0
 41
1.0
 10
-19937.55137724317
 20
2355.1921451323169
 30
0.0
 41
0.9994985982124738
 10
-19937.544409077989
 20
2355.1293316311285
 30
0.0
 41
1.0
 10
-19937.537440912809
 20
2355.0665181298996
 30
0.0
 41
0.9996372611207512
 10
-19937.533865047037
 20
2355.0034205511247
 30
0.0
 41
1.0
 10
-19937.533696469553
 20
2355.0004459341326
 30
0.0
 41
1.0
 10
-19937.533527892068
 20
2354.99747131714
 30
0.0
 41
1.0
 10
-19937.529614871321
 20
2354.9284245042941
 30
0.0
 41
0.9997730630741274
 10
-19937.528646557828
 20
2354.8592736802611
 30
0.0
 41
1.0
 10
-19937.528589451409
 20
2354.8551955011185
 30
0.0
 41
1.0
 10
-19937.528532344993
 20
2354.8511173219758
 30
0.0
 41
1.0
 10
-19937.527449818674
 20
2354.7738101393916
 30
0.0
 41
0.9998772614081111
 10
-19937.528789905409
 20
2354.6965069925609
 30
0.0
 41
1.0
 10
-19937.528879168603
 20
2354.6913578289923
 30
0.0
 41
1.0
 10
-19937.528968431798
 20
2354.6862086654237
 30
0.0
 41
1.0
 10
-19937.530487044925
 20
2354.5986071912912
 30
0.0
 41
0.9999415567326465
 10
-19937.533899355167
 20
2354.5110590297199
 30
0.0
 41
1.0
 10
-19937.534140675845
 20
2354.5048675698799
 30
0.0
 41
1.0
 10
-19937.534381996527
 20
2354.4986761100399
 30
0.0
 41
1.0
 10
-19937.538276948126
 20
2354.3987450288232
 30
0.0
 41
0.9999716810428286
 10
-19937.543675531248
 20
2354.2988838905349
 30
0.0
 41
1.0
 10
-19937.546888330042
 20
2354.2394546407495
 30
0.0
 41
1.0
 10
-19937.55010112884
 20
2354.1800253909641
 30
0.0
 41
1.0
 10
-19937.558175037986
 20
2354.0306769898716
 30
0.0
 41
0.9999819129901818
 10
-19937.56804482959
 20
2353.881436512354
 30
0.0
 41
1.0
 10
-19937.577914621204
 20
2353.7321960346426
 30
0.0
 41
1.0
 10
-19937.580353941768
 20
2353.6950029887935
 30
0.0
 41
1.0
 10
-19937.557655707922
 20
2353.733743986154
 30
0.0
 41
0.9999982128105736
 10
-19937.534811149264
 20
2353.7723988799466
 30
0.0
 41
1.0
 10
-19937.507901589339
 20
2353.817932094069
 30
0.0
 41
1.0
 10
-19937.480992029414
 20
2353.8634653081913
 30
0.0
 41
1.0
 10
-19937.404328350858
 20
2353.9931866303059
 30
0.0
 41
0.9998609190059984
 10
-19937.323381037953
 20
2354.1202790123066
 30
0.0
 41
1.0
 10
-19937.293732716509
 20
2354.1668287452048
 30
0.0
 41
1.0
 10
-19937.264084395065
 20
2354.2133784781031
 30
0.0
 41
1.0
 10
-19937.181812174833
 20
2354.3425510480938
 30
0.0
 41
0.9999067609732423
 10
-19937.096043165362
 20
2354.4694287375414
 30
0.0
 41
1.0
 10
-19937.093638462164
 20
2354.4729860035918
 30
0.0
 41
1.0
 10
-19937.091233758965
 20
2354.4765432696422
 30
0.0
 41
1.0
 10
-19937.010274155913
 20
2354.5963064269645
 30
0.0
 41
0.9998784952146997
 10
-19936.925620546215
 20
2354.7134876436912
 30
0.0
 41
1.0
 10
-19936.84096693655
 20
2354.8306688603825
 30
0.0
 41
0.9998532968283183
 10
-19936.752349315731
 20
2354.9448817688467
 30
0.0
 41
1.0
 10
-19936.732387526739
 20
2354.9706090898671
 30
0.0
 41
1.0
 10
-19936.712425737747
 20
2354.996336410888
 30
0.0
 41
1.0
 10
-19936.593941687992
 20
2355.1490420218552
 30
0.0
 41
0.9991551975795698
 10
-19936.463317238347
 20
2355.2915015839626
 30
0.0
 41
1.0
 10
-19936.459807622381
 20
2355.295329185572
 30
0.0
 41
1.0
 10
-19936.456298006415
 20
2355.2991567871809
 30
0.0
 41
1.0
 10
-19936.332692788725
 20
2355.4339611460455
 30
0.0
 41
0.9997418144182172
 10
-19936.203090649025
 20
2355.5630105566588
 30
0.0
 41
1.0
 10
-19936.073488509319
 20
2355.6920599672726
 30
0.0
 41
0.998923820463403
 10
-19935.932485961086
 20
2355.8085449292967
 30
0.0
 41
1.0
 10
-19935.887238282932
 20
2355.8459249209182
 30
0.0
 41
1.0
 10
-19935.841990604778
 20
2355.8833049125401
 30
0.0
 41
1.0
 10
-19935.701750547571
 20
2355.9991599658183
 30
0.0
 41
0.9990825084101245
 10
-19935.552110614968
 20
2356.1025889636517
 30
0.0
 41
1.0
 10
-19935.542065250927
 20
2356.1095321767216
 30
0.0
 41
1.0
 10
-19935.532019886883
 20
2356.1164753897915
 30
0.0
 41
1.0
 10
-19935.402470682351
 20
2356.2060179614919
 30
0.0
 41
0.9998164899825993
 10
-19935.269586478986
 20
2356.290532203001
 30
0.0
 41
1.0
 10
-19935.257740918481
 20
2356.2980659695145
 30
0.0
 41
1.0
 10
-19935.245895357973
 20
2356.3055997360279
 30
0.0
 41
1.0
 10
-19935.136702275631
 20
2356.3750464445066
 30
0.0
 41
0.9997473449129042
 10
-19935.024498318358
 20
2356.4395154023332
 30
0.0
 41
1.0
 10
-19934.912294361038
 20
2356.5039843601876
 30
0.0
 41
0.9999327861144912
 10
-19934.79862575026
 20
2356.565834351878
 30
0.0
 41
1.0
 10
-19934.798073747741
 20
2356.5661347105333
 30
0.0
 41
1.0
 10
-19934.797521745226
 20
2356.5664350691886
 30
0.0
 41
1.0
 10
-19934.682749129395
 20
2356.6288857782019
 30
0.0
 41
0.9996956420482178
 10
-19934.565035803582
 20
2356.6855992451638
 30
0.0
 41
1.0
 10
-19934.534595398596
 20
2356.7002652219371
 30
0.0
 41
1.0
 10
-19934.504154993614
 20
2356.7149311987105
 30
0.0
 41
1.0
 10
-19934.401177886921
 20
2356.7645448571297
 30
0.0
 41
0.9998070570175153
 10
-19934.29633149803
 20
2356.8100754440075
 30
0.0
 41
1.0
 10
-19934.191485109088
 20
2356.8556060309088
 30
0.0
 41
0.9997827436149154
 10
-19934.084832172441
 20
2356.8967272022355
 30
0.0
 41
1.0
 10
-19934.065609322828
 20
2356.9041387758602
 30
0.0
 41
1.0
 10
-19934.046386473216
 20
2356.911550349485
 30
0.0
 41
1.0
 10
-19933.901287837321
 20
2356.967494668067
 30
0.0
 41
0.9988031841985167
 10
-19933.751417474727
 20
2357.008994732234
 30
0.0
 41
1.0
 10
-19933.726500226374
 20
2357.0158944780387
 30
0.0
 41
1.0
 10
-19933.701582978018
 20
2357.022794223843
 30
0.0
 41
1.0
 10
-19933.534312952361
 20
2357.06911236625
 30
0.0
 41
0.9984748040554814
 10
-19933.362956043718
 20
2357.0967065985151
 30
0.0
 41
1.0
 10
-19933.358216907473
 20
2357.0974697590277
 30
0.0
 41
1.0
 10
-19933.35347777123
 20
2357.0982329195404
 30
0.0
 41
1.0
 10
-19933.191599135058
 20
2357.1243008307788
 30
0.0
 41
0.9984436495486123
 10
-19933.027824391342
 20
2357.1321787845982
 30
0.0
 41
1.0
 10
-19933.006127183209
 20
2357.133222471798
 30
0.0
 41
1.0
 10
-19932.984429975073
 20
2357.1342661589979
 30
0.0
 41
1.0
 10
-19932.864049647622
 20
2357.1400567384171
 30
0.0
 41
0.9987954789334097
 10
-19932.74368140271
 20
2357.1340202106749
 30
0.0
 41
1.0
 10
-19932.723716610213
 20
2357.1330189663363
 30
0.0
 41
1.0
 10
-19932.70375181772
 20
2357.1320177219977
 30
0.0
 41
1.0
 10
-19932.623313157826
 20
2357.1279836829367
 30
0.0
 41
0.9997941595871709
 10
-19932.543104379707
 20
2357.1206896170115
 30
0.0
 41
1.0
 10
-19932.462895601613
 20
2357.1133955510891
 30
0.0
 41
0.9998589466241182
 10
-19932.382977054753
 20
2357.1034116966403
 30
0.0
 41
1.0
 10
-19932.350570852945
 20
2357.0993633397211
 30
0.0
 41
1.0
 10
-19932.318164651137
 20
2357.0953149828019
 30
0.0
 41
1.0
 10
-19932.173433700696
 20
2357.0772344145189
 30
0.0
 41
0.9993495063246197
 10
-19932.030382456913
 20
2357.0487687047735
 30
0.0
 41
1.0
 10
-19931.997448759757
 20
2357.0422152415586
 30
0.0
 41
1.0
 10
-19931.964515062602
 20
2357.0356617783432
 30
0.0
 41
1.0
 10
-19931.855221239381
 20
2357.0139134442043
 30
0.0
 41
0.9996788715560067
 10
-19931.747169667437
 20
2356.9866556448437
 30
0.0
 41
1.0
 10
-19931.745106664897
 20
2356.9861352182706
 30
0.0
 41
1.0
 10
-19931.743043662358
 20
2356.985614791698
 30
0.0
 41
1.0
 10
-19931.639118095496
 20
2356.9593978454836
 30
0.0
 41
0.9995480654496473
 10
-19931.536955860254
 20
2356.9269828888564
 30
0.0
 41
1.0
 10
-19931.535266218121
 20
2356.9264467839412
 30
0.0
 41
1.0
 10
-19931.533576575988
 20
2356.9259106790264
 30
0.0
 41
1.0
 10
-19931.434793625005
 20
2356.8945679322246
 30
0.0
 41
0.9993867959457781
 10
-19931.33844646658
 20
2356.8563885629419
 30
0.0
 41
1.0
 10
-19931.337203517483
 20
2356.8558960210412
 30
0.0
 41
1.0
 10
-19931.335960568387
 20
2356.85540347914
 30
0.0
 41
1.0
 10
-19931.242099308129
 20
2356.8182091936483
 30
0.0
 41
0.9992050256521344
 10
-19931.151499633103
 20
2356.7736552944134
 30
0.0
 41
1.0
 10
-19931.150764950402
 20
2356.7732940019587
 30
0.0
 41
1.0
 10
-19931.150030267701
 20
2356.7729327095035
 30
0.0
 41
1.0
 10
-19931.060899958087
 20
2356.7291013951854
 30
0.0
 41
0.9990222350738794
 10
-19930.975989896673
 20
2356.6775681274767
 30
0.0
 41
1.0
 10
-19930.975806011382
 20
2356.6774565245655
 30
0.0
 41
1.0
 10
-19930.975622126087
 20
2356.6773449216544
 30
0.0
 41
1.0
 10
-19930.891079835277
 20
2356.626034859778
 30
0.0
 41
0.9988642743803124
 10
-19930.811805300662
 20
2356.566910672253
 30
0.0
 41
1.0
 10
-19930.732530766054
 20
2356.5077864847394
 30
0.0
 41
0.9987681233298743
 10
-19930.659506981774
 20
2356.4410957933314
 30
0.0
 41
1.0
 10
-19930.659178053807
 20
2356.440795392115
 30
0.0
 41
1.0
 10
-19930.658849125837
 20
2356.4404949908985
 30
0.0
 41
1.0
 10
-19930.585167485635
 20
2356.3732034970785
 30
0.0
 41
0.9987496570887138
 10
-19930.5185736803
 20
2356.2988906829814
 30
0.0
 41
1.0
 10
-19930.517801510541
 20
2356.2980290096243
 30
0.0
 41
1.0
 10
-19930.517029340779
 20
2356.2971673362672
 30
0.0
 41
1.0
 10
-19930.44889119592
 20
2356.221131175444
 30
0.0
 41
0.998814766985053
 10
-19930.388468941681
 20
2356.1388301685888
 30
0.0
 41
1.0
 10
-19930.387349615616
 20
2356.1373055372533
 30
0.0
 41
1.0
 10
-19930.38623028955
 20
2356.1357809059173
 30
0.0
 41
1.0
 10
-19930.323569383163
 20
2356.0504306363573
 30
0.0
 41
0.9989452636219824
 10
-19930.269002470206
 20
2355.9596919472056
 30
0.0
 41
1.0
 10
-19930.267653744122
 20
2355.9574491661824
 30
0.0
 41
1.0
 10
-19930.266305018038
 20
2355.9552063851597
 30
0.0
 41
1.0
 10
-19930.209040652895
 20
2355.8599821339253
 30
0.0
 41
0.9991046436074501
 10
-19930.160031439566
 20
2355.7602577008856
 30
0.0
 41
1.0
 10
-19930.158567577986
 20
2355.7572790208324
 30
0.0
 41
1.0
 10
-19930.157103716403
 20
2355.7543003407791
 30
0.0
 41
1.0
 10
-19930.105166779904
 20
2355.6486185476078
 30
0.0
 41
0.9992763831109821
 10
-19930.061413651347
 20
2355.5392944856562
 30
0.0
 41
1.0
 10
-19930.059934381683
 20
2355.5355982981209
 30
0.0
 41
1.0
 10
-19930.058455112019
 20
2355.5319021105852
 30
0.0
 41
1.0
 10
-19930.011743444131
 20
2355.4151856735416
 30
0.0
 41
0.9994163472886342
 10
-19929.973110412939
 20
2355.2955520850705
 30
0.0
 41
1.0
 10
-19929.971872260689
 20
2355.2917179412775
 30
0.0
 41
1.0
 10
-19929.970634108438
 20
2355.2878837974845
 30
0.0
 41
1.0
 10
-19929.930750547432
 20
2355.1643777360218
 30
0.0
 41
0.9997268055894653
 10
-19929.896682491526
 20
2355.0391427041031
 30
0.0
 41
1.0
 10
-19929.895752311255
 20
2355.03572333799
 30
0.0
 41
1.0
 10
-19929.894822130984
 20
2355.0323039718769
 30
0.0
 41
1.0
 10
-19929.862614435613
 20
2354.9139076721399
 30
0.0
 41
0.9996701319008249
 10
-19929.836528818843
 20
2354.7940137188889
 30
0.0
 41
1.0
 10
-19929.810443202081
 20
2354.6741197656634
 30
0.0
 41
0.9995785451105529
 10
-19929.791359624749
 20
2354.552914004676
 30
0.0
 41
1.0
 10
-19929.78713984257
 20
2354.5261128498887
 30
0.0
 41
1.0
 10
-19929.782920060392
 20
2354.4993116951018
 30
0.0
 41
1.0
 10
-19929.75634508445
 20
2354.330525721381
 30
0.0
 41
0.9979925101219532
 10
-19929.751319498522
 20
2354.1597343932694
 30
0.0
 41
1.0
 10
-19929.750494686097
 20
2354.1317036697774
 30
0.0
 41
1.0
 10
-19929.749669873672
 20
2354.1036729462858
 30
0.0
 41
1.0
 10
-19929.746293912594
 20
2353.9889430651674
 30
0.0
 41
0.9995314902262019
 10
-19929.749944104733
 20
2353.8742215814254
 30
0.0
 41
1.0
 10
-19929.753594296872
 20
2353.7595000976862
 30
0.0
 41
0.9996245486938352
 10
-19929.763523392005
 20
2353.6451508265759
 30
0.0
 41
1.0
 10
-19929.763686439997
 20
2353.6432730704273
 30
0.0
 41
1.0
 10
-19929.763849487994
 20
2353.6413953142792
 30
0.0
 41
1.0
 10
-19929.774104679116
 20
2353.5232905308671
 30
0.0
 41
0.9997286094999622
 10
-19929.789850002689
 20
2353.4057916219531
 30
0.0
 41
1.0
 10
-19929.790243495336
 20
2353.4028551972697
 30
0.0
 41
1.0
 10
-19929.790636987986
 20
2353.3999187725867
 30
0.0
 41
1.0
 10
-19929.807169296851
 20
2353.2765470143177
 30
0.0
 41
0.9998265533965334
 10
-19929.828284755578
 20
2353.153876539564
 30
0.0
 41
1.0
 10
-19929.828961297721
 20
2353.1499461610247
 30
0.0
 41
1.0
 10
-19929.829637839863
 20
2353.1460157824849
 30
0.0
 41
1.0
 10
-19929.852106382881
 20
2353.0154845506268
 30
0.0
 41
0.999902253085296
 10
-19929.878215847497
 20
2352.885632581947
 30
0.0
 41
1.0
 10
-19929.879194488654
 20
2352.8807654396078
 30
0.0
 41
1.0
 10
-19929.880173129808
 20
2352.8758982972681
 30
0.0
 41
1.0
 10
-19929.908239876742
 20
2352.7363120438822
 30
0.0
 41
0.999952476193421
 10
-19929.939022845574
 20
2352.5972995507468
 30
0.0
 41
1.0
 10
-19929.940298952755
 20
2352.5915367914158
 30
0.0
 41
1.0
 10
-19929.941575059936
 20
2352.5857740320853
 30
0.0
 41
1.0
 10
-19929.974910243087
 20
2352.435236020473
 30
0.0
 41
0.9999813588731302
 10
-19930.010081243858
 20
2352.2851163079254
 30
0.0
 41
1.0
 10
-19930.011635169343
 20
2352.2784837173704
 30
0.0
 41
1.0
 10
-19930.013189094832
 20
2352.2718511268158
 30
0.0
 41
1.0
 10
-19930.051467946676
 20
2352.1084662327567
 30
0.0
 41
0.9999955237662569
 10
-19930.090723824771
 20
2351.9453133286597
 30
0.0
 41
1.0
 10
-19930.103005460282
 20
2351.894269138661
 30
0.0
 41
1.0
 10
-19930.115287095789
 20
2351.8432249486623
 30
0.0
 41
1.0
 10
-19930.179106244876
 20
2351.5779836646793
 30
0.0
 41
0.9999993604599015
 10
-19930.243525191836
 20
2351.3128874148497
 30
0.0
 41
1.0
 10
-19930.248244027567
 20
2351.2934685060472
 30
0.0
 41
1.0
 10
-19930.252962863298
 20
2351.2740495972453
 30
0.0
 41
1.0
 10
-19930.326819481557
 20
2350.970115530492
 30
0.0
 41
0.999965991473168
 10
-19930.405679077448
 20
2350.6674409839138
 30
0.0
 41
1.0
 10
-19930.410631766375
 20
2350.6484318467383
 30
0.0
 41
1.0
 10
-19930.415584455306
 20
2350.6294227095623
 30
0.0
 41
1.0
 10
-19930.504349429011
 20
2350.2887298887863
 30
0.0
 41
0.999944197602422
 10
-19930.600292461921
 20
2349.9499884636716
 30
0.0
 41
1.0
 10
-19930.616992980395
 20
2349.8910247509803
 30
0.0
 41
1.0
 10
-19930.633693498865
 20
2349.8320610382889
 30
0.0
 41
1.0
 10
-19930.763037568639
 20
2349.3753921880757
 30
0.0
 41
0.9999625120737501
 10
-19930.900270335933
 20
2348.9210316541789
 30
0.0
 41
1.0
 10
-19930.936060279091
 20
2348.8025356272997
 30
0.0
 41
1.0
 10
-19930.971850222249
 20
2348.6840396004204
 30
0.0
 41
1.0
 10
-19931.046370426255
 20
2348.4373125224429
 30
0.0
 41
0.9999793386321422
 10
-19931.124056449349
 20
2348.1915638833461
 30
0.0
 41
1.0
 10
-19931.201742472487
 20
2347.9458152441098
 30
0.0
 41
1.0
 10
-19931.212522031357
 20
2347.9117973397351
 30
0.0
 41
1.0
 10
-19933.062895084629
 20
2342.0247254172677
 30
0.0
 41
1.0
 10
-19934.913268137898
 20
2336.1376534948004
 30
0.0
 41
1.0
 10
-19935.874524827923
 20
2336.1376534948004
 30
0.0
 41
1.0
 10
-19936.835781517944
 20
2336.1376534948004
 30
0.0
 41
1.0
 10
-19935.216836739266
 20
2341.2856819965896
 30
0.0
 41
1.0
 10
-19933.597891960588
 20
2346.4337104983788
 30
0.0
 41
1.0
 10
-19933.552726137452
 20
2346.5777417205222
 30
0.0
 41
1.0
 10
-19933.507560314316
 20
2346.7217729426657
 30
0.0
 41
1.0
 10
-19933.337255896902
 20
2347.2648639719882
 30
0.0
 41
0.9999911657903066
 10
-19933.171523085195
 20
2347.8093675034452
 30
0.0
 41
1.0
 10
-19933.141827141622
 20
2347.9069314437352
 30
0.0
 41
1.0
 10
-19933.11213119805
 20
2348.0044953840252
 30
0.0
 41
1.0
 10
-19933.005790273433
 20
2348.3538710350867
 30
0.0
 41
0.9999952428177045
 10
-19932.90160668419
 20
2348.7038960591581
 30
0.0
 41
1.0
 10
-19932.896547213873
 20
2348.7208943333744
 30
0.0
 41
1.0
 10
-19932.89148774356
 20
2348.7378926075903
 30
0.0
 41
1.0
 10
-19932.797423094882
 20
2349.0539210834559
 30
0.0
 41
0.999993168751642
 10
-19932.705697256992
 20
2349.3706362967782
 30
0.0
 41
1.0
 10
-19932.700761992488
 20
2349.3876770062038
 30
0.0
 41
1.0
 10
-19932.695826727984
 20
2349.4047177156294
 30
0.0
 41
1.0
 10
-19932.613971419069
 20
2349.6873515102184
 30
0.0
 41
0.9999893840801206
 10
-19932.534724192661
 20
2349.9707276392955
 30
0.0
 41
1.0
 10
-19932.455476966148
 20
2350.2541037687333
 30
0.0
 41
0.9999833980078434
 10
-19932.379500725379
 20
2350.5383743518864
 30
0.0
 41
1.0
 10
-19932.370496788652
 20
2350.5720632303905
 30
0.0
 41
1.0
 10
-19932.36149285192
 20
2350.6057521088946
 30
0.0
 41
1.0
 10
-19932.2925283031
 20
2350.8637879410126
 30
0.0
 41
0.9999233658068545
 10
-19932.229973331931
 20
2351.1234520995486
 30
0.0
 41
1.0
 10
-19932.16741836071
 20
2351.383116258271
 30
0.0
 41
1.0
 10
-19932.127934941855
 20
2351.5469229226969
 30
0.0
 41
1.0
 10
-19932.122956337917
 20
2351.5675778843924
 30
0.0
 41
1.0
 10
-19932.117977733982
 20
2351.5882328460875
 30
0.0
 41
1.0
 10
-19932.088451523032
 20
2351.71072958697
 30
0.0
 41
0.9999868670866523
 10
-19932.060182439
 20
2351.8335225327683
 30
0.0
 41
1.0
 10
-19932.056284951817
 20
2351.8504521202876
 30
0.0
 41
1.0
 10
-19932.052387464639
 20
2351.8673817078075
 30
0.0
 41
1.0
 10
-19932.031913354975
 20
2351.9563154785419
 30
0.0
 41
0.9999778173344118
 10
-19932.012625756888
 20
2352.0455140956442
 30
0.0
 41
1.0
 10
-19931.993338158773
 20
2352.1347127128824
 30
0.0
 41
0.9999602692859074
 10
-19931.975643800131
 20
2352.2242410013514
 30
0.0
 41
1.0
 10
-19931.972439968056
 20
2352.2404514562122
 30
0.0
 41
1.0
 10
-19931.969236135985
 20
2352.2566619110726
 30
0.0
 41
1.0
 10
-19931.945134113201
 20
2352.3786111092636
 30
0.0
 41
0.9995617985323554
 10
-19931.928290765984
 20
2352.5017728569615
 30
0.0
 41
1.0
 10
-19931.92582627607
 20
2352.5197936743534
 30
0.0
 41
1.0
 10
-19931.923361786161
 20
2352.5378144917449
 30
0.0
 41
1.0
 10
-19931.903078525116
 20
2352.6861295414269
 30
0.0
 41
0.999112141064156
 10
-19931.895353171531
 20
2352.8356256402149
 30
0.0
 41
1.0
 10
-19931.894434381506
 20
2352.8534054768088
 30
0.0
 41
1.0
 10
-19931.893515591481
 20
2352.8711853134023
 30
0.0
 41
1.0
 10
-19931.887627817945
 20
2352.9851217390387
 30
0.0
 41
0.9989792494904727
 10
-19931.892046910063
 20
2353.0991245749196
 30
0.0
 41
1.0
 10
-19931.892694881928
 20
2353.1158408208248
 30
0.0
 41
1.0
 10
-19931.893342853797
 20
2353.1325570667295
 30
0.0
 41
1.0
 10
-19931.896466002177
 20
2353.2131274107933
 30
0.0
 41
0.9997820295395569
 10
-19931.902949999552
 20
2353.2934971325622
 30
0.0
 41
1.0
 10
-19931.909433996923
 20
2353.3738668542319
 30
0.0
 41
0.9998335105978249
 10
-19931.918846192428
 20
2353.4539464706154
 30
0.0
 41
1.0
 10
-19931.920441117112
 20
2353.467516201169
 30
0.0
 41
1.0
 10
-19931.922036041797
 20
2353.4810859317222
 30
0.0
 41
1.0
 10
-19931.934638086652
 20
2353.5883050090747
 30
0.0
 41
0.9996876457880447
 10
-19931.952581999438
 20
2353.6947604367333
 30
0.0
 41
1.0
 10
-19931.954813662589
 20
2353.7080001720201
 30
0.0
 41
1.0
 10
-19931.957045325744
 20
2353.7212399073069
 30
0.0
 41
1.0
 10
-19931.970841147166
 20
2353.8030860512799
 30
0.0
 41
0.9995547496497701
 10
-19931.98949446906
 20
2353.8839635484874
 30
0.0
 41
1.0
 10
-19931.989868425931
 20
2353.8855849591937
 30
0.0
 41
1.0
 10
-19931.990242382803
 20
2353.8872063699005
 30
0.0
 41
1.0
 10
-19932.008147790955
 20
2353.9648410456775
 30
0.0
 41
0.9994899427182123
 10
-19932.030972699635
 20
2354.0411743285131
 30
0.0
 41
1.0
 10
-19932.031431226387
 20
2354.0427077783429
 30
0.0
 41
1.0
 10
-19932.03188975314
 20
2354.0442412281727
 30
0.0
 41
1.0
 10
-19932.053797608325
 20
2354.1175076113832
 30
0.0
 41
0.9993784877596021
 10
-19932.080813243418
 20
2354.1890483165062
 30
0.0
 41
1.0
 10
-19932.081344934391
 20
2354.1904562992186
 30
0.0
 41
1.0
 10
-19932.081876625365
 20
2354.1918642819314
 30
0.0
 41
1.0
 10
-19932.107828878525
 20
2354.2605890216632
 30
0.0
 41
0.9992430832255811
 10
-19932.139045413685
 20
2354.3270881737335
 30
0.0
 41
1.0
 10
-19932.139627529748
 20
2354.3283282288658
 30
0.0
 41
1.0
 10
-19932.140209645811
 20
2354.3295682839976
 30
0.0
 41
1.0
 10
-19932.17026194885
 20
2354.3935873258083
 30
0.0
 41
0.9990789632801158
 10
-19932.205692575622
 20
2354.4547939375516
 30
0.0
 41
1.0
 10
-19932.206288281814
 20
2354.4558230234288
 30
0.0
 41
1.0
 10
-19932.206883988008
 20
2354.4568521093056
 30
0.0
 41
1.0
 10
-19932.241123202406
 20
2354.5160005493126
 30
0.0
 41
0.9988874801107062
 10
-19932.280782478432
 20
2354.5716602617194
 30
0.0
 41
1.0
 10
-19932.281338004505
 20
2354.572439913406
 30
0.0
 41
1.0
 10
-19932.281893530577
 20
2354.5732195650926
 30
0.0
 41
1.0
 10
-19932.320441754477
 20
2354.6273199741559
 30
0.0
 41
0.998676206068017
 10
-19932.364344225738
 20
2354.6771736885762
 30
0.0
 41
1.0
 10
-19932.364788186074
 20
2354.6776778303974
 30
0.0
 41
1.0
 10
-19932.365232146411
 20
2354.6781819722191
 30
0.0
 41
1.0
 10
-19932.408246697014
 20
2354.7270274030152
 30
0.0
 41
0.9984621642496693
 10
-19932.45640425379
 20
2354.7708107034864
 30
0.0
 41
1.0
 10
-19932.456650888307
 20
2354.7710349356507
 30
0.0
 41
1.0
 10
-19932.456897522825
 20
2354.7712591678151
 30
0.0
 41
1.0
 10
-19932.504561810565
 20
2354.8145940039558
 30
0.0
 41
0.9982724693851386
 10
-19932.556980442409
 20
2354.8520383544751
 30
0.0
 41
1.0
 10
-19932.609399074267
 20
2354.8894827050026
 30
0.0
 41
0.9981399180162272
 10
-19932.665985137661
 20
2354.9202692244453
 30
0.0
 41
1.0
 10
-19932.66603079973
 20
2354.9202940675978
 30
0.0
 41
1.0
 10
-19932.666076461803
 20
2354.9203189107507
 30
0.0
 41
1.0
 10
-19932.722753849353
 20
2354.9511551165087
 30
0.0
 41
0.9980927086835716
 10
-19932.782799200435
 20
2354.9747719253673
 30
0.0
 41
1.0
 10
-19932.783239370139
 20
2354.974945051239
 30
0.0
 41
1.0
 10
-19932.783679539843
 20
2354.9751181771112
 30
0.0
 41
1.0
 10
-19932.844605230341
 20
2354.9990812377137
 30
0.0
 41
0.9981411356566482
 10
-19932.90799375172
 20
2355.0154538792149
 30
0.0
 41
1.0
 10
-19932.90887586843
 20
2355.0156817214224
 30
0.0
 41
1.0
 10
-19932.909757985137
 20
2355.01590956363
 30
0.0
 41
1.0
 10
-19932.974910739926
 20
2355.0327378895431
 30
0.0
 41
0.9983031812943908
 10
-19933.041578168923
 20
2355.041877250721
 30
0.0
 41
1.0
 10
-19933.050449194332
 20
2355.0430933693933
 30
0.0
 41
1.0
 10
-19933.059320219741
 20
2355.0443094880652
 30
0.0
 41
1.0
 10
-19933.113669862258
 20
2355.0517602180571
 30
0.0
 41
0.9983887708263733
 10
-19933.168513711535
 20
2355.0530048916899
 30
0.0
 41
1.0
 10
-19933.176577116763
 20
2355.0531878895649
 30
0.0
 41
1.0
 10
-19933.184640521991
 20
2355.05337088744
 30
0.0
 41
1.0
 10
-19933.223357560859
 20
2355.0542495653222
 30
0.0
 41
0.999886956308228
 10
-19933.262083514033
 20
2355.0539636959634
 30
0.0
 41
1.0
 10
-19933.300809467368
 20
2355.0536778266037
 30
0.0
 41
0.9999972320120345
 10
-19933.339533646325
 20
2355.0532097270757
 30
0.0
 41
1.0
 10
-19933.358886662965
 20
2355.0529757869854
 30
0.0
 41
1.0
 10
-19933.378239679605
 20
2355.0527418468955
 30
0.0
 41
1.0
 10
-19933.455669891977
 20
2355.0518058671878
 30
0.0
 41
0.9997304945087588
 10
-19933.532973198195
 20
2355.0472767734032
 30
0.0
 41
1.0
 10
-19933.542022839909
 20
2355.0467465674128
 30
0.0
 41
1.0
 10
-19933.551072481623
 20
2355.046216361422
 30
0.0
 41
1.0
 10
-19933.646475071251
 20
2355.0406268556567
 30
0.0
 41
0.9997888306418101
 10
-19933.74156740712
 20
2355.0311218911665
 30
0.0
 41
1.0
 10
-19933.750288468691
 20
2355.0302501765345
 30
0.0
 41
1.0
 10
-19933.759009530258
 20
2355.029378461903
 30
0.0
 41
1.0
 10
-19933.871543989258
 20
2355.0181300681502
 30
0.0
 41
0.9984170238182077
 10
-19933.982103136608
 20
2354.9943139862125
 30
0.0
 41
1.0
 10
-19934.018484267581
 20
2354.9864769504088
 30
0.0
 41
1.0
 10
-19934.054865398557
 20
2354.9786399146051
 30
0.0
 41
1.0
 10
-19934.170056466981
 20
2354.9538260480954
 30
0.0
 41
0.997659285419747
 10
-19934.280784633396
 20
2354.9135273709448
 30
0.0
 41
1.0
 10
-19934.391512799768
 20
2354.8732286938089
 30
0.0
 41
0.9993255074359493
 10
-19934.498984598569
 20
2354.824911795316
 30
0.0
 41
1.0
 10
-19934.503609777505
 20
2354.8228324191109
 30
0.0
 41
1.0
 10
-19934.50823495644
 20
2354.8207530429058
 30
0.0
 41
1.0
 10
-19934.624957113087
 20
2354.7682773920087
 30
0.0
 41
0.9976475078279221
 10
-19934.733404457391
 20
2354.700329402353
 30
0.0
 41
1.0
 10
-19934.7517468515
 20
2354.6888369235535
 30
0.0
 41
1.0
 10
-19934.770089245612
 20
2354.677344444754
 30
0.0
 41
1.0
 10
-19934.854291437201
 20
2354.6245873239627
 30
0.0
 41
0.99951313364094
 10
-19934.935039152166
 20
2354.5666811120045
 30
0.0
 41
1.0
 10
-19935.015786867123
 20
2354.50877490005
 30
0.0
 41
0.9995810107607713
 10
-19935.093048514893
 20
2354.446293217552
 30
0.0
 41
1.0
 10
-19935.096018546083
 20
2354.4438913461045
 30
0.0
 41
1.0
 10
-19935.098988577272
 20
2354.4414894746565
 30
0.0
 41
1.0
 10
-19935.1821902874
 20
2354.3742040492798
 30
0.0
 41
0.9996617837955251
 10
-19935.261780974517
 20
2354.3026835937394
 30
0.0
 41
1.0
 10
-19935.273911725424
 20
2354.2917828607196
 30
0.0
 41
1.0
 10
-19935.286042476335
 20
2354.2808821276999
 30
0.0
 41
1.0
 10
-19935.354318003709
 20
2354.2195295122478
 30
0.0
 41
0.9997267750051004
 10
-19935.419651511991
 20
2354.1550529757219
 30
0.0
 41
1.0
 10
-19935.484985020285
 20
2354.0905764391846
 30
0.0
 41
0.9999667288955173
 10
-19935.54925796347
 20
2354.0250426322518
 30
0.0
 41
1.0
 10
-19935.618085411221
 20
2353.9548649735189
 30
0.0
 41
1.0
 10
-19935.686912858971
 20
2353.8846873147854
 30
0.0
 41
1.0
 10
-19935.888840697688
 20
2353.6787981903558
 30
0.0
 41
0.9988205335174963
 10
-19936.069846314662
 20
2353.4542939582993
 30
0.0
 41
1.0
 10
-19936.10048627956
 20
2353.4162907078767
 30
0.0
 41
1.0
 10
-19936.131126244458
 20
2353.378287457454
 30
0.0
 41
1.0
 10
-19936.373411791272
 20
2353.0777767245017
 30
0.0
 41
0.9997077826754353
 10
-19936.600889742389
 20
2352.7659069302695
 30
0.0
 41
1.0
 10
-19936.602613157502
 20
2352.7635441469138
 30
0.0
 41
1.0
 10
-19936.604336572615
 20
2352.7611813635581
 30
0.0
 41
1.0
 10
-19936.835261353972
 20
2352.4445860025921
 30
0.0
 41
0.9989147567079787
 10
-19937.035724856847
 20
2352.1078765414236
 30
0.0
 41
1.0
 10
-19937.060466002134
 20
2352.066319960903
 30
0.0
 41
1.0
 10
-19937.085207147426
 20
2352.0247633803824
 30
0.0
 41
1.0
 10
-19937.240418446087
 20
2351.7640619958825
 30
0.0
 41
0.99974765981838
 10
-19937.383763433623
 20
2351.4966522472582
 30
0.0
 41
1.0
 10
-19937.52710842112
 20
2351.2292424987018
 30
0.0
 41
0.9996258967109548
 10
-19937.655616673033
 20
2350.9543945621176
 30
0.0
 41
1.0
 10
-19937.6688165825
 20
2350.9261631619847
 30
0.0
 41
1.0
 10
-19937.682016491966
 20
2350.8979317618523
 30
0.0
 41
1.0
 10
-19937.82222521296
 20
2350.5980593639142
 30
0.0
 41
0.9998735413944135
 10
-19937.952826559682
 20
2350.2938797644392
 30
0.0
 41
1.0
 10
-19937.956269387774
 20
2350.2858611789029
 30
0.0
 41
1.0
 10
-19937.959712215863
 20
2350.2778425933666
 30
0.0
 41
1.0
 10
-19938.083427906433
 20
2349.9897001649015
 30
0.0
 41
0.9999377418862141
 10
-19938.200682708579
 20
2349.6988686972963
 30
0.0
 41
1.0
 10
-19938.317937510776
 20
2349.4080372295712
 30
0.0
 41
0.9999508299509813
 10
-19938.42940145417
 20
2349.1149375527039
 30
0.0
 41
1.0
 10
-19938.432482222815
 20
2349.1068365267874
 30
0.0
 41
1.0
 10
-19938.435562991457
 20
2349.0987355008715
 30
0.0
 41
1.0
 10
-19938.553188472149
 20
2348.7894337721464
 30
0.0
 41
0.999960922843813
 10
-19938.665327075036
 20
2348.4781007561041
 30
0.0
 41
1.0
 10
-19938.668283085382
 20
2348.469893915696
 30
0.0
 41
1.0
 10
-19938.671239095733
 20
2348.461687075288
 30
0.0
 41
1.0
 10
-19938.789289719276
 20
2348.1339403785296
 30
0.0
 41
0.9999674607395717
 10
-19938.902037245345
 20
2347.8043317585389
 30
0.0
 41
1.0
 10
-19938.953435635915
 20
2347.6540725628311
 30
0.0
 41
1.0
 10
-19939.004834026484
 20
2347.5038133671233
 30
0.0
 41
1.0
 10
-19939.120844633253
 20
2347.1646653845837
 30
0.0
 41
0.9999287532310612
 10
-19939.228726037225
 20
2346.822844645596
 30
0.0
 41
1.0
 10
-19939.275203293295
 20
2346.6755821014426
 30
0.0
 41
1.0
 10
-19939.321680549365
 20
2346.5283195572893
 30
0.0
 41
1.0
 10
-19939.336607441059
 20
2346.4810239070484
 30
0.0
 41
0.9999998222888303
 10
-19939.351477949927
 20
2346.4337104983788
 30
0.0
 41
1.0
 10
-19940.972134086725
 20
2341.2856819965896
 30
0.0
 41
1.0
 10
-19942.59279022352
 20
2336.1376534948004
 30
0.0
 41
1.0
 10
-19943.498098667413
 20
2336.1376534948004
 30
0.0
 41
1.0
 10
-19944.403407111302
 20
2336.1376534948004
 30
0.0
 41
1.0
 10
-19942.551322699917
 20
2342.0247254172677
 30
0.0
 41
1.0
 10
-19940.699238288529
 20
2347.9117973397351
 30
0.0
 41
1.0
 10
-19940.689116530226
 20
2347.9438405531846
 30
0.0
 41
1.0
 10
-19940.616508861378
 20
2348.1741400950104
 30
0.0
 41
1.0
 10
-19940.543901192665
 20
2348.4044396363915
 30
0.0
 41
0.9999825681977231
 10
-19940.47401815356
 20
2348.6355805310959
 30
0.0
 41
1.0
 10
-19940.425727091177
 20
2348.7953051153245
 30
0.0
 41
1.0
 10
-19940.377436028797
 20
2348.9550296995531
 30
0.0
 41
1.0
 10
-19940.280283675573
 20
2349.2763649210101
 30
0.0
 41
0.9999672528962827
 10
-19940.188344870054
 20
2349.5992304662514
 30
0.0
 41
1.0
 10
-19940.185555986413
 20
2349.6090243115395
 30
0.0
 41
1.0
 10
-19940.182767102771
 20
2349.6188181568273
 30
0.0
 41
1.0
 10
-19940.096406064451
 20
2349.9220960117768
 30
0.0
 41
0.9999899749137174
 10
-19940.012764454899
 20
2350.2261351002899
 30
0.0
 41
1.0
 10
-19940.002658535879
 20
2350.2628703379805
 30
0.0
 41
1.0
 10
-19939.992552616855
 20
2350.2996055756716
 30
0.0
 41
1.0
 10
-19939.929122845355
 20
2350.5301741887656
 30
0.0
 41
0.9999214200505989
 10
-19939.871493416984
 20
2350.7622605309516
 30
0.0
 41
1.0
 10
-19939.858727564857
 20
2350.8136714161355
 30
0.0
 41
1.0
 10
-19939.84596171273
 20
2350.865082301319
 30
0.0
 41
1.0
 10
-19939.813863988653
 20
2350.9943468729725
 30
0.0
 41
0.9999828681672311
 10
-19939.783281736611
 20
2351.1239783476285
 30
0.0
 41
1.0
 10
-19939.752699484619
 20
2351.2536098220844
 30
0.0
 41
0.9999389844479198
 10
-19939.724988495829
 20
2351.3838852779795
 30
0.0
 41
1.0
 10
-19939.717850752109
 20
2351.4174413818255
 30
0.0
 41
1.0
 10
-19939.710713008386
 20
2351.450997485671
 30
0.0
 41
1.0
 10
-19939.668726532153
 20
2351.6483851492712
 30
0.0
 41
0.9998933699438404
 10
-19939.632522267744
 20
2351.8469147570745
 30
0.0
 41
1.0
 10
-19939.631149442532
 20
2351.854442777736
 30
0.0
 41
1.0
 10
-19939.629776617323
 20
2351.861970798398
 30
0.0
 41
1.0
 10
-19939.590826702482
 20
2352.0755564475662
 30
0.0
 41
0.9996850305191284
 10
-19939.562643026224
 20
2352.2908274530264
 30
0.0
 41
1.0
 10
-19939.560647992854
 20
2352.3060658071554
 30
0.0
 41
1.0
 10
-19939.558652959484
 20
2352.3213041612848
 30
0.0
 41
1.0
 10
-19939.531245097027
 20
2352.5306493884095
 30
0.0
 41
0.9994697936704203
 10
-19939.517520537811
 20
2352.7413345837153
 30
0.0
 41
1.0
 10
-19939.517043468561
 20
2352.7486580559498
 30
0.0
 41
1.0
 10
-19939.51656639931
 20
2352.7559815281847
 30
0.0
 41
1.0
 10
-19939.503795978588
 20
2352.9520197790698
 30
0.0
 41
0.9991804893134363
 10
-19939.506924294863
 20
2353.1484486290196
 30
0.0
 41
1.0
 10
-19939.507008173685
 20
2353.1537154304551
 30
0.0
 41
1.0
 10
-19939.507092052507
 20
2353.1589822318906
 30
0.0
 41
1.0
 10
-19939.510052611135
 20
2353.3448774790168
 30
0.0
 41
0.998844832931477
 10
-19939.530844156761
 20
2353.5296300688265
 30
0.0
 41
1.0
 10
-19939.532438230461
 20
2353.543794924577
 30
0.0
 41
1.0
 10
-19939.534032304164
 20
2353.557959780328
 30
0.0
 41
1.0
 10
-19939.551635702381
 20
2353.7143826586421
 30
0.0
 41
0.9985503209458223
 10
-19939.585951974685
 20
2353.8680068427493
 30
0.0
 41
1.0
 10
-19939.593537966757
 20
2353.9019671701562
 30
0.0
 41
1.0
 10
-19939.60112395883
 20
2353.9359274975627
 30
0.0
 41
1.0
 10
-19939.620268246985
 20
2354.0216310268415
 30
0.0
 41
0.999103678137426
 10
-19939.646593108635
 20
2354.1054081141633
 30
0.0
 41
1.0
 10
-19939.650575334104
 20
2354.1180812767179
 30
0.0
 41
1.0
 10
-19939.654557559574
 20
2354.1307544392721
 30
0.0
 41
1.0
 10
-19939.672917970292
 20
2354.1891852015142
 30
0.0
 41
0.9998874504368043
 10
-19939.693023177962
 20
2354.2470388037118
 30
0.0
 41
1.0
 10
-19939.713128385636
 20
2354.3048924059176
 30
0.0
 41
0.9994041637548089
 10
-19939.737176998573
 20
2354.361221109807
 30
0.0
 41
1.0
 10
-19939.741373782788
 20
2354.3710511742656
 30
0.0
 41
1.0
 10
-19939.745570567
 20
2354.3808812387247
 30
0.0
 41
1.0
 10
-19939.773449398002
 20
2354.4461814047149
 30
0.0
 41
0.9991846840706866
 10
-19939.806505754714
 20
2354.5090194360359
 30
0.0
 41
1.0
 10
-19939.807642361102
 20
2354.5111800524783
 30
0.0
 41
1.0
 10
-19939.80877896749
 20
2354.513340668921
 30
0.0
 41
1.0
 10
-19939.839562111403
 20
2354.5718574673069
 30
0.0
 41
0.998925316792682
 10
-19939.875631535462
 20
2354.6272723957063
 30
0.0
 41
1.0
 10
-19939.876685660129
 20
2354.6288918904606
 30
0.0
 41
1.0
 10
-19939.877739784799
 20
2354.630511385215
 30
0.0
 41
1.0
 10
-19939.91170095951
 20
2354.6826873240907
 30
0.0
 41
0.998646717281675
 10
-19939.950898112154
 20
2354.7310533577265
 30
0.0
 41
1.0
 10
-19939.951772240864
 20
2354.7321319600178
 30
0.0
 41
1.0
 10
-19939.952646369577
 20
2354.7332105623086
 30
0.0
 41
1.0
 10
-19939.990095264802
 20
2354.7794193913719
 30
0.0
 41
0.998400110425353
 10
-19940.032521995308
 20
2354.8211044987247
 30
0.0
 41
1.0
 10
-19940.033109133416
 20
2354.8216813736062
 30
0.0
 41
1.0
 10
-19940.033696271526
 20
2354.8222582484873
 30
0.0
 41
1.0
 10
-19940.074948725829
 20
2354.8627896060948
 30
0.0
 41
0.9982442159092323
 10
-19940.120704827161
 20
2354.8981581673534
 30
0.0
 41
1.0
 10
-19940.120919622619
 20
2354.8983241999945
 30
0.0
 41
1.0
 10
-19940.121134418077
 20
2354.8984902326356
 30
0.0
 41
1.0
 10
-19940.166460928493
 20
2354.9335267286101
 30
0.0
 41
0.9982450060850995
 10
-19940.215611907566
 20
2354.9629585116472
 30
0.0
 41
1.0
 10
-19940.26476288664
 20
2354.9923902946821
 30
0.0
 41
0.9983922639634049
 10
-19940.316929192813
 20
2355.0160699293388
 30
0.0
 41
1.0
 10
-19940.317156070134
 20
2355.0161729148185
 30
0.0
 41
1.0
 10
-19940.317382947454
 20
2355.0162759002978
 30
0.0
 41
1.0
 10
-19940.37000300828
 20
2355.0401615059204
 30
0.0
 41
0.9986517147136181
 10
-19940.42481598114
 20
2355.0584626250375
 30
0.0
 41
1.0
 10
-19940.425493902563
 20
2355.0586889714687
 30
0.0
 41
1.0
 10
-19940.42617182399
 20
2355.0589153178994
 30
0.0
 41
1.0
 10
-19940.482340639704
 20
2355.0776691298825
 30
0.0
 41
0.9989435598949236
 10
-19940.539994026869
 20
2355.0911868321191
 30
0.0
 41
1.0
 10
-19940.541074146451
 20
2355.0914400823722
 30
0.0
 41
1.0
 10
-19940.54215426603
 20
2355.0916933326248
 30
0.0
 41
1.0
 10
-19940.601967892355
 20
2355.1057175353685
 30
0.0
 41
0.9992249241235196
 10
-19940.662699401233
 20
2355.1149928780796
 30
0.0
 41
1.0
 10
-19940.66411308953
 20
2355.115208786488
 30
0.0
 41
1.0
 10
-19940.665526777822
 20
2355.1154246948963
 30
0.0
 41
1.0
 10
-19940.729085663294
 20
2355.125131854425
 30
0.0
 41
0.9994396597837871
 10
-19940.793151599828
 20
2355.1305647767717
 30
0.0
 41
1.0
 10
-19940.81229226731
 20
2355.1321879444904
 30
0.0
 41
1.0
 10
-19940.831432934792
 20
2355.1338111122095
 30
0.0
 41
1.0
 10
-19940.933780206298
 20
2355.1424903699926
 30
0.0
 41
0.9987693403123887
 10
-19941.036483829877
 20
2355.14098730654
 30
0.0
 41
1.0
 10
-19941.046738164107
 20
2355.140837234766
 30
0.0
 41
1.0
 10
-19941.056992498336
 20
2355.1406871629915
 30
0.0
 41
1.0
 10
-19941.166548264515
 20
2355.1390838187035
 30
0.0
 41
0.998975364496801
 10
-19941.275510264524
 20
2355.1275808117794
 30
0.0
 41
1.0
 10
-19941.384472264534
 20
2355.1160778048556
 30
0.0
 41
0.9983190067306129
 10
-19941.491371075492
 20
2355.0920428130707
 30
0.0
 41
1.0
 10
-19941.500272027108
 20
2355.0900415345063
 30
0.0
 41
1.0
 10
-19941.50917297872
 20
2355.0880402559419
 30
0.0
 41
1.0
 10
-19941.633873692899
 20
2355.0600027070291
 30
0.0
 41
0.9985539388306935
 10
-19941.754843446593
 20
2355.0187390309793
 30
0.0
 41
1.0
 10
-19941.757188877546
 20
2355.017938987166
 30
0.0
 41
1.0
 10
-19941.759534308498
 20
2355.0171389433526
 30
0.0
 41
1.0
 10
-19941.885194924103
 20
2354.9742751796744
 30
0.0
 41
0.998846874648844
 10
-19942.006165266383
 20
2354.9195570946194
 30
0.0
 41
1.0
 10
-19942.009348088381
 20
2354.9181174200562
 30
0.0
 41
1.0
 10
-19942.012530910375
 20
2354.916677745493
 30
0.0
 41
1.0
 10
-19942.139866896665
 20
2354.8590803113048
 30
0.0
 41
0.9991322885914352
 10
-19942.261967480707
 20
2354.7910849791288
 30
0.0
 41
1.0
 10
-19942.279569491759
 20
2354.7812827771345
 30
0.0
 41
1.0
 10
-19942.297171502807
 20
2354.7714805751402
 30
0.0
 41
1.0
 10
-19942.399348183841
 20
2354.7145804593742
 30
0.0
 41
0.9993860037846879
 10
-19942.497289187926
 20
2354.65066444378
 30
0.0
 41
1.0
 10
-19942.502907500777
 20
2354.6469979490871
 30
0.0
 41
1.0
 10
-19942.508525813624
 20
2354.6433314543942
 30
0.0
 41
1.0
 10
-19942.595230192026
 20
2354.5867484281748
 30
0.0
 41
0.9998821494950015
 10
-19942.680156567811
 20
2354.5275301981146
 30
0.0
 41
1.0
 10
-19942.765082943632
 20
2354.4683119680349
 30
0.0
 41
0.9997976482741875
 10
-19942.847558574009
 20
2354.4057255600119
 30
0.0
 41
1.0
 10
-19942.862194838825
 20
2354.3946188702243
 30
0.0
 41
1.0
 10
-19942.87683110364
 20
2354.3835121804368
 30
0.0
 41
1.0
 10
-19942.988579263667
 20
2354.2987123928251
 30
0.0
 41
0.9998091630799082
 10
-19943.096929541691
 20
2354.2096120421234
 30
0.0
 41
1.0
 10
-19943.10993529416
 20
2354.1989169416825
 30
0.0
 41
1.0
 10
-19943.122941046633
 20
2354.1882218412416
 30
0.0
 41
1.0
 10
-19943.257302829617
 20
2354.0777312896475
 30
0.0
 41
0.999503511231593
 10
-19943.384438707366
 20
2353.9589974726473
 30
0.0
 41
1.0
 10
-19943.394086017739
 20
2353.9499877265039
 30
0.0
 41
1.0
 10
-19943.403733328109
 20
2353.9409779803605
 30
0.0
 41
1.0
 10
-19943.527156390908
 20
2353.825711608572
 30
0.0
 41
0.9994630424299628
 10
-19943.642764796703
 20
2353.7026088653265
 30
0.0
 41
1.0
 10
-19943.646447635481
 20
2353.6986872858047
 30
0.0
 41
1.0
 10
-19943.650130474263
 20
2353.6947657062829
 30
0.0
 41
1.0
 10
-19943.758373202505
 20
2353.5795061220715
 30
0.0
 41
0.9995160693751573
 10
-19943.859239232021
 20
2353.4577387042186
 30
0.0
 41
1.0
 10
-19943.8611729521
 20
2353.4554042800119
 30
0.0
 41
1.0
 10
-19943.863106672179
 20
2353.4530698558046
 30
0.0
 41
1.0
 10
-19943.960105261536
 20
2353.3359712863639
 30
0.0
 41
0.9996561470517029
 10
-19944.050831480217
 20
2353.2139485238968
 30
0.0
 41
1.0
 10
-19944.05698914612
 20
2353.2056667348543
 30
0.0
 41
1.0
 10
-19944.063146812023
 20
2353.1973849458118
 30
0.0
 41
1.0
 10
-19944.141557698884
 20
2353.0919257614491
 30
0.0
 41
0.9998349055172212
 10
-19944.216084980813
 20
2352.9836871777843
 30
0.0
 41
1.0
 10
-19944.290612262805
 20
2352.8754485940381
 30
0.0
 41
0.9999728109568601
 10
-19944.363535158769
 20
2352.7661226683995
 30
0.0
 41
1.0
 10
-19944.364850374128
 20
2352.76415089898
 30
0.0
 41
1.0
 10
-19944.366165589483
 20
2352.7621791295605
 30
0.0
 41
1.0
 10
-19944.441718916107
 20
2352.6489096651667
 30
0.0
 41
0.9999972147332662
 10
-19944.516736726488
 20
2352.5352848223183
 30
0.0
 41
1.0
 10
-19944.52170826916
 20
2352.5277547337691
 30
0.0
 41
1.0
 10
-19944.526679811832
 20
2352.52022464522
 30
0.0
 41
1.0
 10
-19944.611640707419
 20
2352.3915396254924
 30
0.0
 41
0.9999371979005101
 10
-19944.69369605674
 20
2352.260982711844
 30
0.0
 41
1.0
 10
-19944.69720494116
 20
2352.2553997836876
 30
0.0
 41
1.0
 10
-19944.700713825579
 20
2352.2498168555317
 30
0.0
 41
1.0
 10
-19944.789786943726
 20
2352.1080940855936
 30
0.0
 41
0.9998272025609408
 10
-19944.873530334618
 20
2351.9631582088296
 30
0.0
 41
1.0
 10
-19944.888745506629
 20
2351.9368250943985
 30
0.0
 41
1.0
 10
-19944.903960678639
 20
2351.9104919799674
 30
0.0
 41
1.0
 10
-19945.018134413596
 20
2351.7128898742649
 30
0.0
 41
0.9995217214835378
 10
-19945.119874103162
 20
2351.5086075463737
 30
0.0
 41
1.0
 10
-19945.127517665755
 20
2351.4932600967559
 30
0.0
 41
1.0
 10
-19945.135161228347
 20
2351.4779126471376
 30
0.0
 41
1.0
 10
-19945.222066520964
 20
2351.30341618901
 30
0.0
 41
0.9998269762606707
 10
-19945.30242098726
 20
2351.1258079022382
 30
0.0
 41
1.0
 10
-19945.382775453549
 20
2350.948199615475
 30
0.0
 41
0.9998944747385227
 10
-19945.457936248124
 20
2350.7683318898139
 30
0.0
 41
1.0
 10
-19945.462889917675
 20
2350.7564772349879
 30
0.0
 41
1.0
 10
-19945.467843587227
 20
2350.7446225801618
 30
0.0
 41
1.0
 10
-19945.548490647809
 20
2350.5516256400801
 30
0.0
 41
0.9999506734410615
 10
-19945.625288176732
 20
2350.3570648351752
 30
0.0
 41
1.0
 10
-19945.639888141966
 20
2350.3200769134692
 30
0.0
 41
1.0
 10
-19945.654488107197
 20
2350.2830889917636
 30
0.0
 41
1.0
 10
-19945.70208570563
 20
2350.1625040303397
 30
0.0
 41
0.9999912393940951
 10
-19945.748672149661
 20
2350.0415248276236
 30
0.0
 41
1.0
 10
-19945.795258593698
 20
2349.9205456248828
 30
0.0
 41
0.9999927113945496
 10
-19945.840919888095
 20
2349.7992142173807
 30
0.0
 41
1.0
 10
-19945.854888319482
 20
2349.7620972354043
 30
0.0
 41
1.0
 10
-19945.868856750873
 20
2349.7249802534279
 30
0.0
 41
1.0
 10
-19945.942454908021
 20
2349.5294148820326
 30
0.0
 41
0.9999487550952355
 10
-19946.012078532938
 20
2349.3323995170158
 30
0.0
 41
1.0
 10
-19946.035672142923
 20
2349.265636206585
 30
0.0
 41
1.0
 10
-19946.059265752909
 20
2349.1988728961542
 30
0.0
 41
1.0
 10
-19946.153951387289
 20
2348.9309390613007
 30
0.0
 41
0.9999808436945518
 10
-19946.245312975916
 20
2348.6618536300707
 30
0.0
 41
1.0
 10
-19946.336674564474
 20
2348.3927681990508
 30
0.0
 41
0.9999873932920763
 10
-19946.425329273123
 20
2348.1227788442593
 30
0.0
 41
1.0
 10
-19946.445421630069
 20
2348.0615895112733
 30
0.0
 41
1.0
 10
-19946.465513987016
 20
2348.0004001782868
 30
0.0
 41
1.0
 10
-19946.594353409477
 20
2347.6080321577574
 30
0.0
 41
0.9999794883031486
 10
-19946.718156194413
 20
2347.2140459515444
 30
0.0
 41
1.0
 10
-19946.729308454283
 20
2347.1785553399354
 30
0.0
 41
1.0
 10
-19946.740460714151
 20
2347.1430647283264
 30
0.0
 41
1.0
 10
-19946.88301887763
 20
2346.6893919775748
 30
0.0
 41
0.9999982761701453
 10
-19947.023891317218
 20
2346.2351929568067
 30
0.0
 41
1.0
 10
-19948.612031649791
 20
2341.1864232258035
 30
0.0
 41
1.0
 10
-19950.200171982364
 20
2336.1376534948004
 30
0.0
 41
1.0
 10
-19951.148922593842
 20
2336.1376534948004
 30
0.0
 41
1.0
 10
-19952.097673205317
 20
2336.1376534948004
 30
0.0
 41
1.0
 10
-19948.859388719164
 20
2346.4649756947465
 30
0.0
 41
1.0
 10
-19945.621104233011
 20
2356.7922978946926
 30
0.0
 41
1.0
  0
LWPOLYLINE
  5
64
100
AcDbEntity
  8
0
370
              15
390
0
  6
Continuous
 62
               7
100
AcDbPolyline
 90
      232
 70
             128
 10
-19971.324650006838
 20
2355.707955063177
 42
0.000437080062925
 10
-19971.377527181292
 20
2355.6392884234265
 10
-19971.416811412037
 20
2355.5881813110245
 42
0.0030481992151017
 10
-19971.547150129139
 20
2355.4164596187002
 10
-19971.585661800906
 20
2355.3650728348921
 42
0.0042058245764545
 10
-19971.789646851579
 20
2355.0880670898136
 10
-19971.842051974076
 20
2355.0156342430378
 42
0.0120948898767147
 10
-19972.138095890819
 20
2354.5848846385134
 10
-19972.234288389885
 20
2354.4374039033751
 42
0.0141601263905945
 10
-19972.537932436881
 20
2353.9417345665283
 10
-19972.577469704269
 20
2353.8728905991661
 42
0.0071131081257511
 10
-19972.782742027546
 20
2353.5033878002587
 42
0.0068458790956571
 10
-19972.977621554284
 20
2353.1282962369974
 10
-19972.984433416848
 20
2353.1147345230588
 42
0.0064120880348968
 10
-19973.182575666939
 20
2352.7073100480338
 10
-19973.190110352407
 20
2352.6912981914188
 42
0.0058857236488502
 10
-19973.39286574431
 20
2352.2469220803132
 10
-19973.401040670575
 20
2352.2284319267496
 42
0.0053189741885537
 10
-19973.609744983227
 20
2351.7424684528737
 10
-19973.618492788926
 20
2351.7214865746355
 42
0.0047503650397894
 10
-19973.83446651504
 20
2351.1892871415143
 10
-19973.843734763424
 20
2351.1658107653179
 42
0.0042071762131078
 10
-19974.06828214708
 20
2350.5827171714413
 10
-19974.078031549499
 20
2350.5567509963785
 42
0.0036680086473815
 10
-19974.312486192819
 20
2349.9181156118289
 10
-19974.322693972659
 20
2349.889667077503
 42
0.0032573142626763
 10
-19974.568326258624
 20
2349.1908144177505
 10
-19974.636976779391
 20
2348.9913513339047
 42
0.0026133366657077
 10
-19974.985421978225
 20
2347.9614880500249
 10
-19975.04867876571
 20
2347.7712572146766
 42
0.0020592950723121
 10
-19975.262541834694
 20
2347.1191535620183
 10
-19975.2655936259
 20
2347.1097170734743
 42
0.0025609928514636
 10
-19975.467414127343
 20
2346.4745718512431
 10
-19975.470005494633
 20
2346.4662695097772
 42
0.0031362356233791
 10
-19975.659496280146
 20
2345.8455066541228
 10
-19975.661627323076
 20
2345.8383653478995
 42
0.0037229918051017
 10
-19975.838427709998
 20
2345.2293800459374
 10
-19975.840106299143
 20
2345.2234331559825
 42
0.0043077623680332
 10
-19976.003847101267
 20
2344.6236144239942
 42
0.0047654161839504
 10
-19976.156675823779
 20
2344.0209283351196
 10
-19976.191140432624
 20
2343.8793665579419
 42
0.0112969368442136
 10
-19976.387004790784
 20
2342.9876743972409
 10
-19976.415011179866
 20
2342.84484635122
 42
0.0130056762565044
 10
-19976.615848423513
 20
2341.6579052795751
 10
-19976.636388173647
 20
2341.5138271661899
 42
0.0138721532114945
 10
-19976.740091178195
 20
2340.6069976802723
 10
-19976.759386666101
 20
2340.3834999583532
 42
0.0071254697041251
 10
-19976.792733312024
 20
2339.9203129494999
 10
-19976.797694286182
 20
2339.8343089550472
 42
0.0028881799159638
 10
-19976.812832579482
 20
2339.5425672450974
 42
0.0060297297110378
 10
-19976.822764779252
 20
2339.2506183091541
 10
-19976.823827060922
 20
2339.2022259370883
 42
0.0229523164122514
 10
-19976.816096033137
 20
2338.8794710907659
 10
-19976.811870259622
 20
2338.8190675568344
 42
0.0123673300662481
 10
-19976.792791613098
 20
2338.617946831575
 42
0.0128577674411411
 10
-19976.763596222696
 20
2338.4180489816799
 10
-19976.756470349304
 20
2338.3767201670507
 42
0.0285717853800394
 10
-19976.691976347607
 20
2338.0986040157277
 10
-19976.678307823942
 20
2338.051949246264
 42
0.0316283099184455
 10
-19976.562497244027
 20
2337.7329347444347
 10
-19976.559448552285
 20
2337.7259483721405
 42
0.0338984824246893
 10
-19976.410016841306
 20
2337.43838240792
 10
-19976.407708111939
 20
2337.434591378651
 42
0.0350228718302491
 10
-19976.225347821262
 20
2337.177539393967
 10
-19976.224462569484
 20
2337.1764603161969
 42
0.0347476747509804
 10
-19976.010037882246
 20
2336.949275268983
 42
0.0331337701960894
 10
-19975.766794556504
 20
2336.7531466069067
 10
-19975.765694457987
 20
2336.7523739037333
 42
0.0305233319106782
 10
-19975.497149762392
 20
2336.5872457336309
 10
-19975.493919717912
 20
2336.5855217217791
 42
0.0273744481149341
 10
-19975.20136600632
 20
2336.4493835778826
 10
-19975.196261471199
 20
2336.4473399934191
 42
0.0240964406250179
 10
-19974.880784395562
 20
2336.3383562671415
 10
-19974.874201066341
 20
2336.336431527463
 42
0.020963617984601
 10
-19974.536800913687
 20
2336.2529633795302
 10
-19974.529168453242
 20
2336.2514114665291
 42
0.018138870471041
 10
-19974.170846061246
 20
2336.1919953733159
 10
-19974.162565212864
 20
2336.1909291894981
 42
0.0156086547598964
 10
-19973.784377848668
 20
2336.1541930029207
 10
-19973.741182596339
 20
2336.1513545004418
 42
0.0137148329012833
 10
-19973.413509451049
 20
2336.138834245191
 10
-19973.367573261112
 20
2336.1383398120756
 42
0.0051057823927549
 10
-19973.131427674532
 20
2336.1382095576664
 42
0.0052256693228792
 10
-19972.895330390751
 20
2336.1429583821309
 10
-19972.825103607003
 20
2336.1451053481451
 42
0.0161507179044173
 10
-19972.449366528901
 20
2336.1687557184714
 10
-19972.429353568528
 20
2336.170665913759
 42
0.0101216737861174
 10
-19972.015326347064
 20
2336.2186588441218
 10
-19971.981273057612
 20
2336.2233065409346
 42
0.0245291776356097
 10
-19971.504483402059
 20
2336.3123816190105
 10
-19971.419660086522
 20
2336.3325775393596
 42
0.0143509212578354
 10
-19971.063028982597
 20
2336.4283821731351
 42
0.015655785699113
 10
-19970.712812917889
 20
2336.5453933889462
 10
-19970.705311703372
 20
2336.5481635507085
 42
0.017013733365865
 10
-19970.348715707692
 20
2336.6938211655797
 10
-19970.341611785287
 20
2336.6970090011432
 42
0.018310536442473
 10
-19969.982262117075
 20
2336.8743440429912
 10
-19969.97531535248
 20
2336.8780944778396
 42
0.0194899958165442
 10
-19969.616834611486
 20
2337.0900734597358
 10
-19969.609820732159
 20
2337.0945988020253
 42
0.0204869852957427
 10
-19969.255806430065
 20
2337.3441188171109
 10
-19969.248540821478
 20
2337.3496988824595
 42
0.0212516938503515
 10
-19968.902550890372
 20
2337.6396028793524
 10
-19968.856034196338
 20
2337.6820701894076
 42
0.0215248918196367
 10
-19968.596008027409
 20
2337.9408344684425
 10
-19968.550978293071
 20
2337.9896785897458
 42
0.011457855484788
 10
-19968.396186139351
 20
2338.1655015232504
 10
-19968.384991603394
 20
2338.1788202867588
 42
0.0061531305188801
 10
-19968.258516957369
 20
2338.3331098201015
 42
0.000632558717811
 10
-19968.134138472702
 20
2338.4891131964246
 10
-19968.111098338166
 20
2338.5180867164368
 42
0.0041897761615753
 10
-19967.942642934147
 20
2338.73360609256
 10
-19967.884180814301
 20
2338.8097074394836
 42
0.0092993880083412
 10
-19967.607568887084
 20
2339.1839862033585
 10
-19967.52517439389
 20
2339.2999232069183
 42
0.0159321727065823
 10
-19967.178567911236
 20
2339.8220974276919
 10
-19967.134211775938
 20
2339.8937769917934
 42
0.0085547316957148
 10
-19966.899700010523
 20
2340.2876519411666
 42
0.0084601156895637
 10
-19966.678723833131
 20
2340.6892787901061
 10
-19966.670608359251
 20
2340.7046384724717
 42
0.0081429654301818
 10
-19966.447359088757
 20
2341.1443599851173
 10
-19966.438498924625
 20
2341.1625388270322
 42
0.0076574581310115
 10
-19966.212091414072
 20
2341.6457217022607
 10
-19966.202611773337
 20
2341.6667861805881
 42
0.0070682724214239
 10
-19965.972166865406
 20
2342.1988234856613
 10
-19965.962176581546
 20
2342.2228126743812
 42
0.0064559514428473
 10
-19965.726843373344
 20
2342.8091249409558
 10
-19965.716434015201
 20
2342.8360598663421
 42
0.0058311413924822
 10
-19965.475387278446
 20
2343.4820919607109
 10
-19965.464632201052
 20
2343.5119763018865
 42
0.0052312425855485
 10
-19965.217050922911
 20
2344.2231787160108
 10
-19965.206007086628
 20
2344.2560054277906
 42
0.0046680544785826
 10
-19964.951078658876
 20
2345.0378317436125
 10
-19964.909086508851
 20
2345.1708149808464
 42
0.0041666856432017
 10
-19964.705800496457
 20
2345.8337837558429
 10
-19964.668138055578
 20
2345.960364864221
 42
0.0015170975174472
 10
-19964.546951477379
 20
2346.3722332149905
 42
-0.0004887993084803
 10
-19964.426611703391
 20
2346.784351629994
 10
-19964.350134446766
 20
2347.0453090129736
 42
0.0002583378916301
 10
-19964.076919877956
 20
2347.9793657118494
 10
-19963.995147027152
 20
2348.2594649756361
 42
0.0006636169705507
 10
-19963.801279267111
 20
2348.9268178993225
 10
-19963.79618261263
 20
2348.9444494826662
 42
0.0010589131311532
 10
-19963.614733911847
 20
2349.5771808252516
 10
-19963.609751841755
 20
2349.5946937309086
 42
0.0015655524446591
 10
-19963.441481634181
 20
2350.1933104114723
 10
-19963.436651433592
 20
2350.2107025710316
 42
0.0021640440448812
 10
-19963.282361461781
 20
2350.7757295884267
 10
-19963.277727242472
 20
2350.7929943179711
 42
0.0028763871826551
 10
-19963.1382115243
 20
2351.3249622692674
 10
-19963.133825660148
 20
2351.3420862473536
 42
0.0037310511923191
 10
-19963.009868968296
 20
2351.8415338414461
 10
-19963.005793747947
 20
2351.8584941129461
 42
0.0047652197750493
 10
-19962.898169847496
 20
2352.3259718809963
 10
-19962.894479248149
 20
2352.342731436253
 42
0.0060276699305454
 10
-19962.80394914902
 20
2352.7788072312906
 10
-19962.800730458719
 20
2352.7953084456626
 42
0.0075824337762857
 10
-19962.728041149316
 20
2353.2005756100261
 10
-19962.725395771944
 20
2353.2167305574162
 42
0.0095130624601182
 10
-19962.671280536306
 20
2353.5918199105481
 10
-19962.664294312446
 20
2353.6477534684773
 42
0.0121054653172049
 10
-19962.637702981843
 20
2353.9126492971386
 10
-19962.636836492082
 20
2353.9240527400902
 42
0.0069050827390982
 10
-19962.621747674046
 20
2354.1669939669118
 10
-19962.620612374372
 20
2354.1905202240373
 42
0.0169063976755602
 10
-19962.617785095397
 20
2354.3867129512573
 10
-19962.618955746926
 20
2354.4470487124454
 42
0.0052007732948369
 10
-19962.621209195524
 20
2354.5226421027587
 42
0.0054038123392515
 10
-19962.641172707357
 20
2354.6426603987425
 10
-19962.646258563233
 20
2354.67131888535
 42
0.0112050460429219
 10
-19962.681642925272
 20
2354.8476453235912
 10
-19962.699467887331
 20
2354.9271869104095
 42
0.0240764467995919
 10
-19962.790365253481
 20
2355.2574239459186
 10
-19962.808924016284
 20
2355.3140441108849
 42
0.0256812331796804
 10
-19962.952286936481
 20
2355.685768317162
 10
-19962.957696362315
 20
2355.6978996521789
 42
0.026836050127119
 10
-19963.127123603153
 20
2356.0288927861729
 10
-19963.132660010782
 20
2356.0384124564762
 42
0.027467023174821
 10
-19963.324860987203
 20
2356.3306998314024
 10
-19963.330242287149
 20
2356.3379789789246
 42
0.0275035967101561
 10
-19963.541815166725
 20
2356.5934948692475
 10
-19963.546884667685
 20
2356.5989739568704
 42
0.0269557673527716
 10
-19963.774288211131
 20
2356.8196162428403
 10
-19963.779031268947
 20
2356.8237461973308
 42
0.0259124802205527
 10
-19964.018586100341
 20
2357.0114367244537
 10
-19964.023116945536
 20
2357.014622226794
 42
0.0245162153058681
 10
-19964.271033298621
 20
2357.1713552358942
 10
-19964.275559844966
 20
2357.1739154331076
 42
0.0229282588797985
 10
-19964.527979401773
 20
2357.301783625594
 10
-19964.532759895603
 20
2357.3039359253526
 42
0.0212984135701333
 10
-19964.785797848072
 20
2357.4051348425983
 10
-19964.791102133036
 20
2357.4069984053563
 42
0.019755546233074
 10
-19965.040880470762
 20
2357.4838138233231
 42
0.0183511896760419
 10
-19965.295809196228
 20
2357.5413967302893
 10
-19965.38217439294
 20
2357.5575995206723
 42
0.0338057877059013
 10
-19965.667681742209
 20
2357.5914079258141
 10
-19965.758687147259
 20
2357.5959875810759
 42
0.0091990524408297
 10
-19965.864534255885
 20
2357.5993634369975
 42
0.002833398085595
 10
-19965.970448171833
 20
2357.600191544514
 10
-19965.971363624929
 20
2357.6001935143381
 42
-0.0023619827895377
 10
-19966.079109640057
 20
2357.6009343554169
 10
-19966.115514810212
 20
2357.6013566618799
 42
0.0008824598444881
 10
-19966.296070800072
 20
2357.6031324401183
 10
-19966.339932232466
 20
2357.6034864016437
 42
0.0038132665733807
 10
-19966.608215128355
 20
2357.6036053377097
 10
-19966.624748783135
 20
2357.6034865715665
 42
0.0060665569379462
 10
-19966.926029274742
 20
2357.5976662721455
 10
-19966.940279606752
 20
2357.5972179641785
 42
0.0080356953340298
 10
-19967.269738323095
 20
2357.581550242111
 10
-19967.281808338179
 20
2357.580781659171
 42
0.0098996399150584
 10
-19967.634571422863
 20
2357.5512964299696
 10
-19967.64461713221
 20
2357.5502561337744
 42
0.011774098139145
 10
-19968.015773990563
 20
2357.5029638862438
 10
-19968.023996687039
 20
2357.501718769674
 42
0.0137435215173713
 10
-19968.408585506546
 20
2357.4326217961075
 10
-19968.415242545649
 20
2357.4312358998786
 42
0.015835986938876
 10
-19968.808239639438
 20
2357.3363438114002
 10
-19968.813652826313
 20
2357.3348538705277
 42
0.0180554124021442
 10
-19969.209967870942
 20
2357.2102158542843
 10
-19969.214524659012
 20
2357.2085998180228
 42
0.0203657431269543
 10
-19969.609002176829
 20
2357.0503394765055
 10
-19969.613145715834
 20
2357.0484778550644
 42
0.0226819684686555
 10
-19970.000581772027
 20
2356.8528352763992
 10
-19970.004781563053
 20
2356.8504696844739
 42
0.0248634984577494
 10
-19970.379963504201
 20
2356.6138430385527
 10
-19970.428158433042
 20
2356.579985996686
 42
0.0267044190885599
 10
-19970.702451129935
 20
2356.3645456208333
 42
0.013930300222773
 10
-19970.958618295899
 20
2356.1273067798943
 10
-19970.963471681593
 20
2356.1225541170606
 42
0.0283460963467089
 10
-19971.207544275821
 20
2355.8548234566169
 10
-19971.247212780978
 20
2355.8060218791425
 42
0.007069536483463
 10
-19971.324650006838
 20
2355.707955063177
 42
0.007069536483463
  0
LWPOLYLINE
  5
65
100
AcDbEntity
  8
0
370
              15
390
0
  6
Continuous
 62
               7
100
AcDbPolyline
 90
      226
 70
             128
 10
-19974.853470444083
 20
2339.9863662569933
 42
-0.0026277636007781
 10
-19974.853548327883
 20
2340.0531381839805
 10
-19974.85333096965
 20
2340.1062934001793
 42
-0.0088680296684192
 10
-19974.84955435335
 20
2340.2793091827943
 10
-19974.847207994244
 20
2340.338589208036
 42
-0.0077381705672952
 10
-19974.831161883481
 20
2340.6298497038133
 10
-19974.830293972307
 20
2340.6421379375197
 42
-0.0068872530600236
 10
-19974.80366189258
 20
2340.9573596893938
 10
-19974.802457668375
 20
2340.9696006686072
 42
-0.0062130021535485
 10
-19974.764863951568
 20
2341.3084703596596
 10
-19974.763360048011
 20
2341.3206442317619
 42
-0.0056726929738446
 10
-19974.714438188519
 20
2341.682839453822
 10
-19974.712664742867
 20
2341.6949332541208
 42
-0.0052341884480184
 10
-19974.652054156628
 20
2342.0801265095138
 10
-19974.65003616783
 20
2342.092131439631
 42
-0.0049768450201596
 10
-19974.577297486405
 20
2342.4999760070536
 10
-19974.55304847168
 20
2342.6285239900699
 42
-0.0089029805604106
 10
-19974.415967619869
 20
2343.2902994375781
 10
-19974.383222244567
 20
2343.4353308680156
 42
-0.0080318257087719
 10
-19974.153673630204
 20
2344.3810404999513
 10
-19974.141688703778
 20
2344.4271711350593
 42
-0.0074265721301759
 10
-19973.857677164902
 20
2345.4572357135339
 10
-19973.83779762176
 20
2345.5253697742114
 42
-0.006971192267862
 10
-19973.510493043308
 20
2346.591637514357
 10
-19973.450541096208
 20
2346.7776588727033
 42
-0.0052070422918
 10
-19973.22111587094
 20
2347.464930949759
 10
-19973.203834678876
 20
2347.5149582300614
 42
-0.0009167004481699
 10
-19973.000742791479
 20
2348.0994140785306
 42
-0.0025162726947433
 10
-19972.793645161357
 20
2348.6824553423007
 10
-19972.75642054946
 20
2348.7856048884569
 42
-0.0028212681480112
 10
-19972.508244630451
 20
2349.4613355207694
 10
-19972.498413867648
 20
2349.4876429655819
 42
-0.0031964916821306
 10
-19972.262121610038
 20
2350.1078477275732
 10
-19972.252487155918
 20
2350.1326577180262
 42
-0.0036281836405967
 10
-19972.027381194937
 20
2350.70009839861
 10
-19972.017942784769
 20
2350.723395830144
 42
-0.004126916680608
 10
-19971.80332508812
 20
2351.2408367260909
 10
-19971.77069213174
 20
2351.3177151723589
 42
-0.0047472213090113
 10
-19971.613647326143
 20
2351.6781366403352
 10
-19971.60675324512
 20
2351.6935572372513
 42
-0.0025651660057749
 10
-19971.458395211084
 20
2352.0208852934156
 42
-0.0057144635004654
 10
-19971.304645517321
 20
2352.3456949667675
 10
-19971.276614811948
 20
2352.4032033491007
 42
-0.0065388068370283
 10
-19971.093147784173
 20
2352.7674358458371
 10
-19971.084689328301
 20
2352.7836954253848
 42
-0.0074510843006689
 10
-19970.908507082517
 20
2353.1103837063292
 10
-19970.900327411884
 20
2353.1250244837765
 42
-0.0084648979792897
 10
-19970.730693558886
 20
2353.4169334945595
 10
-19970.722837432426
 20
2353.4299404861658
 42
-0.0095638542817737
 10
-19970.559001984802
 20
2353.6898293581889
 10
-19970.551527041149
 20
2353.7011987196188
 42
-0.010719162680617
 10
-19970.392725460744
 20
2353.9318099541888
 10
-19970.385708727001
 20
2353.9415460465716
 42
-0.0118458573821945
 10
-19970.2311606285
 20
2354.1456182418638
 42
-0.0129184518162857
 10
-19970.066708004862
 20
2354.3417787580775
 10
-19970.036563232541
 20
2354.3759048369275
 42
-0.0217742579605665
 10
-19969.859950910199
 20
2354.5591116071837
 10
-19969.849205365746
 20
2354.5693284403801
 42
-0.0097266568620582
 10
-19969.683147746888
 20
2354.7211760148243
 42
-0.0187720905716442
 10
-19969.508800170981
 20
2354.8632448682247
 10
-19969.47809418034
 20
2354.8864039505938
 42
-0.0179428207532159
 10
-19969.245673460326
 20
2355.0489561277213
 10
-19969.242021133421
 20
2355.0513200626019
 42
-0.0170047877697937
 10
-19969.006257495879
 20
2355.1927805767605
 10
-19969.002474507128
 20
2355.1948788818004
 42
-0.0160190788313884
 10
-19968.765565959497
 20
2355.3165301837848
 42
-0.0151102861567911
 10
-19968.521534177085
 20
2355.4232129598245
 10
-19968.469147674838
 20
2355.444253092734
 42
-0.0271945441878099
 10
-19968.110485115791
 20
2355.5661179034369
 10
-19968.041420315301
 20
2355.5854674447041
 42
-0.0237596594039525
 10
-19967.62562346827
 20
2355.6809181566878
 10
-19967.557560614528
 20
2355.6931728448162
 42
-0.0213715440603198
 10
-19967.271685683096
 20
2355.7321198763248
 10
-19967.211538516854
 20
2355.7377095910279
 42
-0.0101465655923878
 10
-19967.044045984883
 20
2355.7498531342894
 10
-19967.034705598689
 20
2355.7503400492865
 42
-0.0100375910880132
 10
-19966.885551498119
 20
2355.7551158672118
 10
-19966.875292228444
 20
2355.7552383062261
 42
-0.0103625633402161
 10
-19966.746584233784
 20
2355.7541068726996
 10
-19966.724318582521
 20
2355.7534495142349
 42
-0.0115689250472243
 10
-19966.640267844989
 20
2355.7490200079897
 42
-0.0072438037386508
 10
-19966.556429565549
 20
2355.7414308082402
 10
-19966.539629056078
 20
2355.7396642655162
 42
-0.0217917313180926
 10
-19966.423059292763
 20
2355.7222443727951
 10
-19966.357459202194
 20
2355.7094977643796
 42
-0.0332943556753218
 10
-19966.153067037172
 20
2355.6554574730735
 10
-19966.122894468637
 20
2355.6452893959608
 42
-0.0184824084737354
 10
-19965.984389412155
 20
2355.5928383805685
 42
-0.0198002050549439
 10
-19965.850315071639
 20
2355.5299543203623
 10
-19965.848428434278
 20
2355.5289765334896
 42
-0.0212242342888332
 10
-19965.716289491877
 20
2355.4532137946962
 10
-19965.714474196335
 20
2355.4520679924881
 42
-0.022609060567235
 10
-19965.585970295091
 20
2355.3625883489071
 10
-19965.584125853376
 20
2355.3611760959361
 42
-0.0238457052379875
 10
-19965.460943772083
 20
2355.2571802000721
 10
-19965.458991043524
 20
2355.2553653223076
 42
-0.0248160564080954
 10
-19965.342789536193
 20
2355.1360907210678
 10
-19965.340685902818
 20
2355.1337053873945
 42
-0.0254109591288342
 10
-19965.233080684957
 20
2354.99841700144
 10
-19965.230832663037
 20
2354.9952754530295
 42
-0.0255528488189381
 10
-19965.133385984227
 20
2354.843248398774
 10
-19965.131054884325
 20
2354.8391667871874
 42
-0.0252146793141189
 10
-19965.045273858315
 20
2354.6696645411948
 10
-19965.042971619157
 20
2354.6644824592777
 42
-0.0244265635940354
 10
-19964.970316925417
 20
2354.47673588729
 10
-19964.961070523936
 20
2354.4488704689143
 42
-0.0231319612966016
 10
-19964.915147744938
 20
2354.2855694220916
 42
-0.0112130424238375
 10
-19964.880511722371
 20
2354.1193658217394
 10
-19964.879309197288
 20
2354.1128692350158
 42
-0.0210527881267188
 10
-19964.853622721916
 20
2353.9318135895701
 10
-19964.850112127097
 20
2353.8964080410269
 42
-0.0190029892381312
 10
-19964.834670653549
 20
2353.6428721946822
 10
-19964.833860677107
 20
2353.6073965803857
 42
-0.0137974553728069
 10
-19964.835409529933
 20
2353.2823651738818
 10
-19964.836254984893
 20
2353.2562464290654
 42
-0.0081336634192681
 10
-19964.851114320118
 20
2352.9508989614601
 42
-0.0073526923525444
 10
-19964.875422853511
 20
2352.6461507169774
 10
-19964.876684277275
 20
2352.6328140425089
 42
-0.0066886138701738
 10
-19964.912419863329
 20
2352.302227998955
 10
-19964.914076952791
 20
2352.2886063800206
 42
-0.0061359187455398
 10
-19964.96192755481
 20
2351.9318424001708
 10
-19964.963965055918
 20
2351.9179475970914
 42
-0.0056698610070058
 10
-19965.024615386727
 20
2351.5346690280226
 10
-19965.027020820009
 20
2351.5205099090226
 42
-0.0052721077273877
 10
-19965.10115302082
 20
2351.1103825692644
 10
-19965.103916169646
 20
2351.0959659339587
 42
-0.0049289272134406
 10
-19965.192210287787
 20
2350.6586574226549
 10
-19965.195322782431
 20
2350.6439885700202
 42
-0.0047415956669612
 10
-19965.298560774016
 20
2350.1791918123745
 10
-19965.333328984321
 20
2350.0293847172265
 42
-0.008440447087838
 10
-19965.52334542785
 20
2349.2691606928529
 10
-19965.529472115879
 20
2349.2462965685422
 42
-0.0039635940253388
 10
-19965.750925800119
 20
2348.4453077044477
 10
-19965.764302595344
 20
2348.3983760877027
 42
-0.0072475040830797
 10
-19966.031749483223
 20
2347.5091563712572
 10
-19966.101961809971
 20
2347.2874160215379
 42
-0.0051345458834181
 10
-19966.388721182091
 20
2346.4130908335292
 10
-19966.410247448835
 20
2346.3496645664641
 42
-0.001915001658214
 10
-19966.665780855728
 20
2345.6061154461731
 10
-19966.672248460101
 20
2345.5875279813176
 42
-0.0021524362740534
 10
-19966.920726511187
 20
2344.8832021595435
 10
-19966.929936931832
 20
2344.8574485813801
 42
-0.0024331286819587
 10
-19967.166192190918
 20
2344.2068492731241
 10
-19967.175240143501
 20
2344.1823059666885
 42
-0.00274497217749
 10
-19967.399854714306
 20
2343.5831760878455
 10
-19967.408744721717
 20
2343.5598534979422
 42
-0.0031083229791171
 10
-19967.622287208309
 20
2343.0099294604133
 10
-19967.631023340051
 20
2342.9878397443904
 42
-0.0035311343269493
 10
-19967.834064525574
 20
2342.4848566188257
 10
-19967.84264986468
 20
2342.464013895416
 42
-0.0040245640927703
 10
-19968.035761668518
 20
2342.0057045727231
 10
-19968.044197782056
 20
2341.9861252047995
 42
-0.0046015135866437
 10
-19968.227954075286
 20
2341.5702201750087
 10
-19968.236240253129
 20
2341.5519230355208
 42
-0.0052768638273563
 10
-19968.411217772067
 20
2341.1761501512865
 10
-19968.419349982643
 20
2341.1591568128529
 42
-0.0060672675705559
 10
-19968.58612959546
 20
2340.8212411896288
 10
-19968.594099075901
 20
2340.8055759307085
 42
-0.0069904648846803
 10
-19968.753267469943
 20
2340.5032401239678
 10
-19968.761058869455
 20
2340.488929574919
 42
-0.0080637022869987
 10
-19968.913210729901
 20
2340.2198942715877
 10
-19968.920799762487
 20
2340.2069664060637
 42
-0.0093006455697068
 10
-19969.06654043906
 20
2339.9689520074835
 10
-19969.073891105825
 20
2339.9574340382783
 42
-0.0107060778042646
 10
-19969.213839649245
 20
2339.7481637209312
 10
-19969.220901417553
 20
2339.7380781783249
 42
-0.0122723111408699
 10
-19969.355695135724
 20
2339.5552848488765
 10
-19969.356021359254
 20
2339.5548644610976
 42
-0.0141836319654822
 10
-19969.499602962249
 20
2339.3802947032373
 10
-19969.506550717881
 20
2339.3723197029972
 42
-0.0175957477264998
 10
-19969.646456885937
 20
2339.2226988145676
 42
-0.0080466359723905
 10
-19969.793920650911
 20
2339.0803762864707
 10
-19969.839955195486
 20
2339.0373558483252
 42
-0.0269600260401465
 10
-19970.093235441465
 20
2338.8250325898161
 10
-19970.159802577749
 20
2338.7750811752039
 42
-0.0178362839809952
 10
-19970.399747067422
 20
2338.6080632489402
 10
-19970.406992038435
 20
2338.6033947367273
 42
-0.0174650732729082
 10
-19970.643328235863
 20
2338.4625337717762
 42
-0.0169240130100784
 10
-19970.888794481722
 20
2338.3382415119981
 10
-19970.934780637279
 20
2338.3168795564316
 42
-0.0318883036827751
 10
-19971.285131492918
 20
2338.1805412469157
 10
-19971.353497028074
 20
2338.1588406264432
 42
-0.0284435909892887
 10
-19971.729547154355
 20
2338.062623190971
 10
-19971.764705314847
 20
2338.0557295951439
 42
-0.0243909340956748
 10
-19972.07814877577
 20
2338.0100085641125
 10
-19972.128429502543
 20
2338.0051630172106
 42
-0.0196639293023105
 10
-19972.34402508007
 20
2337.9929147316975
 10
-19972.395849151235
 20
2337.9920114709607
 42
-0.0100501510713121
 10
-19972.508272432897
 20
2337.9923118693137
 10
-19972.539932294207
 20
2337.9930329411982
 42
-0.0019752030919474
 10
-19972.589024630921
 20
2337.9943451014087
 10
-19972.591784934139
 20
2337.9944297932348
 42
0.0065378752426414
 10
-19972.635361508903
 20
2337.9951966844501
 42
-0.0167974694467767
 10
-19972.678892331831
 20
2337.9968565829759
 10
-19972.682971671093
 20
2337.9971495938707
 42
-0.0081283276027147
 10
-19972.734531468825
 20
2338.0016965875075
 10
-19972.746271042713
 20
2338.0029245050869
 42
-0.0126703440375366
 10
-19972.820989338499
 20
2338.0126592961574
 10
-19972.843777206181
 20
2338.0162175520736
 42
-0.0117852088489943
 10
-19972.963316192014
 20
2338.0377805472308
 10
-19973.018696643776
 20
2338.0491240874653
 42
-0.025177459228931
 10
-19973.245540682794
 20
2338.1076220969012
 10
-19973.29025987264
 20
2338.121588916234
 42
-0.014652519987713
 10
-19973.476652860176
 20
2338.185855443432
 42
-0.0166929435905674
 10
-19973.658630516293
 20
2338.2616625764836
 10
-19973.663287147574
 20
2338.2637874771003
 42
-0.0191684358332479
 10
-19973.848470778834
 20
2338.3570235608954
 10
-19973.851803364581
 20
2338.3588648084437
 42
-0.0221181781770298
 10
-19974.035113668484
 20
2338.4709983068151
 10
-19974.03746347249
 20
2338.4725826048057
 42
-0.0254984685343057
 10
-19974.213753622847
 20
2338.6049937547509
 10
-19974.236235770604
 20
2338.623746063734
 42
-0.0292492648880685
 10
-19974.361004709419
 20
2338.7408388633544
 42
-0.0159048957427611
 10
-19974.474844706907
 20
2338.8688588549962
 10
-19974.476163497449
 20
2338.8704404679738
 42
-0.0343813379517458
 10
-19974.578800759082
 20
2339.0123117937528
 10
-19974.610292290439
 20
2339.0628151858409
 42
-0.0369117275695572
 10
-19974.696184792338
 20
2339.2262924267857
 42
-0.0191751379809957
 10
-19974.7633781779
 20
2339.3986970328124
 10
-19974.765141501652
 20
2339.4037903774665
 42
-0.0378178042238862
 10
-19974.814936220435
 20
2339.5927311535529
 10
-19974.82093151618
 20
2339.6252917718475
 42
-0.0184846046344843
 10
-19974.841648715461
 20
2339.7670445922899
 42
-0.017986635122451
 10
-19974.851981720534
 20
2339.9099354053651
 10
-19974.852038162979
 20
2339.9114930919832
 42
-0.0085497186019611
 10
-19974.853470444083
 20
2339.9863662569933
 42
-0.0085497186019611
  0
ENDBLK
  5
66
100
AcDbEntity
  8
template
390
0
100
AcDbBlockEnd
  0
BLOCK
  5
67
100
AcDbEntity
  8
notes
390
0
100
AcDbBlockBegin
  2
*D4
 70
               1
 10
0.0
 20
0.0
 30
0.0
  3
*D4
  1

  0
LINE
  5
68
100
AcDbEntity
  8
0
370
              -2
390
0
  6
Continuous
 62
               0
100
AcDbLine
 10
-98.684485009918717
 20
-622.1259480507274
 30
0.0
 11
41.248197312357661
 21
-622.1259480507274
 31
0.0
  0
LINE
  5
69
100
AcDbEntity
  8
0
370
              -2
390
0
  6
Continuous
 62
               0
100
AcDbLine
 10
-37.018355383363087
 20
-472.1259480507274
 30
0.0
 11
41.248197312357661
 21
-472.1259480507274
 31
0.0
  0
LINE
  5
6A
100
AcDbEntity
  8
0
370
              -2
390
0
  6
Continuous
 62
               0
100
AcDbLine
 10
41.248197312357661
 20
-622.1259480507274
 30
0.0
 11
41.248197312357661
 21
-472.1259480507274
 31
0.0
  0
CIRCLE
  5
6B
102
{ACAD_REACTORS
330
6C
102
}
100
AcDbEntity
  8
0
370
              -2
390
0
  6
Continuous
 62
               0
100
AcDbCircle
 10
41.248197312357661
 20
-622.1259480507274
 30
0.0
 40
4.99969482421875
  0
HATCH
  5
6C
100
AcDbEntity
  8
0
370
              -2
390
0
  6
Continuous
 62
               0
100
AcDbHatch
 10
0.0
 20
0.0
 30
0.0
210
0.0
220
0.0
230
1.0
  2
SOLID
 70
               1
 71
               1
 91
        1
 92
        1
 93
        1
 72
               2
 10
41.248197312357661
 20
-622.1259480507274
 40
4.99969482421875
 50
0.0
 51
360.0
 73
               0
 97
        1
330
6B
 75
               0
 76
               1
 98
        1
 10
0.0
 20
0.0
  0
CIRCLE
  5
6D
102
{ACAD_REACTORS
330
6E
102
}
100
AcDbEntity
  8
0
370
              -2
390
0
  6
Continuous
 62
               0
100
AcDbCircle
 10
41.248197312357661
 20
-472.1259480507274
 30
0.0
 40
4.99969482421875
  0
HATCH
  5
6E
100
AcDbEntity
  8
0
370
              -2
390
0
  6
Continuous
 62
               0
100
AcDbHatch
 10
0.0
 20
0.0
 30
0.0
210
0.0
220
0.0
230
1.0
  2
SOLID
 70
               1
 71
               1
 91
        1
 92
        1
 93
        1
 72
               2
 10
41.248197312357661
 20
-472.1259480507274
 40
4.99969482421875
 50
0.0
 51
360.0
 73
               0
 97
        1
330
6D
 75
               0
 76
               1
 98
        1
 10
0.0
 20
0.0
  0
MTEXT
  5
6F
100
AcDbEntity
  8
0
390
0
 62
               0
100
AcDbMText
 10
9.9750723123579519
 20
-570.93844973290288
 30
0.0
 40
21.828125
 41
0.0
 71
               1
 72
               1
  1
150
  7
MS UI Gothic
 11
0.0
 21
1.0
 31
0.0
 73
               1
 44
0.8762322015334064
  0
POINT
  5
70
100
AcDbEntity
  8
Defpoints
370
               0
390
0
 62
               0
100
AcDbPoint
 10
-62.018355383363087
 20
-472.1259480507274
 30
0.0
  0
POINT
  5
71
100
AcDbEntity
  8
Defpoints
370
               0
390
0
 62
               0
100
AcDbPoint
 10
-123.68448500991872
 20
-622.1259480507274
 30
0.0
  0
POINT
  5
72
100
AcDbEntity
  8
Defpoints
370
               0
390
0
 62
               0
100
AcDbPoint
 10
41.248197312357661
 20
-622.1259480507274
 30
0.0
  0
ENDBLK
  5
73
100
AcDbEntity
  8
notes
390
0
100
AcDbBlockEnd
  0
BLOCK
  5
74
100
AcDbEntity
  8
notes
390
0
100
AcDbBlockBegin
  2
*D5
 70
               1
 10
0.0
 20
0.0
 30
0.0
  3
*D5
  1

  0
LINE
  5
75
100
AcDbEntity
  8
0
370
              -2
390
0
  6
Continuous
 62
               0
100
AcDbLine
 10
-408.75186470125482
 20
-567.78728310151428
 30
0.0
 11
-408.75186470125482
 21
-369.62933347182252
 31
0.0
  0
LINE
  5
76
100
AcDbEntity
  8
0
370
              -2
390
0
  6
Continuous
 62
               0
100
AcDbLine
 10
-758.75186470125482
 20
-457.39674778386325
 30
0.0
 11
-758.75186470125482
 21
-369.62933347182252
 31
0.0
  0
LINE
  5
77
100
AcDbEntity
  8
0
370
              -2
390
0
  6
Continuous
 62
               0
100
AcDbLine
 10
-408.75186470125482
 20
-369.62933347182252
 30
0.0
 11
-758.75186470125482
 21
-369.62933347182252
 31
0.0
  0
CIRCLE
  5
78
102
{ACAD_REACTORS
330
79
102
}
100
AcDbEntity
  8
0
370
              -2
390
0
  6
Continuous
 62
               0
100
AcDbCircle
 10
-408.75186470125482
 20
-369.62933347182252
 30
0.0
 40
4.99969482421875
  0
HATCH
  5
79
100
AcDbEntity
  8
0
370
              -2
390
0
  6
Continuous
 62
               0
100
AcDbHatch
 10
0.0
 20
0.0
 30
0.0
210
0.0
220
0.0
230
1.0
  2
SOLID
 70
               1
 71
               1
 91
        1
 92
        1
 93
        1
 72
               2
 10
-408.75186470125482
 20
-369.62933347182252
 40
4.99969482421875
 50
0.0
 51
360.0
 73
               0
 97
        1
330
78
 75
               0
 76
               1
 98
        1
 10
0.0
 20
0.0
  0
CIRCLE
  5
7A
102
{ACAD_REACTORS
330
7B
102
}
100
AcDbEntity
  8
0
370
              -2
390
0
  6
Continuous
 62
               0
100
AcDbCircle
 10
-758.75186470125482
 20
-369.62933347182252
 30
0.0
 40
4.99969482421875
  0
HATCH
  5
7B
100
AcDbEntity
  8
0
370
              -2
390
0
  6
Continuous
 62
               0
100
AcDbHatch
 10
0.0
 20
0.0
 30
0.0
210
0.0
220
0.0
230
1.0
  2
SOLID
 70
               1
 71
               1
 91
        1
 92
        1
 93
        1
 72
               2
 10
-758.75186470125482
 20
-369.62933347182252
 40
4.99969482421875
 50
0.0
 51
360.0
 73
               0
 97
        1
330
7A
 75
               0
 76
               1
 98
        1
 10
0.0
 20
0.0
  0
MTEXT
  5
7C
100
AcDbEntity
  8
0
390
0
 62
               0
100
AcDbMText
 10
-607.56436638343075
 20
-338.35620847182236
 30
0.0
 40
21.828125
 41
0.0
 71
               1
 72
               1
  1
350
  7
MS UI Gothic
 73
               1
 44
0.8762322015334064
  0
POINT
  5
7D
100
AcDbEntity
  8
Defpoints
370
               0
390
0
 62
               0
100
AcDbPoint
 10
-758.75186470125482
 20
-482.39674778386325
 30
0.0
  0
POINT
  5
7E
100
AcDbEntity
  8
Defpoints
370
               0
390
0
 62
               0
100
AcDbPoint
 10
-408.75186470125482
 20
-592.78728310151428
 30
0.0
  0
POINT
  5
7F
100
AcDbEntity
  8
Defpoints
370
               0
390
0
 62
               0
100
AcDbPoint
 10
-408.75186470125482
 20
-369.62933347182252
 30
0.0
  0
ENDBLK
  5
80
100
AcDbEntity
  8
notes
390
0
100
AcDbBlockEnd
  0
BLOCK
  5
81
100
AcDbEntity
  8
notes
390
0
100
AcDbBlockBegin
  2
*D6
 70
               1
 10
0.0
 20
0.0
 30
0.0
  3
*D6
  1

  0
LINE
  5
82
100
AcDbEntity
  8
0
370
              -2
390
0
  6
Continuous
 62
               0
100
AcDbLine
 10
506.74333158263835
 20
-642.78728310151428
 30
0.0
 11
506.74333158263835
 21
-722.78728310151428
 31
0.0
  0
LINE
  5
83
100
AcDbEntity
  8
0
370
              -2
390
0
  6
Continuous
 62
               0
100
AcDbLine
 10
321.74333158263835
 20
-500.79117133357431
 30
0.0
 11
321.74333158263835
 21
-722.78728310151428
 31
0.0
  0
LINE
  5
84
100
AcDbEntity
  8
0
370
              -2
390
0
  6
Continuous
 62
               0
100
AcDbLine
 10
506.74333158263835
 20
-722.78728310151428
 30
0.0
 11
321.74333158263835
 21
-722.78728310151428
 31
0.0
  0
CIRCLE
  5
85
102
{ACAD_REACTORS
330
86
102
}
100
AcDbEntity
  8
0
370
              -2
390
0
  6
Continuous
 62
               0
100
AcDbCircle
 10
506.74333158263835
 20
-722.78728310151428
 30
0.0
 40
4.99969482421875
  0
HATCH
  5
86
100
AcDbEntity
  8
0
370
              -2
390
0
  6
Continuous
 62
               0
100
AcDbHatch
 10
0.0
 20
0.0
 30
0.0
210
0.0
220
0.0
230
1.0
  2
SOLID
 70
               1
 71
               1
 91
        1
 92
        1
 93
        1
 72
               2
 10
506.74333158263835
 20
-722.78728310151428
 40
4.99969482421875
 50
0.0
 51
360.0
 73
               0
 97
        1
330
85
 75
               0
 76
               1
 98
        1
 10
0.0
 20
0.0
  0
CIRCLE
  5
87
102
{ACAD_REACTORS
330
88
102
}
100
AcDbEntity
  8
0
370
              -2
390
0
  6
Continuous
 62
               0
100
AcDbCircle
 10
321.74333158263835
 20
-722.78728310151428
 30
0.0
 40
4.99969482421875
  0
HATCH
  5
88
100
AcDbEntity
  8
0
370
              -2
390
0
  6
Continuous
 62
               0
100
AcDbHatch
 10
0.0
 20
0.0
 30
0.0
210
0.0
220
0.0
230
1.0
  2
SOLID
 70
               1
 71
               1
 91
        1
 92
        1
 93
        1
 72
               2
 10
321.74333158263835
 20
-722.78728310151428
 40
4.99969482421875
 50
0.0
 51
360.0
 73
               0
 97
        1
330
87
 75
               0
 76
               1
 98
        1
 10
0.0
 20
0.0
  0
MTEXT
  5
89
100
AcDbEntity
  8
0
390
0
 62
               0
100
AcDbMText
 10
388.16914293446098
 20
-691.51415810151411
 30
0.0
 40
21.828125
 41
0.0
 71
               1
 72
               1
  1
185
  7
MS UI Gothic
 73
               1
 44
0.8762322015334064
  0
POINT
  5
8A
100
AcDbEntity
  8
Defpoints
370
               0
390
0
 62
               0
100
AcDbPoint
 10
321.74333158263835
 20
-475.79117133357431
 30
0.0
  0
POINT
  5
8B
100
AcDbEntity
  8
Defpoints
370
               0
390
0
 62
               0
100
AcDbPoint
 10
506.74333158263835
 20
-617.78728310151428
 30
0.0
  0
POINT
  5
8C
100
AcDbEntity
  8
Defpoints
370
               0
390
0
 62
               0
100
AcDbPoint
 10
506.74333158263835
 20
-722.78728310151428
 30
0.0
  0
ENDBLK
  5
8D
100
AcDbEntity
  8
notes
390
0
100
AcDbBlockEnd
  0
BLOCK
  5
8E
100
AcDbEntity
  8
notes
390
0
100
AcDbBlockBegin
  2
*D7
 70
               1
 10
0.0
 20
0.0
 30
0.0
  3
*D7
  1

  0
LINE
  5
8F
100
AcDbEntity
  8
0
370
              -2
390
0
  6
Continuous
 62
               0
100
AcDbLine
 10
-696.50171772207977
 20
-647.75433347182252
 30
0.0
 11
-696.50171772207977
 21
-778.02596247596057
 31
0.0
  0
LINE
  5
90
100
AcDbEntity
  8
0
370
              -2
390
0
  6
Continuous
 62
               0
100
AcDbLine
 10
-121.50171772207977
 20
-647.75433347182252
 30
0.0
 11
-121.50171772207977
 21
-778.02596247596057
 31
0.0
  0
LINE
  5
91
100
AcDbEntity
  8
0
370
              -2
390
0
  6
Continuous
 62
               0
100
AcDbLine
 10
-696.50171772207977
 20
-778.02596247596057
 30
0.0
 11
-121.50171772207977
 21
-778.02596247596057
 31
0.0
  0
CIRCLE
  5
92
102
{ACAD_REACTORS
330
93
102
}
100
AcDbEntity
  8
0
370
              -2
390
0
  6
Continuous
 62
               0
100
AcDbCircle
 10
-696.50171772207977
 20
-778.02596247596057
 30
0.0
 40
4.99969482421875
  0
HATCH
  5
93
100
AcDbEntity
  8
0
370
              -2
390
0
  6
Continuous
 62
               0
100
AcDbHatch
 10
0.0
 20
0.0
 30
0.0
210
0.0
220
0.0
230
1.0
  2
SOLID
 70
               1
 71
               1
 91
        1
 92
        1
 93
        1
 72
               2
 10
-696.50171772207977
 20
-778.02596247596057
 40
4.99969482421875
 50
0.0
 51
360.0
 73
               0
 97
        1
330
92
 75
               0
 76
               1
 98
        1
 10
0.0
 20
0.0
  0
CIRCLE
  5
94
102
{ACAD_REACTORS
330
95
102
}
100
AcDbEntity
  8
0
370
              -2
390
0
  6
Continuous
 62
               0
100
AcDbCircle
 10
-121.50171772207977
 20
-778.02596247596057
 30
0.0
 40
4.99969482421875
  0
HATCH
  5
95
100
AcDbEntity
  8
0
370
              -2
390
0
  6
Continuous
 62
               0
100
AcDbHatch
 10
0.0
 20
0.0
 30
0.0
210
0.0
220
0.0
230
1.0
  2
SOLID
 70
               1
 71
               1
 91
        1
 92
        1
 93
        1
 72
               2
 10
-121.50171772207977
 20
-778.02596247596057
 40
4.99969482421875
 50
0.0
 51
360.0
 73
               0
 97
        1
330
94
 75
               0
 76
               1
 98
        1
 10
0.0
 20
0.0
  0
MTEXT
  5
96
100
AcDbEntity
  8
0
390
0
 62
               0
100
AcDbMText
 10
-432.81421940425571
 20
-746.7528374759604
 30
0.0
 40
21.828125
 41
0.0
 71
               1
 72
               1
  1
575
  7
MS UI Gothic
 73
               1
 44
0.8762322015334064
  0
POINT
  5
97
100
AcDbEntity
  8
Defpoints
370
               0
390
0
 62
               0
100
AcDbPoint
 10
-121.50171772207977
 20
-622.75433347182252
 30
0.0
  0
POINT
  5
98
100
AcDbEntity
  8
Defpoints
370
               0
390
0
 62
               0
100
AcDbPoint
 10
-696.50171772207977
 20
-622.75433347182252
 30
0.0
  0
POINT
  5
99
100
AcDbEntity
  8
Defpoints
370
               0
390
0
 62
               0
100
AcDbPoint
 10
-696.50171772207977
 20
-778.02596247596057
 30
0.0
  0
ENDBLK
  5
9A
100
AcDbEntity
  8
notes
390
0
100
AcDbBlockEnd
  0
BLOCK
  5
9B
100
AcDbEntity
  8
notes
390
0
100
AcDbBlockBegin
  2
*D8
 70
               1
 10
0.0
 20
0.0
 30
0.0
  3
*D8
  1

  0
LINE
  5
9C
100
AcDbEntity
  8
0
370
              -2
390
0
  6
Continuous
 62
               0
100
AcDbLine
 10
384.28164461663619
 20
-647.66613611405546
 30
0.0
 11
384.28164461663619
 21
-778.02596247596057
 31
0.0
  0
LINE
  5
9D
100
AcDbEntity
  8
0
370
              -2
390
0
  6
Continuous
 62
               0
100
AcDbLine
 10
629.28164461663619
 20
-647.66613611405546
 30
0.0
 11
629.28164461663619
 21
-778.02596247596057
 31
0.0
  0
LINE
  5
9E
100
AcDbEntity
  8
0
370
              -2
390
0
  6
Continuous
 62
               0
100
AcDbLine
 10
384.28164461663619
 20
-778.02596247596057
 30
0.0
 11
629.28164461663619
 21
-778.02596247596057
 31
0.0
  0
CIRCLE
  5
9F
102
{ACAD_REACTORS
330
A0
102
}
100
AcDbEntity
  8
0
370
              -2
390
0
  6
Continuous
 62
               0
100
AcDbCircle
 10
384.28164461663619
 20
-778.02596247596057
 30
0.0
 40
4.99969482421875
  0
HATCH
  5
A0
100
AcDbEntity
  8
0
370
              -2
390
0
  6
Continuous
 62
               0
100
AcDbHatch
 10
0.0
 20
0.0
 30
0.0
210
0.0
220
0.0
230
1.0
  2
SOLID
 70
               1
 71
               1
 91
        1
 92
        1
 93
        1
 72
               2
 10
384.28164461663619
 20
-778.02596247596057
 40
4.99969482421875
 50
0.0
 51
360.0
 73
               0
 97
        1
330
9F
 75
               0
 76
               1
 98
        1
 10
0.0
 20
0.0
  0
CIRCLE
  5
A1
102
{ACAD_REACTORS
330
A2
102
}
100
AcDbEntity
  8
0
370
              -2
390
0
  6
Continuous
 62
               0
100
AcDbCircle
 10
629.28164461663619
 20
-778.02596247596057
 30
0.0
 40
4.99969482421875
  0
HATCH
  5
A2
100
AcDbEntity
  8
0
370
              -2
390
0
  6
Continuous
 62
               0
100
AcDbHatch
 10
0.0
 20
0.0
 30
0.0
210
0.0
220
0.0
230
1.0
  2
SOLID
 70
               1
 71
               1
 91
        1
 92
        1
 93
        1
 72
               2
 10
629.28164461663619
 20
-778.02596247596057
 40
4.99969482421875
 50
0.0
 51
360.0
 73
               0
 97
        1
330
A1
 75
               0
 76
               1
 98
        1
 10
0.0
 20
0.0
  0
MTEXT
  5
A3
100
AcDbEntity
  8
0
390
0
 62
               0
100
AcDbMText
 10
482.96914293446025
 20
-746.7528374759604
 30
0.0
 40
21.828125
 41
0.0
 71
               1
 72
               1
  1
245
  7
MS UI Gothic
 73
               1
 44
0.8762322015334064
  0
POINT
  5
A4
100
AcDbEntity
  8
Defpoints
370
               0
390
0
 62
               0
100
AcDbPoint
 10
629.28164461663619
 20
-622.66613611405546
 30
0.0
  0
POINT
  5
A5
100
AcDbEntity
  8
Defpoints
370
               0
390
0
 62
               0
100
AcDbPoint
 10
384.28164461663619
 20
-622.66613611405546
 30
0.0
  0
POINT
  5
A6
100
AcDbEntity
  8
Defpoints
370
               0
390
0
 62
               0
100
AcDbPoint
 10
384.28164461663619
 20
-778.02596247596057
 30
0.0
  0
ENDBLK
  5
A7
100
AcDbEntity
  8
notes
390
0
100
AcDbBlockEnd
  0
BLOCK
  5
A8
100
AcDbEntity
  8
notes
390
0
100
AcDbBlockBegin
  2
*D9
 70
               1
 10
0.0
 20
0.0
 30
0.0
  3
*D9
  1

  0
LINE
  5
A9
100
AcDbEntity
  8
0
370
              -2
390
0
  6
Continuous
 62
               0
100
AcDbLine
 10
-758.75186470125482
 20
603.13491478204287
 30
0.0
 11
-758.75186470125482
 21
843.13491478204287
 31
0.0
  0
LINE
  5
AA
100
AcDbEntity
  8
0
370
              -2
390
0
  6
Continuous
 62
               0
100
AcDbLine
 10
-58.751802687642339
 20
603.13491478204287
 30
0.0
 11
-58.751802687642339
 21
843.13491478204287
 31
0.0
  0
LINE
  5
AB
100
AcDbEntity
  8
0
370
              -2
390
0
  6
Continuous
 62
               0
100
AcDbLine
 10
-758.75186470125482
 20
843.13491478204287
 30
0.0
 11
-58.751802687642339
 21
843.13491478204287
 31
0.0
  0
CIRCLE
  5
AC
102
{ACAD_REACTORS
330
AD
102
}
100
AcDbEntity
  8
0
370
              -2
390
0
  6
Continuous
 62
               0
100
AcDbCircle
 10
-758.75186470125482
 20
843.13491478204287
 30
0.0
 40
4.99969482421875
  0
HATCH
  5
AD
100
AcDbEntity
  8
0
370
              -2
390
0
  6
Continuous
 62
               0
100
AcDbHatch
 10
0.0
 20
0.0
 30
0.0
210
0.0
220
0.0
230
1.0
  2
SOLID
 70
               1
 71
               1
 91
        1
 92
        1
 93
        1
 72
               2
 10
-758.75186470125482
 20
843.13491478204287
 40
4.99969482421875
 50
0.0
 51
360.0
 73
               0
 97
        1
330
AC
 75
               0
 76
               1
 98
        1
 10
0.0
 20
0.0
  0
CIRCLE
  5
AE
102
{ACAD_REACTORS
330
AF
102
}
100
AcDbEntity
  8
0
370
              -2
390
0
  6
Continuous
 62
               0
100
AcDbCircle
 10
-58.751802687642339
 20
843.13491478204287
 30
0.0
 40
4.99969482421875
  0
HATCH
  5
AF
100
AcDbEntity
  8
0
370
              -2
390
0
  6
Continuous
 62
               0
100
AcDbHatch
 10
0.0
 20
0.0
 30
0.0
210
0.0
220
0.0
230
1.0
  2
SOLID
 70
               1
 71
               1
 91
        1
 92
        1
 93
        1
 72
               2
 10
-58.751802687642339
 20
843.13491478204287
 40
4.99969482421875
 50
0.0
 51
360.0
 73
               0
 97
        1
330
AE
 75
               0
 76
               1
 98
        1
 10
0.0
 20
0.0
  0
MTEXT
  5
B0
100
AcDbEntity
  8
0
390
0
 62
               0
100
AcDbMText
 10
-432.56433537662451
 20
874.40803978204258
 30
0.0
 40
21.828125
 41
0.0
 71
               1
 72
               1
  1
700
  7
MS UI Gothic
 73
               1
 44
0.8762322015334064
  0
POINT
  5
B1
100
AcDbEntity
  8
Defpoints
370
               0
390
0
 62
               0
100
AcDbPoint
 10
-58.751802687642339
 20
578.13491478204287
 30
0.0
  0
POINT
  5
B2
100
AcDbEntity
  8
Defpoints
370
               0
390
0
 62
               0
100
AcDbPoint
 10
-758.75186470125482
 20
578.13491478204287
 30
0.0
  0
POINT
  5
B3
100
AcDbEntity
  8
Defpoints
370
               0
390
0
 62
               0
100
AcDbPoint
 10
-758.75186470125482
 20
843.13491478204287
 30
0.0
  0
ENDBLK
  5
B4
100
AcDbEntity
  8
notes
390
0
100
AcDbBlockEnd
  0
BLOCK
  5
B5
100
AcDbEntity
  8
notes
390
0
100
AcDbBlockBegin
  2
*D10
 70
               1
 10
0.0
 20
0.0
 30
0.0
  3
*D10
  1

  0
LINE
  5
B6
100
AcDbEntity
  8
0
370
              -2
390
0
  6
Continuous
 62
               0
100
AcDbLine
 10
-733.74709249765147
 20
440.25581550573588
 30
0.0
 11
-733.74709249765147
 21
273.13491478204287
 31
0.0
  0
LINE
  5
B7
100
AcDbEntity
  8
0
370
              -2
390
0
  6
Continuous
 62
               0
100
AcDbLine
 10
-83.756574891242053
 20
440.25581550573588
 30
0.0
 11
-83.756574891242053
 21
273.13491478204287
 31
0.0
  0
LINE
  5
B8
100
AcDbEntity
  8
0
370
              -2
390
0
  6
Continuous
 62
               0
100
AcDbLine
 10
-733.74709249765147
 20
273.13491478204287
 30
0.0
 11
-83.756574891242053
 21
273.13491478204287
 31
0.0
  0
CIRCLE
  5
B9
102
{ACAD_REACTORS
330
BA
102
}
100
AcDbEntity
  8
0
370
              -2
390
0
  6
Continuous
 62
               0
100
AcDbCircle
 10
-733.74709249765147
 20
273.13491478204287
 30
0.0
 40
4.99969482421875
  0
HATCH
  5
BA
100
AcDbEntity
  8
0
370
              -2
390
0
  6
Continuous
 62
               0
100
AcDbHatch
 10
0.0
 20
0.0
 30
0.0
210
0.0
220
0.0
230
1.0
  2
SOLID
 70
               1
 71
               1
 91
        1
 92
        1
 93
        1
 72
               2
 10
-733.74709249765147
 20
273.13491478204287
 40
4.99969482421875
 50
0.0
 51
360.0
 73
               0
 97
        1
330
B9
 75
               0
 76
               1
 98
        1
 10
0.0
 20
0.0
  0
CIRCLE
  5
BB
102
{ACAD_REACTORS
330
BC
102
}
100
AcDbEntity
  8
0
370
              -2
390
0
  6
Continuous
 62
               0
100
AcDbCircle
 10
-83.756574891242053
 20
273.13491478204287
 30
0.0
 40
4.99969482421875
  0
HATCH
  5
BC
100
AcDbEntity
  8
0
370
              -2
390
0
  6
Continuous
 62
               0
100
AcDbHatch
 10
0.0
 20
0.0
 30
0.0
210
0.0
220
0.0
230
1.0
  2
SOLID
 70
               1
 71
               1
 91
        1
 92
        1
 93
        1
 72
               2
 10
-83.756574891242053
 20
273.13491478204287
 40
4.99969482421875
 50
0.0
 51
360.0
 73
               0
 97
        1
330
BB
 75
               0
 76
               1
 98
        1
 10
0.0
 20
0.0
  0
MTEXT
  5
BD
100
AcDbEntity
  8
0
390
0
 62
               0
100
AcDbMText
 10
-432.56433537662087
 20
304.40803978204303
 30
0.0
 40
21.828125
 41
0.0
 71
               1
 72
               1
  1
650
  7
MS UI Gothic
 73
               1
 44
0.8762322015334064
  0
POINT
  5
BE
100
AcDbEntity
  8
Defpoints
370
               0
390
0
 62
               0
100
AcDbPoint
 10
-83.756574891242053
 20
465.25581550573588
 30
0.0
  0
POINT
  5
BF
100
AcDbEntity
  8
Defpoints
370
               0
390
0
 62
               0
100
AcDbPoint
 10
-733.74709249765147
 20
465.25581550573588
 30
0.0
  0
POINT
  5
C0
100
AcDbEntity
  8
Defpoints
370
               0
390
0
 62
               0
100
AcDbPoint
 10
-733.74709249765147
 20
273.13491478204287
 30
0.0
  0
ENDBLK
  5
C1
100
AcDbEntity
  8
notes
390
0
100
AcDbBlockEnd
  0
BLOCK
  5
C2
100
AcDbEntity
  8
notes
390
0
100
AcDbBlockBegin
  2
*D11
 70
               1
 10
0.0
 20
0.0
 30
0.0
  3
*D11
  1

  0
LINE
  5
C3
100
AcDbEntity
  8
0
370
              -2
390
0
  6
Continuous
 62
               0
100
AcDbLine
 10
-198.75180268764234
 20
743.13491478204287
 30
0.0
 11
41.248197312357661
 21
743.13491478204287
 31
0.0
  0
LINE
  5
C4
100
AcDbEntity
  8
0
370
              -2
390
0
  6
Continuous
 62
               0
100
AcDbLine
 10
-198.75180268764234
 20
373.13491478203787
 30
0.0
 11
41.248197312357661
 21
373.13491478203787
 31
0.0
  0
LINE
  5
C5
100
AcDbEntity
  8
0
370
              -2
390
0
  6
Continuous
 62
               0
100
AcDbLine
 10
41.248197312357661
 20
743.13491478204287
 30
0.0
 11
41.248197312357661
 21
373.13491478203787
 31
0.0
  0
CIRCLE
  5
C6
102
{ACAD_REACTORS
330
C7
102
}
100
AcDbEntity
  8
0
370
              -2
390
0
  6
Continuous
 62
               0
100
AcDbCircle
 10
41.248197312357661
 20
743.13491478204287
 30
0.0
 40
4.99969482421875
  0
HATCH
  5
C7
100
AcDbEntity
  8
0
370
              -2
390
0
  6
Continuous
 62
               0
100
AcDbHatch
 10
0.0
 20
0.0
 30
0.0
210
0.0
220
0.0
230
1.0
  2
SOLID
 70
               1
 71
               1
 91
        1
 92
        1
 93
        1
 72
               2
 10
41.248197312357661
 20
743.13491478204287
 40
4.99969482421875
 50
0.0
 51
360.0
 73
               0
 97
        1
330
C6
 75
               0
 76
               1
 98
        1
 10
0.0
 20
0.0
  0
CIRCLE
  5
C8
102
{ACAD_REACTORS
330
C9
102
}
100
AcDbEntity
  8
0
370
              -2
390
0
  6
Continuous
 62
               0
100
AcDbCircle
 10
41.248197312357661
 20
373.13491478203787
 30
0.0
 40
4.99969482421875
  0
HATCH
  5
C9
100
AcDbEntity
  8
0
370
              -2
390
0
  6
Continuous
 62
               0
100
AcDbHatch
 10
0.0
 20
0.0
 30
0.0
210
0.0
220
0.0
230
1.0
  2
SOLID
 70
               1
 71
               1
 91
        1
 92
        1
 93
        1
 72
               2
 10
41.248197312357661
 20
373.13491478203787
 40
4.99969482421875
 50
0.0
 51
360.0
 73
               0
 97
        1
330
C8
 75
               0
 76
               1
 98
        1
 10
0.0
 20
0.0
  0
MTEXT
  5
CA
100
AcDbEntity
  8
0
390
0
 62
               0
100
AcDbMText
 10
9.9750723123579519
 20
534.32241309986421
 30
0.0
 40
21.828125
 41
0.0
 71
               1
 72
               1
  1
370
  7
MS UI Gothic
 11
0.0
 21
1.0
 31
0.0
 73
               1
 44
0.8762322015334064
  0
POINT
  5
CB
100
AcDbEntity
  8
Defpoints
370
               0
390
0
 62
               0
100
AcDbPoint
 10
-223.75180268764234
 20
373.13491478203787
 30
0.0
  0
POINT
  5
CC
100
AcDbEntity
  8
Defpoints
370
               0
390
0
 62
               0
100
AcDbPoint
 10
-223.75180268764234
 20
743.13491478204287
 30
0.0
  0
POINT
  5
CD
100
AcDbEntity
  8
Defpoints
370
               0
390
0
 62
               0
100
AcDbPoint
 10
41.248197312357661
 20
743.13491478204287
 30
0.0
  0
ENDBLK
  5
CE
100
AcDbEntity
  8
notes
390
0
100
AcDbBlockEnd
  0
BLOCK
  5
CF
100
AcDbEntity
  8
notes
390
0
100
AcDbBlockBegin
  2
*D12
 70
               1
 10
0.0
 20
0.0
 30
0.0
  3
*D12
  1

  0
LINE
  5
D0
100
AcDbEntity
  8
0
370
              -2
390
0
  6
Continuous
 62
               0
100
AcDbLine
 10
-691.62274280628844
 20
718.13491478204287
 30
0.0
 11
-858.75186470125482
 21
718.13491478204287
 31
0.0
  0
LINE
  5
D1
100
AcDbEntity
  8
0
370
              -2
390
0
  6
Continuous
 62
               0
100
AcDbLine
 10
-691.62274280628844
 20
398.13491478203832
 30
0.0
 11
-858.75186470125482
 21
398.13491478203832
 31
0.0
  0
LINE
  5
D2
100
AcDbEntity
  8
0
370
              -2
390
0
  6
Continuous
 62
               0
100
AcDbLine
 10
-858.75186470125482
 20
718.13491478204287
 30
0.0
 11
-858.75186470125482
 21
398.13491478203832
 31
0.0
  0
CIRCLE
  5
D3
102
{ACAD_REACTORS
330
D4
102
}
100
AcDbEntity
  8
0
370
              -2
390
0
  6
Continuous
 62
               0
100
AcDbCircle
 10
-858.75186470125482
 20
718.13491478204287
 30
0.0
 40
4.99969482421875
  0
HATCH
  5
D4
100
AcDbEntity
  8
0
370
              -2
390
0
  6
Continuous
 62
               0
100
AcDbHatch
 10
0.0
 20
0.0
 30
0.0
210
0.0
220
0.0
230
1.0
  2
SOLID
 70
               1
 71
               1
 91
        1
 92
        1
 93
        1
 72
               2
 10
-858.75186470125482
 20
718.13491478204287
 40
4.99969482421875
 50
0.0
 51
360.0
 73
               0
 97
        1
330
D3
 75
               0
 76
               1
 98
        1
 10
0.0
 20
0.0
  0
CIRCLE
  5
D5
102
{ACAD_REACTORS
330
D6
102
}
100
AcDbEntity
  8
0
370
              -2
390
0
  6
Continuous
 62
               0
100
AcDbCircle
 10
-858.75186470125482
 20
398.13491478203832
 30
0.0
 40
4.99969482421875
  0
HATCH
  5
D6
100
AcDbEntity
  8
0
370
              -2
390
0
  6
Continuous
 62
               0
100
AcDbHatch
 10
0.0
 20
0.0
 30
0.0
210
0.0
220
0.0
230
1.0
  2
SOLID
 70
               1
 71
               1
 91
        1
 92
        1
 93
        1
 72
               2
 10
-858.75186470125482
 20
398.13491478203832
 40
4.99969482421875
 50
0.0
 51
360.0
 73
               0
 97
        1
330
D5
 75
               0
 76
               1
 98
        1
 10
0.0
 20
0.0
  0
MTEXT
  5
D7
100
AcDbEntity
  8
0
390
0
 62
               0
100
AcDbMText
 10
-890.02498970125453
 20
534.32241309986512
 30
0.0
 40
21.828125
 41
0.0
 71
               1
 72
               1
  1
320
  7
MS UI Gothic
 11
0.0
 21
1.0
 31
0.0
 73
               1
 44
0.8762322015334064
  0
POINT
  5
D8
100
AcDbEntity
  8
Defpoints
370
               0
390
0
 62
               0
100
AcDbPoint
 10
-666.62274280628844
 20
398.13491478203832
 30
0.0
  0
POINT
  5
D9
100
AcDbEntity
  8
Defpoints
370
               0
390
0
 62
               0
100
AcDbPoint
 10
-666.62274280628844
 20
718.13491478204287
 30
0.0
  0
POINT
  5
DA
100
AcDbEntity
  8
Defpoints
370
               0
390
0
 62
               0
100
AcDbPoint
 10
-858.75186470125482
 20
718.13491478204287
 30
0.0
  0
ENDBLK
  5
DB
100
AcDbEntity
  8
notes
390
0
100
AcDbBlockEnd
  0
BLOCK
  5
DC
100
AcDbEntity
  8
notes
390
0
100
AcDbBlockBegin
  2
*D13
 70
               1
 10
0.0
 20
0.0
 30
0.0
  3
*D13
  1

  0
LINE
  5
DD
100
AcDbEntity
  8
0
370
              -2
390
0
  6
Continuous
 62
               0
100
AcDbLine
 10
512.03119847744892
 20
-472.78728310151428
 30
0.0
 11
512.99824884775808
 21
-472.78728310151428
 31
0.0
  0
LINE
  5
DE
100
AcDbEntity
  8
0
370
              -2
390
0
  6
Continuous
 62
               0
100
AcDbLine
 10
512.03119847744892
 20
-587.78728310151428
 30
0.0
 11
512.99824884775808
 21
-587.78728310151428
 31
0.0
  0
LINE
  5
DF
100
AcDbEntity
  8
0
370
              -2
390
0
  6
Continuous
 62
               0
100
AcDbLine
 10
512.99824884775808
 20
-472.78728310151428
 30
0.0
 11
512.99824884775808
 21
-325.59682324419555
 31
0.0
  0
LINE
  5
E0
100
AcDbEntity
  8
0
370
              -2
390
0
  6
Continuous
 62
               0
100
AcDbLine
 10
512.99824884775808
 20
-472.78728310151428
 30
0.0
 11
512.99824884775808
 21
-587.78728310151428
 31
0.0
  0
CIRCLE
  5
E1
102
{ACAD_REACTORS
330
E2
102
}
100
AcDbEntity
  8
0
370
              -2
390
0
  6
Continuous
 62
               0
100
AcDbCircle
 10
512.99824884775808
 20
-472.78728310151428
 30
0.0
 40
4.99969482421875
  0
HATCH
  5
E2
100
AcDbEntity
  8
0
370
              -2
390
0
  6
Continuous
 62
               0
100
AcDbHatch
 10
0.0
 20
0.0
 30
0.0
210
0.0
220
0.0
230
1.0
  2
SOLID
 70
               1
 71
               1
 91
        1
 92
        1
 93
        1
 72
               2
 10
512.99824884775808
 20
-472.78728310151428
 40
4.99969482421875
 50
0.0
 51
360.0
 73
               0
 97
        1
330
E1
 75
               0
 76
               1
 98
        1
 10
0.0
 20
0.0
  0
CIRCLE
  5
E3
102
{ACAD_REACTORS
330
E4
102
}
100
AcDbEntity
  8
0
370
              -2
390
0
  6
Continuous
 62
               0
100
AcDbCircle
 10
512.99824884775808
 20
-587.78728310151428
 30
0.0
 40
4.99969482421875
  0
HATCH
  5
E4
100
AcDbEntity
  8
0
370
              -2
390
0
  6
Continuous
 62
               0
100
AcDbHatch
 10
0.0
 20
0.0
 30
0.0
210
0.0
220
0.0
230
1.0
  2
SOLID
 70
               1
 71
               1
 91
        1
 92
        1
 93
        1
 72
               2
 10
512.99824884775808
 20
-587.78728310151428
 40
4.99969482421875
 50
0.0
 51
360.0
 73
               0
 97
        1
330
E3
 75
               0
 76
               1
 98
        1
 10
0.0
 20
0.0
  0
MTEXT
  5
E5
100
AcDbEntity
  8
0
390
0
 62
               0
100
AcDbMText
 10
481.72512384775837
 20
-458.62933347182252
 30
0.0
 40
21.828125
 41
0.0
 71
               1
 72
               1
  1
115（深さ）
  7
MS UI Gothic
 11
0.0
 21
1.0
 31
0.0
 73
               1
 44
0.8762322015334064
  0
POINT
  5
E6
100
AcDbEntity
  8
Defpoints
370
               0
390
0
 62
               0
100
AcDbPoint
 10
537.03119847744892
 20
-587.78728310151428
 30
0.0
  0
POINT
  5
E7
100
AcDbEntity
  8
Defpoints
370
               0
390
0
 62
               0
100
AcDbPoint
 10
537.03119847744892
 20
-472.78728310151428
 30
0.0
  0
POINT
  5
E8
100
AcDbEntity
  8
Defpoints
370
               0
390
0
 62
               0
100
AcDbPoint
 10
512.99824884775808
 20
-472.78728310151428
 30
0.0
  0
ENDBLK
  5
E9
100
AcDbEntity
  8
notes
390
0
100
AcDbBlockEnd
  0
BLOCK
  5
EA
100
AcDbEntity
  8
notes
390
0
100
AcDbBlockBegin
  2
*D14
 70
               1
 10
0.0
 20
0.0
 30
0.0
  3
*D14
  1

  0
LINE
  5
EB
100
AcDbEntity
  8
0
370
              -2
390
0
  6
Continuous
 62
               0
100
AcDbLine
 10
541.96814664093836
 20
592.54309828034548
 30
0.0
 11
657.57346756573679
 21
702.18720658782968
 31
0.0
  0
CIRCLE
  5
EC
102
{ACAD_REACTORS
330
ED
102
}
100
AcDbEntity
  8
0
370
              -2
390
0
  6
Continuous
 62
               0
100
AcDbCircle
 10
541.96814664093836
 20
592.54309828034548
 30
0.0
 40
4.99969482421875
  0
HATCH
  5
ED
100
AcDbEntity
  8
0
370
              -2
390
0
  6
Continuous
 62
               0
100
AcDbHatch
 10
0.0
 20
0.0
 30
0.0
210
0.0
220
0.0
230
1.0
  2
SOLID
 70
               1
 71
               1
 91
        1
 92
        1
 93
        1
 72
               2
 10
541.96814664093836
 20
592.54309828034548
 40
4.99969482421875
 50
0.0
 51
360.0
 73
               0
 97
        1
330
EC
 75
               0
 76
               1
 98
        1
 10
0.0
 20
0.0
  0
MTEXT
  5
EE
100
AcDbEntity
  8
0
390
0
 62
               0
100
AcDbMText
 10
578.46097183453458
 20
670.25584282982163
 30
0.0
 40
21.828125
 41
0.0
 71
               1
 72
               1
  1
φ100
  7
MS UI Gothic
 11
0.7255662733744939
 21
0.6881522963279634
 31
0.0
 73
               1
 44
0.8762322015334064
  0
POINT
  5
EF
100
AcDbEntity
  8
Defpoints
370
               0
390
0
 62
               0
100
AcDbPoint
 10
469.41151930349224
 20
523.72786864755199
 30
0.0
  0
POINT
  5
F0
100
AcDbEntity
  8
Defpoints
370
               0
390
0
 62
               0
100
AcDbPoint
 10
541.96814664093836
 20
592.54309828034548
 30
0.0
  0
ENDBLK
  5
F1
100
AcDbEntity
  8
notes
390
0
100
AcDbBlockEnd
  0
ENDSEC
  0
SECTION
  2
ENTITIES
  0
MTEXT
  5
F2
100
AcDbEntity
  8
template
390
0
 62
               7
100
AcDbMText
 10
-967.99999999975989
 20
-1147.4176292337006
 30
0.0
 40
16.288411458333332
 41
0.0
 71
               1
 72
               1
  1
品名
  7
ＭＳ ゴシック
 73
               1
 44
0.7828267384257843
  0
MTEXT
  5
F3
100
AcDbEntity
  8
template
390
0
 62
               7
100
AcDbMText
 10
-967.99999999975989
 20
-1232.4176292337006
 30
0.0
 40
16.288411458333332
 41
0.0
 71
               1
 72
               1
  1
仕様
  7
ＭＳ ゴシック
 73
               1
 44
0.7828267384257843
  0
MTEXT
  5
F4
100
AcDbEntity
  8
template
390
0
 62
               7
100
AcDbMText
 10
-914.99999999975989
 20
-1176.0000901712006
 30
0.0
 40
24.432617187500004
 41
0.0
 71
               1
 72
               1
  1
洗面器･手洗器 -CATALANO,Sfera-
  7
ＭＳ ゴシック
 73
               1
 44
0.7828267384257843
  0
LINE
  5
F5
100
AcDbEntity
  8
template
370
               5
390
0
  6
Continuous
 62
               7
100
AcDbLine
 10
974.99999999975989
 20
-1224.0027073587007
 30
0.0
 11
-975.00000000024011
 21
-1224.0027073587007
 31
0.0
  0
LWPOLYLINE
  5
F6
100
AcDbEntity
  8
template
370
               5
390
0
  6
Continuous
 62
               7
100
AcDbPolyline
 90
        5
 70
             128
 10
975.00000000024011
 20
1405.9972926412993
 10
-974.99999999975989
 20
1405.9972926412993
 10
-974.99999999975989
 20
-1394.0027073587007
 10
975.00000000024011
 20
-1394.0027073587007
 10
975.00000000024011
 20
1405.9972926412993
  0
LINE
  5
F7
100
AcDbEntity
  8
template
370
               5
390
0
  6
Continuous
 62
               7
100
AcDbLine
 10
974.99999999975989
 20
-1139.0027073587007
 30
0.0
 11
-975.00000000024011
 21
-1139.0027073587007
 31
0.0
  0
LINE
  5
F8
100
AcDbEntity
  8
template
370
               5
390
0
  6
Continuous
 62
               7
100
AcDbLine
 10
975.00000000024011
 20
-1309.0027073587007
 30
0.0
 11
222.00000000024011
 21
-1309.0027073587007
 31
0.0
  0
MTEXT
  5
F9
100
AcDbEntity
  8
template
390
0
 62
               7
100
AcDbMText
 10
-974.99999999955617
 20
-1405.8565294155578
 30
0.0
 40
21.717881944444446
 41
0.0
 71
               1
 72
               1
  1
120308SH
  7
ＭＳ ゴシック
 73
               1
 44
0.7828267384257843
  0
MTEXT
  5
FA
100
AcDbEntity
  8
template
390
0
 62
               7
100
AcDbMText
 10
251.87140625249958
 20
-1338.9131018320081
 30
0.0
 40
24.432617187500004
 41
0.0
 71
               1
 72
               1
  1
大洋金物株式会社 ティーフォルム事業部
  7
ＭＳ ゴシック
 73
               1
 44
0.7828267384257843
  0
INSERT
  5
FB
100
AcDbEntity
  8
template
390
0
 62
               7
100
AcDbBlockReference
  2
グループ
 10
20875.920975881822
 20
-3701.0757262858397
 30
0.0
  0
MTEXT
  5
FC
100
AcDbEntity
  8
template
390
0
 62
               7
100
AcDbMText
 10
784.0000000004984
 20
-1261.0000901712006
 30
0.0
 40
24.432617187500004
 41
0.0
 71
               1
 72
               1
  1
1:10
  7
ＭＳ ゴシック
 73
               1
 44
0.7828267384257843
  0
MTEXT
  5
FD
100
AcDbEntity
  8
template
390
0
 62
               7
100
AcDbMText
 10
731.0000000004984
 20
-1232.4176292337006
 30
0.0
 40
16.288411458333332
 41
0.0
 71
               1
 72
               1
  1
縮尺
  7
ＭＳ ゴシック
 73
               1
 44
0.7828267384257843
  0
LINE
  5
FE
100
AcDbEntity
  8
template
370
               5
390
0
  6
Continuous
 62
               7
100
AcDbLine
 10
724.0000000004984
 20
-1309.0027073587007
 30
0.0
 11
724.0000000004984
 21
-1224.0027073587007
 31
0.0
  0
MTEXT
  5
FF
100
AcDbEntity
  8
template
390
0
 62
               7
100
AcDbMText
 10
480.0000000004984
 20
-1232.4176292337006
 30
0.0
 40
16.288411458333332
 41
0.0
 71
               1
 72
               1
  1
容量
  7
ＭＳ ゴシック
 73
               1
 44
0.7828267384257843
  0
MTEXT
  5
100
100
AcDbEntity
  8
template
390
0
 62
               7
100
AcDbMText
 10
533.0000000004984
 20
-1261.0000901712006
 30
0.0
 40
24.432617187500004
 41
0.0
 71
               1
 72
               1
  1
13L
  7
ＭＳ ゴシック
 73
               1
 44
0.7828267384257843
  0
LINE
  5
101
100
AcDbEntity
  8
template
370
               5
390
0
  6
Continuous
 62
               7
100
AcDbLine
 10
473.0000000004984
 20
-1309.0027073587007
 30
0.0
 11
473.0000000004984
 21
-1224.0027073587007
 31
0.0
  0
MTEXT
  5
102
100
AcDbEntity
  8
template
390
0
 62
               7
100
AcDbMText
 10
229.0000000004984
 20
-1147.4176292337006
 30
0.0
 40
16.288411458333332
 41
0.0
 71
               1
 72
               1
  1
品番
  7
ＭＳ ゴシック
 73
               1
 44
0.7828267384257843
  0
MTEXT
  5
103
100
AcDbEntity
  8
template
390
0
 62
               7
100
AcDbMText
 10
229.0000000004984
 20
-1232.4176292337006
 30
0.0
 40
16.288411458333332
 41
0.0
 71
               1
 72
               1
  1
重量
  7
ＭＳ ゴシック
 73
               1
 44
0.7828267384257843
  0
MTEXT
  5
104
100
AcDbEntity
  8
template
390
0
 62
               7
100
AcDbMText
 10
282.0000000004984
 20
-1176.0000901712006
 30
0.0
 40
24.432617187500004
 41
0.0
 71
               1
 72
               1
  1
ADF70-0901
  7
ＭＳ ゴシック
 73
               1
 44
0.7828267384257843
  0
MTEXT
  5
105
100
AcDbEntity
  8
template
390
0
 62
               7
100
AcDbMText
 10
282.0000000004984
 20
-1261.0000901712006
 30
0.0
 40
24.432617187500004
 41
0.0
 71
               1
 72
               1
  1
13kg
  7
ＭＳ ゴシック
 73
               1
 44
0.7828267384257843
  0
LINE
  5
106
100
AcDbEntity
  8
template
370
               5
390
0
  6
Continuous
 62
               7
100
AcDbLine
 10
222.0000000004984
 20
-1394.0027073587007
 30
0.0
 11
222.0000000004984
 21
-1139.0027073587007
 31
0.0
  0
MTEXT
  5
107
100
AcDbEntity
  8
template
390
0
 62
               7
100
AcDbMText
 10
-914.99999999975989
 20
-1261.0000901712001
 30
0.0
 40
24.432617187500004
 41
0.0
 71
               1
 72
               1
  1
カウンター置き/オーバーフローなし/陶器/ホワイト
  7
ＭＳ ゴシック
 73
               1
 44
1.3047112307096407
  0
MTEXT
  5
108
100
AcDbEntity
  8
notes
390
0
 62
               7
100
AcDbMText
 10
369.69399963888281
 20
988.7272880624887
 30
0.0
 40
24.253472222222221
 41
0.0
 71
               1
 72
               1
  1
カウンター切込寸法
  7
MS UI Gothic
 73
               1
 44
0.8762322015334064
  0
DIMENSION
  5
109
100
AcDbEntity
  8
notes
370
               5
390
0
  6
Continuous
 62
               7
100
AcDbDimension
  2
*D4
 10
41.248197312357661
 20
-622.1259480507274
 30
0.0
 11
41.248197312357661
 21
-547.1259480507274
 31
0.0
 71
               5
 72
               1
 41
1.0
 42
0.0
  3
Tform線あり
100
AcDbAlignedDimension
 13
-62.018355383363087
 23
-472.1259480507274
 33
0.0
 14
-123.68448500991872
 24
-622.1259480507274
 34
0.0
 50
90.0
100
AcDbRotatedDimension
1001
ACAD
1000
DSTYLE
1002
{
1070
             279
1070
               2
1070
             340
1005
2F
1070
             147
1040
5.0
1002
}
  0
DIMENSION
  5
10A
100
AcDbEntity
  8
notes
370
               5
390
0
  6
Continuous
 62
               7
100
AcDbDimension
  2
*D5
 10
-408.75186470125482
 20
-369.62933347182252
 30
0.0
 11
-583.75186470125482
 21
-364.62933347182252
 31
0.0
 70
             128
 71
               5
 72
               1
 41
1.0
 42
0.0
  3
Tform線あり
100
AcDbAlignedDimension
 13
-758.75186470125482
 23
-482.39674778386325
 33
0.0
 14
-408.75186470125482
 24
-592.78728310151428
 34
0.0
100
AcDbRotatedDimension
1001
ACAD
1000
DSTYLE
1002
{
1070
             279
1070
               2
1070
             340
1005
2F
1070
             147
1040
5.0
1002
}
  0
DIMENSION
  5
10B
100
AcDbEntity
  8
notes
370
               5
390
0
  6
Continuous
 62
               7
100
AcDbDimension
  2
*D6
 10
506.74333158263835
 20
-722.78728310151428
 30
0.0
 11
411.98164461663691
 21
-717.78728310151428
 31
0.0
 70
             128
 71
               5
 72
               1
 41
1.0
 42
0.0
  3
Tform線あり
100
AcDbAlignedDimension
 13
321.74333158263835
 23
-475.79117133357431
 33
0.0
 14
506.74333158263835
 24
-617.78728310151428
 34
0.0
100
AcDbRotatedDimension
1001
ACAD
1000
DSTYLE
1002
{
1070
             279
1070
               2
1070
             340
1005
2F
1070
             147
1040
5.0
1002
}
  0
DIMENSION
  5
10C
100
AcDbEntity
  8
notes
370
               5
390
0
  6
Continuous
 62
               7
100
AcDbDimension
  2
*D7
 10
-696.50171772207977
 20
-778.02596247596057
 30
0.0
 11
-409.00171772207977
 21
-778.02596247596057
 31
0.0
 71
               5
 72
               1
 41
1.0
 42
0.0
  3
Tform線あり
100
AcDbAlignedDimension
 13
-121.50171772207977
 23
-622.75433347182252
 33
0.0
 14
-696.50171772207977
 24
-622.75433347182252
 34
0.0
100
AcDbRotatedDimension
1001
ACAD
1000
DSTYLE
1002
{
1070
             279
1070
               2
1070
             340
1005
2F
1070
             147
1040
5.0
1002
}
  0
DIMENSION
  5
10D
100
AcDbEntity
  8
notes
370
               5
390
0
  6
Continuous
 62
               7
100
AcDbDimension
  2
*D8
 10
384.28164461663619
 20
-778.02596247596057
 30
0.0
 11
506.78164461663619
 21
-778.02596247596057
 31
0.0
 71
               5
 72
               1
 41
1.0
 42
0.0
  3
Tform線あり
100
AcDbAlignedDimension
 13
629.28164461663619
 23
-622.66613611405546
 33
0.0
 14
384.28164461663619
 24
-622.66613611405546
 34
0.0
100
AcDbRotatedDimension
1001
ACAD
1000
DSTYLE
1002
{
1070
             279
1070
               2
1070
             340
1005
2F
1070
             147
1040
5.0
1002
}
  0
DIMENSION
  5
10E
100
AcDbEntity
  8
notes
370
               5
390
0
  6
Continuous
 62
               7
100
AcDbDimension
  2
*D9
 10
-758.75186470125482
 20
843.13491478204287
 30
0.0
 11
-408.75183369444858
 21
843.13491478204287
 31
0.0
 71
               5
 72
               1
 41
1.0
 42
0.0
  3
Tform線あり
100
AcDbAlignedDimension
 13
-58.751802687642339
 23
578.13491478204287
 33
0.0
 14
-758.75186470125482
 24
578.13491478204287
 34
0.0
100
AcDbRotatedDimension
1001
ACAD
1000
DSTYLE
1002
{
1070
             279
1070
               2
1070
             340
1005
2F
1070
             147
1040
5.0
1002
}
  0
DIMENSION
  5
10F
100
AcDbEntity
  8
notes
370
               5
390
0
  6
Continuous
 62
               7
100
AcDbDimension
  2
*D10
 10
-733.74709249765147
 20
273.13491478204287
 30
0.0
 11
-408.75183369444494
 21
278.13491478204287
 31
0.0
 70
             128
 71
               5
 72
               1
 41
1.0
 42
0.0
  3
Tform線あり
100
AcDbAlignedDimension
 13
-83.756574891242053
 23
465.25581550573588
 33
0.0
 14
-733.74709249765147
 24
465.25581550573588
 34
0.0
100
AcDbRotatedDimension
1001
ACAD
1000
DSTYLE
1002
{
1070
             279
1070
               2
1070
             340
1005
2F
1070
             147
1040
5.0
1002
}
  0
DIMENSION
  5
110
100
AcDbEntity
  8
notes
370
               5
390
0
  6
Continuous
 62
               7
100
AcDbDimension
  2
*D11
 10
41.248197312357661
 20
743.13491478204287
 30
0.0
 11
41.248197312357661
 21
558.13491478204014
 31
0.0
 71
               5
 72
               1
 41
1.0
 42
0.0
  3
Tform線あり
100
AcDbAlignedDimension
 13
-223.75180268764234
 23
373.13491478203787
 33
0.0
 14
-223.75180268764234
 24
743.13491478204287
 34
0.0
 50
90.0
100
AcDbRotatedDimension
1001
ACAD
1000
DSTYLE
1002
{
1070
             279
1070
               2
1070
             340
1005
2F
1070
             147
1040
5.0
1002
}
  0
DIMENSION
  5
111
100
AcDbEntity
  8
notes
370
               5
390
0
  6
Continuous
 62
               7
100
AcDbDimension
  2
*D12
 10
-858.75186470125482
 20
718.13491478204287
 30
0.0
 11
-858.75186470125482
 21
558.13491478204105
 31
0.0
 71
               5
 72
               1
 41
1.0
 42
0.0
  3
Tform線あり
100
AcDbAlignedDimension
 13
-666.62274280628844
 23
398.13491478203832
 33
0.0
 14
-666.62274280628844
 24
718.13491478204287
 34
0.0
 50
90.0
100
AcDbRotatedDimension
1001
ACAD
1000
DSTYLE
1002
{
1070
             279
1070
               2
1070
             340
1005
2F
1070
             147
1040
5.0
1002
}
  0
DIMENSION
  5
112
100
AcDbEntity
  8
notes
370
               5
390
0
  6
Continuous
 62
               7
100
AcDbDimension
  2
*D13
 10
512.99824884775808
 20
-472.78728310151428
 30
0.0
 11
507.99824884775808
 21
-458.62933347182252
 31
0.0
 70
             128
 71
               5
 72
               1
 41
1.0
 42
0.0
  3
Tform線あり
100
AcDbAlignedDimension
 13
537.03119847744892
 23
-587.78728310151428
 33
0.0
 14
537.03119847744892
 24
-472.78728310151428
 34
0.0
 50
90.0
100
AcDbRotatedDimension
1001
ACAD
1000
DSTYLE
1002
{
1070
             279
1070
               2
1070
             340
1005
2F
1070
               3
1000
<>（深さ）
1070
             174
1070
               0
1070
             147
1040
5.0
1002
}
  0
DIMENSION
  5
113
100
AcDbEntity
  8
notes
370
               5
390
0
  6
Continuous
 62
               7
100
AcDbDimension
  2
*D14
 10
469.41151930349224
 20
523.72786864755199
 30
0.0
 11
663.48164461663691
 21
647.56511806679555
 31
0.0
 70
               3
 71
               5
 72
               1
 41
1.0
 42
0.0
  3
Tform線あり
100
AcDbDiametricDimension
 15
541.96814664093836
 25
592.54309828034548
 35
0.0
 40
79.956166796294468
1001
ACAD
1000
DSTYLE
1002
{
1070
             172
1070
               0
1070
             289
1070
               0
1070
             342
1005
4C
1070
             340
1005
2F
1070
               3
1000

1070
             174
1070
               0
1070
             147
1040
5.0
1002
}
  0
CIRCLE
  5
114
100
AcDbEntity
  8
ADF70-0901
370
              15
390
0
  6
Continuous
 62
               7
100
AcDbCircle
 10
-408.75183369444858
 20
558.13548346394873
 30
0.0
 40
37.5
  0
CIRCLE
  5
115
100
AcDbEntity
  8
ADF70-0901
370
              15
390
0
  6
Continuous
 62
               7
100
AcDbCircle
 10
-408.75183369444858
 20
558.13548346394873
 30
0.0
 40
23.0
  0
LINE
  5
116
100
AcDbEntity
  8
ADF70-0901
370
              15
390
0
  6
Continuous
 62
               7
100
AcDbLine
 10
-573.75180268764234
 20
718.13491478204287
 30
0.0
 11
-243.75180268764234
 21
718.13491478204287
 31
0.0
  0
LINE
  5
117
100
AcDbEntity
  8
ADF70-0901
370
              15
390
0
  6
Continuous
 62
               7
100
AcDbLine
 10
-243.75180268764234
 20
398.13491478203832
 30
0.0
 11
-573.75180268764234
 21
398.13491478203832
 31
0.0
  0
LINE
  5
118
100
AcDbEntity
  8
ADF70-0901
370
              15
390
0
  6
Continuous
 62
               7
100
AcDbLine
 10
-243.75180268764234
 20
373.13491478203787
 30
0.0
 11
-573.75180268764234
 21
373.13491478203787
 31
0.0
  0
LINE
  5
119
100
AcDbEntity
  8
ADF70-0901
370
              15
390
0
  6
Continuous
 62
               7
100
AcDbLine
 10
-573.75180268764234
 20
743.13491478204287
 30
0.0
 11
-243.75180268764234
 21
743.13491478204287
 31
0.0
  0
ARC
  5
11A
100
AcDbEntity
  8
ADF70-0901
370
              15
390
0
  6
Continuous
 62
               7
100
AcDbCircle
 10
-243.75180268764234
 20
558.13491478204287
 30
0.0
 40
185.000000000005
100
AcDbArc
 50
270.0
 51
90.0
  0
ARC
  5
11B
100
AcDbEntity
  8
ADF70-0901
370
              15
390
0
  6
Continuous
 62
               7
100
AcDbCircle
 10
-243.75180268764234
 20
558.13491478204287
 30
0.0
 40
160.00000000000455
100
AcDbArc
 50
270.0
 51
90.0
  0
ARC
  5
11C
100
AcDbEntity
  8
ADF70-0901
370
              15
390
0
  6
Continuous
 62
               7
100
AcDbCircle
 10
-573.75186470125482
 20
558.13491478204287
 30
0.0
 40
185.0
100
AcDbArc
 50
90.0
 51
270.0
  0
ARC
  5
11D
100
AcDbEntity
  8
ADF70-0901
370
              15
390
0
  6
Continuous
 62
               7
100
AcDbCircle
 10
-573.75186470125482
 20
558.13491478204287
 30
0.0
 40
160.0
100
AcDbArc
 50
90.0
 51
270.0
  0
LINE
  5
11E
100
AcDbEntity
  8
ADF70-0901
370
              15
390
0
  6
Continuous
 62
               7
100
AcDbLine
 10
506.74333158263835
 20
-472.78728310151428
 30
0.0
 11
688.74276290073249
 21
-472.78728310151428
 31
0.0
  0
LINE
  5
11F
100
AcDbEntity
  8
ADF70-0901
370
              15
390
0
  6
Continuous
 62
               7
100
AcDbLine
 10
627.68618793523274
 20
-622.78728310151428
 30
0.0
 11
506.74333158263835
 21
-622.78728310151428
 31
0.0
  0
LINE
  5
120
100
AcDbEntity
  8
ADF70-0901
370
              15
390
0
  6
STYLE_23
 62
               7
100
AcDbLine
 10
543.60999824930332
 20
-592.78728310151428
 30
0.0
 11
470.18381525712903
 21
-592.78728310151428
 31
0.0
  0
LINE
  5
121
100
AcDbEntity
  8
ADF70-0901
370
              15
390
0
  6
STYLE_23
 62
               7
100
AcDbLine
 10
529.74333158263835
 20
-605.78728310151428
 30
0.0
 11
484.0
 21
-605.78728310151428
 31
0.0
  0
LINE
  5
122
100
AcDbEntity
  8
ADF70-0901
370
              15
390
0
  6
STYLE_23
 62
               7
100
AcDbLine
 10
529.74333158263471
 20
-617.78728310151428
 30
0.0
 11
483.75224414669719
 21
-617.78728310151428
 31
0.0
  0
LINE
  5
123
100
AcDbEntity
  8
ADF70-0901
370
              15
390
0
  6
Continuous
 62
               7
100
AcDbLine
 10
-756.36174538375053
 20
-472.78728310151428
 30
0.0
 11
-61.141984018759103
 21
-472.78728310151428
 31
0.0
  0
LINE
  5
124
100
AcDbEntity
  8
ADF70-0901
370
              15
390
0
  6
Continuous
 62
               7
100
AcDbLine
 10
-122.19855898425521
 20
-622.78728310151428
 30
0.0
 11
-408.75186470125482
 21
-622.78728310151428
 31
0.0
  0
LINE
  5
125
100
AcDbEntity
  8
ADF70-0901
370
              15
390
0
  6
STYLE_23
 62
               7
100
AcDbLine
 10
-385.75186470125482
 20
-605.78728310151428
 30
0.0
 11
-371.88519803458621
 21
-592.78728310151428
 31
0.0
  0
LINE
  5
126
100
AcDbEntity
  8
ADF70-0901
370
              15
390
0
  6
STYLE_23
 62
               7
100
AcDbLine
 10
-385.75186470125482
 20
-605.78728310151428
 30
0.0
 11
-385.75186470125482
 21
-617.78728310151428
 31
0.0
  0
LWPOLYLINE
  5
127
100
AcDbEntity
  8
ADF70-0901
370
              15
390
0
  6
STYLE_23
 62
               7
100
AcDbPolyline
 90
        7
 70
             128
 10
-80.161745383753441
 20
-472.78728310151428
 42
0.2094835047171106
 10
-82.367402663228859
 20
-473.75379448204967
 42
0.209483504716402
 10
-83.151864701256272
 20
-476.03056579118675
 42
-0.0355070067562211
 10
-84.924927261032281
 20
-493.67634759384646
 42
-0.0253306298636829
 10
-87.798420325590996
 20
-510.03364374282864
 42
-0.307548986066509
 10
-166.09772954863365
 20
-585.5468650242251
 10
-371.88519803458621
 20
-592.78728310151428
  0
ARC
  5
128
100
AcDbEntity
  8
ADF70-0901
370
              15
390
0
  6
Continuous
 62
               7
100
AcDbCircle
 10
-61.141984018759103
 20
-475.78728310151428
 30
0.0
 40
2.9999999999996447
100
AcDbArc
 50
355.34853513474803
 51
90.0
  0
ARC
  5
129
100
AcDbEntity
  8
ADF70-0901
370
              15
390
0
  6
Continuous
 62
               7
100
AcDbCircle
 10
-307.36903378324496
 20
-455.75370832540511
 30
0.0
 40
250.0406933159671
100
AcDbArc
 50
318.29091094650914
 51
355.34853513474809
  0
ARC
  5
12A
100
AcDbEntity
  8
ADF70-0901
370
              15
390
0
  6
Continuous
 62
               7
100
AcDbCircle
 10
-122.19855898425521
 20
-620.78728310151428
 30
0.0
 40
2.0
100
AcDbArc
 50
270.0
 51
318.29091094653813
  0
LINE
  5
12B
100
AcDbEntity
  8
ADF70-0901
370
              15
390
0
  6
Continuous
 62
               7
100
AcDbLine
 10
506.74333158263835
 20
-472.78728310151428
 30
0.0
 11
324.74390026454057
 21
-472.78728310151428
 31
0.0
  0
LINE
  5
12C
100
AcDbEntity
  8
ADF70-0901
370
              15
390
0
  6
Continuous
 62
               7
100
AcDbLine
 10
385.80047523004032
 20
-622.78728310151428
 30
0.0
 11
506.74333158263835
 21
-622.78728310151428
 31
0.0
  0
LINE
  5
12D
100
AcDbEntity
  8
ADF70-0901
370
              15
390
0
  6
Continuous
 62
               7
100
AcDbLine
 10
-695.30517041825078
 20
-622.78728310151428
 30
0.0
 11
-408.75186470125482
 21
-622.78728310151428
 31
0.0
  0
LINE
  5
12E
100
AcDbEntity
  8
ADF70-0901
370
              15
390
0
  6
STYLE_23
 62
               7
100
AcDbLine
 10
-445.61853136791979
 20
-592.78728310151428
 30
0.0
 11
-371.88519803458985
 21
-592.78728310151428
 31
0.0
  0
LINE
  5
12F
100
AcDbEntity
  8
ADF70-0901
370
              15
390
0
  6
STYLE_23
 62
               7
100
AcDbLine
 10
-431.75186470125482
 20
-605.78728310151428
 30
0.0
 11
-385.75186470125482
 21
-605.78728310151428
 31
0.0
  0
ARC
  5
130
100
AcDbEntity
  8
ADF70-0901
370
              15
390
0
  6
Continuous
 62
               7
100
AcDbCircle
 10
-695.30517041825078
 20
-620.78728310151428
 30
0.0
 40
2.0000000000004983
100
AcDbArc
 50
221.70908905347159
 51
270.0
  0
LINE
  5
131
100
AcDbEntity
  8
ADF70-0901
370
              15
390
0
  6
STYLE_23
 62
               7
100
AcDbLine
 10
-431.75186470125482
 20
-617.78728310151428
 30
0.0
 11
-385.75186470125482
 21
-617.78728310151428
 31
0.0
  0
ARC
  5
132
100
AcDbEntity
  8
ADF70-0901
370
              15
390
0
  6
Continuous
 62
               7
100
AcDbCircle
 10
-510.13469561917009
 20
-455.753708325361
 30
0.0
 40
250.04069331606615
100
AcDbArc
 50
184.65146486525043
 51
221.70908905348372
  0
ARC
  5
133
100
AcDbEntity
  8
ADF70-0901
370
              15
390
0
  6
Continuous
 62
               7
100
AcDbCircle
 10
-756.36174538375053
 20
-475.78728310151291
 30
0.0
 40
2.9999999999986358
100
AcDbArc
 50
90.0
 51
184.651464865278
  0
LWPOLYLINE
  5
134
100
AcDbEntity
  8
ADF70-0901
370
              15
390
0
  6
STYLE_23
 62
               7
100
AcDbPolyline
 90
        7
 70
             128
 10
-445.61853136791979
 20
-592.78728310151428
 10
-651.40599985387598
 20
-585.5468650242251
 42
-0.3075489860657334
 10
-729.70530907690045
 20
-510.03364374287412
 42
-0.0253306298638694
 10
-732.57880214147372
 20
-493.67634759384646
 42
-0.0355070067565088
 10
-734.35186470125336
 20
-476.03056579116401
 42
0.2094835047167445
 10
-735.13632673928441
 20
-473.75379448203967
 42
0.2094835047164601
 10
-737.34198401875619
 20
-472.78728310151428
 42
0.2094835047164601
  0
LINE
  5
135
100
AcDbEntity
  8
ADF70-0901
370
              15
390
0
  6
STYLE_23
 62
               7
100
AcDbLine
 10
-431.75186470125482
 20
-617.78728310151428
 30
0.0
 11
-431.75186470125482
 21
-605.78728310151428
 31
0.0
  0
LINE
  5
136
100
AcDbEntity
  8
ADF70-0901
370
              15
390
0
  6
STYLE_23
 62
               7
100
AcDbLine
 10
-431.75186470125482
 20
-605.78728310151428
 30
0.0
 11
-445.61853136791979
 21
-592.78728310151428
 31
0.0
  0
LWPOLYLINE
  5
137
100
AcDbEntity
  8
ADF70-0901
370
              15
390
0
  6
STYLE_23
 62
               7
100
AcDbPolyline
 90
        7
 70
             128
 10
669.73191409980063
 20
-472.78728310151791
 42
0.2094835047172088
 10
667.52625682032158
 20
-473.75379448205513
 42
0.2094835047161548
 10
666.7417947822978
 20
-476.03056579119448
 42
-0.0355070067566597
 10
664.96873222249269
 20
-493.676347594052
 42
-0.0253306298628208
 10
662.09523915792306
 20
-510.03364374299281
 42
-0.3075489860651033
 10
583.79592993491678
 20
-585.54686502422783
 10
543.6189108133658
 20
-592.78728310151791
  0
ARC
  5
138
100
AcDbEntity
  8
ADF70-0901
370
              15
390
0
  6
Continuous
 62
               7
100
AcDbCircle
 10
627.69510049929522
 20
-620.78728310151791
 30
0.0
 40
2.0
100
AcDbArc
 50
270.0
 51
318.29091094650897
  0
ARC
  5
139
100
AcDbEntity
  8
ADF70-0901
370
              15
390
0
  6
Continuous
 62
               7
100
AcDbCircle
 10
442.52462570030548
 20
-455.75370832540875
 30
0.0
 40
250.0406933159673
100
AcDbArc
 50
318.29091094647401
 51
355.34853513466993
  0
ARC
  5
13A
100
AcDbEntity
  8
ADF70-0901
370
              15
390
0
  6
Continuous
 62
               7
100
AcDbCircle
 10
688.75167546479497
 20
-475.78728310151791
 30
0.0
 40
2.9999999999999765
100
AcDbArc
 50
355.3485351346701
 51
90.0
  0
LINE
  5
13B
100
AcDbEntity
  8
ADF70-0901
370
              15
390
0
  6
STYLE_23
 62
               7
100
AcDbLine
 10
529.75224414669719
 20
-605.78728310151791
 30
0.0
 11
529.75224414669719
 21
-617.78728310151791
 31
0.0
  0
LINE
  5
13C
100
AcDbEntity
  8
ADF70-0901
370
              15
390
0
  6
STYLE_23
 62
               7
100
AcDbLine
 10
529.75224414669719
 20
-605.78728310151791
 30
0.0
 11
543.6189108133658
 21
-592.78728310151791
 31
0.0
  0
LWPOLYLINE
  5
13D
100
AcDbEntity
  8
ADF70-0901
370
              15
390
0
  6
STYLE_23
 62
               7
100
AcDbPolyline
 90
        6
 70
             128
 10
469.88557748003223
 20
-592.78728310151791
 10
429.7085583584776
 20
-585.54686502422783
 42
-0.3075489860643947
 10
351.40924913541676
 20
-510.03364374272041
 42
-0.0253306298634094
 10
348.53575607091261
 20
-493.67634759404018
 42
-0.0361539628147257
 10
346.7536897032187
 20
-475.70756452539945
 42
0.4064508849372241
 10
343.75474906549061
 20
-472.78728310151428
 42
0.4064508849372241
  0
LINE
  5
13E
100
AcDbEntity
  8
ADF70-0901
370
              15
390
0
  6
STYLE_23
 62
               7
100
AcDbLine
 10
483.75224414669719
 20
-605.78728310151791
 30
0.0
 11
469.88557748003223
 21
-592.78728310151791
 31
0.0
  0
LINE
  5
13F
100
AcDbEntity
  8
ADF70-0901
370
              15
390
0
  6
STYLE_23
 62
               7
100
AcDbLine
 10
483.75224414669719
 20
-617.78728310151791
 30
0.0
 11
483.75224414669719
 21
-605.78728310151791
 31
0.0
  0
ARC
  5
140
100
AcDbEntity
  8
ADF70-0901
370
              15
390
0
  6
Continuous
 62
               7
100
AcDbCircle
 10
385.80938779409553
 20
-620.78728310153474
 30
0.0
 40
1.9999999999826685
100
AcDbArc
 50
221.70908905336839
 51
270.00000000020844
  0
ARC
  5
141
100
AcDbEntity
  8
ADF70-0901
370
              15
390
0
  6
Continuous
 62
               7
100
AcDbCircle
 10
570.97986259310346
 20
-455.75370832540375
 30
0.0
 40
250.0406933159795
100
AcDbArc
 50
184.65146486524276
 51
221.70908905352783
  0
ARC
  5
142
100
AcDbEntity
  8
ADF70-0901
370
              15
390
0
  6
Continuous
 62
               7
100
AcDbCircle
 10
324.75281282858487
 20
-475.78728310150018
 30
0.0
 40
2.9999999999822649
100
AcDbArc
 50
90.0
 51
184.65146486555724
  0
CIRCLE
  5
143
100
AcDbEntity
  8
ADF70-0901
370
              15
390
0
  6
Continuous
 62
               7
100
AcDbCircle
 10
505.68983297221712
 20
558.13548346394873
 30
0.0
 40
50.0
  0
CIRCLE
  5
144
100
AcDbEntity
  8
ADF70-0901
370
               5
390
0
  6
STYLE_23
 62
               7
100
AcDbCircle
 10
505.68983297221712
 20
558.13548346394873
 30
0.0
 40
23.0
  0
LINE
  5
145
100
AcDbEntity
  8
ADF70-0901
370
               5
390
0
  6
STYLE_23
 62
               7
100
AcDbLine
 10
670.68986397902336
 20
373.13491478203787
 30
0.0
 11
340.68986397902336
 21
373.13491478203787
 31
0.0
  0
LINE
  5
146
100
AcDbEntity
  8
ADF70-0901
370
               5
390
0
  6
STYLE_23
 62
               7
100
AcDbLine
 10
340.68986397902336
 20
743.13491478204287
 30
0.0
 11
670.68986397902336
 21
743.13491478204287
 31
0.0
  0
ARC
  5
147
100
AcDbEntity
  8
ADF70-0901
370
               5
390
0
  6
STYLE_23
 62
               7
100
AcDbCircle
 10
670.68986397902336
 20
558.13491478204287
 30
0.0
 40
185.000000000005
100
AcDbArc
 50
270.0
 51
90.0
  0
ARC
  5
148
100
AcDbEntity
  8
ADF70-0901
370
               5
390
0
  6
STYLE_23
 62
               7
100
AcDbCircle
 10
340.68980196541088
 20
558.13491478204287
 30
0.0
 40
185.0
100
AcDbArc
 50
90.0
 51
270.0
  0
ENDSEC
  0
SECTION
  2
OBJECTS
  0
DICTIONARY
  5
19
100
AcDbDictionary
280
               0
281
               1
  3
ACAD_GROUP
350
1A
  3
ACAD_MLINESTYLE
350
1B
  3
ACAD_LAYOUT
350
1E
  3
ACAD_PLOTSETTINGS
350
22
  3
ACAD_PLOTSTYLENAME
350
1F
  0
DICTIONARY
  5
1A
102
{ACAD_REACTORS
330
19
102
}
100
AcDbDictionary
280
               0
281
               1
  0
DICTIONARY
  5
1B
102
{ACAD_REACTORS
330
19
102
}
100
AcDbDictionary
280
               0
281
               1
  3
Standard
350
1C
  0
MLINESTYLE
  5
1C
102
{ACAD_REACTORS
330
1B
102
}
100
AcDbMlineStyle
  2
Standard
 70
               0
  3

 62
               0
 51
90.0
 52
90.0
 71
               2
 49
0.5
 62
             256
  6
ByLayer
 49
-0.5
 62
             256
  6
ByLayer
  0
ACDBDICTIONARYWDFLT
  5
1F
102
{ACAD_REACTORS
330
19
102
}
100
AcDbDictionary
281
               1
  3
Normal
350
1D
100
AcDbDictionaryWithDefault
340
1D
  0
ACDBPLACEHOLDER
  5
1D
102
{ACAD_REACTORS
330
1F
102
}
  0
LAYOUT
  5
20
102
{ACAD_REACTORS
330
1E
102
}
100
AcDbPlotSettings
  1

  2

  4

  6

 40
0.0
 41
0.0
 42
0.0
 43
0.0
 44
0.0
 45
0.0
 46
0.0
 47
0.0
 48
0.0
 49
0.0
140
0.0
141
0.0
142
1.0
143
1.0
 70
            1024
 72
               0
 73
               0
 74
               0
  7

 75
               0
147
1.0
148
0.0
149
0.0
100
AcDbLayout
  1
Model
 70
               0
 71
               0
 10
0.0
 20
0.0
 11
0.0
 21
0.0
 12
0.0
 22
0.0
 32
0.0
 14
0.0
 24
0.0
 34
0.0
 15
0.0
 25
0.0
 35
0.0
146
0.0
 13
0.0
 23
0.0
 33
0.0
 16
0.0
 26
0.0
 36
0.0
 17
0.0
 27
0.0
 37
0.0
 76
               0
330
A
331
0
345
0
346
0
  0
LAYOUT
  5
21
102
{ACAD_REACTORS
330
1E
102
}
100
AcDbPlotSettings
  1

  2

  4

  6

 40
0.0
 41
0.0
 42
0.0
 43
0.0
 44
0.0
 45
0.0
 46
0.0
 47
0.0
 48
0.0
 49
0.0
140
0.0
141
0.0
142
1.0
143
1.0
 70
               0
 72
               0
 73
               0
 74
               0
  7

 75
               0
147
1.0
148
0.0
149
0.0
100
AcDbLayout
  1
Layout1
 70
               0
 71
               0
 10
0.0
 20
0.0
 11
0.0
 21
0.0
 12
0.0
 22
0.0
 32
0.0
 14
0.0
 24
0.0
 34
0.0
 15
0.0
 25
0.0
 35
0.0
146
0.0
 13
0.0
 23
0.0
 33
0.0
 16
0.0
 26
0.0
 36
0.0
 17
0.0
 27
0.0
 37
0.0
 76
               0
330
B
331
0
345
0
346
0
  0
DICTIONARY
  5
1E
102
{ACAD_REACTORS
330
19
102
}
100
AcDbDictionary
280
               0
281
               1
  3
Layout1
350
21
  3
Model
350
20
  0
DICTIONARY
  5
22
102
{ACAD_REACTORS
330
19
102
}
100
AcDbDictionary
280
               0
281
               1
  0
ENDSEC
  0
EOF
