  0
SECTION
  2
HEADER
  9
$ACADVER
  1
AC1015
  9
$ACADMAINTVER
 70
               6
  9
$DWGCODEPAGE
  3
ANSI_932
  9
$INSBASE
 10
0.0
 20
0.0
 30
0.0
  9
$EXTMIN
 10
-975.00000000024011
 20
-1431.5255224711132
 30
-14.834305555555556
  9
$EXTMAX
 10
975.00000000024011
 20
1405.9972926412993
 30
14.834305555555556
  9
$LIMMIN
 10
0.0
 20
0.0
  9
$LIMMAX
 10
0.0
 20
0.0
  9
$ORTHOMODE
 70
               0
  9
$REGENMODE
 70
               1
  9
$FILLMODE
 70
               1
  9
$QTEXTMODE
 70
               0
  9
$MIRRTEXT
 70
               1
  9
$LTSCALE
 40
5.0800000000000001
  9
$ATTMODE
 70
               1
  9
$TEXTSIZE
 40
0.2
  9
$TRACEWID
 40
1.0
  9
$TEXTSTYLE
  7
Standard
  9
$CLAYER
  8
ADF70-0902
  9
$CELTYPE
  6
Continuous
  9
$CECOLOR
 62
             256
  9
$CELTSCALE
 40
1.0
  9
$DISPSILH
 70
               0
  9
$DIMSCALE
 40
1.0
  9
$DIMASZ
 40
22.4482421875
  9
$DIMEXO
 40
15.875
  9
$DIMDLI
 40
10.16
  9
$DIMRND
 40
0.0
  9
$DIMDLE
 40
1.5874999999999999
  9
$DIMEXE
 40
31.75
  9
$DIMTP
 40
0.0
  9
$DIMTM
 40
0.0
  9
$DIMTXT
 40
24.432617187500004
  9
$DIMCEN
 40
0.0
  9
$DIMTSZ
 40
0.0
  9
$DIMTOL
 70
               0
  9
$DIMLIM
 70
               0
  9
$DIMTIH
 70
               0
  9
$DIMTOH
 70
               0
  9
$DIMSE1
 70
               0
  9
$DIMSE2
 70
               0
  9
$DIMTAD
 70
               1
  9
$DIMZIN
 70
              11
  9
$DIMBLK
  1
VW_SLASH
  9
$DIMASO
 70
               1
  9
$DIMSHO
 70
               1
  9
$DIMPOST
  1
<>
  9
$DIMAPOST
  1
[]
  9
$DIMALT
 70
               0
  9
$DIMALTD
 70
               1
  9
$DIMALTF
 40
1.0
  9
$DIMLFAC
 40
1.0
  9
$DIMTOFL
 70
               1
  9
$DIMTVP
 40
0.0
  9
$DIMTIX
 70
               1
  9
$DIMSOXD
 70
               0
  9
$DIMSAH
 70
               0
  9
$DIMBLK1
  1

  9
$DIMBLK2
  1

  9
$DIMSTYLE
  2
Arch
  9
$DIMCLRD
 70
               0
  9
$DIMCLRE
 70
               0
  9
$DIMCLRT
 70
               0
  9
$DIMTFAC
 40
1.0
  9
$DIMGAP
 40
1.5874999999999999
  9
$DIMJUST
 70
               0
  9
$DIMSD1
 70
               0
  9
$DIMSD2
 70
               0
  9
$DIMTOLJ
 70
               1
  9
$DIMTZIN
 70
              11
  9
$DIMALTZ
 70
              11
  9
$DIMALTTZ
 70
              11
  9
$DIMUPT
 70
               0
  9
$DIMDEC
 70
               1
  9
$DIMTDEC
 70
               1
  9
$DIMALTU
 70
               2
  9
$DIMALTTD
 70
               2
  9
$DIMTXSTY
  7
ＭＳ ゴシック
  9
$DIMAUNIT
 70
               0
  9
$DIMADEC
 70
               2
  9
$DIMALTRND
 40
0.0
  9
$DIMAZIN
 70
               0
  9
$DIMDSEP
 70
              46
  9
$DIMATFIT
 70
               0
  9
$DIMFRAC
 70
               2
  9
$DIMLDRBLK
  1

  9
$DIMLUNIT
 70
               2
  9
$DIMLWD
 70
              -2
  9
$DIMLWE
 70
              -2
  9
$DIMTMOVE
 70
               0
  9
$LUNITS
 70
               2
  9
$LUPREC
 70
               4
  9
$SKETCHINC
 40
0.1
  9
$FILLETRAD
 40
0.0
  9
$AUNITS
 70
               0
  9
$AUPREC
 70
               0
  9
$MENU
  1
acad
  9
$ELEVATION
 40
0.0
  9
$PELEVATION
 40
0.0
  9
$THICKNESS
 40
0.0
  9
$LIMCHECK
 70
               0
  9
$CHAMFERA
 40
0.0
  9
$CHAMFERB
 40
0.0
  9
$CHAMFERC
 40
0.0
  9
$CHAMFERD
 40
0.0
  9
$SKPOLY
 70
               0
  9
$TDCREATE
 40
2456046.425995370
  9
$TDUCREATE
 40
0.000000000
  9
$TDUPDATE
 40
2456046.425995370
  9
$TDUUPDATE
 40
0.000000000
  9
$TDINDWG
 40
0.0000000000
  9
$TDUSRTIMER
 40
0.0000000000
  9
$USRTIMER
 70
               1
  9
$ANGBASE
 50
0.0
  9
$ANGDIR
 70
               0
  9
$PDMODE
 70
               1
  9
$PDSIZE
 40
-2.0
  9
$PLINEWID
 40
0.0
  9
$SPLFRAME
 70
               0
  9
$SPLINETYPE
 70
               6
  9
$SPLINESEGS
 70
               8
  9
$HANDSEED
  5
1A1
  9
$SURFTAB1
 70
               6
  9
$SURFTAB2
 70
               6
  9
$SURFTYPE
 70
               6
  9
$SURFU
 70
               6
  9
$SURFV
 70
               6
  9
$UCSBASE
  2

  9
$UCSNAME
  2

  9
$UCSORG
 10
0.0
 20
0.0
 30
0.0
  9
$UCSXDIR
 10
1.0
 20
0.0
 30
0.0
  9
$UCSYDIR
 10
0.0
 20
1.0
 30
0.0
  9
$UCSORTHOREF
  2

  9
$UCSORTHOVIEW
 70
               0
  9
$UCSORGTOP
 10
0.0
 20
0.0
 30
0.0
  9
$UCSORGBOTTOM
 10
0.0
 20
0.0
 30
0.0
  9
$UCSORGLEFT
 10
0.0
 20
0.0
 30
0.0
  9
$UCSORGRIGHT
 10
0.0
 20
0.0
 30
0.0
  9
$UCSORGFRONT
 10
0.0
 20
0.0
 30
0.0
  9
$UCSORGBACK
 10
0.0
 20
0.0
 30
0.0
  9
$PUCSBASE
  2

  9
$PUCSNAME
  2

  9
$PUCSORG
 10
0.0
 20
0.0
 30
0.0
  9
$PUCSXDIR
 10
1.0
 20
0.0
 30
0.0
  9
$PUCSYDIR
 10
0.0
 20
1.0
 30
0.0
  9
$PUCSORTHOREF
  2

  9
$PUCSORTHOVIEW
 70
               0
  9
$PUCSORGTOP
 10
0.0
 20
0.0
 30
0.0
  9
$PUCSORGBOTTOM
 10
0.0
 20
0.0
 30
0.0
  9
$PUCSORGLEFT
 10
0.0
 20
0.0
 30
0.0
  9
$PUCSORGRIGHT
 10
0.0
 20
0.0
 30
0.0
  9
$PUCSORGFRONT
 10
0.0
 20
0.0
 30
0.0
  9
$PUCSORGBACK
 10
0.0
 20
0.0
 30
0.0
  9
$USERI1
 70
               0
  9
$USERI2
 70
               0
  9
$USERI3
 70
               0
  9
$USERI4
 70
               0
  9
$USERI5
 70
               0
  9
$USERR1
 40
0.0
  9
$USERR2
 40
0.0
  9
$USERR3
 40
0.0
  9
$USERR4
 40
0.0
  9
$USERR5
 40
0.0
  9
$WORLDVIEW
 70
               1
  9
$SHADEDGE
 70
               3
  9
$SHADEDIF
 70
              70
  9
$TILEMODE
 70
               1
  9
$MAXACTVP
 70
              64
  9
$PINSBASE
 10
0.0
 20
0.0
 30
0.0
  9
$PLIMCHECK
 70
               0
  9
$PEXTMIN
 10
1.0000000000000000E+20
 20
1.0000000000000000E+20
 30
1.0000000000000000E+20
  9
$PEXTMAX
 10
-1.0000000000000000E+20
 20
-1.0000000000000000E+20
 30
-1.0000000000000000E+20
  9
$PLIMMIN
 10
0.0
 20
0.0
  9
$PLIMMAX
 10
12.0
 20
9.0
  9
$UNITMODE
 70
               0
  9
$VISRETAIN
 70
               0
  9
$PLINEGEN
 70
               1
  9
$PSLTSCALE
 70
               0
  9
$TREEDEPTH
 70
            3020
  9
$CMLSTYLE
  2
Standard
  9
$CMLJUST
 70
               0
  9
$CMLSCALE
 40
1.0
  9
$PROXYGRAPHICS
 70
               0
  9
$MEASUREMENT
 70
               1
  9
$CELWEIGHT
370
               0
  9
$ENDCAPS
280
               0
  9
$JOINSTYLE
280
               0
  9
$LWDISPLAY
290
               1
  9
$INSUNITS
 70
               4
  9
$HYPERLINKBASE
  1

  9
$STYLESHEET
  1

  9
$XEDIT
290
               1
  9
$CEPSNTYPE
380
               0
  9
$PSTYLEMODE
290
               1
  9
$FINGERPRINTGUID
  2

  9
$VERSIONGUID
  2

  9
$EXTNAMES
290
               1
  9
$PSVPSCALE
 40
0.0
  0
ENDSEC
  0
SECTION
  2
CLASSES
  0
CLASS
  1
LWPOLYLINE
  2
AcDbPolyline
  3
AutoCAD 2000
 90
        0
280
               0
281
               1
  0
CLASS
  1
IMAGE
  2
AcDbRasterImage
  3
ISM
 90
      127
280
               0
281
               1
  0
CLASS
  1
OLE2FRAME
  2
AcDbOle2Frame
  3
AutoCAD 2000
 90
        0
280
               0
281
               1
  0
CLASS
  1
HATCH
  2
AcDbHatch
  3
AutoCAD 2000
 90
        0
280
               0
281
               1
  0
CLASS
  1
DICTIONARYVAR
  2
AcDbDictionaryVar
  3
AutoCAD 2000
 90
        0
280
               0
281
               0
  0
CLASS
  1
RASTERVARIABLES
  2
AcDbRasterVariables
  3
ISM
 90
        0
280
               0
281
               0
  0
CLASS
  1
IMAGEDEF
  2
AcDbRasterImageDef
  3
ISM
 90
        0
280
               0
281
               0
  0
CLASS
  1
IMAGEDEF_REACTOR
  2
AcDbRasterImageDefReactor
  3
ISM
 90
        1
280
               0
281
               0
  0
CLASS
  1
IDBUFFER
  2
AcDbIdBuffer
  3
AutoCAD 2000
 90
        0
280
               0
281
               0
  0
CLASS
  1
SPATIAL_FILTER
  2
AcDbSpatialFilter
  3
AutoCAD 2000
 90
        0
280
               0
281
               0
  0
CLASS
  1
XRECORD
  2
AcDbXrecord
  3
AutoCAD 2000
 90
        0
280
               0
281
               0
  0
CLASS
  1
SORTENTSTABLE
  2
AcDbSortentsTable
  3
AutoCAD 2000
 90
        0
280
               0
281
               0
  0
CLASS
  1
LAYER_INDEX
  2
AcDbLayerIndex
  3
AutoCAD 2000
 90
        0
280
               0
281
               0
  0
CLASS
  1
SPATIAL_INDEX
  2
AcDbSpatialIndex
  3
AutoCAD 2000
 90
        0
280
               0
281
               0
  0
CLASS
  1
OBJECT_PTR
  2
CAseDLPNTableRecord
  3
"ASE-LPNTableRecord"
 90
        1
280
               0
281
               0
  0
CLASS
  1
LAYOUT
  2
AcDbLayout
  3
AutoCAD 2000
 90
        0
280
               0
281
               0
  0
CLASS
  1
PLOTSETTINGS
  2
AcDbPlotSettings
  3
AutoCAD 2000
 90
        0
280
               0
281
               0
  0
CLASS
  1
ACDBDICTIONARYWDFLT
  2
AcDbDictionaryWithDefault
  3
AutoCAD 2000
 90
        0
280
               0
281
               0
  0
CLASS
  1
ACDBPLACEHOLDER
  2
AcDbPlaceHolder
  3
AutoCAD 2000
 90
        0
280
               0
281
               0
  0
ENDSEC
  0
SECTION
  2
TABLES
  0
TABLE
  2
VPORT
  5
7
100
AcDbSymbolTable
 70
               1
  0
VPORT
  5
15
100
AcDbSymbolTableRecord
100
AcDbViewportTableRecord
  2
*ACTIVE
 70
               0
 10
0.0
 20
0.0
 11
1.0
 21
1.0
 12
0.0
 22
-12.764114914906941
 13
0.0
 23
0.0
 14
1.0
 24
1.0
 15
0.0
 25
0.0
 16
0.0
 26
0.0
 36
1.0
 17
0.0
 27
0.0
 37
0.0
 40
2837.5228151124124
 41
0.688564
 42
50.0
 43
0.0
 44
0.0
 50
0.0
 51
0.0
 71
               0
 72
            2000
 73
               1
 74
               1
 75
               0
 76
               0
 77
               0
 78
               0
281
               0
 65
               0
110
0.0
120
0.0
130
0.0
111
1.0
121
0.0
131
0.0
112
0.0
122
1.0
132
0.0
345
0
346
0
 79
               0
146
0.0
  0
ENDTAB
  0
TABLE
  2
LTYPE
  5
4
100
AcDbSymbolTable
 70
              26
  0
LTYPE
  5
11
100
AcDbSymbolTableRecord
100
AcDbLinetypeTableRecord
  2
ByBlock
 70
              64
  3

 72
              65
 73
               0
 40
0.0
  0
LTYPE
  5
12
100
AcDbSymbolTableRecord
100
AcDbLinetypeTableRecord
  2
ByLayer
 70
              64
  3

 72
              65
 73
               0
 40
0.0
  0
LTYPE
  5
13
100
AcDbSymbolTableRecord
100
AcDbLinetypeTableRecord
  2
Continuous
 70
              64
  3
Solid line
 72
              65
 73
               0
 40
0.0
  0
LTYPE
  5
33
100
AcDbSymbolTableRecord
100
AcDbLinetypeTableRecord
  2
STYLE_01
 70
               0
  3

 72
              65
 73
               2
 40
0.6944448818897638
 49
0.3472224409448819
 74
               0
 49
-0.3472224409448819
 74
               0
  0
LTYPE
  5
34
100
AcDbSymbolTableRecord
100
AcDbLinetypeTableRecord
  2
STYLE_02
 70
               0
  3

 72
              65
 73
               4
 40
1.128472933070866
 49
0.3472224409448819
 74
               0
 49
-0.3472224409448819
 74
               0
 49
0.0868056102362205
 74
               0
 49
-0.3472224409448818
 74
               0
  0
LTYPE
  5
35
100
AcDbSymbolTableRecord
100
AcDbLinetypeTableRecord
  2
STYLE_03
 70
               0
  3

 72
              65
 73
               4
 40
1.128472933070866
 49
0.3472224409448819
 74
               0
 49
-0.3472224409448819
 74
               0
 49
0.0868056102362205
 74
               0
 49
-0.3472224409448818
 74
               0
  0
LTYPE
  5
36
100
AcDbSymbolTableRecord
100
AcDbLinetypeTableRecord
  2
STYLE_04
 70
               0
  3

 72
              65
 73
               4
 40
0.749496062992126
 49
0.6192883858267717
 74
               0
 49
-0.0434025590551181
 74
               0
 49
0.0434025590551181
 74
               0
 49
-0.0434025590551181
 74
               0
  0
LTYPE
  5
37
100
AcDbSymbolTableRecord
100
AcDbLinetypeTableRecord
  2
STYLE_05
 70
               0
  3

 72
              65
 73
               4
 40
0.749496062992126
 49
0.6192883858267717
 74
               0
 49
-0.0434025590551181
 74
               0
 49
0.0434025590551181
 74
               0
 49
-0.0434025590551181
 74
               0
  0
LTYPE
  5
38
100
AcDbSymbolTableRecord
100
AcDbLinetypeTableRecord
  2
STYLE_06
 70
               0
  3

 72
              65
 73
               4
 40
0.6591845472440944
 49
0.5024827755905512
 74
               0
 49
-0.0364758858267716
 74
               0
 49
0.08375
 74
               0
 49
-0.0364758858267716
 74
               0
  0
LTYPE
  5
39
100
AcDbSymbolTableRecord
100
AcDbLinetypeTableRecord
  2
STYLE_07
 70
               0
  3

 72
              65
 73
               4
 40
0.6591845472440944
 49
0.5024827755905512
 74
               0
 49
-0.0364758858267716
 74
               0
 49
0.08375
 74
               0
 49
-0.0364758858267716
 74
               0
  0
LTYPE
  5
3A
100
AcDbSymbolTableRecord
100
AcDbLinetypeTableRecord
  2
STYLE_08
 70
               0
  3

 72
              65
 73
               6
 40
6.25
 49
3.125
 74
               0
 49
-1.0413999999999999
 74
               0
 49
0.3471500000000002
 74
               0
 49
-0.6946500000000001
 74
               0
 49
0.3471499999999995
 74
               0
 49
-0.6946500000000001
 74
               0
  0
LTYPE
  5
3B
100
AcDbSymbolTableRecord
100
AcDbLinetypeTableRecord
  2
STYLE_09
 70
               0
  3

 72
              65
 73
               4
 40
25.0
 49
18.75
 74
               0
 49
-1.3889249999999991
 74
               0
 49
3.4721500000000018
 74
               0
 49
-1.3889249999999991
 74
               0
  0
LTYPE
  5
3C
100
AcDbSymbolTableRecord
100
AcDbLinetypeTableRecord
  2
STYLE_10
 70
               0
  3

 72
              65
 73
               6
 40
29.6875
 49
18.75
 74
               0
 49
-1.3889249999999991
 74
               0
 49
3.4721500000000018
 74
               0
 49
-1.3889249999999991
 74
               0
 49
3.125
 74
               0
 49
-1.5625
 74
               0
  0
LTYPE
  5
3D
100
AcDbSymbolTableRecord
100
AcDbLinetypeTableRecord
  2
STYLE_11
 70
               0
  3

 72
              65
 73
               8
 40
0.3149606299212597
 49
0.1771653543307086
 74
               0
 49
-0.0196850393700787
 74
               0
 49
0.0196850393700787
 74
               0
 49
-0.0196850393700787
 74
               0
 49
0.0196850393700787
 74
               0
 49
-0.0196850393700787
 74
               0
 49
0.0196850393700787
 74
               0
 49
-0.0196850393700787
 74
               0
  0
LTYPE
  5
3E
100
AcDbSymbolTableRecord
100
AcDbLinetypeTableRecord
  2
STYLE_12
 70
               0
  3

 72
              65
 73
              10
 40
0.3149606299212597
 49
0.1377952755905512
 74
               0
 49
-0.0196850393700787
 74
               0
 49
0.0196850393700787
 74
               0
 49
-0.0196850393700787
 74
               0
 49
0.0196850393700787
 74
               0
 49
-0.0196850393700787
 74
               0
 49
0.0196850393700787
 74
               0
 49
-0.0196850393700787
 74
               0
 49
0.0196850393700787
 74
               0
 49
-0.0196850393700787
 74
               0
  0
LTYPE
  5
3F
100
AcDbSymbolTableRecord
100
AcDbLinetypeTableRecord
  2
STYLE_13
 70
               0
  3

 72
              65
 73
              10
 40
0.3149606299212597
 49
0.1377952755905512
 74
               0
 49
-0.0196850393700787
 74
               0
 49
0.0196850393700787
 74
               0
 49
-0.0196850393700787
 74
               0
 49
0.0196850393700787
 74
               0
 49
-0.0196850393700787
 74
               0
 49
0.0196850393700787
 74
               0
 49
-0.0196850393700787
 74
               0
 49
0.0196850393700787
 74
               0
 49
-0.0196850393700787
 74
               0
  0
LTYPE
  5
40
100
AcDbSymbolTableRecord
100
AcDbLinetypeTableRecord
  2
STYLE_14
 70
               0
  3

 72
              65
 73
              10
 40
0.2755905511811023
 49
0.0984251968503937
 74
               0
 49
-0.0196850393700787
 74
               0
 49
0.0196850393700787
 74
               0
 49
-0.0196850393700787
 74
               0
 49
0.0196850393700787
 74
               0
 49
-0.0196850393700787
 74
               0
 49
0.0196850393700787
 74
               0
 49
-0.0196850393700787
 74
               0
 49
0.0196850393700787
 74
               0
 49
-0.0196850393700787
 74
               0
  0
LTYPE
  5
41
100
AcDbSymbolTableRecord
100
AcDbLinetypeTableRecord
  2
STYLE_15
 70
               0
  3

 72
              65
 73
              10
 40
0.2755905511811023
 49
0.0984251968503937
 74
               0
 49
-0.0196850393700787
 74
               0
 49
0.0196850393700787
 74
               0
 49
-0.0196850393700787
 74
               0
 49
0.0196850393700787
 74
               0
 49
-0.0196850393700787
 74
               0
 49
0.0196850393700787
 74
               0
 49
-0.0196850393700787
 74
               0
 49
0.0196850393700787
 74
               0
 49
-0.0196850393700787
 74
               0
  0
LTYPE
  5
42
100
AcDbSymbolTableRecord
100
AcDbLinetypeTableRecord
  2
STYLE_16
 70
               0
  3

 72
              65
 73
               2
 40
0.3169606299212598
 49
0.3149606299212598
 74
               0
 49
-0.005
 74
               0
  0
LTYPE
  5
43
100
AcDbSymbolTableRecord
100
AcDbLinetypeTableRecord
  2
STYLE_17
 70
               0
  3

 72
              65
 73
               2
 40
0.3169606299212598
 49
0.3149606299212598
 74
               0
 49
-0.005
 74
               0
  0
LTYPE
  5
44
100
AcDbSymbolTableRecord
100
AcDbLinetypeTableRecord
  2
STYLE_18
 70
               0
  3

 72
              65
 73
               4
 40
0.2559055118110236
 49
0.1838582677165354
 74
               0
 49
-0.024015748031496
 74
               0
 49
0.0240157480314961
 74
               0
 49
-0.0240157480314961
 74
               0
  0
LTYPE
  5
45
100
AcDbSymbolTableRecord
100
AcDbLinetypeTableRecord
  2
STYLE_19
 70
               0
  3

 72
              65
 73
               2
 40
0.3169606299212598
 49
0.3149606299212598
 74
               0
 49
-0.005
 74
               0
  0
LTYPE
  5
46
100
AcDbSymbolTableRecord
100
AcDbLinetypeTableRecord
  2
STYLE_20
 70
               0
  3

 72
              65
 73
               4
 40
0.2559055118110236
 49
0.1838582677165354
 74
               0
 49
-0.024015748031496
 74
               0
 49
0.0240157480314961
 74
               0
 49
-0.0240157480314961
 74
               0
  0
LTYPE
  5
47
100
AcDbSymbolTableRecord
100
AcDbLinetypeTableRecord
  2
STYLE_21
 70
               0
  3

 72
              65
 73
               2
 40
1.3888897637795274
 49
0.6944448818897637
 74
               0
 49
-0.6944448818897637
 74
               0
  0
LTYPE
  5
48
100
AcDbSymbolTableRecord
100
AcDbLinetypeTableRecord
  2
STYLE_22
 70
               0
  3

 72
              65
 73
               6
 40
59.375
 49
37.5
 74
               0
 49
-2.7778499999999982
 74
               0
 49
6.9443000000000037
 74
               0
 49
-2.7778499999999982
 74
               0
 49
6.25
 74
               0
 49
-3.125
 74
               0
  0
LTYPE
  5
49
100
AcDbSymbolTableRecord
100
AcDbLinetypeTableRecord
  2
STYLE_23
 70
               0
  3

 72
              65
 73
               2
 40
3.9370078740157481
 49
1.9685039370078741
 74
               0
 49
-1.9685039370078741
 74
               0
  0
ENDTAB
  0
TABLE
  2
LAYER
  5
2
100
AcDbSymbolTable
 70
               5
  0
LAYER
  5
14
100
AcDbSymbolTableRecord
100
AcDbLayerTableRecord
  2
0
 70
               0
 62
               7
  6
Continuous
290
               1
370
              -3
390
1D
  0
LAYER
  5
4A
100
AcDbSymbolTableRecord
100
AcDbLayerTableRecord
  2
Defpoints
 70
               0
 62
               7
  6
Continuous
290
               0
370
              -3
390
1D
  0
LAYER
  5
4B
100
AcDbSymbolTableRecord
100
AcDbLayerTableRecord
  2
template
 70
               0
 62
               7
  6
Continuous
290
               1
370
              -3
390
1D
  0
LAYER
  5
4C
100
AcDbSymbolTableRecord
100
AcDbLayerTableRecord
  2
notes
 70
               0
 62
               7
  6
Continuous
290
               1
370
              -3
390
1D
  0
LAYER
  5
4D
100
AcDbSymbolTableRecord
100
AcDbLayerTableRecord
  2
ADF70-0902
 70
               0
 62
               7
  6
Continuous
290
               1
370
              -3
390
1D
  0
ENDTAB
  0
TABLE
  2
STYLE
  5
3
100
AcDbSymbolTable
 70
               2
  0
STYLE
  5
17
100
AcDbSymbolTableRecord
100
AcDbTextStyleTableRecord
  2
Standard
 70
               0
 40
0.0
 41
1.0
 50
0.0
 71
               0
 42
0.0
  3
txt
  4
BIGFONT.SHX
  0
STYLE
  5
32
100
AcDbSymbolTableRecord
100
AcDbTextStyleTableRecord
  2
ＭＳ ゴシック
 70
               0
 40
0.0
 41
1.0
 50
0.0
 71
               0
 42
0.0
  3

  4
ＭＳ ゴシック
1001
ACAD
1000
ＭＳ ゴシック
1071
        0
  0
ENDTAB
  0
TABLE
  2
VIEW
  5
5
100
AcDbSymbolTable
 70
               0
  0
ENDTAB
  0
TABLE
  2
UCS
  5
6
100
AcDbSymbolTable
 70
               0
  0
ENDTAB
  0
TABLE
  2
APPID
  5
8
100
AcDbSymbolTable
 70
               1
  0
APPID
  5
16
100
AcDbSymbolTableRecord
100
AcDbRegAppTableRecord
  2
ACAD
 70
               0
  0
ENDTAB
  0
TABLE
  2
DIMSTYLE
  5
9
100
AcDbSymbolTable
 70
               3
100
AcDbDimStyleTable
 71
               0
  0
DIMSTYLE
105
18
100
AcDbSymbolTableRecord
100
AcDbDimStyleTableRecord
  2
Standard
 70
               0
  3

  4

 40
1.0
 41
0.18
 42
0.0625
 43
0.38
 44
0.18
 45
0.0
 46
0.0
 47
0.0
 48
0.0
 71
               0
 72
               0
 73
               1
 74
               1
 75
               0
 76
               0
 77
               0
 78
               0
 79
               0
140
0.18
141
0.09
142
0.0
143
25.399999999999999
144
1.0
145
0.0
146
1.0
147
0.09
148
0.0
170
               0
171
               2
172
               0
173
               0
174
               0
175
               0
176
               0
177
               0
178
               0
179
               0
271
               4
272
               4
273
               2
274
               2
275
               0
276
               0
277
               2
278
              46
279
               0
280
               0
281
               0
282
               0
283
               1
284
               0
285
               0
286
               0
288
               0
289
               3
340
17
341
0
342
0
343
0
344
0
371
              -2
372
              -2
  0
DIMSTYLE
105
56
100
AcDbSymbolTableRecord
100
AcDbDimStyleTableRecord
  2
Tform線あり
 70
               0
  3
<>
  4
[]
 40
1.0
 41
9.9993896484374982
 42
24.999999999999996
 43
0.9999999999999999
 44
0.0
 45
0.0
 46
0.0
 47
0.0
 48
0.0
 71
               0
 72
               0
 73
               0
 74
               0
 75
               0
 76
               0
 77
               1
 78
              11
 79
               0
140
24.432617187500004
141
0.0
142
0.0
143
1.0
144
1.0
145
0.0
146
0.8
147
0.4999999999999999
148
0.0
170
               0
171
               1
172
               1
173
               0
174
               1
175
               0
176
               0
177
               0
178
               0
179
               2
271
               1
272
               1
273
               2
274
               2
275
               0
276
               2
277
               2
278
              46
279
               0
280
               0
281
               0
282
               0
283
               1
284
              11
285
              11
286
              11
288
               0
289
               0
340
32
341
4E
342
4E
343
0
344
0
371
              -2
372
              -2
  0
DIMSTYLE
105
60
100
AcDbSymbolTableRecord
100
AcDbDimStyleTableRecord
  2
Arch
 70
               0
  3
<>
  4
[]
 40
1.0
 41
22.4482421875
 42
15.875
 43
10.16
 44
31.75
 45
0.0
 46
1.5874999999999999
 47
0.0
 48
0.0
 71
               0
 72
               0
 73
               0
 74
               0
 75
               0
 76
               0
 77
               1
 78
              11
 79
               0
140
24.432617187500004
141
0.0
142
0.0
143
1.0
144
1.0
145
0.0
146
1.0
147
1.5874999999999999
148
0.0
170
               0
171
               1
172
               1
173
               0
174
               1
175
               0
176
               0
177
               0
178
               0
179
               2
271
               1
272
               1
273
               2
274
               2
275
               0
276
               2
277
               2
278
              46
279
               0
280
               0
281
               0
282
               0
283
               1
284
              11
285
              11
286
              11
288
               0
289
               0
340
32
341
5C
342
57
343
0
344
0
371
              -2
372
              -2
  0
ENDTAB
  0
TABLE
  2
BLOCK_RECORD
  5
1
100
AcDbSymbolTable
 70
              18
  0
BLOCK_RECORD
  5
A
100
AcDbSymbolTableRecord
100
AcDbBlockTableRecord
  2
*MODEL_SPACE
340
20
  0
BLOCK_RECORD
  5
B
100
AcDbSymbolTableRecord
100
AcDbBlockTableRecord
  2
*PAPER_SPACE
340
21
  0
BLOCK_RECORD
  5
4E
100
AcDbSymbolTableRecord
100
AcDbBlockTableRecord
  2
_DOT
340
0
  0
BLOCK_RECORD
  5
57
100
AcDbSymbolTableRecord
100
AcDbBlockTableRecord
  2
VW_SLASH
340
0
  0
BLOCK_RECORD
  5
5C
100
AcDbSymbolTableRecord
100
AcDbBlockTableRecord
  2
VW_FILLEDARROW
340
0
  0
BLOCK_RECORD
  5
23
100
AcDbSymbolTableRecord
100
AcDbBlockTableRecord
  2
グループ
340
0
102
{BLKREFS
331
125
102
}
  0
BLOCK_RECORD
  5
24
100
AcDbSymbolTableRecord
100
AcDbBlockTableRecord
  2
*D4
340
0
  0
BLOCK_RECORD
  5
25
100
AcDbSymbolTableRecord
100
AcDbBlockTableRecord
  2
*D5
340
0
  0
BLOCK_RECORD
  5
26
100
AcDbSymbolTableRecord
100
AcDbBlockTableRecord
  2
*D6
340
0
  0
BLOCK_RECORD
  5
27
100
AcDbSymbolTableRecord
100
AcDbBlockTableRecord
  2
*D7
340
0
  0
BLOCK_RECORD
  5
28
100
AcDbSymbolTableRecord
100
AcDbBlockTableRecord
  2
*D8
340
0
  0
BLOCK_RECORD
  5
29
100
AcDbSymbolTableRecord
100
AcDbBlockTableRecord
  2
*D9
340
0
  0
BLOCK_RECORD
  5
2A
100
AcDbSymbolTableRecord
100
AcDbBlockTableRecord
  2
*D10
340
0
  0
BLOCK_RECORD
  5
2B
100
AcDbSymbolTableRecord
100
AcDbBlockTableRecord
  2
*D11
340
0
  0
BLOCK_RECORD
  5
2C
100
AcDbSymbolTableRecord
100
AcDbBlockTableRecord
  2
*D12
340
0
  0
BLOCK_RECORD
  5
2D
100
AcDbSymbolTableRecord
100
AcDbBlockTableRecord
  2
*D13
340
0
  0
BLOCK_RECORD
  5
2E
100
AcDbSymbolTableRecord
100
AcDbBlockTableRecord
  2
*D14
340
0
  0
BLOCK_RECORD
  5
2F
100
AcDbSymbolTableRecord
100
AcDbBlockTableRecord
  2
*D15
340
0
  0
BLOCK_RECORD
  5
30
100
AcDbSymbolTableRecord
100
AcDbBlockTableRecord
  2
*D16
340
0
  0
BLOCK_RECORD
  5
31
100
AcDbSymbolTableRecord
100
AcDbBlockTableRecord
  2
*D17
340
0
  0
ENDTAB
  0
ENDSEC
  0
SECTION
  2
BLOCKS
  0
BLOCK
  5
D
100
AcDbEntity
  8
0
390
0
100
AcDbBlockBegin
  2
*MODEL_SPACE
 70
               0
 10
0.0
 20
0.0
 30
0.0
  3
*MODEL_SPACE
  1

  0
ENDBLK
  5
E
100
AcDbEntity
  8
0
390
0
100
AcDbBlockEnd
  0
BLOCK
  5
F
100
AcDbEntity
 67
               1
  8
0
390
0
100
AcDbBlockBegin
  2
*PAPER_SPACE
 70
               0
 10
0.0
 20
0.0
 30
0.0
  3
*PAPER_SPACE
  1

  0
ENDBLK
  5
10
100
AcDbEntity
 67
               1
  8
0
390
0
100
AcDbBlockEnd
  0
BLOCK
  5
4F
100
AcDbEntity
  8
0
390
0
100
AcDbBlockBegin
  2
_DOT
 70
               0
 10
0.0
 20
0.0
 30
0.0
  3
_DOT
  1

  0
POLYLINE
  5
50
100
AcDbEntity
  8
0
370
              -2
390
0
  6
ByBlock
 62
               0
100
AcDb2dPolyline
 66
               1
 10
0.0
 20
0.0
 30
0.0
 70
               1
 40
0.5
 41
0.5
  0
VERTEX
  5
51
100
AcDbEntity
  8
0
370
              -2
390
0
  6
ByBlock
 62
               0
100
AcDbVertex
100
AcDb2dVertex
 10
-0.25
 20
0.0
 30
0.0
 42
1.0
  0
VERTEX
  5
52
100
AcDbEntity
  8
0
370
              -2
390
0
  6
ByBlock
 62
               0
100
AcDbVertex
100
AcDb2dVertex
 10
0.25
 20
0.0
 30
0.0
 42
1.0
  0
SEQEND
  5
53
100
AcDbEntity
  8
0
390
0
  0
LINE
  5
54
100
AcDbEntity
  8
0
370
              -2
390
0
  6
ByBlock
 62
               0
100
AcDbLine
 10
-0.5
 20
0.0
 30
0.0
 11
-1.0
 21
0.0
 31
0.0
  0
ENDBLK
  5
55
100
AcDbEntity
  8
0
390
0
100
AcDbBlockEnd
  0
BLOCK
  5
58
100
AcDbEntity
  8
0
370
              -2
390
0
  6
ByBlock
 62
               0
100
AcDbBlockBegin
  2
VW_SLASH
 70
               0
 10
0.0
 20
0.0
 30
0.0
  3
VW_SLASH
  1

  0
LINE
  5
59
100
AcDbEntity
  8
0
370
              -2
390
0
  6
ByBlock
 62
               0
100
AcDbLine
 10
0.0
 20
0.0
 30
0.0
 11
-1.0
 21
0.0
 31
0.0
  0
LINE
  5
5A
100
AcDbEntity
  8
0
370
              20
390
0
  6
ByBlock
 62
               0
100
AcDbLine
 10
-0.4987813153181721
 20
-0.4987813153181719
 30
0.0
 11
0.4987813153181721
 21
0.4987813153181719
 31
0.0
  0
ENDBLK
  5
5B
100
AcDbEntity
  8
0
390
0
100
AcDbBlockEnd
  0
BLOCK
  5
5D
100
AcDbEntity
  8
0
370
              -2
390
0
  6
ByBlock
 62
               0
100
AcDbBlockBegin
  2
VW_FILLEDARROW
 70
               0
 10
0.0
 20
0.0
 30
0.0
  3
VW_FILLEDARROW
  1

  0
SOLID
  5
5E
100
AcDbEntity
  8
0
370
              -2
390
0
 62
               0
100
AcDbTrace
 10
0.0
 20
0.0
 30
0.0
 11
-1.4107666015625
 21
-0.3780137715974714
 31
0.0
 12
-1.4107666015625
 22
0.3780137715974717
 32
0.0
 13
-1.4107666015625
 23
0.3780137715974717
 33
0.0
  0
ENDBLK
  5
5F
100
AcDbEntity
  8
0
390
0
100
AcDbBlockEnd
  0
BLOCK
  5
61
100
AcDbEntity
  8
template
390
0
100
AcDbBlockBegin
  2
グループ
 70
               0
 10
0.0
 20
0.0
 30
0.0
  3
グループ
  1

  0
LWPOLYLINE
  5
62
100
AcDbEntity
  8
0
370
              15
390
0
  6
Continuous
 62
               7
100
AcDbPolyline
 90
        8
 70
             129
 10
-21896.277514318434
 20
2421.2019825034968
 10
-21896.277514318434
 20
2415.2045938099209
 10
-21905.778711236435
 20
2415.2045938099209
 10
-21905.778711236435
 20
2390.7536305464118
 10
-21914.13408849822
 20
2390.7536305464118
 10
-21914.13408849822
 20
2415.2045938099209
 10
-21923.46704544453
 20
2415.2045938099209
 10
-21923.46704544453
 20
2421.2019825034968
  0
LWPOLYLINE
  5
63
100
AcDbEntity
  8
0
370
              15
390
0
  6
Continuous
 62
               7
100
AcDbPolyline
 90
      101
 70
             128
 10
-21883.549222487876
 20
2420.4737340105603
 10
-21883.533872459087
 20
2420.4780947672461
 42
-0.022222160771934
 10
-21883.243867882418
 20
2420.54671923249
 10
-21883.228074118408
 20
2420.5497226555904
 42
-0.0146883565554977
 10
-21882.9653714132
 20
2420.5917258425361
 42
-0.0127458844247422
 10
-21882.700732446057
 20
2420.6192628106078
 10
-21882.638277367736
 20
2420.624156233197
 42
-0.0198099018528342
 10
-21882.247428258255
 20
2420.6392413905937
 10
-21882.195616788813
 20
2420.6391876149287
 42
-0.0147617382803161
 10
-21881.700993327842
 20
2420.6240675896838
 10
-21881.62830187297
 20
2420.6196949827963
 42
-0.0162624548973919
 10
-21881.238148243501
 20
2420.5834621075237
 10
-21881.116615852246
 20
2420.568175548528
 42
-0.0080020874648078
 10
-21880.971036821153
 20
2420.5474927012588
 10
-21880.932717350537
 20
2420.5414214234443
 42
-0.0053821929683707
 10
-21880.86423324524
 20
2420.5298138996259
 10
-21881.590638944439
 20
2418.348885443912
 42
0.0108667757289726
 10
-21881.657956014555
 20
2418.362072559129
 10
-21881.69542403776
 20
2418.3685703017263
 42
0.0170663203447364
 10
-21881.83864082467
 20
2418.3883998990177
 10
-21881.90651615736
 20
2418.3954470696058
 42
0.0220162375358117
 10
-21882.186895565213
 20
2418.4121294303759
 10
-21882.264751132265
 20
2418.4133287976424
 42
0.0282606915764949
 10
-21882.600387455845
 20
2418.3995255206737
 10
-21882.644300729607
 20
2418.3952255306708
 42
0.0169677213579336
 10
-21882.890225224575
 20
2418.3626884811174
 42
0.0190576269822942
 10
-21883.133133187148
 20
2418.3125416090134
 10
-21883.139392375266
 20
2418.3109986349018
 42
0.0213685642905077
 10
-21883.389776859774
 20
2418.2377983497872
 10
-21883.395266754662
 20
2418.2359353537381
 42
0.0237595297597518
 10
-21883.64876163955
 20
2418.1362508318475
 10
-21883.653863713589
 20
2418.1339590563643
 42
0.0261857468741441
 10
-21883.906034489821
 20
2418.0044227189874
 10
-21883.916460678935
 20
2417.9983572445035
 42
0.0272553062065633
 10
-21884.152890454145
 20
2417.8429850385774
 10
-21884.187653467678
 20
2417.8173238904669
 42
0.0325996893279171
 10
-21884.337808811302
 20
2417.6905760175136
 10
-21884.361518240479
 20
2417.6677579889501
 42
0.0138050960654149
 10
-21884.453401396637
 20
2417.5743083274492
 42
0.0125280103847069
 10
-21884.540243929463
 20
2417.47614500086
 10
-21884.563924374379
 20
2417.4479865026615
 42
0.0205218024689302
 10
-21884.689024449905
 20
2417.2861931884167
 10
-21884.711490790382
 20
2417.2545334586057
 42
0.0163110129559555
 10
-21884.867201169604
 20
2417.0192030235794
 10
-21884.869925065683
 20
2417.0147792615503
 42
0.0131897341896999
 10
-21885.016725586556
 20
2416.7616471692445
 10
-21885.018425681956
 20
2416.75852893005
 42
0.0107895576064002
 10
-21885.156202384173
 20
2416.4923137204037
 10
-21885.156935273691
 20
2416.4908194877685
 42
0.009137150720141
 10
-21885.285415222283
 20
2416.2162942901377
 10
-21885.315160853752
 20
2416.1495877828502
 42
0.0135418326354216
 10
-21885.486874792809
 20
2415.7346499976125
 10
-21885.520479601197
 20
2415.646783855454
 42
0.0092834542378279
 10
-21885.691708661176
 20
2415.1728853569948
 10
-21885.71732578885
 20
2415.0976442873271
 42
0.0054261043548329
 10
-21885.824963937186
 20
2414.7698803141361
 10
-21885.842489922557
 20
2414.7144921544555
 42
0.0008225090673851
 10
-21885.911159975196
 20
2414.4962233937567
 10
-21886.895849107128
 20
2411.4713321005001
 10
-21883.663225267053
 20
2411.4713321005001
 10
-21884.167417696906
 20
2409.5668538021482
 10
-21887.423473978892
 20
2409.5668538021482
 10
-21893.252623011245
 20
2390.7536307361434
 10
-21895.077720621553
 20
2390.7536307361434
 10
-21889.243042586055
 20
2409.5668538021482
 10
-21891.648158955093
 20
2409.5668538021482
 10
-21891.14396652524
 20
2411.4713321005001
 10
-21888.715417714291
 20
2411.4713321005001
 10
-21887.855262796103
 20
2414.1077451011993
 42
-0.0005863560781619
 10
-21887.818528118711
 20
2414.2245715189133
 10
-21887.742440284237
 20
2414.4655638208765
 42
-0.0087522378937066
 10
-21887.5429721408
 20
2415.0608399079651
 10
-21887.450707865326
 20
2415.3209800766554
 42
-0.0077400953808288
 10
-21887.192774206236
 20
2416.013984754084
 10
-21887.177009234707
 20
2416.0544156373398
 42
-0.0082369946351373
 10
-21886.929924764045
 20
2416.6584947036658
 42
-0.0085725238383986
 10
-21886.662678668043
 20
2417.2539207429581
 10
-21886.561049067015
 20
2417.4703418449808
 42
-0.0168109410562904
 10
-21886.274104638305
 20
2418.0315493710423
 10
-21886.14826124773
 20
2418.2585134042474
 42
-0.0007817726882702
 10
-21886.093976897791
 20
2418.3560576490709
 10
-21886.093848591703
 20
2418.3562873579372
 42
-0.0036626141905328
 10
-21886.03896072775
 20
2418.4528852377757
 42
-0.0080221150678701
 10
-21885.981836472398
 20
2418.5481644724437
 10
-21885.951136520984
 20
2418.5975554216511
 42
-0.0202139325543245
 10
-21885.823480781142
 20
2418.7855370223815
 10
-21885.769413315989
 20
2418.8586158865733
 42
-0.02493237917758
 10
-21885.510250522271
 20
2419.1746611287285
 10
-21885.486110708145
 20
2419.2012754016405
 42
-0.024213212154882
 10
-21885.146429966611
 20
2419.5411588878364
 10
-21885.098518393876
 20
2419.5846680240093
 42
-0.0251017527883077
 10
-21884.814536693208
 20
2419.8176607697951
 10
-21884.813091216336
 20
2419.8187300274167
 42
-0.0130868069016536
 10
-21884.514830566441
 20
2420.0275104959164
 10
-21884.513268747261
 20
2420.0285439362151
 42
-0.0290329526326197
 10
-21884.202157605905
 20
2420.2093694378209
 10
-21884.172312043993
 20
2420.2244718206225
 42
-0.016025019008568
 10
-21883.906407630151
 20
2420.3484879308735
 42
-0.0267600374716939
 10
-21883.631131552658
 20
2420.4492362514297
 10
-21883.604395633163
 20
2420.4574288102476
 42
-0.0049981587860143
 10
-21883.549222487876
 20
2420.4737340105603
 42
-0.0049981587860143
  0
LWPOLYLINE
  5
64
100
AcDbEntity
  8
0
370
              15
390
0
  6
Continuous
 62
               7
100
AcDbPolyline
 90
      118
 70
             128
 10
-21863.734854923427
 20
2411.397348772673
 10
-21861.859732998928
 20
2411.397348772673
 10
-21862.697771904528
 20
2408.7157822462732
 42
-0.0010587229670206
 10
-21862.666316089075
 20
2408.7526867794886
 10
-21862.608121998324
 20
2408.8206690358038
 42
-0.0071874740468617
 10
-21862.457746780299
 20
2408.9913097277504
 10
-21862.316024006963
 20
2409.1475458691466
 42
-0.0148118053507665
 10
-21861.865894714239
 20
2409.6151597151716
 10
-21861.778672379296
 20
2409.7005570360666
 42
-0.0086273358698832
 10
-21861.443123578341
 20
2410.017932670029
 10
-21861.399289862155
 20
2410.0579823143262
 42
-0.0103138323138078
 10
-21861.141266159881
 20
2410.2841454517006
 10
-21861.095491753487
 20
2410.3226274990157
 42
-0.0060206748595258
 10
-21860.922643689442
 20
2410.4644221497151
 10
-21860.920612558581
 20
2410.4660478553265
 42
-0.0067069027281621
 10
-21860.748319743892
 20
2410.6001984891413
 10
-21860.745770977926
 20
2410.6021286590462
 42
-0.007618435206319
 10
-21860.574865712097
 20
2410.7275035342604
 42
-0.0089652861647926
 10
-21860.399904749294
 20
2410.8471367946363
 10
-21860.363553029274
 20
2410.8710480080385
 42
-0.0156916245904484
 10
-21860.16759353206
 20
2410.9913104945508
 42
-0.002329901097698
 10
-21859.967331488013
 20
2411.1044884341281
 10
-21859.951947355697
 20
2411.1130884291561
 42
-0.0107669341508741
 10
-21859.717710530593
 20
2411.2374885625068
 10
-21859.695445729521
 20
2411.2487053124555
 42
-0.0078058045930878
 10
-21859.411855611623
 20
2411.3860667680697
 10
-21859.40194852386
 20
2411.3906758959624
 42
-0.0181829330451972
 10
-21859.091639119237
 20
2411.52153963706
 10
-21859.037583676662
 20
2411.542054757007
 42
-0.0208411536040347
 10
-21858.688498709227
 20
2411.6581452194946
 10
-21858.67414260911
 20
2411.6622636644452
 42
-0.0222799817138699
 10
-21858.345422815182
 20
2411.7409052305884
 10
-21858.336533851929
 20
2411.742617241177
 42
-0.0215509523899623
 10
-21858.020062883665
 20
2411.789532929708
 10
-21857.977580922612
 20
2411.7939704564992
 42
-0.0182545924888168
 10
-21857.743472143309
 20
2411.8098142818899
 10
-21857.704071126951
 20
2411.8110388269693
 42
-0.0072962856595773
 10
-21857.548148247275
 20
2411.8136081554912
 10
-21857.519048576709
 20
2411.813662990895
 42
-0.0059227516165647
 10
-21857.421299077556
 20
2411.8126892791042
 10
-21857.392056860077
 20
2411.8120515125011
 42
-0.001183311197146
 10
-21857.352805576353
 20
2411.8111025081907
 10
-21858.148192171961
 20
2409.2723685630917
 42
0.0143932052009659
 10
-21858.174593554315
 20
2409.2825675331387
 10
-21858.181865526727
 20
2409.2851387519945
 42
0.0234388603445759
 10
-21858.223696392655
 20
2409.2977579877079
 10
-21858.232378055574
 20
2409.2999389497149
 42
0.0199162743367064
 10
-21858.292666889651
 20
2409.31255568505
 10
-21858.313480827459
 20
2409.3160528844787
 42
0.0293643550637693
 10
-21858.416555686221
 20
2409.327202930132
 10
-21858.441240866938
 20
2409.3284145471503
 42
0.0214606686948832
 10
-21858.594381782896
 20
2409.3293531075674
 10
-21858.603753693707
 20
2409.3290081960231
 42
0.0167564054161971
 10
-21858.77527388481
 20
2409.3169311536562
 10
-21858.783733677577
 20
2409.3160498132283
 42
0.0137677553220954
 10
-21858.971086990834
 20
2409.2913005046862
 10
-21858.978438730348
 20
2409.2901225847168
 42
0.011849726145041
 10
-21859.178936494442
 20
2409.2531052345294
 10
-21859.185086501697
 20
2409.2518183718075
 42
0.0106421143804303
 10
-21859.395967388973
 20
2409.2029859962354
 10
-21859.400876197371
 20
2409.2017386535476
 42
0.0099746379705639
 10
-21859.61933466659
 20
2409.1415641252165
 10
-21859.680882706703
 20
2409.1232822466022
 42
0.0191613675855243
 10
-21860.016867169263
 20
2409.0093048662989
 10
-21860.104926941967
 20
2408.9756179559904
 42
0.0205274080151293
 10
-21860.490233713866
 20
2408.8097895481646
 10
-21860.547882995874
 20
2408.7821215835797
 42
0.0181256912118927
 10
-21860.806159936517
 20
2408.6464377646143
 10
-21860.859115319767
 20
2408.6161201514378
 42
0.0140709242391551
 10
-21861.004070254457
 20
2408.5276254779656
 10
-21861.030319123205
 20
2408.5105686591655
 42
0.0086667884540945
 10
-21861.119245284615
 20
2408.4505659913671
 42
0.0036408191948228
 10
-21861.206678522525
 20
2408.3883851336645
 10
-21861.241905397117
 20
2408.3629441876619
 42
0.0052260781380903
 10
-21861.398134094612
 20
2408.2476118009504
 10
-21861.414340950771
 20
2408.2353836904094
 42
0.0050024435956317
 10
-21861.600344293878
 20
2408.0921011221085
 10
-21861.615662450346
 20
2408.0800550997019
 42
0.0136138710291425
 10
-21861.826103718646
 20
2407.9050885948086
 10
-21861.859771594463
 20
2407.8755096220739
 42
0.0172815186851346
 10
-21862.124175136119
 20
2407.6265129494595
 10
-21862.126737481969
 20
2407.6239271323038
 42
0.0189403858003962
 10
-21862.377319280524
 20
2407.3511218675289
 10
-21862.409950774068
 20
2407.3127779360175
 42
0.018504419947326
 10
-21862.601907213066
 20
2407.0695293548793
 42
0.0088565243867367
 10
-21862.780367319658
 20
2406.8160129347771
 10
-21862.78954529934
 20
2406.8024715549691
 42
0.0157195347254288
 10
-21862.972765905615
 20
2406.5129493457512
 10
-21863.018848847478
 20
2406.4347971488455
 42
0.0095451879743731
 10
-21863.183934397741
 20
2406.1422025062761
 10
-21863.195082316663
 20
2406.1215318341565
 42
0.010035170630123
 10
-21863.327126065833
 20
2405.8644762736531
 42
0.0086935915432023
 10
-21863.449457217648
 20
2405.6026431282085
 10
-21863.452777959043
 20
2405.5952008052773
 42
0.0072580174902968
 10
-21863.573124410952
 20
2405.3146088137746
 10
-21863.576386044293
 20
2405.3066887876762
 42
0.0060005122564832
 10
-21863.695586712565
 20
2405.0070791172548
 10
-21863.698797690977
 20
2404.9987175891665
 42
0.0049017787034055
 10
-21863.817697849914
 20
2404.6797886083432
 10
-21863.820863656227
 20
2404.6710356713311
 42
0.0039415167579026
 10
-21863.940299934282
 20
2404.3324936089116
 10
-21863.943431036932
 20
2404.3233904080421
 42
0.003103583874113
 10
-21864.064235822498
 20
2403.96495054667
 10
-21864.067345867159
 20
2403.9555299248941
 42
0.0025070747161952
 10
-21864.19024721855
 20
2403.576882707694
 10
-21864.227541114895
 20
2403.4599910426969
 42
0.0029081910323513
 10
-21864.419559412931
 20
2402.8458273836777
 10
-21864.460362581223
 20
2402.7126041421293
 42
0.000926645376454
 10
-21864.728779955676
 20
2401.830379681754
 10
-21864.749667427888
 20
2401.76126780393
 42
-0.0005809993661531
 10
-21865.027004108772
 20
2400.847459696331
 10
-21865.093285906918
 20
2400.6299747645908
 42
-0.0012018708222245
 10
-21865.240270216476
 20
2400.1518120996507
 10
-21865.292590066638
 20
2399.983052963315
 42
-0.0002691059789982
 10
-21865.33615954921
 20
2399.8427853384428
 10
-21868.169115447497
 20
2390.7536307361434
 10
-21869.987104339478
 20
2390.7536307361434
 10
-21863.734854923427
 20
2411.397348772673
  0
SPLINE
  5
65
100
AcDbEntity
  8
0
370
              15
390
0
  6
Continuous
 62
               7
100
AcDbSpline
210
0.0
220
0.0
230
1.0
 70
              13
 71
               2
 72
             782
 73
             779
 74
               0
 42
0.000001
 43
0.000001
 40
0.0
 40
0.0
 40
0.0
 40
1.0
 40
1.0
 40
2.0
 40
2.0
 40
3.0
 40
3.0
 40
4.0
 40
4.0
 40
5.0
 40
5.0
 40
6.0
 40
6.0
 40
7.0
 40
7.0
 40
8.0
 40
8.0
 40
9.0
 40
9.0
 40
10.0
 40
10.0
 40
11.0
 40
11.0
 40
12.0
 40
12.0
 40
13.0
 40
13.0
 40
14.0
 40
14.0
 40
15.0
 40
15.0
 40
16.0
 40
16.0
 40
17.0
 40
17.0
 40
18.0
 40
18.0
 40
19.0
 40
19.0
 40
20.0
 40
20.0
 40
21.0
 40
21.0
 40
22.0
 40
22.0
 40
23.0
 40
23.0
 40
24.0
 40
24.0
 40
25.0
 40
25.0
 40
26.0
 40
26.0
 40
27.0
 40
27.0
 40
28.0
 40
28.0
 40
29.0
 40
29.0
 40
30.0
 40
30.0
 40
31.0
 40
31.0
 40
32.0
 40
32.0
 40
33.0
 40
33.0
 40
34.0
 40
34.0
 40
35.0
 40
35.0
 40
36.0
 40
36.0
 40
37.0
 40
37.0
 40
38.0
 40
38.0
 40
39.0
 40
39.0
 40
40.0
 40
40.0
 40
41.0
 40
41.0
 40
42.0
 40
42.0
 40
43.0
 40
43.0
 40
44.0
 40
44.0
 40
45.0
 40
45.0
 40
46.0
 40
46.0
 40
47.0
 40
47.0
 40
48.0
 40
48.0
 40
49.0
 40
49.0
 40
50.0
 40
50.0
 40
51.0
 40
51.0
 40
52.0
 40
52.0
 40
53.0
 40
53.0
 40
54.0
 40
54.0
 40
55.0
 40
55.0
 40
56.0
 40
56.0
 40
57.0
 40
57.0
 40
58.0
 40
58.0
 40
59.0
 40
59.0
 40
60.0
 40
60.0
 40
61.0
 40
61.0
 40
62.0
 40
62.0
 40
63.0
 40
63.0
 40
64.0
 40
64.0
 40
65.0
 40
65.0
 40
66.0
 40
66.0
 40
67.0
 40
67.0
 40
68.0
 40
68.0
 40
69.0
 40
69.0
 40
70.0
 40
70.0
 40
71.0
 40
71.0
 40
72.0
 40
72.0
 40
73.0
 40
73.0
 40
74.0
 40
74.0
 40
75.0
 40
75.0
 40
76.0
 40
76.0
 40
77.0
 40
77.0
 40
78.0
 40
78.0
 40
79.0
 40
79.0
 40
80.0
 40
80.0
 40
81.0
 40
81.0
 40
82.0
 40
82.0
 40
83.0
 40
83.0
 40
84.0
 40
84.0
 40
85.0
 40
85.0
 40
86.0
 40
86.0
 40
87.0
 40
87.0
 40
88.0
 40
88.0
 40
89.0
 40
89.0
 40
90.0
 40
90.0
 40
91.0
 40
91.0
 40
92.0
 40
92.0
 40
93.0
 40
93.0
 40
94.0
 40
94.0
 40
95.0
 40
95.0
 40
96.0
 40
96.0
 40
97.0
 40
97.0
 40
98.0
 40
98.0
 40
99.0
 40
99.0
 40
100.0
 40
100.0
 40
101.0
 40
101.0
 40
102.0
 40
102.0
 40
103.0
 40
103.0
 40
104.0
 40
104.0
 40
105.0
 40
105.0
 40
106.0
 40
106.0
 40
107.0
 40
107.0
 40
108.0
 40
108.0
 40
109.0
 40
109.0
 40
110.0
 40
110.0
 40
111.0
 40
111.0
 40
112.0
 40
112.0
 40
113.0
 40
113.0
 40
114.0
 40
114.0
 40
115.0
 40
115.0
 40
116.0
 40
116.0
 40
117.0
 40
117.0
 40
118.0
 40
118.0
 40
119.0
 40
119.0
 40
120.0
 40
120.0
 40
121.0
 40
121.0
 40
122.0
 40
122.0
 40
123.0
 40
123.0
 40
124.0
 40
124.0
 40
125.0
 40
125.0
 40
126.0
 40
126.0
 40
127.0
 40
127.0
 40
128.0
 40
128.0
 40
129.0
 40
129.0
 40
130.0
 40
130.0
 40
131.0
 40
131.0
 40
132.0
 40
132.0
 40
133.0
 40
133.0
 40
134.0
 40
134.0
 40
135.0
 40
135.0
 40
136.0
 40
136.0
 40
137.0
 40
137.0
 40
138.0
 40
138.0
 40
139.0
 40
139.0
 40
140.0
 40
140.0
 40
141.0
 40
141.0
 40
142.0
 40
142.0
 40
143.0
 40
143.0
 40
144.0
 40
144.0
 40
145.0
 40
145.0
 40
146.0
 40
146.0
 40
147.0
 40
147.0
 40
148.0
 40
148.0
 40
149.0
 40
149.0
 40
150.0
 40
150.0
 40
151.0
 40
151.0
 40
152.0
 40
152.0
 40
153.0
 40
153.0
 40
154.0
 40
154.0
 40
155.0
 40
155.0
 40
156.0
 40
156.0
 40
157.0
 40
157.0
 40
158.0
 40
158.0
 40
159.0
 40
159.0
 40
160.0
 40
160.0
 40
161.0
 40
161.0
 40
162.0
 40
162.0
 40
163.0
 40
163.0
 40
164.0
 40
164.0
 40
165.0
 40
165.0
 40
166.0
 40
166.0
 40
167.0
 40
167.0
 40
168.0
 40
168.0
 40
169.0
 40
169.0
 40
170.0
 40
170.0
 40
171.0
 40
171.0
 40
172.0
 40
172.0
 40
173.0
 40
173.0
 40
174.0
 40
174.0
 40
175.0
 40
175.0
 40
176.0
 40
176.0
 40
177.0
 40
177.0
 40
178.0
 40
178.0
 40
179.0
 40
179.0
 40
180.0
 40
180.0
 40
181.0
 40
181.0
 40
182.0
 40
182.0
 40
183.0
 40
183.0
 40
184.0
 40
184.0
 40
185.0
 40
185.0
 40
186.0
 40
186.0
 40
187.0
 40
187.0
 40
188.0
 40
188.0
 40
189.0
 40
189.0
 40
190.0
 40
190.0
 40
191.0
 40
191.0
 40
192.0
 40
192.0
 40
193.0
 40
193.0
 40
194.0
 40
194.0
 40
195.0
 40
195.0
 40
196.0
 40
196.0
 40
197.0
 40
197.0
 40
198.0
 40
198.0
 40
199.0
 40
199.0
 40
200.0
 40
200.0
 40
201.0
 40
201.0
 40
202.0
 40
202.0
 40
203.0
 40
203.0
 40
204.0
 40
204.0
 40
205.0
 40
205.0
 40
206.0
 40
206.0
 40
207.0
 40
207.0
 40
208.0
 40
208.0
 40
209.0
 40
209.0
 40
210.0
 40
210.0
 40
211.0
 40
211.0
 40
212.0
 40
212.0
 40
213.0
 40
213.0
 40
214.0
 40
214.0
 40
215.0
 40
215.0
 40
216.0
 40
216.0
 40
217.0
 40
217.0
 40
218.0
 40
218.0
 40
219.0
 40
219.0
 40
220.0
 40
220.0
 40
221.0
 40
221.0
 40
222.0
 40
222.0
 40
223.0
 40
223.0
 40
224.0
 40
224.0
 40
225.0
 40
225.0
 40
226.0
 40
226.0
 40
227.0
 40
227.0
 40
228.0
 40
228.0
 40
229.0
 40
229.0
 40
230.0
 40
230.0
 40
231.0
 40
231.0
 40
232.0
 40
232.0
 40
233.0
 40
233.0
 40
234.0
 40
234.0
 40
235.0
 40
235.0
 40
236.0
 40
236.0
 40
237.0
 40
237.0
 40
238.0
 40
238.0
 40
239.0
 40
239.0
 40
240.0
 40
240.0
 40
241.0
 40
241.0
 40
242.0
 40
242.0
 40
243.0
 40
243.0
 40
244.0
 40
244.0
 40
245.0
 40
245.0
 40
246.0
 40
246.0
 40
247.0
 40
247.0
 40
248.0
 40
248.0
 40
249.0
 40
249.0
 40
250.0
 40
250.0
 40
251.0
 40
251.0
 40
252.0
 40
252.0
 40
253.0
 40
253.0
 40
254.0
 40
254.0
 40
255.0
 40
255.0
 40
256.0
 40
256.0
 40
257.0
 40
257.0
 40
258.0
 40
258.0
 40
259.0
 40
259.0
 40
260.0
 40
260.0
 40
261.0
 40
261.0
 40
262.0
 40
262.0
 40
263.0
 40
263.0
 40
264.0
 40
264.0
 40
265.0
 40
265.0
 40
266.0
 40
266.0
 40
267.0
 40
267.0
 40
268.0
 40
268.0
 40
269.0
 40
269.0
 40
270.0
 40
270.0
 40
271.0
 40
271.0
 40
272.0
 40
272.0
 40
273.0
 40
273.0
 40
274.0
 40
274.0
 40
275.0
 40
275.0
 40
276.0
 40
276.0
 40
277.0
 40
277.0
 40
278.0
 40
278.0
 40
279.0
 40
279.0
 40
280.0
 40
280.0
 40
281.0
 40
281.0
 40
282.0
 40
282.0
 40
283.0
 40
283.0
 40
284.0
 40
284.0
 40
285.0
 40
285.0
 40
286.0
 40
286.0
 40
287.0
 40
287.0
 40
288.0
 40
288.0
 40
289.0
 40
289.0
 40
290.0
 40
290.0
 40
291.0
 40
291.0
 40
292.0
 40
292.0
 40
293.0
 40
293.0
 40
294.0
 40
294.0
 40
295.0
 40
295.0
 40
296.0
 40
296.0
 40
297.0
 40
297.0
 40
298.0
 40
298.0
 40
299.0
 40
299.0
 40
300.0
 40
300.0
 40
301.0
 40
301.0
 40
302.0
 40
302.0
 40
303.0
 40
303.0
 40
304.0
 40
304.0
 40
305.0
 40
305.0
 40
306.0
 40
306.0
 40
307.0
 40
307.0
 40
308.0
 40
308.0
 40
309.0
 40
309.0
 40
310.0
 40
310.0
 40
311.0
 40
311.0
 40
312.0
 40
312.0
 40
313.0
 40
313.0
 40
314.0
 40
314.0
 40
315.0
 40
315.0
 40
316.0
 40
316.0
 40
317.0
 40
317.0
 40
318.0
 40
318.0
 40
319.0
 40
319.0
 40
320.0
 40
320.0
 40
321.0
 40
321.0
 40
322.0
 40
322.0
 40
323.0
 40
323.0
 40
324.0
 40
324.0
 40
325.0
 40
325.0
 40
326.0
 40
326.0
 40
327.0
 40
327.0
 40
328.0
 40
328.0
 40
329.0
 40
329.0
 40
330.0
 40
330.0
 40
331.0
 40
331.0
 40
332.0
 40
332.0
 40
333.0
 40
333.0
 40
334.0
 40
334.0
 40
335.0
 40
335.0
 40
336.0
 40
336.0
 40
337.0
 40
337.0
 40
338.0
 40
338.0
 40
339.0
 40
339.0
 40
340.0
 40
340.0
 40
341.0
 40
341.0
 40
342.0
 40
342.0
 40
343.0
 40
343.0
 40
344.0
 40
344.0
 40
345.0
 40
345.0
 40
346.0
 40
346.0
 40
347.0
 40
347.0
 40
348.0
 40
348.0
 40
349.0
 40
349.0
 40
350.0
 40
350.0
 40
351.0
 40
351.0
 40
352.0
 40
352.0
 40
353.0
 40
353.0
 40
354.0
 40
354.0
 40
355.0
 40
355.0
 40
356.0
 40
356.0
 40
357.0
 40
357.0
 40
358.0
 40
358.0
 40
359.0
 40
359.0
 40
360.0
 40
360.0
 40
361.0
 40
361.0
 40
362.0
 40
362.0
 40
363.0
 40
363.0
 40
364.0
 40
364.0
 40
365.0
 40
365.0
 40
366.0
 40
366.0
 40
367.0
 40
367.0
 40
368.0
 40
368.0
 40
369.0
 40
369.0
 40
370.0
 40
370.0
 40
371.0
 40
371.0
 40
372.0
 40
372.0
 40
373.0
 40
373.0
 40
374.0
 40
374.0
 40
375.0
 40
375.0
 40
376.0
 40
376.0
 40
377.0
 40
377.0
 40
378.0
 40
378.0
 40
379.0
 40
379.0
 40
380.0
 40
380.0
 40
381.0
 40
381.0
 40
382.0
 40
382.0
 40
383.0
 40
383.0
 40
384.0
 40
384.0
 40
385.0
 40
385.0
 40
386.0
 40
386.0
 40
387.0
 40
387.0
 40
388.0
 40
388.0
 40
389.0
 40
389.0
 40
389.0
 10
-21853.406150472696
 20
2411.4082751360356
 30
0.0
 41
1.0
 10
-21852.587726363978
 20
2411.4082751360356
 30
0.0
 41
1.0
 10
-21851.769302255256
 20
2411.4082751360356
 30
0.0
 41
1.0
 10
-21852.183055990772
 20
2410.0656488717859
 30
0.0
 41
1.0
 10
-21852.596809726288
 20
2408.7230226075362
 30
0.0
 41
1.0
 10
-21852.578470231205
 20
2408.7517233803142
 30
0.0
 41
0.9999957264399613
 10
-21852.55996323446
 20
2408.7803164303359
 30
0.0
 41
1.0
 10
-21852.529533910238
 20
2408.8273293088428
 30
0.0
 41
1.0
 10
-21852.499104586015
 20
2408.8743421873496
 30
0.0
 41
1.0
 10
-21852.419738940942
 20
2408.9969609942068
 30
0.0
 41
0.9995394069076993
 10
-21852.333080549422
 20
2409.1145390559013
 30
0.0
 41
1.0
 10
-21852.297323687118
 20
2409.1630539485564
 30
0.0
 41
1.0
 10
-21852.261566824815
 20
2409.2115688412114
 30
0.0
 41
1.0
 10
-21852.127840157005
 20
2409.3930091163274
 30
0.0
 41
0.9994460617142069
 10
-21851.982339675731
 20
2409.565151513958
 30
0.0
 41
1.0
 10
-21851.977951494755
 20
2409.5703431943411
 30
0.0
 41
1.0
 10
-21851.973563313779
 20
2409.5755348747239
 30
0.0
 41
1.0
 10
-21851.836839194442
 20
2409.7372939116076
 30
0.0
 41
0.9994359394934624
 10
-21851.689564964094
 20
2409.8895101127723
 30
0.0
 41
1.0
 10
-21851.687181610148
 20
2409.8919734431347
 30
0.0
 41
1.0
 10
-21851.684798256207
 20
2409.8944367734966
 30
0.0
 41
1.0
 10
-21851.542290733749
 20
2410.0417263139316
 30
0.0
 41
0.9995293688566789
 10
-21851.39101905276
 20
2410.1799995261013
 30
0.0
 41
1.0
 10
-21851.371725293513
 20
2410.1976354117369
 30
0.0
 41
1.0
 10
-21851.352431534266
 20
2410.215271297373
 30
0.0
 41
1.0
 10
-21851.239747371787
 20
2410.3182727382582
 30
0.0
 41
0.9997087614801999
 10
-21851.12222448282
 20
2410.4157170190633
 30
0.0
 41
1.0
 10
-21851.103058409593
 20
2410.4316085976134
 30
0.0
 41
1.0
 10
-21851.083892336366
 20
2410.4475001761634
 30
0.0
 41
1.0
 10
-21851.004701593814
 20
2410.5131612999035
 30
0.0
 41
0.999959533869239
 10
-21850.924342323011
 20
2410.5773870305161
 30
0.0
 41
1.0
 10
-21850.84398305232
 20
2410.6416127610423
 30
0.0
 41
0.9999749417499233
 10
-21850.762722518139
 20
2410.704694314863
 30
0.0
 41
1.0
 10
-21850.741736371896
 20
2410.7209856022273
 30
0.0
 41
1.0
 10
-21850.720750225653
 20
2410.7372768895912
 30
0.0
 41
1.0
 10
-21850.636182340178
 20
2410.8029258995657
 30
0.0
 41
0.999979203712281
 10
-21850.550774740412
 20
2410.8674786812098
 30
0.0
 41
1.0
 10
-21850.529949913718
 20
2410.8832185040583
 30
0.0
 41
1.0
 10
-21850.509125087025
 20
2410.8989583269072
 30
0.0
 41
1.0
 10
-21850.465367139484
 20
2410.932031463728
 30
0.0
 41
0.9999993373991651
 10
-21850.421685454497
 20
2410.9652052582778
 30
0.0
 41
1.0
 10
-21850.378003768357
 20
2410.9983790537008
 30
0.0
 41
0.9999160953812756
 10
-21850.333477357442
 20
2411.0304101188949
 30
0.0
 41
1.0
 10
-21850.300655470019
 20
2411.0540212744822
 30
0.0
 41
1.0
 10
-21850.267833582595
 20
2411.0776324300696
 30
0.0
 41
1.0
 10
-21850.157663396825
 20
2411.1568858064447
 30
0.0
 41
0.9980964527231621
 10
-21850.038574403326
 20
2411.2219732792983
 30
0.0
 41
1.0
 10
-21850.00154179641
 20
2411.2422132588845
 30
0.0
 41
1.0
 10
-21849.964509189496
 20
2411.2624532384712
 30
0.0
 41
1.0
 10
-21849.785182176223
 20
2411.3604634891763
 30
0.0
 41
0.9984572810564695
 10
-21849.596093609849
 20
2411.4379857505273
 30
0.0
 41
1.0
 10
-21849.592447340459
 20
2411.4394806428636
 30
0.0
 41
1.0
 10
-21849.588801071066
 20
2411.4409755351999
 30
0.0
 41
1.0
 10
-21849.407005043489
 20
2411.5155080118725
 30
0.0
 41
0.9987838528037031
 10
-21849.218752384928
 20
2411.5717736520396
 30
0.0
 41
1.0
 10
-21849.214514435727
 20
2411.5730403057296
 30
0.0
 41
1.0
 10
-21849.21027648653
 20
2411.57430695942
 30
0.0
 41
1.0
 10
-21849.030499726374
 20
2411.6280392922035
 30
0.0
 41
0.9990652816208796
 10
-21848.846753794656
 20
2411.6660429717476
 30
0.0
 41
1.0
 10
-21848.841565393635
 20
2411.6671160748519
 30
0.0
 41
1.0
 10
-21848.836376992615
 20
2411.6681891779567
 30
0.0
 41
1.0
 10
-21848.663007862939
 20
2411.7040466512904
 30
0.0
 41
0.9992909934269761
 10
-21848.487432096481
 20
2411.7267570837562
 30
0.0
 41
1.0
 10
-21848.311856330016
 20
2411.7494675162225
 30
0.0
 41
0.999455353945038
 10
-21848.135164896918
 20
2411.7605468204297
 30
0.0
 41
1.0
 10
-21848.099730489124
 20
2411.7627687084773
 30
0.0
 41
1.0
 10
-21848.064296081331
 20
2411.764990596525
 30
0.0
 41
1.0
 10
-21847.898070314761
 20
2411.7754136589383
 30
0.0
 41
0.9990928098288022
 10
-21847.731560522865
 20
2411.7716540177016
 30
0.0
 41
1.0
 10
-21847.692998687598
 20
2411.7707833261688
 30
0.0
 41
1.0
 10
-21847.654436852328
 20
2411.7699126346361
 30
0.0
 41
1.0
 10
-21847.565050730966
 20
2411.7678943764681
 30
0.0
 41
0.9998382089203038
 10
-21847.475795048176
 20
2411.7626622499392
 30
0.0
 41
1.0
 10
-21847.475365141952
 20
2411.762637049037
 30
0.0
 41
1.0
 10
-21847.474935235732
 20
2411.7626118481344
 30
0.0
 41
1.0
 10
-21847.386539365394
 20
2411.7574301234122
 30
0.0
 41
0.9997558016757346
 10
-21847.298458788187
 20
2411.7483476080442
 30
0.0
 41
1.0
 10
-21847.297982649754
 20
2411.7482985105617
 30
0.0
 41
1.0
 10
-21847.297506511321
 20
2411.7482494130786
 30
0.0
 41
1.0
 10
-21847.210378211006
 20
2411.7392650926795
 30
0.0
 41
0.9996565144184082
 10
-21847.123840357646
 20
2411.725727785989
 30
0.0
 41
1.0
 10
-21847.123374432274
 20
2411.7256549002582
 30
0.0
 41
1.0
 10
-21847.122908506899
 20
2411.7255820145274
 30
0.0
 41
1.0
 10
-21847.037302504286
 20
2411.7121904792975
 30
0.0
 41
0.9995321806862783
 10
-21846.952675423978
 20
2411.6935899908708
 30
0.0
 41
1.0
 10
-21846.952286229414
 20
2411.6935044484067
 30
0.0
 41
1.0
 10
-21846.951897034851
 20
2411.6934189059425
 30
0.0
 41
1.0
 10
-21846.86804834364
 20
2411.6749895024377
 30
0.0
 41
0.9993819199221872
 10
-21846.785701809455
 20
2411.6507141191805
 30
0.0
 41
1.0
 10
-21846.785463375963
 20
2411.6506438300735
 30
0.0
 41
1.0
 10
-21846.785224942476
 20
2411.6505735409664
 30
0.0
 41
1.0
 10
-21846.703355275265
 20
2411.626438735922
 30
0.0
 41
0.9992088568509723
 10
-21846.623662756268
 20
2411.5958735001259
 30
0.0
 41
1.0
 10
-21846.543981765408
 20
2411.5653138994007
 30
0.0
 41
0.9990226101773226
 10
-21846.467311095483
 20
2411.5278364677779
 30
0.0
 41
1.0
 10
-21846.390651953687
 20
2411.4903646712255
 30
0.0
 41
0.9988424273967922
 10
-21846.317948326465
 20
2411.4456998959663
 30
0.0
 41
1.0
 10
-21846.317680618089
 20
2411.445535431897
 30
0.0
 41
1.0
 10
-21846.317412909713
 20
2411.4453709678273
 30
0.0
 41
1.0
 10
-21846.24417386574
 20
2411.4003772644264
 30
0.0
 41
0.9986928844493813
 10
-21846.175910999042
 20
2411.3481415301553
 30
0.0
 41
1.0
 10
-21846.175329706813
 20
2411.3476967169249
 30
0.0
 41
1.0
 10
-21846.174748414589
 20
2411.3472519036945
 30
0.0
 41
1.0
 10
-21846.105322963445
 20
2411.2941265429708
 30
0.0
 41
0.9986007262277774
 10
-21846.041896793697
 20
2411.2339657732991
 30
0.0
 41
1.0
 10
-21846.041002378224
 20
2411.233117405447
 30
0.0
 41
1.0
 10
-21846.040107962748
 20
2411.2322690375954
 30
0.0
 41
1.0
 10
-21845.974892962076
 20
2411.1704115322405
 30
0.0
 41
0.998558149137583
 10
-21845.916685350378
 20
2411.1019190419679
 30
0.0
 41
1.0
 10
-21845.907426896778
 20
2411.0910246842623
 30
0.0
 41
1.0
 10
-21845.898168443178
 20
2411.0801303265566
 30
0.0
 41
1.0
 10
-21845.821443924287
 20
2410.9898491208896
 30
0.0
 41
0.9970460233510547
 10
-21845.759452023132
 20
2410.888882036711
 30
0.0
 41
1.0
 10
-21845.744982658027
 20
2410.865315577591
 30
0.0
 41
1.0
 10
-21845.730513292925
 20
2410.8417491184705
 30
0.0
 41
1.0
 10
-21845.690776592932
 20
2410.7770293944614
 30
0.0
 41
0.9988468816657981
 10
-21845.6574302222
 20
2410.7087969420777
 30
0.0
 41
1.0
 10
-21845.6503941997
 20
2410.6944000209191
 30
0.0
 41
1.0
 10
-21845.643358177196
 20
2410.6800030997606
 30
0.0
 41
1.0
 10
-21845.624083851446
 20
2410.6405644896386
 30
0.0
 41
0.9998431190005721
 10
-21845.606218523953
 20
2410.6004679352095
 30
0.0
 41
1.0
 10
-21845.588353195875
 20
2410.5603713794676
 30
0.0
 41
0.9999989989831624
 10
-21845.570374471921
 20
2410.5203255406968
 30
0.0
 41
1.0
 10
-21845.564202160884
 20
2410.5065773251281
 30
0.0
 41
1.0
 10
-21845.558029849846
 20
2410.4928291095598
 30
0.0
 41
1.0
 10
-21845.527706503239
 20
2410.4252868383555
 30
0.0
 41
0.9998790356324758
 10
-21845.499498623099
 20
2410.3568340864103
 30
0.0
 41
1.0
 10
-21845.492663441808
 20
2410.3402469849661
 30
0.0
 41
1.0
 10
-21845.485828260516
 20
2410.3236598835224
 30
0.0
 41
1.0
 10
-21845.462270598149
 20
2410.2664919286663
 30
0.0
 41
0.9998227574567979
 10
-21845.440881849761
 20
2410.2084776203956
 30
0.0
 41
1.0
 10
-21845.41949310137
 20
2410.1504633121067
 30
0.0
 41
0.9996797971043673
 10
-21845.401066816412
 20
2410.091441192993
 30
0.0
 41
1.0
 10
-21845.397163013688
 20
2410.0789367348279
 30
0.0
 41
1.0
 10
-21845.393259210963
 20
2410.0664322766625
 30
0.0
 41
1.0
 10
-21845.367025320553
 20
2409.9824012412146
 30
0.0
 41
0.9979274938735254
 10
-21845.351800797074
 20
2409.8956968825601
 30
0.0
 41
1.0
 10
-21845.349577109806
 20
2409.8830328816975
 30
0.0
 41
1.0
 10
-21845.347353422538
 20
2409.8703688808346
 30
0.0
 41
1.0
 10
-21845.336423482848
 20
2409.8081223735799
 30
0.0
 41
0.9994985982141049
 10
-21845.329455317675
 20
2409.7453088724715
 30
0.0
 41
1.0
 10
-21845.322487152498
 20
2409.682495371324
 30
0.0
 41
0.9996372611202151
 10
-21845.318911286729
 20
2409.6193977926318
 30
0.0
 41
1.0
 10
-21845.318742709242
 20
2409.6164231755574
 30
0.0
 41
1.0
 10
-21845.31857413175
 20
2409.613448558483
 30
0.0
 41
1.0
 10
-21845.314661111006
 20
2409.5444017456607
 30
0.0
 41
0.9997730630733712
 10
-21845.313692797521
 20
2409.4752509216519
 30
0.0
 41
1.0
 10
-21845.313635691102
 20
2409.4711727424856
 30
0.0
 41
1.0
 10
-21845.313578584683
 20
2409.4670945633188
 30
0.0
 41
1.0
 10
-21845.312496058355
 20
2409.3897873810488
 30
0.0
 41
0.9998772614063519
 10
-21845.313836145087
 20
2409.3124842345333
 30
0.0
 41
1.0
 10
-21845.313925408285
 20
2409.30733507065
 30
0.0
 41
1.0
 10
-21845.314014671487
 20
2409.3021859067667
 30
0.0
 41
1.0
 10
-21845.315533284615
 20
2409.2145844325414
 30
0.0
 41
0.9999415567326179
 10
-21845.31894559486
 20
2409.1270362708774
 30
0.0
 41
1.0
 10
-21845.319186915534
 20
2409.1208448111302
 30
0.0
 41
1.0
 10
-21845.319428236209
 20
2409.1146533513829
 30
0.0
 41
1.0
 10
-21845.323323187804
 20
2409.0147222703054
 30
0.0
 41
0.9999716810424076
 10
-21845.328721770918
 20
2408.9148611321575
 30
0.0
 41
1.0
 10
-21845.331934569702
 20
2408.8554318825468
 30
0.0
 41
1.0
 10
-21845.335147368489
 20
2408.7960026329361
 30
0.0
 41
1.0
 10
-21845.34322127765
 20
2408.6466542315329
 30
0.0
 41
0.9999819129914119
 10
-21845.353091069272
 20
2408.4974137536969
 30
0.0
 41
1.0
 10
-21845.36296086089
 20
2408.3481732759856
 30
0.0
 41
1.0
 10
-21845.365400181454
 20
2408.3109802301365
 30
0.0
 41
1.0
 10
-21845.342701947127
 20
2408.3497212283073
 30
0.0
 41
0.9999982128218667
 10
-21845.319857387745
 20
2408.3883761233287
 30
0.0
 41
1.0
 10
-21845.29294782842
 20
2408.4339093364315
 30
0.0
 41
1.0
 10
-21845.266038269099
 20
2408.4794425495343
 30
0.0
 41
1.0
 10
-21845.189374590558
 20
2408.6091638716284
 30
0.0
 41
0.9998609190057691
 10
-21845.108427277693
 20
2408.7362562535604
 30
0.0
 41
1.0
 10
-21845.078778956155
 20
2408.7828059866079
 30
0.0
 41
1.0
 10
-21845.049130634616
 20
2408.8293557196548
 30
0.0
 41
1.0
 10
-21844.966858414464
 20
2408.9585282895137
 30
0.0
 41
0.9999067609735191
 10
-21844.881089405048
 20
2409.0854059788844
 30
0.0
 41
1.0
 10
-21844.878684701838
 20
2409.0889632449516
 30
0.0
 41
1.0
 10
-21844.876279998629
 20
2409.0925205110193
 30
0.0
 41
1.0
 10
-21844.795320395562
 20
2409.212283668357
 30
0.0
 41
0.9998784952151286
 10
-21844.710666785904
 20
2409.3294648850342
 30
0.0
 41
1.0
 10
-21844.626013176232
 20
2409.4466461017287
 30
0.0
 41
0.9998532968284741
 10
-21844.537395555399
 20
2409.5608590102147
 30
0.0
 41
1.0
 10
-21844.51743376641
 20
2409.5865863312301
 30
0.0
 41
1.0
 10
-21844.497471977422
 20
2409.6123136522451
 30
0.0
 41
1.0
 10
-21844.378987927666
 20
2409.7650192632109
 30
0.0
 41
0.9991551975797306
 10
-21844.248363478033
 20
2409.9074788253056
 30
0.0
 41
1.0
 10
-21844.244853862037
 20
2409.911306426945
 30
0.0
 41
1.0
 10
-21844.241344246046
 20
2409.9151340285848
 30
0.0
 41
1.0
 10
-21844.11773902841
 20
2410.0499383873885
 30
0.0
 41
0.9997418144180683
 10
-21843.988136888707
 20
2410.1789877980018
 30
0.0
 41
1.0
 10
-21843.858534749004
 20
2410.3080372086179
 30
0.0
 41
0.9989238204629419
 10
-21843.717532200735
 20
2410.4245221706697
 30
0.0
 41
1.0
 10
-21843.6722845226
 20
2410.4619021622757
 30
0.0
 41
1.0
 10
-21843.627036844464
 20
2410.4992821538813
 30
0.0
 41
1.0
 10
-21843.486796787238
 20
2410.6151372071718
 30
0.0
 41
0.9990825084099078
 10
-21843.33715685465
 20
2410.7185662049947
 30
0.0
 41
1.0
 10
-21843.327111490595
 20
2410.7255094180741
 30
0.0
 41
1.0
 10
-21843.317066126536
 20
2410.7324526311536
 30
0.0
 41
1.0
 10
-21843.187516922037
 20
2410.8219952028344
 30
0.0
 41
0.9998164899826058
 10
-21843.054632718671
 20
2410.906509444344
 30
0.0
 41
1.0
 10
-21843.04278715812
 20
2410.9140432108861
 30
0.0
 41
1.0
 10
-21843.030941597568
 20
2410.9215769774278
 30
0.0
 41
1.0
 10
-21842.921748515248
 20
2410.9910236858891
 30
0.0
 41
0.9997473449132887
 10
-21842.809544558047
 20
2411.0554926436762
 30
0.0
 41
1.0
 10
-21842.697340600742
 20
2411.1199616015228
 30
0.0
 41
0.9999327861145525
 10
-21842.583671990036
 20
2411.181811593171
 30
0.0
 41
1.0
 10
-21842.583119987474
 20
2411.1821119518513
 30
0.0
 41
1.0
 10
-21842.582567984911
 20
2411.1824123105316
 30
0.0
 41
1.0
 10
-21842.467795369073
 20
2411.2448630195468
 30
0.0
 41
0.9996956420484036
 10
-21842.350082043238
 20
2411.3015764865208
 30
0.0
 41
1.0
 10
-21842.319641638322
 20
2411.3162424632619
 30
0.0
 41
1.0
 10
-21842.289201233405
 20
2411.330908440003
 30
0.0
 41
1.0
 10
-21842.186224126672
 20
2411.3805220984445
 30
0.0
 41
0.9998070570174792
 10
-21842.081377737719
 20
2411.4260526853504
 30
0.0
 41
1.0
 10
-21841.976531348773
 20
2411.4715832722541
 30
0.0
 41
0.9997827436147047
 10
-21841.869878412232
 20
2411.5127044435376
 30
0.0
 41
1.0
 10
-21841.850655562568
 20
2411.5201160171828
 30
0.0
 41
1.0
 10
-21841.831432712905
 20
2411.527527590828
 30
0.0
 41
1.0
 10
-21841.686334077007
 20
2411.58347190941
 30
0.0
 41
0.9988031841984689
 10
-21841.536463714419
 20
2411.6249719735733
 30
0.0
 41
1.0
 10
-21841.51154646607
 20
2411.6318717193767
 30
0.0
 41
1.0
 10
-21841.486629217718
 20
2411.6387714651801
 30
0.0
 41
1.0
 10
-21841.319359192064
 20
2411.6850896075894
 30
0.0
 41
0.9984748040550007
 10
-21841.1480022834
 20
2411.7126838398581
 30
0.0
 41
1.0
 10
-21841.143263147154
 20
2411.7134470003712
 30
0.0
 41
1.0
 10
-21841.138524010912
 20
2411.7142101608838
 30
0.0
 41
1.0
 10
-21840.976645374743
 20
2411.7402780721218
 30
0.0
 41
0.9984436495486542
 10
-21840.812870631031
 20
2411.7481560259412
 30
0.0
 41
1.0
 10
-21840.791173422898
 20
2411.749199713141
 30
0.0
 41
1.0
 10
-21840.769476214766
 20
2411.7502434003409
 30
0.0
 41
1.0
 10
-21840.649095887311
 20
2411.7560339797606
 30
0.0
 41
0.998795478933362
 10
-21840.528727642395
 20
2411.7499974520179
 30
0.0
 41
1.0
 10
-21840.508762849906
 20
2411.7489962076797
 30
0.0
 41
1.0
 10
-21840.488798057417
 20
2411.7479949633412
 30
0.0
 41
1.0
 10
-21840.408359397523
 20
2411.7439609242806
 30
0.0
 41
0.9997941595871781
 10
-21840.328150619389
 20
2411.7366668583545
 30
0.0
 41
1.0
 10
-21840.247941841233
 20
2411.7293727924257
 30
0.0
 41
0.9998589466241028
 10
-21840.168023294427
 20
2411.7193889379814
 30
0.0
 41
1.0
 10
-21840.135617092626
 20
2411.7153405810632
 30
0.0
 41
1.0
 10
-21840.103210890826
 20
2411.7112922241449
 30
0.0
 41
1.0
 10
-21839.95847994036
 20
2411.6932116558587
 30
0.0
 41
0.9993495063246943
 10
-21839.81542869658
 20
2411.6647459461137
 30
0.0
 41
1.0
 10
-21839.782494999432
 20
2411.6581924829002
 30
0.0
 41
1.0
 10
-21839.749561302287
 20
2411.6516390196866
 30
0.0
 41
1.0
 10
-21839.64026747907
 20
2411.6298906855491
 30
0.0
 41
0.999678871555977
 10
-21839.532215907122
 20
2411.6026328861867
 30
0.0
 41
1.0
 10
-21839.53015290459
 20
2411.602112459615
 30
0.0
 41
1.0
 10
-21839.528089902054
 20
2411.6015920330433
 30
0.0
 41
1.0
 10
-21839.424164335167
 20
2411.5753750868216
 30
0.0
 41
0.9995480654499104
 10
-21839.322002099936
 20
2411.5429601301994
 30
0.0
 41
1.0
 10
-21839.320312457814
 20
2411.5424240252869
 30
0.0
 41
1.0
 10
-21839.318622815688
 20
2411.5418879203748
 30
0.0
 41
1.0
 10
-21839.21983986472
 20
2411.5105451735794
 30
0.0
 41
0.9993867959455167
 10
-21839.123492706265
 20
2411.4723658042849
 30
0.0
 41
1.0
 10
-21839.122249757176
 20
2411.4718732623869
 30
0.0
 41
1.0
 10
-21839.121006808087
 20
2411.4713807204885
 30
0.0
 41
1.0
 10
-21839.027145547803
 20
2411.4341864349863
 30
0.0
 41
0.9992050256522158
 10
-21838.936545872788
 20
2411.3896325357564
 30
0.0
 41
1.0
 10
-21838.935811190095
 20
2411.3892712433044
 30
0.0
 41
1.0
 10
-21838.935076507398
 20
2411.3889099508524
 30
0.0
 41
1.0
 10
-21838.845946197762
 20
2411.3450786365233
 30
0.0
 41
0.9990222350737698
 10
-21838.761036136362
 20
2411.2935453688197
 30
0.0
 41
1.0
 10
-21838.7608522511
 20
2411.2934337659281
 30
0.0
 41
1.0
 10
-21838.760668365841
 20
2411.2933221630369
 30
0.0
 41
1.0
 10
-21838.676126074992
 20
2411.2420121011423
 30
0.0
 41
0.9988642743790202
 10
-21838.596851540347
 20
2411.182887913596
 30
0.0
 41
1.0
 10
-21838.517577005729
 20
2411.123763726071
 30
0.0
 41
0.9987681233306468
 10
-21838.444553221445
 20
2411.057073034664
 30
0.0
 41
1.0
 10
-21838.444224293482
 20
2411.056772633453
 30
0.0
 41
1.0
 10
-21838.443895365519
 20
2411.0564722322415
 30
0.0
 41
1.0
 10
-21838.37021372532
 20
2410.9891807384188
 30
0.0
 41
0.998749657089822
 10
-21838.303619919989
 20
2410.9148679243249
 30
0.0
 41
1.0
 10
-21838.30284775023
 20
2410.9140062509678
 30
0.0
 41
1.0
 10
-21838.302075580468
 20
2410.9131445776102
 30
0.0
 41
1.0
 10
-21838.23393743562
 20
2410.837108416808
 30
0.0
 41
0.9988147669828097
 10
-21838.173515181403
 20
2410.7548074099764
 30
0.0
 41
1.0
 10
-21838.172395855319
 20
2410.7532827786181
 30
0.0
 41
1.0
 10
-21838.17127652924
 20
2410.7517581472603
 30
0.0
 41
1.0
 10
-21838.108615622863
 20
2410.666407877728
 30
0.0
 41
0.9989452636202794
 10
-21838.054048709906
 20
2410.5756691885717
 30
0.0
 41
1.0
 10
-21838.052699983815
 20
2410.5734264075372
 30
0.0
 41
1.0
 10
-21838.051351257724
 20
2410.5711836265027
 30
0.0
 41
1.0
 10
-21837.994086892602
 20
2410.4759593753192
 30
0.0
 41
0.9991046436059629
 10
-21837.945077679306
 20
2410.376234942335
 30
0.0
 41
1.0
 10
-21837.943613817697
 20
2410.3732562622286
 30
0.0
 41
1.0
 10
-21837.942149956092
 20
2410.3702775821221
 30
0.0
 41
1.0
 10
-21837.890213019582
 20
2410.2645957889354
 30
0.0
 41
0.9992763831098223
 10
-21837.846459891014
 20
2410.1552717269424
 30
0.0
 41
1.0
 10
-21837.844980621361
 20
2410.1515755394353
 30
0.0
 41
1.0
 10
-21837.843501351708
 20
2410.1478793519282
 30
0.0
 41
1.0
 10
-21837.796789683827
 20
2410.0311629149151
 30
0.0
 41
0.9994163472880769
 10
-21837.758156652639
 20
2409.9115293264595
 30
0.0
 41
1.0
 10
-21837.756918500374
 20
2409.9076951826164
 30
0.0
 41
1.0
 10
-21837.755680348109
 20
2409.9038610387729
 30
0.0
 41
1.0
 10
-21837.715796787106
 20
2409.7803549773375
 30
0.0
 41
0.9997268055889995
 10
-21837.681728731215
 20
2409.6551199454461
 30
0.0
 41
1.0
 10
-21837.680798550929
 20
2409.651700579283
 30
0.0
 41
1.0
 10
-21837.679868370647
 20
2409.6482812131194
 30
0.0
 41
1.0
 10
-21837.647660675291
 20
2409.5298849134383
 30
0.0
 41
0.9996701319001399
 10
-21837.621575058532
 20
2409.4099909602319
 30
0.0
 41
1.0
 10
-21837.595489441759
 20
2409.290097006975
 30
0.0
 41
0.9995785451106811
 10
-21837.57640586442
 20
2409.1688912459485
 30
0.0
 41
1.0
 10
-21837.572186082241
 20
2409.142090091148
 30
0.0
 41
1.0
 10
-21837.567966300063
 20
2409.1152889363475
 30
0.0
 41
1.0
 10
-21837.541391324135
 20
2408.9465029626713
 30
0.0
 41
0.9979925101230394
 10
-21837.536365738208
 20
2408.7757116346124
 30
0.0
 41
1.0
 10
-21837.535540925783
 20
2408.7476809110858
 30
0.0
 41
1.0
 10
-21837.534716113354
 20
2408.7196501875596
 30
0.0
 41
1.0
 10
-21837.53134015228
 20
2408.6049203064758
 30
0.0
 41
0.9995314902266889
 10
-21837.534990344418
 20
2408.4901988227684
 30
0.0
 41
1.0
 10
-21837.538640536561
 20
2408.3754773389946
 30
0.0
 41
0.9996245486947701
 10
-21837.54856963169
 20
2408.2611280678498
 30
0.0
 41
1.0
 10
-21837.548732679683
 20
2408.2592503117357
 30
0.0
 41
1.0
 10
-21837.548895727676
 20
2408.2573725556222
 30
0.0
 41
1.0
 10
-21837.559150918794
 20
2408.139267772262
 30
0.0
 41
0.9997286095005812
 10
-21837.574896242357
 20
2408.0217688634011
 30
0.0
 41
1.0
 10
-21837.57528973501
 20
2408.0188324386654
 30
0.0
 41
1.0
 10
-21837.575683227667
 20
2408.0158960139297
 30
0.0
 41
1.0
 10
-21837.592215536552
 20
2407.8925242555688
 30
0.0
 41
0.9998265533970366
 10
-21837.613330995297
 20
2407.7698537807214
 30
0.0
 41
1.0
 10
-21837.614007537421
 20
2407.7659234022749
 30
0.0
 41
1.0
 10
-21837.614684079548
 20
2407.7619930238279
 30
0.0
 41
1.0
 10
-21837.637152622545
 20
2407.6314617920839
 30
0.0
 41
0.9999022530853272
 10
-21837.663262087142
 20
2407.5016098235124
 30
0.0
 41
1.0
 10
-21837.664240728322
 20
2407.4967426810617
 30
0.0
 41
1.0
 10
-21837.665219369497
 20
2407.4918755386111
 30
0.0
 41
1.0
 10
-21837.693286116439
 20
2407.3522892851806
 30
0.0
 41
0.9999524761940103
 10
-21837.724069085281
 20
2407.213276791992
 30
0.0
 41
1.0
 10
-21837.725345192452
 20
2407.2075140327102
 30
0.0
 41
1.0
 10
-21837.726621299622
 20
2407.2017512734283
 30
0.0
 41
1.0
 10
-21837.759956482834
 20
2407.0512132615459
 30
0.0
 41
0.9999813588727554
 10
-21837.795127483649
 20
2406.9010935488218
 30
0.0
 41
1.0
 10
-21837.796681409083
 20
2406.8944609584905
 30
0.0
 41
1.0
 10
-21837.798235334518
 20
2406.8878283681588
 30
0.0
 41
1.0
 10
-21837.836514186274
 20
2406.724443474458
 30
0.0
 41
0.9999955237694292
 10
-21837.875770064282
 20
2406.561290570748
 30
0.0
 41
1.0
 10
-21837.88805169988
 20
2406.5102463803769
 30
0.0
 41
1.0
 10
-21837.900333335478
 20
2406.4592021900053
 30
0.0
 41
1.0
 10
-21837.964152484848
 20
2406.1939609048441
 30
0.0
 41
0.9999993604566047
 10
-21838.028571432071
 20
2405.9288646539439
 30
0.0
 41
1.0
 10
-21838.033290267529
 20
2405.9094457462661
 30
0.0
 41
1.0
 10
-21838.038009102987
 20
2405.8900268385883
 30
0.0
 41
1.0
 10
-21838.111865721286
 20
2405.5860927716749
 30
0.0
 41
0.9999659914719139
 10
-21838.190725317221
 20
2405.2834182249262
 30
0.0
 41
1.0
 10
-21838.195678006108
 20
2405.2644090879157
 30
0.0
 41
1.0
 10
-21838.200630694992
 20
2405.2453999509053
 30
0.0
 41
1.0
 10
-21838.289395668744
 20
2404.9047071299674
 30
0.0
 41
0.9999441976028697
 10
-21838.385338701719
 20
2404.5659657046281
 30
0.0
 41
1.0
 10
-21838.402039220135
 20
2404.50700199213
 30
0.0
 41
1.0
 10
-21838.418739738554
 20
2404.4480382796319
 30
0.0
 41
1.0
 10
-21838.548083808408
 20
2403.9913694291417
 30
0.0
 41
0.9999625120738883
 10
-21838.68531657576
 20
2403.5370088950499
 30
0.0
 41
1.0
 10
-21838.721106518849
 20
2403.4185128684016
 30
0.0
 41
1.0
 10
-21838.756896461939
 20
2403.3000168417534
 30
0.0
 41
1.0
 10
-21838.831416665947
 20
2403.0532897637599
 30
0.0
 41
0.9999793386307044
 10
-21838.909102689035
 20
2402.8075411246891
 30
0.0
 41
1.0
 10
-21838.986788712173
 20
2402.5617924854528
 30
0.0
 41
1.0
 10
-21838.997568271043
 20
2402.5277745810781
 30
0.0
 41
1.0
 10
-21840.847941324311
 20
2396.6407026586107
 30
0.0
 41
1.0
 10
-21842.698314377583
 20
2390.7536307361434
 30
0.0
 41
1.0
 10
-21843.659571067605
 20
2390.7536307361434
 30
0.0
 41
1.0
 10
-21844.62082775763
 20
2390.7536307361434
 30
0.0
 41
1.0
 10
-21843.001882978951
 20
2395.9016592379326
 30
0.0
 41
1.0
 10
-21841.382938200273
 20
2401.0496877397218
 30
0.0
 41
1.0
 10
-21841.337772376941
 20
2401.1937189624987
 30
0.0
 41
1.0
 10
-21841.292606553608
 20
2401.3377501852751
 30
0.0
 41
1.0
 10
-21841.122302136384
 20
2401.8808412139788
 30
0.0
 41
0.9999911657889551
 10
-21840.956569324881
 20
2402.4253447447882
 30
0.0
 41
1.0
 10
-21840.926873381359
 20
2402.5229086849058
 30
0.0
 41
1.0
 10
-21840.897177437841
 20
2402.620472625023
 30
0.0
 41
1.0
 10
-21840.790836513163
 20
2402.9698482762792
 30
0.0
 41
0.999995242810496
 10
-21840.686652923876
 20
2403.3198733005011
 30
0.0
 41
1.0
 10
-21840.681593453515
 20
2403.336871574872
 30
0.0
 41
1.0
 10
-21840.676533983155
 20
2403.3538698492434
 30
0.0
 41
1.0
 10
-21840.582469334509
 20
2403.6698983249867
 30
0.0
 41
0.9999931687527858
 10
-21840.490743496677
 20
2403.9866135381212
 30
0.0
 41
1.0
 10
-21840.485808232159
 20
2404.0036542476
 30
0.0
 41
1.0
 10
-21840.480872967637
 20
2404.0206949570793
 30
0.0
 41
1.0
 10
-21840.399017658729
 20
2404.3033287516528
 30
0.0
 41
0.9999893840794446
 10
-21840.319770432347
 20
2404.5867048806385
 30
0.0
 41
1.0
 10
-21840.240523205837
 20
2404.8700810100713
 30
0.0
 41
0.9999833980067701
 10
-21840.164546965047
 20
2405.1543515932781
 30
0.0
 41
1.0
 10
-21840.155543028384
 20
2405.1880404715339
 30
0.0
 41
1.0
 10
-21840.146539091722
 20
2405.2217293497902
 30
0.0
 41
1.0
 10
-21840.077574542847
 20
2405.4797651821327
 30
0.0
 41
0.9999233658070166
 10
-21840.015019571616
 20
2405.7394293408915
 30
0.0
 41
1.0
 10
-21839.952464600396
 20
2405.999093499614
 30
0.0
 41
1.0
 10
-21839.912981181536
 20
2406.1629001640399
 30
0.0
 41
1.0
 10
-21839.908002577526
 20
2406.1835551260497
 30
0.0
 41
1.0
 10
-21839.903023973515
 20
2406.2042100880594
 30
0.0
 41
1.0
 10
-21839.873497762645
 20
2406.3267068286177
 30
0.0
 41
0.9999868670875225
 10
-21839.845228678685
 20
2406.4494997741112
 30
0.0
 41
1.0
 10
-21839.841331191485
 20
2406.4664293617125
 30
0.0
 41
1.0
 10
-21839.837433704284
 20
2406.4833589493137
 30
0.0
 41
1.0
 10
-21839.816959594642
 20
2406.5722927199595
 30
0.0
 41
0.9999778173357757
 10
-21839.797671996574
 20
2406.6614913369872
 30
0.0
 41
1.0
 10
-21839.77838439848
 20
2406.7506899541199
 30
0.0
 41
0.9999602692862347
 10
-21839.760690039871
 20
2406.8402182424225
 30
0.0
 41
1.0
 10
-21839.757486207774
 20
2406.8564286974188
 30
0.0
 41
1.0
 10
-21839.754282375674
 20
2406.8726391524156
 30
0.0
 41
1.0
 10
-21839.730180352883
 20
2406.9945883506275
 30
0.0
 41
0.9995617985318716
 10
-21839.713337005662
 20
2407.1177500983526
 30
0.0
 41
1.0
 10
-21839.71087251576
 20
2407.1357709157155
 30
0.0
 41
1.0
 10
-21839.708408025854
 20
2407.1537917330788
 30
0.0
 41
1.0
 10
-21839.688124764805
 20
2407.3021067827635
 30
0.0
 41
0.9991121410628437
 10
-21839.68039941122
 20
2407.4516028815578
 30
0.0
 41
1.0
 10
-21839.679480621198
 20
2407.4693827181172
 30
0.0
 41
1.0
 10
-21839.678561831173
 20
2407.4871625546766
 30
0.0
 41
1.0
 10
-21839.672674057631
 20
2407.6010989803472
 30
0.0
 41
0.998979249491079
 10
-21839.677093149745
 20
2407.7151018162626
 30
0.0
 41
1.0
 10
-21839.677741121617
 20
2407.7318180622497
 30
0.0
 41
1.0
 10
-21839.678389093489
 20
2407.7485343082367
 30
0.0
 41
1.0
 10
-21839.681512241867
 20
2407.8291046522231
 30
0.0
 41
0.9997820295383953
 10
-21839.687996239241
 20
2407.9094743739051
 30
0.0
 41
1.0
 10
-21839.69448023662
 20
2407.9898440956849
 30
0.0
 41
0.9998335105973607
 10
-21839.703892432135
 20
2408.0699237121798
 30
0.0
 41
1.0
 10
-21839.705487356805
 20
2408.0834934426225
 30
0.0
 41
1.0
 10
-21839.707082281479
 20
2408.0970631730652
 30
0.0
 41
1.0
 10
-21839.719684326345
 20
2408.2042822504859
 30
0.0
 41
0.9996876457881807
 10
-21839.737628239145
 20
2408.3107376782109
 30
0.0
 41
1.0
 10
-21839.739859902293
 20
2408.3239774134545
 30
0.0
 41
1.0
 10
-21839.742091565437
 20
2408.3372171486976
 30
0.0
 41
1.0
 10
-21839.755887386855
 20
2408.4190632926466
 30
0.0
 41
0.9995547496490234
 10
-21839.77454070875
 20
2408.4999407898304
 30
0.0
 41
1.0
 10
-21839.774914665621
 20
2408.5015622005235
 30
0.0
 41
1.0
 10
-21839.775288622488
 20
2408.5031836112166
 30
0.0
 41
1.0
 10
-21839.793194030641
 20
2408.5808182870123
 30
0.0
 41
0.9994899427172594
 10
-21839.81601893932
 20
2408.6571515698561
 30
0.0
 41
1.0
 10
-21839.816477466047
 20
2408.6586850196054
 30
0.0
 41
1.0
 10
-21839.816935992778
 20
2408.6602184693547
 30
0.0
 41
1.0
 10
-21839.838843847989
 20
2408.7334848526507
 30
0.0
 41
0.9993784877595762
 10
-21839.865859483107
 20
2408.8050255578491
 30
0.0
 41
1.0
 10
-21839.866391174088
 20
2408.8064335405779
 30
0.0
 41
1.0
 10
-21839.866922865065
 20
2408.8078415233067
 30
0.0
 41
1.0
 10
-21839.89287511821
 20
2408.876566263008
 30
0.0
 41
0.9992430832243892
 10
-21839.924091653371
 20
2408.9430654150765
 30
0.0
 41
1.0
 10
-21839.924673769419
 20
2408.9443054701733
 30
0.0
 41
1.0
 10
-21839.925255885464
 20
2408.9455455252701
 30
0.0
 41
1.0
 10
-21839.955308188521
 20
2409.0095645671245
 30
0.0
 41
0.9990789632811583
 10
-21839.990738815308
 20
2409.0707711788946
 30
0.0
 41
1.0
 10
-21839.991334521488
 20
2409.0718002647527
 30
0.0
 41
1.0
 10
-21839.991930227672
 20
2409.0728293506113
 30
0.0
 41
1.0
 10
-21840.026169442084
 20
2409.1319777906442
 30
0.0
 41
0.9988874801126537
 10
-21840.065828718114
 20
2409.1876375030624
 30
0.0
 41
1.0
 10
-21840.066384244186
 20
2409.1884171547472
 30
0.0
 41
1.0
 10
-21840.066939770255
 20
2409.1891968064315
 30
0.0
 41
1.0
 10
-21840.105487994162
 20
2409.2432972154979
 30
0.0
 41
0.9986762060696861
 10
-21840.149390465423
 20
2409.2931509299192
 30
0.0
 41
1.0
 10
-21840.149834425742
 20
2409.2936550717195
 30
0.0
 41
1.0
 10
-21840.15027838606
 20
2409.2941592135194
 30
0.0
 41
1.0
 10
-21840.193292936692
 20
2409.3430046443518
 30
0.0
 41
0.9984621642480197
 10
-21840.241450493479
 20
2409.3867879448294
 30
0.0
 41
1.0
 10
-21840.241697127996
 20
2409.3870121769919
 30
0.0
 41
1.0
 10
-21840.24194376251
 20
2409.3872364091544
 30
0.0
 41
1.0
 10
-21840.289608050251
 20
2409.4305712452974
 30
0.0
 41
0.9982724693829366
 10
-21840.342026682098
 20
2409.4680155958181
 30
0.0
 41
1.0
 10
-21840.394445313948
 20
2409.5054599463415
 30
0.0
 41
0.9981399180150009
 10
-21840.451031377354
 20
2409.5362464657906
 30
0.0
 41
1.0
 10
-21840.451077039419
 20
2409.5362713089421
 30
0.0
 41
1.0
 10
-21840.451122701488
 20
2409.5362961520937
 30
0.0
 41
1.0
 10
-21840.507800089035
 20
2409.5671323578513
 30
0.0
 41
0.9980927086833672
 10
-21840.567845440106
 20
2409.5907491667044
 30
0.0
 41
1.0
 10
-21840.568285609817
 20
2409.5909222925793
 30
0.0
 41
1.0
 10
-21840.568725779529
 20
2409.5910954184542
 30
0.0
 41
1.0
 10
-21840.629651470008
 20
2409.6150584790503
 30
0.0
 41
0.9981411356582298
 10
-21840.693039991405
 20
2409.6314311205588
 30
0.0
 41
1.0
 10
-21840.693922108112
 20
2409.6316589627659
 30
0.0
 41
1.0
 10
-21840.694804224819
 20
2409.631886804973
 30
0.0
 41
1.0
 10
-21840.759956979629
 20
2409.6487151308902
 30
0.0
 41
0.9983031812942045
 10
-21840.826624408619
 20
2409.6578544920658
 30
0.0
 41
1.0
 10
-21840.835495434018
 20
2409.6590706107363
 30
0.0
 41
1.0
 10
-21840.844366459416
 20
2409.6602867294073
 30
0.0
 41
1.0
 10
-21840.89871610191
 20
2409.6677374593955
 30
0.0
 41
0.9983887708291761
 10
-21840.953559951224
 20
2409.6689821330328
 30
0.0
 41
1.0
 10
-21840.961623356445
 20
2409.6691651309075
 30
0.0
 41
1.0
 10
-21840.969686761662
 20
2409.6693481287825
 30
0.0
 41
1.0
 10
-21841.008403800548
 20
2409.6702268066651
 30
0.0
 41
0.9998869563083891
 10
-21841.047129753719
 20
2409.6699409373064
 30
0.0
 41
1.0
 10
-21841.085855706689
 20
2409.6696550679494
 30
0.0
 41
0.9999972320073739
 10
-21841.124579886244
 20
2409.6691869684164
 30
0.0
 41
1.0
 10
-21841.143932902767
 20
2409.6689530283275
 30
0.0
 41
1.0
 10
-21841.163285919291
 20
2409.6687190882385
 30
0.0
 41
1.0
 10
-21841.240716131648
 20
2409.6677831085308
 30
0.0
 41
0.9997304945087556
 10
-21841.318019437895
 20
2409.6632540147452
 30
0.0
 41
1.0
 10
-21841.327069079602
 20
2409.6627238087549
 30
0.0
 41
1.0
 10
-21841.336118721309
 20
2409.662193602765
 30
0.0
 41
1.0
 10
-21841.431521310958
 20
2409.6566040969983
 30
0.0
 41
0.9997888306417091
 10
-21841.526613646842
 20
2409.6470991325059
 30
0.0
 41
1.0
 10
-21841.535334708391
 20
2409.6462274178757
 30
0.0
 41
1.0
 10
-21841.54405576994
 20
2409.645355703246
 30
0.0
 41
1.0
 10
-21841.656590228944
 20
2409.6341073094927
 30
0.0
 41
0.9984170238181135
 10
-21841.767149376283
 20
2409.6102912275569
 30
0.0
 41
1.0
 10
-21841.803530507263
 20
2409.6024541917523
 30
0.0
 41
1.0
 10
-21841.839911638242
 20
2409.5946171559476
 30
0.0
 41
1.0
 10
-21841.955102706666
 20
2409.5698032894379
 30
0.0
 41
0.9976592854199601
 10
-21842.065830873082
 20
2409.5295046122878
 30
0.0
 41
1.0
 10
-21842.176559039508
 20
2409.4892059351323
 30
0.0
 41
0.9993255074350855
 10
-21842.284030838277
 20
2409.4408890366481
 30
0.0
 41
1.0
 10
-21842.288656017197
 20
2409.4388096604484
 30
0.0
 41
1.0
 10
-21842.293281196122
 20
2409.4367302842488
 30
0.0
 41
1.0
 10
-21842.410003352757
 20
2409.3842546333572
 30
0.0
 41
0.9976475078281198
 10
-21842.518450697073
 20
2409.3163066436982
 30
0.0
 41
1.0
 10
-21842.536793091203
 20
2409.3048141648865
 30
0.0
 41
1.0
 10
-21842.555135485334
 20
2409.2933216860747
 30
0.0
 41
1.0
 10
-21842.639337676908
 20
2409.2405645652902
 30
0.0
 41
0.9995131336408402
 10
-21842.720085391851
 20
2409.1826583533475
 30
0.0
 41
1.0
 10
-21842.800833106849
 20
2409.1247521413652
 30
0.0
 41
0.9995810107604869
 10
-21842.878094754589
 20
2409.0622704588868
 30
0.0
 41
1.0
 10
-21842.881064785775
 20
2409.0598685874429
 30
0.0
 41
1.0
 10
-21842.884034816958
 20
2409.0574667159995
 30
0.0
 41
1.0
 10
-21842.967236527107
 20
2408.9901812906055
 30
0.0
 41
0.9996617837953084
 10
-21843.046827214243
 20
2408.918660835046
 30
0.0
 41
1.0
 10
-21843.058957965128
 20
2408.907760102049
 30
0.0
 41
1.0
 10
-21843.071088716009
 20
2408.8968593690515
 30
0.0
 41
1.0
 10
-21843.139364243416
 20
2408.8355067535681
 30
0.0
 41
0.9997267750051712
 10
-21843.204697751677
 20
2408.7710302170649
 30
0.0
 41
1.0
 10
-21843.270031260043
 20
2408.7065536804571
 30
0.0
 41
0.9999667288954284
 10
-21843.334304203243
 20
2408.6410198735048
 30
0.0
 41
1.0
 10
-21843.40313165095
 20
2408.5708422148164
 30
0.0
 41
1.0
 10
-21843.471959098657
 20
2408.5006645561284
 30
0.0
 41
1.0
 10
-21843.673886937344
 20
2408.2947754317283
 30
0.0
 41
0.9988205335176937
 10
-21843.854892554311
 20
2408.0702711996842
 30
0.0
 41
1.0
 10
-21843.885532519227
 20
2408.0322679492406
 30
0.0
 41
1.0
 10
-21843.916172484143
 20
2407.994264698797
 30
0.0
 41
1.0
 10
-21844.158458030932
 20
2407.6937539658757
 30
0.0
 41
0.9997077826754449
 10
-21844.385935982038
 20
2407.3818841716588
 30
0.0
 41
1.0
 10
-21844.387659397165
 20
2407.37952138828
 30
0.0
 41
1.0
 10
-21844.389382812296
 20
2407.3771586049011
 30
0.0
 41
1.0
 10
-21844.620307593646
 20
2407.060563243951
 30
0.0
 41
0.9989147567078617
 10
-21844.820771096522
 20
2406.723853782783
 30
0.0
 41
1.0
 10
-21844.845512241882
 20
2406.68229720214
 30
0.0
 41
1.0
 10
-21844.870253387242
 20
2406.6407406214971
 30
0.0
 41
1.0
 10
-21845.025464685834
 20
2406.3800392371231
 30
0.0
 41
0.9997476598179702
 10
-21845.168809673309
 20
2406.1126294886012
 30
0.0
 41
1.0
 10
-21845.312154660827
 20
2405.845219740002
 30
0.0
 41
0.9996258967109801
 10
-21845.440662912781
 20
2405.5703718033342
 30
0.0
 41
1.0
 10
-21845.453862822214
 20
2405.5421404032668
 30
0.0
 41
1.0
 10
-21845.467062731652
 20
2405.5139090031994
 30
0.0
 41
1.0
 10
-21845.607271452642
 20
2405.2140366052627
 30
0.0
 41
0.9998735413947573
 10
-21845.737872799371
 20
2404.9098570057822
 30
0.0
 41
1.0
 10
-21845.741315627431
 20
2404.90183842032
 30
0.0
 41
1.0
 10
-21845.74475845549
 20
2404.8938198348578
 30
0.0
 41
1.0
 10
-21845.868474146093
 20
2404.6056774063009
 30
0.0
 41
0.9999377418862898
 10
-21845.985728948264
 20
2404.3148459386393
 30
0.0
 41
1.0
 10
-21846.102983750436
 20
2404.0240144709687
 30
0.0
 41
0.9999508299509123
 10
-21846.214447693805
 20
2403.730914794171
 30
0.0
 41
1.0
 10
-21846.217528462475
 20
2403.7228137681927
 30
0.0
 41
1.0
 10
-21846.220609231143
 20
2403.7147127422145
 30
0.0
 41
1.0
 10
-21846.338234711868
 20
2403.4054110134043
 30
0.0
 41
0.9999609228429491
 10
-21846.450373314739
 20
2403.0940779973921
 30
0.0
 41
1.0
 10
-21846.453329325079
 20
2403.0858711570118
 30
0.0
 41
1.0
 10
-21846.456285335418
 20
2403.0776643166309
 30
0.0
 41
1.0
 10
-21846.574335959016
 20
2402.7499176197293
 30
0.0
 41
0.9999674607400421
 10
-21846.6870834851
 20
2402.4203089996804
 30
0.0
 41
1.0
 10
-21846.738481875647
 20
2402.2700498040322
 30
0.0
 41
1.0
 10
-21846.789880266195
 20
2402.1197906083839
 30
0.0
 41
1.0
 10
-21846.905890872946
 20
2401.7806426259031
 30
0.0
 41
0.9999287532309606
 10
-21847.013772276914
 20
2401.438821886939
 30
0.0
 41
1.0
 10
-21847.060249532849
 20
2401.291559343209
 30
0.0
 41
1.0
 10
-21847.106726788788
 20
2401.144296799479
 30
0.0
 41
1.0
 10
-21847.12165368069
 20
2401.0970011485815
 30
0.0
 41
0.9999998223236959
 10
-21847.136524189613
 20
2401.0496877397218
 30
0.0
 41
1.0
 10
-21848.757180326407
 20
2395.9016592379326
 30
0.0
 41
1.0
 10
-21850.377836463205
 20
2390.7536307361434
 30
0.0
 41
1.0
 10
-21851.283144907095
 20
2390.7536307361434
 30
0.0
 41
1.0
 10
-21852.188453350987
 20
2390.7536307361434
 30
0.0
 41
1.0
 10
-21850.336368939599
 20
2396.6407026586107
 30
0.0
 41
1.0
 10
-21848.484284528215
 20
2402.5277745810781
 30
0.0
 41
1.0
 10
-21848.474162769911
 20
2402.5598177945276
 30
0.0
 41
1.0
 10
-21848.40155510106
 20
2402.7901173363534
 30
0.0
 41
1.0
 10
-21848.328947432172
 20
2403.0204168782993
 30
0.0
 41
0.9999825681966527
 10
-21848.259064392947
 20
2403.251557773418
 30
0.0
 41
1.0
 10
-21848.210773330778
 20
2403.4112823569476
 30
0.0
 41
1.0
 10
-21848.162482268606
 20
2403.5710069404768
 30
0.0
 41
1.0
 10
-21848.065329915327
 20
2403.8923421621284
 30
0.0
 41
0.9999672528960084
 10
-21847.973391109743
 20
2404.2152077075943
 30
0.0
 41
1.0
 10
-21847.970602226178
 20
2404.2250015526156
 30
0.0
 41
1.0
 10
-21847.967813342613
 20
2404.2347953976368
 30
0.0
 41
1.0
 10
-21847.881452304231
 20
2404.5380732527883
 30
0.0
 41
0.9999899749128223
 10
-21847.797810694581
 20
2404.8421123416329
 30
0.0
 41
1.0
 10
-21847.787704775583
 20
2404.8788475792453
 30
0.0
 41
1.0
 10
-21847.777598856581
 20
2404.9155828168578
 30
0.0
 41
1.0
 10
-21847.714169085062
 20
2405.1461514300267
 30
0.0
 41
0.999921420050463
 10
-21847.656539656669
 20
2405.3782377722946
 30
0.0
 41
1.0
 10
-21847.643773804539
 20
2405.4296486574876
 30
0.0
 41
1.0
 10
-21847.631007952408
 20
2405.4810595426807
 30
0.0
 41
1.0
 10
-21847.598910228349
 20
2405.6103241142637
 30
0.0
 41
0.9999828681663042
 10
-21847.568327976296
 20
2405.7399555889715
 30
0.0
 41
1.0
 10
-21847.537745724305
 20
2405.8695870634269
 30
0.0
 41
0.9999389844478182
 10
-21847.510034735511
 20
2405.9998625193416
 30
0.0
 41
1.0
 10
-21847.502896991791
 20
2406.0334186231776
 30
0.0
 41
1.0
 10
-21847.495759248071
 20
2406.066974727014
 30
0.0
 41
1.0
 10
-21847.453772771838
 20
2406.264362390601
 30
0.0
 41
0.9998933699443151
 10
-21847.417568507437
 20
2406.4628919983488
 30
0.0
 41
1.0
 10
-21847.416195682221
 20
2406.4704200190449
 30
0.0
 41
1.0
 10
-21847.414822857005
 20
2406.477948039741
 30
0.0
 41
1.0
 10
-21847.375872942168
 20
2406.6915336889056
 30
0.0
 41
0.9996850305195092
 10
-21847.347689265909
 20
2406.906804694358
 30
0.0
 41
1.0
 10
-21847.345694232547
 20
2406.9220430484297
 30
0.0
 41
1.0
 10
-21847.343699199184
 20
2406.9372814025014
 30
0.0
 41
1.0
 10
-21847.31629133672
 20
2407.1466266296911
 30
0.0
 41
0.9994697936708992
 10
-21847.302566777496
 20
2407.3573118250583
 30
0.0
 41
1.0
 10
-21847.302089708246
 20
2407.3646352972587
 30
0.0
 41
1.0
 10
-21847.301612638999
 20
2407.3719587694591
 30
0.0
 41
1.0
 10
-21847.288842218277
 20
2407.5679970203787
 30
0.0
 41
0.9991804893138497
 10
-21847.291970534548
 20
2407.7644258703626
 30
0.0
 41
1.0
 10
-21847.29205441337
 20
2407.7696926717636
 30
0.0
 41
1.0
 10
-21847.292138292192
 20
2407.7749594731649
 30
0.0
 41
1.0
 10
-21847.295098850824
 20
2407.9608547203243
 30
0.0
 41
0.9988448329327344
 10
-21847.315890396447
 20
2408.1456073101695
 30
0.0
 41
1.0
 10
-21847.31748447015
 20
2408.1597721659291
 30
0.0
 41
1.0
 10
-21847.319078543849
 20
2408.1739370216887
 30
0.0
 41
1.0
 10
-21847.33668194207
 20
2408.3303598999883
 30
0.0
 41
0.9985503209460871
 10
-21847.37099821437
 20
2408.4839840840923
 30
0.0
 41
1.0
 10
-21847.378584206446
 20
2408.517944411522
 30
0.0
 41
1.0
 10
-21847.386170198526
 20
2408.5519047389521
 30
0.0
 41
1.0
 10
-21847.405314486678
 20
2408.6376082682118
 30
0.0
 41
0.9991036781368077
 10
-21847.43163934832
 20
2408.7213853555063
 30
0.0
 41
1.0
 10
-21847.435621573793
 20
2408.7340585180773
 30
0.0
 41
1.0
 10
-21847.43960379927
 20
2408.7467316806478
 30
0.0
 41
1.0
 10
-21847.457964209985
 20
2408.805162442874
 30
0.0
 41
0.9998874504363468
 10
-21847.478069417652
 20
2408.8630160450548
 30
0.0
 41
1.0
 10
-21847.498174625329
 20
2408.9208696472765
 30
0.0
 41
0.9994041637548133
 10
-21847.522223238255
 20
2408.9771983511532
 30
0.0
 41
1.0
 10
-21847.526420022485
 20
2408.9870284156495
 30
0.0
 41
1.0
 10
-21847.530616806715
 20
2408.9968584801463
 30
0.0
 41
1.0
 10
-21847.55849563771
 20
2409.0621586461029
 30
0.0
 41
0.9991846840710418
 10
-21847.591551994399
 20
2409.1249966773789
 30
0.0
 41
1.0
 10
-21847.592688600795
 20
2409.1271572938367
 30
0.0
 41
1.0
 10
-21847.593825207194
 20
2409.129317910295
 30
0.0
 41
1.0
 10
-21847.624608351092
 20
2409.1878347086595
 30
0.0
 41
0.9989253167923092
 10
-21847.660677775144
 20
2409.2432496370493
 30
0.0
 41
1.0
 10
-21847.661731899811
 20
2409.2448691318
 30
0.0
 41
1.0
 10
-21847.662786024477
 20
2409.2464886265507
 30
0.0
 41
1.0
 10
-21847.696747199192
 20
2409.2986645654287
 30
0.0
 41
0.9986467172839605
 10
-21847.735944351836
 20
2409.3470305990695
 30
0.0
 41
1.0
 10
-21847.736818480538
 20
2409.3481092013485
 30
0.0
 41
1.0
 10
-21847.73769260924
 20
2409.3491878036275
 30
0.0
 41
1.0
 10
-21847.775141504473
 20
2409.3953966326962
 30
0.0
 41
0.9984001104265852
 10
-21847.817568234994
 20
2409.4370817400677
 30
0.0
 41
1.0
 10
-21847.818155373116
 20
2409.4376586149619
 30
0.0
 41
1.0
 10
-21847.818742511237
 20
2409.4382354898557
 30
0.0
 41
1.0
 10
-21847.859994965525
 20
2409.4787668474505
 30
0.0
 41
0.9982442159084682
 10
-21847.905751066846
 20
2409.5141354086963
 30
0.0
 41
1.0
 10
-21847.905965862315
 20
2409.514301441347
 30
0.0
 41
1.0
 10
-21847.906180657788
 20
2409.5144674739977
 30
0.0
 41
1.0
 10
-21847.951507168185
 20
2409.5495039699608
 30
0.0
 41
0.998245006082473
 10
-21848.000658147255
 20
2409.5789357529902
 30
0.0
 41
1.0
 10
-21848.049809126325
 20
2409.6083675360237
 30
0.0
 41
0.9983922639634572
 10
-21848.101975432488
 20
2409.6320471706786
 30
0.0
 41
1.0
 10
-21848.102202309812
 20
2409.6321501561597
 30
0.0
 41
1.0
 10
-21848.102429187136
 20
2409.6322531416408
 30
0.0
 41
1.0
 10
-21848.155049247944
 20
2409.6561387472539
 30
0.0
 41
0.9986517147160376
 10
-21848.209862220825
 20
2409.6744398663818
 30
0.0
 41
1.0
 10
-21848.210540142252
 20
2409.6746662128121
 30
0.0
 41
1.0
 10
-21848.211218063676
 20
2409.6748925592424
 30
0.0
 41
1.0
 10
-21848.267386879408
 20
2409.6936463712314
 30
0.0
 41
0.998943559894493
 10
-21848.325040266547
 20
2409.7071640734607
 30
0.0
 41
1.0
 10
-21848.326120386133
 20
2409.7074173237143
 30
0.0
 41
1.0
 10
-21848.327200505715
 20
2409.7076705739678
 30
0.0
 41
1.0
 10
-21848.387014132044
 20
2409.7216947767124
 30
0.0
 41
0.9992249241233883
 10
-21848.447745640919
 20
2409.7309701194226
 30
0.0
 41
1.0
 10
-21848.449159329211
 20
2409.731186027831
 30
0.0
 41
1.0
 10
-21848.450573017508
 20
2409.7314019362393
 30
0.0
 41
1.0
 10
-21848.514131902986
 20
2409.7411090957694
 30
0.0
 41
0.9994396597836578
 10
-21848.578197839521
 20
2409.7465420181152
 30
0.0
 41
1.0
 10
-21848.597338507003
 20
2409.7481651858338
 30
0.0
 41
1.0
 10
-21848.616479174481
 20
2409.7497883535525
 30
0.0
 41
1.0
 10
-21848.718826445987
 20
2409.7584676113356
 30
0.0
 41
0.9987693403122396
 10
-21848.821530069559
 20
2409.7569645478829
 30
0.0
 41
1.0
 10
-21848.831784403796
 20
2409.756814476109
 30
0.0
 41
1.0
 10
-21848.842038738028
 20
2409.7566644043345
 30
0.0
 41
1.0
 10
-21848.951594504208
 20
2409.755061060046
 30
0.0
 41
0.9989753644967397
 10
-21849.06055650421
 20
2409.7435580531223
 30
0.0
 41
1.0
 10
-21849.169518504241
 20
2409.7320550461964
 30
0.0
 41
0.9983190067298816
 10
-21849.276417315185
 20
2409.7080200544119
 30
0.0
 41
1.0
 10
-21849.285318266797
 20
2409.7060187758484
 30
0.0
 41
1.0
 10
-21849.294219218405
 20
2409.7040174972849
 30
0.0
 41
1.0
 10
-21849.418919932581
 20
2409.6759799483734
 30
0.0
 41
0.998553938830674
 10
-21849.539889686264
 20
2409.6347162723268
 30
0.0
 41
1.0
 10
-21849.542235117224
 20
2409.6339162285112
 30
0.0
 41
1.0
 10
-21849.544580548183
 20
2409.6331161846956
 30
0.0
 41
1.0
 10
-21849.670241163767
 20
2409.5902524210246
 30
0.0
 41
0.9988468746490687
 10
-21849.79121150609
 20
2409.5355343359515
 30
0.0
 41
1.0
 10
-21849.794394328073
 20
2409.5340946613937
 30
0.0
 41
1.0
 10
-21849.797577150057
 20
2409.532654986836
 30
0.0
 41
1.0
 10
-21849.924913136358
 20
2409.4750575526446
 30
0.0
 41
0.999132288591174
 10
-21850.047013720421
 20
2409.4070622204558
 30
0.0
 41
1.0
 10
-21850.064615731462
 20
2409.3972600184679
 30
0.0
 41
1.0
 10
-21850.082217742503
 20
2409.3874578164805
 30
0.0
 41
1.0
 10
-21850.184394423566
 20
2409.3305577006977
 30
0.0
 41
0.9993860037844773
 10
-21850.282335427612
 20
2409.266641685123
 30
0.0
 41
1.0
 10
-21850.28795374043
 20
2409.2629751904497
 30
0.0
 41
1.0
 10
-21850.293572053251
 20
2409.2593086957763
 30
0.0
 41
1.0
 10
-21850.380276431624
 20
2409.2027256695751
 30
0.0
 41
0.9998821494956627
 10
-21850.4652028075
 20
2409.1435074394576
 30
0.0
 41
1.0
 10
-21850.550129183295
 20
2409.0842892093924
 30
0.0
 41
0.999797648274413
 10
-21850.632604813669
 20
2409.0217028013726
 30
0.0
 41
1.0
 10
-21850.647241078495
 20
2409.010596111576
 30
0.0
 41
1.0
 10
-21850.661877343322
 20
2408.9994894217798
 30
0.0
 41
1.0
 10
-21850.773625503371
 20
2408.9146896341531
 30
0.0
 41
0.9998091630798585
 10
-21850.881975781424
 20
2408.82558928343
 30
0.0
 41
1.0
 10
-21850.894981533871
 20
2408.8148941830073
 30
0.0
 41
1.0
 10
-21850.907987286322
 20
2408.8041990825845
 30
0.0
 41
1.0
 10
-21851.042349069321
 20
2408.6937085309778
 30
0.0
 41
0.9995035112316503
 10
-21851.169484947066
 20
2408.5749747139766
 30
0.0
 41
1.0
 10
-21851.179132257439
 20
2408.5659649678319
 30
0.0
 41
1.0
 10
-21851.188779567812
 20
2408.5569552216875
 30
0.0
 41
1.0
 10
-21851.312202630583
 20
2408.4416888499227
 30
0.0
 41
0.9994630424303672
 10
-21851.427811036388
 20
2408.3185861066695
 30
0.0
 41
1.0
 10
-21851.431493875163
 20
2408.3146645271518
 30
0.0
 41
1.0
 10
-21851.435176713941
 20
2408.310742947634
 30
0.0
 41
1.0
 10
-21851.54341944218
 20
2408.1954833634259
 30
0.0
 41
0.9995160693748466
 10
-21851.644285471702
 20
2408.0737159455616
 30
0.0
 41
1.0
 10
-21851.646219191789
 20
2408.0713815213485
 30
0.0
 41
1.0
 10
-21851.648152911872
 20
2408.0690470971358
 30
0.0
 41
1.0
 10
-21851.745151501233
 20
2407.9519485276924
 30
0.0
 41
0.9996561470515338
 10
-21851.835877719903
 20
2407.8299257652398
 30
0.0
 41
1.0
 10
-21851.842035385806
 20
2407.8216439761968
 30
0.0
 41
1.0
 10
-21851.848193051708
 20
2407.8133621871539
 30
0.0
 41
1.0
 10
-21851.92660393858
 20
2407.7079030027767
 30
0.0
 41
0.999834905517242
 10
-21852.001131220502
 20
2407.5996644191273
 30
0.0
 41
1.0
 10
-21852.075658502494
 20
2407.4914258353715
 30
0.0
 41
0.9999728109563081
 10
-21852.14858139852
 20
2407.3820999096392
 30
0.0
 41
1.0
 10
-21852.149896613842
 20
2407.3801281402712
 30
0.0
 41
1.0
 10
-21852.151211829165
 20
2407.3781563709035
 30
0.0
 41
1.0
 10
-21852.22676515573
 20
2407.2648869066006
 30
0.0
 41
0.999997214740175
 10
-21852.301782965995
 20
2407.1512620639346
 30
0.0
 41
1.0
 10
-21852.306754508758
 20
2407.1437319752486
 30
0.0
 41
1.0
 10
-21852.311726051521
 20
2407.136201886563
 30
0.0
 41
1.0
 10
-21852.396686947148
 20
2407.0075168667654
 30
0.0
 41
0.9999371979004196
 10
-21852.478742296586
 20
2406.8769599529369
 30
0.0
 41
1.0
 10
-21852.482251180925
 20
2406.871377024906
 30
0.0
 41
1.0
 10
-21852.485760065265
 20
2406.8657940968747
 30
0.0
 41
1.0
 10
-21852.574833183342
 20
2406.7240713270467
 30
0.0
 41
0.9998272025614597
 10
-21852.658576574169
 20
2406.5791354504095
 30
0.0
 41
1.0
 10
-21852.673791746245
 20
2406.5528023358602
 30
0.0
 41
1.0
 10
-21852.689006918325
 20
2406.5264692213104
 30
0.0
 41
1.0
 10
-21852.803180653285
 20
2406.3288671155997
 30
0.0
 41
0.9995217214836569
 10
-21852.904920342855
 20
2406.1245847877062
 30
0.0
 41
1.0
 10
-21852.912563905447
 20
2406.1092373380948
 30
0.0
 41
1.0
 10
-21852.920207468036
 20
2406.0938898884833
 30
0.0
 41
1.0
 10
-21853.007112760653
 20
2405.9193934303444
 30
0.0
 41
0.999826976260832
 10
-21853.087467226942
 20
2405.7417851435812
 30
0.0
 41
1.0
 10
-21853.167821693231
 20
2405.5641768568298
 30
0.0
 41
0.9998944747386055
 10
-21853.242982487816
 20
2405.3843091311446
 30
0.0
 41
1.0
 10
-21853.247936157368
 20
2405.3724544763209
 30
0.0
 41
1.0
 10
-21853.252889826919
 20
2405.3605998214966
 30
0.0
 41
1.0
 10
-21853.333536887501
 20
2405.1676028814031
 30
0.0
 41
0.9999506734412158
 10
-21853.410334416418
 20
2404.9730420765181
 30
0.0
 41
1.0
 10
-21853.42493438179
 20
2404.9360541544575
 30
0.0
 41
1.0
 10
-21853.439534347162
 20
2404.8990662323968
 30
0.0
 41
1.0
 10
-21853.487131945403
 20
2404.7784812714563
 30
0.0
 41
0.99999123939404
 10
-21853.533718389343
 20
2404.6575020689666
 30
0.0
 41
1.0
 10
-21853.580304833467
 20
2404.536522866013
 30
0.0
 41
0.9999927113940769
 10
-21853.625966127984
 20
2404.415191458173
 30
0.0
 41
1.0
 10
-21853.639934559269
 20
2404.3780744764717
 30
0.0
 41
1.0
 10
-21853.653902990554
 20
2404.3409574947709
 30
0.0
 41
1.0
 10
-21853.727501147732
 20
2404.1453921233124
 30
0.0
 41
0.9999487550950548
 10
-21853.797124772696
 20
2403.9483767581414
 30
0.0
 41
1.0
 10
-21853.82071838262
 20
2403.8816134478875
 30
0.0
 41
1.0
 10
-21853.844311992543
 20
2403.8148501376331
 30
0.0
 41
1.0
 10
-21853.938997626938
 20
2403.5469163027465
 30
0.0
 41
0.9999808436948797
 10
-21854.030359215605
 20
2403.2778308714137
 30
0.0
 41
1.0
 10
-21854.121720804324
 20
2403.008745439909
 30
0.0
 41
0.9999873932896048
 10
-21854.210375513139
 20
2402.7387560846014
 30
0.0
 41
1.0
 10
-21854.230467869922
 20
2402.6775667521156
 30
0.0
 41
1.0
 10
-21854.250560226701
 20
2402.6163774196298
 30
0.0
 41
1.0
 10
-21854.379399649093
 20
2402.2240093993132
 30
0.0
 41
0.9999794883033562
 10
-21854.503202434018
 20
2401.830023193153
 30
0.0
 41
1.0
 10
-21854.514354693616
 20
2401.7945325824026
 30
0.0
 41
1.0
 10
-21854.525506953214
 20
2401.7590419716521
 30
0.0
 41
1.0
 10
-21854.668065117006
 20
2401.3053692199019
 30
0.0
 41
0.9999982761678243
 10
-21854.808937556903
 20
2400.8511701981497
 30
0.0
 41
1.0
 10
-21856.397077889476
 20
2395.8024004671465
 30
0.0
 41
1.0
 10
-21857.985218222049
 20
2390.7536307361434
 30
0.0
 41
1.0
 10
-21858.933968833524
 20
2390.7536307361434
 30
0.0
 41
1.0
 10
-21859.882719445002
 20
2390.7536307361434
 30
0.0
 41
1.0
 10
-21856.644434958849
 20
2401.0809529360895
 30
0.0
 41
1.0
 10
-21853.406150472696
 20
2411.4082751360356
 30
0.0
 41
1.0
  0
LWPOLYLINE
  5
66
100
AcDbEntity
  8
0
370
              15
390
0
  6
Continuous
 62
               7
100
AcDbPolyline
 90
      232
 70
             128
 10
-21879.109696246524
 20
2410.32393230452
 42
0.0004370800663224
 10
-21879.162573420097
 20
2410.25526566591
 10
-21879.201857651722
 20
2410.2041585523675
 42
0.0030481992138132
 10
-21879.332196369
 20
2410.0324368598126
 10
-21879.370708040591
 20
2409.9810500762351
 42
0.004205824577946
 10
-21879.574693091341
 20
2409.7040443310498
 10
-21879.627098213761
 20
2409.6316114843808
 42
0.0120948898762251
 10
-21879.92314213053
 20
2409.2008618798181
 10
-21880.019334629662
 20
2409.0533811445785
 42
0.0141601263958327
 10
-21880.322978676566
 20
2408.5577118078713
 10
-21880.362515944049
 20
2408.4888678403395
 42
0.0071131081327703
 10
-21880.567788267232
 20
2408.1193650416017
 42
0.0068458790987045
 10
-21880.762667793995
 20
2407.7442734782853
 10
-21880.769479656534
 20
2407.7307117644018
 42
0.0064120880257597
 10
-21880.967621906573
 20
2407.3232872894987
 10
-21880.975156592096
 20
2407.3072754327618
 42
0.005885723642002
 10
-21881.177911983963
 20
2406.8628993217349
 10
-21881.18608691026
 20
2406.8444091680926
 42
0.0053189741918833
 10
-21881.394791223007
 20
2406.3584456939866
 10
-21881.403539028608
 20
2406.3374638159785
 42
0.0047503650455729
 10
-21881.619512754769
 20
2405.80526438274
 10
-21881.628781003106
 20
2405.7817880066609
 42
0.0042071762175448
 10
-21881.853328386835
 20
2405.1986944125988
 10
-21881.863077789185
 20
2405.1727282377215
 42
0.0036680086517138
 10
-21882.097532432526
 20
2404.5340928531036
 10
-21882.107740212345
 20
2404.505644318846
 42
0.0032573142622161
 10
-21882.353372498274
 20
2403.8067916591999
 10
-21882.422023019175
 20
2403.6073285749758
 42
0.0026133366650598
 10
-21882.77046821791
 20
2402.5774652913678
 10
-21882.833725005308
 20
2402.3872344562837
 42
0.0020592950749741
 10
-21883.047588074376
 20
2401.7351308033612
 10
-21883.050639865556
 20
2401.7256943149036
 42
0.0025609928559939
 10
-21883.252460367024
 20
2401.0905490925861
 10
-21883.255051734282
 20
2401.0822467512248
 42
0.0031362356280499
 10
-21883.444542519828
 20
2400.4614838954658
 10
-21883.446673562754
 20
2400.4543425892584
 42
0.0037229918055844
 10
-21883.623473949683
 20
2399.8453572872804
 10
-21883.62515253888
 20
2399.8394103971414
 42
0.0043077623676643
 10
-21883.788893340956
 20
2399.2395916653372
 42
0.0047654161847528
 10
-21883.941722063595
 20
2398.6369055759269
 10
-21883.976186672309
 20
2398.4953437992849
 42
0.0112969368435117
 10
-21884.172051030448
 20
2397.6036516386894
 10
-21884.200057419548
 20
2397.460823592563
 42
0.0130056762594649
 10
-21884.400894663195
 20
2396.2738825209181
 10
-21884.421434413372
 20
2396.1298044072314
 42
0.0138721532177419
 10
-21884.525137417881
 20
2395.2229749216153
 10
-21884.544432905797
 20
2394.9994771995694
 42
0.0071254697022638
 10
-21884.577779551713
 20
2394.5362901908429
 10
-21884.582740525875
 20
2394.450286196321
 42
0.0028881799172492
 10
-21884.597878819164
 20
2394.1585444864404
 42
0.0060297297161606
 10
-21884.607811018948
 20
2393.8665955501947
 10
-21884.608873300607
 20
2393.8182031784791
 42
0.0229523164072881
 10
-21884.601142272822
 20
2393.4954483321089
 10
-21884.596916499304
 20
2393.4350447981083
 42
0.0123673300676258
 10
-21884.577837852783
 20
2393.2339240729179
 42
0.0128577674403073
 10
-21884.548642462389
 20
2393.0340262230698
 10
-21884.54151658899
 20
2392.9926974083937
 42
0.028571785379996
 10
-21884.477022587304
 20
2392.7145812571166
 10
-21884.46335406362
 20
2392.6679264875806
 42
0.0316283099179607
 10
-21884.347543483716
 20
2392.3489119857777
 10
-21884.344494791963
 20
2392.3419256134553
 42
0.0338984824218034
 10
-21884.195063080992
 20
2392.054359649263
 10
-21884.192754351632
 20
2392.0505686200017
 42
0.0350228718252595
 10
-21884.010394060948
 20
2391.79351663531
 10
-21884.009508809173
 20
2391.7924375575458
 42
0.0347476747494686
 10
-21883.795084121935
 20
2391.565252510326
 42
0.0331337701928184
 10
-21883.551840796194
 20
2391.3691238482543
 10
-21883.550740697669
 20
2391.3683511450763
 42
0.0305233319174508
 10
-21883.282196002074
 20
2391.203222974973
 10
-21883.278965957594
 20
2391.201498963122
 42
0.027374448121672
 10
-21882.986412246009
 20
2391.065360819226
 10
-21882.981307710885
 20
2391.0633172347621
 42
0.0240964406240368
 10
-21882.66583063524
 20
2390.9543335084813
 10
-21882.65924730603
 20
2390.952408768806
 42
0.0209636179811234
 10
-21882.321847153376
 20
2390.8689406208746
 10
-21882.314214692924
 20
2390.8673887078721
 42
0.01813887047288
 10
-21881.955892300928
 20
2390.8079726146584
 10
-21881.94761145255
 20
2390.8069064308411
 42
0.015608654762997
 10
-21881.569424088368
 20
2390.7701702442646
 10
-21881.526228836039
 20
2390.7673317417857
 42
0.0137148328986332
 10
-21881.198555690735
 20
2390.754811486534
 10
-21881.152619500757
 20
2390.7543170534186
 42
0.0051057823948086
 10
-21880.916473914214
 20
2390.7541867990094
 42
0.0052256693232218
 10
-21880.680376630455
 20
2390.7589356234735
 10
-21880.610149846689
 20
2390.7610825894881
 42
0.0161507179009857
 10
-21880.234412768601
 20
2390.7847329598135
 10
-21880.214399808217
 20
2390.786643155102
 42
0.0101216737890068
 10
-21879.800372586738
 20
2390.8346360854662
 10
-21879.766319297298
 20
2390.8392837822776
 42
0.0245291776384572
 10
-21879.289529641759
 20
2390.9283588603507
 10
-21879.204706326214
 20
2390.9485547807012
 42
0.0143509212505225
 10
-21878.848075222282
 20
2391.0443594144781
 42
0.0156557857022239
 10
-21878.49785915756
 20
2391.161370630296
 10
-21878.490357943061
 20
2391.1641407920515
 42
0.0170137333661945
 10
-21878.133761947411
 20
2391.3097984069082
 10
-21878.126658024972
 20
2391.3129862424862
 42
0.0183105364451721
 10
-21877.767308356775
 20
2391.4903212843255
 10
-21877.760361592165
 20
2391.4940717191826
 42
0.0194899958160892
 10
-21877.401880851183
 20
2391.7060507010733
 10
-21877.394866971845
 20
2391.7105760433683
 42
0.0204869852982516
 10
-21877.040852669779
 20
2391.9600960584335
 10
-21877.033587061167
 20
2391.9656761238025
 42
0.0212516938540716
 10
-21876.687597130025
 20
2392.2555801207268
 10
-21876.641080435922
 20
2392.2980474308442
 42
0.0215248918263069
 10
-21876.381054267091
 20
2392.5568117097855
 10
-21876.336024532724
 20
2392.6056558311229
 42
0.0114578554942646
 10
-21876.181232379036
 20
2392.7814787645934
 10
-21876.170037843029
 20
2392.7947975281631
 42
0.006153130523439
 10
-21876.043563197054
 20
2392.9490870614445
 42
0.0006325587053605
 10
-21875.919184714145
 20
2393.105090435557
 10
-21875.896144577851
 20
2393.1340639577797
 42
0.0041897761575721
 10
-21875.727689173742
 20
2393.3495833340189
 10
-21875.669227053986
 20
2393.4256846808266
 42
0.0092993880096974
 10
-21875.392615126682
 20
2393.799963444822
 10
-21875.310220633597
 20
2393.9159004482322
 42
0.0159321727064297
 10
-21874.963614150922
 20
2394.4380746690349
 10
-21874.919258015543
 20
2394.5097542332728
 42
0.0085547317016628
 10
-21874.684746250208
 20
2394.9036291825096
 42
0.0084601156859416
 10
-21874.463770072733
 20
2395.3052560316005
 10
-21874.455654598933
 20
2395.3206157138147
 42
0.0081429654234166
 10
-21874.232405328577
 20
2395.7603372261883
 10
-21874.223545164314
 20
2395.7785160683752
 42
0.0076574581353729
 10
-21873.997137653674
 20
2396.2616989437861
 10
-21873.987658013022
 20
2396.2827634219311
 42
0.0070682724194562
 10
-21873.757213105226
 20
2396.8148007266891
 10
-21873.747222821235
 20
2396.8387899157242
 42
0.006455951443144
 10
-21873.511889613095
 20
2397.4251021821292
 10
-21873.501480254887
 20
2397.4520371076851
 42
0.0058311413886452
 10
-21873.260433518179
 20
2398.0980692019111
 10
-21873.249678440734
 20
2398.1279535432295
 42
0.0052312425821087
 10
-21873.002097162782
 20
2398.8391559568163
 10
-21872.991053326317
 20
2398.8719826691336
 42
0.0046680544787758
 10
-21872.736124898576
 20
2399.6538089849028
 10
-21872.694132748591
 20
2399.7867922220203
 42
0.0041666856450137
 10
-21872.490846736146
 20
2400.4497609971859
 10
-21872.453184295555
 20
2400.5763421045954
 42
0.0015170975189932
 10
-21872.331997717069
 20
2400.9882104563335
 42
-0.0004887993121003
 10
-21872.211657944255
 20
2401.4003288673121
 10
-21872.135180686448
 20
2401.6612862543166
 42
0.000258337892409
 10
-21871.86196611726
 20
2402.5953429544907
 10
-21871.780193266964
 20
2402.8754422165307
 42
0.0006636169663683
 10
-21871.586325506796
 20
2403.5427951406655
 10
-21871.581228852687
 20
2403.56042672272
 42
0.0010589131281193
 10
-21871.399780151532
 20
2404.1931580665946
 10
-21871.394798080848
 20
2404.2106709743362
 42
0.0015655524529519
 10
-21871.226527873871
 20
2404.8092876528153
 10
-21871.221697673431
 20
2404.8266798118443
 42
0.0021640440501752
 10
-21871.06740770147
 20
2405.3917068297696
 10
-21871.062773482023
 20
2405.4089715598261
 42
0.0028763871881386
 10
-21870.923257763985
 20
2405.9409395106104
 10
-21870.918871899979
 20
2405.958063488134
 42
0.0037310511908815
 10
-21870.794915207982
 20
2406.4575110827891
 10
-21870.790839987712
 20
2406.4744713539603
 42
0.0047652197776313
 10
-21870.683216087185
 20
2406.9419491223393
 10
-21870.679525487885
 20
2406.9587086773827
 42
0.0060276699333316
 10
-21870.588995388705
 20
2407.3947844726335
 10
-21870.585776698434
 20
2407.4112856868492
 42
0.0075824337716853
 10
-21870.513087389001
 20
2407.8165528513691
 10
-21870.510442011637
 20
2407.8327077987178
 42
0.0095130624537088
 10
-21870.456326775988
 20
2408.2077971518911
 10
-21870.449340552095
 20
2408.263730710099
 42
0.0121054653274156
 10
-21870.422749221529
 20
2408.5286265384816
 10
-21870.421882731771
 20
2408.5400299813646
 42
0.0069050827338436
 10
-21870.406793913731
 20
2408.7829712082548
 10
-21870.405658614058
 20
2408.8064974654276
 42
0.0169063976854324
 10
-21870.402831335083
 20
2409.0026901926003
 10
-21870.404001986615
 20
2409.0630259540685
 42
0.0052007733013085
 10
-21870.406255435209
 20
2409.1386193441017
 42
0.0054038123266083
 10
-21870.426218946999
 20
2409.2586376398426
 10
-21870.431304802918
 20
2409.287296126693
 42
0.0112050460485842
 10
-21870.466689164998
 20
2409.4636225651248
 10
-21870.48451412702
 20
2409.5431641517525
 42
0.0240764468080463
 10
-21870.575411493173
 20
2409.8734011872793
 10
-21870.593970255974
 20
2409.9300213522315
 42
0.0256812331828473
 10
-21870.737333176166
 20
2410.301745558505
 10
-21870.74274260196
 20
2410.3138768934318
 42
0.0268360501164724
 10
-21870.912169842835
 20
2410.6448700275159
 10
-21870.917706250497
 20
2410.6543896978737
 42
0.0274670231720595
 10
-21871.109907226884
 20
2410.9466770727454
 10
-21871.115288526853
 20
2410.9539562202963
 42
0.0275035967086983
 10
-21871.326861406411
 20
2411.2094721105905
 10
-21871.33193090741
 20
2411.2149511982566
 42
0.0269557673582907
 10
-21871.559334450816
 20
2411.4355934841833
 10
-21871.564077508592
 20
2411.4397234386379
 42
0.025912480222139
 10
-21871.80363234003
 20
2411.6274139657967
 10
-21871.80816318524
 20
2411.6305994681456
 42
0.0245162153051228
 10
-21872.056079538306
 20
2411.7873324772372
 10
-21872.06060608464
 20
2411.7898926744429
 42
0.0229282588818432
 10
-21872.313025641459
 20
2411.917760866937
 10
-21872.317806135303
 20
2411.9199131667019
 42
0.0212984135638579
 10
-21872.570844087757
 20
2412.0211120839413
 10
-21872.57614837274
 20
2412.0229756467056
 42
0.0197555462351196
 10
-21872.825926710451
 20
2412.0997910646661
 42
0.0183511896822567
 10
-21873.080855435906
 20
2412.1573739716305
 10
-21873.167220632626
 20
2412.1735767620153
 42
0.0338057877128501
 10
-21873.452727981894
 20
2412.2073851671571
 10
-21873.54373338693
 20
2412.2119648224184
 42
0.0091990524377065
 10
-21873.64958049557
 20
2412.2153406783405
 42
0.0028333980885509
 10
-21873.755494411591
 20
2412.216168785857
 10
-21873.756409864611
 20
2412.2161707556811
 42
-0.0023619827928222
 10
-21873.864155879703
 20
2412.2169115967595
 10
-21873.900561049893
 20
2412.2173339032229
 42
0.0008824598418776
 10
-21874.081117039666
 20
2412.2191096814604
 10
-21874.124978472151
 20
2412.2194636429867
 42
0.0038132665735336
 10
-21874.39326136799
 20
2412.2195825790532
 10
-21874.409795022824
 20
2412.2194638129095
 42
0.0060665569327034
 10
-21874.711075514395
 20
2412.2136435134898
 10
-21874.725325846441
 20
2412.2131952055215
 42
0.0080356953347398
 10
-21875.05478456277
 20
2412.1975274834549
 10
-21875.066854577868
 20
2412.1967589005139
 42
0.0098996399141145
 10
-21875.419617662508
 20
2412.1672736713167
 10
-21875.429663371891
 20
2412.1662333751174
 42
0.0117740981391349
 10
-21875.800820230244
 20
2412.1189411275873
 10
-21875.809042926725
 20
2412.117696011017
 42
0.0137435215202412
 10
-21876.193631746239
 20
2412.0485990374486
 10
-21876.20028878533
 20
2412.0472131412216
 42
0.0158359869430591
 10
-21876.593285879142
 20
2411.9523210527391
 10
-21876.598699066002
 20
2411.9508311118707
 42
0.0180554124039706
 10
-21876.995014110638
 20
2411.8261930956237
 10
-21876.999570898697
 20
2411.8245770593658
 42
0.0203657431311729
 10
-21877.394048416514
 20
2411.6663167178472
 10
-21877.398191955515
 20
2411.6644550964074
 42
0.0226819684699093
 10
-21877.785628011719
 20
2411.4688125177368
 10
-21877.789827802739
 20
2411.4664469258169
 42
0.0248634984660222
 10
-21878.16500974392
 20
2411.2298202798684
 10
-21878.213204672695
 20
2411.1959632380504
 42
0.026704419086831
 10
-21878.487497369621
 20
2410.9805228621763
 42
0.0139303002189824
 10
-21878.743664535577
 20
2410.7432840212427
 10
-21878.748517921278
 20
2410.7385313584036
 42
0.0283460963469729
 10
-21878.992590515507
 20
2410.4708006979577
 10
-21879.032259020663
 20
2410.4219991204855
 42
0.0070695364834394
 10
-21879.109696246524
 20
2410.32393230452
 42
0.0070695364834394
  0
LWPOLYLINE
  5
67
100
AcDbEntity
  8
0
370
              15
390
0
  6
Continuous
 62
               7
100
AcDbPolyline
 90
      226
 70
             128
 10
-21882.638516683768
 20
2394.6023434983363
 42
-0.0026277636598422
 10
-21882.638594567572
 20
2394.6691154240903
 10
-21882.63837720934
 20
2394.7222706415223
 42
-0.0088680296675856
 10
-21882.634600593043
 20
2394.8952864239523
 10
-21882.632254233933
 20
2394.9545664493789
 42
-0.0077381705541033
 10
-21882.616208123167
 20
2395.2458269452036
 10
-21882.615340211996
 20
2395.2581151788627
 42
-0.0068872530471574
 10
-21882.588708132233
 20
2395.5733369310742
 10
-21882.58750390806
 20
2395.5855779099502
 42
-0.0062130021529085
 10
-21882.549910191272
 20
2395.9244476008766
 10
-21882.5484062877
 20
2395.9366214731049
 42
-0.005672692970429
 10
-21882.499484428241
 20
2396.2988166949226
 10
-21882.497710982552
 20
2396.3109104954638
 42
-0.0052341884431142
 10
-21882.437100396251
 20
2396.6961037512233
 10
-21882.435082407515
 20
2396.708108680974
 42
-0.0049768450184431
 10
-21882.362343726094
 20
2397.1159532483857
 10
-21882.338094711369
 20
2397.2445012314129
 42
-0.0089029805618506
 10
-21882.20101385958
 20
2397.9062766787956
 10
-21882.168268484253
 20
2398.0513081093586
 42
-0.0080318257078594
 10
-21881.938719869864
 20
2398.9970177413984
 10
-21881.926734943463
 20
2399.0431483764023
 42
-0.0074265721316618
 10
-21881.642723404588
 20
2400.073212954866
 10
-21881.622843861507
 20
2400.1413470153352
 42
-0.0069711922716133
 10
-21881.29553928299
 20
2401.2076147557
 10
-21881.235587335821
 20
2401.3936361142705
 42
-0.0052070422877725
 10
-21881.006162110629
 20
2402.080908191102
 10
-21880.988880918805
 20
2402.1309354707087
 42
-0.00091670044546
 10
-21880.785789031164
 20
2402.7153913198736
 42
-0.0025162726899201
 10
-21880.578691400791
 20
2403.2984325843454
 10
-21880.541466789156
 20
2403.4015821297749
 42
-0.0028212681493517
 10
-21880.293290870133
 20
2404.0773127621123
 10
-21880.283460107363
 20
2404.1036202068399
 42
-0.0031964916815358
 10
-21880.04716784972
 20
2404.7238249689162
 10
-21880.037533395862
 20
2404.7486349586998
 42
-0.0036281836488763
 10
-21879.812427434619
 20
2405.3160756399529
 10
-21879.802989024331
 20
2405.339373071778
 42
-0.0041269166860409
 10
-21879.588371327802
 20
2405.8568139674339
 10
-21879.555738371288
 20
2405.9336924140148
 42
-0.0047472213028264
 10
-21879.398693565829
 20
2406.2941138816782
 10
-21879.391799484452
 20
2406.3095344793887
 42
-0.0025651659907723
 10
-21879.243441450773
 20
2406.6368625347586
 42
-0.0057144635053474
 10
-21879.08969175713
 20
2406.9616722078545
 10
-21879.061661051583
 20
2407.0191805905488
 42
-0.0065388068346509
 10
-21878.878194023859
 20
2407.3834130871801
 10
-21878.869735568114
 20
2407.399672666485
 42
-0.00745108430552
 10
-21878.693553322202
 20
2407.7263609476722
 10
-21878.68537365157
 20
2407.7410017251223
 42
-0.0084648979822194
 10
-21878.515739798571
 20
2408.0329107359025
 10
-21878.507883672071
 20
2408.0459177275698
 42
-0.0095638542784234
 10
-21878.344048224491
 20
2408.3058065995319
 10
-21878.336573280878
 20
2408.3171759608972
 42
-0.0107191626829465
 10
-21878.17777170043
 20
2408.5477871955318
 10
-21878.170754966712
 20
2408.5575232878791
 42
-0.0118458573851455
 10
-21878.016206868186
 20
2408.7615954832067
 42
-0.0129184518144647
 10
-21877.851754244522
 20
2408.9577559994441
 10
-21877.821609472161
 20
2408.9918820783419
 42
-0.0217742579491245
 10
-21877.644997149888
 20
2409.1750888485267
 10
-21877.634251605406
 20
2409.1853056817495
 42
-0.0097266568634769
 10
-21877.46819398657
 20
2409.3371532561673
 42
-0.0187720905820501
 10
-21877.293846410736
 20
2409.4792221095172
 10
-21877.263140419971
 20
2409.5023811919809
 42
-0.0179428207451555
 10
-21877.030719700011
 20
2409.6649333690643
 10
-21877.027067373132
 20
2409.6672973039285
 42
-0.0170047877813632
 10
-21876.791303735565
 20
2409.8087578181035
 10
-21876.787520746788
 20
2409.8108561231561
 42
-0.0160190788296284
 10
-21876.550612199182
 20
2409.9325074251278
 42
-0.0151102861514428
 10
-21876.306580416749
 20
2410.0391902011775
 10
-21876.254193914523
 20
2410.060230334077
 42
-0.0271945441866542
 10
-21875.895531355432
 20
2410.1820951447912
 10
-21875.826466554972
 20
2410.2014446860508
 42
-0.023759659403168
 10
-21875.410669707955
 20
2410.2968953980308
 10
-21875.342606854225
 20
2410.3091500861574
 42
-0.0213715440580507
 10
-21875.056731922778
 20
2410.3480971176677
 10
-21874.99658475658
 20
2410.3536868323672
 42
-0.0101465655949527
 10
-21874.829092224565
 20
2410.3658303756324
 10
-21874.819751838364
 20
2410.3663172906299
 42
-0.0100375910888258
 10
-21874.670597737808
 20
2410.3710931085548
 10
-21874.660338468126
 20
2410.3712155475691
 42
-0.0103625633402912
 10
-21874.531630473473
 20
2410.3700841140426
 10
-21874.509364822203
 20
2410.3694267555775
 42
-0.0115689250474835
 10
-21874.425314084678
 20
2410.3649972493326
 42
-0.0072438037263659
 10
-21874.341475805246
 20
2410.3574080495846
 10
-21874.324675295764
 20
2410.3556415068592
 42
-0.0217917313170526
 10
-21874.208105532449
 20
2410.3382216141381
 10
-21874.142505441876
 20
2410.3254750057222
 42
-0.0332943556704648
 10
-21873.938113276854
 20
2410.2714347144165
 10
-21873.907940708337
 20
2410.2612666373093
 42
-0.0184824084663113
 10
-21873.76943565184
 20
2410.2088156219115
 42
-0.0198002050537319
 10
-21873.635361311317
 20
2410.1459315617012
 10
-21873.633474673963
 20
2410.1449537748326
 42
-0.0212242343034059
 10
-21873.501335731569
 20
2410.0691910360442
 10
-21873.499520436017
 20
2410.0680452338311
 42
-0.0226090605668051
 10
-21873.371016534784
 20
2409.9785655902583
 10
-21873.369172093058
 20
2409.9771533372791
 42
-0.0238457052225441
 10
-21873.245990011776
 20
2409.873157441426
 10
-21873.244037283206
 20
2409.8713425636506
 42
-0.024816056411755
 10
-21873.127835775875
 20
2409.7520679624013
 10
-21873.125732142507
 20
2409.7496826287374
 42
-0.0254109591495298
 10
-21873.01812692465
 20
2409.6143942427861
 10
-21873.015878902726
 20
2409.6112526943725
 42
-0.0255528488286423
 10
-21872.918432223902
 20
2409.4592256400952
 10
-21872.91610112401
 20
2409.4551440285304
 42
-0.0252146793271665
 10
-21872.830320098004
 20
2409.2856417825337
 10
-21872.828017858847
 20
2409.2804597006207
 42
-0.0244265635918656
 10
-21872.75536316507
 20
2409.0927131285325
 10
-21872.746116763617
 20
2409.0648477102454
 42
-0.023131961295149
 10
-21872.700193984623
 20
2408.9015466634346
 42
-0.0112130424524874
 10
-21872.665557962086
 20
2408.7353430632461
 10
-21872.664355436973
 20
2408.7288464763587
 42
-0.0210527881274409
 10
-21872.638668961605
 20
2408.5477908309613
 10
-21872.635158366778
 20
2408.5123852823699
 42
-0.0190029892414457
 10
-21872.619716893238
 20
2408.2588494361312
 10
-21872.618906916792
 20
2408.2233738217287
 42
-0.0137974553720273
 10
-21872.620455769622
 20
2407.8983424151561
 10
-21872.621301224583
 20
2407.8722236704557
 42
-0.0081336634289662
 10
-21872.636160559803
 20
2407.5668762028031
 42
-0.0073526923539131
 10
-21872.660469093193
 20
2407.2621279583673
 10
-21872.66173051696
 20
2407.2487912838519
 42
-0.0066886138697567
 10
-21872.697466103
 20
2406.9182052404035
 10
-21872.699123192477
 20
2406.9045836213636
 42
-0.0061359187317774
 10
-21872.746973794543
 20
2406.5478196411545
 10
-21872.7490112956
 20
2406.5339248384344
 42
-0.0056698609956131
 10
-21872.809661626383
 20
2406.1506462694988
 10
-21872.812067059691
 20
2406.1364871503656
 42
-0.0052721077222436
 10
-21872.88619926056
 20
2405.7263598103345
 10
-21872.888962409335
 20
2405.7119431753017
 42
-0.0049289272183444
 10
-21872.977256527443
 20
2405.274634664132
 10
-21872.980369022116
 20
2405.2599658113631
 42
-0.0047415956725929
 10
-21873.083607013625
 20
2404.7951690540553
 10
-21873.11837522401
 20
2404.6453619585695
 42
-0.0084404470929365
 10
-21873.308391667575
 20
2403.8851379340717
 10
-21873.314518355568
 20
2403.8622738098852
 42
-0.0039635940278599
 10
-21873.535972039801
 20
2403.0612849458103
 10
-21873.549348835029
 20
2403.0143533290457
 42
-0.0072475040848484
 10
-21873.816795722825
 20
2402.1251336128621
 10
-21873.887008049718
 20
2401.9033932626785
 42
-0.0051345458833411
 10
-21874.17376742178
 20
2401.0290680748722
 10
-21874.195293688634
 20
2400.965641807491
 42
-0.0019150016606091
 10
-21874.450827095414
 20
2400.2220926875161
 10
-21874.457294699787
 20
2400.2035052226638
 42
-0.0021524362765002
 10
-21874.705772750873
 20
2399.4991794008865
 10
-21874.714983171591
 20
2399.473425822524
 42
-0.002433128684474
 10
-21874.951238430607
 20
2398.8228265144671
 10
-21874.960286383073
 20
2398.7982832083426
 42
-0.0027449721787868
 10
-21875.184900953991
 20
2398.1991533291884
 10
-21875.193790961312
 20
2398.1758307395194
 42
-0.0031083229769427
 10
-21875.407333447991
 20
2397.6259067017563
 10
-21875.416069579736
 20
2397.6038169857216
 42
-0.0035311343263146
 10
-21875.619110765263
 20
2397.1008338601687
 10
-21875.627696104399
 20
2397.0799911366908
 42
-0.0040245640961654
 10
-21875.820807908203
 20
2396.6216818140661
 10
-21875.829244021868
 20
2396.6021024458537
 42
-0.0046015135833923
 10
-21876.013000314968
 20
2396.1861974163517
 10
-21876.021286492753
 20
2396.1679002769961
 42
-0.0052768638263963
 10
-21876.196264011753
 20
2395.7921273926295
 10
-21876.204396222507
 20
2395.7751340538202
 42
-0.0060672675604845
 10
-21876.371175835146
 20
2395.4372184309718
 10
-21876.379145315579
 20
2395.421553172072
 42
-0.0069904648900484
 10
-21876.538313709629
 20
2395.1192173653108
 10
-21876.546105109235
 20
2395.1049068160919
 42
-0.008063702279036
 10
-21876.698256969583
 20
2394.8358715129307
 10
-21876.705846002191
 20
2394.822943647373
 42
-0.0093006455724219
 10
-21876.851586678749
 20
2394.5849292488265
 10
-21876.858937345449
 20
2394.5734112797222
 42
-0.0107060778148423
 10
-21876.99888588893
 20
2394.3641409622742
 10
-21877.005947657257
 20
2394.3540554196438
 42
-0.0122723111337222
 10
-21877.140741375406
 20
2394.1712620902194
 10
-21877.141067598932
 20
2394.1708417024465
 42
-0.0141836319694617
 10
-21877.284649201938
 20
2393.9962719445803
 10
-21877.291596957588
 20
2393.9882969443165
 42
-0.0175957477101882
 10
-21877.431503125623
 20
2393.8386760559106
 42
-0.0080466359576994
 10
-21877.57896689072
 20
2393.6963535276946
 10
-21877.625001435168
 20
2393.6533330896682
 42
-0.0269600260343167
 10
-21877.87828168118
 20
2393.44100983114
 10
-21877.944848817493
 20
2393.3910584165055
 42
-0.0178362839731677
 10
-21878.184793307104
 20
2393.2240404902832
 10
-21878.192038278106
 20
2393.2193719780776
 42
-0.0174650732710704
 10
-21878.428374475548
 20
2393.0785110131192
 42
-0.0169240130117515
 10
-21878.673840721392
 20
2392.954218753348
 10
-21878.719826876964
 20
2392.9328567977745
 42
-0.031888303682218
 10
-21879.070177732588
 20
2392.7965184882623
 10
-21879.138543267738
 20
2392.7748178677921
 42
-0.0284435909908631
 10
-21879.51459339404
 20
2392.6786004323139
 10
-21879.549751554528
 20
2392.6717068364874
 42
-0.0243909340954067
 10
-21879.863195015459
 20
2392.6259858054555
 10
-21879.913475742243
 20
2392.6211402585527
 42
-0.0196639292958161
 10
-21880.129071319756
 20
2392.6088919730405
 10
-21880.180895390928
 20
2392.6079887123037
 42
-0.0100501510707865
 10
-21880.293318672582
 20
2392.6082891106566
 10
-21880.324978533903
 20
2392.6090101825416
 42
-0.001975203087809
 10
-21880.37407087061
 20
2392.6103223427517
 10
-21880.376831173828
 20
2392.6104070345777
 42
0.006537875243239
 10
-21880.420407748585
 20
2392.6111739257931
 42
-0.0167974694959925
 10
-21880.463938571513
 20
2392.6128338243184
 10
-21880.468017910782
 20
2392.6131268352137
 42
-0.0081283276026413
 10
-21880.519577708506
 20
2392.6176738288505
 10
-21880.531317282395
 20
2392.6189017464299
 42
-0.0126703440365628
 10
-21880.606035578188
 20
2392.6286365375004
 10
-21880.62882344587
 20
2392.6321947934166
 42
-0.0117852088429436
 10
-21880.748362431703
 20
2392.6537577885742
 10
-21880.803742883465
 20
2392.6651013288083
 42
-0.0251774592329945
 10
-21881.030586922461
 20
2392.7235993382387
 10
-21881.075306112318
 20
2392.7375661575752
 42
-0.014652519993138
 10
-21881.261699099861
 20
2392.801832684775
 42
-0.0166929435899532
 10
-21881.443676755978
 20
2392.8776398178261
 10
-21881.448333387259
 20
2392.8797647184433
 42
-0.0191684358435821
 10
-21881.633517018468
 20
2392.9730008022134
 10
-21881.636849604263
 20
2392.9748420497867
 42
-0.0221181781813849
 10
-21881.820159908184
 20
2393.0869755481699
 10
-21881.822509712176
 20
2393.0885598461487
 42
-0.025498468543768
 10
-21881.998799862566
 20
2393.2209709961239
 10
-21882.021282010301
 20
2393.239723305086
 42
-0.029249264879237
 10
-21882.146050949108
 20
2393.3568161046974
 42
-0.0159048957455465
 10
-21882.25989094652
 20
2393.4848360962524
 10
-21882.261209737135
 20
2393.4864177093168
 42
-0.0343813379538066
 10
-21882.363846998771
 20
2393.6282890350985
 10
-21882.395338530128
 20
2393.6787924271907
 42
-0.0369117275790309
 10
-21882.481231032019
 20
2393.8422696681287
 42
-0.0191751379887823
 10
-21882.548424417593
 20
2394.0146742741754
 10
-21882.550187741337
 20
2394.0197676188095
 42
-0.037817804221156
 10
-21882.59998246012
 20
2394.208708394885
 10
-21882.605977755848
 20
2394.2412690130645
 42
-0.0184846046474559
 10
-21882.626694955143
 20
2394.3830218336329
 42
-0.017986635147728
 10
-21882.637027960216
 20
2394.5259126466399
 10
-21882.637084402664
 20
2394.5274703333262
 42
-0.0085497186504614
 10
-21882.638516683768
 20
2394.6023434983363
 42
-0.0085497186504614
  0
ENDBLK
  5
68
100
AcDbEntity
  8
template
390
0
100
AcDbBlockEnd
  0
BLOCK
  5
69
100
AcDbEntity
  8
notes
390
0
100
AcDbBlockBegin
  2
*D4
 70
               1
 10
0.0
 20
0.0
 30
0.0
  3
*D4
  1

  0
LINE
  5
6A
100
AcDbEntity
  8
0
370
              -2
390
0
  6
Continuous
 62
               0
100
AcDbLine
 10
499.30290028180389
 20
685.35533905932698
 30
0.0
 11
519.86687511561468
 21
705.91931389313686
 31
0.0
  0
CIRCLE
  5
6B
102
{ACAD_REACTORS
330
6C
102
}
100
AcDbEntity
  8
0
370
              -2
390
0
  6
Continuous
 62
               0
100
AcDbCircle
 10
499.30290028180389
 20
685.35533905932698
 30
0.0
 40
4.99969482421875
  0
HATCH
  5
6C
100
AcDbEntity
  8
0
370
              -2
390
0
  6
Continuous
 62
               0
100
AcDbHatch
 10
0.0
 20
0.0
 30
0.0
210
0.0
220
0.0
230
1.0
  2
SOLID
 70
               1
 71
               1
 91
        1
 92
        1
 93
        1
 72
               2
 10
499.30290028180389
 20
685.35533905932698
 40
4.99969482421875
 50
0.0
 51
360.0
 73
               0
 97
        1
330
6B
 75
               0
 76
               1
 98
        1
 10
0.0
 20
0.0
  0
LINE
  5
6D
100
AcDbEntity
  8
0
370
              -2
390
0
  6
Continuous
 62
               0
100
AcDbLine
 10
519.86687511561468
 20
705.91931389313686
 30
0.0
 11
662.74187511561468
 21
705.91931389313686
 31
0.0
  0
MTEXT
  5
6E
100
AcDbEntity
  8
0
390
0
 62
               0
100
AcDbMText
 10
583.36687511561468
 20
739.79693108063657
 30
0.0
 40
24.432617187500004
 41
0.0
 71
               1
 72
               1
  1
φ100
  7
ＭＳ ゴシック
 73
               1
 44
0.7828267384257843
  0
POINT
  5
6F
100
AcDbEntity
  8
Defpoints
370
               0
390
0
 62
               0
100
AcDbPoint
 10
428.59222216315175
 20
614.64466094067302
 30
0.0
  0
POINT
  5
70
100
AcDbEntity
  8
Defpoints
370
               0
390
0
 62
               0
100
AcDbPoint
 10
499.30290028180389
 20
685.35533905932698
 30
0.0
  0
ENDBLK
  5
71
100
AcDbEntity
  8
notes
390
0
100
AcDbBlockEnd
  0
BLOCK
  5
72
100
AcDbEntity
  8
notes
390
0
100
AcDbBlockBegin
  2
*D5
 70
               1
 10
0.0
 20
0.0
 30
0.0
  3
*D5
  1

  0
LINE
  5
73
100
AcDbEntity
  8
0
370
              -2
390
0
  6
Continuous
 62
               0
100
AcDbLine
 10
371.44756122247782
 20
-575.92219788355214
 30
0.0
 11
371.44756122247782
 21
-650.92219788355214
 31
0.0
  0
LINE
  5
74
100
AcDbEntity
  8
0
370
              -2
390
0
  6
Continuous
 62
               0
100
AcDbLine
 10
556.44756122247782
 20
-575.92219788355214
 30
0.0
 11
556.44756122247782
 21
-650.92219788355214
 31
0.0
  0
LINE
  5
75
100
AcDbEntity
  8
0
370
              -2
390
0
  6
Continuous
 62
               0
100
AcDbLine
 10
371.44756122247782
 20
-650.92219788355214
 30
0.0
 11
556.44756122247782
 21
-650.92219788355214
 31
0.0
  0
CIRCLE
  5
76
102
{ACAD_REACTORS
330
77
102
}
100
AcDbEntity
  8
0
370
              -2
390
0
  6
Continuous
 62
               0
100
AcDbCircle
 10
371.44756122247782
 20
-650.92219788355214
 30
0.0
 40
4.99969482421875
  0
HATCH
  5
77
100
AcDbEntity
  8
0
370
              -2
390
0
  6
Continuous
 62
               0
100
AcDbHatch
 10
0.0
 20
0.0
 30
0.0
210
0.0
220
0.0
230
1.0
  2
SOLID
 70
               1
 71
               1
 91
        1
 92
        1
 93
        1
 72
               2
 10
371.44756122247782
 20
-650.92219788355214
 40
4.99969482421875
 50
0.0
 51
360.0
 73
               0
 97
        1
330
76
 75
               0
 76
               1
 98
        1
 10
0.0
 20
0.0
  0
CIRCLE
  5
78
102
{ACAD_REACTORS
330
79
102
}
100
AcDbEntity
  8
0
370
              -2
390
0
  6
Continuous
 62
               0
100
AcDbCircle
 10
556.44756122247782
 20
-650.92219788355214
 30
0.0
 40
4.99969482421875
  0
HATCH
  5
79
100
AcDbEntity
  8
0
370
              -2
390
0
  6
Continuous
 62
               0
100
AcDbHatch
 10
0.0
 20
0.0
 30
0.0
210
0.0
220
0.0
230
1.0
  2
SOLID
 70
               1
 71
               1
 91
        1
 92
        1
 93
        1
 72
               2
 10
556.44756122247782
 20
-650.92219788355214
 40
4.99969482421875
 50
0.0
 51
360.0
 73
               0
 97
        1
330
78
 75
               0
 76
               1
 98
        1
 10
0.0
 20
0.0
  0
MTEXT
  5
7A
100
AcDbEntity
  8
0
390
0
 62
               0
100
AcDbMText
 10
440.13505954030188
 20
-617.04458069605198
 30
0.0
 40
24.432617187500004
 41
0.0
 71
               1
 72
               1
  1
185
  7
ＭＳ ゴシック
 73
               1
 44
0.7828267384257843
  0
POINT
  5
7B
100
AcDbEntity
  8
Defpoints
370
               0
390
0
 62
               0
100
AcDbPoint
 10
556.44756122247782
 20
-550.92219788355214
 30
0.0
  0
POINT
  5
7C
100
AcDbEntity
  8
Defpoints
370
               0
390
0
 62
               0
100
AcDbPoint
 10
371.44756122247782
 20
-550.92219788355214
 30
0.0
  0
POINT
  5
7D
100
AcDbEntity
  8
Defpoints
370
               0
390
0
 62
               0
100
AcDbPoint
 10
371.44756122247782
 20
-650.92219788355214
 30
0.0
  0
ENDBLK
  5
7E
100
AcDbEntity
  8
notes
390
0
100
AcDbBlockEnd
  0
BLOCK
  5
7F
100
AcDbEntity
  8
notes
390
0
100
AcDbBlockBegin
  2
*D6
 70
               1
 10
0.0
 20
0.0
 30
0.0
  3
*D6
  1

  0
LINE
  5
80
100
AcDbEntity
  8
0
370
              -2
390
0
  6
Continuous
 62
               0
100
AcDbLine
 10
-650.46915005057599
 20
-575.92219788355214
 30
0.0
 11
-650.46915005057599
 21
-650.92219788355214
 31
0.0
  0
LINE
  5
81
100
AcDbEntity
  8
0
370
              -2
390
0
  6
Continuous
 62
               0
100
AcDbLine
 10
-250.46915005057599
 20
-575.92219788355214
 30
0.0
 11
-250.46915005057599
 21
-650.92219788355214
 31
0.0
  0
LINE
  5
82
100
AcDbEntity
  8
0
370
              -2
390
0
  6
Continuous
 62
               0
100
AcDbLine
 10
-650.46915005057599
 20
-650.92219788355214
 30
0.0
 11
-250.46915005057599
 21
-650.92219788355214
 31
0.0
  0
CIRCLE
  5
83
102
{ACAD_REACTORS
330
84
102
}
100
AcDbEntity
  8
0
370
              -2
390
0
  6
Continuous
 62
               0
100
AcDbCircle
 10
-650.46915005057599
 20
-650.92219788355214
 30
0.0
 40
4.99969482421875
  0
HATCH
  5
84
100
AcDbEntity
  8
0
370
              -2
390
0
  6
Continuous
 62
               0
100
AcDbHatch
 10
0.0
 20
0.0
 30
0.0
210
0.0
220
0.0
230
1.0
  2
SOLID
 70
               1
 71
               1
 91
        1
 92
        1
 93
        1
 72
               2
 10
-650.46915005057599
 20
-650.92219788355214
 40
4.99969482421875
 50
0.0
 51
360.0
 73
               0
 97
        1
330
83
 75
               0
 76
               1
 98
        1
 10
0.0
 20
0.0
  0
CIRCLE
  5
85
102
{ACAD_REACTORS
330
86
102
}
100
AcDbEntity
  8
0
370
              -2
390
0
  6
Continuous
 62
               0
100
AcDbCircle
 10
-250.46915005057599
 20
-650.92219788355214
 30
0.0
 40
4.99969482421875
  0
HATCH
  5
86
100
AcDbEntity
  8
0
370
              -2
390
0
  6
Continuous
 62
               0
100
AcDbHatch
 10
0.0
 20
0.0
 30
0.0
210
0.0
220
0.0
230
1.0
  2
SOLID
 70
               1
 71
               1
 91
        1
 92
        1
 93
        1
 72
               2
 10
-250.46915005057599
 20
-650.92219788355214
 40
4.99969482421875
 50
0.0
 51
360.0
 73
               0
 97
        1
330
85
 75
               0
 76
               1
 98
        1
 10
0.0
 20
0.0
  0
MTEXT
  5
87
100
AcDbEntity
  8
0
390
0
 62
               0
100
AcDbMText
 10
-474.28165173275193
 20
-617.04458069605198
 30
0.0
 40
24.432617187500004
 41
0.0
 71
               1
 72
               1
  1
400
  7
ＭＳ ゴシック
 73
               1
 44
0.7828267384257843
  0
POINT
  5
88
100
AcDbEntity
  8
Defpoints
370
               0
390
0
 62
               0
100
AcDbPoint
 10
-250.46915005057599
 20
-550.92219788355214
 30
0.0
  0
POINT
  5
89
100
AcDbEntity
  8
Defpoints
370
               0
390
0
 62
               0
100
AcDbPoint
 10
-650.46915005057599
 20
-550.92219788355214
 30
0.0
  0
POINT
  5
8A
100
AcDbEntity
  8
Defpoints
370
               0
390
0
 62
               0
100
AcDbPoint
 10
-650.46915005057599
 20
-650.92219788355214
 30
0.0
  0
ENDBLK
  5
8B
100
AcDbEntity
  8
notes
390
0
100
AcDbBlockEnd
  0
BLOCK
  5
8C
100
AcDbEntity
  8
notes
390
0
100
AcDbBlockBegin
  2
*D7
 70
               1
 10
0.0
 20
0.0
 30
0.0
  3
*D7
  1

  0
LINE
  5
8D
100
AcDbEntity
  8
0
370
              -2
390
0
  6
Continuous
 62
               0
100
AcDbLine
 10
623.94756122247782
 20
790.0
 30
0.0
 11
838.93369695161891
 21
790.0
 31
0.0
  0
LINE
  5
8E
100
AcDbEntity
  8
0
370
              -2
390
0
  6
Continuous
 62
               0
100
AcDbLine
 10
623.94756122247782
 20
510.0
 30
0.0
 11
838.93369695161891
 21
510.0
 31
0.0
  0
LINE
  5
8F
100
AcDbEntity
  8
0
370
              -2
390
0
  6
Continuous
 62
               0
100
AcDbLine
 10
838.93369695161891
 20
790.0
 30
0.0
 11
838.93369695161891
 21
510.0
 31
0.0
  0
CIRCLE
  5
90
102
{ACAD_REACTORS
330
91
102
}
100
AcDbEntity
  8
0
370
              -2
390
0
  6
Continuous
 62
               0
100
AcDbCircle
 10
838.93369695161891
 20
790.0
 30
0.0
 40
4.99969482421875
  0
HATCH
  5
91
100
AcDbEntity
  8
0
370
              -2
390
0
  6
Continuous
 62
               0
100
AcDbHatch
 10
0.0
 20
0.0
 30
0.0
210
0.0
220
0.0
230
1.0
  2
SOLID
 70
               1
 71
               1
 91
        1
 92
        1
 93
        1
 72
               2
 10
838.93369695161891
 20
790.0
 40
4.99969482421875
 50
0.0
 51
360.0
 73
               0
 97
        1
330
90
 75
               0
 76
               1
 98
        1
 10
0.0
 20
0.0
  0
CIRCLE
  5
92
102
{ACAD_REACTORS
330
93
102
}
100
AcDbEntity
  8
0
370
              -2
390
0
  6
Continuous
 62
               0
100
AcDbCircle
 10
838.93369695161891
 20
510.0
 30
0.0
 40
4.99969482421875
  0
HATCH
  5
93
100
AcDbEntity
  8
0
370
              -2
390
0
  6
Continuous
 62
               0
100
AcDbHatch
 10
0.0
 20
0.0
 30
0.0
210
0.0
220
0.0
230
1.0
  2
SOLID
 70
               1
 71
               1
 91
        1
 92
        1
 93
        1
 72
               2
 10
838.93369695161891
 20
510.0
 40
4.99969482421875
 50
0.0
 51
360.0
 73
               0
 97
        1
330
92
 75
               0
 76
               1
 98
        1
 10
0.0
 20
0.0
  0
MTEXT
  5
94
100
AcDbEntity
  8
0
390
0
 62
               0
100
AcDbMText
 10
805.0560797641192
 20
626.18749831782407
 30
0.0
 40
24.432617187500004
 41
0.0
 71
               1
 72
               1
  1
280
  7
ＭＳ ゴシック
 11
0.0
 21
1.0
 31
0.0
 73
               1
 44
0.7828267384257843
  0
POINT
  5
95
100
AcDbEntity
  8
Defpoints
370
               0
390
0
 62
               0
100
AcDbPoint
 10
598.94756122247782
 20
510.0
 30
0.0
  0
POINT
  5
96
100
AcDbEntity
  8
Defpoints
370
               0
390
0
 62
               0
100
AcDbPoint
 10
598.94756122247782
 20
790.0
 30
0.0
  0
POINT
  5
97
100
AcDbEntity
  8
Defpoints
370
               0
390
0
 62
               0
100
AcDbPoint
 10
838.93369695161891
 20
790.0
 30
0.0
  0
ENDBLK
  5
98
100
AcDbEntity
  8
notes
390
0
100
AcDbBlockEnd
  0
BLOCK
  5
99
100
AcDbEntity
  8
notes
390
0
100
AcDbBlockBegin
  2
*D8
 70
               1
 10
0.0
 20
0.0
 30
0.0
  3
*D8
  1

  0
LINE
  5
9A
100
AcDbEntity
  8
0
370
              -2
390
0
  6
Continuous
 62
               0
100
AcDbLine
 10
213.94756122247782
 20
600.0
 30
0.0
 11
213.94756122247782
 21
385.0
 31
0.0
  0
LINE
  5
9B
100
AcDbEntity
  8
0
370
              -2
390
0
  6
Continuous
 62
               0
100
AcDbLine
 10
713.94756122247782
 20
600.0
 30
0.0
 11
713.94756122247782
 21
385.0
 31
0.0
  0
LINE
  5
9C
100
AcDbEntity
  8
0
370
              -2
390
0
  6
Continuous
 62
               0
100
AcDbLine
 10
213.94756122247782
 20
385.0
 30
0.0
 11
713.94756122247782
 21
385.0
 31
0.0
  0
CIRCLE
  5
9D
102
{ACAD_REACTORS
330
9E
102
}
100
AcDbEntity
  8
0
370
              -2
390
0
  6
Continuous
 62
               0
100
AcDbCircle
 10
213.94756122247782
 20
385.0
 30
0.0
 40
4.99969482421875
  0
HATCH
  5
9E
100
AcDbEntity
  8
0
370
              -2
390
0
  6
Continuous
 62
               0
100
AcDbHatch
 10
0.0
 20
0.0
 30
0.0
210
0.0
220
0.0
230
1.0
  2
SOLID
 70
               1
 71
               1
 91
        1
 92
        1
 93
        1
 72
               2
 10
213.94756122247782
 20
385.0
 40
4.99969482421875
 50
0.0
 51
360.0
 73
               0
 97
        1
330
9D
 75
               0
 76
               1
 98
        1
 10
0.0
 20
0.0
  0
CIRCLE
  5
9F
102
{ACAD_REACTORS
330
A0
102
}
100
AcDbEntity
  8
0
370
              -2
390
0
  6
Continuous
 62
               0
100
AcDbCircle
 10
713.94756122247782
 20
385.0
 30
0.0
 40
4.99969482421875
  0
HATCH
  5
A0
100
AcDbEntity
  8
0
370
              -2
390
0
  6
Continuous
 62
               0
100
AcDbHatch
 10
0.0
 20
0.0
 30
0.0
210
0.0
220
0.0
230
1.0
  2
SOLID
 70
               1
 71
               1
 91
        1
 92
        1
 93
        1
 72
               2
 10
713.94756122247782
 20
385.0
 40
4.99969482421875
 50
0.0
 51
360.0
 73
               0
 97
        1
330
9F
 75
               0
 76
               1
 98
        1
 10
0.0
 20
0.0
  0
MTEXT
  5
A1
100
AcDbEntity
  8
0
390
0
 62
               0
100
AcDbMText
 10
440.13505954030188
 20
418.87761718749971
 30
0.0
 40
24.432617187500004
 41
0.0
 71
               1
 72
               1
  1
500
  7
ＭＳ ゴシック
 73
               1
 44
0.7828267384257843
  0
POINT
  5
A2
100
AcDbEntity
  8
Defpoints
370
               0
390
0
 62
               0
100
AcDbPoint
 10
713.94756122247782
 20
625.0
 30
0.0
  0
POINT
  5
A3
100
AcDbEntity
  8
Defpoints
370
               0
390
0
 62
               0
100
AcDbPoint
 10
213.94756122247782
 20
625.0
 30
0.0
  0
POINT
  5
A4
100
AcDbEntity
  8
Defpoints
370
               0
390
0
 62
               0
100
AcDbPoint
 10
213.94756122247782
 20
385.0
 30
0.0
  0
ENDBLK
  5
A5
100
AcDbEntity
  8
notes
390
0
100
AcDbBlockEnd
  0
BLOCK
  5
A6
100
AcDbEntity
  8
notes
390
0
100
AcDbBlockBegin
  2
*D9
 70
               1
 10
0.0
 20
0.0
 30
0.0
  3
*D9
  1

  0
LINE
  5
A7
100
AcDbEntity
  8
0
370
              -2
390
0
  6
Continuous
 62
               0
100
AcDbLine
 10
-725.49410544418788
 20
700.0
 30
0.0
 11
-725.49410544418788
 21
915.0
 31
0.0
  0
LINE
  5
A8
100
AcDbEntity
  8
0
370
              -2
390
0
  6
Continuous
 62
               0
100
AcDbLine
 10
-175.49449536863904
 20
699.53690357679625
 30
0.0
 11
-175.49449536863904
 21
915.0
 31
0.0
  0
LINE
  5
A9
100
AcDbEntity
  8
0
370
              -2
390
0
  6
Continuous
 62
               0
100
AcDbLine
 10
-725.49410544418788
 20
915.0
 30
0.0
 11
-175.49449536863904
 21
915.0
 31
0.0
  0
CIRCLE
  5
AA
102
{ACAD_REACTORS
330
AB
102
}
100
AcDbEntity
  8
0
370
              -2
390
0
  6
Continuous
 62
               0
100
AcDbCircle
 10
-725.49410544418788
 20
915.0
 30
0.0
 40
4.99969482421875
  0
HATCH
  5
AB
100
AcDbEntity
  8
0
370
              -2
390
0
  6
Continuous
 62
               0
100
AcDbHatch
 10
0.0
 20
0.0
 30
0.0
210
0.0
220
0.0
230
1.0
  2
SOLID
 70
               1
 71
               1
 91
        1
 92
        1
 93
        1
 72
               2
 10
-725.49410544418788
 20
915.0
 40
4.99969482421875
 50
0.0
 51
360.0
 73
               0
 97
        1
330
AA
 75
               0
 76
               1
 98
        1
 10
0.0
 20
0.0
  0
CIRCLE
  5
AC
102
{ACAD_REACTORS
330
AD
102
}
100
AcDbEntity
  8
0
370
              -2
390
0
  6
Continuous
 62
               0
100
AcDbCircle
 10
-175.49449536863904
 20
915.0
 30
0.0
 40
4.99969482421875
  0
HATCH
  5
AD
100
AcDbEntity
  8
0
370
              -2
390
0
  6
Continuous
 62
               0
100
AcDbHatch
 10
0.0
 20
0.0
 30
0.0
210
0.0
220
0.0
230
1.0
  2
SOLID
 70
               1
 71
               1
 91
        1
 92
        1
 93
        1
 72
               2
 10
-175.49449536863904
 20
915.0
 40
4.99969482421875
 50
0.0
 51
360.0
 73
               0
 97
        1
330
AC
 75
               0
 76
               1
 98
        1
 10
0.0
 20
0.0
  0
MTEXT
  5
AE
100
AcDbEntity
  8
0
390
0
 62
               0
100
AcDbMText
 10
-474.30680208858757
 20
948.87761718749971
 30
0.0
 40
24.432617187500004
 41
0.0
 71
               1
 72
               1
  1
550
  7
ＭＳ ゴシック
 73
               1
 44
0.7828267384257843
  0
POINT
  5
AF
100
AcDbEntity
  8
Defpoints
370
               0
390
0
 62
               0
100
AcDbPoint
 10
-175.49449536863904
 20
674.53690357679625
 30
0.0
  0
POINT
  5
B0
100
AcDbEntity
  8
Defpoints
370
               0
390
0
 62
               0
100
AcDbPoint
 10
-725.49410544418788
 20
675.0
 30
0.0
  0
POINT
  5
B1
100
AcDbEntity
  8
Defpoints
370
               0
390
0
 62
               0
100
AcDbPoint
 10
-725.49410544418788
 20
915.0
 30
0.0
  0
ENDBLK
  5
B2
100
AcDbEntity
  8
notes
390
0
100
AcDbBlockEnd
  0
BLOCK
  5
B3
100
AcDbEntity
  8
notes
390
0
100
AcDbBlockBegin
  2
*D10
 70
               1
 10
0.0
 20
0.0
 30
0.0
  3
*D10
  1

  0
LINE
  5
B4
100
AcDbEntity
  8
0
370
              -2
390
0
  6
Continuous
 62
               0
100
AcDbLine
 10
-297.56915005057454
 20
825.0
 30
0.0
 11
-75.49410544418788
 21
825.0
 31
0.0
  0
LINE
  5
B5
100
AcDbEntity
  8
0
370
              -2
390
0
  6
Continuous
 62
               0
100
AcDbLine
 10
-297.56915005057454
 20
475.0
 30
0.0
 11
-75.49410544418788
 21
475.0
 31
0.0
  0
LINE
  5
B6
100
AcDbEntity
  8
0
370
              -2
390
0
  6
Continuous
 62
               0
100
AcDbLine
 10
-75.49410544418788
 20
825.0
 30
0.0
 11
-75.49410544418788
 21
475.0
 31
0.0
  0
CIRCLE
  5
B7
102
{ACAD_REACTORS
330
B8
102
}
100
AcDbEntity
  8
0
370
              -2
390
0
  6
Continuous
 62
               0
100
AcDbCircle
 10
-75.49410544418788
 20
825.0
 30
0.0
 40
4.99969482421875
  0
HATCH
  5
B8
100
AcDbEntity
  8
0
370
              -2
390
0
  6
Continuous
 62
               0
100
AcDbHatch
 10
0.0
 20
0.0
 30
0.0
210
0.0
220
0.0
230
1.0
  2
SOLID
 70
               1
 71
               1
 91
        1
 92
        1
 93
        1
 72
               2
 10
-75.49410544418788
 20
825.0
 40
4.99969482421875
 50
0.0
 51
360.0
 73
               0
 97
        1
330
B7
 75
               0
 76
               1
 98
        1
 10
0.0
 20
0.0
  0
CIRCLE
  5
B9
102
{ACAD_REACTORS
330
BA
102
}
100
AcDbEntity
  8
0
370
              -2
390
0
  6
Continuous
 62
               0
100
AcDbCircle
 10
-75.49410544418788
 20
475.0
 30
0.0
 40
4.99969482421875
  0
HATCH
  5
BA
100
AcDbEntity
  8
0
370
              -2
390
0
  6
Continuous
 62
               0
100
AcDbHatch
 10
0.0
 20
0.0
 30
0.0
210
0.0
220
0.0
230
1.0
  2
SOLID
 70
               1
 71
               1
 91
        1
 92
        1
 93
        1
 72
               2
 10
-75.49410544418788
 20
475.0
 40
4.99969482421875
 50
0.0
 51
360.0
 73
               0
 97
        1
330
B9
 75
               0
 76
               1
 98
        1
 10
0.0
 20
0.0
  0
MTEXT
  5
BB
100
AcDbEntity
  8
0
390
0
 62
               0
100
AcDbMText
 10
-109.37172263168759
 20
626.18749831782407
 30
0.0
 40
24.432617187500004
 41
0.0
 71
               1
 72
               1
  1
350
  7
ＭＳ ゴシック
 11
0.0
 21
1.0
 31
0.0
 73
               1
 44
0.7828267384257843
  0
POINT
  5
BC
100
AcDbEntity
  8
Defpoints
370
               0
390
0
 62
               0
100
AcDbPoint
 10
-322.56915005057454
 20
475.0
 30
0.0
  0
POINT
  5
BD
100
AcDbEntity
  8
Defpoints
370
               0
390
0
 62
               0
100
AcDbPoint
 10
-322.56915005057454
 20
825.0
 30
0.0
  0
POINT
  5
BE
100
AcDbEntity
  8
Defpoints
370
               0
390
0
 62
               0
100
AcDbPoint
 10
-75.49410544418788
 20
825.0
 30
0.0
  0
ENDBLK
  5
BF
100
AcDbEntity
  8
notes
390
0
100
AcDbBlockEnd
  0
BLOCK
  5
C0
100
AcDbEntity
  8
notes
390
0
100
AcDbBlockBegin
  2
*D11
 70
               1
 10
0.0
 20
0.0
 30
0.0
  3
*D11
  1

  0
LINE
  5
C1
100
AcDbEntity
  8
0
370
              -2
390
0
  6
Continuous
 62
               0
100
AcDbLine
 10
-700.49410544418424
 20
537.67875401713445
 30
0.0
 11
-700.49410544418424
 21
385.0
 31
0.0
  0
LINE
  5
C2
100
AcDbEntity
  8
0
370
              -2
390
0
  6
Continuous
 62
               0
100
AcDbLine
 10
-200.49410544418788
 20
537.18257885779894
 30
0.0
 11
-200.49410544418788
 21
385.0
 31
0.0
  0
LINE
  5
C3
100
AcDbEntity
  8
0
370
              -2
390
0
  6
Continuous
 62
               0
100
AcDbLine
 10
-700.49410544418424
 20
385.0
 30
0.0
 11
-200.49410544418788
 21
385.0
 31
0.0
  0
CIRCLE
  5
C4
102
{ACAD_REACTORS
330
C5
102
}
100
AcDbEntity
  8
0
370
              -2
390
0
  6
Continuous
 62
               0
100
AcDbCircle
 10
-700.49410544418424
 20
385.0
 30
0.0
 40
4.99969482421875
  0
HATCH
  5
C5
100
AcDbEntity
  8
0
370
              -2
390
0
  6
Continuous
 62
               0
100
AcDbHatch
 10
0.0
 20
0.0
 30
0.0
210
0.0
220
0.0
230
1.0
  2
SOLID
 70
               1
 71
               1
 91
        1
 92
        1
 93
        1
 72
               2
 10
-700.49410544418424
 20
385.0
 40
4.99969482421875
 50
0.0
 51
360.0
 73
               0
 97
        1
330
C4
 75
               0
 76
               1
 98
        1
 10
0.0
 20
0.0
  0
CIRCLE
  5
C6
102
{ACAD_REACTORS
330
C7
102
}
100
AcDbEntity
  8
0
370
              -2
390
0
  6
Continuous
 62
               0
100
AcDbCircle
 10
-200.49410544418788
 20
385.0
 30
0.0
 40
4.99969482421875
  0
HATCH
  5
C7
100
AcDbEntity
  8
0
370
              -2
390
0
  6
Continuous
 62
               0
100
AcDbHatch
 10
0.0
 20
0.0
 30
0.0
210
0.0
220
0.0
230
1.0
  2
SOLID
 70
               1
 71
               1
 91
        1
 92
        1
 93
        1
 72
               2
 10
-200.49410544418788
 20
385.0
 40
4.99969482421875
 50
0.0
 51
360.0
 73
               0
 97
        1
330
C6
 75
               0
 76
               1
 98
        1
 10
0.0
 20
0.0
  0
MTEXT
  5
C8
100
AcDbEntity
  8
0
390
0
 62
               0
100
AcDbMText
 10
-474.30660712636382
 20
418.87761718749971
 30
0.0
 40
24.432617187500004
 41
0.0
 71
               1
 72
               1
  1
500
  7
ＭＳ ゴシック
 73
               1
 44
0.7828267384257843
  0
POINT
  5
C9
100
AcDbEntity
  8
Defpoints
370
               0
390
0
 62
               0
100
AcDbPoint
 10
-200.49410544418788
 20
562.18257885779894
 30
0.0
  0
POINT
  5
CA
100
AcDbEntity
  8
Defpoints
370
               0
390
0
 62
               0
100
AcDbPoint
 10
-700.49410544418424
 20
562.67875401713445
 30
0.0
  0
POINT
  5
CB
100
AcDbEntity
  8
Defpoints
370
               0
390
0
 62
               0
100
AcDbPoint
 10
-700.49410544418424
 20
385.0
 30
0.0
  0
ENDBLK
  5
CC
100
AcDbEntity
  8
notes
390
0
100
AcDbBlockEnd
  0
BLOCK
  5
CD
100
AcDbEntity
  8
notes
390
0
100
AcDbBlockBegin
  2
*D12
 70
               1
 10
0.0
 20
0.0
 30
0.0
  3
*D12
  1

  0
LINE
  5
CE
100
AcDbEntity
  8
0
370
              -2
390
0
  6
Continuous
 62
               0
100
AcDbLine
 10
-665.60793193719292
 20
500.0
 30
0.0
 11
-825.49410544418788
 21
500.0
 31
0.0
  0
LINE
  5
CF
100
AcDbEntity
  8
0
370
              -2
390
0
  6
Continuous
 62
               0
100
AcDbLine
 10
-665.60793193719292
 20
800.0
 30
0.0
 11
-825.49410544418788
 21
800.0
 31
0.0
  0
LINE
  5
D0
100
AcDbEntity
  8
0
370
              -2
390
0
  6
Continuous
 62
               0
100
AcDbLine
 10
-825.49410544418788
 20
500.0
 30
0.0
 11
-825.49410544418788
 21
800.0
 31
0.0
  0
CIRCLE
  5
D1
102
{ACAD_REACTORS
330
D2
102
}
100
AcDbEntity
  8
0
370
              -2
390
0
  6
Continuous
 62
               0
100
AcDbCircle
 10
-825.49410544418788
 20
500.0
 30
0.0
 40
4.99969482421875
  0
HATCH
  5
D2
100
AcDbEntity
  8
0
370
              -2
390
0
  6
Continuous
 62
               0
100
AcDbHatch
 10
0.0
 20
0.0
 30
0.0
210
0.0
220
0.0
230
1.0
  2
SOLID
 70
               1
 71
               1
 91
        1
 92
        1
 93
        1
 72
               2
 10
-825.49410544418788
 20
500.0
 40
4.99969482421875
 50
0.0
 51
360.0
 73
               0
 97
        1
330
D1
 75
               0
 76
               1
 98
        1
 10
0.0
 20
0.0
  0
CIRCLE
  5
D3
102
{ACAD_REACTORS
330
D4
102
}
100
AcDbEntity
  8
0
370
              -2
390
0
  6
Continuous
 62
               0
100
AcDbCircle
 10
-825.49410544418788
 20
800.0
 30
0.0
 40
4.99969482421875
  0
HATCH
  5
D4
100
AcDbEntity
  8
0
370
              -2
390
0
  6
Continuous
 62
               0
100
AcDbHatch
 10
0.0
 20
0.0
 30
0.0
210
0.0
220
0.0
230
1.0
  2
SOLID
 70
               1
 71
               1
 91
        1
 92
        1
 93
        1
 72
               2
 10
-825.49410544418788
 20
800.0
 40
4.99969482421875
 50
0.0
 51
360.0
 73
               0
 97
        1
330
D3
 75
               0
 76
               1
 98
        1
 10
0.0
 20
0.0
  0
MTEXT
  5
D5
100
AcDbEntity
  8
0
390
0
 62
               0
100
AcDbMText
 10
-859.37172263168759
 20
626.18749831782407
 30
0.0
 40
24.432617187500004
 41
0.0
 71
               1
 72
               1
  1
300
  7
ＭＳ ゴシック
 11
0.0
 21
1.0
 31
0.0
 73
               1
 44
0.7828267384257843
  0
POINT
  5
D6
100
AcDbEntity
  8
Defpoints
370
               0
390
0
 62
               0
100
AcDbPoint
 10
-640.60793193719292
 20
800.0
 30
0.0
  0
POINT
  5
D7
100
AcDbEntity
  8
Defpoints
370
               0
390
0
 62
               0
100
AcDbPoint
 10
-640.60793193719292
 20
500.0
 30
0.0
  0
POINT
  5
D8
100
AcDbEntity
  8
Defpoints
370
               0
390
0
 62
               0
100
AcDbPoint
 10
-825.49410544418788
 20
500.0
 30
0.0
  0
ENDBLK
  5
D9
100
AcDbEntity
  8
notes
390
0
100
AcDbBlockEnd
  0
BLOCK
  5
DA
100
AcDbEntity
  8
notes
390
0
100
AcDbBlockBegin
  2
*D13
 70
               1
 10
0.0
 20
0.0
 30
0.0
  3
*D13
  1

  0
LINE
  5
DB
100
AcDbEntity
  8
0
370
              -2
390
0
  6
Continuous
 62
               0
100
AcDbLine
 10
-450.49410544418788
 20
-495.92219788355214
 30
0.0
 11
-450.49410544418788
 21
-300.92219788355214
 31
0.0
  0
LINE
  5
DC
100
AcDbEntity
  8
0
370
              -2
390
0
  6
Continuous
 62
               0
100
AcDbLine
 10
-725.49410544418788
 20
-387.75794352270395
 30
0.0
 11
-725.49410544418788
 21
-300.92219788355214
 31
0.0
  0
LINE
  5
DD
100
AcDbEntity
  8
0
370
              -2
390
0
  6
Continuous
 62
               0
100
AcDbLine
 10
-450.49410544418788
 20
-300.92219788355214
 30
0.0
 11
-725.49410544418788
 21
-300.92219788355214
 31
0.0
  0
CIRCLE
  5
DE
102
{ACAD_REACTORS
330
DF
102
}
100
AcDbEntity
  8
0
370
              -2
390
0
  6
Continuous
 62
               0
100
AcDbCircle
 10
-450.49410544418788
 20
-300.92219788355214
 30
0.0
 40
4.99969482421875
  0
HATCH
  5
DF
100
AcDbEntity
  8
0
370
              -2
390
0
  6
Continuous
 62
               0
100
AcDbHatch
 10
0.0
 20
0.0
 30
0.0
210
0.0
220
0.0
230
1.0
  2
SOLID
 70
               1
 71
               1
 91
        1
 92
        1
 93
        1
 72
               2
 10
-450.49410544418788
 20
-300.92219788355214
 40
4.99969482421875
 50
0.0
 51
360.0
 73
               0
 97
        1
330
DE
 75
               0
 76
               1
 98
        1
 10
0.0
 20
0.0
  0
CIRCLE
  5
E0
102
{ACAD_REACTORS
330
E1
102
}
100
AcDbEntity
  8
0
370
              -2
390
0
  6
Continuous
 62
               0
100
AcDbCircle
 10
-725.49410544418788
 20
-300.92219788355214
 30
0.0
 40
4.99969482421875
  0
HATCH
  5
E1
100
AcDbEntity
  8
0
370
              -2
390
0
  6
Continuous
 62
               0
100
AcDbHatch
 10
0.0
 20
0.0
 30
0.0
210
0.0
220
0.0
230
1.0
  2
SOLID
 70
               1
 71
               1
 91
        1
 92
        1
 93
        1
 72
               2
 10
-725.49410544418788
 20
-300.92219788355214
 40
4.99969482421875
 50
0.0
 51
360.0
 73
               0
 97
        1
330
E0
 75
               0
 76
               1
 98
        1
 10
0.0
 20
0.0
  0
MTEXT
  5
E2
100
AcDbEntity
  8
0
390
0
 62
               0
100
AcDbMText
 10
-611.80660712636382
 20
-267.04458069605198
 30
0.0
 40
24.432617187500004
 41
0.0
 71
               1
 72
               1
  1
275
  7
ＭＳ ゴシック
 73
               1
 44
0.7828267384257843
  0
POINT
  5
E3
100
AcDbEntity
  8
Defpoints
370
               0
390
0
 62
               0
100
AcDbPoint
 10
-725.49410544418788
 20
-412.75794352270395
 30
0.0
  0
POINT
  5
E4
100
AcDbEntity
  8
Defpoints
370
               0
390
0
 62
               0
100
AcDbPoint
 10
-450.49410544418788
 20
-520.92219788355214
 30
0.0
  0
POINT
  5
E5
100
AcDbEntity
  8
Defpoints
370
               0
390
0
 62
               0
100
AcDbPoint
 10
-450.49410544418788
 20
-300.92219788355214
 30
0.0
  0
ENDBLK
  5
E6
100
AcDbEntity
  8
notes
390
0
100
AcDbBlockEnd
  0
BLOCK
  5
E7
100
AcDbEntity
  8
notes
390
0
100
AcDbBlockBegin
  2
*D14
 70
               1
 10
0.0
 20
0.0
 30
0.0
  3
*D14
  1

  0
LINE
  5
E8
100
AcDbEntity
  8
0
370
              -2
390
0
  6
Continuous
 62
               0
100
AcDbLine
 10
488.94756122247782
 20
-400.92219788355214
 30
0.0
 11
467.43084994942546
 21
-400.92219788355214
 31
0.0
  0
LINE
  5
E9
100
AcDbEntity
  8
0
370
              -2
390
0
  6
Continuous
 62
               0
100
AcDbLine
 10
488.94756122247782
 20
-520.92219788355214
 30
0.0
 11
467.43084994942546
 21
-520.92219788355214
 31
0.0
  0
LINE
  5
EA
100
AcDbEntity
  8
0
370
              -2
390
0
  6
Continuous
 62
               0
100
AcDbLine
 10
467.43084994942546
 20
-400.92219788355214
 30
0.0
 11
467.43084994942546
 21
-249.66597072230752
 31
0.0
  0
LINE
  5
EB
100
AcDbEntity
  8
0
370
              -2
390
0
  6
Continuous
 62
               0
100
AcDbLine
 10
467.43084994942546
 20
-400.92219788355214
 30
0.0
 11
467.43084994942546
 21
-520.92219788355214
 31
0.0
  0
CIRCLE
  5
EC
102
{ACAD_REACTORS
330
ED
102
}
100
AcDbEntity
  8
0
370
              -2
390
0
  6
Continuous
 62
               0
100
AcDbCircle
 10
467.43084994942546
 20
-400.92219788355214
 30
0.0
 40
4.99969482421875
  0
HATCH
  5
ED
100
AcDbEntity
  8
0
370
              -2
390
0
  6
Continuous
 62
               0
100
AcDbHatch
 10
0.0
 20
0.0
 30
0.0
210
0.0
220
0.0
230
1.0
  2
SOLID
 70
               1
 71
               1
 91
        1
 92
        1
 93
        1
 72
               2
 10
467.43084994942546
 20
-400.92219788355214
 40
4.99969482421875
 50
0.0
 51
360.0
 73
               0
 97
        1
330
EC
 75
               0
 76
               1
 98
        1
 10
0.0
 20
0.0
  0
CIRCLE
  5
EE
102
{ACAD_REACTORS
330
EF
102
}
100
AcDbEntity
  8
0
370
              -2
390
0
  6
Continuous
 62
               0
100
AcDbCircle
 10
467.43084994942546
 20
-520.92219788355214
 30
0.0
 40
4.99969482421875
  0
HATCH
  5
EF
100
AcDbEntity
  8
0
370
              -2
390
0
  6
Continuous
 62
               0
100
AcDbHatch
 10
0.0
 20
0.0
 30
0.0
210
0.0
220
0.0
230
1.0
  2
SOLID
 70
               1
 71
               1
 91
        1
 92
        1
 93
        1
 72
               2
 10
467.43084994942546
 20
-520.92219788355214
 40
4.99969482421875
 50
0.0
 51
360.0
 73
               0
 97
        1
330
EE
 75
               0
 76
               1
 98
        1
 10
0.0
 20
0.0
  0
MTEXT
  5
F0
100
AcDbEntity
  8
0
390
0
 62
               0
100
AcDbMText
 10
433.55323276192576
 20
-392.54097072230752
 30
0.0
 40
24.432617187500004
 41
0.0
 71
               1
 72
               1
  1
120(深さ)
  7
ＭＳ ゴシック
 11
0.0
 21
1.0
 31
0.0
 73
               1
 44
0.7828267384257843
  0
POINT
  5
F1
100
AcDbEntity
  8
Defpoints
370
               0
390
0
 62
               0
100
AcDbPoint
 10
463.94756122247782
 20
-520.92219788355214
 30
0.0
  0
POINT
  5
F2
100
AcDbEntity
  8
Defpoints
370
               0
390
0
 62
               0
100
AcDbPoint
 10
463.94756122247782
 20
-400.92219788355214
 30
0.0
  0
POINT
  5
F3
100
AcDbEntity
  8
Defpoints
370
               0
390
0
 62
               0
100
AcDbPoint
 10
467.43084994942546
 20
-400.92219788355214
 30
0.0
  0
ENDBLK
  5
F4
100
AcDbEntity
  8
notes
390
0
100
AcDbBlockEnd
  0
BLOCK
  5
F5
100
AcDbEntity
  8
notes
390
0
100
AcDbBlockBegin
  2
*D15
 70
               1
 10
0.0
 20
0.0
 30
0.0
  3
*D15
  1

  0
LINE
  5
F6
100
AcDbEntity
  8
0
370
              -2
390
0
  6
Continuous
 62
               0
100
AcDbLine
 10
-155.54513116587259
 20
-400.92219788355078
 30
0.0
 11
-75.49410544418788
 21
-400.92219788355078
 31
0.0
  0
LINE
  5
F7
100
AcDbEntity
  8
0
370
              -2
390
0
  6
Continuous
 62
               0
100
AcDbLine
 10
-226.00992886286622
 20
-550.92219788355214
 30
0.0
 11
-75.49410544418788
 21
-550.92219788355214
 31
0.0
  0
LINE
  5
F8
100
AcDbEntity
  8
0
370
              -2
390
0
  6
Continuous
 62
               0
100
AcDbLine
 10
-75.49410544418788
 20
-400.92219788355078
 30
0.0
 11
-75.49410544418788
 21
-550.92219788355214
 31
0.0
  0
CIRCLE
  5
F9
102
{ACAD_REACTORS
330
FA
102
}
100
AcDbEntity
  8
0
370
              -2
390
0
  6
Continuous
 62
               0
100
AcDbCircle
 10
-75.49410544418788
 20
-400.92219788355078
 30
0.0
 40
4.99969482421875
  0
HATCH
  5
FA
100
AcDbEntity
  8
0
370
              -2
390
0
  6
Continuous
 62
               0
100
AcDbHatch
 10
0.0
 20
0.0
 30
0.0
210
0.0
220
0.0
230
1.0
  2
SOLID
 70
               1
 71
               1
 91
        1
 92
        1
 93
        1
 72
               2
 10
-75.49410544418788
 20
-400.92219788355078
 40
4.99969482421875
 50
0.0
 51
360.0
 73
               0
 97
        1
330
F9
 75
               0
 76
               1
 98
        1
 10
0.0
 20
0.0
  0
CIRCLE
  5
FB
102
{ACAD_REACTORS
330
FC
102
}
100
AcDbEntity
  8
0
370
              -2
390
0
  6
Continuous
 62
               0
100
AcDbCircle
 10
-75.49410544418788
 20
-550.92219788355214
 30
0.0
 40
4.99969482421875
  0
HATCH
  5
FC
100
AcDbEntity
  8
0
370
              -2
390
0
  6
Continuous
 62
               0
100
AcDbHatch
 10
0.0
 20
0.0
 30
0.0
210
0.0
220
0.0
230
1.0
  2
SOLID
 70
               1
 71
               1
 91
        1
 92
        1
 93
        1
 72
               2
 10
-75.49410544418788
 20
-550.92219788355214
 40
4.99969482421875
 50
0.0
 51
360.0
 73
               0
 97
        1
330
FB
 75
               0
 76
               1
 98
        1
 10
0.0
 20
0.0
  0
MTEXT
  5
FD
100
AcDbEntity
  8
0
390
0
 62
               0
100
AcDbMText
 10
-109.37172263168759
 20
-499.73469956572671
 30
0.0
 40
24.432617187500004
 41
0.0
 71
               1
 72
               1
  1
150
  7
ＭＳ ゴシック
 11
0.0
 21
1.0
 31
0.0
 73
               1
 44
0.7828267384257843
  0
POINT
  5
FE
100
AcDbEntity
  8
Defpoints
370
               0
390
0
 62
               0
100
AcDbPoint
 10
-251.00992886286622
 20
-550.92219788355214
 30
0.0
  0
POINT
  5
FF
100
AcDbEntity
  8
Defpoints
370
               0
390
0
 62
               0
100
AcDbPoint
 10
-180.54513116587259
 20
-400.92219788355078
 30
0.0
  0
POINT
  5
100
100
AcDbEntity
  8
Defpoints
370
               0
390
0
 62
               0
100
AcDbPoint
 10
-75.49410544418788
 20
-400.92219788355078
 30
0.0
  0
ENDBLK
  5
101
100
AcDbEntity
  8
notes
390
0
100
AcDbBlockEnd
  0
BLOCK
  5
102
100
AcDbEntity
  8
notes
390
0
100
AcDbBlockBegin
  2
*D16
 70
               1
 10
0.0
 20
0.0
 30
0.0
  3
*D16
  1

  0
LINE
  5
103
100
AcDbEntity
  8
0
370
              -2
390
0
  6
Continuous
 62
               0
100
AcDbLine
 10
648.89653550079674
 20
-400.92219788355214
 30
0.0
 11
728.89549415953661
 21
-400.92219788355214
 31
0.0
  0
LINE
  5
104
100
AcDbEntity
  8
0
370
              -2
390
0
  6
Continuous
 62
               0
100
AcDbLine
 10
638.73469885996019
 20
-475.92219788354851
 30
0.0
 11
728.89549415953661
 21
-475.92219788354851
 31
0.0
  0
LINE
  5
105
100
AcDbEntity
  8
0
370
              -2
390
0
  6
Continuous
 62
               0
100
AcDbLine
 10
728.89549415953661
 20
-400.92219788355214
 30
0.0
 11
728.89549415953661
 21
-475.92219788354851
 31
0.0
  0
CIRCLE
  5
106
102
{ACAD_REACTORS
330
107
102
}
100
AcDbEntity
  8
0
370
              -2
390
0
  6
Continuous
 62
               0
100
AcDbCircle
 10
728.89549415953661
 20
-400.92219788355214
 30
0.0
 40
4.99969482421875
  0
HATCH
  5
107
100
AcDbEntity
  8
0
370
              -2
390
0
  6
Continuous
 62
               0
100
AcDbHatch
 10
0.0
 20
0.0
 30
0.0
210
0.0
220
0.0
230
1.0
  2
SOLID
 70
               1
 71
               1
 91
        1
 92
        1
 93
        1
 72
               2
 10
728.89549415953661
 20
-400.92219788355214
 40
4.99969482421875
 50
0.0
 51
360.0
 73
               0
 97
        1
330
106
 75
               0
 76
               1
 98
        1
 10
0.0
 20
0.0
  0
CIRCLE
  5
108
102
{ACAD_REACTORS
330
109
102
}
100
AcDbEntity
  8
0
370
              -2
390
0
  6
Continuous
 62
               0
100
AcDbCircle
 10
728.89549415953661
 20
-475.92219788354851
 30
0.0
 40
4.99969482421875
  0
HATCH
  5
109
100
AcDbEntity
  8
0
370
              -2
390
0
  6
Continuous
 62
               0
100
AcDbHatch
 10
0.0
 20
0.0
 30
0.0
210
0.0
220
0.0
230
1.0
  2
SOLID
 70
               1
 71
               1
 91
        1
 92
        1
 93
        1
 72
               2
 10
728.89549415953661
 20
-475.92219788354851
 40
4.99969482421875
 50
0.0
 51
360.0
 73
               0
 97
        1
330
108
 75
               0
 76
               1
 98
        1
 10
0.0
 20
0.0
  0
MTEXT
  5
10A
100
AcDbEntity
  8
0
390
0
 62
               0
100
AcDbMText
 10
695.0178769720369
 20
-454.29719788355033
 30
0.0
 40
24.432617187500004
 41
0.0
 71
               1
 72
               1
  1
75
  7
ＭＳ ゴシック
 11
0.0
 21
1.0
 31
0.0
 73
               1
 44
0.7828267384257843
  0
POINT
  5
10B
100
AcDbEntity
  8
Defpoints
370
               0
390
0
 62
               0
100
AcDbPoint
 10
613.73469885996019
 20
-475.92219788354851
 30
0.0
  0
POINT
  5
10C
100
AcDbEntity
  8
Defpoints
370
               0
390
0
 62
               0
100
AcDbPoint
 10
623.89653550079674
 20
-400.92219788355214
 30
0.0
  0
POINT
  5
10D
100
AcDbEntity
  8
Defpoints
370
               0
390
0
 62
               0
100
AcDbPoint
 10
728.89549415953661
 20
-400.92219788355214
 30
0.0
  0
ENDBLK
  5
10E
100
AcDbEntity
  8
notes
390
0
100
AcDbBlockEnd
  0
BLOCK
  5
10F
100
AcDbEntity
  8
notes
390
0
100
AcDbBlockBegin
  2
*D17
 70
               1
 10
0.0
 20
0.0
 30
0.0
  3
*D17
  1

  0
LINE
  5
110
100
AcDbEntity
  8
0
370
              -2
390
0
  6
Continuous
 62
               0
100
AcDbLine
 10
638.73469885995655
 20
-475.92219788354851
 30
0.0
 11
728.89549415953661
 21
-475.92219788354851
 31
0.0
  0
LINE
  5
111
100
AcDbEntity
  8
0
370
              -2
390
0
  6
Continuous
 62
               0
100
AcDbLine
 10
575.39121163185337
 20
-550.92219788355214
 30
0.0
 11
728.89549415953661
 21
-550.92219788355214
 31
0.0
  0
LINE
  5
112
100
AcDbEntity
  8
0
370
              -2
390
0
  6
Continuous
 62
               0
100
AcDbLine
 10
728.89549415953661
 20
-475.92219788354851
 30
0.0
 11
728.89549415953661
 21
-550.92219788355214
 31
0.0
  0
CIRCLE
  5
113
102
{ACAD_REACTORS
330
114
102
}
100
AcDbEntity
  8
0
370
              -2
390
0
  6
Continuous
 62
               0
100
AcDbCircle
 10
728.89549415953661
 20
-475.92219788354851
 30
0.0
 40
4.99969482421875
  0
HATCH
  5
114
100
AcDbEntity
  8
0
370
              -2
390
0
  6
Continuous
 62
               0
100
AcDbHatch
 10
0.0
 20
0.0
 30
0.0
210
0.0
220
0.0
230
1.0
  2
SOLID
 70
               1
 71
               1
 91
        1
 92
        1
 93
        1
 72
               2
 10
728.89549415953661
 20
-475.92219788354851
 40
4.99969482421875
 50
0.0
 51
360.0
 73
               0
 97
        1
330
113
 75
               0
 76
               1
 98
        1
 10
0.0
 20
0.0
  0
CIRCLE
  5
115
102
{ACAD_REACTORS
330
116
102
}
100
AcDbEntity
  8
0
370
              -2
390
0
  6
Continuous
 62
               0
100
AcDbCircle
 10
728.89549415953661
 20
-550.92219788355214
 30
0.0
 40
4.99969482421875
  0
HATCH
  5
116
100
AcDbEntity
  8
0
370
              -2
390
0
  6
Continuous
 62
               0
100
AcDbHatch
 10
0.0
 20
0.0
 30
0.0
210
0.0
220
0.0
230
1.0
  2
SOLID
 70
               1
 71
               1
 91
        1
 92
        1
 93
        1
 72
               2
 10
728.89549415953661
 20
-550.92219788355214
 40
4.99969482421875
 50
0.0
 51
360.0
 73
               0
 97
        1
330
115
 75
               0
 76
               1
 98
        1
 10
0.0
 20
0.0
  0
MTEXT
  5
117
100
AcDbEntity
  8
0
390
0
 62
               0
100
AcDbMText
 10
695.0178769720369
 20
-529.29719788355033
 30
0.0
 40
24.432617187500004
 41
0.0
 71
               1
 72
               1
  1
75
  7
ＭＳ ゴシック
 11
0.0
 21
1.0
 31
0.0
 73
               1
 44
0.7828267384257843
  0
POINT
  5
118
100
AcDbEntity
  8
Defpoints
370
               0
390
0
 62
               0
100
AcDbPoint
 10
550.39121163185337
 20
-550.92219788355214
 30
0.0
  0
POINT
  5
119
100
AcDbEntity
  8
Defpoints
370
               0
390
0
 62
               0
100
AcDbPoint
 10
613.73469885995655
 20
-475.92219788354851
 30
0.0
  0
POINT
  5
11A
100
AcDbEntity
  8
Defpoints
370
               0
390
0
 62
               0
100
AcDbPoint
 10
728.89549415953661
 20
-475.92219788354851
 30
0.0
  0
ENDBLK
  5
11B
100
AcDbEntity
  8
notes
390
0
100
AcDbBlockEnd
  0
ENDSEC
  0
SECTION
  2
ENTITIES
  0
MTEXT
  5
11C
100
AcDbEntity
  8
template
390
0
 62
               7
100
AcDbMText
 10
-967.99999999975989
 20
-1147.4176292337006
 30
0.0
 40
16.288411458333332
 41
0.0
 71
               1
 72
               1
  1
品名
  7
ＭＳ ゴシック
 73
               1
 44
0.7828267384257843
  0
MTEXT
  5
11D
100
AcDbEntity
  8
template
390
0
 62
               7
100
AcDbMText
 10
-967.99999999975989
 20
-1232.4176292337006
 30
0.0
 40
16.288411458333332
 41
0.0
 71
               1
 72
               1
  1
仕様
  7
ＭＳ ゴシック
 73
               1
 44
0.7828267384257843
  0
MTEXT
  5
11E
100
AcDbEntity
  8
template
390
0
 62
               7
100
AcDbMText
 10
-914.99999999975989
 20
-1176.0000901712006
 30
0.0
 40
24.432617187500004
 41
0.0
 71
               1
 72
               1
  1
手洗器 -CATALANO,Sfera-
  7
ＭＳ ゴシック
 73
               1
 44
0.7828267384257843
  0
LINE
  5
11F
100
AcDbEntity
  8
template
370
               5
390
0
  6
Continuous
 62
               7
100
AcDbLine
 10
974.99999999975989
 20
-1224.0027073587007
 30
0.0
 11
-975.00000000024011
 21
-1224.0027073587007
 31
0.0
  0
LWPOLYLINE
  5
120
100
AcDbEntity
  8
template
370
               5
390
0
  6
Continuous
 62
               7
100
AcDbPolyline
 90
        5
 70
             128
 10
975.00000000024011
 20
1405.9972926412993
 10
-974.99999999975989
 20
1405.9972926412993
 10
-974.99999999975989
 20
-1394.0027073587007
 10
975.00000000024011
 20
-1394.0027073587007
 10
975.00000000024011
 20
1405.9972926412993
  0
LINE
  5
121
100
AcDbEntity
  8
template
370
               5
390
0
  6
Continuous
 62
               7
100
AcDbLine
 10
974.99999999975989
 20
-1139.0027073587007
 30
0.0
 11
-975.00000000024011
 21
-1139.0027073587007
 31
0.0
  0
LINE
  5
122
100
AcDbEntity
  8
template
370
               5
390
0
  6
Continuous
 62
               7
100
AcDbLine
 10
975.00000000024011
 20
-1309.0027073587007
 30
0.0
 11
222.00000000024011
 21
-1309.0027073587007
 31
0.0
  0
MTEXT
  5
123
100
AcDbEntity
  8
template
390
0
 62
               7
100
AcDbMText
 10
-974.99999999955617
 20
-1405.8565294155578
 30
0.0
 40
21.717881944444446
 41
0.0
 71
               1
 72
               1
  1
120308SH
  7
ＭＳ ゴシック
 73
               1
 44
0.7828267384257843
  0
MTEXT
  5
124
100
AcDbEntity
  8
template
390
0
 62
               7
100
AcDbMText
 10
251.87140625249958
 20
-1338.9131018320081
 30
0.0
 40
24.432617187500004
 41
0.0
 71
               1
 72
               1
  1
大洋金物株式会社 ティーフォルム事業部
  7
ＭＳ ゴシック
 73
               1
 44
0.7828267384257843
  0
INSERT
  5
125
100
AcDbEntity
  8
template
390
0
 62
               7
100
AcDbBlockReference
  2
グループ
 10
22783.706022121507
 20
-3755.6917035271827
 30
0.0
  0
MTEXT
  5
126
100
AcDbEntity
  8
template
390
0
 62
               7
100
AcDbMText
 10
784.0000000004984
 20
-1261.0000901712006
 30
0.0
 40
24.432617187500004
 41
0.0
 71
               1
 72
               1
  1
1:10
  7
ＭＳ ゴシック
 73
               1
 44
0.7828267384257843
  0
MTEXT
  5
127
100
AcDbEntity
  8
template
390
0
 62
               7
100
AcDbMText
 10
731.0000000004984
 20
-1232.4176292337006
 30
0.0
 40
16.288411458333332
 41
0.0
 71
               1
 72
               1
  1
縮尺
  7
ＭＳ ゴシック
 73
               1
 44
0.7828267384257843
  0
LINE
  5
128
100
AcDbEntity
  8
template
370
               5
390
0
  6
Continuous
 62
               7
100
AcDbLine
 10
724.0000000004984
 20
-1309.0027073587007
 30
0.0
 11
724.0000000004984
 21
-1224.0027073587007
 31
0.0
  0
MTEXT
  5
129
100
AcDbEntity
  8
template
390
0
 62
               7
100
AcDbMText
 10
480.0000000004984
 20
-1232.4176292337006
 30
0.0
 40
16.288411458333332
 41
0.0
 71
               1
 72
               1
  1
容量
  7
ＭＳ ゴシック
 73
               1
 44
0.7828267384257843
  0
MTEXT
  5
12A
100
AcDbEntity
  8
template
390
0
 62
               7
100
AcDbMText
 10
533.0000000004984
 20
-1261.0000901712006
 30
0.0
 40
24.432617187500004
 41
0.0
 71
               1
 72
               1
  1
9L
  7
ＭＳ ゴシック
 73
               1
 44
0.7828267384257843
  0
LINE
  5
12B
100
AcDbEntity
  8
template
370
               5
390
0
  6
Continuous
 62
               7
100
AcDbLine
 10
473.0000000004984
 20
-1309.0027073587007
 30
0.0
 11
473.0000000004984
 21
-1224.0027073587007
 31
0.0
  0
MTEXT
  5
12C
100
AcDbEntity
  8
template
390
0
 62
               7
100
AcDbMText
 10
229.0000000004984
 20
-1147.4176292337006
 30
0.0
 40
16.288411458333332
 41
0.0
 71
               1
 72
               1
  1
品番
  7
ＭＳ ゴシック
 73
               1
 44
0.7828267384257843
  0
MTEXT
  5
12D
100
AcDbEntity
  8
template
390
0
 62
               7
100
AcDbMText
 10
229.0000000004984
 20
-1232.4176292337006
 30
0.0
 40
16.288411458333332
 41
0.0
 71
               1
 72
               1
  1
重量
  7
ＭＳ ゴシック
 73
               1
 44
0.7828267384257843
  0
MTEXT
  5
12E
100
AcDbEntity
  8
template
390
0
 62
               7
100
AcDbMText
 10
282.0000000004984
 20
-1176.0000901712006
 30
0.0
 40
24.432617187500004
 41
0.0
 71
               1
 72
               1
  1
ADF70-0902
  7
ＭＳ ゴシック
 73
               1
 44
0.7828267384257843
  0
MTEXT
  5
12F
100
AcDbEntity
  8
template
390
0
 62
               7
100
AcDbMText
 10
282.0000000004984
 20
-1261.0000901712006
 30
0.0
 40
24.432617187500004
 41
0.0
 71
               1
 72
               1
  1
9kg
  7
ＭＳ ゴシック
 73
               1
 44
0.7828267384257843
  0
LINE
  5
130
100
AcDbEntity
  8
template
370
               5
390
0
  6
Continuous
 62
               7
100
AcDbLine
 10
222.0000000004984
 20
-1394.0027073587007
 30
0.0
 11
222.0000000004984
 21
-1139.0027073587007
 31
0.0
  0
MTEXT
  5
131
100
AcDbEntity
  8
template
390
0
 62
               7
100
AcDbMText
 10
-914.99999999975989
 20
-1261.0000901712001
 30
0.0
 40
24.432617187500004
 41
0.0
 71
               1
 72
               1
  1
カウンター置き,半埋め込み/オーバーフローなし/陶器/ホワイト
  7
ＭＳ ゴシック
 73
               1
 44
1.3047112307096407
  0
MTEXT
  5
132
100
AcDbEntity
  8
notes
390
0
 62
               7
100
AcDbMText
 10
327.92825121135684
 20
1063.8147491709215
 30
0.0
 40
24.432617187500004
 41
0.0
 71
               1
 72
               1
  1
カウンター切込寸法
  7
ＭＳ ゴシック
 73
               1
 44
0.7828267384257843
  0
MTEXT
  5
133
100
AcDbEntity
  8
notes
390
0
 62
               7
100
AcDbMText
 10
357.6670481670626
 20
877.30189947495182
 30
0.0
 40
24.432617187500004
 41
0.0
 71
               1
 72
               1
  1
カウンター置き
  7
ＭＳ ゴシック
 73
               1
 44
0.7828267384257843
  0
MTEXT
  5
134
100
AcDbEntity
  8
notes
390
0
 62
               7
100
AcDbMText
 10
-763.35696557000847
 20
-710.92081631355222
 30
0.0
 40
24.432617187500004
 41
0.0
 71
               1
 72
               1
  1
カウンター置き
  7
ＭＳ ゴシック
 73
               1
 44
0.7828267384257843
  0
LINE
  5
135
100
AcDbEntity
  8
notes
370
               5
390
0
  6
Continuous
 62
               7
100
AcDbLine
 10
-670.35548706981353
 20
-550.91285584724301
 30
0.0
 11
-777.05548706981426
 21
-550.91285584724301
 31
0.0
  0
LINE
  5
136
100
AcDbEntity
  8
notes
370
               5
390
0
  6
Continuous
 62
               7
100
AcDbLine
 10
-752.05548706981426
 20
-550.91285584724301
 30
0.0
 11
-752.05548706981426
 21
-702.13892897620826
 31
0.0
  0
LINE
  5
137
100
AcDbEntity
  8
notes
370
               5
390
0
  6
Continuous
 62
               7
100
AcDbLine
 10
-726.60527077184815
 20
-475.92219788355123
 30
0.0
 11
-833.30527077184888
 21
-475.92219788355123
 31
0.0
  0
LINE
  5
138
100
AcDbEntity
  8
notes
370
               5
390
0
  6
Continuous
 62
               7
100
AcDbLine
 10
-808.30527077184888
 20
-475.92219788355123
 30
0.0
 11
-808.30527077184888
 21
-770.13892897620826
 31
0.0
  0
MTEXT
  5
139
100
AcDbEntity
  8
notes
390
0
 62
               7
100
AcDbMText
 10
-825.69006812655425
 20
-781.37242289981941
 30
0.0
 40
24.432617187500004
 41
0.0
 71
               1
 72
               1
  1
半埋め込み
  7
ＭＳ ゴシック
 73
               1
 44
0.7828267384257843
  0
MTEXT
  5
13A
100
AcDbEntity
  8
notes
390
0
 62
               7
100
AcDbMText
 10
286.43084994942546
 20
962.98868821129145
 30
0.0
 40
24.432617187500004
 41
0.0
 71
               1
 72
               1
  1
半埋め込み
  7
ＭＳ ゴシック
 73
               1
 44
0.7828267384257843
  0
MTEXT
  5
13B
100
AcDbEntity
  8
notes
390
0
 62
               7
100
AcDbMText
 10
102.95437464655697
 20
277.74022181383452
 30
0.0
 40
24.432617187500004
 41
762.47647530286986
 71
               1
 72
               1
  1
※陶器製品には寸法公差があります。\P  洗面器の収め方をご確認の上、必ず現物を合わせて\P  カウンターに切込を行ってください。
  7
ＭＳ ゴシック
 73
               1
 44
1.0437689845677123
  0
DIMENSION
  5
13C
100
AcDbEntity
  8
notes
370
               5
390
0
  6
Continuous
 62
               7
100
AcDbDimension
  2
*D4
 10
428.59222216315175
 20
614.64466094067302
 30
0.0
 11
583.36687511561468
 21
705.91931389313777
 31
0.0
 70
               3
 71
               5
 72
               1
 41
1.0
 42
0.0
  3
Tform線あり
100
AcDbDiametricDimension
 15
499.30290028180389
 25
685.35533905932698
 35
0.0
 40
29.081852106273427
1001
ACAD
1000
DSTYLE
1002
{
1070
             172
1070
               0
1070
             289
1070
               0
1070
             342
1005
4E
1070
             340
1005
32
1070
              73
1070
               1
1070
              74
1070
               1
1070
              75
1070
               1
1070
              76
1070
               1
1070
               3
1000

1070
             174
1070
               0
1070
             147
1040
5.0
1002
}
  0
DIMENSION
  5
13D
100
AcDbEntity
  8
notes
370
               5
390
0
  6
Continuous
 62
               7
100
AcDbDimension
  2
*D5
 10
371.44756122247782
 20
-650.92219788355214
 30
0.0
 11
463.94756122247782
 21
-650.92219788355214
 31
0.0
 71
               5
 72
               1
 41
1.0
 42
0.0
  3
Tform線あり
100
AcDbAlignedDimension
 13
556.44756122247782
 23
-550.92219788355214
 33
0.0
 14
371.44756122247782
 24
-550.92219788355214
 34
0.0
100
AcDbRotatedDimension
1001
ACAD
1000
DSTYLE
1002
{
1070
             279
1070
               2
1070
             340
1005
32
1070
             147
1040
5.0
1002
}
  0
DIMENSION
  5
13E
100
AcDbEntity
  8
notes
370
               5
390
0
  6
Continuous
 62
               7
100
AcDbDimension
  2
*D6
 10
-650.46915005057599
 20
-650.92219788355214
 30
0.0
 11
-450.46915005057599
 21
-650.92219788355214
 31
0.0
 71
               5
 72
               1
 41
1.0
 42
0.0
  3
Tform線あり
100
AcDbAlignedDimension
 13
-250.46915005057599
 23
-550.92219788355214
 33
0.0
 14
-650.46915005057599
 24
-550.92219788355214
 34
0.0
100
AcDbRotatedDimension
1001
ACAD
1000
DSTYLE
1002
{
1070
             279
1070
               2
1070
             340
1005
32
1070
             147
1040
5.0
1002
}
  0
LINE
  5
13F
100
AcDbEntity
  8
notes
370
               5
390
0
  6
Continuous
 62
               7
100
AcDbLine
 10
430.43084994942546
 20
687.10296572295647
 30
0.0
 11
430.43084994942546
 21
843.86107102379174
 31
0.0
  0
DIMENSION
  5
140
100
AcDbEntity
  8
notes
370
               5
390
0
  6
Continuous
 62
               7
100
AcDbDimension
  2
*D7
 10
838.93369695161891
 20
790.0
 30
0.0
 11
838.93369695161891
 21
650.0
 31
0.0
 71
               5
 72
               1
 41
1.0
 42
0.0
  3
Tform線あり
100
AcDbAlignedDimension
 13
598.94756122247782
 23
510.0
 33
0.0
 14
598.94756122247782
 24
790.0
 34
0.0
 50
90.0
100
AcDbRotatedDimension
1001
ACAD
1000
DSTYLE
1002
{
1070
             279
1070
               2
1070
             340
1005
32
1070
             147
1040
5.0
1002
}
  0
DIMENSION
  5
141
100
AcDbEntity
  8
notes
370
               5
390
0
  6
Continuous
 62
               7
100
AcDbDimension
  2
*D8
 10
213.94756122247782
 20
385.0
 30
0.0
 11
463.94756122247782
 21
385.0
 31
0.0
 71
               5
 72
               1
 41
1.0
 42
0.0
  3
Tform線あり
100
AcDbAlignedDimension
 13
713.94756122247782
 23
625.0
 33
0.0
 14
213.94756122247782
 24
625.0
 34
0.0
100
AcDbRotatedDimension
1001
ACAD
1000
DSTYLE
1002
{
1070
             279
1070
               2
1070
             340
1005
32
1070
             147
1040
5.0
1002
}
  0
LINE
  5
142
100
AcDbEntity
  8
notes
370
               5
390
0
  6
Continuous
 62
               7
100
AcDbLine
 10
302.43084994942546
 20
929.86107102379174
 30
0.0
 11
302.43084994942546
 21
780.1769121603711
 31
0.0
  0
DIMENSION
  5
143
100
AcDbEntity
  8
notes
370
               5
390
0
  6
Continuous
 62
               7
100
AcDbDimension
  2
*D9
 10
-725.49410544418788
 20
915.0
 30
0.0
 11
-450.49430040641164
 21
920.0
 31
0.0
 70
             128
 71
               5
 72
               1
 41
1.0
 42
0.0
  3
Tform線あり
100
AcDbAlignedDimension
 13
-175.49449536863904
 23
674.53690357679625
 33
0.0
 14
-725.49410544418788
 24
675.0
 34
0.0
100
AcDbRotatedDimension
1001
ACAD
1000
DSTYLE
1002
{
1070
             279
1070
               2
1070
             340
1005
32
1070
             147
1040
5.0
1002
}
  0
DIMENSION
  5
144
100
AcDbEntity
  8
notes
370
               5
390
0
  6
Continuous
 62
               7
100
AcDbDimension
  2
*D10
 10
-75.49410544418788
 20
825.0
 30
0.0
 11
-75.49410544418788
 21
650.0
 31
0.0
 71
               5
 72
               1
 41
1.0
 42
0.0
  3
Tform線あり
100
AcDbAlignedDimension
 13
-322.56915005057454
 23
475.0
 33
0.0
 14
-322.56915005057454
 24
825.0
 34
0.0
 50
90.0
100
AcDbRotatedDimension
1001
ACAD
1000
DSTYLE
1002
{
1070
             279
1070
               2
1070
             340
1005
32
1070
             147
1040
5.0
1002
}
  0
DIMENSION
  5
145
100
AcDbEntity
  8
notes
370
               5
390
0
  6
Continuous
 62
               7
100
AcDbDimension
  2
*D11
 10
-700.49410544418424
 20
385.0
 30
0.0
 11
-450.49410544418788
 21
390.0
 31
0.0
 70
             128
 71
               5
 72
               1
 41
1.0
 42
0.0
  3
Tform線あり
100
AcDbAlignedDimension
 13
-200.49410544418788
 23
562.18257885779894
 33
0.0
 14
-700.49410544418424
 24
562.67875401713445
 34
0.0
100
AcDbRotatedDimension
1001
ACAD
1000
DSTYLE
1002
{
1070
             279
1070
               2
1070
             340
1005
32
1070
             147
1040
5.0
1002
}
  0
DIMENSION
  5
146
100
AcDbEntity
  8
notes
370
               5
390
0
  6
Continuous
 62
               7
100
AcDbDimension
  2
*D12
 10
-825.49410544418788
 20
500.0
 30
0.0
 11
-825.49410544418788
 21
650.0
 31
0.0
 71
               5
 72
               1
 41
1.0
 42
0.0
  3
Tform線あり
100
AcDbAlignedDimension
 13
-640.60793193719292
 23
800.0
 33
0.0
 14
-640.60793193719292
 24
500.0
 34
0.0
 50
90.0
100
AcDbRotatedDimension
1001
ACAD
1000
DSTYLE
1002
{
1070
             279
1070
               2
1070
             340
1005
32
1070
             147
1040
5.0
1002
}
  0
DIMENSION
  5
147
100
AcDbEntity
  8
notes
370
               5
390
0
  6
Continuous
 62
               7
100
AcDbDimension
  2
*D13
 10
-450.49410544418788
 20
-300.92219788355214
 30
0.0
 11
-587.99410544418788
 21
-300.92219788355214
 31
0.0
 71
               5
 72
               1
 41
1.0
 42
0.0
  3
Tform線あり
100
AcDbAlignedDimension
 13
-725.49410544418788
 23
-412.75794352270395
 33
0.0
 14
-450.49410544418788
 24
-520.92219788355214
 34
0.0
100
AcDbRotatedDimension
1001
ACAD
1000
DSTYLE
1002
{
1070
             279
1070
               2
1070
             340
1005
32
1070
             147
1040
5.0
1002
}
  0
DIMENSION
  5
148
100
AcDbEntity
  8
notes
370
               5
390
0
  6
Continuous
 62
               7
100
AcDbDimension
  2
*D14
 10
467.43084994942546
 20
-400.92219788355214
 30
0.0
 11
472.43084994942546
 21
-392.54097072230752
 31
0.0
 70
             128
 71
               5
 72
               1
 41
1.0
 42
0.0
  3
Tform線あり
100
AcDbAlignedDimension
 13
463.94756122247782
 23
-520.92219788355214
 33
0.0
 14
463.94756122247782
 24
-400.92219788355214
 34
0.0
 50
90.0
100
AcDbRotatedDimension
1001
ACAD
1000
DSTYLE
1002
{
1070
             279
1070
               2
1070
             340
1005
32
1070
               3
1000
<>(深さ)
1070
             174
1070
               0
1070
             147
1040
5.0
1002
}
  0
DIMENSION
  5
149
100
AcDbEntity
  8
notes
370
               5
390
0
  6
Continuous
 62
               7
100
AcDbDimension
  2
*D15
 10
-75.49410544418788
 20
-400.92219788355078
 30
0.0
 11
-75.49410544418788
 21
-475.92219788355123
 31
0.0
 71
               5
 72
               1
 41
1.0
 42
0.0
  3
Tform線あり
100
AcDbAlignedDimension
 13
-251.00992886286622
 23
-550.92219788355214
 33
0.0
 14
-180.54513116587259
 24
-400.92219788355078
 34
0.0
 50
90.0
100
AcDbRotatedDimension
1001
ACAD
1000
DSTYLE
1002
{
1070
             279
1070
               2
1070
             340
1005
32
1070
             147
1040
5.0
1002
}
  0
DIMENSION
  5
14A
100
AcDbEntity
  8
notes
370
               5
390
0
  6
Continuous
 62
               7
100
AcDbDimension
  2
*D16
 10
728.89549415953661
 20
-400.92219788355214
 30
0.0
 11
728.89549415953661
 21
-438.42219788355033
 31
0.0
 71
               5
 72
               1
 41
1.0
 42
0.0
  3
Tform線あり
100
AcDbAlignedDimension
 13
613.73469885996019
 23
-475.92219788354851
 33
0.0
 14
623.89653550079674
 24
-400.92219788355214
 34
0.0
 50
90.0
100
AcDbRotatedDimension
1001
ACAD
1000
DSTYLE
1002
{
1070
             279
1070
               2
1070
             340
1005
32
1070
             147
1040
5.0
1002
}
  0
DIMENSION
  5
14B
100
AcDbEntity
  8
notes
370
               5
390
0
  6
Continuous
 62
               7
100
AcDbDimension
  2
*D17
 10
728.89549415953661
 20
-475.92219788354851
 30
0.0
 11
728.89549415953661
 21
-513.42219788355033
 31
0.0
 71
               5
 72
               1
 41
1.0
 42
0.0
  3
Tform線あり
100
AcDbAlignedDimension
 13
550.39121163185337
 23
-550.92219788355214
 33
0.0
 14
613.73469885995655
 24
-475.92219788354851
 34
0.0
 50
90.0
100
AcDbRotatedDimension
1001
ACAD
1000
DSTYLE
1002
{
1070
             279
1070
               2
1070
             340
1005
32
1070
             147
1040
5.0
1002
}
  0
CIRCLE
  5
14C
100
AcDbEntity
  8
ADF70-0902
370
              15
390
0
  6
Continuous
 62
               7
100
AcDbCircle
 10
-450.49410544418788
 20
650.0
 30
0.0
 40
37.5
  0
CIRCLE
  5
14D
100
AcDbEntity
  8
ADF70-0902
370
              15
390
0
  6
Continuous
 62
               7
100
AcDbCircle
 10
-450.49410544418788
 20
650.0
 30
0.0
 40
23.0
  0
ARC
  5
14E
100
AcDbEntity
  8
ADF70-0902
370
              15
390
0
  6
Continuous
 62
               7
100
AcDbCircle
 10
-350.46915005057599
 20
650.0
 30
0.0
 40
175.0
100
AcDbArc
 50
270.0
 51
90.0
  0
ARC
  5
14F
100
AcDbEntity
  8
ADF70-0902
370
              15
390
0
  6
Continuous
 62
               7
100
AcDbCircle
 10
-550.46915005057599
 20
650.0
 30
0.0
 40
175.0
100
AcDbArc
 50
90.0
 51
270.0
  0
LINE
  5
150
100
AcDbEntity
  8
ADF70-0902
370
              15
390
0
  6
Continuous
 62
               7
100
AcDbLine
 10
-350.46915005057599
 20
475.0
 30
0.0
 11
-550.46915005057599
 21
475.0
 31
0.0
  0
LINE
  5
151
100
AcDbEntity
  8
ADF70-0902
370
              15
390
0
  6
Continuous
 62
               7
100
AcDbLine
 10
-550.46915005057599
 20
825.0
 30
0.0
 11
-350.46915005057599
 21
825.0
 31
0.0
  0
LINE
  5
152
100
AcDbEntity
  8
ADF70-0902
370
              15
390
0
  6
Continuous
 62
               7
100
AcDbLine
 10
-350.46915005057599
 20
500.0
 30
0.0
 11
-550.46915005057599
 21
500.0
 31
0.0
  0
LINE
  5
153
100
AcDbEntity
  8
ADF70-0902
370
              15
390
0
  6
Continuous
 62
               7
100
AcDbLine
 10
-550.46915005057599
 20
800.0
 30
0.0
 11
-350.46915005057599
 21
800.0
 31
0.0
  0
LINE
  5
154
100
AcDbEntity
  8
ADF70-0902
370
              15
390
0
  6
Continuous
 62
               7
100
AcDbLine
 10
607.65685081404445
 20
-400.92219788355214
 30
0.0
 11
320.23827163090755
 21
-400.92219788355214
 31
0.0
  0
LINE
  5
155
100
AcDbEntity
  8
ADF70-0902
370
              15
390
0
  6
STYLE_23
 62
               7
100
AcDbLine
 10
487.52444815602212
 20
-533.05454474855651
 30
0.0
 11
440.37067428893351
 21
-533.05454474855651
 31
0.0
  0
LINE
  5
156
100
AcDbEntity
  8
ADF70-0902
370
              15
390
0
  6
STYLE_23
 62
               7
100
AcDbLine
 10
502.06948426209783
 20
-520.92219788355214
 30
0.0
 11
463.94756122247782
 21
-520.92219788355214
 31
0.0
  0
LINE
  5
157
100
AcDbEntity
  8
ADF70-0902
370
              15
390
0
  6
Continuous
 62
               7
100
AcDbLine
 10
617.65685081405172
 20
-400.92219788354851
 30
0.0
 11
310.23827163090755
 21
-400.92219788354851
 31
0.0
  0
LINE
  5
158
100
AcDbEntity
  8
ADF70-0902
370
              15
390
0
  6
STYLE_23
 62
               7
100
AcDbLine
 10
425.8256381828578
 20
-520.92219788355214
 30
0.0
 11
463.94756122247782
 21
-520.92219788355214
 31
0.0
  0
LINE
  5
159
100
AcDbEntity
  8
ADF70-0902
370
              15
390
0
  6
Continuous
 62
               7
100
AcDbLine
 10
-416.78481585262125
 20
-400.92219788355214
 30
0.0
 11
-704.20339503575815
 21
-400.92219788355214
 31
0.0
  0
LINE
  5
15A
100
AcDbEntity
  8
ADF70-0902
370
              15
390
0
  6
Continuous
 62
               7
100
AcDbLine
 10
-649.97796952551289
 20
-550.92219788355214
 30
0.0
 11
-251.00992886286622
 21
-550.92219788355214
 31
0.0
  0
LINE
  5
15B
100
AcDbEntity
  8
ADF70-0902
370
              15
390
0
  6
Continuous
 62
               7
100
AcDbLine
 10
-416.78481585262125
 20
-400.92219788355214
 30
0.0
 11
-704.20339503575815
 21
-400.92219788355214
 31
0.0
  0
LINE
  5
15C
100
AcDbEntity
  8
ADF70-0902
370
              15
390
0
  6
Continuous
 62
               7
100
AcDbLine
 10
-704.20339503575815
 20
-400.92219788355214
 30
0.0
 11
-196.78481585262125
 21
-400.92219788355214
 31
0.0
  0
LINE
  5
15D
100
AcDbEntity
  8
ADF70-0902
370
              15
390
0
  6
STYLE_23
 62
               7
100
AcDbLine
 10
-473.49410544418788
 20
-545.92219788355214
 30
0.0
 11
-427.49410544418788
 21
-545.92219788355214
 31
0.0
  0
LINE
  5
15E
100
AcDbEntity
  8
ADF70-0902
370
              15
390
0
  6
STYLE_23
 62
               7
100
AcDbLine
 10
-426.91721851064358
 20
-533.05454474855924
 30
0.0
 11
-474.07099237773218
 21
-533.05454474855924
 31
0.0
  0
LINE
  5
15F
100
AcDbEntity
  8
ADF70-0902
370
              15
390
0
  6
STYLE_23
 62
               7
100
AcDbLine
 10
-412.37218240456787
 20
-520.92219788355305
 30
0.0
 11
-450.49410544418788
 21
-520.92219788355214
 31
0.0
  0
LINE
  5
160
100
AcDbEntity
  8
ADF70-0902
370
              15
390
0
  6
STYLE_23
 62
               7
100
AcDbLine
 10
-450.49410544418788
 20
-520.92219788355214
 30
0.0
 11
-488.61602848381153
 21
-520.92219788355214
 31
0.0
  0
LINE
  5
161
100
AcDbEntity
  8
ADF70-0902
370
              15
390
0
  6
STYLE_23
 62
               7
100
AcDbLine
 10
-450.49410544418788
 20
-520.92219788355214
 30
0.0
 11
-412.37218240456787
 21
-520.92219788355214
 31
0.0
  0
ARC
  5
162
100
AcDbEntity
  8
ADF70-0902
370
              15
390
0
  6
Continuous
 62
               7
100
AcDbCircle
 10
-251.00992886286622
 20
-545.92219788356579
 30
0.0
 40
4.9999999999863576
100
AcDbArc
 50
270.0
 51
323.71254291480989
  0
ARC
  5
163
100
AcDbEntity
  8
ADF70-0902
370
              15
390
0
  6
Continuous
 62
               7
100
AcDbCircle
 10
-448.49410544430793
 20
-400.92219788349348
 30
0.0
 40
250.00000000013063
100
AcDbArc
 50
323.71254291484246
 51
342.54239687627944
  0
ARC
  5
164
100
AcDbEntity
  8
ADF70-0902
370
              15
390
0
  6
Continuous
 62
               7
100
AcDbCircle
 10
-190.70696780672006
 20
-470.92219788354032
 30
0.0
 40
5.0000000000109139
100
AcDbArc
 50
270.0
 51
343.39845040104797
  0
ARC
  5
165
100
AcDbEntity
  8
ADF70-0902
370
              15
390
0
  6
Continuous
 62
               7
100
AcDbCircle
 10
-425.49410544419516
 20
-400.92219788355305
 30
0.0
 40
250.00000000000406
100
AcDbArc
 50
343.39845040097532
 51
358.83061719439979
  0
ARC
  5
166
100
AcDbEntity
  8
ADF70-0902
370
              15
390
0
  6
Continuous
 62
               7
100
AcDbCircle
 10
-180.54513116587259
 20
-405.92219788355123
 30
0.0
 40
4.9999999999986633
100
AcDbArc
 50
358.83061719439894
 51
90.0
  0
LINE
  5
167
100
AcDbEntity
  8
ADF70-0902
370
              15
390
0
  6
Continuous
 62
               7
100
AcDbLine
 10
-180.54513116587259
 20
-400.92219788355123
 30
0.0
 11
-196.78481585262125
 21
-400.92219788355123
 31
0.0
  0
LWPOLYLINE
  5
168
100
AcDbEntity
  8
ADF70-0902
370
              15
390
0
  6
STYLE_23
 62
               7
100
AcDbPolyline
 90
        6
 70
             128
 10
-196.78481585262125
 20
-400.92219788355169
 42
0.3280853157483814
 10
-201.55746659178476
 20
-404.43162587183269
 42
-0.0539979982281969
 10
-239.06181104264033
 20
-474.1793648996686
 42
-0.2380624130479404
 10
-318.05576744923019
 20
-517.55156779184654
 10
-410.98622949885976
 20
-520.77707277262652
 42
0.1792119494308762
 10
-414.25609816591168
 20
-521.94653772383253
 42
0.1792119494308762
  0
LINE
  5
169
100
AcDbEntity
  8
ADF70-0902
370
              15
390
0
  6
STYLE_23
 62
               7
100
AcDbLine
 10
-414.25609816591168
 20
-521.94653772383481
 30
0.0
 11
-425.70804349262107
 21
-531.55586082373884
 31
0.0
  0
ARC
  5
16A
100
AcDbEntity
  8
ADF70-0902
370
              15
390
0
  6
STYLE_23
 62
               7
100
AcDbCircle
 10
-422.49410544418788
 20
-535.38608303933415
 30
0.0
 40
4.999999999999349
100
AcDbArc
 50
129.99999999995927
 51
180.0
  0
LINE
  5
16B
100
AcDbEntity
  8
ADF70-0902
370
              15
390
0
  6
STYLE_23
 62
               7
100
AcDbLine
 10
-427.49410544418788
 20
-535.38608303933415
 30
0.0
 11
-427.49410544418788
 21
-545.92219788355214
 31
0.0
  0
ARC
  5
16C
100
AcDbEntity
  8
ADF70-0902
370
              15
390
0
  6
Continuous
 62
               7
100
AcDbCircle
 10
-649.97828202551318
 20
-545.92219788356579
 30
0.0
 40
4.9999999999849747
100
AcDbArc
 50
216.28745708521055
 51
270.0
  0
ARC
  5
16D
100
AcDbEntity
  8
ADF70-0902
370
              15
390
0
  6
Continuous
 62
               7
100
AcDbCircle
 10
-452.49410544407147
 20
-400.92219788349348
 30
0.0
 40
250.00000000012813
100
AcDbArc
 50
197.45760312372991
 51
216.28745708515794
  0
LINE
  5
16E
100
AcDbEntity
  8
ADF70-0902
370
              15
390
0
  6
Continuous
 62
               7
100
AcDbLine
 10
-190.0
 20
-475.92219788355123
 30
0.0
 11
-710.28124308166662
 21
-475.92219788355123
 31
0.0
  0
ARC
  5
16F
100
AcDbEntity
  8
ADF70-0902
370
              15
390
0
  6
Continuous
 62
               7
100
AcDbCircle
 10
-710.28124308165934
 20
-470.92219788354032
 30
0.0
 40
5.0000000000108713
100
AcDbArc
 50
196.601549598952
 51
270.0
  0
ARC
  5
170
100
AcDbEntity
  8
ADF70-0902
370
              15
390
0
  6
Continuous
 62
               7
100
AcDbCircle
 10
-475.49410544418424
 20
-400.92219788355305
 30
0.0
 40
250.00000000000583
100
AcDbArc
 50
181.16938280560021
 51
196.60154959902476
  0
ARC
  5
171
100
AcDbEntity
  8
ADF70-0902
370
              15
390
0
  6
Continuous
 62
               7
100
AcDbCircle
 10
-720.44307972250681
 20
-405.92219788355123
 30
0.0
 40
5.0000000000004547
100
AcDbArc
 50
90.0
 51
181.16938280560109
  0
LINE
  5
172
100
AcDbEntity
  8
ADF70-0902
370
              15
390
0
  6
Continuous
 62
               7
100
AcDbLine
 10
-720.44307972250681
 20
-400.92219788355123
 30
0.0
 11
-704.20339503575815
 21
-400.92219788355123
 31
0.0
  0
LWPOLYLINE
  5
173
100
AcDbEntity
  8
ADF70-0902
370
              15
390
0
  6
STYLE_23
 62
               7
100
AcDbPolyline
 90
        6
 70
             128
 10
-486.73211272246772
 20
-521.94653772383344
 42
0.1792119494308417
 10
-490.001981389516
 20
-520.77707277262698
 10
-582.93244343914921
 20
-517.55156779184745
 42
-0.2380624130473888
 10
-661.92639984585185
 20
-474.17936489949898
 42
-0.0539979982281738
 10
-699.43074429668559
 20
-404.43162587159804
 42
0.3280853157348176
 10
-704.20339503575815
 20
-400.92219788355169
 42
0.3280853157348176
  0
LINE
  5
174
100
AcDbEntity
  8
ADF70-0902
370
              15
390
0
  6
STYLE_23
 62
               7
100
AcDbLine
 10
-486.73211272246408
 20
-521.94653772383481
 30
0.0
 11
-475.28016739575833
 21
-531.55586082373884
 31
0.0
  0
ARC
  5
175
100
AcDbEntity
  8
ADF70-0902
370
              15
390
0
  6
STYLE_23
 62
               7
100
AcDbCircle
 10
-478.49410544419152
 20
-535.38608303933415
 30
0.0
 40
5.0
100
AcDbArc
 50
0.0
 51
50.000000000012164
  0
LINE
  5
176
100
AcDbEntity
  8
ADF70-0902
370
              15
390
0
  6
STYLE_23
 62
               7
100
AcDbLine
 10
-473.49410544418788
 20
-535.38608303933415
 30
0.0
 11
-473.49410544418788
 21
-545.92219788355214
 31
0.0
  0
LINE
  5
177
100
AcDbEntity
  8
ADF70-0902
370
              15
390
0
  6
STYLE_23
 62
               7
100
AcDbLine
 10
486.94756122248145
 20
-545.92219788355214
 30
0.0
 11
441.0
 21
-545.92219788355214
 31
0.0
  0
LINE
  5
178
100
AcDbEntity
  8
ADF70-0902
370
              15
390
0
  6
STYLE_23
 62
               7
100
AcDbLine
 10
440.37067428893351
 20
-533.05454474855651
 30
0.0
 11
487.52444815602212
 21
-533.05454474855651
 31
0.0
  0
LINE
  5
179
100
AcDbEntity
  8
ADF70-0902
370
              15
390
0
  6
STYLE_23
 62
               7
100
AcDbLine
 10
425.8256381828578
 20
-520.92219788355214
 30
0.0
 11
463.94756122247782
 21
-520.92219788355214
 31
0.0
  0
LINE
  5
17A
100
AcDbEntity
  8
ADF70-0902
370
              15
390
0
  6
STYLE_23
 62
               7
100
AcDbLine
 10
440.94756122247782
 20
-543.92219788355214
 30
0.0
 11
440.94756122247782
 21
-535.38608303933142
 31
0.0
  0
ARC
  5
17B
100
AcDbEntity
  8
ADF70-0902
370
              15
390
0
  6
STYLE_23
 62
               7
100
AcDbCircle
 10
435.94756122247782
 20
-535.38608303933142
 30
0.0
 40
5.0
100
AcDbArc
 50
0.0
 51
50.000000000050761
  0
LINE
  5
17C
100
AcDbEntity
  8
ADF70-0902
370
              15
390
0
  6
STYLE_23
 62
               7
100
AcDbLine
 10
439.16149927091101
 20
-531.55586082373702
 30
0.0
 11
428.61180775216781
 21
-522.70361856132513
 31
0.0
  0
ARC
  5
17D
100
AcDbEntity
  8
ADF70-0902
370
              15
390
0
  6
STYLE_23
 62
               7
100
AcDbCircle
 10
422.18393165530142
 20
-530.36406299251394
 30
0.0
 40
9.9999999999984492
100
AcDbArc
 50
50.000000000066777
 51
76.096572592665964
  0
ARC
  5
17E
100
AcDbEntity
  8
ADF70-0902
370
              15
390
0
  6
STYLE_23
 62
               7
100
AcDbCircle
 10
310.23827163090755
 20
-405.92219788354851
 30
0.0
 40
5.0000000000022764
100
AcDbArc
 50
17.344384905390829
 51
90.0
  0
LINE
  5
17F
100
AcDbEntity
  8
ADF70-0902
370
              15
390
0
  6
Continuous
 62
               7
100
AcDbLine
 10
310.23827163090755
 20
-400.92219788354851
 30
0.0
 11
293.99858694416253
 21
-400.92219788355214
 31
0.0
  0
ARC
  5
180
100
AcDbEntity
  8
ADF70-0902
370
              15
390
0
  6
Continuous
 62
               7
100
AcDbCircle
 10
293.99858694416253
 20
-405.92219788355214
 30
0.0
 40
5.0
100
AcDbArc
 50
90.0
 51
181.16938280562624
  0
ARC
  5
181
100
AcDbEntity
  8
ADF70-0902
370
              15
390
0
  6
Continuous
 62
               7
100
AcDbCircle
 10
538.94756122248509
 20
-400.92219788355214
 30
0.0
 40
250.00000000000458
100
AcDbArc
 50
181.16938280562678
 51
196.60154959899214
  0
ARC
  5
182
100
AcDbEntity
  8
ADF70-0902
370
              15
390
0
  6
Continuous
 62
               7
100
AcDbCircle
 10
304.16042358500999
 20
-470.92219788353759
 30
0.0
 40
5.0000000000119105
100
AcDbArc
 50
196.60154959899197
 51
269.99999999987494
  0
LINE
  5
183
100
AcDbEntity
  8
ADF70-0902
370
              15
390
0
  6
Continuous
 62
               7
100
AcDbLine
 10
304.16042358499908
 20
-475.92219788354851
 30
0.0
 11
624.0
 21
-475.92219788354851
 31
0.0
  0
ARC
  5
184
100
AcDbEntity
  8
ADF70-0902
370
              15
390
0
  6
Continuous
 62
               7
100
AcDbCircle
 10
554.79274088483726
 20
-380.02783232439606
 30
0.0
 40
250.00000000013398
100
AcDbArc
 50
202.55545573291863
 51
222.48632323787876
  0
ARC
  5
185
100
AcDbEntity
  8
ADF70-0902
370
              15
390
0
  6
Continuous
 62
               7
100
AcDbCircle
 10
374.46338464115615
 20
-545.9221978835667
 30
0.0
 40
4.9999999999850031
100
AcDbArc
 50
216.28745708528146
 51
270.00000000008339
  0
LINE
  5
186
100
AcDbEntity
  8
ADF70-0902
370
              15
390
0
  6
STYLE_23
 62
               7
100
AcDbLine
 10
486.94756122248145
 20
-545.92219788355214
 30
0.0
 11
486.94756122248145
 21
-535.38608303933142
 31
0.0
  0
ARC
  5
187
100
AcDbEntity
  8
ADF70-0902
370
              15
390
0
  6
STYLE_23
 62
               7
100
AcDbCircle
 10
491.94756122248145
 20
-535.38608303933142
 30
0.0
 40
5.0000000000003944
100
AcDbArc
 50
129.99999999994921
 51
180.0
  0
LINE
  5
188
100
AcDbEntity
  8
ADF70-0902
370
              15
390
0
  6
STYLE_23
 62
               7
100
AcDbLine
 10
488.73362317404826
 20
-531.55586082373702
 30
0.0
 11
499.28331469279146
 21
-522.70361856132513
 31
0.0
  0
ARC
  5
189
100
AcDbEntity
  8
ADF70-0902
370
              15
390
0
  6
STYLE_23
 62
               7
100
AcDbCircle
 10
505.71119078965785
 20
-530.36406299251394
 30
0.0
 40
10.000000000001325
100
AcDbArc
 50
103.90342740733217
 51
129.99999999994418
  0
ARC
  5
18A
100
AcDbEntity
  8
ADF70-0902
370
              15
390
0
  6
Continuous
 62
               7
100
AcDbCircle
 10
553.43173780380312
 20
-545.9221978835667
 30
0.0
 40
4.9999999999854481
100
AcDbArc
 50
269.99999999991667
 51
323.7125429147186
  0
LINE
  5
18B
100
AcDbEntity
  8
ADF70-0902
370
              15
390
0
  6
Continuous
 62
               7
100
AcDbLine
 10
553.43173780379584
 20
-550.92219788355214
 30
0.0
 11
374.46369714115281
 21
-550.92219788355214
 31
0.0
  0
CIRCLE
  5
18C
100
AcDbEntity
  8
ADF70-0902
370
               5
390
0
  6
STYLE_23
 62
               7
100
AcDbCircle
 10
463.94756122247782
 20
650.0
 30
0.0
 40
23.0
  0
ARC
  5
18D
100
AcDbEntity
  8
ADF70-0902
370
               5
390
0
  6
STYLE_23
 62
               7
100
AcDbCircle
 10
573.94756122247782
 20
650.0
 30
0.0
 40
165.0
100
AcDbArc
 50
270.0
 51
90.0
  0
ARC
  5
18E
100
AcDbEntity
  8
ADF70-0902
370
               5
390
0
  6
STYLE_23
 62
               7
100
AcDbCircle
 10
353.94756122247782
 20
650.0
 30
0.0
 40
165.0
100
AcDbArc
 50
90.0
 51
270.0
  0
LINE
  5
18F
100
AcDbEntity
  8
ADF70-0902
370
               5
390
0
  6
STYLE_23
 62
               7
100
AcDbLine
 10
573.94756122247782
 20
485.0
 30
0.0
 11
353.94756122247782
 21
485.0
 31
0.0
  0
LINE
  5
190
100
AcDbEntity
  8
ADF70-0902
370
               5
390
0
  6
STYLE_23
 62
               7
100
AcDbLine
 10
353.94756122247782
 20
815.0
 30
0.0
 11
573.94756122247782
 21
815.0
 31
0.0
  0
CIRCLE
  5
191
100
AcDbEntity
  8
ADF70-0902
370
              15
390
0
  6
Continuous
 62
               7
100
AcDbCircle
 10
463.94756122247782
 20
650.0
 30
0.0
 40
50.0
  0
ARC
  5
192
100
AcDbEntity
  8
ADF70-0902
370
              15
390
0
  6
Continuous
 62
               7
100
AcDbCircle
 10
353.94756122247782
 20
650.0
 30
0.0
 40
140.0
100
AcDbArc
 50
90.0
 51
270.0
  0
ARC
  5
193
100
AcDbEntity
  8
ADF70-0902
370
              15
390
0
  6
Continuous
 62
               7
100
AcDbCircle
 10
573.94756122247782
 20
650.0
 30
0.0
 40
140.0
100
AcDbArc
 50
270.0
 51
90.0
  0
LINE
  5
194
100
AcDbEntity
  8
ADF70-0902
370
              15
390
0
  6
Continuous
 62
               7
100
AcDbLine
 10
573.94756122247782
 20
510.0
 30
0.0
 11
353.94756122247782
 21
510.0
 31
0.0
  0
LINE
  5
195
100
AcDbEntity
  8
ADF70-0902
370
              15
390
0
  6
Continuous
 62
               7
100
AcDbLine
 10
353.94756122247782
 20
790.0
 30
0.0
 11
573.94756122247782
 21
790.0
 31
0.0
  0
ARC
  5
196
100
AcDbEntity
  8
ADF70-0902
370
              15
390
0
  6
Continuous
 62
               7
100
AcDbCircle
 10
-350.46915005057599
 20
650.0
 30
0.0
 40
150.0
100
AcDbArc
 50
270.0
 51
90.0
  0
ARC
  5
197
100
AcDbEntity
  8
ADF70-0902
370
              15
390
0
  6
Continuous
 62
               7
100
AcDbCircle
 10
-550.46915005057599
 20
650.0
 30
0.0
 40
150.0
100
AcDbArc
 50
90.0
 51
270.0
  0
SPLINE
  5
198
100
AcDbEntity
  8
ADF70-0902
370
              15
390
0
  6
STYLE_23
 62
               7
100
AcDbSpline
210
0.0
220
0.0
230
1.0
 70
               8
 71
               2
 72
               6
 73
               3
 74
               0
 42
0.000001
 43
0.000001
 40
0.0
 40
0.0
 40
0.0
 40
1.0
 40
1.0
 40
1.0
 10
424.58679275392205
 20
-520.65704189741564
 30
0.0
 10
363.66193523809125
 20
-509.31883170647507
 30
0.0
 10
315.01092236998375
 20
-404.43162587159532
 30
0.0
  0
LINE
  5
199
100
AcDbEntity
  8
ADF70-0902
370
              15
390
0
  6
STYLE_23
 62
               7
100
AcDbLine
 10
440.94756122247782
 20
-545.92219788355214
 30
0.0
 11
440.94756122247782
 21
-535.38608303933142
 31
0.0
  0
ARC
  5
19A
100
AcDbEntity
  8
ADF70-0902
370
              15
390
0
  6
STYLE_23
 62
               7
100
AcDbCircle
 10
617.65685081405172
 20
-405.92219788354851
 30
0.0
 40
5.0
100
AcDbArc
 50
90.0
 51
162.65561509460917
  0
LINE
  5
19B
100
AcDbEntity
  8
ADF70-0902
370
              15
390
0
  6
Continuous
 62
               7
100
AcDbLine
 10
617.65685081404808
 20
-400.92219788354851
 30
0.0
 11
633.89653550079674
 21
-400.92219788355214
 31
0.0
  0
ARC
  5
19C
100
AcDbEntity
  8
ADF70-0902
370
              15
390
0
  6
Continuous
 62
               7
100
AcDbCircle
 10
633.89653550079674
 20
-405.92219788355214
 30
0.0
 40
5.0000000000023466
100
AcDbArc
 50
358.83061719437376
 51
90.0
  0
ARC
  5
19D
100
AcDbEntity
  8
ADF70-0902
370
              15
390
0
  6
Continuous
 62
               7
100
AcDbCircle
 10
388.94756122247418
 20
-400.92219788355214
 30
0.0
 40
250.00000000000384
100
AcDbArc
 50
343.39845040100766
 51
358.83061719437325
  0
ARC
  5
19E
100
AcDbEntity
  8
ADF70-0902
370
              15
390
0
  6
Continuous
 62
               7
100
AcDbCircle
 10
623.73469885994928
 20
-470.92219788353759
 30
0.0
 40
5.0000000000113687
100
AcDbArc
 50
270.00000000012511
 51
343.39845040100801
  0
ARC
  5
19F
100
AcDbEntity
  8
ADF70-0902
370
              15
390
0
  6
Continuous
 62
               7
100
AcDbCircle
 10
373.10238156012201
 20
-380.02783232439606
 30
0.0
 40
250.00000000013245
100
AcDbArc
 50
317.51367676212124
 51
337.44454426706903
  0
SPLINE
  5
1A0
100
AcDbEntity
  8
ADF70-0902
370
              15
390
0
  6
STYLE_23
 62
               7
100
AcDbSpline
210
0.0
220
0.0
230
1.0
 70
               8
 71
               2
 72
               6
 73
               3
 74
               0
 42
0.000001
 43
0.000001
 40
0.0
 40
0.0
 40
0.0
 40
1.0
 40
1.0
 40
1.0
 10
503.30832969103722
 20
-520.65704189741564
 30
0.0
 10
564.23318720686802
 20
-509.31883170647507
 30
0.0
 10
612.88420007497552
 20
-404.43162587159532
 30
0.0
  0
ENDSEC
  0
SECTION
  2
OBJECTS
  0
DICTIONARY
  5
19
100
AcDbDictionary
280
               0
281
               1
  3
ACAD_GROUP
350
1A
  3
ACAD_MLINESTYLE
350
1B
  3
ACAD_LAYOUT
350
1E
  3
ACAD_PLOTSETTINGS
350
22
  3
ACAD_PLOTSTYLENAME
350
1F
  0
DICTIONARY
  5
1A
102
{ACAD_REACTORS
330
19
102
}
100
AcDbDictionary
280
               0
281
               1
  0
DICTIONARY
  5
1B
102
{ACAD_REACTORS
330
19
102
}
100
AcDbDictionary
280
               0
281
               1
  3
Standard
350
1C
  0
MLINESTYLE
  5
1C
102
{ACAD_REACTORS
330
1B
102
}
100
AcDbMlineStyle
  2
Standard
 70
               0
  3

 62
               0
 51
90.0
 52
90.0
 71
               2
 49
0.5
 62
             256
  6
ByLayer
 49
-0.5
 62
             256
  6
ByLayer
  0
ACDBDICTIONARYWDFLT
  5
1F
102
{ACAD_REACTORS
330
19
102
}
100
AcDbDictionary
281
               1
  3
Normal
350
1D
100
AcDbDictionaryWithDefault
340
1D
  0
ACDBPLACEHOLDER
  5
1D
102
{ACAD_REACTORS
330
1F
102
}
  0
LAYOUT
  5
20
102
{ACAD_REACTORS
330
1E
102
}
100
AcDbPlotSettings
  1

  2

  4

  6

 40
0.0
 41
0.0
 42
0.0
 43
0.0
 44
0.0
 45
0.0
 46
0.0
 47
0.0
 48
0.0
 49
0.0
140
0.0
141
0.0
142
1.0
143
1.0
 70
            1024
 72
               0
 73
               0
 74
               0
  7

 75
               0
147
1.0
148
0.0
149
0.0
100
AcDbLayout
  1
Model
 70
               0
 71
               0
 10
0.0
 20
0.0
 11
0.0
 21
0.0
 12
0.0
 22
0.0
 32
0.0
 14
0.0
 24
0.0
 34
0.0
 15
0.0
 25
0.0
 35
0.0
146
0.0
 13
0.0
 23
0.0
 33
0.0
 16
0.0
 26
0.0
 36
0.0
 17
0.0
 27
0.0
 37
0.0
 76
               0
330
A
331
0
345
0
346
0
  0
LAYOUT
  5
21
102
{ACAD_REACTORS
330
1E
102
}
100
AcDbPlotSettings
  1

  2

  4

  6

 40
0.0
 41
0.0
 42
0.0
 43
0.0
 44
0.0
 45
0.0
 46
0.0
 47
0.0
 48
0.0
 49
0.0
140
0.0
141
0.0
142
1.0
143
1.0
 70
               0
 72
               0
 73
               0
 74
               0
  7

 75
               0
147
1.0
148
0.0
149
0.0
100
AcDbLayout
  1
Layout1
 70
               0
 71
               0
 10
0.0
 20
0.0
 11
0.0
 21
0.0
 12
0.0
 22
0.0
 32
0.0
 14
0.0
 24
0.0
 34
0.0
 15
0.0
 25
0.0
 35
0.0
146
0.0
 13
0.0
 23
0.0
 33
0.0
 16
0.0
 26
0.0
 36
0.0
 17
0.0
 27
0.0
 37
0.0
 76
               0
330
B
331
0
345
0
346
0
  0
DICTIONARY
  5
1E
102
{ACAD_REACTORS
330
19
102
}
100
AcDbDictionary
280
               0
281
               1
  3
Layout1
350
21
  3
Model
350
20
  0
DICTIONARY
  5
22
102
{ACAD_REACTORS
330
19
102
}
100
AcDbDictionary
280
               0
281
               1
  0
ENDSEC
  0
EOF
